  0
SECTION
  2
HEADER
  9
$ACADVER
  1
AC1015
  9
$ACADMAINTVER
 70
     6
  9
$DWGCODEPAGE
  3
ANSI_949
  9
$INSBASE
 10
0.0
 20
0.0
 30
0.0
  9
$EXTMIN
 10
-94.48750000000007
 20
-49.97180738881175
 30
0.0
  9
$EXTMAX
 10
104.1441250329551
 20
51.94818701882802
 30
0.0
  9
$LIMMIN
 10
0.0
 20
0.0
  9
$LIMMAX
 10
420.0
 20
297.0
  9
$ORTHOMODE
 70
     1
  9
$REGENMODE
 70
     1
  9
$FILLMODE
 70
     1
  9
$QTEXTMODE
 70
     0
  9
$MIRRTEXT
 70
     1
  9
$LTSCALE
 40
1.0
  9
$ATTMODE
 70
     1
  9
$TEXTSIZE
 40
3.5
  9
$TRACEWID
 40
1.0
  9
$TEXTSTYLE
  7
Standard
  9
$CLAYER
  8
0
  9
$CELTYPE
  6
ByLayer
  9
$CECOLOR
 62
   256
  9
$CELTSCALE
 40
1.0
  9
$DISPSILH
 70
     0
  9
$DIMSCALE
 40
1.0
  9
$DIMASZ
 40
3.302
  9
$DIMEXO
 40
1.0
  9
$DIMDLI
 40
3.75
  9
$DIMRND
 40
0.0
  9
$DIMDLE
 40
0.0
  9
$DIMEXE
 40
1.0
  9
$DIMTP
 40
0.0
  9
$DIMTM
 40
0.0
  9
$DIMTXT
 40
3.5
  9
$DIMCEN
 40
2.5
  9
$DIMTSZ
 40
0.0
  9
$DIMTOL
 70
     0
  9
$DIMLIM
 70
     0
  9
$DIMTIH
 70
     1
  9
$DIMTOH
 70
     1
  9
$DIMSE1
 70
     0
  9
$DIMSE2
 70
     0
  9
$DIMTAD
 70
     1
  9
$DIMZIN
 70
     0
  9
$DIMBLK
  1

  9
$DIMASO
 70
     1
  9
$DIMSHO
 70
     1
  9
$DIMPOST
  1

  9
$DIMAPOST
  1

  9
$DIMALT
 70
     0
  9
$DIMALTD
 70
     3
  9
$DIMALTF
 40
0.0393700787401575
  9
$DIMLFAC
 40
1.0
  9
$DIMTOFL
 70
     1
  9
$DIMTVP
 40
0.0
  9
$DIMTIX
 70
     0
  9
$DIMSOXD
 70
     0
  9
$DIMSAH
 70
     0
  9
$DIMBLK1
  1

  9
$DIMBLK2
  1

  9
$DIMSTYLE
  2
ISO-25
  9
$DIMCLRD
 70
     0
  9
$DIMCLRE
 70
     0
  9
$DIMCLRT
 70
     0
  9
$DIMTFAC
 40
1.0
  9
$DIMGAP
 40
1.524
  9
$DIMJUST
 70
     0
  9
$DIMSD1
 70
     0
  9
$DIMSD2
 70
     0
  9
$DIMTOLJ
 70
     0
  9
$DIMTZIN
 70
     0
  9
$DIMALTZ
 70
     0
  9
$DIMALTTZ
 70
     0
  9
$DIMUPT
 70
     0
  9
$DIMDEC
 70
     2
  9
$DIMTDEC
 70
     2
  9
$DIMALTU
 70
     2
  9
$DIMALTTD
 70
     3
  9
$DIMTXSTY
  7
Standard
  9
$DIMAUNIT
 70
     0
  9
$DIMADEC
 70
     2
  9
$DIMALTRND
 40
0.0
  9
$DIMAZIN
 70
     0
  9
$DIMDSEP
 70
    44
  9
$DIMATFIT
 70
     3
  9
$DIMFRAC
 70
     0
  9
$DIMLDRBLK
  1

  9
$DIMLUNIT
 70
     2
  9
$DIMLWD
 70
    -2
  9
$DIMLWE
 70
    -2
  9
$DIMTMOVE
 70
     0
  9
$LUNITS
 70
     2
  9
$LUPREC
 70
     2
  9
$SKETCHINC
 40
1.0
  9
$FILLETRAD
 40
10.0
  9
$AUNITS
 70
     0
  9
$AUPREC
 70
     2
  9
$MENU
  1
.
  9
$ELEVATION
 40
0.0
  9
$PELEVATION
 40
0.0
  9
$THICKNESS
 40
0.0
  9
$LIMCHECK
 70
     0
  9
$CHAMFERA
 40
0.0
  9
$CHAMFERB
 40
0.0
  9
$CHAMFERC
 40
0.0
  9
$CHAMFERD
 40
0.0
  9
$SKPOLY
 70
     0
  9
$TDCREATE
 40
2458313.401818403
  9
$TDUCREATE
 40
2458313.026818403
  9
$TDUPDATE
 40
2458330.777277187
  9
$TDUUPDATE
 40
2458330.402277187
  9
$TDINDWG
 40
0.002037037
  9
$TDUSRTIMER
 40
2458330.402237315
  9
$USRTIMER
 70
     1
  9
$ANGBASE
 50
0.0
  9
$ANGDIR
 70
     0
  9
$PDMODE
 70
     0
  9
$PDSIZE
 40
-1.0
  9
$PLINEWID
 40
0.0
  9
$SPLFRAME
 70
     0
  9
$SPLINETYPE
 70
     6
  9
$SPLINESEGS
 70
     8
  9
$HANDSEED
  5
247
  9
$SURFTAB1
 70
     6
  9
$SURFTAB2
 70
     6
  9
$SURFTYPE
 70
     6
  9
$SURFU
 70
     6
  9
$SURFV
 70
     6
  9
$UCSBASE
  2

  9
$UCSNAME
  2

  9
$UCSORG
 10
0.0
 20
0.0
 30
0.0
  9
$UCSXDIR
 10
1.0
 20
0.0
 30
0.0
  9
$UCSYDIR
 10
0.0
 20
1.0
 30
0.0
  9
$UCSORTHOREF
  2

  9
$UCSORTHOVIEW
 70
     0
  9
$UCSORGTOP
 10
0.0
 20
0.0
 30
0.0
  9
$UCSORGBOTTOM
 10
0.0
 20
0.0
 30
0.0
  9
$UCSORGLEFT
 10
0.0
 20
0.0
 30
0.0
  9
$UCSORGRIGHT
 10
0.0
 20
0.0
 30
0.0
  9
$UCSORGFRONT
 10
0.0
 20
0.0
 30
0.0
  9
$UCSORGBACK
 10
0.0
 20
0.0
 30
0.0
  9
$PUCSBASE
  2

  9
$PUCSNAME
  2

  9
$PUCSORG
 10
0.0
 20
0.0
 30
0.0
  9
$PUCSXDIR
 10
1.0
 20
0.0
 30
0.0
  9
$PUCSYDIR
 10
0.0
 20
1.0
 30
0.0
  9
$PUCSORTHOREF
  2

  9
$PUCSORTHOVIEW
 70
     0
  9
$PUCSORGTOP
 10
0.0
 20
0.0
 30
0.0
  9
$PUCSORGBOTTOM
 10
0.0
 20
0.0
 30
0.0
  9
$PUCSORGLEFT
 10
0.0
 20
0.0
 30
0.0
  9
$PUCSORGRIGHT
 10
0.0
 20
0.0
 30
0.0
  9
$PUCSORGFRONT
 10
0.0
 20
0.0
 30
0.0
  9
$PUCSORGBACK
 10
0.0
 20
0.0
 30
0.0
  9
$USERI1
 70
     0
  9
$USERI2
 70
     0
  9
$USERI3
 70
     0
  9
$USERI4
 70
     0
  9
$USERI5
 70
     0
  9
$USERR1
 40
0.0
  9
$USERR2
 40
0.0
  9
$USERR3
 40
0.0
  9
$USERR4
 40
0.0
  9
$USERR5
 40
0.0
  9
$WORLDVIEW
 70
     1
  9
$SHADEDGE
 70
     3
  9
$SHADEDIF
 70
    70
  9
$TILEMODE
 70
     1
  9
$MAXACTVP
 70
    64
  9
$PINSBASE
 10
0.0
 20
0.0
 30
0.0
  9
$PLIMCHECK
 70
     0
  9
$PEXTMIN
 10
1.000000000000000E+20
 20
1.000000000000000E+20
 30
1.000000000000000E+20
  9
$PEXTMAX
 10
-1.000000000000000E+20
 20
-1.000000000000000E+20
 30
-1.000000000000000E+20
  9
$PLIMMIN
 10
0.0
 20
0.0
  9
$PLIMMAX
 10
0.0
 20
0.0
  9
$UNITMODE
 70
     0
  9
$VISRETAIN
 70
     1
  9
$PLINEGEN
 70
     0
  9
$PSLTSCALE
 70
     1
  9
$TREEDEPTH
 70
  3020
  9
$CMLSTYLE
  2
Standard
  9
$CMLJUST
 70
     0
  9
$CMLSCALE
 40
20.0
  9
$PROXYGRAPHICS
 70
     1
  9
$MEASUREMENT
 70
     1
  9
$CELWEIGHT
370
    -1
  9
$ENDCAPS
280
     0
  9
$JOINSTYLE
280
     0
  9
$LWDISPLAY
290
     1
  9
$INSUNITS
 70
     4
  9
$HYPERLINKBASE
  1

  9
$STYLESHEET
  1

  9
$XEDIT
290
     1
  9
$CEPSNTYPE
380
     0
  9
$PSTYLEMODE
290
     1
  9
$FINGERPRINTGUID
  2
{A321845B-D1C5-46B9-B919-CF32823566A6}
  9
$VERSIONGUID
  2
{FAEB1C32-E019-11D5-929B-00C0DF256EC4}
  9
$EXTNAMES
290
     1
  9
$PSVPSCALE
 40
0.0
  9
$OLESTARTUP
290
     0
  0
ENDSEC
  0
SECTION
  2
CLASSES
  0
CLASS
  1
ACDBDICTIONARYWDFLT
  2
AcDbDictionaryWithDefault
  3
ObjectDBX Classes
 90
        0
280
     0
281
     0
  0
CLASS
  1
VISUALSTYLE
  2
AcDbVisualStyle
  3
ObjectDBX Classes
 90
     4095
280
     0
281
     0
  0
CLASS
  1
MATERIAL
  2
AcDbMaterial
  3
ObjectDBX Classes
 90
     1153
280
     0
281
     0
  0
CLASS
  1
SCALE
  2
AcDbScale
  3
ObjectDBX Classes
 90
     1153
280
     0
281
     0
  0
CLASS
  1
SUN
  2
AcDbSun
  3
SCENEOE
 90
     1153
280
     0
281
     0
  0
CLASS
  1
ACDBPLACEHOLDER
  2
AcDbPlaceHolder
  3
ObjectDBX Classes
 90
        0
280
     0
281
     0
  0
CLASS
  1
LAYOUT
  2
AcDbLayout
  3
ObjectDBX Classes
 90
        0
280
     0
281
     0
  0
CLASS
  1
TABLESTYLE
  2
AcDbTableStyle
  3
ObjectDBX Classes
 90
     4095
280
     0
281
     0
  0
CLASS
  1
MLEADERSTYLE
  2
AcDbMLeaderStyle
  3
ACDB_MLEADERSTYLE_CLASS
 90
     4095
280
     0
281
     0
  0
CLASS
  1
RASTERVARIABLES
  2
AcDbRasterVariables
  3
ISM
 90
        0
280
     0
281
     0
  0
ENDSEC
  0
SECTION
  2
TABLES
  0
TABLE
  2
VPORT
  5
8
330
0
100
AcDbSymbolTable
 70
     1
  0
VPORT
  5
29
330
8
100
AcDbSymbolTableRecord
100
AcDbViewportTableRecord
  2
*Active
 70
     0
 10
0.0
 20
0.0
 11
1.0
 21
1.0
 12
4.828312516477496
 22
0.9881898150081199
 13
0.0
 23
0.0
 14
10.0
 24
10.0
 15
10.0
 25
10.0
 16
0.0
 26
0.0
 36
1.0
 17
0.0
 27
0.0
 37
0.0
 40
113.6462292258088
 41
1.782762691853601
 42
50.0
 43
0.0
 44
0.0
 50
0.0
 51
0.0
 71
    16
 72
  2000
 73
     1
 74
     3
 75
     0
 76
     0
 77
     0
 78
     0
281
     0
 65
     1
110
0.0
120
0.0
130
0.0
111
1.0
121
0.0
131
0.0
112
0.0
122
1.0
132
0.0
 79
     0
146
0.0
  0
ENDTAB
  0
TABLE
  2
LTYPE
  5
5
330
0
100
AcDbSymbolTable
 70
     6
  0
LTYPE
  5
14
330
5
100
AcDbSymbolTableRecord
100
AcDbLinetypeTableRecord
  2
ByBlock
 70
     0
  3

 72
    65
 73
     0
 40
0.0
  0
LTYPE
  5
15
330
5
100
AcDbSymbolTableRecord
100
AcDbLinetypeTableRecord
  2
ByLayer
 70
     0
  3

 72
    65
 73
     0
 40
0.0
  0
LTYPE
  5
16
330
5
100
AcDbSymbolTableRecord
100
AcDbLinetypeTableRecord
  2
Continuous
 70
     0
  3
Solid line
 72
    65
 73
     0
 40
0.0
  0
LTYPE
  5
6A
330
5
100
AcDbSymbolTableRecord
100
AcDbLinetypeTableRecord
  2
HIDDEN
 70
     0
  3
Hidden __ __ __ __ __ __ __ __ __ __ __ __ __ __
 72
    65
 73
     2
 40
1.905
 49
1.27
 74
     0
 49
-0.635
 74
     0
  0
LTYPE
  5
6B
330
5
100
AcDbSymbolTableRecord
100
AcDbLinetypeTableRecord
  2
PHANTOM
 70
     0
  3
Phantom ______  __  __  ______  __  __  ______
 72
    65
 73
     6
 40
12.7
 49
6.35
 74
     0
 49
-1.27
 74
     0
 49
1.27
 74
     0
 49
-1.27
 74
     0
 49
1.27
 74
     0
 49
-1.27
 74
     0
  0
LTYPE
  5
6C
330
5
100
AcDbSymbolTableRecord
100
AcDbLinetypeTableRecord
  2
CENTER
 70
     0
  3
Center ____ _ ____ _ ____ _ ____ _ ____ _ ____
 72
    65
 73
     4
 40
10.16
 49
6.35
 74
     0
 49
-1.27
 74
     0
 49
1.27
 74
     0
 49
-1.27
 74
     0
  0
LTYPE
  5
6D
330
5
100
AcDbSymbolTableRecord
100
AcDbLinetypeTableRecord
  2
CENTERX2
 70
     0
  3
Center (2x) ________  __  ________  __  _____
 72
    65
 73
     4
 40
20.32
 49
12.7
 74
     0
 49
-2.54
 74
     0
 49
2.54
 74
     0
 49
-2.54
 74
     0
  0
LTYPE
  5
6E
330
5
100
AcDbSymbolTableRecord
100
AcDbLinetypeTableRecord
  2
DOT2
 70
     0
  3
Dot (.5x) ........................................
 72
    65
 73
     2
 40
0.635
 49
0.0
 74
     0
 49
-0.635
 74
     0
  0
ENDTAB
  0
TABLE
  2
LAYER
  5
2
102
{ACAD_XDICTIONARY
360
191
102
}
330
0
100
AcDbSymbolTable
 70
    18
  0
LAYER
  5
10
330
2
100
AcDbSymbolTableRecord
100
AcDbLayerTableRecord
  2
0
 70
     0
 62
     7
  6
Continuous
370
    -3
390
F
  0
LAYER
  5
6F
330
2
100
AcDbSymbolTableRecord
100
AcDbLayerTableRecord
  2
FORMAT
 70
     0
 62
     2
  6
Continuous
370
    -3
390
F
  0
LAYER
  5
70
330
2
100
AcDbSymbolTableRecord
100
AcDbLayerTableRecord
  2
외형선
 70
     0
 62
     4
  6
Continuous
370
    30
390
F
  0
LAYER
  5
71
330
2
100
AcDbSymbolTableRecord
100
AcDbLayerTableRecord
  2
숨은선
 70
     0
 62
     2
  6
HIDDEN
370
    15
390
F
  0
LAYER
  5
72
330
2
100
AcDbSymbolTableRecord
100
AcDbLayerTableRecord
  2
중심선
 70
     0
 62
     1
  6
CENTERX2
370
    -3
390
F
  0
LAYER
  5
73
330
2
100
AcDbSymbolTableRecord
100
AcDbLayerTableRecord
  2
파단선
 70
     0
 62
     4
  6
Continuous
370
    -3
390
F
  0
LAYER
  5
74
330
2
100
AcDbSymbolTableRecord
100
AcDbLayerTableRecord
  2
해칭선
 70
     0
 62
   100
  6
Continuous
370
    -3
390
F
  0
LAYER
  5
75
330
2
100
AcDbSymbolTableRecord
100
AcDbLayerTableRecord
  2
가는실선
 70
     0
 62
     4
  6
Continuous
370
    -3
390
F
  0
LAYER
  5
76
330
2
100
AcDbSymbolTableRecord
100
AcDbLayerTableRecord
  2
치수_보조선
 70
     0
 62
     4
  6
Continuous
370
    -3
390
F
  0
LAYER
  5
77
330
2
100
AcDbSymbolTableRecord
100
AcDbLayerTableRecord
  2
치수문자_일반주서
 70
     0
 62
     7
  6
Continuous
370
    15
390
F
  0
LAYER
  5
78
330
2
100
AcDbSymbolTableRecord
100
AcDbLayerTableRecord
  2
개별주서
 70
     0
 62
   100
  6
Continuous
370
    30
390
F
  0
LAYER
  5
79
330
2
100
AcDbSymbolTableRecord
100
AcDbLayerTableRecord
  2
중간선
 70
     0
 62
     2
  6
Continuous
370
    15
390
F
  0
LAYER
  5
7A
330
2
100
AcDbSymbolTableRecord
100
AcDbLayerTableRecord
  2
윤곽선
 70
     0
 62
     3
  6
Continuous
370
    40
390
F
  0
LAYER
  5
7B
330
2
100
AcDbSymbolTableRecord
100
AcDbLayerTableRecord
  2
중심마크
 70
     0
 62
   100
  6
Continuous
370
    30
390
F
  0
LAYER
  5
7C
330
2
100
AcDbSymbolTableRecord
100
AcDbLayerTableRecord
  2
가상선
 70
     0
 62
     4
  6
PHANTOM
370
    -3
390
F
  0
LAYER
  5
7D
330
2
100
AcDbSymbolTableRecord
100
AcDbLayerTableRecord
  2
특수지정선
 70
     0
 62
     5
  6
CENTERX2
370
    60
390
F
  0
LAYER
  5
7E
330
2
100
AcDbSymbolTableRecord
100
AcDbLayerTableRecord
  2
참조1
 70
     0
 62
    -4
  6
Continuous
370
    -3
390
F
  0
LAYER
  5
159
330
2
100
AcDbSymbolTableRecord
100
AcDbLayerTableRecord
  2
Defpoints
 70
     0
 62
     7
  6
Continuous
290
     0
370
    -3
390
F
  0
ENDTAB
  0
TABLE
  2
STYLE
  5
3
330
0
100
AcDbSymbolTable
 70
     2
  0
STYLE
  5
11
330
3
100
AcDbSymbolTableRecord
100
AcDbTextStyleTableRecord
  2
Standard
 70
     0
 40
0.0
 41
1.0
 50
0.0
 71
     0
 42
3.5
  3
txt
  4

  0
STYLE
  5
94
330
3
100
AcDbSymbolTableRecord
100
AcDbTextStyleTableRecord
  2
SLDTEXTSTYLE0
 70
     0
 40
0.0
 41
0.75
 50
0.0
 71
     0
 42
3.5
  3
TXT
  4

  0
ENDTAB
  0
TABLE
  2
VIEW
  5
6
330
0
100
AcDbSymbolTable
 70
     0
  0
ENDTAB
  0
TABLE
  2
UCS
  5
7
330
0
100
AcDbSymbolTable
 70
     0
  0
ENDTAB
  0
TABLE
  2
APPID
  5
9
330
0
100
AcDbSymbolTable
 70
     4
  0
APPID
  5
12
330
9
100
AcDbSymbolTableRecord
100
AcDbRegAppTableRecord
  2
ACAD
 70
     0
  0
APPID
  5
161
330
9
100
AcDbSymbolTableRecord
100
AcDbRegAppTableRecord
  2
PE_URL
 70
     0
  0
APPID
  5
221
330
9
100
AcDbSymbolTableRecord
100
AcDbRegAppTableRecord
  2
ACAD_DSTYLE_DIMFLIPARROW_SYMBOL
 70
     0
  0
APPID
  5
222
330
9
100
AcDbSymbolTableRecord
100
AcDbRegAppTableRecord
  2
ACAD_DSTYLE_DIMFLIPARROW_WHICH_SYMBOL
 70
     0
  0
ENDTAB
  0
TABLE
  2
DIMSTYLE
  5
A
330
0
100
AcDbSymbolTable
 70
     3
100
AcDbDimStyleTable
  0
DIMSTYLE
105
27
330
A
100
AcDbSymbolTableRecord
100
AcDbDimStyleTableRecord
  2
ISO-25
 70
     0
 41
2.5
 42
0.625
 43
3.75
 44
1.25
 73
     0
 74
     0
 77
     1
 78
     8
140
2.5
141
2.5
143
0.03937007874016
147
0.625
171
     3
172
     1
178
     0
271
     2
272
     2
274
     3
278
    44
283
     0
284
     8
340
11
  0
DIMSTYLE
105
D9
330
A
100
AcDbSymbolTableRecord
100
AcDbDimStyleTableRecord
  2
SLDDIMSTYLE0
 70
     0
 41
3.302
 44
0.0
 45
0.000000001
 73
     0
 74
     0
 77
     1
 78
     4
 79
     1
140
3.5
143
0.0393700787401575
147
0.875
148
0.000000001
170
     1
172
     1
173
     1
178
     0
271
     2
272
     2
276
     2
284
    12
289
     0
340
94
  0
DIMSTYLE
105
EE
102
{ACAD_REACTORS
330
ED
330
101
330
115
330
D8
102
}
330
A
100
AcDbSymbolTableRecord
100
AcDbDimStyleTableRecord
  2
SLDDIMSTYLE1
 70
     0
 41
3.302
 44
0.0
 45
0.000000001
 73
     0
 74
     0
 77
     1
 78
    12
 79
     3
140
3.5
143
0.0393700787401575
147
0.875
148
0.000000001
170
     1
173
     1
178
     0
271
     2
272
     2
276
     2
284
    12
340
94
  0
ENDTAB
  0
TABLE
  2
BLOCK_RECORD
  5
1
330
0
100
AcDbSymbolTable
 70
     9
  0
BLOCK_RECORD
  5
1F
330
1
100
AcDbSymbolTableRecord
100
AcDbBlockTableRecord
  2
*Model_Space
340
22
  0
BLOCK_RECORD
  5
1B
330
1
100
AcDbSymbolTableRecord
100
AcDbBlockTableRecord
  2
*Paper_Space
340
1E
  0
BLOCK_RECORD
  5
23
330
1
100
AcDbSymbolTableRecord
100
AcDbBlockTableRecord
  2
*Paper_Space0
340
26
  0
BLOCK_RECORD
  5
7F
330
1
100
AcDbSymbolTableRecord
100
AcDbBlockTableRecord
  2
블럭10
340
0
102
{BLKREFS
331
D1
102
}
  0
BLOCK_RECORD
  5
DA
330
1
100
AcDbSymbolTableRecord
100
AcDbBlockTableRecord
  2
_D
340
0
  0
BLOCK_RECORD
  5
EF
330
1
100
AcDbSymbolTableRecord
100
AcDbBlockTableRecord
  2
_D_1
340
0
  0
BLOCK_RECORD
  5
102
330
1
100
AcDbSymbolTableRecord
100
AcDbBlockTableRecord
  2
_D_2
340
0
  0
BLOCK_RECORD
  5
116
330
1
100
AcDbSymbolTableRecord
100
AcDbBlockTableRecord
  2
_D_3
340
0
  0
BLOCK_RECORD
  5
12F
330
1
100
AcDbSymbolTableRecord
100
AcDbBlockTableRecord
  2
SW_DOWELSYMBOL_0
340
0
102
{BLKREFS
331
135
102
}
  0
BLOCK_RECORD
  5
195
330
1
100
AcDbSymbolTableRecord
100
AcDbBlockTableRecord
  2
*D7
340
0
  0
BLOCK_RECORD
  5
1A7
330
1
100
AcDbSymbolTableRecord
100
AcDbBlockTableRecord
  2
*D8
340
0
  0
ENDTAB
  0
ENDSEC
  0
SECTION
  2
BLOCKS
  0
BLOCK
  5
20
330
1F
100
AcDbEntity
  8
0
100
AcDbBlockBegin
  2
*Model_Space
 70
     0
 10
0.0
 20
0.0
 30
0.0
  3
*Model_Space
  1
*Model_Space
  0
ENDBLK
  5
21
330
1F
100
AcDbEntity
  8
0
100
AcDbBlockEnd
  0
BLOCK
  5
1C
330
1B
100
AcDbEntity
 67
     1
  8
0
100
AcDbBlockBegin
  2
*Paper_Space
 70
     0
 10
0.0
 20
0.0
 30
0.0
  3
*Paper_Space
  1
*Paper_Space
  0
ENDBLK
  5
1D
330
1B
100
AcDbEntity
 67
     1
  8
0
100
AcDbBlockEnd
  0
BLOCK
  5
24
330
23
100
AcDbEntity
  8
0
100
AcDbBlockBegin
  2
*Paper_Space0
 70
     0
 10
0.0
 20
0.0
 30
0.0
  3
*Paper_Space0
  1
*Paper_Space0
  0
ENDBLK
  5
25
330
23
100
AcDbEntity
  8
0
100
AcDbBlockEnd
  0
BLOCK
  5
80
330
7F
100
AcDbEntity
  8
0
100
AcDbBlockBegin
  2
블럭10
 70
     2
 10
0.0
 20
0.0
 30
0.0
  3
블럭10
  1
블럭10
  0
ELLIPSE
  5
82
330
7F
100
AcDbEntity
  8
중심선
100
AcDbEllipse
 10
20.54032771741204
 20
12.0471743016438
 30
0.0
 11
6.600054785286829
 21
-1.261213355974178E-13
 31
0.0
210
0.0
220
0.0
230
1.0
 40
0.636358354079598
 41
0.9219305317359503
 42
6.513795318482858
  0
ELLIPSE
  5
83
330
7F
100
AcDbEntity
  8
중심선
100
AcDbEllipse
 10
20.54032771746488
 20
12.04717430159265
 30
0.0
 11
3.960054785062283
 21
1.540847449632565E-10
 31
0.0
210
0.0
220
0.0
230
1.0
 40
0.3939339440162632
 41
1.131841032648279
 42
5.62031148352944
  0
LINE
  5
84
330
7F
100
AcDbEntity
  8
중심선
100
AcDbLine
 10
2.268634060543552
 20
16.24717430164393
 30
0.0
 11
5.714909304380834
 21
16.24717430164393
 31
0.0
  0
LINE
  5
85
330
7F
100
AcDbEntity
  8
중심선
100
AcDbLine
 10
5.245725140726316
 20
7.84717430164391
 30
0.0
 11
8.692000384563599
 21
7.84717430164391
 31
0.0
  0
LINE
  5
86
330
7F
100
AcDbEntity
  8
중심선
100
AcDbLine
 10
15.74043728645272
 20
16.24717430164393
 30
0.0
 11
8.692000384563599
 21
7.84717430164391
 31
0.0
  0
LINE
  5
87
330
7F
100
AcDbEntity
  8
중심선
100
AcDbLine
 10
0.1404042013395286
 20
13.71084872107135
 30
0.0
 11
3.58671253028996
 21
13.71088815037384
 31
0.0
  0
LINE
  5
88
330
7F
100
AcDbEntity
  8
중심선
100
AcDbLine
 10
2.750260043222114
 20
10.84717430164391
 30
0.0
 11
6.196535287059397
 21
10.84717430164391
 31
0.0
  0
LINE
  5
89
330
7F
100
AcDbEntity
  8
중심선
100
AcDbLine
 10
12.29416204261559
 20
16.24717430164393
 30
0.0
 11
5.245725140726316
 21
7.84717430164391
 31
0.0
  0
LINE
  5
8A
330
7F
100
AcDbEntity
  8
중심선
100
AcDbLine
 10
10.72767329541681
 20
16.24717430164393
 30
0.0
 11
6.196535287059397
 21
10.84717430164391
 31
0.0
  0
LINE
  5
8B
330
7F
100
AcDbEntity
  8
중심선
100
AcDbLine
 10
7.28139805157953
 20
16.24717430164393
 30
0.0
 11
2.750260043222114
 21
10.84717430164391
 31
0.0
  0
LINE
  5
8C
330
7F
100
AcDbEntity
  8
중심선
100
AcDbLine
 10
5.714909304380834
 20
16.24717430164393
 30
0.0
 11
3.58671253028996
 21
13.71088815037384
 31
0.0
  0
LINE
  5
8D
330
7F
100
AcDbEntity
  8
중심선
100
AcDbLine
 10
2.268634060543552
 20
16.24717430164393
 30
0.0
 11
0.1404042013395286
 21
13.71084872107135
 31
0.0
  0
LINE
  5
8E
330
7F
100
AcDbEntity
  8
중심선
100
AcDbLine
 10
7.28139805157953
 20
16.24717430164393
 30
0.0
 11
10.72767329541681
 21
16.24717430164393
 31
0.0
  0
LINE
  5
8F
330
7F
100
AcDbEntity
  8
중심선
100
AcDbLine
 10
12.29416204261559
 20
16.24717430164393
 30
0.0
 11
15.74043728645272
 21
16.24717430164393
 31
0.0
  0
LINE
  5
90
330
7F
100
AcDbEntity
  8
중심선
100
AcDbLine
 10
19.22036997980202
 20
11.08717430171403
 30
0.0
 11
23.66174974927406
 21
11.08717430171406
 31
0.0
  0
LINE
  5
91
330
7F
100
AcDbEntity
  8
중심선
100
AcDbLine
 10
19.22039502424796
 20
13.00717430171391
 30
0.0
 11
19.22036997980202
 21
11.08717430171403
 31
0.0
  0
LINE
  5
92
330
7F
100
AcDbEntity
  8
중심선
100
AcDbLine
 10
19.22039502424796
 20
13.00717430171391
 30
0.0
 11
26.96566020931264
 21
13.00717430171391
 31
0.0
  0
LINE
  5
93
330
7F
100
AcDbEntity
  8
중심선
100
AcDbLine
 10
22.22332737316547
 20
13.45928029700563
 30
0.0
 11
24.52862924686651
 21
15.39360700705356
 31
0.0
  0
ATTDEF
  5
95
330
7F
100
AcDbEntity
  8
FORMAT
 62
     2
100
AcDbText
 10
4.408487351596664
 20
2.075366912832191
 30
0.0
 40
4.233333333333333
  1
E1050060
 41
0.75
  7
SLDTEXTSTYLE0
 11
4.408487351596664
 21
-0.0412997538344756
 31
0.0
100
AcDbAttributeDefinition
  3

  2
AUTOATTR0
 70
     0
 74
     1
  0
ENDBLK
  5
81
330
7F
100
AcDbEntity
  8
0
100
AcDbBlockEnd
  0
BLOCK
  5
DB
330
DA
100
AcDbEntity
  8
0
100
AcDbBlockBegin
  2
_D
 70
     0
 10
0.0
 20
0.0
 30
0.0
  3
_D
  1
_D
  0
LINE
  5
DD
330
DA
100
AcDbEntity
  8
치수문자_일반주서
 62
     0
370
    -2
100
AcDbLine
 10
-29.43768467149224
 20
12.69999999999999
 30
0.0
 11
-89.6125
 21
12.69999999999976
 31
0.0
  0
LINE
  5
DE
330
DA
100
AcDbEntity
  8
치수문자_일반주서
 62
     0
370
    -2
100
AcDbLine
 10
-29.43768467149225
 20
-12.7
 30
0.0
 11
-89.61249999999991
 21
-12.70000000000022
 31
0.0
  0
LINE
  5
DF
330
DA
100
AcDbEntity
  8
치수문자_일반주서
 62
     0
370
    -2
100
AcDbLine
 10
-89.6125
 20
12.69999999999976
 30
0.0
 11
-89.61250000000008
 21
38.75199999999992
 31
0.0
  0
LINE
  5
E0
330
DA
100
AcDbEntity
  8
치수문자_일반주서
 62
     0
370
    -2
100
AcDbLine
 10
-89.6125
 20
12.69999999999976
 30
0.0
 11
-89.61249999999991
 21
-12.70000000000022
 31
0.0
  0
LINE
  5
E1
330
DA
100
AcDbEntity
  8
치수문자_일반주서
 62
     0
370
    -2
100
AcDbLine
 10
-89.61250000000001
 20
16.00199999999976
 30
0.0
 11
-89.61250000000003
 21
19.30399999999976
 31
0.0
  0
LINE
  5
E2
330
DA
100
AcDbEntity
  8
치수문자_일반주서
 62
     0
370
    -2
100
AcDbLine
 10
-89.6124999999999
 20
-16.00200000000022
 30
0.0
 11
-89.61249999999988
 21
-19.30400000000022
 31
0.0
  0
SOLID
  5
E3
330
DA
100
AcDbEntity
  8
치수문자_일반주서
 62
     0
100
AcDbTrace
 10
-90.16283333333334
 20
16.00199999999976
 30
0.0
 11
-89.06216666666668
 21
16.00199999999977
 31
0.0
 12
-89.6125
 22
12.69999999999976
 32
0.0
 13
-89.6125
 23
12.69999999999976
 33
0.0
  0
SOLID
  5
E4
330
DA
100
AcDbEntity
  8
치수문자_일반주서
 62
     0
100
AcDbTrace
 10
-89.06216666666657
 20
-16.00200000000022
 30
0.0
 11
-90.16283333333323
 21
-16.00200000000023
 31
0.0
 12
-89.61249999999991
 22
-12.70000000000022
 32
0.0
 13
-89.61249999999991
 23
-12.70000000000022
 33
0.0
  0
MTEXT
  5
E5
330
DA
100
AcDbEntity
  8
치수문자_일반주서
 62
     0
100
AcDbMText
 10
-94.48750000000004
 20
27.37699999999991
 30
0.0
 40
4.0
 41
0.0
 71
     2
 72
     1
  1
\A1;%%c25.4 [1]
  7
SLDTEXTSTYLE0
 11
-3.356894814614647E-15
 21
1.0
 31
0.0
 73
     1
 44
1.0
  0
POINT
  5
1B7
330
DA
100
AcDbEntity
  8
Defpoints
 62
     0
100
AcDbPoint
 10
-29.37518467149224
 20
12.69999999999999
 30
0.0
  0
POINT
  5
1B8
330
DA
100
AcDbEntity
  8
Defpoints
 62
     0
100
AcDbPoint
 10
-29.37518467149225
 20
-12.7
 30
0.0
  0
POINT
  5
1B9
330
DA
100
AcDbEntity
  8
Defpoints
 62
     0
100
AcDbPoint
 10
-89.61249999999991
 20
-12.70000000000023
 30
0.0
  0
ENDBLK
  5
DC
330
DA
100
AcDbEntity
  8
0
100
AcDbBlockEnd
  0
BLOCK
  5
F0
330
EF
100
AcDbEntity
  8
0
100
AcDbBlockBegin
  2
_D_1
 70
     0
 10
0.0
 20
0.0
 30
0.0
  3
_D_1
  1
_D_1
  0
LINE
  5
F2
330
EF
100
AcDbEntity
  8
치수문자_일반주서
 62
     0
370
    -2
100
AcDbLine
 10
74.67500000000004
 20
-11.89618701882795
 30
0.0
 11
89.6125000000001
 21
-11.8961870188279
 31
0.0
  0
LINE
  5
F3
330
EF
100
AcDbEntity
  8
치수문자_일반주서
 62
     0
370
    -2
100
AcDbLine
 10
74.67500000000004
 20
11.89618701882794
 30
0.0
 11
89.61250000000001
 21
11.896187018828
 31
0.0
  0
LINE
  5
F4
330
EF
100
AcDbEntity
  8
치수문자_일반주서
 62
     0
370
    -2
100
AcDbLine
 10
89.61250000000001
 20
11.896187018828
 30
0.0
 11
89.61249999999987
 21
51.94818701882799
 31
0.0
  0
LINE
  5
F5
330
EF
100
AcDbEntity
  8
치수문자_일반주서
 62
     0
370
    -2
100
AcDbLine
 10
89.6125000000001
 20
-11.8961870188279
 30
0.0
 11
89.61250000000001
 21
11.896187018828
 31
0.0
  0
LINE
  5
F6
330
EF
100
AcDbEntity
  8
치수문자_일반주서
 62
     0
370
    -2
100
AcDbLine
 10
89.61250000000011
 20
-15.19818701882789
 30
0.0
 11
89.61250000000013
 21
-18.50018701882789
 31
0.0
  0
LINE
  5
F7
330
EF
100
AcDbEntity
  8
치수문자_일반주서
 62
     0
370
    -2
100
AcDbLine
 10
89.6125
 20
15.198187018828
 30
0.0
 11
89.61249999999998
 21
18.500187018828
 31
0.0
  0
SOLID
  5
F8
330
EF
100
AcDbEntity
  8
치수문자_일반주서
 62
     0
100
AcDbTrace
 10
90.16283333333344
 20
-15.19818701882789
 30
0.0
 11
89.06216666666678
 21
-15.1981870188279
 31
0.0
 12
89.6125000000001
 22
-11.8961870188279
 32
0.0
 13
89.6125000000001
 23
-11.8961870188279
 33
0.0
  0
SOLID
  5
F9
330
EF
100
AcDbEntity
  8
치수문자_일반주서
 62
     0
100
AcDbTrace
 10
89.06216666666667
 20
15.198187018828
 30
0.0
 11
90.16283333333332
 21
15.198187018828
 31
0.0
 12
89.61250000000001
 22
11.896187018828
 32
0.0
 13
89.61250000000001
 23
11.896187018828
 33
0.0
  0
MTEXT
  5
FA
330
EF
100
AcDbEntity
  8
치수문자_일반주서
 62
     0
100
AcDbMText
 10
84.73749999999994
 20
33.57318701882798
 30
0.0
 40
4.0
 41
0.0
 71
     2
 72
     1
  1
\A1;%%c23.79 [15/16]
  7
SLDTEXTSTYLE0
 11
-3.583716705035991E-15
 21
1.0
 31
0.0
 73
     1
 44
1.0
  0
POINT
  5
FB
330
EF
100
AcDbEntity
  8
Defpoints
 62
     0
100
AcDbPoint
 10
74.61250000000004
 20
-11.89618701882795
 30
0.0
  0
POINT
  5
1BA
330
EF
100
AcDbEntity
  8
Defpoints
 62
     0
100
AcDbPoint
 10
74.61250000000004
 20
11.89618701882794
 30
0.0
  0
POINT
  5
1BB
330
EF
100
AcDbEntity
  8
Defpoints
 62
     0
100
AcDbPoint
 10
89.61250000000003
 20
11.896187018828
 30
0.0
  0
ENDBLK
  5
F1
330
EF
100
AcDbEntity
  8
0
100
AcDbBlockEnd
  0
BLOCK
  5
103
330
102
100
AcDbEntity
  8
0
100
AcDbBlockBegin
  2
_D_2
 70
     0
 10
0.0
 20
0.0
 30
0.0
  3
_D_2
  1
_D_2
  0
LINE
  5
105
330
102
100
AcDbEntity
  8
치수문자_일반주서
 62
     0
370
    -2
100
AcDbLine
 10
74.61250000000004
 20
11.95868701882794
 30
0.0
 11
74.61250000000004
 21
27.69999999999999
 31
0.0
  0
LINE
  5
106
330
102
100
AcDbEntity
  8
치수문자_일반주서
 62
     0
370
    -2
100
AcDbLine
 10
33.33750000000003
 20
9.361482494606628
 30
0.0
 11
33.33750000000003
 21
27.69999999999999
 31
0.0
  0
LINE
  5
107
330
102
100
AcDbEntity
  8
치수문자_일반주서
 62
     0
370
    -2
100
AcDbLine
 10
71.31050000000005
 20
27.69999999999999
 30
0.0
 11
36.63950000000003
 21
27.69999999999999
 31
0.0
  0
SOLID
  5
108
330
102
100
AcDbEntity
  8
치수문자_일반주서
 62
     0
100
AcDbTrace
 10
71.31050000000005
 20
27.14966666666665
 30
0.0
 11
71.31050000000005
 21
28.25033333333332
 31
0.0
 12
74.61250000000004
 22
27.69999999999999
 32
0.0
 13
74.61250000000004
 23
27.69999999999999
 33
0.0
  0
SOLID
  5
109
330
102
100
AcDbEntity
  8
치수문자_일반주서
 62
     0
100
AcDbTrace
 10
36.63950000000003
 20
28.25033333333332
 30
0.0
 11
36.63950000000003
 21
27.14966666666665
 31
0.0
 12
33.33750000000003
 22
27.69999999999999
 32
0.0
 13
33.33750000000003
 23
27.69999999999999
 33
0.0
  0
MTEXT
  5
10A
330
102
100
AcDbEntity
  8
치수문자_일반주서
 62
     0
100
AcDbMText
 10
53.97500000000007
 20
32.57499999999999
 30
0.0
 40
4.0
 41
0.0
 71
     2
 72
     1
  1
\A1;41.28 [1 5/8]
  7
SLDTEXTSTYLE0
 73
     1
 44
1.0
  0
POINT
  5
10B
330
102
100
AcDbEntity
  8
Defpoints
 62
     0
100
AcDbPoint
 10
74.61250000000004
 20
11.89618701882794
 30
0.0
  0
POINT
  5
10C
330
102
100
AcDbEntity
  8
Defpoints
 62
     0
100
AcDbPoint
 10
33.33750000000003
 20
9.298982494606628
 30
0.0
  0
POINT
  5
10D
330
102
100
AcDbEntity
  8
Defpoints
 62
     0
100
AcDbPoint
 10
33.33750000000003
 20
27.69999999999999
 30
0.0
  0
ENDBLK
  5
104
330
102
100
AcDbEntity
  8
0
100
AcDbBlockEnd
  0
BLOCK
  5
117
330
116
100
AcDbEntity
  8
0
100
AcDbBlockBegin
  2
_D_3
 70
     0
 10
0.0
 20
0.0
 30
0.0
  3
_D_3
  1
_D_3
  0
LINE
  5
119
330
116
100
AcDbEntity
  8
치수문자_일반주서
 62
     0
370
    -2
100
AcDbLine
 10
-74.61250000000004
 20
11.95868701882796
 30
0.0
 11
-74.61250000000004
 21
42.69999999999999
 31
0.0
  0
LINE
  5
11A
330
116
100
AcDbEntity
  8
치수문자_일반주서
 62
     0
370
    -2
100
AcDbLine
 10
74.61250000000004
 20
11.95868701882794
 30
0.0
 11
74.61250000000004
 21
42.69999999999999
 31
0.0
  0
LINE
  5
11B
330
116
100
AcDbEntity
  8
치수문자_일반주서
 62
     0
370
    -2
100
AcDbLine
 10
-71.31050000000005
 20
42.69999999999999
 30
0.0
 11
71.31050000000005
 21
42.69999999999999
 31
0.0
  0
SOLID
  5
11C
330
116
100
AcDbEntity
  8
치수문자_일반주서
 62
     0
100
AcDbTrace
 10
-71.31050000000005
 20
43.25033333333332
 30
0.0
 11
-71.31050000000005
 21
42.14966666666665
 31
0.0
 12
-74.61250000000004
 22
42.69999999999999
 32
0.0
 13
-74.61250000000004
 23
42.69999999999999
 33
0.0
  0
SOLID
  5
11D
330
116
100
AcDbEntity
  8
치수문자_일반주서
 62
     0
100
AcDbTrace
 10
71.31050000000005
 20
42.14966666666665
 30
0.0
 11
71.31050000000005
 21
43.25033333333332
 31
0.0
 12
74.61250000000004
 22
42.69999999999999
 32
0.0
 13
74.61250000000004
 23
42.69999999999999
 33
0.0
  0
MTEXT
  5
11E
330
116
100
AcDbEntity
  8
치수문자_일반주서
 62
     0
100
AcDbMText
 10
0.0000000000000284
 20
47.57499999999999
 30
0.0
 40
4.0
 41
0.0
 71
     2
 72
     1
  1
\A1;149.23 [5 7/8]
  7
SLDTEXTSTYLE0
 73
     1
 44
1.0
  0
POINT
  5
11F
330
116
100
AcDbEntity
  8
Defpoints
 62
     0
100
AcDbPoint
 10
-74.61250000000004
 20
11.89618701882796
 30
0.0
  0
POINT
  5
120
330
116
100
AcDbEntity
  8
Defpoints
 62
     0
100
AcDbPoint
 10
74.61250000000004
 20
11.89618701882794
 30
0.0
  0
POINT
  5
121
330
116
100
AcDbEntity
  8
Defpoints
 62
     0
100
AcDbPoint
 10
74.61250000000004
 20
42.69999999999999
 30
0.0
  0
ENDBLK
  5
118
330
116
100
AcDbEntity
  8
0
100
AcDbBlockEnd
  0
BLOCK
  5
130
330
12F
100
AcDbEntity
  8
0
100
AcDbBlockBegin
  2
SW_DOWELSYMBOL_0
 70
     0
 10
0.0
 20
0.0
 30
0.0
  3
SW_DOWELSYMBOL_0
  1
SW_DOWELSYMBOL_0
  0
CIRCLE
  5
132
330
12F
100
AcDbEntity
  8
해칭선
 62
     0
100
AcDbCircle
 10
0.0
 20
0.0
 30
0.0
 40
3.000000000000001
  0
HATCH
  5
133
330
12F
100
AcDbEntity
  8
0
  6
Continuous
 62
     0
370
     0
100
AcDbHatch
 10
0.0
 20
0.0
 30
0.0
210
0.0
220
0.0
230
1.0
  2
SOLID
 70
     1
 71
     0
 91
        1
 92
        0
 93
        3
 72
     2
 10
0.0
 20
0.0
 40
3.000000000000001
 50
0.0
 51
90.0
 73
     1
 72
     1
 10
0.0
 20
3.000000000000001
 11
0.0
 21
0.0
 72
     1
 10
0.0
 20
0.0
 11
3.000000000000001
 21
0.0
 97
        0
 75
     0
 76
     1
 98
        1
 10
0.0
 20
0.0
  0
HATCH
  5
134
330
12F
100
AcDbEntity
  8
0
  6
Continuous
 62
     0
370
     0
100
AcDbHatch
 10
0.0
 20
0.0
 30
0.0
210
0.0
220
0.0
230
1.0
  2
SOLID
 70
     1
 71
     0
 91
        1
 92
        0
 93
        3
 72
     2
 10
0.0
 20
0.0
 40
3.000000000000001
 50
180.0
 51
270.0000000000007
 73
     1
 72
     1
 10
0.0
 20
-3.000000000000001
 11
0.0
 21
0.0
 72
     1
 10
0.0
 20
0.0
 11
-3.000000000000001
 21
0.0
 97
        0
 75
     0
 76
     1
 98
        1
 10
0.0
 20
0.0
  0
ENDBLK
  5
131
330
12F
100
AcDbEntity
  8
0
100
AcDbBlockEnd
  0
BLOCK
  5
196
330
195
100
AcDbEntity
  8
0
100
AcDbBlockBegin
  2
*D7
 70
     1
 10
0.0
 20
0.0
 30
0.0
  3
*D7
  1
*D7
  0
LINE
  5
198
330
195
100
AcDbEntity
  8
치수문자_일반주서
 62
     0
370
    -2
100
AcDbLine
 10
83.07069999999995
 20
9.276761832744846
 30
0.0
 11
83.07069999999995
 21
25.41461438121116
 31
0.0
  0
LINE
  5
199
330
195
100
AcDbEntity
  8
치수문자_일반주서
 62
     0
370
    -2
100
AcDbLine
 10
41.79569999999995
 20
6.780133273909215
 30
0.0
 11
41.79569999999995
 21
25.41461438121116
 31
0.0
  0
LINE
  5
19A
330
195
100
AcDbEntity
  8
치수문자_일반주서
 62
     0
370
    -2
100
AcDbLine
 10
79.76869999999994
 20
25.41461438121116
 30
0.0
 11
45.09769999999995
 21
25.41461438121116
 31
0.0
  0
SOLID
  5
19B
330
195
100
AcDbEntity
  8
치수문자_일반주서
 62
     0
100
AcDbTrace
 10
79.76869999999994
 20
24.86428104787783
 30
0.0
 11
79.76869999999994
 21
25.9649477145445
 31
0.0
 12
83.07069999999995
 22
25.41461438121116
 32
0.0
 13
83.07069999999995
 23
25.41461438121116
 33
0.0
  0
SOLID
  5
19C
330
195
100
AcDbEntity
  8
치수문자_일반주서
 62
     0
100
AcDbTrace
 10
45.09769999999995
 20
25.9649477145445
 30
0.0
 11
45.09769999999995
 21
24.86428104787783
 31
0.0
 12
41.79569999999995
 22
25.41461438121116
 32
0.0
 13
41.79569999999995
 23
25.41461438121116
 33
0.0
  0
MTEXT
  5
19D
330
195
100
AcDbEntity
  8
치수문자_일반주서
 62
     0
100
AcDbMText
 10
62.43319999999993
 20
30.28961438121116
 30
0.0
 40
4.0
 41
0.0
 71
     2
 72
     1
  1
\A1;41.28 [1 5/8]
  7
SLDTEXTSTYLE0
 73
     1
 44
1.0
  0
POINT
  5
19E
330
195
100
AcDbEntity
  8
Defpoints
 62
     0
100
AcDbPoint
 10
83.07069999999995
 20
9.214261832744846
 30
0.0
  0
POINT
  5
19F
330
195
100
AcDbEntity
  8
Defpoints
 62
     0
100
AcDbPoint
 10
41.79569999999995
 20
6.717633273909215
 30
0.0
  0
POINT
  5
1A0
330
195
100
AcDbEntity
  8
Defpoints
 62
     0
100
AcDbPoint
 10
41.79569999999995
 20
25.41461438121116
 30
0.0
  0
ENDBLK
  5
197
330
195
100
AcDbEntity
  8
0
100
AcDbBlockEnd
  0
BLOCK
  5
1A8
330
1A7
100
AcDbEntity
  8
0
100
AcDbBlockBegin
  2
*D8
 70
     1
 10
0.0
 20
0.0
 30
0.0
  3
*D8
  1
*D8
  0
LINE
  5
1AA
330
1A7
100
AcDbEntity
  8
치수문자_일반주서
 62
     0
370
    -2
100
AcDbLine
 10
139.5538806947287
 20
-27.62822108878246
 30
0.0
 11
139.5538806947287
 21
-11.49036854031614
 31
0.0
  0
LINE
  5
1AB
330
1A7
100
AcDbEntity
  8
치수문자_일반주서
 62
     0
370
    -2
100
AcDbLine
 10
98.27888069472868
 20
-30.12484964761809
 30
0.0
 11
98.27888069472868
 21
-11.49036854031614
 31
0.0
  0
LINE
  5
1AC
330
1A7
100
AcDbEntity
  8
치수문자_일반주서
 62
     0
370
    -2
100
AcDbLine
 10
136.2518806947287
 20
-11.49036854031614
 30
0.0
 11
101.5808806947287
 21
-11.49036854031614
 31
0.0
  0
SOLID
  5
1AD
330
1A7
100
AcDbEntity
  8
치수문자_일반주서
 62
     0
100
AcDbTrace
 10
136.2518806947287
 20
-12.04070187364948
 30
0.0
 11
136.2518806947287
 21
-10.94003520698281
 31
0.0
 12
139.5538806947287
 22
-11.49036854031614
 32
0.0
 13
139.5538806947287
 23
-11.49036854031614
 33
0.0
  0
SOLID
  5
1AE
330
1A7
100
AcDbEntity
  8
치수문자_일반주서
 62
     0
100
AcDbTrace
 10
101.5808806947287
 20
-10.94003520698281
 30
0.0
 11
101.5808806947287
 21
-12.04070187364948
 31
0.0
 12
98.27888069472868
 22
-11.49036854031614
 32
0.0
 13
98.27888069472868
 23
-11.49036854031614
 33
0.0
  0
MTEXT
  5
1AF
330
1A7
100
AcDbEntity
  8
치수문자_일반주서
 62
     0
100
AcDbMText
 10
118.9163806947287
 20
-6.615368540316144
 30
0.0
 40
4.0
 41
0.0
 71
     2
 72
     1
  1
\A1;41.28 [1 5/8]
  7
SLDTEXTSTYLE0
 73
     1
 44
1.0
  0
POINT
  5
1B0
330
1A7
100
AcDbEntity
  8
Defpoints
 62
     0
100
AcDbPoint
 10
139.5538806947287
 20
-27.69072108878246
 30
0.0
  0
POINT
  5
1B1
330
1A7
100
AcDbEntity
  8
Defpoints
 62
     0
100
AcDbPoint
 10
98.27888069472868
 20
-30.18734964761809
 30
0.0
  0
POINT
  5
1B2
330
1A7
100
AcDbEntity
  8
Defpoints
 62
     0
100
AcDbPoint
 10
98.27888069472868
 20
-11.49036854031614
 30
0.0
  0
ENDBLK
  5
1A9
330
1A7
100
AcDbEntity
  8
0
100
AcDbBlockEnd
  0
ENDSEC
  0
SECTION
  2
ENTITIES
  0
LINE
  5
96
330
1F
100
AcDbEntity
  8
외형선
  6
Continuous
370
    15
100
AcDbLine
 10
29.37518467149224
 20
12.69999999999999
 30
0.0
 11
8.45819999999998
 21
12.69999999999999
 31
0.0
  0
LINE
  5
97
330
1F
100
AcDbEntity
  8
외형선
  6
Continuous
370
    15
100
AcDbLine
 10
-29.37518467149225
 20
-12.7
 30
0.0
 11
29.37518467149225
 21
-12.7
 31
0.0
  0
LINE
  5
98
330
1F
100
AcDbEntity
  8
외형선
  6
Continuous
370
    15
100
AcDbLine
 10
29.37518467149225
 20
-12.7
 30
0.0
 11
30.28760235359325
 21
-12.45551841892116
 31
0.0
  0
LINE
  5
99
330
1F
100
AcDbEntity
  8
외형선
  6
Continuous
370
    15
100
AcDbLine
 10
30.28760235359325
 20
12.45551841892115
 30
0.0
 11
29.37518467149224
 21
12.69999999999999
 31
0.0
  0
SPLINE
  5
9C
330
1F
100
AcDbEntity
  8
외형선
  6
Continuous
370
    15
100
AcDbSpline
210
0.0
220
0.0
230
1.0
 70
     8
 71
     3
 72
     9
 73
     5
 74
     0
 42
0.000000001
 43
0.00000001
 40
0.0
 40
0.0
 40
0.0
 40
0.0
 40
0.443062420387035
 40
1.0
 40
1.0
 40
1.0
 40
1.0
 10
33.33750000000003
 20
9.298715075240226
 30
0.0
 10
32.9570835185224
 20
9.301214835890816
 30
0.0
 10
32.09847655035449
 20
9.30685684147641
 30
0.0
 10
31.2144807450031
 20
9.327833387649713
 30
0.0
 10
30.72215026078268
 20
9.339516014504113
 30
0.0
  0
SPLINE
  5
9D
330
1F
100
AcDbEntity
  8
외형선
  6
Continuous
370
    15
100
AcDbSpline
210
0.0
220
0.0
230
1.0
 70
     8
 71
     3
 72
    16
 73
    12
 74
     0
 42
0.000000001
 43
0.00000001
 40
0.0
 40
0.0
 40
0.0
 40
0.0
 40
0.0046376911972215
 40
0.0330071365919251
 40
0.1211413997256618
 40
0.4998599512108923
 40
0.8786325866497725
 40
0.9668238590312014
 40
0.9885740562327756
 40
0.9953314935379438
 40
1.0
 40
1.0
 40
1.0
 40
1.0
 10
30.77426662960326
 20
9.338127312933333
 30
0.0
 10
30.77325379189407
 20
9.338299478553662
 30
0.0
 10
30.76604527558904
 20
9.339524806826923
 30
0.0
 10
30.74196589001366
 20
9.356585263825398
 30
0.0
 10
30.65280050536622
 20
9.42772038916134
 30
0.0
 10
30.51129083309685
 20
9.56983380216619
 30
0.0
 10
30.37620309541363
 20
9.713844901313571
 30
0.0
 10
30.30488443900652
 20
9.803969278811161
 30
0.0
 10
30.29104647642231
 20
9.827314831673018
 30
0.0
 10
30.28804239592117
 20
9.83439274580593
 30
0.0
 10
30.28772999637832
 20
9.836885178217045
 30
0.0
 10
30.28760235359325
 20
9.837903556834567
 30
0.0
  0
SPLINE
  5
9E
330
1F
100
AcDbEntity
  8
외형선
  6
Continuous
370
    15
100
AcDbSpline
210
0.0
220
0.0
230
1.0
 70
     8
 71
     3
 72
     9
 73
     5
 74
     0
 42
0.000000001
 43
0.00000001
 40
0.0
 40
0.0
 40
0.0
 40
0.0
 40
0.5573261160008609
 40
1.0
 40
1.0
 40
1.0
 40
1.0
 10
30.28764150465048
 20
-9.352122998436506
 30
0.0
 10
30.86179096546084
 20
-9.336599409661776
 30
0.0
 10
31.89197678364968
 20
-9.308745719821937
 30
0.0
 10
32.89395181929898
 20
-9.301792904849023
 30
0.0
 10
33.33750000000003
 20
-9.298715075240237
 30
0.0
  0
SPLINE
  5
9F
330
1F
100
AcDbEntity
  8
0
  6
Continuous
 62
     1
370
    15
100
AcDbSpline
210
0.0
220
0.0
230
1.0
 70
     8
 71
     3
 72
    10
 73
     6
 74
     0
 42
0.000000001
 43
0.00000001
 40
0.0
 40
0.0
 40
0.0
 40
0.0
 40
0.350797197706148
 40
0.5215179859055243
 40
1.0
 40
1.0
 40
1.0
 40
1.0
 10
43.76573278791388
 20
3.050967440827021
 30
0.0
 10
43.37552834215397
 20
3.236058775636871
 30
0.0
 10
42.79542497195956
 20
3.511227621824339
 30
0.0
 10
41.71049305393491
 20
4.05185890088107
 30
0.0
 10
40.99266997796438
 20
4.426697249979484
 30
0.0
 10
40.46361275587554
 20
4.702964400402653
 30
0.0
1001
PE_URL
1000

  0
SPLINE
  5
A0
330
1F
100
AcDbEntity
  8
0
  6
Continuous
 62
     1
370
    15
100
AcDbSpline
210
0.0
220
0.0
230
1.0
 70
     8
 71
     3
 72
    11
 73
     7
 74
     0
 42
0.000000001
 43
0.00000001
 40
0.0
 40
0.0
 40
0.0
 40
0.0
 40
0.2193064804249588
 40
0.458435042709484
 40
0.7183856617984485
 40
1.0
 40
1.0
 40
1.0
 40
1.0
 10
39.82975327237213
 20
9.46117049159948
 30
0.0
 10
39.36919424879162
 20
9.437756935841872
 30
0.0
 10
38.40644843646432
 20
9.388813583083108
 30
0.0
 10
36.85292586011852
 20
9.335146033273798
 30
0.0
 10
35.14839908974203
 20
9.300382278959649
 30
0.0
 10
33.95701892072633
 20
9.29928543515412
 30
0.0
 10
33.33750000000003
 20
9.29871507524023
 30
0.0
1001
PE_URL
1000

  0
SPLINE
  5
A1
330
1F
100
AcDbEntity
  8
0
  6
Continuous
 62
     1
370
    15
100
AcDbSpline
210
0.0
220
0.0
230
1.0
 70
     8
 71
     3
 72
    24
 73
    20
 74
     0
 42
0.000000001
 43
0.00000001
 40
0.0
 40
0.0
 40
0.0
 40
0.0
 40
0.0744486333823047
 40
0.1398117981562629
 40
0.1990808932106973
 40
0.252668044719384
 40
0.3004012245757063
 40
0.3887023865023556
 40
0.470760902684839
 40
0.5292140647155149
 40
0.5943054830328944
 40
0.6608598109337445
 40
0.7256313827531142
 40
0.7566277173065634
 40
0.7866195263435413
 40
0.8241014278232961
 40
0.8720240532039327
 40
0.9307599314726883
 40
1.0
 40
1.0
 40
1.0
 40
1.0
 10
70.18931892073306
 20
8.143325117004583
 30
0.0
 10
69.72841570712995
 20
8.103557466251123
 30
0.0
 10
68.86285640614264
 20
8.028875279249249
 30
0.0
 10
67.4882894817705
 20
7.937243230671339
 30
0.0
 10
66.19822872723165
 20
7.890038250386166
 30
0.0
 10
65.03933761959779
 20
7.856326774979697
 30
0.0
 10
63.70627912640231
 20
7.83299162351133
 30
0.0
 10
62.19013061472932
 20
7.833713599710925
 30
0.0
 10
60.59777336459199
 20
7.869212367028294
 30
0.0
 10
59.17649855412259
 20
7.92636795991738
 30
0.0
 10
57.83885096867311
 20
8.001149060476811
 30
0.0
 10
56.47126933970247
 20
8.10061188933445
 30
0.0
 10
55.3450673121451
 20
8.200165433622745
 30
0.0
 10
54.44464483836582
 20
8.290662247773392
 30
0.0
 10
53.73851251842742
 20
8.364111782506106
 30
0.0
 10
52.91728549404355
 20
8.45739800157456
 30
0.0
 10
51.91746245449299
 20
8.58405687403302
 30
0.0
 10
50.71685049317661
 20
8.750148819959744
 30
0.0
 10
49.85524784047878
 20
8.883140216665804
 30
0.0
 10
49.3890865952631
 20
8.955093842733868
 30
0.0
1001
PE_URL
1000

  0
SPLINE
  5
A2
330
1F
100
AcDbEntity
  8
0
  6
Continuous
 62
     1
370
    15
100
AcDbSpline
210
0.0
220
0.0
230
1.0
 70
     8
 71
     3
 72
    17
 73
    13
 74
     0
 42
0.000000001
 43
0.00000001
 40
0.0
 40
0.0
 40
0.0
 40
0.0
 40
0.0776171173936977
 40
0.1532532280631308
 40
0.2286945639020007
 40
0.305884479724669
 40
0.4656306350997688
 40
0.595387364118481
 40
0.6925958868848673
 40
0.7957958011399778
 40
0.9135425134753293
 40
1.0
 40
1.0
 40
1.0
 40
1.0
 10
49.3890865952631
 20
-8.955093842733879
 30
0.0
 10
49.57182799619925
 20
-8.92540501377609
 30
0.0
 10
49.9326467245242
 20
-8.866785098118608
 30
0.0
 10
50.55553634089888
 20
-8.76454889458979
 30
0.0
 10
51.2240575880618
 20
-8.66425352058644
 30
0.0
 10
52.18620608017929
 20
-8.536294211945085
 30
0.0
 10
53.33380101684051
 20
-8.408868794611125
 30
0.0
 10
54.53789724708566
 20
-8.279968303579338
 30
0.0
 10
55.57091655764597
 20
-8.178920782186323
 30
0.0
 10
56.52576582452051
 20
-8.098506631184168
 30
0.0
 10
57.39649322442698
 20
-8.031464382241607
 30
0.0
 10
58.0207217901439
 20
-7.994554180733743
 30
0.0
 10
58.28501230478597
 20
-7.97892686617653
 30
0.0
1001
PE_URL
1000

  0
SPLINE
  5
A3
330
1F
100
AcDbEntity
  8
0
  6
Continuous
 62
     1
370
    15
100
AcDbSpline
210
0.0
220
0.0
230
1.0
 70
     8
 71
     3
 72
    11
 73
     7
 74
     0
 42
0.000000001
 43
0.00000001
 40
0.0
 40
0.0
 40
0.0
 40
0.0
 40
0.2816143382015515
 40
0.5415649572905158
 40
0.7806935195750411
 40
1.0
 40
1.0
 40
1.0
 40
1.0
 10
33.33750000000003
 20
-9.298715075240237
 30
0.0
 10
33.95701892072633
 20
-9.299285435154127
 30
0.0
 10
35.14839908974203
 20
-9.300382278959663
 30
0.0
 10
36.85292586011852
 20
-9.335146033273809
 30
0.0
 10
38.40644843646432
 20
-9.38881358308312
 30
0.0
 10
39.36919424879163
 20
-9.437756935841882
 30
0.0
 10
39.82975327237213
 20
-9.461170491599493
 30
0.0
1001
PE_URL
1000

  0
LINE
  5
A4
330
1F
100
AcDbEntity
  8
외형선
  6
Continuous
370
    15
100
AcDbLine
 10
29.37518467149224
 20
12.69999999999999
 30
0.0
 11
29.37518467149225
 21
-12.7
 31
0.0
  0
SPLINE
  5
A6
330
1F
100
AcDbEntity
  8
외형선
  6
Continuous
370
    15
100
AcDbSpline
210
0.0
220
0.0
230
1.0
 70
     8
 71
     3
 72
     8
 73
     4
 74
     0
 42
0.000000001
 43
0.00000001
 40
0.0
 40
0.0
 40
0.0
 40
0.0
 40
1.0
 40
1.0
 40
1.0
 40
1.0
 10
32.33750000000003
 20
8.541599297481453
 30
0.0
 10
31.65184463658371
 20
8.89405361600081
 30
0.0
 10
30.96921804431602
 20
9.246062985949182
 30
0.0
 10
30.28770957086741
 20
9.594697069498054
 30
0.0
  0
LINE
  5
A7
330
1F
100
AcDbEntity
  8
외형선
  6
Continuous
370
    15
100
AcDbLine
 10
32.33750000000003
 20
8.54159929748142
 30
0.0
 11
32.33750000000003
 21
5.91857940716966
 31
0.0
  0
SPLINE
  5
A8
330
1F
100
AcDbEntity
  8
외형선
  6
Continuous
370
    15
100
AcDbSpline
210
0.0
220
0.0
230
1.0
 70
     8
 71
     3
 72
     8
 73
     4
 74
     0
 42
0.000000001
 43
0.00000001
 40
0.0
 40
0.0
 40
0.0
 40
0.0
 40
1.0
 40
1.0
 40
1.0
 40
1.0
 10
30.28760235359325
 20
7.069208112183966
 30
0.0
 10
30.9719831063376
 20
6.688540445977122
 30
0.0
 10
31.65460585337569
 20
6.303864189419587
 30
0.0
 10
32.33749999999993
 20
5.918579407169712
 30
0.0
  0
LINE
  5
A9
330
1F
100
AcDbEntity
  8
외형선
  6
Continuous
370
    15
100
AcDbLine
 10
30.28760235359325
 20
-12.45551841892116
 30
0.0
 11
30.28760235359325
 21
7.069363903318208
 31
0.0
  0
LINE
  5
AA
330
1F
100
AcDbEntity
  8
외형선
  6
Continuous
370
    15
100
AcDbLine
 10
30.78310267903452
 20
-9.34053543791234
 30
0.0
 11
30.28770957086741
 21
-9.594697069498064
 31
0.0
  0
LINE
  5
AB
330
1F
100
AcDbEntity
  8
외형선
  6
Continuous
370
    15
100
AcDbLine
 10
30.28760235359325
 20
9.594878137468614
 30
0.0
 11
30.28760235359325
 21
12.45551841892115
 31
0.0
  0
SPLINE
  5
AD
330
1F
100
AcDbEntity
  8
외형선
  6
Continuous
370
    15
100
AcDbSpline
210
0.0
220
0.0
230
1.0
 70
    24
 71
     3
 72
    10
 73
     6
 74
     0
 42
0.000000001
 43
0.00000001
 40
0.0
 40
0.0
 40
0.0
 40
0.0
 40
0.5
 40
0.5
 40
1.0
 40
1.0
 40
1.0
 40
1.0
 10
33.33750000000003
 20
5.411368728509956
 30
0.0
 10
33.33750000000003
 20
5.301060587522116
 30
0.0
 10
33.33750000000003
 20
5.066124576000368
 30
0.0
 10
33.33750000000003
 20
4.392091584563288
 30
0.0
 10
33.33750000000003
 20
3.955566985745799
 30
0.0
 10
33.33750000000003
 20
3.479597165868646
 30
0.0
  0
SPLINE
  5
AE
330
1F
100
AcDbEntity
  8
외형선
  6
Continuous
370
    15
100
AcDbSpline
210
0.0
220
0.0
230
1.0
 70
     8
 71
     3
 72
    10
 73
     6
 74
     0
 42
0.000000001
 43
0.00000001
 40
0.0
 40
0.0
 40
0.0
 40
0.0
 40
0.5000000000000001
 40
0.5000000000000001
 40
1.0
 40
1.0
 40
1.0
 40
1.0
 10
33.33750000000003
 20
3.479597165868647
 30
0.0
 10
32.82808536655447
 20
3.666438942694694
 30
0.0
 10
32.31851277249054
 20
3.850118369140755
 30
0.0
 10
31.30322458241731
 20
4.209670698747169
 30
0.0
 10
30.7966576302989
 20
4.385653355512201
 30
0.0
 10
30.28762818395874
 20
4.557759214140272
 30
0.0
  0
SPLINE
  5
AF
330
1F
100
AcDbEntity
  8
외형선
  6
Continuous
370
    15
100
AcDbSpline
210
0.0
220
0.0
230
1.0
 70
     8
 71
     3
 72
     8
 73
     4
 74
     0
 42
0.000000001
 43
0.00000001
 40
0.0
 40
0.0
 40
0.0
 40
0.0
 40
1.0
 40
1.0
 40
1.0
 40
1.0
 10
33.33750000000003
 20
5.411368728509959
 30
0.0
 10
33.00403938488312
 20
5.582643802014156
 30
0.0
 10
32.6705105856776
 20
5.751812207502694
 30
0.0
 10
32.33750000000003
 20
5.91857940716966
 30
0.0
  0
SPLINE
  5
B0
330
1F
100
AcDbEntity
  8
외형선
  6
Continuous
370
    15
100
AcDbSpline
210
0.0
220
0.0
230
1.0
 70
     8
 71
     3
 72
     8
 73
     4
 74
     0
 42
0.000000001
 43
0.00000001
 40
0.0
 40
0.0
 40
0.0
 40
0.0
 40
1.0
 40
1.0
 40
1.0
 40
1.0
 10
33.33750000000003
 20
8.129922775379374
 30
0.0
 10
33.00403938488313
 20
8.270400240284273
 30
0.0
 10
32.6705105856776
 20
8.407704776591826
 30
0.0
 10
32.33750000000003
 20
8.541599297481424
 30
0.0
  0
LINE
  5
B1
330
1F
100
AcDbEntity
  8
외형선
  6
Continuous
370
    15
100
AcDbLine
 10
33.33750000000003
 20
8.129922775379374
 30
0.0
 11
33.33750000000003
 21
5.411368728509958
 31
0.0
  0
SPLINE
  5
B2
330
1F
100
AcDbEntity
  8
외형선
  6
Continuous
370
    15
100
AcDbSpline
210
0.0
220
0.0
230
1.0
 70
     8
 71
     3
 72
    10
 73
     6
 74
     0
 42
0.000000001
 43
0.00000001
 40
0.0
 40
0.0
 40
0.0
 40
0.0
 40
0.5
 40
0.5
 40
1.0
 40
1.0
 40
1.0
 40
1.0
 10
33.33750000000003
 20
-8.655149998169486
 30
0.0
 10
32.82808758834977
 20
-8.557040657277257
 30
0.0
 10
32.31851721743728
 20
-8.451008475161101
 30
0.0
 10
31.30323342190975
 20
-8.22402147312311
 30
0.0
 10
30.79666871497584
 20
-8.103021762371423
 30
0.0
 10
30.28764150465048
 20
-7.974545515841204
 30
0.0
  0
SPLINE
  5
B3
330
1F
100
AcDbEntity
  8
외형선
  6
Continuous
370
    15
100
AcDbSpline
210
0.0
220
0.0
230
1.0
 70
    24
 71
     3
 72
    14
 73
    10
 74
     0
 42
0.000000001
 43
0.00000001
 40
0.0
 40
0.0
 40
0.0
 40
0.0
 40
0.25
 40
0.25
 40
0.5
 40
0.5
 40
0.75
 40
0.75
 40
1.0
 40
1.0
 40
1.0
 40
1.0
 10
33.33750000000003
 20
3.479597165868647
 30
0.0
 10
33.33750000000003
 20
2.449431102537435
 30
0.0
 10
33.33750000000003
 20
1.358456625413538
 30
0.0
 10
33.33750000000003
 20
-0.8531282043363377
 30
0.0
 10
33.33750000000003
 20
-1.972721048544711
 30
0.0
 10
33.33750000000003
 20
-4.129415477825637
 30
0.0
 10
33.33750000000003
 20
-5.16536788593871
 30
0.0
 10
33.33750000000003
 20
-7.058255629400123
 30
0.0
 10
33.33750000000003
 20
-7.914621083584641
 30
0.0
 10
33.33750000000003
 20
-8.655149998169483
 30
0.0
  0
SPLINE
  5
B4
330
1F
100
AcDbEntity
  8
외형선
  6
Continuous
370
    15
100
AcDbSpline
210
0.0
220
0.0
230
1.0
 70
    24
 71
     3
 72
    11
 73
     7
 74
     0
 42
0.000000001
 43
0.00000001
 40
0.0
 40
0.0
 40
0.0
 40
0.0
 40
0.204247688142721
 40
0.6210493795508256
 40
0.9871027358201104
 40
1.0
 40
1.0
 40
1.0
 40
1.0
 10
33.33750000000003
 20
9.25356157620237
 30
0.0
 10
33.33750000000003
 20
9.264745899158733
 30
0.0
 10
33.33750000000003
 20
9.298753710438787
 30
0.0
 10
33.33750000000003
 20
8.935842692541636
 30
0.0
 10
33.33750000000003
 20
8.558019425533972
 30
0.0
 10
33.33750000000003
 20
8.24532378717715
 30
0.0
 10
33.33750000000003
 20
8.23468145533189
 30
0.0
  0
SPLINE
  5
B5
330
1F
100
AcDbEntity
  8
외형선
  6
Continuous
370
    15
100
AcDbSpline
210
0.0
220
0.0
230
1.0
 70
    24
 71
     3
 72
    10
 73
     6
 74
     0
 42
0.000000001
 43
0.00000001
 40
0.0
 40
0.0
 40
0.0
 40
0.0
 40
0.366890022577685
 40
0.7337800451553703
 40
1.0
 40
1.0
 40
1.0
 40
1.0
 10
33.33750000000003
 20
-8.655149998169486
 30
0.0
 10
33.33750000000003
 20
-8.79086069530392
 30
0.0
 10
33.33750000000003
 20
-9.062282089572793
 30
0.0
 10
33.33750000000003
 20
-9.278608205382776
 30
0.0
 10
33.33750000000003
 20
-9.260974992265567
 30
0.0
 10
33.33750000000003
 20
-9.253560303874549
 30
0.0
  0
SPLINE
  5
B6
330
1F
100
AcDbEntity
  8
0
  6
Continuous
 62
     1
370
    15
100
AcDbSpline
210
0.0
220
0.0
230
1.0
 70
     8
 71
     3
 72
    50
 73
    46
 74
     0
 42
0.000000001
 43
0.00000001
 40
0.0
 40
0.0
 40
0.0
 40
0.0
 40
0.0624999999999993
 40
0.0624999999999993
 40
0.1249999999999987
 40
0.1249999999999987
 40
0.1562499999999985
 40
0.1562499999999985
 40
0.1874999999999984
 40
0.1874999999999984
 40
0.2499999999999984
 40
0.2499999999999984
 40
0.2812499999999987
 40
0.2812499999999987
 40
0.3124999999999989
 40
0.3124999999999989
 40
0.3749999999999992
 40
0.3749999999999992
 40
0.4374999999999995
 40
0.4374999999999995
 40
0.4999999999999998
 40
0.4999999999999998
 40
0.5312499999999998
 40
0.5312499999999998
 40
0.5624999999999998
 40
0.5624999999999998
 40
0.5937499999999998
 40
0.5937499999999998
 40
0.6249999999999998
 40
0.6249999999999998
 40
0.6874999999999998
 40
0.6874999999999998
 40
0.7187499999999999
 40
0.7187499999999999
 40
0.75
 40
0.75
 40
0.8125000000000001
 40
0.8125000000000001
 40
0.8750000000000001
 40
0.8750000000000001
 40
0.9375000000000001
 40
0.9375000000000001
 40
0.9687500000000001
 40
0.9687500000000001
 40
1.0
 40
1.0
 40
1.0
 40
1.0
 10
74.61250000000004
 20
-11.89618701882795
 30
0.0
 10
73.75587175004372
 20
-11.87580556212936
 30
0.0
 10
72.89220596256915
 20
-11.82429999422512
 30
0.0
 10
71.17097704677892
 20
-11.65995952846587
 30
0.0
 10
70.3149982338499
 20
-11.54733564058761
 30
0.0
 10
69.02281964354214
 20
-11.33333486879046
 30
0.0
 10
68.59185895005822
 20
-11.25453618962242
 30
0.0
 10
67.73199590541907
 20
-11.08249811738158
 30
0.0
 10
67.3041862444765
 20
-10.9893509902117
 30
0.0
 10
66.0154884959296
 20
-10.68824882161208
 30
0.0
 10
65.15142506834849
 20
-10.45863910634516
 30
0.0
 10
63.86308887162865
 20
-10.07495120754743
 30
0.0
 10
63.43518620456253
 20
-9.940571424340966
 30
0.0
 10
62.57513240189247
 20
-9.658587100648825
 30
0.0
 10
62.14413651414066
 20
-9.51109264601762
 30
0.0
 10
60.85203392530968
 20
-9.050371126457499
 30
0.0
 10
59.9961979645119
 20
-8.71948641022625
 30
0.0
 10
58.27468841303758
 20
-8.01276555353153
 30
0.0
 10
57.41177139743138
 20
-7.637206145343196
 30
0.0
 10
55.69785571348447
 20
-6.850079935613469
 30
0.0
 10
54.83409929455281
 20
-6.436557341292356
 30
0.0
 10
53.54340535088001
 20
-5.793479779400893
 30
0.0
 10
53.11510938703236
 20
-5.575527697605298
 30
0.0
 10
52.25684002102884
 20
-5.132370533291694
 30
0.0
 10
51.82626987125865
 20
-4.90705521223746
 30
0.0
 10
50.9647783584323
 20
-4.4502472645262
 30
0.0
 10
50.53385864385605
 20
-4.218755505666894
 30
0.0
 10
49.67419783466248
 20
-3.750966393700078
 30
0.0
 10
49.24643877618136
 20
-3.5148542335424
 30
0.0
 10
47.95739664304812
 20
-2.79905676918708
 30
0.0
 10
47.09334488024894
 20
-2.312421507995385
 30
0.0
 10
45.80538738649486
 20
-1.576857417980317
 30
0.0
 10
45.37734931378154
 20
-1.330727653101685
 30
0.0
 10
44.51711623900228
 20
-0.8362600595135818
 30
0.0
 10
44.08609094319911
 20
-0.588144963521325
 30
0.0
 10
42.79408167499356
 20
0.1566622634458374
 30
0.0
 10
41.93835181636057
 20
0.6530080948006366
 30
0.0
 10
40.21658466360605
 20
1.641691142249628
 30
0.0
 10
39.35437998546872
 20
2.133276079071829
 30
0.0
 10
37.63982781376795
 20
3.100933942690382
 30
0.0
 10
36.77599241429741
 20
3.579153671575986
 30
0.0
 10
35.48554347003657
 20
4.27963756385841
 30
0.0
 10
35.05744169141344
 20
4.510126042592362
 30
0.0
 10
34.19890402129045
 20
4.96535131320582
 30
0.0
 10
33.76825954100128
 20
5.190118095892502
 30
0.0
 10
33.33750000000003
 20
5.411368728509956
 30
0.0
1001
PE_URL
1000

  0
SPLINE
  5
B7
330
1F
100
AcDbEntity
  8
0
  6
Continuous
 62
     1
370
    15
100
AcDbSpline
210
0.0
220
0.0
230
1.0
 70
     8
 71
     3
 72
    10
 73
     6
 74
     0
 42
0.000000001
 43
0.00000001
 40
0.0
 40
0.0
 40
0.0
 40
0.0
 40
0.3142526879612939
 40
0.657113731659765
 40
0.9999999999999999
 40
0.9999999999999999
 40
0.9999999999999999
 40
0.9999999999999999
 10
45.04985202346326
 20
-1.140025077050796
 30
0.0
 10
43.82302434449041
 20
-0.6457852884288375
 30
0.0
 10
41.25768331443169
 20
0.38768797776041
 30
0.0
 10
37.35347610542614
 20
1.967229199229569
 30
0.0
 10
34.67619152903394
 20
2.975462147986822
 30
0.0
 10
33.33750000000003
 20
3.479597165868646
 30
0.0
1001
PE_URL
1000

  0
SPLINE
  5
B8
330
1F
100
AcDbEntity
  8
외형선
  6
Continuous
370
    15
100
AcDbSpline
210
0.0
220
0.0
230
1.0
 70
    24
 71
     3
 72
    10
 73
     6
 74
     0
 42
0.000000001
 43
0.00000001
 40
0.0
 40
0.0
 40
0.0
 40
0.0
 40
0.5
 40
0.5
 40
1.0
 40
1.0
 40
1.0
 40
1.0
 10
33.33750000000003
 20
5.411368728509954
 30
0.0
 10
33.33750000000003
 20
5.301060587522116
 30
0.0
 10
33.33750000000003
 20
5.066124576000368
 30
0.0
 10
33.33750000000003
 20
4.392091584563288
 30
0.0
 10
33.33750000000003
 20
3.955566985745799
 30
0.0
 10
33.33750000000003
 20
3.479597165868646
 30
0.0
  0
SPLINE
  5
B9
330
1F
100
AcDbEntity
  8
0
  6
Continuous
 62
     1
370
    15
100
AcDbSpline
210
0.0
220
0.0
230
1.0
 70
     8
 71
     3
 72
    50
 73
    46
 74
     0
 42
0.000000001
 43
0.00000001
 40
0.0
 40
0.0
 40
0.0
 40
0.0
 40
0.0624999999999996
 40
0.0624999999999996
 40
0.1249999999999991
 40
0.1249999999999991
 40
0.1562499999999989
 40
0.1562499999999989
 40
0.1874999999999987
 40
0.1874999999999987
 40
0.2499999999999986
 40
0.2499999999999986
 40
0.2812499999999987
 40
0.2812499999999987
 40
0.3124999999999988
 40
0.3124999999999988
 40
0.3749999999999988
 40
0.3749999999999988
 40
0.4374999999999989
 40
0.4374999999999989
 40
0.499999999999999
 40
0.499999999999999
 40
0.531249999999999
 40
0.531249999999999
 40
0.562499999999999
 40
0.562499999999999
 40
0.593749999999999
 40
0.593749999999999
 40
0.624999999999999
 40
0.624999999999999
 40
0.6874999999999991
 40
0.6874999999999991
 40
0.7187499999999992
 40
0.7187499999999992
 40
0.7499999999999993
 40
0.7499999999999993
 40
0.8124999999999997
 40
0.8124999999999997
 40
0.8749999999999999
 40
0.8749999999999999
 40
0.9375
 40
0.9375
 40
0.96875
 40
0.96875
 40
1.0
 40
1.0
 40
1.0
 40
1.0
 10
74.61250000000003
 20
-11.29832722429231
 30
0.0
 10
73.75587175004361
 20
-11.14191445132629
 30
0.0
 10
72.89220596256901
 20
-10.95556775678107
 30
0.0
 10
71.17097704677863
 20
-10.52709689953282
 30
0.0
 10
70.31499823384954
 20
-10.28525287422612
 30
0.0
 10
69.02281964354165
 20
-9.882450839456
 30
0.0
 10
68.59185895005771
 20
-9.741613987128613
 30
0.0
 10
67.73199590541847
 20
-9.447651123921446
 30
0.0
 10
67.30418624447586
 20
-9.294666323736061
 30
0.0
 10
66.01548849592888
 20
-8.817233122377209
 30
0.0
 10
65.15142506834766
 20
-8.47443410667735
 30
0.0
 10
63.86308887162775
 20
-7.929492667676667
 30
0.0
 10
63.43518620456157
 20
-7.742786594029458
 30
0.0
 10
62.57513240189146
 20
-7.358910040821795
 30
0.0
 10
62.14413651413961
 20
-7.161899048699899
 30
0.0
 10
60.85203392530851
 20
-6.557359546466908
 30
0.0
 10
59.99619796451068
 20
-6.13705315765217
 30
0.0
 10
58.27468841303621
 20
-5.265065359063698
 30
0.0
 10
57.41177139742995
 20
-4.813783231572192
 30
0.0
 10
55.69785571348287
 20
-3.89062482449762
 30
0.0
 10
54.83409929455114
 20
-3.416460246381658
 30
0.0
 10
53.54340535087822
 20
-2.694591660365446
 30
0.0
 10
53.11510938703056
 20
-2.452417358318514
 30
0.0
 10
52.25684002102697
 20
-1.964878756328704
 30
0.0
 10
51.82626987125672
 20
-1.719398181637293
 30
0.0
 10
50.9647783584303
 20
-1.226444356045379
 30
0.0
 10
50.533858643854
 20
-0.9789720465332046
 30
0.0
 10
49.67419783466039
 20
-0.4834913964986935
 30
0.0
 10
49.24643877617925
 20
-0.2356730301247784
 30
0.0
 10
47.95739664304587
 20
0.5088667826789133
 30
0.0
 10
47.09334488024662
 20
1.006091020430047
 30
0.0
 10
45.80538738649247
 20
1.74450480150054
 30
0.0
 10
45.37734931377908
 20
1.989423736408602
 30
0.0
 10
44.51711623899975
 20
2.477138612849391
 30
0.0
 10
44.08609094319654
 20
2.719709716463081
 30
0.0
 10
42.79408167499088
 20
3.441422541150493
 30
0.0
 10
41.93835181635782
 20
3.913801668991177
 30
0.0
 10
40.21658466360314
 20
4.837594498127023
 30
0.0
 10
39.35437998546577
 20
5.288267493830531
 30
0.0
 10
37.63982781376485
 20
6.158072548794491
 30
0.0
 10
36.77599241429422
 20
6.579125593127799
 30
0.0
 10
35.48554347003329
 20
7.182460073548869
 30
0.0
 10
35.05744169141013
 20
7.37870500257846
 30
0.0
 10
34.19890402128703
 20
7.761693073898919
 30
0.0
 10
33.76825954099783
 20
7.948456042698683
 30
0.0
 10
33.33749999999655
 20
8.129922775380845
 30
0.0
1001
PE_URL
1000

  0
SPLINE
  5
BA
330
1F
100
AcDbEntity
  8
0
  6
Continuous
 62
     1
370
    15
100
AcDbSpline
210
0.0
220
0.0
230
1.0
 70
     8
 71
     3
 72
    16
 73
    12
 74
     0
 42
0.000000001
 43
0.00000001
 40
0.0
 40
0.0
 40
0.0
 40
0.0
 40
0.1195152968003766
 40
0.2390321051148394
 40
0.35855034196526
 40
0.4780699242281162
 40
0.597590768642863
 40
0.7171127918203353
 40
0.8366359102511777
 40
0.9561600403143
 40
1.0
 40
1.0
 40
1.0
 40
1.0
 10
74.61250000000003
 20
-9.393701022634074
 30
0.0
 10
73.38133660605416
 20
-9.139807967981502
 30
0.0
 10
70.91899424759644
 20
-8.632018647682127
 30
0.0
 10
67.22544931684331
 20
-7.513602325210602
 30
0.0
 10
63.53185421051734
 20
-6.176386961098297
 30
0.0
 10
59.83821121883469
 20
-4.635630104813268
 30
0.0
 10
56.14452344991275
 20
-2.948574753492986
 30
0.0
 10
52.45079390665349
 20
-1.164944567811125
 30
0.0
 10
48.75702522306901
 20
0.6491110493805915
 30
0.0
 10
45.84288555233658
 20
2.083768993000515
 30
0.0
 10
44.16000111241274
 20
2.85842907958445
 30
0.0
 10
43.70838664735258
 20
3.066314833535498
 30
0.0
1001
PE_URL
1000

  0
LINE
  5
BB
330
1F
100
AcDbEntity
  8
0
  6
Continuous
 62
     1
370
    15
100
AcDbLine
 10
74.61249999999976
 20
-11.29832722429231
 30
0.0
 11
74.61250000000003
 21
-9.393701022634074
 31
0.0
1001
PE_URL
1000

  0
LINE
  5
BC
330
1F
100
AcDbEntity
  8
0
  6
Continuous
 62
     1
370
    15
100
AcDbLine
 10
74.61250000000004
 20
-11.89618701882795
 30
0.0
 11
74.6124999999997
 21
-11.29832722429229
 31
0.0
1001
PE_URL
1000

  0
SPLINE
  5
BD
330
1F
100
AcDbEntity
  8
0
  6
Continuous
 62
     1
370
    15
100
AcDbSpline
210
0.0
220
0.0
230
1.0
 70
     8
 71
     3
 72
    10
 73
     6
 74
     0
 42
0.000000001
 43
0.00000001
 40
0.0
 40
0.0
 40
0.0
 40
0.0
 40
0.5
 40
0.5
 40
1.0
 40
1.0
 40
1.0
 40
1.0
 10
74.61250000000003
 20
-3.181861326165459
 30
0.0
 10
73.75967583171519
 20
-2.511401489571604
 30
0.0
 10
72.91659001662069
 20
-1.822382940163772
 30
0.0
 10
71.2496129405119
 20
-0.4077661230110279
 30
0.0
 10
70.42571640763495
 20
0.3178220979647475
 30
0.0
 10
69.61249999999994
 20
1.063763798970355
 30
0.0
1001
PE_URL
1000

  0
LINE
  5
BE
330
1F
100
AcDbEntity
  8
0
  6
Continuous
 62
     1
370
    15
100
AcDbLine
 10
69.61250000000003
 20
2.937719435296586
 30
0.0
 11
74.61250000000003
 21
-0.0000000000000004
 31
0.0
1001
PE_URL
1000

  0
LINE
  5
BF
330
1F
100
AcDbEntity
  8
0
  6
Continuous
 62
     1
370
    15
100
AcDbLine
 10
74.61250000000003
 20
-0.0000000000000004
 30
0.0
 11
74.61250000000003
 21
-3.18186132616546
 31
0.0
1001
PE_URL
1000

  0
SPLINE
  5
C0
330
1F
100
AcDbEntity
  8
0
  6
Continuous
 62
     1
370
    15
100
AcDbSpline
210
0.0
220
0.0
230
1.0
 70
     8
 71
     3
 72
    16
 73
    12
 74
     0
 42
0.000000001
 43
0.00000001
 40
0.0
 40
0.0
 40
0.0
 40
0.0
 40
0.1020589185101225
 40
0.2041491206347947
 40
0.3281491576103688
 40
0.4521505224932099
 40
0.576153127544972
 40
0.7001568849004525
 40
0.8241617065765183
 40
0.9481675044810579
 40
1.0
 40
1.0
 40
1.0
 40
1.0
 10
69.61250000000004
 20
2.287056819127237
 30
0.0
 10
68.59924183321095
 20
2.73665752141023
 30
0.0
 10
66.57241491062797
 20
3.635996739851544
 30
0.0
 10
63.31434846126389
 20
4.982426326926065
 30
0.0
 10
59.83817554659994
 20
6.288965039884119
 30
0.0
 10
56.14449869488362
 20
7.474964921657605
 30
0.0
 10
52.45075729048624
 20
8.420719719405696
 30
0.0
 10
48.75699120259564
 20
9.10239986911313
 30
0.0
 10
45.0631551450327
 20
9.472442425691337
 30
0.0
 10
42.08602323955598
 20
9.587795198134003
 30
0.0
 10
40.3399775469023
 20
9.457059668441012
 30
0.0
 10
39.82528928544164
 20
9.418522279200896
 30
0.0
1001
PE_URL
1000

  0
SPLINE
  5
C1
330
1F
100
AcDbEntity
  8
0
  6
Continuous
 62
     1
370
    15
100
AcDbSpline
210
0.0
220
0.0
230
1.0
 70
    24
 71
     3
 72
     8
 73
     4
 74
     0
 42
0.000000001
 43
0.00000001
 40
0.0
 40
0.0
 40
0.0
 40
0.0
 40
1.0
 40
1.0
 40
1.0
 40
1.0
 10
69.61250000000004
 20
1.063763798970668
 30
0.0
 10
69.61250000000004
 20
1.476383563775068
 30
0.0
 10
69.61250000000004
 20
1.884980928444342
 30
0.0
 10
69.61250000000004
 20
2.287056819127243
 30
0.0
1001
PE_URL
1000

  0
SPLINE
  5
C2
330
1F
100
AcDbEntity
  8
0
  6
Continuous
 62
     1
370
    15
100
AcDbSpline
210
0.0
220
0.0
230
1.0
 70
    24
 71
     3
 72
    10
 73
     6
 74
     0
 42
0.000000001
 43
0.00000001
 40
0.0
 40
0.0
 40
0.0
 40
0.0
 40
0.5
 40
0.5
 40
1.0
 40
1.0
 40
1.0
 40
1.0
 10
74.61250000000003
 20
-9.393701022634074
 30
0.0
 10
74.61250000000004
 20
-8.673600600326555
 30
0.0
 10
74.6125
 20
-7.763726105261394
 30
0.0
 10
74.61250000000001
 20
-5.648355469887785
 30
0.0
 10
74.61250000000004
 20
-4.444691743829662
 30
0.0
 10
74.61250000000003
 20
-3.181861326165841
 30
0.0
1001
PE_URL
1000

  0
SPLINE
  5
C3
330
1F
100
AcDbEntity
  8
외형선
  6
Continuous
370
    15
100
AcDbSpline
210
0.0
220
0.0
230
1.0
 70
    24
 71
     3
 72
    11
 73
     7
 74
     0
 42
0.000000001
 43
0.00000001
 40
0.0
 40
0.0
 40
0.0
 40
0.0
 40
0.2066110200966894
 40
0.6221748379339668
 40
0.9871410398452459
 40
1.0
 40
1.0
 40
1.0
 40
1.0
 10
33.33750000000003
 20
9.253486048333254
 30
0.0
 10
33.33750000000003
 20
9.264921784251817
 30
0.0
 10
33.33750000000003
 20
9.299358607314097
 30
0.0
 10
33.33750000000003
 20
8.935997730413932
 30
0.0
 10
33.33750000000003
 20
8.558018544511125
 30
0.0
 10
33.33750000000003
 20
8.245323758179202
 30
0.0
 10
33.33750000000003
 20
8.23468145533189
 30
0.0
  0
SPLINE
  5
C4
330
1F
100
AcDbEntity
  8
0
  6
Continuous
 62
     1
370
    15
100
AcDbSpline
210
0.0
220
0.0
230
1.0
 70
    24
 71
     3
 72
    10
 73
     6
 74
     0
 42
0.000000001
 43
0.00000001
 40
0.0
 40
0.0
 40
0.0
 40
0.0
 40
0.4999999999999999
 40
0.4999999999999999
 40
1.0
 40
1.0
 40
1.0
 40
1.0
 10
69.61250000000004
 20
2.287056819127241
 30
0.0
 10
69.61250000000004
 20
3.188794250093723
 30
0.0
 10
69.61250000000004
 20
4.044120285396521
 30
0.0
 10
69.61250000000003
 20
5.555794882897898
 30
0.0
 10
69.61250000000003
 20
6.210906821448613
 30
0.0
 10
69.61250000000003
 20
6.726131543537198
 30
0.0
1001
PE_URL
1000

  0
SPLINE
  5
C5
330
1F
100
AcDbEntity
  8
0
  6
Continuous
 62
     1
370
    15
100
AcDbSpline
210
0.0
220
0.0
230
1.0
 70
     8
 71
     3
 72
     9
 73
     5
 74
     0
 42
0.000000001
 43
0.00000001
 40
0.0
 40
0.0
 40
0.0
 40
0.0
 40
0.8342439472296307
 40
1.0
 40
1.0
 40
1.0
 40
1.0
 10
74.61250000000003
 20
8.334374999999994
 30
0.0
 10
73.38133455843439
 20
8.326414535125336
 30
0.0
 10
71.90554867391688
 20
8.316872404312049
 30
0.0
 10
70.42975978362894
 20
8.150063565766484
 30
0.0
 10
70.18513884245245
 20
8.122413991121961
 30
0.0
1001
PE_URL
1000

  0
SPLINE
  5
C6
330
1F
100
AcDbEntity
  8
0
  6
Continuous
 62
     1
370
    15
100
AcDbSpline
210
0.0
220
0.0
230
1.0
 70
     8
 71
     3
 72
     8
 73
     4
 74
     0
 42
0.000000001
 43
0.00000001
 40
0.0
 40
0.0
 40
0.0
 40
0.0
 40
1.0
 40
1.0
 40
1.0
 40
1.0
 10
74.61250000000003
 20
8.334374999999998
 30
0.0
 10
72.93071015596317
 20
7.8784161323917
 30
0.0
 10
71.26321372655397
 20
7.346731046284722
 30
0.0
 10
69.61250000000004
 20
6.726131543537243
 30
0.0
1001
PE_URL
1000

  0
SPLINE
  5
C7
330
1F
100
AcDbEntity
  8
0
  6
Continuous
 62
     1
370
    15
100
AcDbSpline
210
0.0
220
0.0
230
1.0
 70
     8
 71
     3
 72
    12
 73
     8
 74
     0
 42
0.000000001
 43
0.00000001
 40
0.0
 40
0.0
 40
0.0
 40
0.0
 40
0.0396432129130779
 40
0.2697082175474181
 40
0.4997750333694629
 40
0.7498785558358715
 40
1.0
 40
1.0
 40
1.0
 40
1.0
 10
49.39348664734173
 20
-8.934360279437827
 30
0.0
 10
49.18132297215025
 20
-8.974132331884455
 30
0.0
 10
47.73789085705725
 20
-9.244717094958578
 30
0.0
 10
45.06316095600655
 20
-9.470073946349176
 30
0.0
 10
41.26216105051329
 20
-9.571439713303839
 30
0.0
 10
37.35348169085655
 20
-9.333267485671078
 30
0.0
 10
34.67619253694429
 20
-8.881194559517116
 30
0.0
 10
33.33750000000003
 20
-8.655149998169488
 30
0.0
1001
PE_URL
1000

  0
SPLINE
  5
C8
330
1F
100
AcDbEntity
  8
외형선
  6
Continuous
370
    15
100
AcDbSpline
210
0.0
220
0.0
230
1.0
 70
    24
 71
     3
 72
    14
 73
    10
 74
     0
 42
0.000000001
 43
0.00000001
 40
0.0
 40
0.0
 40
0.0
 40
0.0
 40
0.25
 40
0.25
 40
0.5
 40
0.5
 40
0.75
 40
0.75
 40
1.0
 40
1.0
 40
1.0
 40
1.0
 10
33.33750000000003
 20
3.479597165868647
 30
0.0
 10
33.33750000000003
 20
2.449431102537435
 30
0.0
 10
33.33750000000003
 20
1.358456625413538
 30
0.0
 10
33.33750000000003
 20
-0.8531282043363377
 30
0.0
 10
33.33750000000003
 20
-1.972721048544711
 30
0.0
 10
33.33750000000003
 20
-4.129415477825637
 30
0.0
 10
33.33750000000003
 20
-5.16536788593871
 30
0.0
 10
33.33750000000003
 20
-7.058255629400123
 30
0.0
 10
33.33750000000003
 20
-7.914621083584641
 30
0.0
 10
33.33750000000003
 20
-8.655149998169483
 30
0.0
  0
LINE
  5
C9
330
1F
100
AcDbEntity
  8
0
  6
Continuous
 62
     1
370
    15
100
AcDbLine
 10
74.61250000000003
 20
-0.0000000000000004
 30
0.0
 11
74.61250000000003
 21
8.334374999999998
 31
0.0
1001
PE_URL
1000

  0
SPLINE
  5
CA
330
1F
100
AcDbEntity
  8
외형선
  6
Continuous
370
    15
100
AcDbSpline
210
0.0
220
0.0
230
1.0
 70
    24
 71
     3
 72
    10
 73
     6
 74
     0
 42
0.000000001
 43
0.00000001
 40
0.0
 40
0.0
 40
0.0
 40
0.0
 40
0.3683204158853575
 40
0.736640831770715
 40
1.0
 40
1.0
 40
1.0
 40
1.0
 10
33.33750000000003
 20
-8.655149998169486
 30
0.0
 10
33.33750000000003
 20
-8.790831894351209
 30
0.0
 10
33.33750000000003
 20
-9.06219568671466
 30
0.0
 10
33.33750000000003
 20
-9.278072664606572
 30
0.0
 10
33.33750000000003
 20
-9.260720495774063
 30
0.0
 10
33.33750000000003
 20
-9.253486048333265
 30
0.0
  0
SPLINE
  5
CB
330
1F
100
AcDbEntity
  8
0
  6
Continuous
 62
     1
370
    15
100
AcDbSpline
210
0.0
220
0.0
230
1.0
 70
     8
 71
     3
 72
    12
 73
     8
 74
     0
 42
0.000000001
 43
0.00000001
 40
0.0
 40
0.0
 40
0.0
 40
0.0
 40
0.110069099671032
 40
0.3325523289954955
 40
0.5550352263982646
 40
0.777517785518626
 40
0.9999999999999999
 40
0.9999999999999999
 40
0.9999999999999999
 40
0.9999999999999999
 10
58.28715291932858
 20
7.979840777282761
 30
0.0
 10
58.88612542630979
 20
8.241723248403865
 30
0.0
 10
60.69580409903628
 20
9.032950086405684
 30
0.0
 10
63.71618599347582
 20
10.07206615963091
 30
0.0
 10
67.34829677240255
 20
11.05160649808812
 30
0.0
 10
70.98040095257772
 20
11.70263599827368
 30
0.0
 10
73.40180094267568
 20
11.83167004529014
 30
0.0
 10
74.61250000000004
 20
11.89618701882794
 30
0.0
1001
PE_URL
1000

  0
SPLINE
  5
CC
330
1F
100
AcDbEntity
  8
0
  6
Continuous
 62
     1
370
    15
100
AcDbSpline
210
0.0
220
0.0
230
1.0
 70
    24
 71
     3
 72
    10
 73
     6
 74
     0
 42
0.000000001
 43
0.00000001
 40
0.0
 40
0.0
 40
0.0
 40
0.0
 40
0.5
 40
0.5
 40
1.0
 40
1.0
 40
1.0
 40
1.0
 10
74.61250000000003
 20
8.334374999999994
 30
0.0
 10
74.61250000000003
 20
8.839584057612074
 30
0.0
 10
74.61250000000003
 20
9.42668376994911
 30
0.0
 10
74.61250000000004
 20
10.65841738519018
 30
0.0
 10
74.61250000000003
 20
11.29990559501127
 30
0.0
 10
74.61250000000003
 20
11.89618701882794
 30
0.0
1001
PE_URL
1000

  0
LINE
  5
CD
330
1F
100
AcDbEntity
  8
중심선
 62
     1
100
AcDbLine
 10
-81.6125
 20
-0.0000000000000102
 30
0.0
 11
81.6125
 21
0.0000000000000099
 31
0.0
  0
LINE
  5
CE
330
1F
100
AcDbEntity
  8
참조1
100
AcDbLine
 10
0.0
 20
-0.00000000000001
 30
0.0
 11
0.0000000000000071
 21
-40.00000000000001
 31
0.0
  0
LINE
  5
CF
330
1F
100
AcDbEntity
  8
참조1
100
AcDbLine
 10
0.0000000000000071
 20
-40.00000000000001
 30
0.0
 11
-6.528215596699194
 21
-40.00000000000001
 31
0.0
  0
CIRCLE
  5
D0
330
1F
100
AcDbEntity
  8
해칭선
100
AcDbCircle
 10
0.0
 20
0.0
 30
0.0
 40
3.000000000000001
  0
INSERT
  5
D1
330
1F
100
AcDbEntity
  8
0
  6
Continuous
 62
     7
100
AcDbBlockReference
 66
     1
  2
블럭10
 10
-13.94027293212521
 20
-52.04717430164394
 30
0.0
  0
ATTRIB
  5
D2
330
D1
100
AcDbEntity
  8
FORMAT
 62
     2
100
AcDbText
 10
-23.12156822086649
 20
-49.97180738881175
 30
0.0
 40
4.233333333333333
  1
E2050060 [ 2 FLUTE ]
 41
0.75
  7
SLDTEXTSTYLE0
 11
-23.12156822086649
 21
-52.08847405547842
 31
0.0
100
AcDbAttribute
  2
AUTOATTR0
 70
     0
 74
     1
  0
SEQEND
  5
D3
330
D1
100
AcDbEntity
  8
0
  6
Continuous
 62
     7
  0
HATCH
  5
D4
330
1F
100
AcDbEntity
  8
중심선
100
AcDbHatch
 10
0.0
 20
0.0
 30
0.0
210
0.0
220
0.0
230
1.0
  2
SOLID
 70
     1
 71
     0
 91
        1
 92
        0
 93
        4
 72
     1
 10
-8.225363627744372
 20
-35.8
 11
-11.67163887158166
 21
-35.8
 72
     1
 10
-11.67163887158166
 20
-35.8
 11
-13.79986873078568
 21
-38.33632558057258
 72
     1
 10
-13.79986873078568
 20
-38.33632558057258
 11
-10.35356040183525
 21
-38.33628615127009
 72
     1
 10
-10.35356040183525
 20
-38.33628615127009
 11
-8.225363627744372
 21
-35.8
 97
        0
 75
     0
 76
     1
 98
        1
 10
22.93171167873054
 20
-0.0010749287238992
  0
HATCH
  5
D5
330
1F
100
AcDbEntity
  8
중심선
100
AcDbHatch
 10
0.0
 20
0.0
 30
0.0
210
0.0
220
0.0
230
1.0
  2
SOLID
 70
     1
 71
     0
 91
        1
 92
        0
 93
        4
 72
     1
 10
-3.21259963670839
 20
-35.8
 11
-6.658874880545703
 21
-35.80000000000003
 72
     1
 10
-6.658874880545703
 20
-35.80000000000003
 11
-11.19001288890309
 21
-41.20000000000002
 72
     1
 10
-11.19001288890309
 20
-41.20000000000002
 11
-7.743737645065806
 21
-41.20000000000002
 72
     1
 10
-7.743737645065806
 20
-41.20000000000002
 11
-3.21259963670839
 21
-35.8
 97
        0
 75
     0
 76
     1
 98
        1
 10
22.93171167873054
 20
-0.0010749287238992
  0
HATCH
  5
D6
330
1F
100
AcDbEntity
  8
중심선
100
AcDbHatch
 10
0.0
 20
0.0
 30
0.0
210
0.0
220
0.0
230
1.0
  2
SOLID
 70
     1
 71
     0
 91
        1
 92
        0
 93
        4
 72
     1
 10
1.800164354327475
 20
-35.8
 11
-1.646110889509639
 21
-35.8
 72
     1
 10
-1.646110889509639
 20
-35.8
 11
-8.69454779139889
 21
-44.20000000000002
 72
     1
 10
-8.69454779139889
 20
-44.20000000000002
 11
-5.248272547561605
 21
-44.20000000000002
 72
     1
 10
-5.248272547561605
 20
-44.20000000000002
 11
1.800164354327475
 21
-35.8
 97
        0
 75
     0
 76
     1
 98
        1
 10
22.93171167873054
 20
-0.0010749287238992
  0
HATCH
  5
D7
330
1F
100
AcDbEntity
  8
중심선
100
AcDbHatch
 10
0.0
 20
0.0
 30
0.0
210
0.0
220
0.0
230
1.0
  2
SOLID
 70
     1
 71
     0
 91
        1
 92
        0
 93
        6
 72
     3
 10
6.600054785339676
 20
-40.00000000005128
 11
3.960054785062283
 21
1.540882976769353E-10
 40
0.3939339440162628
 50
17.09539180608436
 51
320.0019657685086
 73
     0
 72
     1
 10
8.28305444104027
 20
-38.58789400463834
 11
10.58835631474134
 21
-36.65356729459039
 72
     3
 10
6.600054785286829
 20
-40.00000000000016
 11
6.600054785286829
 21
-1.278976924368180E-13
 40
0.636358354079598
 50
39.99873849337385
 51
368.4976242363724
 73
     1
 72
     1
 10
13.02538727718744
 20
-39.03999999993003
 11
5.280122092122753
 21
-39.03999999993003
 72
     1
 10
5.280122092122753
 20
-39.03999999993003
 11
5.280097047676819
 21
-40.95999999992992
 72
     1
 10
5.280097047676819
 20
-40.95999999992992
 11
9.721476817148854
 21
-40.95999999992989
 97
        0
 75
     0
 76
     1
 98
        1
 10
22.93171167873054
 20
-0.0010749287238992
  0
DIMENSION
  5
D8
330
1F
100
AcDbEntity
  8
치수문자_일반주서
100
AcDbDimension
  2
_D
 10
-89.61249999999991
 20
-12.70000000000022
 30
0.0
 11
-89.61250000000004
 21
27.37699999999992
 31
0.0
 70
   160
  1
%%c<>
 71
     2
 42
25.39999999999999
 52
-270.0
  3
SLDDIMSTYLE1
100
AcDbAlignedDimension
 13
-29.37518467149224
 23
12.69999999999999
 33
0.0
 14
-29.37518467149225
 24
-12.7
 34
0.0
 50
90.0000000000002
100
AcDbRotatedDimension
1001
PE_URL
1000

1001
ACAD
1000
DSTYLE
1002
{
1070
   171
1070
     8
1070
   273
1070
     7
1070
   140
1040
4.0
1002
}
1001
ACAD_DSTYLE_DIMFLIPARROW_SYMBOL
1070
   385
1070
     0
1001
ACAD_DSTYLE_DIMFLIPARROW_WHICH_SYMBOL
1070
   386
1070
     3
  0
DIMENSION
  5
ED
330
1F
100
AcDbEntity
  8
치수문자_일반주서
100
AcDbDimension
  2
_D_1
 10
89.61250000000001
 20
11.896187018828
 30
0.0
 11
89.61249999999994
 21
33.57318701882799
 31
0.0
 70
   160
  1
%%c<>
 71
     2
 42
23.79237403765589
 52
-270.0
  3
SLDDIMSTYLE1
100
AcDbAlignedDimension
 13
74.61250000000004
 23
-11.89618701882795
 33
0.0
 14
74.61250000000004
 24
11.89618701882794
 34
0.0
 50
90.0000000000002
100
AcDbRotatedDimension
1001
PE_URL
1000

1001
ACAD
1000
DSTYLE
1002
{
1070
   171
1070
     8
1070
   273
1070
     7
1070
   140
1040
4.0
1002
}
1001
ACAD_DSTYLE_DIMFLIPARROW_SYMBOL
1070
   385
1070
     0
1001
ACAD_DSTYLE_DIMFLIPARROW_WHICH_SYMBOL
1070
   386
1070
     3
  0
DIMENSION
  5
101
330
1F
100
AcDbEntity
  8
치수문자_일반주서
100
AcDbDimension
  2
_D_2
 10
33.33750000000003
 20
27.69999999999999
 30
0.0
 11
53.97500000000007
 21
27.69999999999999
 31
0.0
 70
   160
  1
<>
 71
     2
 42
41.27500000000001
  3
SLDDIMSTYLE1
100
AcDbAlignedDimension
 13
74.61250000000004
 23
11.89618701882794
 33
0.0
 14
33.33750000000003
 24
9.298982494606628
 34
0.0
100
AcDbRotatedDimension
1001
PE_URL
1000

1001
ACAD
1000
DSTYLE
1002
{
1070
   171
1070
     8
1070
   273
1070
     7
1070
   140
1040
4.0
1002
}
  0
DIMENSION
  5
115
330
1F
100
AcDbEntity
  8
치수문자_일반주서
100
AcDbDimension
  2
_D_3
 10
74.61250000000004
 20
42.69999999999999
 30
0.0
 11
0.0000000000000284
 21
42.69999999999999
 31
0.0
 70
   160
  1
<>
 71
     2
 42
149.2250000000001
  3
SLDDIMSTYLE1
100
AcDbAlignedDimension
 13
-74.61250000000004
 23
11.89618701882796
 33
0.0
 14
74.61250000000004
 24
11.89618701882794
 34
0.0
 50
-0.0000000000000055
100
AcDbRotatedDimension
1001
PE_URL
1000

1001
ACAD
1000
DSTYLE
1002
{
1070
   171
1070
     8
1070
   273
1070
     7
1070
   140
1040
4.0
1002
}
  0
LINE
  5
128
330
1F
100
AcDbEntity
  8
참조1
100
AcDbLine
 10
91.44412503295507
 20
7.439999999999996
 30
0.0
 11
91.44412503295507
 21
-7.440000000000008
 31
0.0
  0
LINE
  5
129
330
1F
100
AcDbEntity
  8
참조1
100
AcDbLine
 10
104.1441250329551
 20
5.439999999999996
 30
0.0
 11
91.44412503295507
 21
5.439999999999996
 31
0.0
  0
SOLID
  5
12A
330
1F
100
AcDbEntity
  8
참조1
100
AcDbTrace
 10
91.44412503295507
 20
5.439999999999996
 30
0.0
 11
97.79412503295507
 21
4.423999999999996
 31
0.0
 12
97.79412503295507
 22
6.455999999999996
 32
0.0
 13
97.79412503295507
 23
6.455999999999996
 33
0.0
  0
LINE
  5
12B
330
1F
100
AcDbEntity
  8
참조1
100
AcDbLine
 10
104.1441250329551
 20
-5.440000000000008
 30
0.0
 11
91.44412503295507
 21
-5.440000000000008
 31
0.0
  0
SOLID
  5
12C
330
1F
100
AcDbEntity
  8
참조1
100
AcDbTrace
 10
91.44412503295507
 20
-5.440000000000008
 30
0.0
 11
97.79412503295507
 21
-6.456000000000008
 31
0.0
 12
97.79412503295507
 22
-4.424000000000008
 32
0.0
 13
97.79412503295507
 23
-4.424000000000008
 33
0.0
  0
MTEXT
  5
12D
330
1F
100
AcDbEntity
  8
참조1
100
AcDbMText
 10
100.8284751655811
 20
11.01029177718832
 30
0.0
 40
3.5
 41
0.0
 71
     1
 72
     1
  1
A
  7
SLDTEXTSTYLE0
 73
     1
 44
1.0
  0
MTEXT
  5
12E
330
1F
100
AcDbEntity
  8
참조1
100
AcDbMText
 10
100.8284751655811
 20
0.1302917771883201
 30
0.0
 40
3.5
 41
0.0
 71
     1
 72
     1
  1
A
  7
SLDTEXTSTYLE0
 73
     1
 44
1.0
  0
INSERT
  5
135
330
1F
100
AcDbEntity
  8
해칭선
100
AcDbBlockReference
  2
SW_DOWELSYMBOL_0
 10
0.0
 20
0.0
 30
0.0
  0
LINE
  5
1A4
330
1F
100
AcDbEntity
  8
외형선
  6
Continuous
370
    15
100
AcDbLine
 10
-6.553199999999947
 20
10.79499999999999
 30
0.0
 11
6.553199999999947
 21
10.79499999999999
 31
0.0
1001
PE_URL
1000

  0
LINE
  5
1A5
330
1F
100
AcDbEntity
  8
외형선
  6
Continuous
370
    15
100
AcDbLine
 10
-6.553199999999947
 20
10.795
 30
0.0
 11
-8.45819999999992
 21
12.69999999999999
 31
0.0
1001
PE_URL
1000

  0
LINE
  5
1A6
330
1F
100
AcDbEntity
  8
외형선
  6
Continuous
370
    15
100
AcDbLine
 10
6.553199999999947
 20
10.795
 30
0.0
 11
8.458199999999977
 21
12.69999999999999
 31
0.0
1001
PE_URL
1000

  0
LINE
  5
1ED
330
1F
100
AcDbEntity
  8
외형선
  6
Continuous
370
    15
100
AcDbLine
 10
-29.37518467149224
 20
12.69999999999999
 30
0.0
 11
-30.28760235359324
 21
12.45551841892115
 31
0.0
  0
LINE
  5
1EE
330
1F
100
AcDbEntity
  8
외형선
  6
Continuous
370
    15
100
AcDbLine
 10
-30.28760235359325
 20
-12.45551841892117
 30
0.0
 11
-29.37518467149225
 21
-12.70000000000001
 31
0.0
  0
SPLINE
  5
1EF
330
1F
100
AcDbEntity
  8
외형선
  6
Continuous
370
    15
100
AcDbSpline
210
0.0
220
0.0
230
1.0
 70
     8
 71
     3
 72
     9
 73
     5
 74
     0
 42
0.000000001
 43
0.00000001
 40
0.0
 40
0.0
 40
0.0
 40
0.0
 40
0.443062420387035
 40
1.0
 40
1.0
 40
1.0
 40
1.0
 10
-33.33750000000005
 20
-9.298715075240239
 30
0.0
 10
-32.95708351852241
 20
-9.301214835890825
 30
0.0
 10
-32.0984765503545
 20
-9.306856841476424
 30
0.0
 10
-31.2144807450031
 20
-9.327833387649726
 30
0.0
 10
-30.72215026078268
 20
-9.339516014504127
 30
0.0
  0
SPLINE
  5
1F0
330
1F
100
AcDbEntity
  8
외형선
  6
Continuous
370
    15
100
AcDbSpline
210
0.0
220
0.0
230
1.0
 70
     8
 71
     3
 72
    16
 73
    12
 74
     0
 42
0.000000001
 43
0.00000001
 40
0.0
 40
0.0
 40
0.0
 40
0.0
 40
0.0046376911972215
 40
0.0330071365919251
 40
0.1211413997256618
 40
0.4998599512108923
 40
0.8786325866497725
 40
0.9668238590312014
 40
0.9885740562327756
 40
0.9953314935379438
 40
1.0
 40
1.0
 40
1.0
 40
1.0
 10
-30.77426662960326
 20
-9.338127312933345
 30
0.0
 10
-30.77325379189407
 20
-9.338299478553672
 30
0.0
 10
-30.76604527558905
 20
-9.339524806826937
 30
0.0
 10
-30.74196589001367
 20
-9.356585263825409
 30
0.0
 10
-30.65280050536622
 20
-9.427720389161351
 30
0.0
 10
-30.51129083309686
 20
-9.569833802166201
 30
0.0
 10
-30.37620309541364
 20
-9.713844901313585
 30
0.0
 10
-30.30488443900653
 20
-9.803969278811174
 30
0.0
 10
-30.29104647642231
 20
-9.827314831673029
 30
0.0
 10
-30.28804239592117
 20
-9.834392745805943
 30
0.0
 10
-30.28772999637832
 20
-9.83688517821706
 30
0.0
 10
-30.28760235359325
 20
-9.837903556834583
 30
0.0
  0
SPLINE
  5
1F1
330
1F
100
AcDbEntity
  8
외형선
  6
Continuous
370
    15
100
AcDbSpline
210
0.0
220
0.0
230
1.0
 70
     8
 71
     3
 72
     9
 73
     5
 74
     0
 42
0.000000001
 43
0.00000001
 40
0.0
 40
0.0
 40
0.0
 40
0.0
 40
0.5573261160008609
 40
1.0
 40
1.0
 40
1.0
 40
1.0
 10
-30.28764150465048
 20
9.352122998436492
 30
0.0
 10
-30.86179096546084
 20
9.336599409661765
 30
0.0
 10
-31.89197678364968
 20
9.308745719821925
 30
0.0
 10
-32.89395181929898
 20
9.301792904849009
 30
0.0
 10
-33.33750000000003
 20
9.298715075240224
 30
0.0
  0
SPLINE
  5
1F2
330
1F
100
AcDbEntity
  8
0
  6
Continuous
 62
     1
370
    15
100
AcDbSpline
210
0.0
220
0.0
230
1.0
 70
     8
 71
     3
 72
    10
 73
     6
 74
     0
 42
0.000000001
 43
0.00000001
 40
0.0
 40
0.0
 40
0.0
 40
0.0
 40
0.350797197706148
 40
0.5215179859055243
 40
1.0
 40
1.0
 40
1.0
 40
1.0
 10
-43.76573278791388
 20
-3.05096744082703
 30
0.0
 10
-43.37552834215397
 20
-3.236058775636877
 30
0.0
 10
-42.79542497195956
 20
-3.511227621824347
 30
0.0
 10
-41.71049305393491
 20
-4.051858900881079
 30
0.0
 10
-40.99266997796438
 20
-4.42669724997949
 30
0.0
 10
-40.46361275587554
 20
-4.702964400402664
 30
0.0
1001
PE_URL
1000

  0
SPLINE
  5
1F3
330
1F
100
AcDbEntity
  8
0
  6
Continuous
 62
     1
370
    15
100
AcDbSpline
210
0.0
220
0.0
230
1.0
 70
     8
 71
     3
 72
    11
 73
     7
 74
     0
 42
0.000000001
 43
0.00000001
 40
0.0
 40
0.0
 40
0.0
 40
0.0
 40
0.2193064804249588
 40
0.458435042709484
 40
0.7183856617984485
 40
1.0
 40
1.0
 40
1.0
 40
1.0
 10
-39.82975327237214
 20
-9.46117049159949
 30
0.0
 10
-39.36919424879163
 20
-9.437756935841882
 30
0.0
 10
-38.40644843646433
 20
-9.388813583083113
 30
0.0
 10
-36.85292586011853
 20
-9.335146033273809
 30
0.0
 10
-35.14839908974204
 20
-9.30038227895966
 30
0.0
 10
-33.95701892072634
 20
-9.299285435154133
 30
0.0
 10
-33.33750000000005
 20
-9.298715075240239
 30
0.0
1001
PE_URL
1000

  0
SPLINE
  5
1F4
330
1F
100
AcDbEntity
  8
0
  6
Continuous
 62
     1
370
    15
100
AcDbSpline
210
0.0
220
0.0
230
1.0
 70
     8
 71
     3
 72
    24
 73
    20
 74
     0
 42
0.000000001
 43
0.00000001
 40
0.0
 40
0.0
 40
0.0
 40
0.0
 40
0.0744486333823047
 40
0.1398117981562629
 40
0.1990808932106973
 40
0.252668044719384
 40
0.3004012245757063
 40
0.3887023865023556
 40
0.470760902684839
 40
0.5292140647155149
 40
0.5943054830328944
 40
0.6608598109337445
 40
0.7256313827531142
 40
0.7566277173065634
 40
0.7866195263435413
 40
0.8241014278232961
 40
0.8720240532039327
 40
0.9307599314726883
 40
1.0
 40
1.0
 40
1.0
 40
1.0
 10
-70.18931892073306
 20
-8.143325117004572
 30
0.0
 10
-69.72841570712995
 20
-8.103557466251118
 30
0.0
 10
-68.86285640614264
 20
-8.028875279249242
 30
0.0
 10
-67.4882894817705
 20
-7.937243230671335
 30
0.0
 10
-66.19822872723165
 20
-7.890038250386162
 30
0.0
 10
-65.0393376195978
 20
-7.856326774979692
 30
0.0
 10
-63.70627912640232
 20
-7.832991623511326
 30
0.0
 10
-62.19013061472933
 20
-7.833713599710919
 30
0.0
 10
-60.597773364592
 20
-7.86921236702829
 30
0.0
 10
-59.1764985541226
 20
-7.926367959917378
 30
0.0
 10
-57.83885096867311
 20
-8.001149060476813
 30
0.0
 10
-56.47126933970247
 20
-8.100611889334452
 30
0.0
 10
-55.3450673121451
 20
-8.200165433622743
 30
0.0
 10
-54.44464483836583
 20
-8.29066224777339
 30
0.0
 10
-53.73851251842743
 20
-8.364111782506107
 30
0.0
 10
-52.91728549404357
 20
-8.45739800157456
 30
0.0
 10
-51.91746245449301
 20
-8.584056874033024
 30
0.0
 10
-50.71685049317662
 20
-8.750148819959747
 30
0.0
 10
-49.8552478404788
 20
-8.883140216665808
 30
0.0
 10
-49.38908659526311
 20
-8.955093842733874
 30
0.0
1001
PE_URL
1000

  0
SPLINE
  5
1F5
330
1F
100
AcDbEntity
  8
0
  6
Continuous
 62
     1
370
    15
100
AcDbSpline
210
0.0
220
0.0
230
1.0
 70
     8
 71
     3
 72
    17
 73
    13
 74
     0
 42
0.000000001
 43
0.00000001
 40
0.0
 40
0.0
 40
0.0
 40
0.0
 40
0.0776171173936977
 40
0.1532532280631308
 40
0.2286945639020007
 40
0.305884479724669
 40
0.4656306350997688
 40
0.595387364118481
 40
0.6925958868848673
 40
0.7957958011399778
 40
0.9135425134753293
 40
1.0
 40
1.0
 40
1.0
 40
1.0
 10
-49.38908659526309
 20
8.95509384273387
 30
0.0
 10
-49.57182799619925
 20
8.925405013776082
 30
0.0
 10
-49.9326467245242
 20
8.866785098118601
 30
0.0
 10
-50.55553634089887
 20
8.764548894589783
 30
0.0
 10
-51.2240575880618
 20
8.664253520586435
 30
0.0
 10
-52.18620608017929
 20
8.53629421194508
 30
0.0
 10
-53.33380101684051
 20
8.40886879461112
 30
0.0
 10
-54.53789724708565
 20
8.279968303579334
 30
0.0
 10
-55.57091655764597
 20
8.17892078218632
 30
0.0
 10
-56.52576582452051
 20
8.098506631184165
 30
0.0
 10
-57.39649322442698
 20
8.031464382241605
 30
0.0
 10
-58.0207217901439
 20
7.99455418073374
 30
0.0
 10
-58.28501230478597
 20
7.978926866176526
 30
0.0
1001
PE_URL
1000

  0
SPLINE
  5
1F6
330
1F
100
AcDbEntity
  8
0
  6
Continuous
 62
     1
370
    15
100
AcDbSpline
210
0.0
220
0.0
230
1.0
 70
     8
 71
     3
 72
    11
 73
     7
 74
     0
 42
0.000000001
 43
0.00000001
 40
0.0
 40
0.0
 40
0.0
 40
0.0
 40
0.2816143382015515
 40
0.5415649572905158
 40
0.7806935195750411
 40
1.0
 40
1.0
 40
1.0
 40
1.0
 10
-33.33750000000003
 20
9.298715075240224
 30
0.0
 10
-33.95701892072633
 20
9.299285435154118
 30
0.0
 10
-35.14839908974203
 20
9.300382278959653
 30
0.0
 10
-36.85292586011852
 20
9.335146033273801
 30
0.0
 10
-38.40644843646432
 20
9.388813583083113
 30
0.0
 10
-39.36919424879163
 20
9.437756935841872
 30
0.0
 10
-39.82975327237213
 20
9.461170491599479
 30
0.0
1001
PE_URL
1000

  0
LINE
  5
1F7
330
1F
100
AcDbEntity
  8
외형선
  6
Continuous
370
    15
100
AcDbLine
 10
-29.37518467149225
 20
-12.70000000000001
 30
0.0
 11
-29.37518467149224
 21
12.69999999999999
 31
0.0
  0
SPLINE
  5
1F8
330
1F
100
AcDbEntity
  8
외형선
  6
Continuous
370
    15
100
AcDbSpline
210
0.0
220
0.0
230
1.0
 70
     8
 71
     3
 72
     8
 73
     4
 74
     0
 42
0.000000001
 43
0.00000001
 40
0.0
 40
0.0
 40
0.0
 40
0.0
 40
1.0
 40
1.0
 40
1.0
 40
1.0
 10
-32.33750000000005
 20
-8.541599297481461
 30
0.0
 10
-31.65184463658371
 20
-8.894053616000825
 30
0.0
 10
-30.96921804431602
 20
-9.246062985949195
 30
0.0
 10
-30.28770957086741
 20
-9.594697069498068
 30
0.0
  0
LINE
  5
1F9
330
1F
100
AcDbEntity
  8
외형선
  6
Continuous
370
    15
100
AcDbLine
 10
-32.33750000000005
 20
-8.541599297481433
 30
0.0
 11
-32.33750000000003
 21
-5.918579407169673
 31
0.0
  0
SPLINE
  5
1FA
330
1F
100
AcDbEntity
  8
외형선
  6
Continuous
370
    15
100
AcDbSpline
210
0.0
220
0.0
230
1.0
 70
     8
 71
     3
 72
     8
 73
     4
 74
     0
 42
0.000000001
 43
0.00000001
 40
0.0
 40
0.0
 40
0.0
 40
0.0
 40
1.0
 40
1.0
 40
1.0
 40
1.0
 10
-30.28760235359325
 20
-7.069208112183979
 30
0.0
 10
-30.9719831063376
 20
-6.688540445977132
 30
0.0
 10
-31.6546058533757
 20
-6.303864189419599
 30
0.0
 10
-32.33749999999993
 20
-5.918579407169723
 30
0.0
  0
LINE
  5
1FB
330
1F
100
AcDbEntity
  8
외형선
  6
Continuous
370
    15
100
AcDbLine
 10
-30.28760235359324
 20
12.45551841892115
 30
0.0
 11
-30.28760235359325
 21
-7.069363903318219
 31
0.0
  0
LINE
  5
1FC
330
1F
100
AcDbEntity
  8
외형선
  6
Continuous
370
    15
100
AcDbLine
 10
-30.78310267903452
 20
9.34053543791233
 30
0.0
 11
-30.28770957086741
 21
9.594697069498054
 31
0.0
  0
LINE
  5
1FD
330
1F
100
AcDbEntity
  8
외형선
  6
Continuous
370
    15
100
AcDbLine
 10
-30.28760235359325
 20
-9.594878137468626
 30
0.0
 11
-30.28760235359325
 21
-12.45551841892117
 31
0.0
  0
SPLINE
  5
1FE
330
1F
100
AcDbEntity
  8
외형선
  6
Continuous
370
    15
100
AcDbSpline
210
0.0
220
0.0
230
1.0
 70
    24
 71
     3
 72
    10
 73
     6
 74
     0
 42
0.000000001
 43
0.00000001
 40
0.0
 40
0.0
 40
0.0
 40
0.0
 40
0.5
 40
0.5
 40
1.0
 40
1.0
 40
1.0
 40
1.0
 10
-33.33750000000003
 20
-5.41136872850997
 30
0.0
 10
-33.33750000000003
 20
-5.30106058752213
 30
0.0
 10
-33.33750000000003
 20
-5.066124576000377
 30
0.0
 10
-33.33750000000003
 20
-4.392091584563296
 30
0.0
 10
-33.33750000000003
 20
-3.955566985745811
 30
0.0
 10
-33.33750000000003
 20
-3.479597165868661
 30
0.0
  0
SPLINE
  5
1FF
330
1F
100
AcDbEntity
  8
외형선
  6
Continuous
370
    15
100
AcDbSpline
210
0.0
220
0.0
230
1.0
 70
     8
 71
     3
 72
    10
 73
     6
 74
     0
 42
0.000000001
 43
0.00000001
 40
0.0
 40
0.0
 40
0.0
 40
0.0
 40
0.5000000000000001
 40
0.5000000000000001
 40
1.0
 40
1.0
 40
1.0
 40
1.0
 10
-33.33750000000003
 20
-3.479597165868661
 30
0.0
 10
-32.82808536655448
 20
-3.666438942694704
 30
0.0
 10
-32.31851277249054
 20
-3.850118369140766
 30
0.0
 10
-31.30322458241731
 20
-4.209670698747182
 30
0.0
 10
-30.79665763029891
 20
-4.385653355512211
 30
0.0
 10
-30.28762818395875
 20
-4.557759214140283
 30
0.0
  0
SPLINE
  5
200
330
1F
100
AcDbEntity
  8
외형선
  6
Continuous
370
    15
100
AcDbSpline
210
0.0
220
0.0
230
1.0
 70
     8
 71
     3
 72
     8
 73
     4
 74
     0
 42
0.000000001
 43
0.00000001
 40
0.0
 40
0.0
 40
0.0
 40
0.0
 40
1.0
 40
1.0
 40
1.0
 40
1.0
 10
-33.33750000000003
 20
-5.41136872850997
 30
0.0
 10
-33.00403938488313
 20
-5.582643802014168
 30
0.0
 10
-32.6705105856776
 20
-5.751812207502702
 30
0.0
 10
-32.33750000000003
 20
-5.918579407169673
 30
0.0
  0
SPLINE
  5
201
330
1F
100
AcDbEntity
  8
외형선
  6
Continuous
370
    15
100
AcDbSpline
210
0.0
220
0.0
230
1.0
 70
     8
 71
     3
 72
     8
 73
     4
 74
     0
 42
0.000000001
 43
0.00000001
 40
0.0
 40
0.0
 40
0.0
 40
0.0
 40
1.0
 40
1.0
 40
1.0
 40
1.0
 10
-33.33750000000005
 20
-8.129922775379384
 30
0.0
 10
-33.00403938488314
 20
-8.270400240284282
 30
0.0
 10
-32.6705105856776
 20
-8.407704776591835
 30
0.0
 10
-32.33750000000005
 20
-8.541599297481433
 30
0.0
  0
LINE
  5
202
330
1F
100
AcDbEntity
  8
외형선
  6
Continuous
370
    15
100
AcDbLine
 10
-33.33750000000003
 20
-8.129922775379384
 30
0.0
 11
-33.33750000000003
 21
-5.41136872850997
 31
0.0
  0
SPLINE
  5
203
330
1F
100
AcDbEntity
  8
외형선
  6
Continuous
370
    15
100
AcDbSpline
210
0.0
220
0.0
230
1.0
 70
     8
 71
     3
 72
    10
 73
     6
 74
     0
 42
0.000000001
 43
0.00000001
 40
0.0
 40
0.0
 40
0.0
 40
0.0
 40
0.5
 40
0.5
 40
1.0
 40
1.0
 40
1.0
 40
1.0
 10
-33.33750000000003
 20
8.655149998169477
 30
0.0
 10
-32.82808758834977
 20
8.557040657277245
 30
0.0
 10
-32.31851721743728
 20
8.451008475161089
 30
0.0
 10
-31.30323342190975
 20
8.224021473123095
 30
0.0
 10
-30.79666871497584
 20
8.103021762371412
 30
0.0
 10
-30.28764150465048
 20
7.974545515841189
 30
0.0
  0
SPLINE
  5
204
330
1F
100
AcDbEntity
  8
외형선
  6
Continuous
370
    15
100
AcDbSpline
210
0.0
220
0.0
230
1.0
 70
    24
 71
     3
 72
    14
 73
    10
 74
     0
 42
0.000000001
 43
0.00000001
 40
0.0
 40
0.0
 40
0.0
 40
0.0
 40
0.25
 40
0.25
 40
0.5
 40
0.5
 40
0.75
 40
0.75
 40
1.0
 40
1.0
 40
1.0
 40
1.0
 10
-33.33750000000003
 20
-3.479597165868661
 30
0.0
 10
-33.33750000000003
 20
-2.449431102537446
 30
0.0
 10
-33.33750000000003
 20
-1.358456625413552
 30
0.0
 10
-33.33750000000003
 20
0.8531282043363291
 30
0.0
 10
-33.33750000000003
 20
1.972721048544699
 30
0.0
 10
-33.33750000000003
 20
4.129415477825624
 30
0.0
 10
-33.33750000000003
 20
5.1653678859387
 30
0.0
 10
-33.33750000000003
 20
7.058255629400112
 30
0.0
 10
-33.33750000000003
 20
7.914621083584628
 30
0.0
 10
-33.33750000000003
 20
8.65514999816947
 30
0.0
  0
SPLINE
  5
205
330
1F
100
AcDbEntity
  8
외형선
  6
Continuous
370
    15
100
AcDbSpline
210
0.0
220
0.0
230
1.0
 70
    24
 71
     3
 72
    11
 73
     7
 74
     0
 42
0.000000001
 43
0.00000001
 40
0.0
 40
0.0
 40
0.0
 40
0.0
 40
0.204247688142721
 40
0.6210493795508256
 40
0.9871027358201104
 40
1.0
 40
1.0
 40
1.0
 40
1.0
 10
-33.33750000000005
 20
-9.25356157620238
 30
0.0
 10
-33.33750000000005
 20
-9.264745899158747
 30
0.0
 10
-33.33750000000005
 20
-9.298753710438795
 30
0.0
 10
-33.33750000000005
 20
-8.935842692541648
 30
0.0
 10
-33.33750000000005
 20
-8.558019425533985
 30
0.0
 10
-33.33750000000005
 20
-8.245323787177163
 30
0.0
 10
-33.33750000000005
 20
-8.234681455331902
 30
0.0
  0
SPLINE
  5
206
330
1F
100
AcDbEntity
  8
외형선
  6
Continuous
370
    15
100
AcDbSpline
210
0.0
220
0.0
230
1.0
 70
    24
 71
     3
 72
    10
 73
     6
 74
     0
 42
0.000000001
 43
0.00000001
 40
0.0
 40
0.0
 40
0.0
 40
0.0
 40
0.366890022577685
 40
0.7337800451553703
 40
1.0
 40
1.0
 40
1.0
 40
1.0
 10
-33.33750000000003
 20
8.655149998169477
 30
0.0
 10
-33.33750000000003
 20
8.790860695303909
 30
0.0
 10
-33.33750000000003
 20
9.062282089572783
 30
0.0
 10
-33.33750000000003
 20
9.278608205382767
 30
0.0
 10
-33.33750000000003
 20
9.260974992265556
 30
0.0
 10
-33.33750000000003
 20
9.253560303874536
 30
0.0
  0
SPLINE
  5
207
330
1F
100
AcDbEntity
  8
0
  6
Continuous
 62
     1
370
    15
100
AcDbSpline
210
0.0
220
0.0
230
1.0
 70
     8
 71
     3
 72
    50
 73
    46
 74
     0
 42
0.000000001
 43
0.00000001
 40
0.0
 40
0.0
 40
0.0
 40
0.0
 40
0.0624999999999993
 40
0.0624999999999993
 40
0.1249999999999987
 40
0.1249999999999987
 40
0.1562499999999985
 40
0.1562499999999985
 40
0.1874999999999984
 40
0.1874999999999984
 40
0.2499999999999984
 40
0.2499999999999984
 40
0.2812499999999987
 40
0.2812499999999987
 40
0.3124999999999989
 40
0.3124999999999989
 40
0.3749999999999992
 40
0.3749999999999992
 40
0.4374999999999995
 40
0.4374999999999995
 40
0.4999999999999998
 40
0.4999999999999998
 40
0.5312499999999998
 40
0.5312499999999998
 40
0.5624999999999998
 40
0.5624999999999998
 40
0.5937499999999998
 40
0.5937499999999998
 40
0.6249999999999998
 40
0.6249999999999998
 40
0.6874999999999998
 40
0.6874999999999998
 40
0.7187499999999999
 40
0.7187499999999999
 40
0.75
 40
0.75
 40
0.8125000000000001
 40
0.8125000000000001
 40
0.8750000000000001
 40
0.8750000000000001
 40
0.9375000000000001
 40
0.9375000000000001
 40
0.9687500000000001
 40
0.9687500000000001
 40
1.0
 40
1.0
 40
1.0
 40
1.0
 10
-74.61250000000004
 20
11.89618701882795
 30
0.0
 10
-73.75587175004372
 20
11.87580556212937
 30
0.0
 10
-72.89220596256916
 20
11.82429999422513
 30
0.0
 10
-71.17097704677892
 20
11.65995952846587
 30
0.0
 10
-70.3149982338499
 20
11.54733564058761
 30
0.0
 10
-69.02281964354214
 20
11.33333486879046
 30
0.0
 10
-68.59185895005822
 20
11.25453618962242
 30
0.0
 10
-67.73199590541907
 20
11.08249811738159
 30
0.0
 10
-67.30418624447651
 20
10.98935099021171
 30
0.0
 10
-66.01548849592962
 20
10.68824882161208
 30
0.0
 10
-65.15142506834849
 20
10.45863910634516
 30
0.0
 10
-63.86308887162865
 20
10.07495120754743
 30
0.0
 10
-63.43518620456253
 20
9.940571424340966
 30
0.0
 10
-62.57513240189247
 20
9.658587100648827
 30
0.0
 10
-62.14413651414065
 20
9.51109264601762
 30
0.0
 10
-60.85203392530967
 20
9.050371126457495
 30
0.0
 10
-59.99619796451189
 20
8.71948641022625
 30
0.0
 10
-58.27468841303758
 20
8.012765553531526
 30
0.0
 10
-57.41177139743138
 20
7.637206145343193
 30
0.0
 10
-55.69785571348447
 20
6.850079935613465
 30
0.0
 10
-54.83409929455281
 20
6.436557341292353
 30
0.0
 10
-53.54340535088001
 20
5.793479779400887
 30
0.0
 10
-53.11510938703236
 20
5.575527697605292
 30
0.0
 10
-52.25684002102884
 20
5.132370533291688
 30
0.0
 10
-51.82626987125865
 20
4.907055212237456
 30
0.0
 10
-50.9647783584323
 20
4.450247264526194
 30
0.0
 10
-50.53385864385605
 20
4.218755505666888
 30
0.0
 10
-49.67419783466248
 20
3.750966393700072
 30
0.0
 10
-49.24643877618136
 20
3.514854233542394
 30
0.0
 10
-47.95739664304813
 20
2.799056769187072
 30
0.0
 10
-47.09334488024894
 20
2.312421507995381
 30
0.0
 10
-45.80538738649487
 20
1.576857417980314
 30
0.0
 10
-45.37734931378154
 20
1.330727653101683
 30
0.0
 10
-44.51711623900229
 20
0.8362600595135774
 30
0.0
 10
-44.08609094319911
 20
0.5881449635213158
 30
0.0
 10
-42.79408167499356
 20
-0.1566622634458454
 30
0.0
 10
-41.93835181636058
 20
-0.6530080948006471
 30
0.0
 10
-40.21658466360606
 20
-1.641691142249634
 30
0.0
 10
-39.35437998546873
 20
-2.133276079071841
 30
0.0
 10
-37.63982781376795
 20
-3.100933942690389
 30
0.0
 10
-36.77599241429742
 20
-3.579153671575995
 30
0.0
 10
-35.48554347003657
 20
-4.279637563858422
 30
0.0
 10
-35.05744169141344
 20
-4.510126042592375
 30
0.0
 10
-34.19890402129045
 20
-4.965351313205829
 30
0.0
 10
-33.76825954100129
 20
-5.190118095892515
 30
0.0
 10
-33.33750000000003
 20
-5.41136872850997
 30
0.0
1001
PE_URL
1000

  0
SPLINE
  5
208
330
1F
100
AcDbEntity
  8
0
  6
Continuous
 62
     1
370
    15
100
AcDbSpline
210
0.0
220
0.0
230
1.0
 70
     8
 71
     3
 72
    10
 73
     6
 74
     0
 42
0.000000001
 43
0.00000001
 40
0.0
 40
0.0
 40
0.0
 40
0.0
 40
0.3142526879612939
 40
0.657113731659765
 40
0.9999999999999999
 40
0.9999999999999999
 40
0.9999999999999999
 40
0.9999999999999999
 10
-45.04985202346326
 20
1.140025077050794
 30
0.0
 10
-43.82302434449041
 20
0.6457852884288329
 30
0.0
 10
-41.25768331443169
 20
-0.3876879777604145
 30
0.0
 10
-37.35347610542614
 20
-1.967229199229578
 30
0.0
 10
-34.67619152903394
 20
-2.975462147986832
 30
0.0
 10
-33.33750000000003
 20
-3.479597165868661
 30
0.0
1001
PE_URL
1000

  0
SPLINE
  5
209
330
1F
100
AcDbEntity
  8
외형선
  6
Continuous
370
    15
100
AcDbSpline
210
0.0
220
0.0
230
1.0
 70
    24
 71
     3
 72
    10
 73
     6
 74
     0
 42
0.000000001
 43
0.00000001
 40
0.0
 40
0.0
 40
0.0
 40
0.0
 40
0.5
 40
0.5
 40
1.0
 40
1.0
 40
1.0
 40
1.0
 10
-33.33750000000003
 20
-5.411368728509963
 30
0.0
 10
-33.33750000000003
 20
-5.30106058752213
 30
0.0
 10
-33.33750000000003
 20
-5.066124576000377
 30
0.0
 10
-33.33750000000003
 20
-4.392091584563296
 30
0.0
 10
-33.33750000000003
 20
-3.955566985745811
 30
0.0
 10
-33.33750000000003
 20
-3.479597165868661
 30
0.0
  0
SPLINE
  5
20A
330
1F
100
AcDbEntity
  8
0
  6
Continuous
 62
     1
370
    15
100
AcDbSpline
210
0.0
220
0.0
230
1.0
 70
     8
 71
     3
 72
    50
 73
    46
 74
     0
 42
0.000000001
 43
0.00000001
 40
0.0
 40
0.0
 40
0.0
 40
0.0
 40
0.0624999999999996
 40
0.0624999999999996
 40
0.1249999999999991
 40
0.1249999999999991
 40
0.1562499999999989
 40
0.1562499999999989
 40
0.1874999999999987
 40
0.1874999999999987
 40
0.2499999999999986
 40
0.2499999999999986
 40
0.2812499999999987
 40
0.2812499999999987
 40
0.3124999999999988
 40
0.3124999999999988
 40
0.3749999999999988
 40
0.3749999999999988
 40
0.4374999999999989
 40
0.4374999999999989
 40
0.499999999999999
 40
0.499999999999999
 40
0.531249999999999
 40
0.531249999999999
 40
0.562499999999999
 40
0.562499999999999
 40
0.593749999999999
 40
0.593749999999999
 40
0.624999999999999
 40
0.624999999999999
 40
0.6874999999999991
 40
0.6874999999999991
 40
0.7187499999999992
 40
0.7187499999999992
 40
0.7499999999999993
 40
0.7499999999999993
 40
0.8124999999999997
 40
0.8124999999999997
 40
0.8749999999999999
 40
0.8749999999999999
 40
0.9375
 40
0.9375
 40
0.96875
 40
0.96875
 40
1.0
 40
1.0
 40
1.0
 40
1.0
 10
-74.61250000000004
 20
11.29832722429232
 30
0.0
 10
-73.75587175004361
 20
11.1419144513263
 30
0.0
 10
-72.89220596256902
 20
10.95556775678108
 30
0.0
 10
-71.17097704677863
 20
10.52709689953283
 30
0.0
 10
-70.31499823384954
 20
10.28525287422612
 30
0.0
 10
-69.02281964354165
 20
9.882450839456002
 30
0.0
 10
-68.59185895005771
 20
9.741613987128616
 30
0.0
 10
-67.73199590541847
 20
9.44765112392145
 30
0.0
 10
-67.30418624447586
 20
9.294666323736063
 30
0.0
 10
-66.01548849592888
 20
8.81723312237721
 30
0.0
 10
-65.15142506834766
 20
8.474434106677354
 30
0.0
 10
-63.86308887162775
 20
7.929492667676666
 30
0.0
 10
-63.43518620456157
 20
7.742786594029457
 30
0.0
 10
-62.57513240189145
 20
7.358910040821794
 30
0.0
 10
-62.1441365141396
 20
7.161899048699897
 30
0.0
 10
-60.85203392530852
 20
6.557359546466909
 30
0.0
 10
-59.99619796451069
 20
6.137053157652169
 30
0.0
 10
-58.27468841303622
 20
5.265065359063694
 30
0.0
 10
-57.41177139742996
 20
4.813783231572188
 30
0.0
 10
-55.69785571348288
 20
3.890624824497618
 30
0.0
 10
-54.83409929455115
 20
3.416460246381654
 30
0.0
 10
-53.54340535087822
 20
2.69459166036544
 30
0.0
 10
-53.11510938703056
 20
2.452417358318513
 30
0.0
 10
-52.25684002102697
 20
1.964878756328702
 30
0.0
 10
-51.82626987125673
 20
1.719398181637288
 30
0.0
 10
-50.96477835843031
 20
1.226444356045377
 30
0.0
 10
-50.533858643854
 20
0.978972046533201
 30
0.0
 10
-49.67419783466039
 20
0.4834913964986924
 30
0.0
 10
-49.24643877617925
 20
0.2356730301247723
 30
0.0
 10
-47.95739664304587
 20
-0.5088667826789148
 30
0.0
 10
-47.09334488024662
 20
-1.006091020430048
 30
0.0
 10
-45.80538738649247
 20
-1.744504801500547
 30
0.0
 10
-45.37734931377908
 20
-1.989423736408611
 30
0.0
 10
-44.51711623899975
 20
-2.477138612849394
 30
0.0
 10
-44.08609094319654
 20
-2.719709716463086
 30
0.0
 10
-42.79408167499088
 20
-3.441422541150502
 30
0.0
 10
-41.93835181635782
 20
-3.913801668991184
 30
0.0
 10
-40.21658466360314
 20
-4.837594498127032
 30
0.0
 10
-39.35437998546577
 20
-5.288267493830539
 30
0.0
 10
-37.63982781376485
 20
-6.1580725487945
 30
0.0
 10
-36.77599241429422
 20
-6.579125593127806
 30
0.0
 10
-35.48554347003329
 20
-7.182460073548881
 30
0.0
 10
-35.05744169141013
 20
-7.378705002578471
 30
0.0
 10
-34.19890402128705
 20
-7.761693073898932
 30
0.0
 10
-33.76825954099785
 20
-7.948456042698695
 30
0.0
 10
-33.33749999999657
 20
-8.129922775380855
 30
0.0
1001
PE_URL
1000

  0
SPLINE
  5
20B
330
1F
100
AcDbEntity
  8
0
  6
Continuous
 62
     1
370
    15
100
AcDbSpline
210
0.0
220
0.0
230
1.0
 70
     8
 71
     3
 72
    16
 73
    12
 74
     0
 42
0.000000001
 43
0.00000001
 40
0.0
 40
0.0
 40
0.0
 40
0.0
 40
0.1195152968003766
 40
0.2390321051148394
 40
0.35855034196526
 40
0.4780699242281162
 40
0.597590768642863
 40
0.7171127918203353
 40
0.8366359102511777
 40
0.9561600403143
 40
1.0
 40
1.0
 40
1.0
 40
1.0
 10
-74.61250000000004
 20
9.39370102263408
 30
0.0
 10
-73.38133660605416
 20
9.139807967981508
 30
0.0
 10
-70.91899424759646
 20
8.63201864768213
 30
0.0
 10
-67.22544931684331
 20
7.513602325210602
 30
0.0
 10
-63.53185421051735
 20
6.176386961098299
 30
0.0
 10
-59.8382112188347
 20
4.635630104813266
 30
0.0
 10
-56.14452344991275
 20
2.948574753492981
 30
0.0
 10
-52.45079390665349
 20
1.164944567811126
 30
0.0
 10
-48.75702522306902
 20
-0.6491110493805934
 30
0.0
 10
-45.84288555233658
 20
-2.083768993000518
 30
0.0
 10
-44.16000111241274
 20
-2.858429079584454
 30
0.0
 10
-43.70838664735258
 20
-3.066314833535507
 30
0.0
1001
PE_URL
1000

  0
LINE
  5
20C
330
1F
100
AcDbEntity
  8
0
  6
Continuous
 62
     1
370
    15
100
AcDbLine
 10
-74.61249999999976
 20
11.29832722429232
 30
0.0
 11
-74.61250000000004
 21
9.39370102263408
 31
0.0
1001
PE_URL
1000

  0
LINE
  5
20D
330
1F
100
AcDbEntity
  8
0
  6
Continuous
 62
     1
370
    15
100
AcDbLine
 10
-74.61250000000004
 20
11.89618701882796
 30
0.0
 11
-74.6124999999997
 21
11.2983272242923
 31
0.0
1001
PE_URL
1000

  0
SPLINE
  5
20E
330
1F
100
AcDbEntity
  8
0
  6
Continuous
 62
     1
370
    15
100
AcDbSpline
210
0.0
220
0.0
230
1.0
 70
     8
 71
     3
 72
    10
 73
     6
 74
     0
 42
0.000000001
 43
0.00000001
 40
0.0
 40
0.0
 40
0.0
 40
0.0
 40
0.5
 40
0.5
 40
1.0
 40
1.0
 40
1.0
 40
1.0
 10
-74.61250000000004
 20
3.181861326165464
 30
0.0
 10
-73.75967583171519
 20
2.511401489571611
 30
0.0
 10
-72.91659001662069
 20
1.822382940163784
 30
0.0
 10
-71.2496129405119
 20
0.4077661230110365
 30
0.0
 10
-70.42571640763495
 20
-0.3178220979647435
 30
0.0
 10
-69.61249999999995
 20
-1.063763798970349
 30
0.0
1001
PE_URL
1000

  0
LINE
  5
20F
330
1F
100
AcDbEntity
  8
0
  6
Continuous
 62
     1
370
    15
100
AcDbLine
 10
-69.61250000000004
 20
-2.937719435296579
 30
0.0
 11
-74.61250000000004
 21
0.0000000000000071
 31
0.0
1001
PE_URL
1000

  0
LINE
  5
210
330
1F
100
AcDbEntity
  8
0
  6
Continuous
 62
     1
370
    15
100
AcDbLine
 10
-74.61250000000004
 20
0.0000000000000071
 30
0.0
 11
-74.61250000000004
 21
3.181861326165468
 31
0.0
1001
PE_URL
1000

  0
SPLINE
  5
211
330
1F
100
AcDbEntity
  8
0
  6
Continuous
 62
     1
370
    15
100
AcDbSpline
210
0.0
220
0.0
230
1.0
 70
     8
 71
     3
 72
    16
 73
    12
 74
     0
 42
0.000000001
 43
0.00000001
 40
0.0
 40
0.0
 40
0.0
 40
0.0
 40
0.1020589185101225
 40
0.2041491206347947
 40
0.3281491576103688
 40
0.4521505224932099
 40
0.576153127544972
 40
0.7001568849004525
 40
0.8241617065765183
 40
0.9481675044810579
 40
1.0
 40
1.0
 40
1.0
 40
1.0
 10
-69.61250000000004
 20
-2.28705681912723
 30
0.0
 10
-68.59924183321095
 20
-2.736657521410223
 30
0.0
 10
-66.57241491062797
 20
-3.635996739851535
 30
0.0
 10
-63.31434846126389
 20
-4.98242632692606
 30
0.0
 10
-59.83817554659994
 20
-6.288965039884118
 30
0.0
 10
-56.14449869488364
 20
-7.474964921657609
 30
0.0
 10
-52.45075729048625
 20
-8.420719719405696
 30
0.0
 10
-48.75699120259566
 20
-9.102399869113135
 30
0.0
 10
-45.06315514503271
 20
-9.47244242569134
 30
0.0
 10
-42.086023239556
 20
-9.58779519813401
 30
0.0
 10
-40.33997754690232
 20
-9.457059668441019
 30
0.0
 10
-39.82528928544166
 20
-9.418522279200907
 30
0.0
1001
PE_URL
1000

  0
SPLINE
  5
212
330
1F
100
AcDbEntity
  8
0
  6
Continuous
 62
     1
370
    15
100
AcDbSpline
210
0.0
220
0.0
230
1.0
 70
    24
 71
     3
 72
     8
 73
     4
 74
     0
 42
0.000000001
 43
0.00000001
 40
0.0
 40
0.0
 40
0.0
 40
0.0
 40
1.0
 40
1.0
 40
1.0
 40
1.0
 10
-69.61250000000004
 20
-1.063763798970662
 30
0.0
 10
-69.61250000000004
 20
-1.476383563775059
 30
0.0
 10
-69.61250000000004
 20
-1.884980928444335
 30
0.0
 10
-69.61250000000004
 20
-2.287056819127237
 30
0.0
1001
PE_URL
1000

  0
SPLINE
  5
213
330
1F
100
AcDbEntity
  8
0
  6
Continuous
 62
     1
370
    15
100
AcDbSpline
210
0.0
220
0.0
230
1.0
 70
    24
 71
     3
 72
    10
 73
     6
 74
     0
 42
0.000000001
 43
0.00000001
 40
0.0
 40
0.0
 40
0.0
 40
0.0
 40
0.5
 40
0.5
 40
1.0
 40
1.0
 40
1.0
 40
1.0
 10
-74.61250000000004
 20
9.39370102263408
 30
0.0
 10
-74.61250000000004
 20
8.673600600326562
 30
0.0
 10
-74.61250000000001
 20
7.763726105261402
 30
0.0
 10
-74.61250000000001
 20
5.648355469887793
 30
0.0
 10
-74.61250000000004
 20
4.444691743829669
 30
0.0
 10
-74.61250000000004
 20
3.181861326165848
 30
0.0
1001
PE_URL
1000

  0
SPLINE
  5
214
330
1F
100
AcDbEntity
  8
외형선
  6
Continuous
370
    15
100
AcDbSpline
210
0.0
220
0.0
230
1.0
 70
    24
 71
     3
 72
    11
 73
     7
 74
     0
 42
0.000000001
 43
0.00000001
 40
0.0
 40
0.0
 40
0.0
 40
0.0
 40
0.2066110200966894
 40
0.6221748379339668
 40
0.9871410398452459
 40
1.0
 40
1.0
 40
1.0
 40
1.0
 10
-33.33750000000005
 20
-9.253486048333265
 30
0.0
 10
-33.33750000000005
 20
-9.264921784251825
 30
0.0
 10
-33.33750000000005
 20
-9.299358607314112
 30
0.0
 10
-33.33750000000005
 20
-8.935997730413945
 30
0.0
 10
-33.33750000000005
 20
-8.558018544511135
 30
0.0
 10
-33.33750000000005
 20
-8.245323758179211
 30
0.0
 10
-33.33750000000005
 20
-8.234681455331902
 30
0.0
  0
SPLINE
  5
215
330
1F
100
AcDbEntity
  8
0
  6
Continuous
 62
     1
370
    15
100
AcDbSpline
210
0.0
220
0.0
230
1.0
 70
    24
 71
     3
 72
    10
 73
     6
 74
     0
 42
0.000000001
 43
0.00000001
 40
0.0
 40
0.0
 40
0.0
 40
0.0
 40
0.4999999999999999
 40
0.4999999999999999
 40
1.0
 40
1.0
 40
1.0
 40
1.0
 10
-69.61250000000004
 20
-2.287056819127237
 30
0.0
 10
-69.61250000000004
 20
-3.188794250093714
 30
0.0
 10
-69.61250000000004
 20
-4.044120285396517
 30
0.0
 10
-69.61250000000004
 20
-5.555794882897892
 30
0.0
 10
-69.61250000000004
 20
-6.210906821448603
 30
0.0
 10
-69.61250000000004
 20
-6.726131543537193
 30
0.0
1001
PE_URL
1000

  0
SPLINE
  5
216
330
1F
100
AcDbEntity
  8
0
  6
Continuous
 62
     1
370
    15
100
AcDbSpline
210
0.0
220
0.0
230
1.0
 70
     8
 71
     3
 72
     9
 73
     5
 74
     0
 42
0.000000001
 43
0.00000001
 40
0.0
 40
0.0
 40
0.0
 40
0.0
 40
0.8342439472296307
 40
1.0
 40
1.0
 40
1.0
 40
1.0
 10
-74.61250000000004
 20
-8.334374999999987
 30
0.0
 10
-73.38133455843439
 20
-8.32641453512533
 30
0.0
 10
-71.90554867391688
 20
-8.316872404312043
 30
0.0
 10
-70.42975978362895
 20
-8.15006356576648
 30
0.0
 10
-70.18513884245246
 20
-8.122413991121952
 30
0.0
1001
PE_URL
1000

  0
SPLINE
  5
217
330
1F
100
AcDbEntity
  8
0
  6
Continuous
 62
     1
370
    15
100
AcDbSpline
210
0.0
220
0.0
230
1.0
 70
     8
 71
     3
 72
     8
 73
     4
 74
     0
 42
0.000000001
 43
0.00000001
 40
0.0
 40
0.0
 40
0.0
 40
0.0
 40
1.0
 40
1.0
 40
1.0
 40
1.0
 10
-74.61250000000004
 20
-8.334374999999987
 30
0.0
 10
-72.93071015596317
 20
-7.878416132391692
 30
0.0
 10
-71.26321372655397
 20
-7.346731046284717
 30
0.0
 10
-69.61250000000004
 20
-6.726131543537235
 30
0.0
1001
PE_URL
1000

  0
SPLINE
  5
218
330
1F
100
AcDbEntity
  8
0
  6
Continuous
 62
     1
370
    15
100
AcDbSpline
210
0.0
220
0.0
230
1.0
 70
     8
 71
     3
 72
    12
 73
     8
 74
     0
 42
0.000000001
 43
0.00000001
 40
0.0
 40
0.0
 40
0.0
 40
0.0
 40
0.0396432129130779
 40
0.2697082175474181
 40
0.4997750333694629
 40
0.7498785558358715
 40
1.0
 40
1.0
 40
1.0
 40
1.0
 10
-49.39348664734173
 20
8.934360279437822
 30
0.0
 10
-49.18132297215024
 20
8.974132331884448
 30
0.0
 10
-47.73789085705725
 20
9.24471709495857
 30
0.0
 10
-45.06316095600654
 20
9.470073946349167
 30
0.0
 10
-41.26216105051328
 20
9.571439713303828
 30
0.0
 10
-37.35348169085654
 20
9.333267485671069
 30
0.0
 10
-34.67619253694428
 20
8.881194559517105
 30
0.0
 10
-33.33750000000003
 20
8.655149998169477
 30
0.0
1001
PE_URL
1000

  0
SPLINE
  5
219
330
1F
100
AcDbEntity
  8
외형선
  6
Continuous
370
    15
100
AcDbSpline
210
0.0
220
0.0
230
1.0
 70
    24
 71
     3
 72
    14
 73
    10
 74
     0
 42
0.000000001
 43
0.00000001
 40
0.0
 40
0.0
 40
0.0
 40
0.0
 40
0.25
 40
0.25
 40
0.5
 40
0.5
 40
0.75
 40
0.75
 40
1.0
 40
1.0
 40
1.0
 40
1.0
 10
-33.33750000000003
 20
-3.479597165868661
 30
0.0
 10
-33.33750000000003
 20
-2.449431102537446
 30
0.0
 10
-33.33750000000003
 20
-1.358456625413552
 30
0.0
 10
-33.33750000000003
 20
0.8531282043363291
 30
0.0
 10
-33.33750000000003
 20
1.972721048544699
 30
0.0
 10
-33.33750000000003
 20
4.129415477825624
 30
0.0
 10
-33.33750000000003
 20
5.1653678859387
 30
0.0
 10
-33.33750000000003
 20
7.058255629400112
 30
0.0
 10
-33.33750000000003
 20
7.914621083584628
 30
0.0
 10
-33.33750000000003
 20
8.65514999816947
 30
0.0
  0
LINE
  5
21A
330
1F
100
AcDbEntity
  8
0
  6
Continuous
 62
     1
370
    15
100
AcDbLine
 10
-74.61250000000004
 20
0.0000000000000071
 30
0.0
 11
-74.61250000000004
 21
-8.334374999999987
 31
0.0
1001
PE_URL
1000

  0
SPLINE
  5
21B
330
1F
100
AcDbEntity
  8
외형선
  6
Continuous
370
    15
100
AcDbSpline
210
0.0
220
0.0
230
1.0
 70
    24
 71
     3
 72
    10
 73
     6
 74
     0
 42
0.000000001
 43
0.00000001
 40
0.0
 40
0.0
 40
0.0
 40
0.0
 40
0.3683204158853575
 40
0.736640831770715
 40
1.0
 40
1.0
 40
1.0
 40
1.0
 10
-33.33750000000003
 20
8.655149998169477
 30
0.0
 10
-33.33750000000003
 20
8.7908318943512
 30
0.0
 10
-33.33750000000003
 20
9.062195686714649
 30
0.0
 10
-33.33750000000003
 20
9.278072664606562
 30
0.0
 10
-33.33750000000003
 20
9.260720495774052
 30
0.0
 10
-33.33750000000003
 20
9.253486048333254
 30
0.0
  0
SPLINE
  5
21C
330
1F
100
AcDbEntity
  8
0
  6
Continuous
 62
     1
370
    15
100
AcDbSpline
210
0.0
220
0.0
230
1.0
 70
     8
 71
     3
 72
    12
 73
     8
 74
     0
 42
0.000000001
 43
0.00000001
 40
0.0
 40
0.0
 40
0.0
 40
0.0
 40
0.110069099671032
 40
0.3325523289954955
 40
0.5550352263982646
 40
0.777517785518626
 40
0.9999999999999999
 40
0.9999999999999999
 40
0.9999999999999999
 40
0.9999999999999999
 10
-58.28715291932859
 20
-7.97984077728276
 30
0.0
 10
-58.8861254263098
 20
-8.241723248403865
 30
0.0
 10
-60.69580409903629
 20
-9.032950086405684
 30
0.0
 10
-63.71618599347583
 20
-10.07206615963091
 30
0.0
 10
-67.34829677240256
 20
-11.05160649808812
 30
0.0
 10
-70.98040095257772
 20
-11.70263599827368
 30
0.0
 10
-73.40180094267569
 20
-11.83167004529013
 30
0.0
 10
-74.61250000000004
 20
-11.89618701882792
 30
0.0
1001
PE_URL
1000

  0
SPLINE
  5
21D
330
1F
100
AcDbEntity
  8
0
  6
Continuous
 62
     1
370
    15
100
AcDbSpline
210
0.0
220
0.0
230
1.0
 70
    24
 71
     3
 72
    10
 73
     6
 74
     0
 42
0.000000001
 43
0.00000001
 40
0.0
 40
0.0
 40
0.0
 40
0.0
 40
0.5
 40
0.5
 40
1.0
 40
1.0
 40
1.0
 40
1.0
 10
-74.61250000000004
 20
-8.334374999999987
 30
0.0
 10
-74.61250000000004
 20
-8.839584057612065
 30
0.0
 10
-74.61250000000004
 20
-9.4266837699491
 30
0.0
 10
-74.61250000000004
 20
-10.65841738519017
 30
0.0
 10
-74.61250000000004
 20
-11.29990559501126
 30
0.0
 10
-74.61250000000004
 20
-11.89618701882793
 30
0.0
1001
PE_URL
1000

  0
LINE
  5
21E
330
1F
100
AcDbEntity
  8
외형선
  6
Continuous
370
    15
100
AcDbLine
 10
-8.45819999999992
 20
12.69999999999999
 30
0.0
 11
-29.37518467149224
 21
12.69999999999999
 31
0.0
  0
ENDSEC
  0
SECTION
  2
OBJECTS
  0
DICTIONARY
  5
C
330
0
100
AcDbDictionary
281
     1
  3
ACAD_GROUP
350
D
  3
ACAD_IMAGE_VARS
350
245
  3
ACAD_LAYOUT
350
1A
  3
ACAD_MLINESTYLE
350
17
  3
ACAD_PLOTSETTINGS
350
19
  3
ACAD_PLOTSTYLENAME
350
E
  3
ACAD_SCALELIST
350
47
  3
APPDATA
350
157
  3
DWGPROPS
350
246
  0
DICTIONARY
  5
191
330
2
100
AcDbDictionary
280
     1
281
     1
  3
ACAD_LAYERSTATES
360
192
  0
DICTIONARY
  5
D
102
{ACAD_REACTORS
330
C
102
}
330
C
100
AcDbDictionary
281
     1
  0
RASTERVARIABLES
  5
245
102
{ACAD_REACTORS
330
C
102
}
330
C
100
AcDbRasterVariables
 90
        0
 70
     1
 71
     1
 72
     1
  0
DICTIONARY
  5
1A
102
{ACAD_REACTORS
330
C
102
}
330
C
100
AcDbDictionary
281
     1
  3
Layout1
350
1E
  3
Layout2
350
26
  3
Model
350
22
  0
DICTIONARY
  5
17
102
{ACAD_REACTORS
330
C
102
}
330
C
100
AcDbDictionary
281
     1
  3
Standard
350
18
  0
DICTIONARY
  5
19
102
{ACAD_REACTORS
330
C
102
}
330
C
100
AcDbDictionary
281
     1
  0
ACDBDICTIONARYWDFLT
  5
E
102
{ACAD_REACTORS
330
C
102
}
330
C
100
AcDbDictionary
281
     1
  3
Normal
350
F
100
AcDbDictionaryWithDefault
340
F
  0
DICTIONARY
  5
47
102
{ACAD_REACTORS
330
C
102
}
330
C
100
AcDbDictionary
281
     1
  3
A0
350
48
  3
A1
350
49
  3
A2
350
4A
  3
A3
350
4B
  3
A4
350
4C
  3
A5
350
4D
  3
A6
350
4E
  3
A7
350
4F
  3
A8
350
50
  3
A9
350
51
  3
B0
350
52
  3
B1
350
53
  3
B2
350
54
  3
B3
350
55
  3
B4
350
56
  3
B5
350
57
  3
B6
350
58
  3
B7
350
59
  3
B8
350
5A
  3
B9
350
5B
  3
C0
350
5C
  3
C1
350
5D
  3
C2
350
5E
  3
C3
350
5F
  3
C4
350
60
  3
C5
350
61
  3
C6
350
62
  3
C7
350
63
  3
C8
350
64
  3
C9
350
65
  3
D0
350
66
  3
D1
350
67
  3
D2
350
68
  0
DICTIONARY
  5
157
102
{ACAD_REACTORS
330
C
102
}
330
C
100
AcDbDictionary
281
     1
  0
XRECORD
  5
246
102
{ACAD_REACTORS
330
C
102
}
330
C
100
AcDbXrecord
280
     1
  1
DWGPROPS COOKIE
  2

  3

  4

  6

  7

  8
12016016
  9

300
=
301
=
302
=
303
=
304
=
305
=
306
=
307
=
308
=
309
=
 40
0.0
 41
2458313.026818403
 42
2458330.402277187
  1

 90
        0
  0
DICTIONARY
  5
192
102
{ACAD_REACTORS
330
191
102
}
330
191
100
AcDbDictionary
281
     1
  0
LAYOUT
  5
1E
102
{ACAD_REACTORS
330
1A
102
}
330
1A
100
AcDbPlotSettings
  1

  2
none_device
  4

  6

 40
0.0
 41
0.0
 42
0.0
 43
0.0
 44
0.0
 45
0.0
 46
0.0
 47
0.0
 48
0.0
 49
0.0
140
0.0
141
0.0
142
1.0
143
1.0
 70
   688
 72
     1
 73
     0
 74
     5
  7

 75
    16
147
1.0
148
0.0
149
0.0
100
AcDbLayout
  1
Layout1
 70
     1
 71
     1
 10
0.0
 20
0.0
 11
420.0
 21
297.0
 12
0.0
 22
0.0
 32
0.0
 14
1.000000000000000E+20
 24
1.000000000000000E+20
 34
1.000000000000000E+20
 15
-1.000000000000000E+20
 25
-1.000000000000000E+20
 35
-1.000000000000000E+20
146
0.0
 13
0.0
 23
0.0
 33
0.0
 16
1.0
 26
0.0
 36
0.0
 17
0.0
 27
1.0
 37
0.0
 76
     0
330
1B
  0
LAYOUT
  5
26
102
{ACAD_REACTORS
330
1A
102
}
330
1A
100
AcDbPlotSettings
  1

  2
none_device
  4

  6

 40
0.0
 41
0.0
 42
0.0
 43
0.0
 44
0.0
 45
0.0
 46
0.0
 47
0.0
 48
0.0
 49
0.0
140
0.0
141
0.0
142
1.0
143
1.0
 70
   688
 72
     1
 73
     0
 74
     5
  7

 75
    16
147
1.0
148
0.0
149
0.0
100
AcDbLayout
  1
Layout2
 70
     1
 71
     2
 10
0.0
 20
0.0
 11
0.0
 21
0.0
 12
0.0
 22
0.0
 32
0.0
 14
0.0
 24
0.0
 34
0.0
 15
0.0
 25
0.0
 35
0.0
146
0.0
 13
0.0
 23
0.0
 33
0.0
 16
1.0
 26
0.0
 36
0.0
 17
0.0
 27
1.0
 37
0.0
 76
     0
330
23
  0
LAYOUT
  5
22
102
{ACAD_REACTORS
330
1A
102
}
330
1A
100
AcDbPlotSettings
  1

  2
none_device
  4
ANSI_A_(11.00_x_8.50_Inches)
  6

 40
6.35
 41
19.05
 42
6.35000508
 43
19.05000254
 44
279.4
 45
215.9
 46
53.04992004226212
 47
26.32731905655794
 48
0.0
 49
0.0
140
0.0
141
0.0
142
0.0189089557844881
143
1.0
 70
  1696
 72
     0
 73
     0
 74
     0
  7

 75
     0
147
0.0235690232323232
148
0.0
149
0.0
100
AcDbLayout
  1
Model
 70
     1
 71
     0
 10
0.0
 20
0.0
 11
420.0
 21
297.0
 12
0.0
 22
0.0
 32
0.0
 14
-94.48750000000007
 24
-49.97180738881175
 34
0.0
 15
104.1441250329551
 25
51.94818701882802
 35
0.0
146
0.0
 13
0.0
 23
0.0
 33
0.0
 16
1.0
 26
0.0
 36
0.0
 17
0.0
 27
1.0
 37
0.0
 76
     0
330
1F
331
29
  0
MLINESTYLE
  5
18
102
{ACAD_REACTORS
330
17
102
}
330
17
100
AcDbMlineStyle
  2
Standard
 70
     0
  3

 62
   256
 51
90.0
 52
90.0
 71
     2
 49
0.5
 62
   256
  6
BYLAYER
 49
-0.5
 62
   256
  6
BYLAYER
  0
ACDBPLACEHOLDER
  5
F
102
{ACAD_REACTORS
330
E
102
}
330
E
  0
SCALE
  5
48
102
{ACAD_REACTORS
330
47
102
}
330
47
100
AcDbScale
 70
     0
300
1:1
140
1.0
141
1.0
290
     1
  0
SCALE
  5
49
102
{ACAD_REACTORS
330
47
102
}
330
47
100
AcDbScale
 70
     0
300
1:2
140
1.0
141
2.0
290
     0
  0
SCALE
  5
4A
102
{ACAD_REACTORS
330
47
102
}
330
47
100
AcDbScale
 70
     0
300
1:4
140
1.0
141
4.0
290
     0
  0
SCALE
  5
4B
102
{ACAD_REACTORS
330
47
102
}
330
47
100
AcDbScale
 70
     0
300
1:5
140
1.0
141
5.0
290
     0
  0
SCALE
  5
4C
102
{ACAD_REACTORS
330
47
102
}
330
47
100
AcDbScale
 70
     0
300
1:8
140
1.0
141
8.0
290
     0
  0
SCALE
  5
4D
102
{ACAD_REACTORS
330
47
102
}
330
47
100
AcDbScale
 70
     0
300
1:10
140
1.0
141
10.0
290
     0
  0
SCALE
  5
4E
102
{ACAD_REACTORS
330
47
102
}
330
47
100
AcDbScale
 70
     0
300
1:16
140
1.0
141
16.0
290
     0
  0
SCALE
  5
4F
102
{ACAD_REACTORS
330
47
102
}
330
47
100
AcDbScale
 70
     0
300
1:20
140
1.0
141
20.0
290
     0
  0
SCALE
  5
50
102
{ACAD_REACTORS
330
47
102
}
330
47
100
AcDbScale
 70
     0
300
1:30
140
1.0
141
30.0
290
     0
  0
SCALE
  5
51
102
{ACAD_REACTORS
330
47
102
}
330
47
100
AcDbScale
 70
     0
300
1:40
140
1.0
141
40.0
290
     0
  0
SCALE
  5
52
102
{ACAD_REACTORS
330
47
102
}
330
47
100
AcDbScale
 70
     0
300
1:50
140
1.0
141
50.0
290
     0
  0
SCALE
  5
53
102
{ACAD_REACTORS
330
47
102
}
330
47
100
AcDbScale
 70
     0
300
1:100
140
1.0
141
100.0
290
     0
  0
SCALE
  5
54
102
{ACAD_REACTORS
330
47
102
}
330
47
100
AcDbScale
 70
     0
300
2:1
140
2.0
141
1.0
290
     0
  0
SCALE
  5
55
102
{ACAD_REACTORS
330
47
102
}
330
47
100
AcDbScale
 70
     0
300
4:1
140
4.0
141
1.0
290
     0
  0
SCALE
  5
56
102
{ACAD_REACTORS
330
47
102
}
330
47
100
AcDbScale
 70
     0
300
8:1
140
8.0
141
1.0
290
     0
  0
SCALE
  5
57
102
{ACAD_REACTORS
330
47
102
}
330
47
100
AcDbScale
 70
     0
300
10:1
140
10.0
141
1.0
290
     0
  0
SCALE
  5
58
102
{ACAD_REACTORS
330
47
102
}
330
47
100
AcDbScale
 70
     0
300
100:1
140
100.0
141
1.0
290
     0
  0
SCALE
  5
59
102
{ACAD_REACTORS
330
47
102
}
330
47
100
AcDbScale
 70
     0
300
1/128" = 1'-0"
140
0.0078125
141
12.0
290
     0
  0
SCALE
  5
5A
102
{ACAD_REACTORS
330
47
102
}
330
47
100
AcDbScale
 70
     0
300
1/64" = 1'-0"
140
0.015625
141
12.0
290
     0
  0
SCALE
  5
5B
102
{ACAD_REACTORS
330
47
102
}
330
47
100
AcDbScale
 70
     0
300
1/32" = 1'-0"
140
0.03125
141
12.0
290
     0
  0
SCALE
  5
5C
102
{ACAD_REACTORS
330
47
102
}
330
47
100
AcDbScale
 70
     0
300
1/16" = 1'-0"
140
0.0625
141
12.0
290
     0
  0
SCALE
  5
5D
102
{ACAD_REACTORS
330
47
102
}
330
47
100
AcDbScale
 70
     0
300
3/32" = 1'-0"
140
0.09375
141
12.0
290
     0
  0
SCALE
  5
5E
102
{ACAD_REACTORS
330
47
102
}
330
47
100
AcDbScale
 70
     0
300
1/8" = 1'-0"
140
0.125
141
12.0
290
     0
  0
SCALE
  5
5F
102
{ACAD_REACTORS
330
47
102
}
330
47
100
AcDbScale
 70
     0
300
3/16" = 1'-0"
140
0.1875
141
12.0
290
     0
  0
SCALE
  5
60
102
{ACAD_REACTORS
330
47
102
}
330
47
100
AcDbScale
 70
     0
300
1/4" = 1'-0"
140
0.25
141
12.0
290
     0
  0
SCALE
  5
61
102
{ACAD_REACTORS
330
47
102
}
330
47
100
AcDbScale
 70
     0
300
3/8" = 1'-0"
140
0.375
141
12.0
290
     0
  0
SCALE
  5
62
102
{ACAD_REACTORS
330
47
102
}
330
47
100
AcDbScale
 70
     0
300
1/2" = 1'-0"
140
0.5
141
12.0
290
     0
  0
SCALE
  5
63
102
{ACAD_REACTORS
330
47
102
}
330
47
100
AcDbScale
 70
     0
300
3/4" = 1'-0"
140
0.75
141
12.0
290
     0
  0
SCALE
  5
64
102
{ACAD_REACTORS
330
47
102
}
330
47
100
AcDbScale
 70
     0
300
1" = 1'-0"
140
1.0
141
12.0
290
     0
  0
SCALE
  5
65
102
{ACAD_REACTORS
330
47
102
}
330
47
100
AcDbScale
 70
     0
300
1-1/2" = 1'-0"
140
1.5
141
12.0
290
     0
  0
SCALE
  5
66
102
{ACAD_REACTORS
330
47
102
}
330
47
100
AcDbScale
 70
     0
300
3" = 1'-0"
140
3.0
141
12.0
290
     0
  0
SCALE
  5
67
102
{ACAD_REACTORS
330
47
102
}
330
47
100
AcDbScale
 70
     0
300
6" = 1'-0"
140
6.0
141
12.0
290
     0
  0
SCALE
  5
68
102
{ACAD_REACTORS
330
47
102
}
330
47
100
AcDbScale
 70
     0
300
1'-0" = 1'-0"
140
12.0
141
12.0
290
     0
  0
ENDSEC
  0
EOF
