  0
SECTION
  2
HEADER
  9
$ACADVER
  1
AC1015
  9
$ACADMAINTVER
 70
     6
  9
$DWGCODEPAGE
  3
ANSI_949
  9
$INSBASE
 10
0.0
 20
0.0
 30
0.0
  9
$EXTMIN
 10
-58.17375000000006
 20
-49.97180738881174
 30
0.0
  9
$EXTMAX
 10
136.3446237322537
 20
38.73530345637155
 30
0.0
  9
$LIMMIN
 10
0.0
 20
0.0
  9
$LIMMAX
 10
420.0
 20
297.0
  9
$ORTHOMODE
 70
     1
  9
$REGENMODE
 70
     1
  9
$FILLMODE
 70
     1
  9
$QTEXTMODE
 70
     0
  9
$MIRRTEXT
 70
     1
  9
$LTSCALE
 40
1.0
  9
$ATTMODE
 70
     1
  9
$TEXTSIZE
 40
3.5
  9
$TRACEWID
 40
1.0
  9
$TEXTSTYLE
  7
Standard
  9
$CLAYER
  8
0
  9
$CELTYPE
  6
ByLayer
  9
$CECOLOR
 62
   256
  9
$CELTSCALE
 40
1.0
  9
$DISPSILH
 70
     0
  9
$DIMSCALE
 40
1.0
  9
$DIMASZ
 40
3.302
  9
$DIMEXO
 40
1.0
  9
$DIMDLI
 40
3.75
  9
$DIMRND
 40
0.0
  9
$DIMDLE
 40
0.0
  9
$DIMEXE
 40
1.0
  9
$DIMTP
 40
0.0
  9
$DIMTM
 40
0.0
  9
$DIMTXT
 40
3.5
  9
$DIMCEN
 40
2.5
  9
$DIMTSZ
 40
0.0
  9
$DIMTOL
 70
     0
  9
$DIMLIM
 70
     0
  9
$DIMTIH
 70
     1
  9
$DIMTOH
 70
     1
  9
$DIMSE1
 70
     0
  9
$DIMSE2
 70
     0
  9
$DIMTAD
 70
     1
  9
$DIMZIN
 70
     0
  9
$DIMBLK
  1

  9
$DIMASO
 70
     1
  9
$DIMSHO
 70
     1
  9
$DIMPOST
  1

  9
$DIMAPOST
  1

  9
$DIMALT
 70
     0
  9
$DIMALTD
 70
     3
  9
$DIMALTF
 40
0.0393700787401575
  9
$DIMLFAC
 40
1.0
  9
$DIMTOFL
 70
     1
  9
$DIMTVP
 40
0.0
  9
$DIMTIX
 70
     0
  9
$DIMSOXD
 70
     0
  9
$DIMSAH
 70
     0
  9
$DIMBLK1
  1

  9
$DIMBLK2
  1

  9
$DIMSTYLE
  2
ISO-25
  9
$DIMCLRD
 70
     0
  9
$DIMCLRE
 70
     0
  9
$DIMCLRT
 70
     0
  9
$DIMTFAC
 40
1.0
  9
$DIMGAP
 40
1.524
  9
$DIMJUST
 70
     0
  9
$DIMSD1
 70
     0
  9
$DIMSD2
 70
     0
  9
$DIMTOLJ
 70
     0
  9
$DIMTZIN
 70
     0
  9
$DIMALTZ
 70
     0
  9
$DIMALTTZ
 70
     0
  9
$DIMUPT
 70
     0
  9
$DIMDEC
 70
     2
  9
$DIMTDEC
 70
     2
  9
$DIMALTU
 70
     2
  9
$DIMALTTD
 70
     3
  9
$DIMTXSTY
  7
Standard
  9
$DIMAUNIT
 70
     0
  9
$DIMADEC
 70
     2
  9
$DIMALTRND
 40
0.0
  9
$DIMAZIN
 70
     0
  9
$DIMDSEP
 70
    44
  9
$DIMATFIT
 70
     3
  9
$DIMFRAC
 70
     0
  9
$DIMLDRBLK
  1

  9
$DIMLUNIT
 70
     2
  9
$DIMLWD
 70
    -2
  9
$DIMLWE
 70
    -2
  9
$DIMTMOVE
 70
     0
  9
$LUNITS
 70
     2
  9
$LUPREC
 70
     2
  9
$SKETCHINC
 40
1.0
  9
$FILLETRAD
 40
10.0
  9
$AUNITS
 70
     0
  9
$AUPREC
 70
     2
  9
$MENU
  1
.
  9
$ELEVATION
 40
0.0
  9
$PELEVATION
 40
0.0
  9
$THICKNESS
 40
0.0
  9
$LIMCHECK
 70
     0
  9
$CHAMFERA
 40
0.0
  9
$CHAMFERB
 40
0.0
  9
$CHAMFERC
 40
0.0
  9
$CHAMFERD
 40
0.0
  9
$SKPOLY
 70
     0
  9
$TDCREATE
 40
2458313.469965475
  9
$TDUCREATE
 40
2458313.094965475
  9
$TDUPDATE
 40
2458319.485484004
  9
$TDUUPDATE
 40
2458319.110484004
  9
$TDINDWG
 40
0.0027124421
  9
$TDUSRTIMER
 40
2458319.110432419
  9
$USRTIMER
 70
     1
  9
$ANGBASE
 50
0.0
  9
$ANGDIR
 70
     0
  9
$PDMODE
 70
     0
  9
$PDSIZE
 40
-1.0
  9
$PLINEWID
 40
0.0
  9
$SPLFRAME
 70
     0
  9
$SPLINETYPE
 70
     6
  9
$SPLINESEGS
 70
     8
  9
$HANDSEED
  5
41B
  9
$SURFTAB1
 70
     6
  9
$SURFTAB2
 70
     6
  9
$SURFTYPE
 70
     6
  9
$SURFU
 70
     6
  9
$SURFV
 70
     6
  9
$UCSBASE
  2

  9
$UCSNAME
  2

  9
$UCSORG
 10
0.0
 20
0.0
 30
0.0
  9
$UCSXDIR
 10
1.0
 20
0.0
 30
0.0
  9
$UCSYDIR
 10
0.0
 20
1.0
 30
0.0
  9
$UCSORTHOREF
  2

  9
$UCSORTHOVIEW
 70
     0
  9
$UCSORGTOP
 10
0.0
 20
0.0
 30
0.0
  9
$UCSORGBOTTOM
 10
0.0
 20
0.0
 30
0.0
  9
$UCSORGLEFT
 10
0.0
 20
0.0
 30
0.0
  9
$UCSORGRIGHT
 10
0.0
 20
0.0
 30
0.0
  9
$UCSORGFRONT
 10
0.0
 20
0.0
 30
0.0
  9
$UCSORGBACK
 10
0.0
 20
0.0
 30
0.0
  9
$PUCSBASE
  2

  9
$PUCSNAME
  2

  9
$PUCSORG
 10
0.0
 20
0.0
 30
0.0
  9
$PUCSXDIR
 10
1.0
 20
0.0
 30
0.0
  9
$PUCSYDIR
 10
0.0
 20
1.0
 30
0.0
  9
$PUCSORTHOREF
  2

  9
$PUCSORTHOVIEW
 70
     0
  9
$PUCSORGTOP
 10
0.0
 20
0.0
 30
0.0
  9
$PUCSORGBOTTOM
 10
0.0
 20
0.0
 30
0.0
  9
$PUCSORGLEFT
 10
0.0
 20
0.0
 30
0.0
  9
$PUCSORGRIGHT
 10
0.0
 20
0.0
 30
0.0
  9
$PUCSORGFRONT
 10
0.0
 20
0.0
 30
0.0
  9
$PUCSORGBACK
 10
0.0
 20
0.0
 30
0.0
  9
$USERI1
 70
     0
  9
$USERI2
 70
     0
  9
$USERI3
 70
     0
  9
$USERI4
 70
     0
  9
$USERI5
 70
     0
  9
$USERR1
 40
0.0
  9
$USERR2
 40
0.0
  9
$USERR3
 40
0.0
  9
$USERR4
 40
0.0
  9
$USERR5
 40
0.0
  9
$WORLDVIEW
 70
     1
  9
$SHADEDGE
 70
     3
  9
$SHADEDIF
 70
    70
  9
$TILEMODE
 70
     1
  9
$MAXACTVP
 70
    64
  9
$PINSBASE
 10
0.0
 20
0.0
 30
0.0
  9
$PLIMCHECK
 70
     0
  9
$PEXTMIN
 10
1.000000000000000E+20
 20
1.000000000000000E+20
 30
1.000000000000000E+20
  9
$PEXTMAX
 10
-1.000000000000000E+20
 20
-1.000000000000000E+20
 30
-1.000000000000000E+20
  9
$PLIMMIN
 10
0.0
 20
0.0
  9
$PLIMMAX
 10
0.0
 20
0.0
  9
$UNITMODE
 70
     0
  9
$VISRETAIN
 70
     1
  9
$PLINEGEN
 70
     0
  9
$PSLTSCALE
 70
     1
  9
$TREEDEPTH
 70
  3020
  9
$CMLSTYLE
  2
Standard
  9
$CMLJUST
 70
     0
  9
$CMLSCALE
 40
20.0
  9
$PROXYGRAPHICS
 70
     1
  9
$MEASUREMENT
 70
     1
  9
$CELWEIGHT
370
    -1
  9
$ENDCAPS
280
     0
  9
$JOINSTYLE
280
     0
  9
$LWDISPLAY
290
     1
  9
$INSUNITS
 70
     4
  9
$HYPERLINKBASE
  1

  9
$STYLESHEET
  1

  9
$XEDIT
290
     1
  9
$CEPSNTYPE
380
     0
  9
$PSTYLEMODE
290
     1
  9
$FINGERPRINTGUID
  2
{041DBB03-EC17-48C1-BC9A-16EFE85D9564}
  9
$VERSIONGUID
  2
{FAEB1C32-E019-11D5-929B-00C0DF256EC4}
  9
$EXTNAMES
290
     1
  9
$PSVPSCALE
 40
0.0
  9
$OLESTARTUP
290
     0
  0
ENDSEC
  0
SECTION
  2
CLASSES
  0
CLASS
  1
ACDBDICTIONARYWDFLT
  2
AcDbDictionaryWithDefault
  3
ObjectDBX Classes
 90
        0
280
     0
281
     0
  0
CLASS
  1
VISUALSTYLE
  2
AcDbVisualStyle
  3
ObjectDBX Classes
 90
     4095
280
     0
281
     0
  0
CLASS
  1
MATERIAL
  2
AcDbMaterial
  3
ObjectDBX Classes
 90
     1153
280
     0
281
     0
  0
CLASS
  1
SCALE
  2
AcDbScale
  3
ObjectDBX Classes
 90
     1153
280
     0
281
     0
  0
CLASS
  1
SUN
  2
AcDbSun
  3
SCENEOE
 90
     1153
280
     0
281
     0
  0
CLASS
  1
ACDBPLACEHOLDER
  2
AcDbPlaceHolder
  3
ObjectDBX Classes
 90
        0
280
     0
281
     0
  0
CLASS
  1
LAYOUT
  2
AcDbLayout
  3
ObjectDBX Classes
 90
        0
280
     0
281
     0
  0
CLASS
  1
TABLESTYLE
  2
AcDbTableStyle
  3
ObjectDBX Classes
 90
     4095
280
     0
281
     0
  0
CLASS
  1
MLEADERSTYLE
  2
AcDbMLeaderStyle
  3
ACDB_MLEADERSTYLE_CLASS
 90
     4095
280
     0
281
     0
  0
CLASS
  1
RASTERVARIABLES
  2
AcDbRasterVariables
  3
ISM
 90
        0
280
     0
281
     0
  0
ENDSEC
  0
SECTION
  2
TABLES
  0
TABLE
  2
VPORT
  5
8
330
0
100
AcDbSymbolTable
 70
     1
  0
VPORT
  5
29
330
8
100
AcDbSymbolTableRecord
100
AcDbViewportTableRecord
  2
*Active
 70
     0
 10
0.0
 20
0.0
 11
1.0
 21
1.0
 12
10.17930359939609
 22
-10.14422487901926
 13
0.0
 23
0.0
 14
10.0
 24
10.0
 15
10.0
 25
10.0
 16
0.0
 26
0.0
 36
1.0
 17
0.0
 27
0.0
 37
0.0
 40
115.1011532432839
 41
1.632093933463796
 42
50.0
 43
0.0
 44
0.0
 50
0.0
 51
0.0
 71
    16
 72
  2000
 73
     1
 74
     3
 75
     0
 76
     0
 77
     0
 78
     0
281
     0
 65
     1
110
0.0
120
0.0
130
0.0
111
1.0
121
0.0
131
0.0
112
0.0
122
1.0
132
0.0
 79
     0
146
0.0
  0
ENDTAB
  0
TABLE
  2
LTYPE
  5
5
330
0
100
AcDbSymbolTable
 70
     6
  0
LTYPE
  5
14
330
5
100
AcDbSymbolTableRecord
100
AcDbLinetypeTableRecord
  2
ByBlock
 70
     0
  3

 72
    65
 73
     0
 40
0.0
  0
LTYPE
  5
15
330
5
100
AcDbSymbolTableRecord
100
AcDbLinetypeTableRecord
  2
ByLayer
 70
     0
  3

 72
    65
 73
     0
 40
0.0
  0
LTYPE
  5
16
330
5
100
AcDbSymbolTableRecord
100
AcDbLinetypeTableRecord
  2
Continuous
 70
     0
  3
Solid line
 72
    65
 73
     0
 40
0.0
  0
LTYPE
  5
6A
330
5
100
AcDbSymbolTableRecord
100
AcDbLinetypeTableRecord
  2
HIDDEN
 70
     0
  3
Hidden __ __ __ __ __ __ __ __ __ __ __ __ __ __
 72
    65
 73
     2
 40
1.905
 49
1.27
 74
     0
 49
-0.635
 74
     0
  0
LTYPE
  5
6B
330
5
100
AcDbSymbolTableRecord
100
AcDbLinetypeTableRecord
  2
PHANTOM
 70
     0
  3
Phantom ______  __  __  ______  __  __  ______
 72
    65
 73
     6
 40
12.7
 49
6.35
 74
     0
 49
-1.27
 74
     0
 49
1.27
 74
     0
 49
-1.27
 74
     0
 49
1.27
 74
     0
 49
-1.27
 74
     0
  0
LTYPE
  5
6C
330
5
100
AcDbSymbolTableRecord
100
AcDbLinetypeTableRecord
  2
CENTER
 70
     0
  3
Center ____ _ ____ _ ____ _ ____ _ ____ _ ____
 72
    65
 73
     4
 40
10.16
 49
6.35
 74
     0
 49
-1.27
 74
     0
 49
1.27
 74
     0
 49
-1.27
 74
     0
  0
LTYPE
  5
6D
330
5
100
AcDbSymbolTableRecord
100
AcDbLinetypeTableRecord
  2
CENTERX2
 70
     0
  3
Center (2x) ________  __  ________  __  _____
 72
    65
 73
     4
 40
20.32
 49
12.7
 74
     0
 49
-2.54
 74
     0
 49
2.54
 74
     0
 49
-2.54
 74
     0
  0
LTYPE
  5
6E
330
5
100
AcDbSymbolTableRecord
100
AcDbLinetypeTableRecord
  2
DOT2
 70
     0
  3
Dot (.5x) ........................................
 72
    65
 73
     2
 40
0.635
 49
0.0
 74
     0
 49
-0.635
 74
     0
  0
ENDTAB
  0
TABLE
  2
LAYER
  5
2
102
{ACAD_XDICTIONARY
360
1DF
102
}
330
0
100
AcDbSymbolTable
 70
    18
  0
LAYER
  5
10
330
2
100
AcDbSymbolTableRecord
100
AcDbLayerTableRecord
  2
0
 70
     0
 62
     7
  6
Continuous
370
    -3
390
F
  0
LAYER
  5
6F
330
2
100
AcDbSymbolTableRecord
100
AcDbLayerTableRecord
  2
FORMAT
 70
     0
 62
     2
  6
Continuous
370
    -3
390
F
  0
LAYER
  5
70
330
2
100
AcDbSymbolTableRecord
100
AcDbLayerTableRecord
  2
외형선
 70
     0
 62
     4
  6
Continuous
370
    30
390
F
  0
LAYER
  5
71
330
2
100
AcDbSymbolTableRecord
100
AcDbLayerTableRecord
  2
숨은선
 70
     0
 62
     2
  6
HIDDEN
370
    15
390
F
  0
LAYER
  5
72
330
2
100
AcDbSymbolTableRecord
100
AcDbLayerTableRecord
  2
중심선
 70
     0
 62
     1
  6
CENTERX2
370
    -3
390
F
  0
LAYER
  5
73
330
2
100
AcDbSymbolTableRecord
100
AcDbLayerTableRecord
  2
파단선
 70
     0
 62
     4
  6
Continuous
370
    -3
390
F
  0
LAYER
  5
74
330
2
100
AcDbSymbolTableRecord
100
AcDbLayerTableRecord
  2
해칭선
 70
     0
 62
   100
  6
Continuous
370
    -3
390
F
  0
LAYER
  5
75
330
2
100
AcDbSymbolTableRecord
100
AcDbLayerTableRecord
  2
가는실선
 70
     0
 62
     4
  6
Continuous
370
    -3
390
F
  0
LAYER
  5
76
330
2
100
AcDbSymbolTableRecord
100
AcDbLayerTableRecord
  2
치수_보조선
 70
     0
 62
     4
  6
Continuous
370
    -3
390
F
  0
LAYER
  5
77
330
2
100
AcDbSymbolTableRecord
100
AcDbLayerTableRecord
  2
치수문자_일반주서
 70
     0
 62
     7
  6
Continuous
370
    15
390
F
  0
LAYER
  5
78
330
2
100
AcDbSymbolTableRecord
100
AcDbLayerTableRecord
  2
개별주서
 70
     0
 62
   100
  6
Continuous
370
    30
390
F
  0
LAYER
  5
79
330
2
100
AcDbSymbolTableRecord
100
AcDbLayerTableRecord
  2
중간선
 70
     0
 62
     2
  6
Continuous
370
    15
390
F
  0
LAYER
  5
7A
330
2
100
AcDbSymbolTableRecord
100
AcDbLayerTableRecord
  2
윤곽선
 70
     0
 62
     3
  6
Continuous
370
    40
390
F
  0
LAYER
  5
7B
330
2
100
AcDbSymbolTableRecord
100
AcDbLayerTableRecord
  2
중심마크
 70
     0
 62
   100
  6
Continuous
370
    30
390
F
  0
LAYER
  5
7C
330
2
100
AcDbSymbolTableRecord
100
AcDbLayerTableRecord
  2
가상선
 70
     0
 62
     4
  6
PHANTOM
370
    -3
390
F
  0
LAYER
  5
7D
330
2
100
AcDbSymbolTableRecord
100
AcDbLayerTableRecord
  2
특수지정선
 70
     0
 62
     5
  6
CENTERX2
370
    60
390
F
  0
LAYER
  5
7E
330
2
100
AcDbSymbolTableRecord
100
AcDbLayerTableRecord
  2
참조1
 70
     0
 62
    -4
  6
Continuous
370
    -3
390
F
  0
LAYER
  5
156
330
2
100
AcDbSymbolTableRecord
100
AcDbLayerTableRecord
  2
Defpoints
 70
     0
 62
     7
  6
Continuous
290
     0
370
    -3
390
F
  0
ENDTAB
  0
TABLE
  2
STYLE
  5
3
330
0
100
AcDbSymbolTable
 70
     2
  0
STYLE
  5
11
330
3
100
AcDbSymbolTableRecord
100
AcDbTextStyleTableRecord
  2
Standard
 70
     0
 40
0.0
 41
1.0
 50
0.0
 71
     0
 42
3.5
  3
txt
  4

  0
STYLE
  5
94
330
3
100
AcDbSymbolTableRecord
100
AcDbTextStyleTableRecord
  2
SLDTEXTSTYLE0
 70
     0
 40
0.0
 41
0.75
 50
0.0
 71
     0
 42
3.5
  3
TXT
  4

  0
ENDTAB
  0
TABLE
  2
VIEW
  5
6
330
0
100
AcDbSymbolTable
 70
     0
  0
ENDTAB
  0
TABLE
  2
UCS
  5
7
330
0
100
AcDbSymbolTable
 70
     0
  0
ENDTAB
  0
TABLE
  2
APPID
  5
9
330
0
100
AcDbSymbolTable
 70
     1
  0
APPID
  5
12
330
9
100
AcDbSymbolTableRecord
100
AcDbRegAppTableRecord
  2
ACAD
 70
     0
  0
ENDTAB
  0
TABLE
  2
DIMSTYLE
  5
A
330
0
100
AcDbSymbolTable
 70
     4
100
AcDbDimStyleTable
  0
DIMSTYLE
105
27
330
A
100
AcDbSymbolTableRecord
100
AcDbDimStyleTableRecord
  2
ISO-25
 70
     0
 41
2.5
 42
0.625
 43
3.75
 44
1.25
 73
     0
 74
     0
 77
     1
 78
     8
140
2.5
141
2.5
143
0.03937007874016
147
0.625
171
     3
172
     1
178
     0
271
     2
272
     2
274
     3
278
    44
283
     0
284
     8
340
11
  0
DIMSTYLE
105
D2
102
{ACAD_REACTORS
330
D1
330
10F
330
E6
330
FB
102
}
330
A
100
AcDbSymbolTableRecord
100
AcDbDimStyleTableRecord
  2
SLDDIMSTYLE0
 70
     0
 41
3.302
 44
0.0
 45
0.000000001
 73
     0
 74
     0
 77
     1
 78
    12
 79
     3
140
3.5
143
0.0393700787401575
147
0.875
148
0.000000001
170
     1
172
     1
173
     1
178
     0
271
     2
272
     2
276
     2
284
    12
289
     0
340
94
  0
DIMSTYLE
105
E7
330
A
100
AcDbSymbolTableRecord
100
AcDbDimStyleTableRecord
  2
SLDDIMSTYLE1
 70
     0
 41
3.302
 44
0.0
 45
0.000000001
 73
     0
 74
     0
 77
     1
 78
     4
 79
     1
140
3.5
143
0.0393700787401575
147
0.875
148
0.000000001
170
     1
173
     1
178
     0
271
     2
272
     2
276
     2
284
    12
340
94
  0
DIMSTYLE
105
FC
330
A
100
AcDbSymbolTableRecord
100
AcDbDimStyleTableRecord
  2
SLDDIMSTYLE2
 70
     0
 41
3.302
 44
0.0
 45
0.000000001
 73
     0
 74
     0
 77
     1
 78
    12
 79
     3
140
3.5
143
0.0393700787401575
147
0.875
148
0.000000001
170
     1
173
     1
178
     0
271
     2
272
     2
276
     2
284
    12
340
94
  0
ENDTAB
  0
TABLE
  2
BLOCK_RECORD
  5
1
330
0
100
AcDbSymbolTable
 70
    19
  0
BLOCK_RECORD
  5
1F
330
1
100
AcDbSymbolTableRecord
100
AcDbBlockTableRecord
  2
*Model_Space
340
22
  0
BLOCK_RECORD
  5
1B
330
1
100
AcDbSymbolTableRecord
100
AcDbBlockTableRecord
  2
*Paper_Space
340
1E
  0
BLOCK_RECORD
  5
23
330
1
100
AcDbSymbolTableRecord
100
AcDbBlockTableRecord
  2
*Paper_Space0
340
26
  0
BLOCK_RECORD
  5
7F
330
1
100
AcDbSymbolTableRecord
100
AcDbBlockTableRecord
  2
블럭10
340
0
102
{BLKREFS
331
CA
102
}
  0
BLOCK_RECORD
  5
D3
330
1
100
AcDbSymbolTableRecord
100
AcDbBlockTableRecord
  2
_D
340
0
  0
BLOCK_RECORD
  5
E8
330
1
100
AcDbSymbolTableRecord
100
AcDbBlockTableRecord
  2
_D_1
340
0
  0
BLOCK_RECORD
  5
FD
330
1
100
AcDbSymbolTableRecord
100
AcDbBlockTableRecord
  2
_D_2
340
0
  0
BLOCK_RECORD
  5
110
330
1
100
AcDbSymbolTableRecord
100
AcDbBlockTableRecord
  2
_D_3
340
0
  0
BLOCK_RECORD
  5
12A
330
1
100
AcDbSymbolTableRecord
100
AcDbBlockTableRecord
  2
SW_DOWELSYMBOL_0
340
0
102
{BLKREFS
331
130
331
355
102
}
  0
BLOCK_RECORD
  5
1E3
330
1
100
AcDbSymbolTableRecord
100
AcDbBlockTableRecord
  2
*D7
340
0
  0
BLOCK_RECORD
  5
1F2
330
1
100
AcDbSymbolTableRecord
100
AcDbBlockTableRecord
  2
*D8
340
0
  0
BLOCK_RECORD
  5
201
330
1
100
AcDbSymbolTableRecord
100
AcDbBlockTableRecord
  2
*D9
340
0
  0
BLOCK_RECORD
  5
23E
330
1
100
AcDbSymbolTableRecord
100
AcDbBlockTableRecord
  2
*D10
340
0
  0
BLOCK_RECORD
  5
24D
330
1
100
AcDbSymbolTableRecord
100
AcDbBlockTableRecord
  2
*D11
340
0
  0
BLOCK_RECORD
  5
25C
330
1
100
AcDbSymbolTableRecord
100
AcDbBlockTableRecord
  2
*D12
340
0
  0
BLOCK_RECORD
  5
2FB
330
1
100
AcDbSymbolTableRecord
100
AcDbBlockTableRecord
  2
*D13
340
0
  0
BLOCK_RECORD
  5
30A
330
1
100
AcDbSymbolTableRecord
100
AcDbBlockTableRecord
  2
*D14
340
0
  0
BLOCK_RECORD
  5
319
330
1
100
AcDbSymbolTableRecord
100
AcDbBlockTableRecord
  2
*D15
340
0
  0
BLOCK_RECORD
  5
356
330
1
100
AcDbSymbolTableRecord
100
AcDbBlockTableRecord
  2
*D16
340
0
  0
BLOCK_RECORD
  5
365
330
1
100
AcDbSymbolTableRecord
100
AcDbBlockTableRecord
  2
*D17
340
0
  0
BLOCK_RECORD
  5
374
330
1
100
AcDbSymbolTableRecord
100
AcDbBlockTableRecord
  2
*D18
340
0
  0
ENDTAB
  0
ENDSEC
  0
SECTION
  2
BLOCKS
  0
BLOCK
  5
20
330
1F
100
AcDbEntity
  8
0
100
AcDbBlockBegin
  2
*Model_Space
 70
     0
 10
0.0
 20
0.0
 30
0.0
  3
*Model_Space
  1
*Model_Space
  0
ENDBLK
  5
21
330
1F
100
AcDbEntity
  8
0
100
AcDbBlockEnd
  0
BLOCK
  5
1C
330
1B
100
AcDbEntity
 67
     1
  8
0
100
AcDbBlockBegin
  2
*Paper_Space
 70
     0
 10
0.0
 20
0.0
 30
0.0
  3
*Paper_Space
  1
*Paper_Space
  0
ENDBLK
  5
1D
330
1B
100
AcDbEntity
 67
     1
  8
0
100
AcDbBlockEnd
  0
BLOCK
  5
24
330
23
100
AcDbEntity
  8
0
100
AcDbBlockBegin
  2
*Paper_Space0
 70
     0
 10
0.0
 20
0.0
 30
0.0
  3
*Paper_Space0
  1
*Paper_Space0
  0
ENDBLK
  5
25
330
23
100
AcDbEntity
  8
0
100
AcDbBlockEnd
  0
BLOCK
  5
80
330
7F
100
AcDbEntity
  8
0
100
AcDbBlockBegin
  2
블럭10
 70
     2
 10
0.0
 20
0.0
 30
0.0
  3
블럭10
  1
블럭10
  0
ELLIPSE
  5
82
330
7F
100
AcDbEntity
  8
중심선
100
AcDbEllipse
 10
20.54032771741204
 20
12.0471743016438
 30
0.0
 11
6.600054785286829
 21
-1.261213355974178E-13
 31
0.0
210
0.0
220
0.0
230
1.0
 40
0.636358354079598
 41
0.9219305317359503
 42
6.513795318482858
  0
ELLIPSE
  5
83
330
7F
100
AcDbEntity
  8
중심선
100
AcDbEllipse
 10
20.54032771746488
 20
12.04717430159265
 30
0.0
 11
3.960054785062283
 21
1.540847449632565E-10
 31
0.0
210
0.0
220
0.0
230
1.0
 40
0.3939339440162632
 41
1.131841032648279
 42
5.62031148352944
  0
LINE
  5
84
330
7F
100
AcDbEntity
  8
중심선
100
AcDbLine
 10
2.268634060543552
 20
16.24717430164393
 30
0.0
 11
5.714909304380834
 21
16.24717430164393
 31
0.0
  0
LINE
  5
85
330
7F
100
AcDbEntity
  8
중심선
100
AcDbLine
 10
5.245725140726316
 20
7.84717430164391
 30
0.0
 11
8.692000384563599
 21
7.84717430164391
 31
0.0
  0
LINE
  5
86
330
7F
100
AcDbEntity
  8
중심선
100
AcDbLine
 10
15.74043728645272
 20
16.24717430164393
 30
0.0
 11
8.692000384563599
 21
7.84717430164391
 31
0.0
  0
LINE
  5
87
330
7F
100
AcDbEntity
  8
중심선
100
AcDbLine
 10
0.1404042013395286
 20
13.71084872107135
 30
0.0
 11
3.58671253028996
 21
13.71088815037384
 31
0.0
  0
LINE
  5
88
330
7F
100
AcDbEntity
  8
중심선
100
AcDbLine
 10
2.750260043222114
 20
10.84717430164391
 30
0.0
 11
6.196535287059397
 21
10.84717430164391
 31
0.0
  0
LINE
  5
89
330
7F
100
AcDbEntity
  8
중심선
100
AcDbLine
 10
12.29416204261559
 20
16.24717430164393
 30
0.0
 11
5.245725140726316
 21
7.84717430164391
 31
0.0
  0
LINE
  5
8A
330
7F
100
AcDbEntity
  8
중심선
100
AcDbLine
 10
10.72767329541681
 20
16.24717430164393
 30
0.0
 11
6.196535287059397
 21
10.84717430164391
 31
0.0
  0
LINE
  5
8B
330
7F
100
AcDbEntity
  8
중심선
100
AcDbLine
 10
7.28139805157953
 20
16.24717430164393
 30
0.0
 11
2.750260043222114
 21
10.84717430164391
 31
0.0
  0
LINE
  5
8C
330
7F
100
AcDbEntity
  8
중심선
100
AcDbLine
 10
5.714909304380834
 20
16.24717430164393
 30
0.0
 11
3.58671253028996
 21
13.71088815037384
 31
0.0
  0
LINE
  5
8D
330
7F
100
AcDbEntity
  8
중심선
100
AcDbLine
 10
2.268634060543552
 20
16.24717430164393
 30
0.0
 11
0.1404042013395286
 21
13.71084872107135
 31
0.0
  0
LINE
  5
8E
330
7F
100
AcDbEntity
  8
중심선
100
AcDbLine
 10
7.28139805157953
 20
16.24717430164393
 30
0.0
 11
10.72767329541681
 21
16.24717430164393
 31
0.0
  0
LINE
  5
8F
330
7F
100
AcDbEntity
  8
중심선
100
AcDbLine
 10
12.29416204261559
 20
16.24717430164393
 30
0.0
 11
15.74043728645272
 21
16.24717430164393
 31
0.0
  0
LINE
  5
90
330
7F
100
AcDbEntity
  8
중심선
100
AcDbLine
 10
19.22036997980202
 20
11.08717430171403
 30
0.0
 11
23.66174974927406
 21
11.08717430171406
 31
0.0
  0
LINE
  5
91
330
7F
100
AcDbEntity
  8
중심선
100
AcDbLine
 10
19.22039502424796
 20
13.00717430171391
 30
0.0
 11
19.22036997980202
 21
11.08717430171403
 31
0.0
  0
LINE
  5
92
330
7F
100
AcDbEntity
  8
중심선
100
AcDbLine
 10
19.22039502424796
 20
13.00717430171391
 30
0.0
 11
26.96566020931264
 21
13.00717430171391
 31
0.0
  0
LINE
  5
93
330
7F
100
AcDbEntity
  8
중심선
100
AcDbLine
 10
22.22332737316547
 20
13.45928029700563
 30
0.0
 11
24.52862924686651
 21
15.39360700705356
 31
0.0
  0
ATTDEF
  5
95
330
7F
100
AcDbEntity
  8
FORMAT
 62
     2
100
AcDbText
 10
4.408487351596664
 20
2.075366912832191
 30
0.0
 40
4.233333333333333
  1
E1053012
 41
0.75
  7
SLDTEXTSTYLE0
 11
4.408487351596664
 21
-0.0412997538344756
 31
0.0
100
AcDbAttributeDefinition
  3

  2
AUTOATTR0
 70
     0
 74
     1
  0
ENDBLK
  5
81
330
7F
100
AcDbEntity
  8
0
100
AcDbBlockEnd
  0
BLOCK
  5
D4
330
D3
100
AcDbEntity
  8
0
100
AcDbBlockBegin
  2
_D
 70
     0
 10
0.0
 20
0.0
 30
0.0
  3
_D
  1
_D
  0
LINE
  5
D6
330
D3
100
AcDbEntity
  8
치수문자_일반주서
 62
     0
370
    -2
100
AcDbLine
 10
41.33749999999999
 20
2.381250000000005
 30
0.0
 11
56.45435530974481
 21
2.381250000000062
 31
0.0
  0
LINE
  5
D7
330
D3
100
AcDbEntity
  8
치수문자_일반주서
 62
     0
370
    -2
100
AcDbLine
 10
41.33749999999999
 20
-2.381249999999994
 30
0.0
 11
56.45435530974483
 21
-2.381249999999937
 31
0.0
  0
LINE
  5
D8
330
D3
100
AcDbEntity
  8
치수문자_일반주서
 62
     0
370
    -2
100
AcDbLine
 10
56.45435530974481
 20
2.381250000000062
 30
0.0
 11
56.45435530974471
 21
38.73530345637155
 31
0.0
  0
LINE
  5
D9
330
D3
100
AcDbEntity
  8
치수문자_일반주서
 62
     0
370
    -2
100
AcDbLine
 10
56.45435530974481
 20
2.381250000000062
 30
0.0
 11
56.45435530974483
 21
-2.381249999999937
 31
0.0
  0
LINE
  5
DA
330
D3
100
AcDbEntity
  8
치수문자_일반주서
 62
     0
370
    -2
100
AcDbLine
 10
56.45435530974481
 20
5.683250000000061
 30
0.0
 11
56.4543553097448
 21
8.985250000000061
 31
0.0
  0
LINE
  5
DB
330
D3
100
AcDbEntity
  8
치수문자_일반주서
 62
     0
370
    -2
100
AcDbLine
 10
56.45435530974483
 20
-5.683249999999937
 30
0.0
 11
56.45435530974484
 21
-8.985249999999937
 31
0.0
  0
SOLID
  5
DC
330
D3
100
AcDbEntity
  8
치수문자_일반주서
 62
     0
100
AcDbTrace
 10
55.90402197641147
 20
5.68325000000006
 30
0.0
 11
57.00468864307814
 21
5.683250000000063
 31
0.0
 12
56.45435530974481
 22
2.381250000000062
 32
0.0
 13
56.45435530974481
 23
2.381250000000062
 33
0.0
  0
SOLID
  5
DD
330
D3
100
AcDbEntity
  8
치수문자_일반주서
 62
     0
100
AcDbTrace
 10
57.00468864307817
 20
-5.683249999999935
 30
0.0
 11
55.9040219764115
 21
-5.683249999999939
 31
0.0
 12
56.45435530974483
 22
-2.381249999999937
 32
0.0
 13
56.45435530974483
 23
-2.381249999999937
 33
0.0
  0
MTEXT
  5
DE
330
D3
100
AcDbEntity
  8
치수문자_일반주서
 62
     0
100
AcDbMText
 10
52.07935530974475
 20
24.73530345637153
 30
0.0
 40
3.5
 41
0.0
 71
     2
 72
     1
  1
\A1;%%c4.76 [3/16]
  7
SLDTEXTSTYLE0
 11
-2.983906501879686E-15
 21
1.0
 31
0.0
 73
     1
 44
1.0
  0
POINT
  5
DF
330
D3
100
AcDbEntity
  8
Defpoints
 62
     0
100
AcDbPoint
 10
41.27499999999999
 20
2.381250000000005
 30
0.0
  0
POINT
  5
E0
330
D3
100
AcDbEntity
  8
Defpoints
 62
     0
100
AcDbPoint
 10
41.27499999999999
 20
-2.381249999999995
 30
0.0
  0
POINT
  5
E1
330
D3
100
AcDbEntity
  8
Defpoints
 62
     0
100
AcDbPoint
 10
56.45435530974483
 20
-2.381249999999938
 30
0.0
  0
ENDBLK
  5
D5
330
D3
100
AcDbEntity
  8
0
100
AcDbBlockEnd
  0
BLOCK
  5
E9
330
E8
100
AcDbEntity
  8
0
100
AcDbBlockBegin
  2
_D_1
 70
     0
 10
0.0
 20
0.0
 30
0.0
  3
_D_1
  1
_D_1
  0
LINE
  5
EB
330
E8
100
AcDbEntity
  8
치수문자_일반주서
 62
     0
370
    -2
100
AcDbLine
 10
41.27500000000001
 20
2.443750000000005
 30
0.0
 11
41.27500000000001
 21
17.18956959707096
 31
0.0
  0
LINE
  5
EC
330
E8
100
AcDbEntity
  8
치수문자_일반주서
 62
     0
370
    -2
100
AcDbLine
 10
28.575
 20
2.443108726443506
 30
0.0
 11
28.575
 21
17.18956959707096
 31
0.0
  0
LINE
  5
ED
330
E8
100
AcDbEntity
  8
치수문자_일반주서
 62
     0
370
    -2
100
AcDbLine
 10
28.575
 20
17.18956959707096
 30
0.0
 11
0.0959999999999965
 21
17.18956959707096
 31
0.0
  0
LINE
  5
EE
330
E8
100
AcDbEntity
  8
치수문자_일반주서
 62
     0
370
    -2
100
AcDbLine
 10
41.27500000000001
 20
17.18956959707096
 30
0.0
 11
28.575
 21
17.18956959707096
 31
0.0
  0
LINE
  5
EF
330
E8
100
AcDbEntity
  8
치수문자_일반주서
 62
     0
370
    -2
100
AcDbLine
 10
44.57700000000001
 20
17.18956959707096
 30
0.0
 11
47.879
 21
17.18956959707096
 31
0.0
  0
LINE
  5
F0
330
E8
100
AcDbEntity
  8
치수문자_일반주서
 62
     0
370
    -2
100
AcDbLine
 10
25.273
 20
17.18956959707096
 30
0.0
 11
21.971
 21
17.18956959707096
 31
0.0
  0
SOLID
  5
F1
330
E8
100
AcDbEntity
  8
치수문자_일반주서
 62
     0
100
AcDbTrace
 10
44.57700000000001
 20
17.7399029304043
 30
0.0
 11
44.57700000000001
 21
16.63923626373763
 31
0.0
 12
41.27500000000001
 22
17.18956959707096
 32
0.0
 13
41.27500000000001
 23
17.18956959707096
 33
0.0
  0
SOLID
  5
F2
330
E8
100
AcDbEntity
  8
치수문자_일반주서
 62
     0
100
AcDbTrace
 10
25.273
 20
16.63923626373763
 30
0.0
 11
25.273
 21
17.7399029304043
 31
0.0
 12
28.575
 22
17.18956959707096
 32
0.0
 13
28.575
 23
17.18956959707096
 33
0.0
  0
MTEXT
  5
F3
330
E8
100
AcDbEntity
  8
치수문자_일반주서
 62
     0
100
AcDbMText
 10
11.0335
 20
21.56456959707096
 30
0.0
 40
3.5
 41
0.0
 71
     2
 72
     1
  1
\A1;12.7 [1/2]
  7
SLDTEXTSTYLE0
 73
     1
 44
1.0
  0
POINT
  5
F4
330
E8
100
AcDbEntity
  8
Defpoints
 62
     0
100
AcDbPoint
 10
41.27500000000001
 20
2.381250000000005
 30
0.0
  0
POINT
  5
268
330
E8
100
AcDbEntity
  8
Defpoints
 62
     0
100
AcDbPoint
 10
28.575
 20
2.380608726443506
 30
0.0
  0
POINT
  5
269
330
E8
100
AcDbEntity
  8
Defpoints
 62
     0
100
AcDbPoint
 10
28.575
 20
17.18956959707096
 30
0.0
  0
ENDBLK
  5
EA
330
E8
100
AcDbEntity
  8
0
100
AcDbBlockEnd
  0
BLOCK
  5
FE
330
FD
100
AcDbEntity
  8
0
100
AcDbBlockBegin
  2
_D_2
 70
     0
 10
0.0
 20
0.0
 30
0.0
  3
_D_2
  1
_D_2
  0
LINE
  5
100
330
FD
100
AcDbEntity
  8
치수문자_일반주서
 62
     0
370
    -2
100
AcDbLine
 10
41.27500000000001
 20
2.443750000000005
 30
0.0
 11
41.27500000000001
 21
26.48100320036932
 31
0.0
  0
LINE
  5
101
330
FD
100
AcDbEntity
  8
치수문자_일반주서
 62
     0
370
    -2
100
AcDbLine
 10
-41.27499999999995
 20
2.443750000000002
 30
0.0
 11
-41.27499999999995
 21
26.48100320036932
 31
0.0
  0
LINE
  5
102
330
FD
100
AcDbEntity
  8
치수문자_일반주서
 62
     0
370
    -2
100
AcDbLine
 10
37.97300000000001
 20
26.48100320036932
 30
0.0
 11
-37.97299999999995
 21
26.48100320036932
 31
0.0
  0
SOLID
  5
103
330
FD
100
AcDbEntity
  8
치수문자_일반주서
 62
     0
100
AcDbTrace
 10
37.97300000000001
 20
25.93066986703598
 30
0.0
 11
37.97300000000001
 21
27.03133653370265
 31
0.0
 12
41.27500000000001
 22
26.48100320036932
 32
0.0
 13
41.27500000000001
 23
26.48100320036932
 33
0.0
  0
SOLID
  5
104
330
FD
100
AcDbEntity
  8
치수문자_일반주서
 62
     0
100
AcDbTrace
 10
-37.97299999999995
 20
27.03133653370265
 30
0.0
 11
-37.97299999999995
 21
25.93066986703598
 31
0.0
 12
-41.27499999999995
 22
26.48100320036932
 32
0.0
 13
-41.27499999999995
 23
26.48100320036932
 33
0.0
  0
MTEXT
  5
105
330
FD
100
AcDbEntity
  8
치수문자_일반주서
 62
     0
100
AcDbMText
 10
-0.2300150486958756
 20
30.85600320036932
 30
0.0
 40
3.5
 41
0.0
 71
     2
 72
     1
  1
\A1;82.55 [3 1/4]
  7
SLDTEXTSTYLE0
 73
     1
 44
1.0
  0
POINT
  5
106
330
FD
100
AcDbEntity
  8
Defpoints
 62
     0
100
AcDbPoint
 10
41.27500000000001
 20
2.381250000000005
 30
0.0
  0
POINT
  5
107
330
FD
100
AcDbEntity
  8
Defpoints
 62
     0
100
AcDbPoint
 10
-41.27499999999995
 20
2.381250000000002
 30
0.0
  0
POINT
  5
108
330
FD
100
AcDbEntity
  8
Defpoints
 62
     0
100
AcDbPoint
 10
-41.27499999999995
 20
26.48100320036932
 30
0.0
  0
ENDBLK
  5
FF
330
FD
100
AcDbEntity
  8
0
100
AcDbBlockEnd
  0
BLOCK
  5
111
330
110
100
AcDbEntity
  8
0
100
AcDbBlockBegin
  2
_D_3
 70
     0
 10
0.0
 20
0.0
 30
0.0
  3
_D_3
  1
_D_3
  0
LINE
  5
113
330
110
100
AcDbEntity
  8
치수문자_일반주서
 62
     0
370
    -2
100
AcDbLine
 10
-18.75055401447657
 20
4.762500000000003
 30
0.0
 11
-53.79875000000003
 21
4.762499999999871
 31
0.0
  0
LINE
  5
114
330
110
100
AcDbEntity
  8
치수문자_일반주서
 62
     0
370
    -2
100
AcDbLine
 10
-18.75055401447653
 20
-4.762500000000005
 30
0.0
 11
-53.79874999999999
 21
-4.762500000000136
 31
0.0
  0
LINE
  5
115
330
110
100
AcDbEntity
  8
치수문자_일반주서
 62
     0
370
    -2
100
AcDbLine
 10
-53.79875000000001
 20
1.460499999999872
 30
0.0
 11
-53.79875000000001
 21
-1.460500000000136
 31
0.0
  0
SOLID
  5
116
330
110
100
AcDbEntity
  8
치수문자_일반주서
 62
     0
100
AcDbTrace
 10
-53.24841666666668
 20
1.460499999999874
 30
0.0
 11
-54.34908333333335
 21
1.46049999999987
 31
0.0
 12
-53.79875000000003
 22
4.762499999999871
 32
0.0
 13
-53.79875000000003
 23
4.762499999999871
 33
0.0
  0
SOLID
  5
117
330
110
100
AcDbEntity
  8
치수문자_일반주서
 62
     0
100
AcDbTrace
 10
-54.34908333333334
 20
-1.460500000000138
 30
0.0
 11
-53.24841666666667
 21
-1.460500000000134
 31
0.0
 12
-53.79874999999999
 22
-4.762500000000136
 32
0.0
 13
-53.79874999999999
 23
-4.762500000000136
 33
0.0
  0
MTEXT
  5
118
330
110
100
AcDbEntity
  8
치수문자_일반주서
 62
     0
100
AcDbMText
 10
-58.17375000000001
 20
-0.0000000000000152
 30
0.0
 40
3.5
 41
0.0
 71
     2
 72
     1
  1
\A1;%%c9.53 [3/8]
  7
SLDTEXTSTYLE0
 11
-3.729883127349604E-15
 21
1.0
 31
0.0
 73
     1
 44
1.0
  0
POINT
  5
119
330
110
100
AcDbEntity
  8
Defpoints
 62
     0
100
AcDbPoint
 10
-18.68805401447657
 20
4.762500000000003
 30
0.0
  0
POINT
  5
11A
330
110
100
AcDbEntity
  8
Defpoints
 62
     0
100
AcDbPoint
 10
-18.68805401447653
 20
-4.762500000000005
 30
0.0
  0
POINT
  5
11B
330
110
100
AcDbEntity
  8
Defpoints
 62
     0
100
AcDbPoint
 10
-53.79874999999999
 20
-4.762500000000136
 30
0.0
  0
ENDBLK
  5
112
330
110
100
AcDbEntity
  8
0
100
AcDbBlockEnd
  0
BLOCK
  5
12B
330
12A
100
AcDbEntity
  8
0
100
AcDbBlockBegin
  2
SW_DOWELSYMBOL_0
 70
     0
 10
0.0
 20
0.0
 30
0.0
  3
SW_DOWELSYMBOL_0
  1
SW_DOWELSYMBOL_0
  0
CIRCLE
  5
12D
330
12A
100
AcDbEntity
  8
해칭선
 62
     0
100
AcDbCircle
 10
0.0
 20
0.0
 30
0.0
 40
3.000000000000008
  0
HATCH
  5
12E
330
12A
100
AcDbEntity
  8
0
  6
Continuous
 62
     0
370
     0
100
AcDbHatch
 10
0.0
 20
0.0
 30
0.0
210
0.0
220
0.0
230
1.0
  2
SOLID
 70
     1
 71
     0
 91
        1
 92
        0
 93
        3
 72
     2
 10
0.0
 20
0.0
 40
3.000000000000008
 50
0.0
 51
90.0
 73
     1
 72
     1
 10
0.0
 20
3.000000000000008
 11
0.0
 21
0.0
 72
     1
 10
0.0
 20
0.0
 11
3.00000000000001
 21
0.0
 97
        0
 75
     0
 76
     1
 98
        1
 10
0.0
 20
0.0
  0
HATCH
  5
12F
330
12A
100
AcDbEntity
  8
0
  6
Continuous
 62
     0
370
     0
100
AcDbHatch
 10
0.0
 20
0.0
 30
0.0
210
0.0
220
0.0
230
1.0
  2
SOLID
 70
     1
 71
     0
 91
        1
 92
        0
 93
        3
 72
     2
 10
0.0
 20
0.0
 40
3.000000000000008
 50
180.0
 51
270.0000000000007
 73
     1
 72
     1
 10
0.0
 20
-3.000000000000008
 11
0.0
 21
0.0
 72
     1
 10
0.0
 20
0.0
 11
-3.000000000000008
 21
0.0
 97
        0
 75
     0
 76
     1
 98
        1
 10
0.0
 20
0.0
  0
ENDBLK
  5
12C
330
12A
100
AcDbEntity
  8
0
100
AcDbBlockEnd
  0
BLOCK
  5
1E4
330
1E3
100
AcDbEntity
  8
0
100
AcDbBlockBegin
  2
*D7
 70
     1
 10
0.0
 20
0.0
 30
0.0
  3
*D7
  1
*D8
  0
LINE
  5
1E6
330
1E3
100
AcDbEntity
  8
치수문자_일반주서
 62
     0
370
    -2
100
AcDbLine
 10
85.61250000000001
 20
10.96962499999995
 30
0.0
 11
97.66858645480961
 21
10.969625
 31
0.0
  0
LINE
  5
1E7
330
1E3
100
AcDbEntity
  8
치수문자_일반주서
 62
     0
370
    -2
100
AcDbLine
 10
85.61250000000001
 20
6.603999999999955
 30
0.0
 11
97.66858645480963
 21
6.604000000000003
 31
0.0
  0
LINE
  5
1E8
330
1E3
100
AcDbEntity
  8
치수문자_일반주서
 62
     0
370
    -2
100
AcDbLine
 10
97.66858645480961
 20
10.969625
 30
0.0
 11
97.6685864548095
 21
47.32362500000001
 31
0.0
  0
LINE
  5
1E9
330
1E3
100
AcDbEntity
  8
치수문자_일반주서
 62
     0
370
    -2
100
AcDbLine
 10
97.66858645480961
 20
10.969625
 30
0.0
 11
97.66858645480963
 21
6.604000000000003
 31
0.0
  0
LINE
  5
1EA
330
1E3
100
AcDbEntity
  8
치수문자_일반주서
 62
     0
370
    -2
100
AcDbLine
 10
97.6685864548096
 20
14.271625
 30
0.0
 11
97.66858645480959
 21
17.573625
 31
0.0
  0
LINE
  5
1EB
330
1E3
100
AcDbEntity
  8
치수문자_일반주서
 62
     0
370
    -2
100
AcDbLine
 10
97.66858645480964
 20
3.302000000000003
 30
0.0
 11
97.66858645480966
 21
0.0000000000000036
 31
0.0
  0
SOLID
  5
1EC
330
1E3
100
AcDbEntity
  8
치수문자_일반주서
 62
     0
100
AcDbTrace
 10
97.11825312147627
 20
14.271625
 30
0.0
 11
98.21891978814293
 21
14.271625
 31
0.0
 12
97.66858645480961
 22
10.969625
 32
0.0
 13
97.66858645480961
 23
10.969625
 33
0.0
  0
SOLID
  5
1ED
330
1E3
100
AcDbEntity
  8
치수문자_일반주서
 62
     0
100
AcDbTrace
 10
98.21891978814297
 20
3.302000000000005
 30
0.0
 11
97.11825312147631
 21
3.302000000000001
 31
0.0
 12
97.66858645480963
 22
6.604000000000003
 32
0.0
 13
97.66858645480963
 23
6.604000000000003
 33
0.0
  0
MTEXT
  5
1EE
330
1E3
100
AcDbEntity
  8
치수문자_일반주서
 62
     0
100
AcDbMText
 10
93.29358645480954
 20
32.44862499999999
 30
0.0
 40
3.5
 41
0.0
 71
     2
 72
     1
  1
\A1;%%c4.37 [11/64]
  7
SLDTEXTSTYLE0
 11
-3.255170729323293E-15
 21
1.0
 31
0.0
 73
     1
 44
1.0
  0
POINT
  5
1EF
330
1E3
100
AcDbEntity
  8
Defpoints
 62
     0
100
AcDbPoint
 10
85.55000000000001
 20
10.96962499999995
 30
0.0
  0
POINT
  5
1F0
330
1E3
100
AcDbEntity
  8
Defpoints
 62
     0
100
AcDbPoint
 10
85.55000000000001
 20
6.603999999999955
 30
0.0
  0
POINT
  5
1F1
330
1E3
100
AcDbEntity
  8
Defpoints
 62
     0
100
AcDbPoint
 10
97.66858645480963
 20
6.604
 30
0.0
  0
ENDBLK
  5
1E5
330
1E3
100
AcDbEntity
  8
0
100
AcDbBlockEnd
  0
BLOCK
  5
1F3
330
1F2
100
AcDbEntity
  8
0
100
AcDbBlockBegin
  2
*D8
 70
     1
 10
0.0
 20
0.0
 30
0.0
  3
*D8
  1
*D9
  0
LINE
  5
1F5
330
1F2
100
AcDbEntity
  8
치수문자_일반주서
 62
     0
370
    -2
100
AcDbLine
 10
85.55000000000001
 20
11.03212499999995
 30
0.0
 11
85.55000000000001
 21
26.41710999933533
 31
0.0
  0
LINE
  5
1F6
330
1F2
100
AcDbEntity
  8
치수문자_일반주서
 62
     0
370
    -2
100
AcDbLine
 10
72.84999999999997
 20
10.9325984416173
 30
0.0
 11
72.84999999999997
 21
26.41710999933533
 31
0.0
  0
LINE
  5
1F7
330
1F2
100
AcDbEntity
  8
치수문자_일반주서
 62
     0
370
    -2
100
AcDbLine
 10
72.84999999999997
 20
26.41710999933533
 30
0.0
 11
44.37099999999997
 21
26.41710999933533
 31
0.0
  0
LINE
  5
1F8
330
1F2
100
AcDbEntity
  8
치수문자_일반주서
 62
     0
370
    -2
100
AcDbLine
 10
85.55000000000001
 20
26.41710999933533
 30
0.0
 11
72.84999999999997
 21
26.41710999933533
 31
0.0
  0
LINE
  5
1F9
330
1F2
100
AcDbEntity
  8
치수문자_일반주서
 62
     0
370
    -2
100
AcDbLine
 10
88.852
 20
26.41710999933533
 30
0.0
 11
92.154
 21
26.41710999933533
 31
0.0
  0
LINE
  5
1FA
330
1F2
100
AcDbEntity
  8
치수문자_일반주서
 62
     0
370
    -2
100
AcDbLine
 10
69.54799999999997
 20
26.41710999933533
 30
0.0
 11
66.24599999999998
 21
26.41710999933533
 31
0.0
  0
SOLID
  5
1FB
330
1F2
100
AcDbEntity
  8
치수문자_일반주서
 62
     0
100
AcDbTrace
 10
88.852
 20
26.96744333266866
 30
0.0
 11
88.852
 21
25.86677666600199
 31
0.0
 12
85.55000000000001
 22
26.41710999933533
 32
0.0
 13
85.55000000000001
 23
26.41710999933533
 33
0.0
  0
SOLID
  5
1FC
330
1F2
100
AcDbEntity
  8
치수문자_일반주서
 62
     0
100
AcDbTrace
 10
69.54799999999997
 20
25.86677666600199
 30
0.0
 11
69.54799999999997
 21
26.96744333266866
 31
0.0
 12
72.84999999999997
 22
26.41710999933533
 32
0.0
 13
72.84999999999997
 23
26.41710999933533
 33
0.0
  0
MTEXT
  5
1FD
330
1F2
100
AcDbEntity
  8
치수문자_일반주서
 62
     0
100
AcDbMText
 10
55.30849999999997
 20
30.79210999933533
 30
0.0
 40
3.5
 41
0.0
 71
     2
 72
     1
  1
\A1;12.7 [1/2]
  7
SLDTEXTSTYLE0
 73
     1
 44
1.0
  0
POINT
  5
1FE
330
1F2
100
AcDbEntity
  8
Defpoints
 62
     0
100
AcDbPoint
 10
85.55000000000001
 20
10.96962499999995
 30
0.0
  0
POINT
  5
1FF
330
1F2
100
AcDbEntity
  8
Defpoints
 62
     0
100
AcDbPoint
 10
72.84999999999997
 20
10.8700984416173
 30
0.0
  0
POINT
  5
200
330
1F2
100
AcDbEntity
  8
Defpoints
 62
     0
100
AcDbPoint
 10
72.84999999999997
 20
26.41710999933533
 30
0.0
  0
ENDBLK
  5
1F4
330
1F2
100
AcDbEntity
  8
0
100
AcDbBlockEnd
  0
BLOCK
  5
202
330
201
100
AcDbEntity
  8
0
100
AcDbBlockBegin
  2
*D9
 70
     1
 10
0.0
 20
0.0
 30
0.0
  3
*D9
  1
*D10
  0
LINE
  5
204
330
201
100
AcDbEntity
  8
치수문자_일반주서
 62
     0
370
    -2
100
AcDbLine
 10
85.55000000000001
 20
11.03212499999995
 30
0.0
 11
85.55000000000001
 21
35.48146566271764
 31
0.0
  0
LINE
  5
205
330
201
100
AcDbEntity
  8
치수문자_일반주서
 62
     0
370
    -2
100
AcDbLine
 10
3.000000000000007
 20
12.65931249999995
 30
0.0
 11
3.000000000000007
 21
35.48146566271764
 31
0.0
  0
LINE
  5
206
330
201
100
AcDbEntity
  8
치수문자_일반주서
 62
     0
370
    -2
100
AcDbLine
 10
82.24800000000002
 20
35.48146566271764
 30
0.0
 11
6.302000000000007
 21
35.48146566271764
 31
0.0
  0
SOLID
  5
207
330
201
100
AcDbEntity
  8
치수문자_일반주서
 62
     0
100
AcDbTrace
 10
82.24800000000002
 20
34.9311323293843
 30
0.0
 11
82.24800000000002
 21
36.03179899605097
 31
0.0
 12
85.55000000000001
 22
35.48146566271764
 32
0.0
 13
85.55000000000001
 23
35.48146566271764
 33
0.0
  0
SOLID
  5
208
330
201
100
AcDbEntity
  8
치수문자_일반주서
 62
     0
100
AcDbTrace
 10
6.302000000000007
 20
36.03179899605097
 30
0.0
 11
6.302000000000007
 21
34.9311323293843
 31
0.0
 12
3.000000000000007
 22
35.48146566271764
 32
0.0
 13
3.000000000000007
 23
35.48146566271764
 33
0.0
  0
MTEXT
  5
209
330
201
100
AcDbEntity
  8
치수문자_일반주서
 62
     0
100
AcDbMText
 10
42.84230422741938
 20
39.85646566271764
 30
0.0
 40
3.5
 41
0.0
 71
     2
 72
     1
  1
\A1;82.55 [3 1/4]
  7
SLDTEXTSTYLE0
 73
     1
 44
1.0
  0
POINT
  5
20A
330
201
100
AcDbEntity
  8
Defpoints
 62
     0
100
AcDbPoint
 10
85.55000000000001
 20
10.96962499999995
 30
0.0
  0
POINT
  5
20B
330
201
100
AcDbEntity
  8
Defpoints
 62
     0
100
AcDbPoint
 10
3.000000000000007
 20
12.59681249999995
 30
0.0
  0
POINT
  5
20C
330
201
100
AcDbEntity
  8
Defpoints
 62
     0
100
AcDbPoint
 10
3.000000000000007
 20
35.48146566271764
 30
0.0
  0
ENDBLK
  5
203
330
201
100
AcDbEntity
  8
0
100
AcDbBlockEnd
  0
BLOCK
  5
23F
330
23E
100
AcDbEntity
  8
0
100
AcDbBlockBegin
  2
*D10
 70
     1
 10
0.0
 20
0.0
 30
0.0
  3
*D10
  1
*D11
  0
LINE
  5
241
330
23E
100
AcDbEntity
  8
치수문자_일반주서
 62
     0
370
    -2
100
AcDbLine
 10
170.7054070910127
 20
-59.05878435218463
 30
0.0
 11
182.7614935458224
 21
-59.05878435218459
 31
0.0
  0
LINE
  5
242
330
23E
100
AcDbEntity
  8
치수문자_일반주서
 62
     0
370
    -2
100
AcDbLine
 10
170.7054070910127
 20
-63.42440935218463
 30
0.0
 11
182.7614935458224
 21
-63.42440935218458
 31
0.0
  0
LINE
  5
243
330
23E
100
AcDbEntity
  8
치수문자_일반주서
 62
     0
370
    -2
100
AcDbLine
 10
182.7614935458224
 20
-59.05878435218459
 30
0.0
 11
182.7614935458222
 21
-22.70478435218457
 31
0.0
  0
LINE
  5
244
330
23E
100
AcDbEntity
  8
치수문자_일반주서
 62
     0
370
    -2
100
AcDbLine
 10
182.7614935458224
 20
-59.05878435218459
 30
0.0
 11
182.7614935458224
 21
-63.42440935218458
 31
0.0
  0
LINE
  5
245
330
23E
100
AcDbEntity
  8
치수문자_일반주서
 62
     0
370
    -2
100
AcDbLine
 10
182.7614935458224
 20
-55.75678435218459
 30
0.0
 11
182.7614935458223
 21
-52.45478435218459
 31
0.0
  0
LINE
  5
246
330
23E
100
AcDbEntity
  8
치수문자_일반주서
 62
     0
370
    -2
100
AcDbLine
 10
182.7614935458224
 20
-66.72640935218459
 30
0.0
 11
182.7614935458225
 21
-70.02840935218458
 31
0.0
  0
SOLID
  5
247
330
23E
100
AcDbEntity
  8
치수문자_일반주서
 62
     0
100
AcDbTrace
 10
182.211160212489
 20
-55.7567843521846
 30
0.0
 11
183.3118268791557
 21
-55.75678435218458
 31
0.0
 12
182.7614935458224
 22
-59.05878435218459
 32
0.0
 13
182.7614935458224
 23
-59.05878435218459
 33
0.0
  0
SOLID
  5
248
330
23E
100
AcDbEntity
  8
치수문자_일반주서
 62
     0
100
AcDbTrace
 10
183.3118268791558
 20
-66.72640935218459
 30
0.0
 11
182.2111602124891
 21
-66.72640935218459
 31
0.0
 12
182.7614935458224
 22
-63.42440935218458
 32
0.0
 13
182.7614935458224
 23
-63.42440935218458
 33
0.0
  0
MTEXT
  5
249
330
23E
100
AcDbEntity
  8
치수문자_일반주서
 62
     0
100
AcDbMText
 10
178.3864935458222
 20
-37.5797843521846
 30
0.0
 40
3.5
 41
0.0
 71
     2
 72
     1
  1
\A1;%%c4.37 [11/64]
  7
SLDTEXTSTYLE0
 11
-6.510341458646596E-15
 21
1.0
 31
0.0
 73
     1
 44
1.0
  0
POINT
  5
24A
330
23E
100
AcDbEntity
  8
Defpoints
 62
     0
100
AcDbPoint
 10
170.6429070910127
 20
-59.05878435218463
 30
0.0
  0
POINT
  5
24B
330
23E
100
AcDbEntity
  8
Defpoints
 62
     0
100
AcDbPoint
 10
170.6429070910127
 20
-63.42440935218463
 30
0.0
  0
POINT
  5
24C
330
23E
100
AcDbEntity
  8
Defpoints
 62
     0
100
AcDbPoint
 10
182.7614935458223
 20
-63.42440935218458
 30
0.0
  0
ENDBLK
  5
240
330
23E
100
AcDbEntity
  8
0
100
AcDbBlockEnd
  0
BLOCK
  5
24E
330
24D
100
AcDbEntity
  8
0
100
AcDbBlockBegin
  2
*D11
 70
     1
 10
0.0
 20
0.0
 30
0.0
  3
*D11
  1
*D12
  0
LINE
  5
250
330
24D
100
AcDbEntity
  8
치수문자_일반주서
 62
     0
370
    -2
100
AcDbLine
 10
170.6429070910127
 20
-58.99628435218463
 30
0.0
 11
170.6429070910127
 21
-43.61129935284926
 31
0.0
  0
LINE
  5
251
330
24D
100
AcDbEntity
  8
치수문자_일반주서
 62
     0
370
    -2
100
AcDbLine
 10
157.9429070910127
 20
-59.09581091056728
 30
0.0
 11
157.9429070910127
 21
-43.61129935284926
 31
0.0
  0
LINE
  5
252
330
24D
100
AcDbEntity
  8
치수문자_일반주서
 62
     0
370
    -2
100
AcDbLine
 10
157.9429070910127
 20
-43.61129935284926
 30
0.0
 11
129.4639070910127
 21
-43.61129935284926
 31
0.0
  0
LINE
  5
253
330
24D
100
AcDbEntity
  8
치수문자_일반주서
 62
     0
370
    -2
100
AcDbLine
 10
170.6429070910127
 20
-43.61129935284926
 30
0.0
 11
157.9429070910127
 21
-43.61129935284926
 31
0.0
  0
LINE
  5
254
330
24D
100
AcDbEntity
  8
치수문자_일반주서
 62
     0
370
    -2
100
AcDbLine
 10
173.9449070910127
 20
-43.61129935284926
 30
0.0
 11
177.2469070910127
 21
-43.61129935284926
 31
0.0
  0
LINE
  5
255
330
24D
100
AcDbEntity
  8
치수문자_일반주서
 62
     0
370
    -2
100
AcDbLine
 10
154.6409070910127
 20
-43.61129935284926
 30
0.0
 11
151.3389070910127
 21
-43.61129935284926
 31
0.0
  0
SOLID
  5
256
330
24D
100
AcDbEntity
  8
치수문자_일반주서
 62
     0
100
AcDbTrace
 10
173.9449070910127
 20
-43.06096601951592
 30
0.0
 11
173.9449070910127
 21
-44.16163268618259
 31
0.0
 12
170.6429070910127
 22
-43.61129935284926
 32
0.0
 13
170.6429070910127
 23
-43.61129935284926
 33
0.0
  0
SOLID
  5
257
330
24D
100
AcDbEntity
  8
치수문자_일반주서
 62
     0
100
AcDbTrace
 10
154.6409070910127
 20
-44.16163268618259
 30
0.0
 11
154.6409070910127
 21
-43.06096601951592
 31
0.0
 12
157.9429070910127
 22
-43.61129935284926
 32
0.0
 13
157.9429070910127
 23
-43.61129935284926
 33
0.0
  0
MTEXT
  5
258
330
24D
100
AcDbEntity
  8
치수문자_일반주서
 62
     0
100
AcDbMText
 10
140.4014070910127
 20
-39.23629935284926
 30
0.0
 40
3.5
 41
0.0
 71
     2
 72
     1
  1
\A1;12.7 [1/2]
  7
SLDTEXTSTYLE0
 73
     1
 44
1.0
  0
POINT
  5
259
330
24D
100
AcDbEntity
  8
Defpoints
 62
     0
100
AcDbPoint
 10
170.6429070910127
 20
-59.05878435218463
 30
0.0
  0
POINT
  5
25A
330
24D
100
AcDbEntity
  8
Defpoints
 62
     0
100
AcDbPoint
 10
157.9429070910127
 20
-59.15831091056728
 30
0.0
  0
POINT
  5
25B
330
24D
100
AcDbEntity
  8
Defpoints
 62
     0
100
AcDbPoint
 10
157.9429070910127
 20
-43.61129935284926
 30
0.0
  0
ENDBLK
  5
24F
330
24D
100
AcDbEntity
  8
0
100
AcDbBlockEnd
  0
BLOCK
  5
25D
330
25C
100
AcDbEntity
  8
0
100
AcDbBlockBegin
  2
*D12
 70
     1
 10
0.0
 20
0.0
 30
0.0
  3
*D12
  1
*D13
  0
LINE
  5
25F
330
25C
100
AcDbEntity
  8
치수문자_일반주서
 62
     0
370
    -2
100
AcDbLine
 10
170.6429070910127
 20
-58.99628435218463
 30
0.0
 11
170.6429070910127
 21
-34.54694368946694
 31
0.0
  0
LINE
  5
260
330
25C
100
AcDbEntity
  8
치수문자_일반주서
 62
     0
370
    -2
100
AcDbLine
 10
88.0929070910127
 20
-57.36909685218463
 30
0.0
 11
88.0929070910127
 21
-34.54694368946694
 31
0.0
  0
LINE
  5
261
330
25C
100
AcDbEntity
  8
치수문자_일반주서
 62
     0
370
    -2
100
AcDbLine
 10
167.3409070910127
 20
-34.54694368946694
 30
0.0
 11
91.3949070910127
 21
-34.54694368946694
 31
0.0
  0
SOLID
  5
262
330
25C
100
AcDbEntity
  8
치수문자_일반주서
 62
     0
100
AcDbTrace
 10
167.3409070910127
 20
-35.09727702280028
 30
0.0
 11
167.3409070910127
 21
-33.99661035613361
 31
0.0
 12
170.6429070910127
 22
-34.54694368946694
 32
0.0
 13
170.6429070910127
 23
-34.54694368946694
 33
0.0
  0
SOLID
  5
263
330
25C
100
AcDbEntity
  8
치수문자_일반주서
 62
     0
100
AcDbTrace
 10
91.3949070910127
 20
-33.99661035613361
 30
0.0
 11
91.3949070910127
 21
-35.09727702280028
 31
0.0
 12
88.0929070910127
 22
-34.54694368946694
 32
0.0
 13
88.0929070910127
 23
-34.54694368946694
 33
0.0
  0
MTEXT
  5
264
330
25C
100
AcDbEntity
  8
치수문자_일반주서
 62
     0
100
AcDbMText
 10
127.9352113184321
 20
-30.17194368946694
 30
0.0
 40
3.5
 41
0.0
 71
     2
 72
     1
  1
\A1;82.55 [3 1/4]
  7
SLDTEXTSTYLE0
 73
     1
 44
1.0
  0
POINT
  5
265
330
25C
100
AcDbEntity
  8
Defpoints
 62
     0
100
AcDbPoint
 10
170.6429070910127
 20
-59.05878435218463
 30
0.0
  0
POINT
  5
266
330
25C
100
AcDbEntity
  8
Defpoints
 62
     0
100
AcDbPoint
 10
88.0929070910127
 20
-57.43159685218463
 30
0.0
  0
POINT
  5
267
330
25C
100
AcDbEntity
  8
Defpoints
 62
     0
100
AcDbPoint
 10
88.0929070910127
 20
-34.54694368946694
 30
0.0
  0
ENDBLK
  5
25E
330
25C
100
AcDbEntity
  8
0
100
AcDbBlockEnd
  0
BLOCK
  5
2FC
330
2FB
100
AcDbEntity
  8
0
100
AcDbBlockBegin
  2
*D13
 70
     1
 10
0.0
 20
0.0
 30
0.0
  3
*D13
  1
*D15
  0
LINE
  5
2FE
330
2FB
100
AcDbEntity
  8
치수문자_일반주서
 62
     0
370
    -2
100
AcDbLine
 10
85.6125
 20
11.36649999999994
 30
0.0
 11
100.7293553097448
 21
11.3665
 31
0.0
  0
LINE
  5
2FF
330
2FB
100
AcDbEntity
  8
치수문자_일반주서
 62
     0
370
    -2
100
AcDbLine
 10
85.6125
 20
6.603999999999941
 30
0.0
 11
100.7293553097448
 21
6.603999999999999
 31
0.0
  0
LINE
  5
300
330
2FB
100
AcDbEntity
  8
치수문자_일반주서
 62
     0
370
    -2
100
AcDbLine
 10
100.7293553097448
 20
11.3665
 30
0.0
 11
100.7293553097447
 21
47.72055345637148
 31
0.0
  0
LINE
  5
301
330
2FB
100
AcDbEntity
  8
치수문자_일반주서
 62
     0
370
    -2
100
AcDbLine
 10
100.7293553097448
 20
11.3665
 30
0.0
 11
100.7293553097448
 21
6.603999999999999
 31
0.0
  0
LINE
  5
302
330
2FB
100
AcDbEntity
  8
치수문자_일반주서
 62
     0
370
    -2
100
AcDbLine
 10
100.7293553097448
 20
14.6685
 30
0.0
 11
100.7293553097448
 21
17.9705
 31
0.0
  0
LINE
  5
303
330
2FB
100
AcDbEntity
  8
치수문자_일반주서
 62
     0
370
    -2
100
AcDbLine
 10
100.7293553097449
 20
3.302
 30
0.0
 11
100.7293553097449
 21
0.0
 31
0.0
  0
SOLID
  5
304
330
2FB
100
AcDbEntity
  8
치수문자_일반주서
 62
     0
100
AcDbTrace
 10
100.1790219764115
 20
14.6685
 30
0.0
 11
101.2796886430781
 21
14.6685
 31
0.0
 12
100.7293553097448
 22
11.3665
 32
0.0
 13
100.7293553097448
 23
11.3665
 33
0.0
  0
SOLID
  5
305
330
2FB
100
AcDbEntity
  8
치수문자_일반주서
 62
     0
100
AcDbTrace
 10
101.2796886430782
 20
3.302000000000001
 30
0.0
 11
100.1790219764115
 21
3.301999999999998
 31
0.0
 12
100.7293553097448
 22
6.603999999999999
 32
0.0
 13
100.7293553097448
 23
6.603999999999999
 33
0.0
  0
MTEXT
  5
306
330
2FB
100
AcDbEntity
  8
치수문자_일반주서
 62
     0
100
AcDbMText
 10
96.35435530974476
 20
33.72055345637146
 30
0.0
 40
3.5
 41
0.0
 71
     2
 72
     1
  1
\A1;%%c4.76 [3/16]
  7
SLDTEXTSTYLE0
 11
-2.983906501879686E-15
 21
1.0
 31
0.0
 73
     1
 44
1.0
  0
POINT
  5
307
330
2FB
100
AcDbEntity
  8
Defpoints
 62
     0
100
AcDbPoint
 10
85.55
 20
11.36649999999994
 30
0.0
  0
POINT
  5
308
330
2FB
100
AcDbEntity
  8
Defpoints
 62
     0
100
AcDbPoint
 10
85.55
 20
6.603999999999941
 30
0.0
  0
POINT
  5
309
330
2FB
100
AcDbEntity
  8
Defpoints
 62
     0
100
AcDbPoint
 10
100.7293553097448
 20
6.603999999999998
 30
0.0
  0
ENDBLK
  5
2FD
330
2FB
100
AcDbEntity
  8
0
100
AcDbBlockEnd
  0
BLOCK
  5
30B
330
30A
100
AcDbEntity
  8
0
100
AcDbBlockBegin
  2
*D14
 70
     1
 10
0.0
 20
0.0
 30
0.0
  3
*D14
  1
*D16
  0
LINE
  5
30D
330
30A
100
AcDbEntity
  8
치수문자_일반주서
 62
     0
370
    -2
100
AcDbLine
 10
85.55000000000001
 20
11.42899999999994
 30
0.0
 11
85.55000000000001
 21
26.1748195970709
 31
0.0
  0
LINE
  5
30E
330
30A
100
AcDbEntity
  8
치수문자_일반주서
 62
     0
370
    -2
100
AcDbLine
 10
72.85
 20
11.42835872644344
 30
0.0
 11
72.85
 21
26.1748195970709
 31
0.0
  0
LINE
  5
30F
330
30A
100
AcDbEntity
  8
치수문자_일반주서
 62
     0
370
    -2
100
AcDbLine
 10
72.85
 20
26.1748195970709
 30
0.0
 11
44.371
 21
26.1748195970709
 31
0.0
  0
LINE
  5
310
330
30A
100
AcDbEntity
  8
치수문자_일반주서
 62
     0
370
    -2
100
AcDbLine
 10
85.55000000000001
 20
26.1748195970709
 30
0.0
 11
72.85
 21
26.1748195970709
 31
0.0
  0
LINE
  5
311
330
30A
100
AcDbEntity
  8
치수문자_일반주서
 62
     0
370
    -2
100
AcDbLine
 10
88.852
 20
26.1748195970709
 30
0.0
 11
92.154
 21
26.1748195970709
 31
0.0
  0
LINE
  5
312
330
30A
100
AcDbEntity
  8
치수문자_일반주서
 62
     0
370
    -2
100
AcDbLine
 10
69.548
 20
26.1748195970709
 30
0.0
 11
66.24600000000001
 21
26.1748195970709
 31
0.0
  0
SOLID
  5
313
330
30A
100
AcDbEntity
  8
치수문자_일반주서
 62
     0
100
AcDbTrace
 10
88.852
 20
26.72515293040424
 30
0.0
 11
88.852
 21
25.62448626373757
 31
0.0
 12
85.55000000000001
 22
26.1748195970709
 32
0.0
 13
85.55000000000001
 23
26.1748195970709
 33
0.0
  0
SOLID
  5
314
330
30A
100
AcDbEntity
  8
치수문자_일반주서
 62
     0
100
AcDbTrace
 10
69.548
 20
25.62448626373757
 30
0.0
 11
69.548
 21
26.72515293040424
 31
0.0
 12
72.85
 22
26.1748195970709
 32
0.0
 13
72.85
 23
26.1748195970709
 33
0.0
  0
MTEXT
  5
315
330
30A
100
AcDbEntity
  8
치수문자_일반주서
 62
     0
100
AcDbMText
 10
55.3085
 20
30.5498195970709
 30
0.0
 40
3.5
 41
0.0
 71
     2
 72
     1
  1
\A1;12.7 [1/2]
  7
SLDTEXTSTYLE0
 73
     1
 44
1.0
  0
POINT
  5
316
330
30A
100
AcDbEntity
  8
Defpoints
 62
     0
100
AcDbPoint
 10
85.55000000000001
 20
11.36649999999994
 30
0.0
  0
POINT
  5
317
330
30A
100
AcDbEntity
  8
Defpoints
 62
     0
100
AcDbPoint
 10
72.85
 20
11.36585872644344
 30
0.0
  0
POINT
  5
318
330
30A
100
AcDbEntity
  8
Defpoints
 62
     0
100
AcDbPoint
 10
72.85
 20
26.1748195970709
 30
0.0
  0
ENDBLK
  5
30C
330
30A
100
AcDbEntity
  8
0
100
AcDbBlockEnd
  0
BLOCK
  5
31A
330
319
100
AcDbEntity
  8
0
100
AcDbBlockBegin
  2
*D15
 70
     1
 10
0.0
 20
0.0
 30
0.0
  3
*D15
  1
*D17
  0
LINE
  5
31C
330
319
100
AcDbEntity
  8
치수문자_일반주서
 62
     0
370
    -2
100
AcDbLine
 10
85.55000000000001
 20
11.42899999999994
 30
0.0
 11
85.55000000000001
 21
35.46625320036925
 31
0.0
  0
LINE
  5
31D
330
319
100
AcDbEntity
  8
치수문자_일반주서
 62
     0
370
    -2
100
AcDbLine
 10
3.000000000000007
 20
12.85774999999994
 30
0.0
 11
3.000000000000007
 21
35.46625320036925
 31
0.0
  0
LINE
  5
31E
330
319
100
AcDbEntity
  8
치수문자_일반주서
 62
     0
370
    -2
100
AcDbLine
 10
82.24800000000002
 20
35.46625320036925
 30
0.0
 11
6.302000000000007
 21
35.46625320036925
 31
0.0
  0
SOLID
  5
31F
330
319
100
AcDbEntity
  8
치수문자_일반주서
 62
     0
100
AcDbTrace
 10
82.24800000000002
 20
34.91591986703592
 30
0.0
 11
82.24800000000002
 21
36.01658653370259
 31
0.0
 12
85.55000000000001
 22
35.46625320036925
 32
0.0
 13
85.55000000000001
 23
35.46625320036925
 33
0.0
  0
SOLID
  5
320
330
319
100
AcDbEntity
  8
치수문자_일반주서
 62
     0
100
AcDbTrace
 10
6.302000000000007
 20
36.01658653370259
 30
0.0
 11
6.302000000000007
 21
34.91591986703592
 31
0.0
 12
3.000000000000007
 22
35.46625320036925
 32
0.0
 13
3.000000000000007
 23
35.46625320036925
 33
0.0
  0
MTEXT
  5
321
330
319
100
AcDbEntity
  8
치수문자_일반주서
 62
     0
100
AcDbMText
 10
44.04498495130413
 20
39.84125320036925
 30
0.0
 40
3.5
 41
0.0
 71
     2
 72
     1
  1
\A1;82.55 [3 1/4]
  7
SLDTEXTSTYLE0
 73
     1
 44
1.0
  0
POINT
  5
322
330
319
100
AcDbEntity
  8
Defpoints
 62
     0
100
AcDbPoint
 10
85.55000000000001
 20
11.36649999999994
 30
0.0
  0
POINT
  5
323
330
319
100
AcDbEntity
  8
Defpoints
 62
     0
100
AcDbPoint
 10
3.000000000000007
 20
12.79524999999994
 30
0.0
  0
POINT
  5
324
330
319
100
AcDbEntity
  8
Defpoints
 62
     0
100
AcDbPoint
 10
3.000000000000007
 20
35.46625320036925
 30
0.0
  0
ENDBLK
  5
31B
330
319
100
AcDbEntity
  8
0
100
AcDbBlockEnd
  0
BLOCK
  5
357
330
356
100
AcDbEntity
  8
0
100
AcDbBlockBegin
  2
*D16
 70
     1
 10
0.0
 20
0.0
 30
0.0
  3
*D16
  1
*D18
  0
LINE
  5
359
330
356
100
AcDbEntity
  8
치수문자_일반주서
 62
     0
370
    -2
100
AcDbLine
 10
174.6821237322537
 20
-34.72803677492907
 30
0.0
 11
189.7989790419986
 21
-34.72803677492901
 31
0.0
  0
LINE
  5
35A
330
356
100
AcDbEntity
  8
치수문자_일반주서
 62
     0
370
    -2
100
AcDbLine
 10
174.6821237322537
 20
-39.49053677492907
 30
0.0
 11
189.7989790419986
 21
-39.49053677492901
 31
0.0
  0
LINE
  5
35B
330
356
100
AcDbEntity
  8
치수문자_일반주서
 62
     0
370
    -2
100
AcDbLine
 10
189.7989790419986
 20
-34.72803677492901
 30
0.0
 11
189.7989790419984
 21
1.626016681442465
 31
0.0
  0
LINE
  5
35C
330
356
100
AcDbEntity
  8
치수문자_일반주서
 62
     0
370
    -2
100
AcDbLine
 10
189.7989790419986
 20
-34.72803677492901
 30
0.0
 11
189.7989790419986
 21
-39.49053677492901
 31
0.0
  0
LINE
  5
35D
330
356
100
AcDbEntity
  8
치수문자_일반주서
 62
     0
370
    -2
100
AcDbLine
 10
189.7989790419986
 20
-31.42603677492901
 30
0.0
 11
189.7989790419985
 21
-28.12403677492901
 31
0.0
  0
LINE
  5
35E
330
356
100
AcDbEntity
  8
치수문자_일반주서
 62
     0
370
    -2
100
AcDbLine
 10
189.7989790419986
 20
-42.79253677492901
 30
0.0
 11
189.7989790419987
 21
-46.09453677492901
 31
0.0
  0
SOLID
  5
35F
330
356
100
AcDbEntity
  8
치수문자_일반주서
 62
     0
100
AcDbTrace
 10
189.2486457086652
 20
-31.42603677492901
 30
0.0
 11
190.3493123753319
 21
-31.42603677492901
 31
0.0
 12
189.7989790419986
 22
-34.72803677492901
 32
0.0
 13
189.7989790419986
 23
-34.72803677492901
 33
0.0
  0
SOLID
  5
360
330
356
100
AcDbEntity
  8
치수문자_일반주서
 62
     0
100
AcDbTrace
 10
190.349312375332
 20
-42.79253677492901
 30
0.0
 11
189.2486457086653
 21
-42.79253677492901
 31
0.0
 12
189.7989790419986
 22
-39.49053677492901
 32
0.0
 13
189.7989790419986
 23
-39.49053677492901
 33
0.0
  0
MTEXT
  5
361
330
356
100
AcDbEntity
  8
치수문자_일반주서
 62
     0
100
AcDbMText
 10
185.4239790419985
 20
-12.37398331855756
 30
0.0
 40
3.5
 41
0.0
 71
     2
 72
     1
  1
\A1;%%c4.76 [3/16]
  7
SLDTEXTSTYLE0
 11
-5.967813003759368E-15
 21
1.0
 31
0.0
 73
     1
 44
1.0
  0
POINT
  5
362
330
356
100
AcDbEntity
  8
Defpoints
 62
     0
100
AcDbPoint
 10
174.6196237322537
 20
-34.72803677492907
 30
0.0
  0
POINT
  5
363
330
356
100
AcDbEntity
  8
Defpoints
 62
     0
100
AcDbPoint
 10
174.6196237322537
 20
-39.49053677492907
 30
0.0
  0
POINT
  5
364
330
356
100
AcDbEntity
  8
Defpoints
 62
     0
100
AcDbPoint
 10
189.7989790419986
 20
-39.49053677492901
 30
0.0
  0
ENDBLK
  5
358
330
356
100
AcDbEntity
  8
0
100
AcDbBlockEnd
  0
BLOCK
  5
366
330
365
100
AcDbEntity
  8
0
100
AcDbBlockBegin
  2
*D17
 70
     1
 10
0.0
 20
0.0
 30
0.0
  3
*D17
  1
*D19
  0
LINE
  5
368
330
365
100
AcDbEntity
  8
치수문자_일반주서
 62
     0
370
    -2
100
AcDbLine
 10
174.6196237322537
 20
-34.66553677492907
 30
0.0
 11
174.6196237322537
 21
-19.91971717785811
 31
0.0
  0
LINE
  5
369
330
365
100
AcDbEntity
  8
치수문자_일반주서
 62
     0
370
    -2
100
AcDbLine
 10
161.9196237322537
 20
-34.66617804848557
 30
0.0
 11
161.9196237322537
 21
-19.91971717785811
 31
0.0
  0
LINE
  5
36A
330
365
100
AcDbEntity
  8
치수문자_일반주서
 62
     0
370
    -2
100
AcDbLine
 10
161.9196237322537
 20
-19.91971717785811
 30
0.0
 11
133.4406237322537
 21
-19.91971717785811
 31
0.0
  0
LINE
  5
36B
330
365
100
AcDbEntity
  8
치수문자_일반주서
 62
     0
370
    -2
100
AcDbLine
 10
174.6196237322537
 20
-19.91971717785811
 30
0.0
 11
161.9196237322537
 21
-19.91971717785811
 31
0.0
  0
LINE
  5
36C
330
365
100
AcDbEntity
  8
치수문자_일반주서
 62
     0
370
    -2
100
AcDbLine
 10
177.9216237322537
 20
-19.91971717785811
 30
0.0
 11
181.2236237322537
 21
-19.91971717785811
 31
0.0
  0
LINE
  5
36D
330
365
100
AcDbEntity
  8
치수문자_일반주서
 62
     0
370
    -2
100
AcDbLine
 10
158.6176237322537
 20
-19.91971717785811
 30
0.0
 11
155.3156237322537
 21
-19.91971717785811
 31
0.0
  0
SOLID
  5
36E
330
365
100
AcDbEntity
  8
치수문자_일반주서
 62
     0
100
AcDbTrace
 10
177.9216237322537
 20
-19.36938384452478
 30
0.0
 11
177.9216237322537
 21
-20.47005051119145
 31
0.0
 12
174.6196237322537
 22
-19.91971717785811
 32
0.0
 13
174.6196237322537
 23
-19.91971717785811
 33
0.0
  0
SOLID
  5
36F
330
365
100
AcDbEntity
  8
치수문자_일반주서
 62
     0
100
AcDbTrace
 10
158.6176237322537
 20
-20.47005051119145
 30
0.0
 11
158.6176237322537
 21
-19.36938384452478
 31
0.0
 12
161.9196237322537
 22
-19.91971717785811
 32
0.0
 13
161.9196237322537
 23
-19.91971717785811
 33
0.0
  0
MTEXT
  5
370
330
365
100
AcDbEntity
  8
치수문자_일반주서
 62
     0
100
AcDbMText
 10
144.3781237322537
 20
-15.54471717785811
 30
0.0
 40
3.5
 41
0.0
 71
     2
 72
     1
  1
\A1;12.7 [1/2]
  7
SLDTEXTSTYLE0
 73
     1
 44
1.0
  0
POINT
  5
371
330
365
100
AcDbEntity
  8
Defpoints
 62
     0
100
AcDbPoint
 10
174.6196237322537
 20
-34.72803677492907
 30
0.0
  0
POINT
  5
372
330
365
100
AcDbEntity
  8
Defpoints
 62
     0
100
AcDbPoint
 10
161.9196237322537
 20
-34.72867804848557
 30
0.0
  0
POINT
  5
373
330
365
100
AcDbEntity
  8
Defpoints
 62
     0
100
AcDbPoint
 10
161.9196237322537
 20
-19.91971717785811
 30
0.0
  0
ENDBLK
  5
367
330
365
100
AcDbEntity
  8
0
100
AcDbBlockEnd
  0
BLOCK
  5
375
330
374
100
AcDbEntity
  8
0
100
AcDbBlockBegin
  2
*D18
 70
     1
 10
0.0
 20
0.0
 30
0.0
  3
*D18
  1
*D20
  0
LINE
  5
377
330
374
100
AcDbEntity
  8
치수문자_일반주서
 62
     0
370
    -2
100
AcDbLine
 10
174.6196237322537
 20
-34.66553677492907
 30
0.0
 11
174.6196237322537
 21
-10.62828357455976
 31
0.0
  0
LINE
  5
378
330
374
100
AcDbEntity
  8
치수문자_일반주서
 62
     0
370
    -2
100
AcDbLine
 10
92.06962373225372
 20
-33.23678677492907
 30
0.0
 11
92.06962373225372
 21
-10.62828357455976
 31
0.0
  0
LINE
  5
379
330
374
100
AcDbEntity
  8
치수문자_일반주서
 62
     0
370
    -2
100
AcDbLine
 10
171.3176237322537
 20
-10.62828357455976
 30
0.0
 11
95.37162373225371
 21
-10.62828357455976
 31
0.0
  0
SOLID
  5
37A
330
374
100
AcDbEntity
  8
치수문자_일반주서
 62
     0
100
AcDbTrace
 10
171.3176237322537
 20
-11.17861690789309
 30
0.0
 11
171.3176237322537
 21
-10.07795024122643
 31
0.0
 12
174.6196237322537
 22
-10.62828357455976
 32
0.0
 13
174.6196237322537
 23
-10.62828357455976
 33
0.0
  0
SOLID
  5
37B
330
374
100
AcDbEntity
  8
치수문자_일반주서
 62
     0
100
AcDbTrace
 10
95.37162373225371
 20
-10.07795024122643
 30
0.0
 11
95.37162373225371
 21
-11.17861690789309
 31
0.0
 12
92.06962373225372
 22
-10.62828357455976
 32
0.0
 13
92.06962373225372
 23
-10.62828357455976
 33
0.0
  0
MTEXT
  5
37C
330
374
100
AcDbEntity
  8
치수문자_일반주서
 62
     0
100
AcDbMText
 10
133.1146086835578
 20
-6.253283574559759
 30
0.0
 40
3.5
 41
0.0
 71
     2
 72
     1
  1
\A1;82.55 [3 1/4]
  7
SLDTEXTSTYLE0
 73
     1
 44
1.0
  0
POINT
  5
37D
330
374
100
AcDbEntity
  8
Defpoints
 62
     0
100
AcDbPoint
 10
174.6196237322537
 20
-34.72803677492907
 30
0.0
  0
POINT
  5
37E
330
374
100
AcDbEntity
  8
Defpoints
 62
     0
100
AcDbPoint
 10
92.06962373225372
 20
-33.29928677492907
 30
0.0
  0
POINT
  5
37F
330
374
100
AcDbEntity
  8
Defpoints
 62
     0
100
AcDbPoint
 10
92.06962373225372
 20
-10.62828357455976
 30
0.0
  0
ENDBLK
  5
376
330
374
100
AcDbEntity
  8
0
100
AcDbBlockEnd
  0
ENDSEC
  0
SECTION
  2
ENTITIES
  0
LINE
  5
96
330
1F
100
AcDbEntity
  8
0
  6
Continuous
 62
     1
370
    15
100
AcDbLine
 10
40.42305554406838
 20
0.6862209659708034
 30
0.0
 11
40.38723169954398
 21
0.7056384168973432
 31
0.0
  0
LINE
  5
97
330
1F
100
AcDbEntity
  8
0
  6
Continuous
 62
     1
370
    15
100
AcDbLine
 10
35.1511469122318
 20
-2.381250000000002
 30
0.0
 11
36.60194947139807
 21
-2.381250000000002
 31
0.0
  0
LINE
  5
98
330
1F
100
AcDbEntity
  8
0
  6
Continuous
 62
     1
370
    15
100
AcDbLine
 10
30.1219611395236
 20
2.381249999999999
 30
0.0
 11
28.67027941712829
 21
2.381249999999999
 31
0.0
  0
LINE
  5
99
330
1F
100
AcDbEntity
  8
0
  6
Continuous
 62
     1
370
    15
100
AcDbLine
 10
36.60194947139807
 20
2.381249999999999
 30
0.0
 11
35.15114691223182
 21
2.381249999999999
 31
0.0
  0
LINE
  5
9A
330
1F
100
AcDbEntity
  8
0
  6
Continuous
 62
     1
370
    15
100
AcDbLine
 10
28.67027941712829
 20
-2.381250000000002
 30
0.0
 11
30.12196113952355
 21
-2.381250000000002
 31
0.0
  0
LINE
  5
9B
330
1F
100
AcDbEntity
  8
외형선
  6
Continuous
370
    15
100
AcDbLine
 10
18.6880540144766
 20
-4.762500000000009
 30
0.0
 11
27.575
 21
-2.381250000000001
 31
0.0
  0
LINE
  5
9C
330
1F
100
AcDbEntity
  8
외형선
  6
Continuous
370
    15
100
AcDbLine
 10
27.575
 20
2.381249999999998
 30
0.0
 11
18.6880540144766
 21
4.762500000000007
 31
0.0
  0
LINE
  5
9D
330
1F
100
AcDbEntity
  8
외형선
  6
Continuous
370
    15
100
AcDbLine
 10
-18.68805401447653
 20
-4.762500000000005
 30
0.0
 11
18.6880540144766
 21
-4.762500000000005
 31
0.0
  0
LINE
  5
9E
330
1F
100
AcDbEntity
  8
외형선
  6
Continuous
370
    15
100
AcDbLine
 10
18.6880540144766
 20
4.762500000000003
 30
0.0
 11
4.838700000000017
 21
4.762500000000003
 31
0.0
  0
LINE
  5
A1
330
1F
100
AcDbEntity
  8
외형선
  6
Continuous
370
    15
100
AcDbLine
 10
27.575
 20
-2.381250000000001
 30
0.0
 11
28.07515599537184
 21
-2.381250000000001
 31
0.0
  0
LINE
  5
A2
330
1F
100
AcDbEntity
  8
외형선
  6
Continuous
370
    15
100
AcDbLine
 10
28.07515599537184
 20
2.381249999999998
 30
0.0
 11
27.575
 21
2.381249999999998
 31
0.0
  0
SPLINE
  5
A3
330
1F
100
AcDbEntity
  8
0
  6
Continuous
 62
     1
370
    15
100
AcDbSpline
210
0.0
220
0.0
230
1.0
 70
     8
 71
     3
 72
    17
 73
    13
 74
     0
 42
0.000000001
 43
0.00000001
 40
0.0
 40
0.0
 40
0.0
 40
0.0
 40
0.1123180852727044
 40
0.2246362904610973
 40
0.3369546128874736
 40
0.4492730498723704
 40
0.5615915987346171
 40
0.6739102567913553
 40
0.7798169563513254
 40
0.8857325129891509
 40
0.9916584463032606
 40
1.0
 40
1.0
 40
1.0
 40
1.0
 10
28.57500000000016
 20
0.8727050194495242
 30
0.0
 10
28.97007601762607
 20
0.6535039006705494
 30
0.0
 10
29.7602284746783
 20
0.2151014290839215
 30
0.0
 10
30.94545839357077
 20
-0.4793155656595909
 30
0.0
 10
32.13068862601099
 20
-1.129306085809205
 30
0.0
 10
33.31592463440798
 20
-1.687974159505369
 30
0.0
 10
34.50114592751625
 20
-2.108144342305142
 30
0.0
 10
35.66387359987633
 20
-2.349689265069779
 30
0.0
 10
36.80386823237932
 20
-2.410075071246067
 30
0.0
 10
37.92145896556143
 20
-2.279078565231068
 30
0.0
 10
38.69588803712909
 20
-2.110294074403079
 30
0.0
 10
39.0978042390294
 20
-1.955010492667457
 30
0.0
 10
39.1271442172458
 20
-1.943674754312182
 30
0.0
  0
SPLINE
  5
A4
330
1F
100
AcDbEntity
  8
외형선
  6
Continuous
370
    15
100
AcDbSpline
210
0.0
220
0.0
230
1.0
 70
    24
 71
     3
 72
    14
 73
    10
 74
     0
 42
0.000000001
 43
0.00000001
 40
0.0
 40
0.0
 40
0.0
 40
0.0
 40
0.1538720055253802
 40
0.3125092493895891
 40
0.4616605068137948
 40
0.615137160807525
 40
0.7642884182317352
 40
0.9177650722254713
 40
1.0
 40
1.0
 40
1.0
 40
1.0
 10
28.575
 20
2.380608726443506
 30
0.0
 10
28.575
 20
2.301002444740145
 30
0.0
 10
28.57500000000004
 20
2.139324566708522
 30
0.0
 10
28.57500000000001
 20
1.892563282321744
 30
0.0
 10
28.57500000000009
 20
1.649866375031052
 30
0.0
 10
28.57499999999992
 20
1.420879905489937
 30
0.0
 10
28.57499999999997
 20
1.207335339205078
 30
0.0
 10
28.57500000000005
 20
1.041223237552566
 30
0.0
 10
28.57500000000002
 20
0.9586119434747772
 30
0.0
 10
28.57500000000001
 20
0.9297905603637585
 30
0.0
  0
SPLINE
  5
A5
330
1F
100
AcDbEntity
  8
0
  6
Continuous
 62
     1
370
    15
100
AcDbSpline
210
0.0
220
0.0
230
1.0
 70
     8
 71
     3
 72
    38
 73
    34
 74
     0
 42
0.000000001
 43
0.00000001
 40
0.0
 40
0.0
 40
0.0
 40
0.0
 40
0.0625
 40
0.0625
 40
0.125
 40
0.125
 40
0.1875
 40
0.1875
 40
0.25
 40
0.25
 40
0.3125
 40
0.3125
 40
0.375
 40
0.375
 40
0.4375
 40
0.4375
 40
0.5
 40
0.5
 40
0.5625
 40
0.5625
 40
0.625
 40
0.625
 40
0.6875
 40
0.6875
 40
0.75
 40
0.75
 40
0.8125
 40
0.8125
 40
0.875
 40
0.875
 40
0.9375
 40
0.9375
 40
1.0
 40
1.0
 40
1.0
 40
1.0
 10
41.27499999999999
 20
-2.381249999999995
 30
0.0
 10
41.01313358972774
 20
-2.359450348136649
 30
0.0
 10
40.74582228306495
 20
-2.331639405464542
 30
0.0
 10
40.21498211086425
 20
-2.247626615987004
 30
0.0
 10
39.95401085020391
 20
-2.191756245341288
 30
0.0
 10
39.42294367126083
 20
-2.053076429750575
 30
0.0
 10
39.15640882280772
 20
-1.970425147019873
 30
0.0
 10
38.63200477337047
 20
-1.782945999548971
 30
0.0
 10
38.36458493749247
 20
-1.676968930940877
 30
0.0
 10
37.8340013635425
 20
-1.44612502355043
 30
0.0
 10
37.57297890637699
 20
-1.321707927491068
 30
0.0
 10
37.04171435447883
 20
-1.056685477513572
 30
0.0
 10
36.77590579770465
 20
-0.9167514140515337
 30
0.0
 10
36.25085892138285
 20
-0.6285338735226259
 30
0.0
 10
35.98334572161743
 20
-0.4787317950362641
 30
0.0
 10
35.45304828966288
 20
-0.1759201359211583
 30
0.0
 10
35.19192344899984
 20
-0.023263465892171
 30
0.0
 10
34.66049119471148
 20
0.2822154857890142
 30
0.0
 10
34.39535862906206
 20
0.4340283661601602
 30
0.0
 10
33.86969744586999
 20
0.7296111868284741
 30
0.0
 10
33.60210606536788
 20
0.8746781825232577
 30
0.0
 10
33.0721242659239
 20
1.151295678182996
 30
0.0
 10
32.8108458737924
 20
1.282725777599424
 30
0.0
 10
32.27927561894113
 20
1.529640235902102
 30
0.0
 10
32.01476861900372
 20
1.644159854914151
 30
0.0
 10
31.48852176189192
 20
1.851272722419293
 30
0.0
 10
31.22086739873427
 20
1.94457028390073
 30
0.0
 10
30.69123066364121
 20
2.105360947083796
 30
0.0
 10
30.4297475805937
 20
2.172956464834059
 30
0.0
 10
29.89806905274092
 20
2.281255085164662
 30
0.0
 10
29.63413707745771
 20
2.321456652332232
 30
0.0
 10
29.10733328719972
 20
2.372881067381099
 30
0.0
 10
28.83963115149981
 20
2.384153652707569
 30
0.0
 10
28.57500000000019
 20
2.38060872644335
 30
0.0
  0
SPLINE
  5
A6
330
1F
100
AcDbEntity
  8
0
  6
Continuous
 62
     1
370
    15
100
AcDbSpline
210
0.0
220
0.0
230
1.0
 70
     8
 71
     3
 72
    11
 73
     7
 74
     0
 42
0.000000001
 43
0.00000001
 40
0.0
 40
0.0
 40
0.0
 40
0.0
 40
0.2921670284938769
 40
0.5843343689180184
 40
0.8765020143070615
 40
1.0
 40
1.0
 40
1.0
 40
1.0
 10
28.57500000000016
 20
-2.215567085765537
 30
0.0
 10
28.97007603288281
 20
-2.281930390498603
 30
0.0
 10
29.76022852044848
 20
-2.414657070817094
 30
0.0
 10
30.94545821048965
 20
-2.358185092078523
 30
0.0
 10
31.90260920788884
 20
-2.195493192429457
 30
0.0
 10
32.46468373155037
 20
-1.994365068704028
 30
0.0
 10
32.63168111187459
 20
-1.934608099907654
 30
0.0
  0
SPLINE
  5
A7
330
1F
100
AcDbEntity
  8
외형선
  6
Continuous
370
    15
100
AcDbSpline
210
0.0
220
0.0
230
1.0
 70
    24
 71
     3
 72
    21
 73
    17
 74
     0
 42
0.000000001
 43
0.00000001
 40
0.0
 40
0.0
 40
0.0
 40
0.0
 40
0.0040635485256484
 40
0.0798931784394835
 40
0.1579218727578831
 40
0.2337515026717204
 40
0.311780196990123
 40
0.387609826904026
 40
0.4656385212223672
 40
0.541468151136163
 40
0.6194968454545202
 40
0.6953264753684001
 40
0.7733551696868488
 40
0.8491847996005015
 40
0.9272134939190882
 40
1.0
 40
1.0
 40
1.0
 40
1.0
 10
28.57500000000002
 20
0.1080173190140025
 30
0.0
 10
28.57500000000002
 20
0.1081253054976232
 30
0.0
 10
28.57500000000022
 20
0.1102484211317808
 30
0.0
 10
28.57500000000001
 20
0.0758477519630684
 30
0.0
 10
28.57499999999997
 20
0.004245478956099
 30
0.0
 10
28.57499999999994
 20
-0.1105701909409748
 30
0.0
 10
28.57500000000008
 20
-0.257169838652374
 30
0.0
 10
28.57499999999994
 20
-0.4356833986122417
 30
0.0
 10
28.57500000000012
 20
-0.6374071468435438
 30
0.0
 10
28.5749999999999
 20
-0.8603766489298303
 30
0.0
 10
28.57500000000008
 20
-1.094247893478654
 30
0.0
 10
28.57499999999991
 20
-1.336575241147764
 30
0.0
 10
28.57500000000008
 20
-1.576298530605319
 30
0.0
 10
28.57499999999992
 20
-1.810339477915698
 30
0.0
 10
28.57500000000006
 20
-2.027214444721257
 30
0.0
 10
28.575
 20
-2.154254804797183
 30
0.0
 10
28.57499999999997
 20
-2.215567085765503
 30
0.0
  0
SPLINE
  5
A8
330
1F
100
AcDbEntity
  8
0
  6
Continuous
 62
     1
370
    15
100
AcDbSpline
210
0.0
220
0.0
230
1.0
 70
     8
 71
     3
 72
    13
 73
     9
 74
     0
 42
0.000000001
 43
0.00000001
 40
0.0
 40
0.0
 40
0.0
 40
0.0
 40
0.150098285010717
 40
0.3201102448485121
 40
0.4901114879422042
 40
0.6600919200166504
 40
0.8300539486103112
 40
1.0
 40
1.0
 40
1.0
 40
1.0
 10
35.1511469122318
 20
-2.367619716659166
 30
0.0
 10
34.82211266029526
 20
-2.360035727393702
 30
0.0
 10
34.12039088550328
 20
-2.34386157416788
 30
0.0
 10
33.04600772130981
 20
-2.100498044642277
 30
0.0
 10
31.92805271279744
 20
-1.712652112779184
 30
0.0
 10
30.81023962436323
 20
-1.194888889607203
 30
0.0
 10
29.69256909666323
 20
-0.5910045622265505
 30
0.0
 10
28.94751135853633
 20
-0.1601548516626851
 30
0.0
 10
28.57500000000019
 20
0.0552598776850431
 30
0.0
  0
LINE
  5
A9
330
1F
100
AcDbEntity
  8
0
  6
Continuous
 62
     1
370
    15
100
AcDbLine
 10
41.275
 20
-2.156653712915247
 30
0.0
 11
41.275
 21
0.2040287129152724
 31
0.0
  0
SPLINE
  5
AA
330
1F
100
AcDbEntity
  8
0
  6
Continuous
 62
     1
370
    15
100
AcDbSpline
210
0.0
220
0.0
230
1.0
 70
     8
 71
     3
 72
    17
 73
    13
 74
     0
 42
0.000000001
 43
0.00000001
 40
0.0
 40
0.0
 40
0.0
 40
0.0
 40
0.0738337867332282
 40
0.1801002569342617
 40
0.2863668355212577
 40
0.3926335199575099
 40
0.498900307704721
 40
0.5991006213290289
 40
0.6993093148007216
 40
0.7995278258403522
 40
0.8997575821521782
 40
0.9999999999999999
 40
0.9999999999999999
 40
0.9999999999999999
 40
0.9999999999999999
 10
30.1219611395236
 20
2.360452671270813
 30
0.0
 10
30.39646005966234
 20
2.359559025980216
 30
0.0
 10
31.06603598462184
 20
2.357379187269976
 30
0.0
 10
32.13068862972526
 20
2.129208159310859
 30
0.0
 10
33.31592462292198
 20
1.727294977734418
 30
0.0
 10
34.50114596974605
 20
1.176581417158769
 30
0.0
 10
35.66387344624227
 20
0.5434911190765364
 30
0.0
 10
36.80386876941434
 20
-0.1182439708291179
 30
0.0
 10
37.9214569571276
 20
-0.758955325331415
 30
0.0
 10
39.03916168236767
 20
-1.341316302765512
 30
0.0
 10
40.15701865962783
 20
-1.837108715902049
 30
0.0
 10
40.90232386240547
 20
-2.050134229115197
 30
0.0
 10
41.27500000000001
 20
-2.156653712915247
 30
0.0
  0
SPLINE
  5
AB
330
1F
100
AcDbEntity
  8
0
  6
Continuous
 62
     1
370
    15
100
AcDbSpline
210
0.0
220
0.0
230
1.0
 70
     8
 71
     3
 72
    15
 73
    11
 74
     0
 42
0.000000001
 43
0.00000001
 40
0.0
 40
0.0
 40
0.0
 40
0.0
 40
0.1371177521011518
 40
0.2742357648036682
 40
0.411354034945131
 40
0.5484725593593085
 40
0.6855913348762163
 40
0.8227103583221514
 40
0.9520657543627163
 40
1.0
 40
1.0
 40
1.0
 40
1.0
 10
41.27499999999998
 20
0.2040287129152721
 30
0.0
 10
40.87994916479668
 20
0.4296436673971294
 30
0.0
 10
40.08984674356979
 20
0.8808740051569998
 30
0.0
 10
38.90469142655887
 20
1.480948136113797
 30
0.0
 10
37.7195334642195
 20
1.960963864080782
 30
0.0
 10
36.53437289302968
 20
2.279122809788368
 30
0.0
 10
35.34920958856654
 20
2.41313736210354
 30
0.0
 10
34.18641278658534
 20
2.340624411528132
 30
0.0
 10
33.28056483017085
 20
2.169377717753419
 30
0.0
 10
32.76978258909195
 20
1.984573956834027
 30
0.0
 10
32.63168111187462
 20
1.93460809990765
 30
0.0
  0
LINE
  5
AC
330
1F
100
AcDbEntity
  8
외형선
  6
Continuous
370
    15
100
AcDbLine
 10
28.575
 20
0.0552598776851034
 30
0.0
 11
28.575
 21
0.87270501944961
 31
0.0
  0
LINE
  5
AD
330
1F
100
AcDbEntity
  8
0
  6
Continuous
 62
     1
370
    15
100
AcDbLine
 10
41.27500000000001
 20
-2.381249999999995
 30
0.0
 11
41.275
 21
-2.156653712915247
 31
0.0
  0
SPLINE
  5
AE
330
1F
100
AcDbEntity
  8
0
  6
Continuous
 62
     1
370
    15
100
AcDbSpline
210
0.0
220
0.0
230
1.0
 70
     8
 71
     3
 72
    12
 73
     8
 74
     0
 42
0.000000001
 43
0.00000001
 40
0.0
 40
0.0
 40
0.0
 40
0.0
 40
0.0432073728309205
 40
0.282366982930119
 40
0.5215500237880558
 40
0.760759902785695
 40
1.0
 40
1.0
 40
1.0
 40
1.0
 10
36.60194947139806
 20
2.368355160930701
 30
0.0
 10
36.66924966434141
 20
2.372411819970901
 30
0.0
 10
37.10906701927274
 20
2.398922725376786
 30
0.0
 10
37.9214553716777
 20
2.278590940309772
 30
0.0
 10
39.03916210522301
 20
2.003367988795851
 30
0.0
 10
40.15701855389344
 20
1.571744893548698
 30
0.0
 10
40.90232382715923
 20
1.196957879555181
 30
0.0
 10
41.27500000000001
 20
1.009552537052356
 30
0.0
  0
LINE
  5
AF
330
1F
100
AcDbEntity
  8
0
  6
Continuous
 62
     1
370
    15
100
AcDbLine
 10
41.275
 20
0.2040287129152723
 30
0.0
 11
41.275
 21
1.009552537052356
 31
0.0
  0
SPLINE
  5
B0
330
1F
100
AcDbEntity
  8
0
  6
Continuous
 62
     1
370
    15
100
AcDbSpline
210
0.0
220
0.0
230
1.0
 70
     8
 71
     3
 72
     9
 73
     5
 74
     0
 42
0.000000001
 43
0.00000001
 40
0.0
 40
0.0
 40
0.0
 40
0.0
 40
0.551784161176498
 40
1.0
 40
1.0
 40
1.0
 40
1.0
 10
41.27499999999999
 20
2.381250000000005
 30
0.0
 10
40.87994917450585
 20
2.337513343192428
 30
0.0
 10
40.16399744321327
 20
2.274119301924898
 30
0.0
 10
39.44804530529868
 20
2.045945752959183
 30
0.0
 10
39.12714421724581
 20
1.943674754312179
 30
0.0
  0
LINE
  5
B1
330
1F
100
AcDbEntity
  8
0
  6
Continuous
 62
     1
370
    15
100
AcDbLine
 10
28.67027941712829
 20
-2.374464975745441
 30
0.0
 11
28.57500000000019
 21
-2.380608726443353
 31
0.0
  0
LINE
  5
B2
330
1F
100
AcDbEntity
  8
0
  6
Continuous
 62
     1
370
    15
100
AcDbLine
 10
41.275
 20
1.009552537052356
 30
0.0
 11
41.27500000000001
 21
2.381250000000005
 31
0.0
  0
LINE
  5
B3
330
1F
100
AcDbEntity
  8
외형선
  6
Continuous
370
    15
100
AcDbLine
 10
28.575
 20
-2.380608726443509
 30
0.0
 11
28.57499999999997
 21
-2.215567085765503
 31
0.0
  0
LINE
  5
B4
330
1F
100
AcDbEntity
  8
외형선
  6
Continuous
370
    15
100
AcDbLine
 10
27.575
 20
-0.0000000000000015
 30
0.0
 11
27.575
 21
2.381249999999997
 31
0.0
  0
LINE
  5
B5
330
1F
100
AcDbEntity
  8
외형선
  6
Continuous
370
    15
100
AcDbLine
 10
27.575
 20
-2.38125
 30
0.0
 11
27.575
 21
-0.0000000000000015
 31
0.0
  0
LINE
  5
B6
330
1F
100
AcDbEntity
  8
외형선
  6
Continuous
370
    15
100
AcDbLine
 10
18.6880540144766
 20
-0.0000000000000015
 30
0.0
 11
18.6880540144766
 21
4.762500000000007
 31
0.0
  0
LINE
  5
B7
330
1F
100
AcDbEntity
  8
외형선
  6
Continuous
370
    15
100
AcDbLine
 10
18.6880540144766
 20
-4.762500000000009
 30
0.0
 11
18.6880540144766
 21
-0.0000000000000015
 31
0.0
  0
SPLINE
  5
BC
330
1F
100
AcDbEntity
  8
외형선
  6
Continuous
370
    15
100
AcDbSpline
210
0.0
220
0.0
230
1.0
 70
     8
 71
     3
 72
     8
 73
     4
 74
     0
 42
0.000000001
 43
0.00000001
 40
0.0
 40
0.0
 40
0.0
 40
0.0
 40
1.0
 40
1.0
 40
1.0
 40
1.0
 10
28.57500000000016
 20
2.38060872644335
 30
0.0
 10
28.40756865147135
 20
2.378365862058373
 30
0.0
 10
28.24251325147029
 20
2.3702802905196
 30
0.0
 10
28.07515599537185
 20
2.356338982850331
 30
0.0
  0
LINE
  5
BD
330
1F
100
AcDbEntity
  8
외형선
  6
Continuous
370
    15
100
AcDbLine
 10
28.07515599537182
 20
1.134928697132504
 30
0.0
 11
28.07515599537184
 21
2.381249999999998
 31
0.0
  0
SPLINE
  5
BE
330
1F
100
AcDbEntity
  8
외형선
  6
Continuous
370
    15
100
AcDbSpline
210
0.0
220
0.0
230
1.0
 70
     8
 71
     3
 72
     8
 73
     4
 74
     0
 42
0.000000001
 43
0.00000001
 40
0.0
 40
0.0
 40
0.0
 40
0.0
 40
1.0
 40
1.0
 40
1.0
 40
1.0
 10
28.57500000000018
 20
0.8727050194495128
 30
0.0
 10
28.40756865147136
 20
0.96262951290408
 30
0.0
 10
28.24251325147032
 20
1.04998334973501
 30
0.0
 10
28.07515599537184
 20
1.134936347617354
 30
0.0
  0
SPLINE
  5
BF
330
1F
100
AcDbEntity
  8
외형선
  6
Continuous
370
    15
100
AcDbSpline
210
0.0
220
0.0
230
1.0
 70
     8
 71
     3
 72
     8
 73
     4
 74
     0
 42
0.000000001
 43
0.00000001
 40
0.0
 40
0.0
 40
0.0
 40
0.0
 40
1.0
 40
1.0
 40
1.0
 40
1.0
 10
28.57500000000016
 20
0.0552598776850547
 30
0.0
 10
28.40756865147135
 20
0.1518830109741886
 30
0.0
 10
28.24251325147029
 20
0.2479137235624493
 30
0.0
 10
28.07515599537185
 20
0.343537713213359
 30
0.0
  0
LINE
  5
C0
330
1F
100
AcDbEntity
  8
외형선
  6
Continuous
370
    15
100
AcDbLine
 10
28.07515599537182
 20
-2.093391605726244
 30
0.0
 11
28.07515599537184
 21
0.3435546647952033
 31
0.0
  0
SPLINE
  5
C1
330
1F
100
AcDbEntity
  8
외형선
  6
Continuous
370
    15
100
AcDbSpline
210
0.0
220
0.0
230
1.0
 70
     8
 71
     3
 72
     8
 73
     4
 74
     0
 42
0.000000001
 43
0.00000001
 40
0.0
 40
0.0
 40
0.0
 40
0.0
 40
1.0
 40
1.0
 40
1.0
 40
1.0
 10
28.57500000000018
 20
-2.215567085765543
 30
0.0
 10
28.40756865147136
 20
-2.180146106047324
 30
0.0
 10
28.24251325147032
 20
-2.139444982988701
 30
0.0
 10
28.07515599537184
 20
-2.093387458010813
 30
0.0
  0
SPLINE
  5
C2
330
1F
100
AcDbEntity
  8
외형선
  6
Continuous
370
    15
100
AcDbSpline
210
0.0
220
0.0
230
1.0
 70
     8
 71
     3
 72
     8
 73
     4
 74
     0
 42
0.000000001
 43
0.00000001
 40
0.0
 40
0.0
 40
0.0
 40
0.0
 40
1.0
 40
1.0
 40
1.0
 40
1.0
 10
28.57500000000016
 20
-2.380608726443353
 30
0.0
 10
28.40756865147135
 20
-2.378365862058376
 30
0.0
 10
28.24251325147029
 20
-2.370280290519603
 30
0.0
 10
28.07515599537185
 20
-2.356338982850334
 30
0.0
  0
LINE
  5
C3
330
1F
100
AcDbEntity
  8
외형선
  6
Continuous
370
    15
100
AcDbLine
 10
28.07515599537184
 20
-2.381250000000001
 30
0.0
 11
28.07515599537184
 21
-2.356336511366206
 31
0.0
  0
SPLINE
  5
C4
330
1F
100
AcDbEntity
  8
외형선
  6
Continuous
370
    15
100
AcDbSpline
210
0.0
220
0.0
230
1.0
 70
    24
 71
     3
 72
    14
 73
    10
 74
     0
 42
0.000000001
 43
0.00000001
 40
0.0
 40
0.0
 40
0.0
 40
0.0
 40
0.081856597129953
 40
0.2355086897168412
 40
0.3891607823033544
 40
0.5428128748906238
 40
0.6964649674775112
 40
0.8501170600643977
 40
1.0
 40
1.0
 40
1.0
 40
1.0
 10
28.575
 20
-2.215567085765509
 30
0.0
 10
28.575
 20
-2.146386916153014
 30
0.0
 10
28.57500000000001
 20
-1.947349432662686
 30
0.0
 10
28.57500000000013
 20
-1.553164838241145
 30
0.0
 10
28.57499999999986
 20
-1.065687593269851
 30
0.0
 10
28.57500000000011
 20
-0.6041430023564551
 30
0.0
 10
28.57499999999998
 20
-0.226692023470623
 30
0.0
 10
28.57499999999992
 20
0.0379734878946809
 30
0.0
 10
28.57499999999995
 20
0.0844250108503784
 30
0.0
 10
28.575
 20
0.1073623659465162
 30
0.0
  0
SPLINE
  5
C5
330
1F
100
AcDbEntity
  8
외형선
  6
Continuous
370
    15
100
AcDbSpline
210
0.0
220
0.0
230
1.0
 70
    24
 71
     3
 72
    14
 73
    10
 74
     0
 42
0.000000001
 43
0.00000001
 40
0.0
 40
0.0
 40
0.0
 40
0.0
 40
0.0996354830923284
 40
0.2488004489786776
 40
0.4022912089808828
 40
0.5514561748671667
 40
0.704946934869299
 40
0.8504701859254044
 40
1.0
 40
1.0
 40
1.0
 40
1.0
 10
28.575
 20
0.9298005603637477
 30
0.0
 10
28.57499999999998
 20
0.965259556471696
 30
0.0
 10
28.57499999999997
 20
1.053804459132684
 30
0.0
 10
28.57500000000006
 20
1.228936860703308
 30
0.0
 10
28.57499999999986
 20
1.442586866265049
 30
0.0
 10
28.57500000000012
 20
1.674887199631151
 30
0.0
 10
28.57499999999998
 20
1.911367770474697
 30
0.0
 10
28.57499999999997
 20
2.150728237136808
 30
0.0
 10
28.57499999999997
 20
2.303291338767941
 30
0.0
 10
28.57499999999997
 20
2.380608726443413
 30
0.0
  0
LINE
  5
C6
330
1F
100
AcDbEntity
  8
중심선
 48
0.8
100
AcDbLine
 10
-44.27500000000001
 20
-0.0000000000000054
 30
0.0
 11
44.27500000000001
 21
0.0000000000000054
 31
0.0
  0
LINE
  5
C7
330
1F
100
AcDbEntity
  8
참조1
100
AcDbLine
 10
1.780880657015621
 20
0.0010749287238892
 30
0.0
 11
1.780880657015621
 21
-39.99892507127611
 31
0.0
  0
LINE
  5
C8
330
1F
100
AcDbEntity
  8
참조1
100
AcDbLine
 10
1.780880657015621
 20
-39.99892507127611
 30
0.0
 11
-29.25297615729306
 21
-39.9989250712761
 31
0.0
  0
CIRCLE
  5
C9
330
1F
100
AcDbEntity
  8
해칭선
100
AcDbCircle
 10
0.0
 20
0.0
 30
0.0
 40
3.000000000000012
  0
INSERT
  5
CA
330
1F
100
AcDbEntity
  8
0
  6
Continuous
 62
     7
100
AcDbBlockReference
 66
     1
  2
블럭10
 10
-13.9402729321252
 20
-52.04717430164393
 30
0.0
  0
ATTRIB
  5
CB
330
CA
100
AcDbEntity
  8
FORMAT
 62
     2
100
AcDbText
 10
-23.12156822086649
 20
-49.97180738881174
 30
0.0
 40
4.233333333333333
  1
E2051012 [ 4 FLUTE ]
 41
0.75
  7
SLDTEXTSTYLE0
 11
-23.12156822086649
 21
-52.08847405547841
 31
0.0
100
AcDbAttribute
  2
AUTOATTR0
 70
     0
 74
     1
  0
SEQEND
  5
CC
330
CA
100
AcDbEntity
  8
0
  6
Continuous
 62
     7
  0
HATCH
  5
CD
330
1F
100
AcDbEntity
  8
중심선
100
AcDbHatch
 10
0.0
 20
0.0
 30
0.0
210
0.0
220
0.0
230
1.0
  2
SOLID
 70
     1
 71
     0
 91
        1
 92
        0
 93
        4
 72
     1
 10
-8.225363627744365
 20
-35.8
 11
-11.67163887158165
 21
-35.8
 72
     1
 10
-11.67163887158165
 20
-35.8
 11
-13.79986873078567
 21
-38.3363255805726
 72
     1
 10
-13.79986873078567
 20
-38.3363255805726
 11
-10.35356040183524
 21
-38.33628615127011
 72
     1
 10
-10.35356040183524
 20
-38.33628615127011
 11
-8.225363627744365
 21
-35.8
 97
        0
 75
     0
 76
     1
 98
        1
 10
-1.780880657015615
 20
-0.0010749287238947
  0
HATCH
  5
CE
330
1F
100
AcDbEntity
  8
중심선
100
AcDbHatch
 10
0.0
 20
0.0
 30
0.0
210
0.0
220
0.0
230
1.0
  2
SOLID
 70
     1
 71
     0
 91
        1
 92
        0
 93
        4
 72
     1
 10
-3.212599636708357
 20
-35.8
 11
-6.658874880545667
 21
-35.8
 72
     1
 10
-6.658874880545667
 20
-35.8
 11
-11.19001288890308
 21
-41.20000000000002
 72
     1
 10
-11.19001288890308
 20
-41.20000000000002
 11
-7.743737645065801
 21
-41.20000000000002
 72
     1
 10
-7.743737645065801
 20
-41.20000000000002
 11
-3.212599636708357
 21
-35.8
 97
        0
 75
     0
 76
     1
 98
        1
 10
-1.780880657015615
 20
-0.0010749287238947
  0
HATCH
  5
CF
330
1F
100
AcDbEntity
  8
중심선
100
AcDbHatch
 10
0.0
 20
0.0
 30
0.0
210
0.0
220
0.0
230
1.0
  2
SOLID
 70
     1
 71
     0
 91
        1
 92
        0
 93
        4
 72
     1
 10
1.800164354327483
 20
-35.79999999999998
 11
-1.646110889509605
 21
-35.79999999999998
 72
     1
 10
-1.646110889509605
 20
-35.79999999999998
 11
-8.694547791398882
 21
-44.20000000000002
 72
     1
 10
-8.694547791398882
 20
-44.20000000000002
 11
-5.248272547561601
 21
-44.20000000000002
 72
     1
 10
-5.2482725475616
 20
-44.20000000000002
 11
1.800164354327483
 21
-35.79999999999998
 97
        0
 75
     0
 76
     1
 98
        1
 10
-1.780880657015615
 20
-0.0010749287238947
  0
HATCH
  5
D0
330
1F
100
AcDbEntity
  8
중심선
100
AcDbHatch
 10
0.0
 20
0.0
 30
0.0
210
0.0
220
0.0
230
1.0
  2
SOLID
 70
     1
 71
     0
 91
        1
 92
        0
 93
        6
 72
     3
 10
6.600054785339683
 20
-40.00000000005127
 11
3.960054785062283
 21
1.540882976769353E-10
 40
0.3939339440162628
 50
17.09539180608436
 51
320.0019657685078
 73
     0
 72
     1
 10
8.283054441040278
 20
-38.5878940046383
 11
10.58835631474131
 21
-36.65356729459035
 72
     3
 10
6.600054785286837
 20
-40.00000000000015
 11
6.600054785286829
 21
-1.278976924368180E-13
 40
0.636358354079598
 50
39.99873849337431
 51
368.4976242363724
 73
     1
 72
     1
 10
13.02538727718744
 20
-39.03999999993002
 11
5.280122092122758
 21
-39.03999999993002
 72
     1
 10
5.280122092122758
 20
-39.03999999993002
 11
5.280097047676824
 21
-40.95999999992991
 72
     1
 10
5.280097047676824
 20
-40.95999999992991
 11
9.721476817148861
 21
-40.95999999992988
 97
        0
 75
     0
 76
     1
 98
        1
 10
-1.780880657015615
 20
-0.0010749287238947
  0
DIMENSION
  5
D1
330
1F
100
AcDbEntity
  8
치수문자_일반주서
100
AcDbDimension
  2
_D
 10
56.45435530974483
 20
-2.381249999999937
 30
0.0
 11
56.45435530974475
 21
24.73530345637154
 31
0.0
 70
   160
  1
%%c<>
 71
     2
 42
4.762499999999999
 52
-270.0
  3
SLDDIMSTYLE0
100
AcDbAlignedDimension
 13
41.27499999999999
 23
2.381250000000005
 33
0.0
 14
41.27499999999999
 24
-2.381249999999995
 34
0.0
 50
90.0000000000002
100
AcDbRotatedDimension
1001
ACAD
1000
DSTYLE
1002
{
1070
   171
1070
     6
1070
   273
1070
     7
1002
}
  0
DIMENSION
  5
E6
330
1F
100
AcDbEntity
  8
치수문자_일반주서
100
AcDbDimension
  2
_D_1
 10
28.575
 20
17.18956959707096
 30
0.0
 11
11.0335
 21
17.18956959707096
 31
0.0
 70
   160
  1
<>
 71
     2
 42
12.70000000000001
  3
SLDDIMSTYLE0
100
AcDbAlignedDimension
 13
41.27500000000001
 23
2.381250000000005
 33
0.0
 14
28.575
 24
2.380608726443506
 34
0.0
 50
-0.0000000000000321
100
AcDbRotatedDimension
1001
ACAD
1000
DSTYLE
1002
{
1070
   171
1070
     6
1070
   273
1070
     7
1002
}
  0
DIMENSION
  5
FB
330
1F
100
AcDbEntity
  8
치수문자_일반주서
100
AcDbDimension
  2
_D_2
 10
-41.27499999999995
 20
26.48100320036932
 30
0.0
 11
-0.2300150486958756
 21
26.48100320036932
 31
0.0
 70
   160
  1
<>
 71
     2
 42
82.54999999999995
  3
SLDDIMSTYLE0
100
AcDbAlignedDimension
 13
41.27500000000001
 23
2.381250000000005
 33
0.0
 14
-41.27499999999995
 24
2.381250000000002
 34
0.0
100
AcDbRotatedDimension
1001
ACAD
1000
DSTYLE
1002
{
1070
   171
1070
     6
1070
   273
1070
     7
1002
}
  0
DIMENSION
  5
10F
330
1F
100
AcDbEntity
  8
치수문자_일반주서
100
AcDbDimension
  2
_D_3
 10
-53.79874999999999
 20
-4.762500000000136
 30
0.0
 11
-53.79875000000001
 21
0.0000000000000011
 31
0.0
 70
   160
  1
%%c<>
 71
     2
 42
9.525000000000007
 52
-270.0
  3
SLDDIMSTYLE0
100
AcDbAlignedDimension
 13
-18.68805401447657
 23
4.762500000000003
 33
0.0
 14
-18.68805401447653
 24
-4.762500000000005
 34
0.0
 50
90.0000000000002
100
AcDbRotatedDimension
1001
ACAD
1000
DSTYLE
1002
{
1070
   171
1070
     6
1070
   273
1070
     7
1002
}
  0
LINE
  5
123
330
1F
100
AcDbEntity
  8
참조1
100
AcDbLine
 10
68.7193644723612
 20
7.441074928723896
 30
0.0
 11
68.7193644723612
 21
-7.438925071276109
 31
0.0
  0
LINE
  5
124
330
1F
100
AcDbEntity
  8
참조1
100
AcDbLine
 10
81.41936447236121
 20
5.441074928723896
 30
0.0
 11
68.7193644723612
 21
5.441074928723896
 31
0.0
  0
SOLID
  5
125
330
1F
100
AcDbEntity
  8
참조1
100
AcDbTrace
 10
68.7193644723612
 20
5.441074928723896
 30
0.0
 11
75.0693644723612
 21
4.425074928723896
 31
0.0
 12
75.0693644723612
 22
6.457074928723896
 32
0.0
 13
75.0693644723612
 23
6.457074928723896
 33
0.0
  0
LINE
  5
126
330
1F
100
AcDbEntity
  8
참조1
100
AcDbLine
 10
81.41936447236121
 20
-5.438925071276109
 30
0.0
 11
68.7193644723612
 21
-5.438925071276109
 31
0.0
  0
SOLID
  5
127
330
1F
100
AcDbEntity
  8
참조1
100
AcDbTrace
 10
68.7193644723612
 20
-5.438925071276109
 30
0.0
 11
75.0693644723612
 21
-6.454925071276109
 31
0.0
 12
75.0693644723612
 22
-4.422925071276109
 32
0.0
 13
75.0693644723612
 23
-4.422925071276109
 33
0.0
  0
MTEXT
  5
128
330
1F
100
AcDbEntity
  8
참조1
100
AcDbMText
 10
78.1037146049872
 20
11.01136670591223
 30
0.0
 40
3.5
 41
0.0
 71
     1
 72
     1
  1
A
  7
SLDTEXTSTYLE0
 73
     1
 44
1.0
  0
MTEXT
  5
129
330
1F
100
AcDbEntity
  8
참조1
100
AcDbMText
 10
78.1037146049872
 20
0.1313667059122219
 30
0.0
 40
3.5
 41
0.0
 71
     1
 72
     1
  1
A
  7
SLDTEXTSTYLE0
 73
     1
 44
1.0
  0
INSERT
  5
130
330
1F
100
AcDbEntity
  8
해칭선
100
AcDbBlockReference
  2
SW_DOWELSYMBOL_0
 10
0.0
 20
0.0
 30
0.0
  0
LINE
  5
326
330
1F
100
AcDbEntity
  8
0
  6
Continuous
 62
     1
370
    15
100
AcDbLine
 10
-40.42305554406835
 20
-0.6862209659707967
 30
0.0
 11
-40.38723169954392
 21
-0.7056384168973362
 31
0.0
  0
LINE
  5
327
330
1F
100
AcDbEntity
  8
0
  6
Continuous
 62
     1
370
    15
100
AcDbLine
 10
-35.15114691223175
 20
2.381250000000009
 30
0.0
 11
-36.60194947139803
 21
2.381250000000009
 31
0.0
  0
LINE
  5
328
330
1F
100
AcDbEntity
  8
0
  6
Continuous
 62
     1
370
    15
100
AcDbLine
 10
-30.12196113952353
 20
-2.381249999999987
 30
0.0
 11
-28.67027941712826
 21
-2.381249999999987
 31
0.0
  0
LINE
  5
329
330
1F
100
AcDbEntity
  8
0
  6
Continuous
 62
     1
370
    15
100
AcDbLine
 10
-36.60194947139803
 20
-2.381249999999987
 30
0.0
 11
-35.15114691223175
 21
-2.381249999999987
 31
0.0
  0
LINE
  5
32A
330
1F
100
AcDbEntity
  8
0
  6
Continuous
 62
     1
370
    15
100
AcDbLine
 10
-28.67027941712826
 20
2.381250000000009
 30
0.0
 11
-30.12196113952351
 21
2.381250000000009
 31
0.0
  0
LINE
  5
32B
330
1F
100
AcDbEntity
  8
외형선
  6
Continuous
370
    15
100
AcDbLine
 10
-18.68805401447656
 20
4.762500000000018
 30
0.0
 11
-27.57499999999993
 21
2.381250000000009
 31
0.0
  0
LINE
  5
32C
330
1F
100
AcDbEntity
  8
외형선
  6
Continuous
370
    15
100
AcDbLine
 10
-27.57499999999993
 20
-2.381249999999987
 30
0.0
 11
-18.68805401447656
 21
-4.762499999999995
 31
0.0
  0
LINE
  5
32F
330
1F
100
AcDbEntity
  8
외형선
  6
Continuous
370
    15
100
AcDbLine
 10
-27.57499999999993
 20
2.381250000000009
 30
0.0
 11
-28.0751559953718
 21
2.381250000000009
 31
0.0
  0
LINE
  5
330
330
1F
100
AcDbEntity
  8
외형선
  6
Continuous
370
    15
100
AcDbLine
 10
-28.0751559953718
 20
-2.381249999999987
 30
0.0
 11
-27.57499999999993
 21
-2.381249999999987
 31
0.0
  0
SPLINE
  5
331
330
1F
100
AcDbEntity
  8
0
  6
Continuous
 62
     1
370
    15
100
AcDbSpline
210
0.0
220
0.0
230
1.0
 70
     8
 71
     3
 72
    17
 73
    13
 74
     0
 42
0.000000001
 43
0.00000001
 40
0.0
 40
0.0
 40
0.0
 40
0.0
 40
0.1123180852727044
 40
0.2246362904610973
 40
0.3369546128874736
 40
0.4492730498723704
 40
0.5615915987346171
 40
0.6739102567913553
 40
0.7798169563513254
 40
0.8857325129891509
 40
0.9916584463032606
 40
1.0
 40
1.0
 40
1.0
 40
1.0
 10
-28.5750000000001
 20
-0.8727050194495187
 30
0.0
 10
-28.97007601762601
 20
-0.6535039006705428
 30
0.0
 10
-29.76022847467826
 20
-0.2151014290839152
 30
0.0
 10
-30.94545839357073
 20
0.4793155656595976
 30
0.0
 10
-32.13068862601096
 20
1.129306085809212
 30
0.0
 10
-33.31592463440796
 20
1.687974159505381
 30
0.0
 10
-34.50114592751621
 20
2.108144342305153
 30
0.0
 10
-35.6638735998763
 20
2.349689265069785
 30
0.0
 10
-36.80386823237927
 20
2.410075071246077
 30
0.0
 10
-37.92145896556138
 20
2.279078565231075
 30
0.0
 10
-38.69588803712907
 20
2.110294074403086
 30
0.0
 10
-39.09780423902936
 20
1.955010492667463
 30
0.0
 10
-39.12714421724576
 20
1.943674754312191
 30
0.0
  0
SPLINE
  5
332
330
1F
100
AcDbEntity
  8
외형선
  6
Continuous
370
    15
100
AcDbSpline
210
0.0
220
0.0
230
1.0
 70
    24
 71
     3
 72
    14
 73
    10
 74
     0
 42
0.000000001
 43
0.00000001
 40
0.0
 40
0.0
 40
0.0
 40
0.0
 40
0.1538720055253802
 40
0.3125092493895891
 40
0.4616605068137948
 40
0.615137160807525
 40
0.7642884182317352
 40
0.9177650722254713
 40
1.0
 40
1.0
 40
1.0
 40
1.0
 10
-28.57499999999993
 20
-2.380608726443497
 30
0.0
 10
-28.57499999999993
 20
-2.301002444740142
 30
0.0
 10
-28.57499999999999
 20
-2.139324566708516
 30
0.0
 10
-28.57499999999999
 20
-1.892563282321738
 30
0.0
 10
-28.57500000000005
 20
-1.649866375031045
 30
0.0
 10
-28.57499999999987
 20
-1.420879905489933
 30
0.0
 10
-28.57499999999993
 20
-1.207335339205066
 30
0.0
 10
-28.57499999999999
 20
-1.041223237552557
 30
0.0
 10
-28.57499999999999
 20
-0.9586119434747711
 30
0.0
 10
-28.57499999999999
 20
-0.9297905603637484
 30
0.0
  0
SPLINE
  5
333
330
1F
100
AcDbEntity
  8
0
  6
Continuous
 62
     1
370
    15
100
AcDbSpline
210
0.0
220
0.0
230
1.0
 70
     8
 71
     3
 72
    38
 73
    34
 74
     0
 42
0.000000001
 43
0.00000001
 40
0.0
 40
0.0
 40
0.0
 40
0.0
 40
0.0625
 40
0.0625
 40
0.125
 40
0.125
 40
0.1875
 40
0.1875
 40
0.25
 40
0.25
 40
0.3125
 40
0.3125
 40
0.375
 40
0.375
 40
0.4375
 40
0.4375
 40
0.5
 40
0.5
 40
0.5625
 40
0.5625
 40
0.625
 40
0.625
 40
0.6875
 40
0.6875
 40
0.75
 40
0.75
 40
0.8125
 40
0.8125
 40
0.875
 40
0.875
 40
0.9375
 40
0.9375
 40
1.0
 40
1.0
 40
1.0
 40
1.0
 10
-41.27499999999995
 20
2.381250000000002
 30
0.0
 10
-41.01313358972772
 20
2.359450348136655
 30
0.0
 10
-40.74582228306491
 20
2.33163940546455
 30
0.0
 10
-40.21498211086418
 20
2.24762661598701
 30
0.0
 10
-39.95401085020387
 20
2.191756245341296
 30
0.0
 10
-39.42294367126078
 20
2.053076429750583
 30
0.0
 10
-39.15640882280769
 20
1.970425147019882
 30
0.0
 10
-38.63200477337043
 20
1.782945999548979
 30
0.0
 10
-38.36458493749245
 20
1.676968930940881
 30
0.0
 10
-37.83400136354246
 20
1.446125023550437
 30
0.0
 10
-37.57297890637693
 20
1.321707927491076
 30
0.0
 10
-37.04171435447878
 20
1.056685477513583
 30
0.0
 10
-36.77590579770458
 20
0.9167514140515398
 30
0.0
 10
-36.25085892138281
 20
0.6285338735226351
 30
0.0
 10
-35.98334572161738
 20
0.4787317950362753
 30
0.0
 10
-35.45304828966283
 20
0.1759201359211678
 30
0.0
 10
-35.1919234489998
 20
0.0232634658921787
 30
0.0
 10
-34.66049119471143
 20
-0.2822154857890022
 30
0.0
 10
-34.395358629062
 20
-0.4340283661601556
 30
0.0
 10
-33.86969744586995
 20
-0.7296111868284636
 30
0.0
 10
-33.60210606536782
 20
-0.874678182523247
 30
0.0
 10
-33.07212426592383
 20
-1.15129567818299
 30
0.0
 10
-32.81084587379235
 20
-1.282725777599417
 30
0.0
 10
-32.27927561894109
 20
-1.529640235902093
 30
0.0
 10
-32.01476861900369
 20
-1.644159854914143
 30
0.0
 10
-31.48852176189189
 20
-1.851272722419288
 30
0.0
 10
-31.22086739873424
 20
-1.944570283900724
 30
0.0
 10
-30.69123066364116
 20
-2.105360947083788
 30
0.0
 10
-30.42974758059364
 20
-2.172956464834051
 30
0.0
 10
-29.89806905274088
 20
-2.281255085164652
 30
0.0
 10
-29.63413707745767
 20
-2.321456652332223
 30
0.0
 10
-29.10733328719965
 20
-2.372881067381094
 30
0.0
 10
-28.83963115149976
 20
-2.38415365270756
 30
0.0
 10
-28.57500000000016
 20
-2.380608726443341
 30
0.0
  0
SPLINE
  5
334
330
1F
100
AcDbEntity
  8
0
  6
Continuous
 62
     1
370
    15
100
AcDbSpline
210
0.0
220
0.0
230
1.0
 70
     8
 71
     3
 72
    11
 73
     7
 74
     0
 42
0.000000001
 43
0.00000001
 40
0.0
 40
0.0
 40
0.0
 40
0.0
 40
0.2921670284938769
 40
0.5843343689180184
 40
0.8765020143070615
 40
1.0
 40
1.0
 40
1.0
 40
1.0
 10
-28.5750000000001
 20
2.215567085765543
 30
0.0
 10
-28.97007603288279
 20
2.281930390498609
 30
0.0
 10
-29.76022852044844
 20
2.4146570708171
 30
0.0
 10
-30.94545821048962
 20
2.358185092078529
 30
0.0
 10
-31.90260920788882
 20
2.195493192429467
 30
0.0
 10
-32.46468373155034
 20
1.994365068704035
 30
0.0
 10
-32.63168111187457
 20
1.934608099907664
 30
0.0
  0
SPLINE
  5
335
330
1F
100
AcDbEntity
  8
외형선
  6
Continuous
370
    15
100
AcDbSpline
210
0.0
220
0.0
230
1.0
 70
    24
 71
     3
 72
    21
 73
    17
 74
     0
 42
0.000000001
 43
0.00000001
 40
0.0
 40
0.0
 40
0.0
 40
0.0
 40
0.0040635485256484
 40
0.0798931784394835
 40
0.1579218727578831
 40
0.2337515026717204
 40
0.311780196990123
 40
0.387609826904026
 40
0.4656385212223672
 40
0.541468151136163
 40
0.6194968454545202
 40
0.6953264753684001
 40
0.7733551696868488
 40
0.8491847996005015
 40
0.9272134939190882
 40
1.0
 40
1.0
 40
1.0
 40
1.0
 10
-28.57499999999999
 20
-0.1080173190139954
 30
0.0
 10
-28.57499999999999
 20
-0.1081253054976154
 30
0.0
 10
-28.57500000000016
 20
-0.1102484211317711
 30
0.0
 10
-28.57499999999999
 20
-0.0758477519630598
 30
0.0
 10
-28.57499999999993
 20
-0.004245478956093
 30
0.0
 10
-28.57499999999987
 20
0.1105701909409836
 30
0.0
 10
-28.57500000000005
 20
0.2571698386523811
 30
0.0
 10
-28.57499999999987
 20
0.4356833986122486
 30
0.0
 10
-28.57500000000007
 20
0.6374071468435507
 30
0.0
 10
-28.57499999999987
 20
0.860376648929837
 30
0.0
 10
-28.57500000000005
 20
1.09424789347866
 30
0.0
 10
-28.57499999999987
 20
1.33657524114777
 30
0.0
 10
-28.57500000000005
 20
1.576298530605329
 30
0.0
 10
-28.57499999999987
 20
1.810339477915705
 30
0.0
 10
-28.57500000000002
 20
2.027214444721267
 30
0.0
 10
-28.57499999999993
 20
2.154254804797191
 30
0.0
 10
-28.57499999999993
 20
2.215567085765507
 30
0.0
  0
SPLINE
  5
336
330
1F
100
AcDbEntity
  8
0
  6
Continuous
 62
     1
370
    15
100
AcDbSpline
210
0.0
220
0.0
230
1.0
 70
     8
 71
     3
 72
    13
 73
     9
 74
     0
 42
0.000000001
 43
0.00000001
 40
0.0
 40
0.0
 40
0.0
 40
0.0
 40
0.150098285010717
 40
0.3201102448485121
 40
0.4901114879422042
 40
0.6600919200166504
 40
0.8300539486103112
 40
1.0
 40
1.0
 40
1.0
 40
1.0
 10
-35.15114691223175
 20
2.367619716659171
 30
0.0
 10
-34.8221126602952
 20
2.360035727393708
 30
0.0
 10
-34.12039088550324
 20
2.343861574167889
 30
0.0
 10
-33.04600772130976
 20
2.100498044642287
 30
0.0
 10
-31.92805271279741
 20
1.712652112779189
 30
0.0
 10
-30.81023962436319
 20
1.194888889607214
 30
0.0
 10
-29.69256909666319
 20
0.591004562226559
 30
0.0
 10
-28.9475113585363
 20
0.1601548516626896
 30
0.0
 10
-28.57500000000016
 20
-0.0552598776850383
 30
0.0
  0
LINE
  5
337
330
1F
100
AcDbEntity
  8
0
  6
Continuous
 62
     1
370
    15
100
AcDbLine
 10
-41.27499999999998
 20
2.156653712915251
 30
0.0
 11
-41.27499999999998
 21
-0.2040287129152669
 31
0.0
  0
SPLINE
  5
338
330
1F
100
AcDbEntity
  8
0
  6
Continuous
 62
     1
370
    15
100
AcDbSpline
210
0.0
220
0.0
230
1.0
 70
     8
 71
     3
 72
    17
 73
    13
 74
     0
 42
0.000000001
 43
0.00000001
 40
0.0
 40
0.0
 40
0.0
 40
0.0
 40
0.0738337867332282
 40
0.1801002569342617
 40
0.2863668355212577
 40
0.3926335199575099
 40
0.498900307704721
 40
0.5991006213290289
 40
0.6993093148007216
 40
0.7995278258403522
 40
0.8997575821521782
 40
0.9999999999999999
 40
0.9999999999999999
 40
0.9999999999999999
 40
0.9999999999999999
 10
-30.12196113952353
 20
-2.360452671270806
 30
0.0
 10
-30.39646005966227
 20
-2.35955902598021
 30
0.0
 10
-31.06603598462181
 20
-2.35737918726997
 30
0.0
 10
-32.13068862972523
 20
-2.129208159310856
 30
0.0
 10
-33.31592462292195
 20
-1.727294977734409
 30
0.0
 10
-34.50114596974601
 20
-1.176581417158765
 30
0.0
 10
-35.66387344624223
 20
-0.5434911190765273
 30
0.0
 10
-36.80386876941429
 20
0.1182439708291275
 30
0.0
 10
-37.92145695712753
 20
0.7589553253314212
 30
0.0
 10
-39.03916168236765
 20
1.341316302765521
 30
0.0
 10
-40.15701865962779
 20
1.837108715902055
 30
0.0
 10
-40.90232386240541
 20
2.050134229115209
 30
0.0
 10
-41.27499999999998
 20
2.156653712915251
 30
0.0
  0
SPLINE
  5
339
330
1F
100
AcDbEntity
  8
0
  6
Continuous
 62
     1
370
    15
100
AcDbSpline
210
0.0
220
0.0
230
1.0
 70
     8
 71
     3
 72
    15
 73
    11
 74
     0
 42
0.000000001
 43
0.00000001
 40
0.0
 40
0.0
 40
0.0
 40
0.0
 40
0.1371177521011518
 40
0.2742357648036682
 40
0.411354034945131
 40
0.5484725593593085
 40
0.6855913348762163
 40
0.8227103583221514
 40
0.9520657543627163
 40
1.0
 40
1.0
 40
1.0
 40
1.0
 10
-41.27499999999992
 20
-0.2040287129152669
 30
0.0
 10
-40.87994916479664
 20
-0.4296436673971224
 30
0.0
 10
-40.08984674356975
 20
-0.8808740051569894
 30
0.0
 10
-38.90469142655883
 20
-1.480948136113788
 30
0.0
 10
-37.71953346421947
 20
-1.960963864080774
 30
0.0
 10
-36.53437289302963
 20
-2.279122809788361
 30
0.0
 10
-35.34920958856651
 20
-2.413137362103533
 30
0.0
 10
-34.18641278658532
 20
-2.340624411528125
 30
0.0
 10
-33.28056483017082
 20
-2.169377717753413
 30
0.0
 10
-32.7697825890919
 20
-1.984573956834019
 30
0.0
 10
-32.63168111187457
 20
-1.934608099907642
 30
0.0
  0
LINE
  5
33A
330
1F
100
AcDbEntity
  8
외형선
  6
Continuous
370
    15
100
AcDbLine
 10
-28.57499999999993
 20
-0.0552598776850952
 30
0.0
 11
-28.57499999999993
 21
-0.872705019449604
 31
0.0
  0
LINE
  5
33B
330
1F
100
AcDbEntity
  8
0
  6
Continuous
 62
     1
370
    15
100
AcDbLine
 10
-41.27499999999998
 20
2.381250000000002
 30
0.0
 11
-41.27499999999998
 21
2.156653712915251
 31
0.0
  0
SPLINE
  5
33C
330
1F
100
AcDbEntity
  8
0
  6
Continuous
 62
     1
370
    15
100
AcDbSpline
210
0.0
220
0.0
230
1.0
 70
     8
 71
     3
 72
    12
 73
     8
 74
     0
 42
0.000000001
 43
0.00000001
 40
0.0
 40
0.0
 40
0.0
 40
0.0
 40
0.0432073728309205
 40
0.282366982930119
 40
0.5215500237880558
 40
0.760759902785695
 40
1.0
 40
1.0
 40
1.0
 40
1.0
 10
-36.60194947139803
 20
-2.368355160930697
 30
0.0
 10
-36.66924966434135
 20
-2.372411819970892
 30
0.0
 10
-37.10906701927269
 20
-2.398922725376778
 30
0.0
 10
-37.92145537167767
 20
-2.278590940309762
 30
0.0
 10
-39.03916210522294
 20
-2.003367988795844
 30
0.0
 10
-40.15701855389341
 20
-1.57174489354869
 30
0.0
 10
-40.90232382715919
 20
-1.196957879555178
 30
0.0
 10
-41.27499999999998
 20
-1.00955253705235
 30
0.0
  0
LINE
  5
33D
330
1F
100
AcDbEntity
  8
0
  6
Continuous
 62
     1
370
    15
100
AcDbLine
 10
-41.27499999999998
 20
-0.2040287129152669
 30
0.0
 11
-41.27499999999998
 21
-1.00955253705235
 31
0.0
  0
SPLINE
  5
33E
330
1F
100
AcDbEntity
  8
0
  6
Continuous
 62
     1
370
    15
100
AcDbSpline
210
0.0
220
0.0
230
1.0
 70
     8
 71
     3
 72
     9
 73
     5
 74
     0
 42
0.000000001
 43
0.00000001
 40
0.0
 40
0.0
 40
0.0
 40
0.0
 40
0.551784161176498
 40
1.0
 40
1.0
 40
1.0
 40
1.0
 10
-41.27499999999995
 20
-2.381250000000001
 30
0.0
 10
-40.87994917450578
 20
-2.337513343192419
 30
0.0
 10
-40.16399744321325
 20
-2.274119301924891
 30
0.0
 10
-39.44804530529865
 20
-2.045945752959177
 30
0.0
 10
-39.12714421724576
 20
-1.943674754312169
 30
0.0
  0
LINE
  5
33F
330
1F
100
AcDbEntity
  8
0
  6
Continuous
 62
     1
370
    15
100
AcDbLine
 10
-28.67027941712826
 20
2.374464975745447
 30
0.0
 11
-28.57500000000016
 21
2.380608726443363
 31
0.0
  0
LINE
  5
340
330
1F
100
AcDbEntity
  8
0
  6
Continuous
 62
     1
370
    15
100
AcDbLine
 10
-41.27499999999998
 20
-1.00955253705235
 30
0.0
 11
-41.27499999999998
 21
-2.381250000000001
 31
0.0
  0
LINE
  5
341
330
1F
100
AcDbEntity
  8
외형선
  6
Continuous
370
    15
100
AcDbLine
 10
-28.57499999999993
 20
2.38060872644352
 30
0.0
 11
-28.57499999999993
 21
2.215567085765507
 31
0.0
  0
LINE
  5
342
330
1F
100
AcDbEntity
  8
외형선
  6
Continuous
370
    15
100
AcDbLine
 10
-27.57499999999993
 20
0.0000000000000076
 30
0.0
 11
-27.57499999999993
 21
-2.381249999999987
 31
0.0
  0
LINE
  5
343
330
1F
100
AcDbEntity
  8
외형선
  6
Continuous
370
    15
100
AcDbLine
 10
-27.57499999999993
 20
2.381250000000009
 30
0.0
 11
-27.57499999999993
 21
0.0000000000000076
 31
0.0
  0
LINE
  5
344
330
1F
100
AcDbEntity
  8
외형선
  6
Continuous
370
    15
100
AcDbLine
 10
-18.68805401447656
 20
0.0000000000000076
 30
0.0
 11
-18.68805401447656
 21
-4.762499999999995
 31
0.0
  0
LINE
  5
345
330
1F
100
AcDbEntity
  8
외형선
  6
Continuous
370
    15
100
AcDbLine
 10
-18.68805401447656
 20
4.762500000000018
 30
0.0
 11
-18.68805401447656
 21
0.0000000000000076
 31
0.0
  0
SPLINE
  5
346
330
1F
100
AcDbEntity
  8
외형선
  6
Continuous
370
    15
100
AcDbSpline
210
0.0
220
0.0
230
1.0
 70
     8
 71
     3
 72
     8
 73
     4
 74
     0
 42
0.000000001
 43
0.00000001
 40
0.0
 40
0.0
 40
0.0
 40
0.0
 40
1.0
 40
1.0
 40
1.0
 40
1.0
 10
-28.5750000000001
 20
-2.380608726443341
 30
0.0
 10
-28.40756865147131
 20
-2.378365862058366
 30
0.0
 10
-28.24251325147026
 20
-2.370280290519595
 30
0.0
 10
-28.0751559953718
 20
-2.356338982850324
 30
0.0
  0
LINE
  5
347
330
1F
100
AcDbEntity
  8
외형선
  6
Continuous
370
    15
100
AcDbLine
 10
-28.0751559953718
 20
-1.134928697132494
 30
0.0
 11
-28.0751559953718
 21
-2.381249999999987
 31
0.0
  0
SPLINE
  5
348
330
1F
100
AcDbEntity
  8
외형선
  6
Continuous
370
    15
100
AcDbSpline
210
0.0
220
0.0
230
1.0
 70
     8
 71
     3
 72
     8
 73
     4
 74
     0
 42
0.000000001
 43
0.00000001
 40
0.0
 40
0.0
 40
0.0
 40
0.0
 40
1.0
 40
1.0
 40
1.0
 40
1.0
 10
-28.57500000000013
 20
-0.8727050194495045
 30
0.0
 10
-28.40756865147131
 20
-0.9626295129040723
 30
0.0
 10
-28.24251325147026
 20
-1.049983349735001
 30
0.0
 10
-28.0751559953718
 20
-1.134936347617348
 30
0.0
  0
SPLINE
  5
349
330
1F
100
AcDbEntity
  8
외형선
  6
Continuous
370
    15
100
AcDbSpline
210
0.0
220
0.0
230
1.0
 70
     8
 71
     3
 72
     8
 73
     4
 74
     0
 42
0.000000001
 43
0.00000001
 40
0.0
 40
0.0
 40
0.0
 40
0.0
 40
1.0
 40
1.0
 40
1.0
 40
1.0
 10
-28.5750000000001
 20
-0.0552598776850454
 30
0.0
 10
-28.40756865147131
 20
-0.1518830109741809
 30
0.0
 10
-28.24251325147026
 20
-0.2479137235624402
 30
0.0
 10
-28.0751559953718
 20
-0.3435377132133505
 30
0.0
  0
LINE
  5
34A
330
1F
100
AcDbEntity
  8
외형선
  6
Continuous
370
    15
100
AcDbLine
 10
-28.0751559953718
 20
2.093391605726254
 30
0.0
 11
-28.0751559953718
 21
-0.343554664795199
 31
0.0
  0
SPLINE
  5
34B
330
1F
100
AcDbEntity
  8
외형선
  6
Continuous
370
    15
100
AcDbSpline
210
0.0
220
0.0
230
1.0
 70
     8
 71
     3
 72
     8
 73
     4
 74
     0
 42
0.000000001
 43
0.00000001
 40
0.0
 40
0.0
 40
0.0
 40
0.0
 40
1.0
 40
1.0
 40
1.0
 40
1.0
 10
-28.57500000000013
 20
2.21556708576555
 30
0.0
 10
-28.40756865147131
 20
2.180146106047332
 30
0.0
 10
-28.24251325147026
 20
2.139444982988707
 30
0.0
 10
-28.0751559953718
 20
2.093387458010817
 30
0.0
  0
SPLINE
  5
34C
330
1F
100
AcDbEntity
  8
외형선
  6
Continuous
370
    15
100
AcDbSpline
210
0.0
220
0.0
230
1.0
 70
     8
 71
     3
 72
     8
 73
     4
 74
     0
 42
0.000000001
 43
0.00000001
 40
0.0
 40
0.0
 40
0.0
 40
0.0
 40
1.0
 40
1.0
 40
1.0
 40
1.0
 10
-28.5750000000001
 20
2.380608726443363
 30
0.0
 10
-28.40756865147131
 20
2.378365862058381
 30
0.0
 10
-28.24251325147026
 20
2.37028029051961
 30
0.0
 10
-28.0751559953718
 20
2.356338982850339
 30
0.0
  0
LINE
  5
34D
330
1F
100
AcDbEntity
  8
외형선
  6
Continuous
370
    15
100
AcDbLine
 10
-28.0751559953718
 20
2.381250000000009
 30
0.0
 11
-28.0751559953718
 21
2.356336511366216
 31
0.0
  0
SPLINE
  5
34E
330
1F
100
AcDbEntity
  8
외형선
  6
Continuous
370
    15
100
AcDbSpline
210
0.0
220
0.0
230
1.0
 70
    24
 71
     3
 72
    14
 73
    10
 74
     0
 42
0.000000001
 43
0.00000001
 40
0.0
 40
0.0
 40
0.0
 40
0.0
 40
0.081856597129953
 40
0.2355086897168412
 40
0.3891607823033544
 40
0.5428128748906238
 40
0.6964649674775112
 40
0.8501170600643977
 40
1.0
 40
1.0
 40
1.0
 40
1.0
 10
-28.57499999999993
 20
2.215567085765514
 30
0.0
 10
-28.57499999999993
 20
2.14638691615302
 30
0.0
 10
-28.57499999999999
 20
1.947349432662698
 30
0.0
 10
-28.5750000000001
 20
1.553164838241152
 30
0.0
 10
-28.57499999999982
 20
1.065687593269857
 30
0.0
 10
-28.57500000000005
 20
0.6041430023564591
 30
0.0
 10
-28.57499999999993
 20
0.2266920234706267
 30
0.0
 10
-28.57499999999987
 20
-0.0379734878946744
 30
0.0
 10
-28.57499999999993
 20
-0.0844250108503739
 30
0.0
 10
-28.57499999999993
 20
-0.1073623659465066
 30
0.0
  0
SPLINE
  5
34F
330
1F
100
AcDbEntity
  8
외형선
  6
Continuous
370
    15
100
AcDbSpline
210
0.0
220
0.0
230
1.0
 70
    24
 71
     3
 72
    14
 73
    10
 74
     0
 42
0.000000001
 43
0.00000001
 40
0.0
 40
0.0
 40
0.0
 40
0.0
 40
0.0996354830923284
 40
0.2488004489786776
 40
0.4022912089808828
 40
0.5514561748671667
 40
0.704946934869299
 40
0.8504701859254044
 40
1.0
 40
1.0
 40
1.0
 40
1.0
 10
-28.57499999999993
 20
-0.9298005603637374
 30
0.0
 10
-28.57499999999993
 20
-0.9652595564716857
 30
0.0
 10
-28.57499999999993
 20
-1.053804459132678
 30
0.0
 10
-28.57500000000002
 20
-1.228936860703299
 30
0.0
 10
-28.57499999999982
 20
-1.442586866265038
 30
0.0
 10
-28.57500000000007
 20
-1.674887199631143
 30
0.0
 10
-28.57499999999993
 20
-1.91136777047469
 30
0.0
 10
-28.57499999999993
 20
-2.150728237136796
 30
0.0
 10
-28.57499999999993
 20
-2.303291338767934
 30
0.0
 10
-28.57499999999993
 20
-2.380608726443405
 30
0.0
  0
CIRCLE
  5
351
330
1F
100
AcDbEntity
  8
해칭선
100
AcDbCircle
 10
133.3446237322537
 20
-37.10928677492907
 30
0.0
 40
3.000000000000012
  0
INSERT
  5
355
330
1F
100
AcDbEntity
  8
해칭선
100
AcDbBlockReference
  2
SW_DOWELSYMBOL_0
 10
133.3446237322537
 20
-37.10928677492907
 30
0.0
  0
LINE
  5
3CD
330
1F
100
AcDbEntity
  8
외형선
  6
Continuous
370
    15
100
AcDbLine
 10
-3.568700000000035
 20
3.492500000000021
 30
0.0
 11
3.568700000000035
 21
3.492500000000021
 31
0.0
  0
LINE
  5
3CE
330
1F
100
AcDbEntity
  8
외형선
  6
Continuous
370
    15
100
AcDbLine
 10
-3.568700000000035
 20
3.492500000000021
 30
0.0
 11
-4.838700000000017
 21
4.762500000000003
 31
0.0
  0
LINE
  5
3CF
330
1F
100
AcDbEntity
  8
외형선
  6
Continuous
370
    15
100
AcDbLine
 10
3.568700000000035
 20
3.492500000000021
 30
0.0
 11
4.838700000000017
 21
4.762500000000003
 31
0.0
  0
LINE
  5
3D1
330
1F
100
AcDbEntity
  8
외형선
  6
Continuous
370
    15
100
AcDbLine
 10
-4.838700000000017
 20
4.762500000000003
 30
0.0
 11
-18.68805401447657
 21
4.762500000000003
 31
0.0
  0
ENDSEC
  0
SECTION
  2
OBJECTS
  0
DICTIONARY
  5
C
330
0
100
AcDbDictionary
281
     1
  3
ACAD_GROUP
350
D
  3
ACAD_IMAGE_VARS
350
154
  3
ACAD_LAYOUT
350
1A
  3
ACAD_MLINESTYLE
350
17
  3
ACAD_PLOTSETTINGS
350
19
  3
ACAD_PLOTSTYLENAME
350
E
  3
ACAD_SCALELIST
350
47
  3
APPDATA
350
152
  3
DWGPROPS
350
41A
  0
DICTIONARY
  5
1DF
330
2
100
AcDbDictionary
280
     1
281
     1
  3
ACAD_LAYERSTATES
360
1E0
  0
DICTIONARY
  5
D
102
{ACAD_REACTORS
330
C
102
}
330
C
100
AcDbDictionary
281
     1
  0
RASTERVARIABLES
  5
154
102
{ACAD_REACTORS
330
C
102
}
330
C
100
AcDbRasterVariables
 90
        0
 70
     1
 71
     1
 72
     1
  0
DICTIONARY
  5
1A
102
{ACAD_REACTORS
330
C
102
}
330
C
100
AcDbDictionary
281
     1
  3
Layout1
350
1E
  3
Layout2
350
26
  3
Model
350
22
  0
DICTIONARY
  5
17
102
{ACAD_REACTORS
330
C
102
}
330
C
100
AcDbDictionary
281
     1
  3
Standard
350
18
  0
DICTIONARY
  5
19
102
{ACAD_REACTORS
330
C
102
}
330
C
100
AcDbDictionary
281
     1
  0
ACDBDICTIONARYWDFLT
  5
E
102
{ACAD_REACTORS
330
C
102
}
330
C
100
AcDbDictionary
281
     1
  3
Normal
350
F
100
AcDbDictionaryWithDefault
340
F
  0
DICTIONARY
  5
47
102
{ACAD_REACTORS
330
C
102
}
330
C
100
AcDbDictionary
281
     1
  3
A0
350
48
  3
A1
350
49
  3
A2
350
4A
  3
A3
350
4B
  3
A4
350
4C
  3
A5
350
4D
  3
A6
350
4E
  3
A7
350
4F
  3
A8
350
50
  3
A9
350
51
  3
B0
350
52
  3
B1
350
53
  3
B2
350
54
  3
B3
350
55
  3
B4
350
56
  3
B5
350
57
  3
B6
350
58
  3
B7
350
59
  3
B8
350
5A
  3
B9
350
5B
  3
C0
350
5C
  3
C1
350
5D
  3
C2
350
5E
  3
C3
350
5F
  3
C4
350
60
  3
C5
350
61
  3
C6
350
62
  3
C7
350
63
  3
C8
350
64
  3
C9
350
65
  3
D0
350
66
  3
D1
350
67
  3
D2
350
68
  0
DICTIONARY
  5
152
102
{ACAD_REACTORS
330
C
102
}
330
C
100
AcDbDictionary
281
     1
  0
XRECORD
  5
41A
102
{ACAD_REACTORS
330
C
102
}
330
C
100
AcDbXrecord
280
     1
  1
DWGPROPS COOKIE
  2

  3

  4

  6

  7

  8
12016016
  9

300
=
301
=
302
=
303
=
304
=
305
=
306
=
307
=
308
=
309
=
 40
0.0
 41
2458313.094965475
 42
2458319.110484004
  1

 90
        0
  0
DICTIONARY
  5
1E0
102
{ACAD_REACTORS
330
1DF
102
}
330
1DF
100
AcDbDictionary
281
     1
  0
LAYOUT
  5
1E
102
{ACAD_REACTORS
330
1A
102
}
330
1A
100
AcDbPlotSettings
  1

  2
none_device
  4

  6

 40
0.0
 41
0.0
 42
0.0
 43
0.0
 44
0.0
 45
0.0
 46
0.0
 47
0.0
 48
0.0
 49
0.0
140
0.0
141
0.0
142
1.0
143
1.0
 70
   688
 72
     1
 73
     0
 74
     5
  7

 75
    16
147
1.0
148
0.0
149
0.0
100
AcDbLayout
  1
Layout1
 70
     1
 71
     1
 10
0.0
 20
0.0
 11
420.0
 21
297.0
 12
0.0
 22
0.0
 32
0.0
 14
1.000000000000000E+20
 24
1.000000000000000E+20
 34
1.000000000000000E+20
 15
-1.000000000000000E+20
 25
-1.000000000000000E+20
 35
-1.000000000000000E+20
146
0.0
 13
0.0
 23
0.0
 33
0.0
 16
1.0
 26
0.0
 36
0.0
 17
0.0
 27
1.0
 37
0.0
 76
     0
330
1B
  0
LAYOUT
  5
26
102
{ACAD_REACTORS
330
1A
102
}
330
1A
100
AcDbPlotSettings
  1

  2
none_device
  4

  6

 40
0.0
 41
0.0
 42
0.0
 43
0.0
 44
0.0
 45
0.0
 46
0.0
 47
0.0
 48
0.0
 49
0.0
140
0.0
141
0.0
142
1.0
143
1.0
 70
   688
 72
     1
 73
     0
 74
     5
  7

 75
    16
147
1.0
148
0.0
149
0.0
100
AcDbLayout
  1
Layout2
 70
     1
 71
     2
 10
0.0
 20
0.0
 11
0.0
 21
0.0
 12
0.0
 22
0.0
 32
0.0
 14
0.0
 24
0.0
 34
0.0
 15
0.0
 25
0.0
 35
0.0
146
0.0
 13
0.0
 23
0.0
 33
0.0
 16
1.0
 26
0.0
 36
0.0
 17
0.0
 27
1.0
 37
0.0
 76
     0
330
23
  0
LAYOUT
  5
22
102
{ACAD_REACTORS
330
1A
102
}
330
1A
100
AcDbPlotSettings
  1

  2
none_device
  4
ANSI_A_(11.00_x_8.50_Inches)
  6

 40
6.35
 41
19.05
 42
6.35000508
 43
19.05000254
 44
279.4
 45
215.9
 46
93.720162631775
 47
81.01207558207211
 48
0.0
 49
0.0
140
0.0
141
0.0
142
0.0618488111804711
143
1.0
 70
  1696
 72
     0
 73
     0
 74
     0
  7

 75
     0
147
0.0235690232323232
148
0.0
149
0.0
100
AcDbLayout
  1
Model
 70
     1
 71
     0
 10
0.0
 20
0.0
 11
420.0
 21
297.0
 12
0.0
 22
0.0
 32
0.0
 14
-58.17375000000006
 24
-49.97180738881174
 34
0.0
 15
136.3446237322537
 25
38.73530345637155
 35
0.0
146
0.0
 13
0.0
 23
0.0
 33
0.0
 16
1.0
 26
0.0
 36
0.0
 17
0.0
 27
1.0
 37
0.0
 76
     0
330
1F
331
29
  0
MLINESTYLE
  5
18
102
{ACAD_REACTORS
330
17
102
}
330
17
100
AcDbMlineStyle
  2
Standard
 70
     0
  3

 62
   256
 51
90.0
 52
90.0
 71
     2
 49
0.5
 62
   256
  6
BYLAYER
 49
-0.5
 62
   256
  6
BYLAYER
  0
ACDBPLACEHOLDER
  5
F
102
{ACAD_REACTORS
330
E
102
}
330
E
  0
SCALE
  5
48
102
{ACAD_REACTORS
330
47
102
}
330
47
100
AcDbScale
 70
     0
300
1:1
140
1.0
141
1.0
290
     1
  0
SCALE
  5
49
102
{ACAD_REACTORS
330
47
102
}
330
47
100
AcDbScale
 70
     0
300
1:2
140
1.0
141
2.0
290
     0
  0
SCALE
  5
4A
102
{ACAD_REACTORS
330
47
102
}
330
47
100
AcDbScale
 70
     0
300
1:4
140
1.0
141
4.0
290
     0
  0
SCALE
  5
4B
102
{ACAD_REACTORS
330
47
102
}
330
47
100
AcDbScale
 70
     0
300
1:5
140
1.0
141
5.0
290
     0
  0
SCALE
  5
4C
102
{ACAD_REACTORS
330
47
102
}
330
47
100
AcDbScale
 70
     0
300
1:8
140
1.0
141
8.0
290
     0
  0
SCALE
  5
4D
102
{ACAD_REACTORS
330
47
102
}
330
47
100
AcDbScale
 70
     0
300
1:10
140
1.0
141
10.0
290
     0
  0
SCALE
  5
4E
102
{ACAD_REACTORS
330
47
102
}
330
47
100
AcDbScale
 70
     0
300
1:16
140
1.0
141
16.0
290
     0
  0
SCALE
  5
4F
102
{ACAD_REACTORS
330
47
102
}
330
47
100
AcDbScale
 70
     0
300
1:20
140
1.0
141
20.0
290
     0
  0
SCALE
  5
50
102
{ACAD_REACTORS
330
47
102
}
330
47
100
AcDbScale
 70
     0
300
1:30
140
1.0
141
30.0
290
     0
  0
SCALE
  5
51
102
{ACAD_REACTORS
330
47
102
}
330
47
100
AcDbScale
 70
     0
300
1:40
140
1.0
141
40.0
290
     0
  0
SCALE
  5
52
102
{ACAD_REACTORS
330
47
102
}
330
47
100
AcDbScale
 70
     0
300
1:50
140
1.0
141
50.0
290
     0
  0
SCALE
  5
53
102
{ACAD_REACTORS
330
47
102
}
330
47
100
AcDbScale
 70
     0
300
1:100
140
1.0
141
100.0
290
     0
  0
SCALE
  5
54
102
{ACAD_REACTORS
330
47
102
}
330
47
100
AcDbScale
 70
     0
300
2:1
140
2.0
141
1.0
290
     0
  0
SCALE
  5
55
102
{ACAD_REACTORS
330
47
102
}
330
47
100
AcDbScale
 70
     0
300
4:1
140
4.0
141
1.0
290
     0
  0
SCALE
  5
56
102
{ACAD_REACTORS
330
47
102
}
330
47
100
AcDbScale
 70
     0
300
8:1
140
8.0
141
1.0
290
     0
  0
SCALE
  5
57
102
{ACAD_REACTORS
330
47
102
}
330
47
100
AcDbScale
 70
     0
300
10:1
140
10.0
141
1.0
290
     0
  0
SCALE
  5
58
102
{ACAD_REACTORS
330
47
102
}
330
47
100
AcDbScale
 70
     0
300
100:1
140
100.0
141
1.0
290
     0
  0
SCALE
  5
59
102
{ACAD_REACTORS
330
47
102
}
330
47
100
AcDbScale
 70
     0
300
1/128" = 1'-0"
140
0.0078125
141
12.0
290
     0
  0
SCALE
  5
5A
102
{ACAD_REACTORS
330
47
102
}
330
47
100
AcDbScale
 70
     0
300
1/64" = 1'-0"
140
0.015625
141
12.0
290
     0
  0
SCALE
  5
5B
102
{ACAD_REACTORS
330
47
102
}
330
47
100
AcDbScale
 70
     0
300
1/32" = 1'-0"
140
0.03125
141
12.0
290
     0
  0
SCALE
  5
5C
102
{ACAD_REACTORS
330
47
102
}
330
47
100
AcDbScale
 70
     0
300
1/16" = 1'-0"
140
0.0625
141
12.0
290
     0
  0
SCALE
  5
5D
102
{ACAD_REACTORS
330
47
102
}
330
47
100
AcDbScale
 70
     0
300
3/32" = 1'-0"
140
0.09375
141
12.0
290
     0
  0
SCALE
  5
5E
102
{ACAD_REACTORS
330
47
102
}
330
47
100
AcDbScale
 70
     0
300
1/8" = 1'-0"
140
0.125
141
12.0
290
     0
  0
SCALE
  5
5F
102
{ACAD_REACTORS
330
47
102
}
330
47
100
AcDbScale
 70
     0
300
3/16" = 1'-0"
140
0.1875
141
12.0
290
     0
  0
SCALE
  5
60
102
{ACAD_REACTORS
330
47
102
}
330
47
100
AcDbScale
 70
     0
300
1/4" = 1'-0"
140
0.25
141
12.0
290
     0
  0
SCALE
  5
61
102
{ACAD_REACTORS
330
47
102
}
330
47
100
AcDbScale
 70
     0
300
3/8" = 1'-0"
140
0.375
141
12.0
290
     0
  0
SCALE
  5
62
102
{ACAD_REACTORS
330
47
102
}
330
47
100
AcDbScale
 70
     0
300
1/2" = 1'-0"
140
0.5
141
12.0
290
     0
  0
SCALE
  5
63
102
{ACAD_REACTORS
330
47
102
}
330
47
100
AcDbScale
 70
     0
300
3/4" = 1'-0"
140
0.75
141
12.0
290
     0
  0
SCALE
  5
64
102
{ACAD_REACTORS
330
47
102
}
330
47
100
AcDbScale
 70
     0
300
1" = 1'-0"
140
1.0
141
12.0
290
     0
  0
SCALE
  5
65
102
{ACAD_REACTORS
330
47
102
}
330
47
100
AcDbScale
 70
     0
300
1-1/2" = 1'-0"
140
1.5
141
12.0
290
     0
  0
SCALE
  5
66
102
{ACAD_REACTORS
330
47
102
}
330
47
100
AcDbScale
 70
     0
300
3" = 1'-0"
140
3.0
141
12.0
290
     0
  0
SCALE
  5
67
102
{ACAD_REACTORS
330
47
102
}
330
47
100
AcDbScale
 70
     0
300
6" = 1'-0"
140
6.0
141
12.0
290
     0
  0
SCALE
  5
68
102
{ACAD_REACTORS
330
47
102
}
330
47
100
AcDbScale
 70
     0
300
1'-0" = 1'-0"
140
12.0
141
12.0
290
     0
  0
ENDSEC
  0
EOF
