  0
SECTION
  2
HEADER
  9
$ACADVER
  1
AC1015
  9
$ACADMAINTVER
 70
     6
  9
$DWGCODEPAGE
  3
ANSI_949
  9
$INSBASE
 10
0.0
 20
0.0
 30
0.0
  9
$EXTMIN
 10
-61.34875000000005
 20
-49.97180738881174
 30
0.0
  9
$EXTMAX
 10
81.41936447236121
 20
40.71962500000008
 30
0.0
  9
$LIMMIN
 10
0.0
 20
0.0
  9
$LIMMAX
 10
420.0
 20
297.0
  9
$ORTHOMODE
 70
     1
  9
$REGENMODE
 70
     1
  9
$FILLMODE
 70
     1
  9
$QTEXTMODE
 70
     0
  9
$MIRRTEXT
 70
     1
  9
$LTSCALE
 40
1.0
  9
$ATTMODE
 70
     1
  9
$TEXTSIZE
 40
3.5
  9
$TRACEWID
 40
1.0
  9
$TEXTSTYLE
  7
Standard
  9
$CLAYER
  8
0
  9
$CELTYPE
  6
ByLayer
  9
$CECOLOR
 62
   256
  9
$CELTSCALE
 40
1.0
  9
$DISPSILH
 70
     0
  9
$DIMSCALE
 40
1.0
  9
$DIMASZ
 40
3.302
  9
$DIMEXO
 40
1.0
  9
$DIMDLI
 40
3.75
  9
$DIMRND
 40
0.0
  9
$DIMDLE
 40
0.0
  9
$DIMEXE
 40
1.0
  9
$DIMTP
 40
0.0
  9
$DIMTM
 40
0.0
  9
$DIMTXT
 40
3.5
  9
$DIMCEN
 40
2.5
  9
$DIMTSZ
 40
0.0
  9
$DIMTOL
 70
     0
  9
$DIMLIM
 70
     0
  9
$DIMTIH
 70
     1
  9
$DIMTOH
 70
     1
  9
$DIMSE1
 70
     0
  9
$DIMSE2
 70
     0
  9
$DIMTAD
 70
     1
  9
$DIMZIN
 70
     0
  9
$DIMBLK
  1

  9
$DIMASO
 70
     1
  9
$DIMSHO
 70
     1
  9
$DIMPOST
  1

  9
$DIMAPOST
  1

  9
$DIMALT
 70
     0
  9
$DIMALTD
 70
     3
  9
$DIMALTF
 40
0.0393700787401575
  9
$DIMLFAC
 40
1.0
  9
$DIMTOFL
 70
     1
  9
$DIMTVP
 40
0.0
  9
$DIMTIX
 70
     0
  9
$DIMSOXD
 70
     0
  9
$DIMSAH
 70
     0
  9
$DIMBLK1
  1

  9
$DIMBLK2
  1

  9
$DIMSTYLE
  2
ISO-25
  9
$DIMCLRD
 70
     0
  9
$DIMCLRE
 70
     0
  9
$DIMCLRT
 70
     0
  9
$DIMTFAC
 40
1.0
  9
$DIMGAP
 40
1.524
  9
$DIMJUST
 70
     0
  9
$DIMSD1
 70
     0
  9
$DIMSD2
 70
     0
  9
$DIMTOLJ
 70
     0
  9
$DIMTZIN
 70
     0
  9
$DIMALTZ
 70
     0
  9
$DIMALTTZ
 70
     0
  9
$DIMUPT
 70
     0
  9
$DIMDEC
 70
     2
  9
$DIMTDEC
 70
     2
  9
$DIMALTU
 70
     2
  9
$DIMALTTD
 70
     3
  9
$DIMTXSTY
  7
Standard
  9
$DIMAUNIT
 70
     0
  9
$DIMADEC
 70
     2
  9
$DIMALTRND
 40
0.0
  9
$DIMAZIN
 70
     0
  9
$DIMDSEP
 70
    44
  9
$DIMATFIT
 70
     3
  9
$DIMFRAC
 70
     0
  9
$DIMLDRBLK
  1

  9
$DIMLUNIT
 70
     2
  9
$DIMLWD
 70
    -2
  9
$DIMLWE
 70
    -2
  9
$DIMTMOVE
 70
     0
  9
$LUNITS
 70
     2
  9
$LUPREC
 70
     2
  9
$SKETCHINC
 40
1.0
  9
$FILLETRAD
 40
10.0
  9
$AUNITS
 70
     0
  9
$AUPREC
 70
     2
  9
$MENU
  1
.
  9
$ELEVATION
 40
0.0
  9
$PELEVATION
 40
0.0
  9
$THICKNESS
 40
0.0
  9
$LIMCHECK
 70
     0
  9
$CHAMFERA
 40
0.0
  9
$CHAMFERB
 40
0.0
  9
$CHAMFERC
 40
0.0
  9
$CHAMFERD
 40
0.0
  9
$SKPOLY
 70
     0
  9
$TDCREATE
 40
2458313.472083588
  9
$TDUCREATE
 40
2458313.097083588
  9
$TDUPDATE
 40
2458319.48500044
  9
$TDUUPDATE
 40
2458319.11000044
  9
$TDINDWG
 40
0.0010306481
  9
$TDUSRTIMER
 40
2458319.109953669
  9
$USRTIMER
 70
     1
  9
$ANGBASE
 50
0.0
  9
$ANGDIR
 70
     0
  9
$PDMODE
 70
     0
  9
$PDSIZE
 40
-1.0
  9
$PLINEWID
 40
0.0
  9
$SPLFRAME
 70
     0
  9
$SPLINETYPE
 70
     6
  9
$SPLINESEGS
 70
     8
  9
$HANDSEED
  5
406
  9
$SURFTAB1
 70
     6
  9
$SURFTAB2
 70
     6
  9
$SURFTYPE
 70
     6
  9
$SURFU
 70
     6
  9
$SURFV
 70
     6
  9
$UCSBASE
  2

  9
$UCSNAME
  2

  9
$UCSORG
 10
0.0
 20
0.0
 30
0.0
  9
$UCSXDIR
 10
1.0
 20
0.0
 30
0.0
  9
$UCSYDIR
 10
0.0
 20
1.0
 30
0.0
  9
$UCSORTHOREF
  2

  9
$UCSORTHOVIEW
 70
     0
  9
$UCSORGTOP
 10
0.0
 20
0.0
 30
0.0
  9
$UCSORGBOTTOM
 10
0.0
 20
0.0
 30
0.0
  9
$UCSORGLEFT
 10
0.0
 20
0.0
 30
0.0
  9
$UCSORGRIGHT
 10
0.0
 20
0.0
 30
0.0
  9
$UCSORGFRONT
 10
0.0
 20
0.0
 30
0.0
  9
$UCSORGBACK
 10
0.0
 20
0.0
 30
0.0
  9
$PUCSBASE
  2

  9
$PUCSNAME
  2

  9
$PUCSORG
 10
0.0
 20
0.0
 30
0.0
  9
$PUCSXDIR
 10
1.0
 20
0.0
 30
0.0
  9
$PUCSYDIR
 10
0.0
 20
1.0
 30
0.0
  9
$PUCSORTHOREF
  2

  9
$PUCSORTHOVIEW
 70
     0
  9
$PUCSORGTOP
 10
0.0
 20
0.0
 30
0.0
  9
$PUCSORGBOTTOM
 10
0.0
 20
0.0
 30
0.0
  9
$PUCSORGLEFT
 10
0.0
 20
0.0
 30
0.0
  9
$PUCSORGRIGHT
 10
0.0
 20
0.0
 30
0.0
  9
$PUCSORGFRONT
 10
0.0
 20
0.0
 30
0.0
  9
$PUCSORGBACK
 10
0.0
 20
0.0
 30
0.0
  9
$USERI1
 70
     0
  9
$USERI2
 70
     0
  9
$USERI3
 70
     0
  9
$USERI4
 70
     0
  9
$USERI5
 70
     0
  9
$USERR1
 40
0.0
  9
$USERR2
 40
0.0
  9
$USERR3
 40
0.0
  9
$USERR4
 40
0.0
  9
$USERR5
 40
0.0
  9
$WORLDVIEW
 70
     1
  9
$SHADEDGE
 70
     3
  9
$SHADEDIF
 70
    70
  9
$TILEMODE
 70
     1
  9
$MAXACTVP
 70
    64
  9
$PINSBASE
 10
0.0
 20
0.0
 30
0.0
  9
$PLIMCHECK
 70
     0
  9
$PEXTMIN
 10
1.000000000000000E+20
 20
1.000000000000000E+20
 30
1.000000000000000E+20
  9
$PEXTMAX
 10
-1.000000000000000E+20
 20
-1.000000000000000E+20
 30
-1.000000000000000E+20
  9
$PLIMMIN
 10
0.0
 20
0.0
  9
$PLIMMAX
 10
0.0
 20
0.0
  9
$UNITMODE
 70
     0
  9
$VISRETAIN
 70
     1
  9
$PLINEGEN
 70
     0
  9
$PSLTSCALE
 70
     1
  9
$TREEDEPTH
 70
  3020
  9
$CMLSTYLE
  2
Standard
  9
$CMLJUST
 70
     0
  9
$CMLSCALE
 40
20.0
  9
$PROXYGRAPHICS
 70
     1
  9
$MEASUREMENT
 70
     1
  9
$CELWEIGHT
370
    -1
  9
$ENDCAPS
280
     0
  9
$JOINSTYLE
280
     0
  9
$LWDISPLAY
290
     1
  9
$INSUNITS
 70
     4
  9
$HYPERLINKBASE
  1

  9
$STYLESHEET
  1

  9
$XEDIT
290
     1
  9
$CEPSNTYPE
380
     0
  9
$PSTYLEMODE
290
     1
  9
$FINGERPRINTGUID
  2
{AF1F6702-26AF-4E25-85D6-D68D96717C03}
  9
$VERSIONGUID
  2
{FAEB1C32-E019-11D5-929B-00C0DF256EC4}
  9
$EXTNAMES
290
     1
  9
$PSVPSCALE
 40
0.0
  9
$OLESTARTUP
290
     0
  0
ENDSEC
  0
SECTION
  2
CLASSES
  0
CLASS
  1
ACDBDICTIONARYWDFLT
  2
AcDbDictionaryWithDefault
  3
ObjectDBX Classes
 90
        0
280
     0
281
     0
  0
CLASS
  1
VISUALSTYLE
  2
AcDbVisualStyle
  3
ObjectDBX Classes
 90
     4095
280
     0
281
     0
  0
CLASS
  1
MATERIAL
  2
AcDbMaterial
  3
ObjectDBX Classes
 90
     1153
280
     0
281
     0
  0
CLASS
  1
SCALE
  2
AcDbScale
  3
ObjectDBX Classes
 90
     1153
280
     0
281
     0
  0
CLASS
  1
SUN
  2
AcDbSun
  3
SCENEOE
 90
     1153
280
     0
281
     0
  0
CLASS
  1
ACDBPLACEHOLDER
  2
AcDbPlaceHolder
  3
ObjectDBX Classes
 90
        0
280
     0
281
     0
  0
CLASS
  1
LAYOUT
  2
AcDbLayout
  3
ObjectDBX Classes
 90
        0
280
     0
281
     0
  0
CLASS
  1
TABLESTYLE
  2
AcDbTableStyle
  3
ObjectDBX Classes
 90
     4095
280
     0
281
     0
  0
CLASS
  1
MLEADERSTYLE
  2
AcDbMLeaderStyle
  3
ACDB_MLEADERSTYLE_CLASS
 90
     4095
280
     0
281
     0
  0
CLASS
  1
RASTERVARIABLES
  2
AcDbRasterVariables
  3
ISM
 90
        0
280
     0
281
     0
  0
ENDSEC
  0
SECTION
  2
TABLES
  0
TABLE
  2
VPORT
  5
8
330
0
100
AcDbSymbolTable
 70
     1
  0
VPORT
  5
29
330
8
100
AcDbSymbolTableRecord
100
AcDbViewportTableRecord
  2
*Active
 70
     0
 10
0.0
 20
0.0
 11
1.0
 21
1.0
 12
6.497081730237506
 22
-3.671544657960592
 13
0.0
 23
0.0
 14
10.0
 24
10.0
 15
10.0
 25
10.0
 16
0.0
 26
0.0
 36
1.0
 17
0.0
 27
0.0
 37
0.0
 40
133.4627490440965
 41
1.632093933463796
 42
50.0
 43
0.0
 44
0.0
 50
0.0
 51
0.0
 71
    16
 72
  2000
 73
     1
 74
     3
 75
     0
 76
     0
 77
     0
 78
     0
281
     0
 65
     1
110
0.0
120
0.0
130
0.0
111
1.0
121
0.0
131
0.0
112
0.0
122
1.0
132
0.0
 79
     0
146
0.0
  0
ENDTAB
  0
TABLE
  2
LTYPE
  5
5
330
0
100
AcDbSymbolTable
 70
     6
  0
LTYPE
  5
14
330
5
100
AcDbSymbolTableRecord
100
AcDbLinetypeTableRecord
  2
ByBlock
 70
     0
  3

 72
    65
 73
     0
 40
0.0
  0
LTYPE
  5
15
330
5
100
AcDbSymbolTableRecord
100
AcDbLinetypeTableRecord
  2
ByLayer
 70
     0
  3

 72
    65
 73
     0
 40
0.0
  0
LTYPE
  5
16
330
5
100
AcDbSymbolTableRecord
100
AcDbLinetypeTableRecord
  2
Continuous
 70
     0
  3
Solid line
 72
    65
 73
     0
 40
0.0
  0
LTYPE
  5
6A
330
5
100
AcDbSymbolTableRecord
100
AcDbLinetypeTableRecord
  2
HIDDEN
 70
     0
  3
Hidden __ __ __ __ __ __ __ __ __ __ __ __ __ __
 72
    65
 73
     2
 40
1.905
 49
1.27
 74
     0
 49
-0.635
 74
     0
  0
LTYPE
  5
6B
330
5
100
AcDbSymbolTableRecord
100
AcDbLinetypeTableRecord
  2
PHANTOM
 70
     0
  3
Phantom ______  __  __  ______  __  __  ______
 72
    65
 73
     6
 40
12.7
 49
6.35
 74
     0
 49
-1.27
 74
     0
 49
1.27
 74
     0
 49
-1.27
 74
     0
 49
1.27
 74
     0
 49
-1.27
 74
     0
  0
LTYPE
  5
6C
330
5
100
AcDbSymbolTableRecord
100
AcDbLinetypeTableRecord
  2
CENTER
 70
     0
  3
Center ____ _ ____ _ ____ _ ____ _ ____ _ ____
 72
    65
 73
     4
 40
10.16
 49
6.35
 74
     0
 49
-1.27
 74
     0
 49
1.27
 74
     0
 49
-1.27
 74
     0
  0
LTYPE
  5
6D
330
5
100
AcDbSymbolTableRecord
100
AcDbLinetypeTableRecord
  2
CENTERX2
 70
     0
  3
Center (2x) ________  __  ________  __  _____
 72
    65
 73
     4
 40
20.32
 49
12.7
 74
     0
 49
-2.54
 74
     0
 49
2.54
 74
     0
 49
-2.54
 74
     0
  0
LTYPE
  5
6E
330
5
100
AcDbSymbolTableRecord
100
AcDbLinetypeTableRecord
  2
DOT2
 70
     0
  3
Dot (.5x) ........................................
 72
    65
 73
     2
 40
0.635
 49
0.0
 74
     0
 49
-0.635
 74
     0
  0
ENDTAB
  0
TABLE
  2
LAYER
  5
2
102
{ACAD_XDICTIONARY
360
1D7
102
}
330
0
100
AcDbSymbolTable
 70
    18
  0
LAYER
  5
10
330
2
100
AcDbSymbolTableRecord
100
AcDbLayerTableRecord
  2
0
 70
     0
 62
     7
  6
Continuous
370
    -3
390
F
  0
LAYER
  5
6F
330
2
100
AcDbSymbolTableRecord
100
AcDbLayerTableRecord
  2
FORMAT
 70
     0
 62
     2
  6
Continuous
370
    -3
390
F
  0
LAYER
  5
70
330
2
100
AcDbSymbolTableRecord
100
AcDbLayerTableRecord
  2
외형선
 70
     0
 62
     4
  6
Continuous
370
    30
390
F
  0
LAYER
  5
71
330
2
100
AcDbSymbolTableRecord
100
AcDbLayerTableRecord
  2
숨은선
 70
     0
 62
     2
  6
HIDDEN
370
    15
390
F
  0
LAYER
  5
72
330
2
100
AcDbSymbolTableRecord
100
AcDbLayerTableRecord
  2
중심선
 70
     0
 62
     1
  6
CENTERX2
370
    -3
390
F
  0
LAYER
  5
73
330
2
100
AcDbSymbolTableRecord
100
AcDbLayerTableRecord
  2
파단선
 70
     0
 62
     4
  6
Continuous
370
    -3
390
F
  0
LAYER
  5
74
330
2
100
AcDbSymbolTableRecord
100
AcDbLayerTableRecord
  2
해칭선
 70
     0
 62
   100
  6
Continuous
370
    -3
390
F
  0
LAYER
  5
75
330
2
100
AcDbSymbolTableRecord
100
AcDbLayerTableRecord
  2
가는실선
 70
     0
 62
     4
  6
Continuous
370
    -3
390
F
  0
LAYER
  5
76
330
2
100
AcDbSymbolTableRecord
100
AcDbLayerTableRecord
  2
치수_보조선
 70
     0
 62
     4
  6
Continuous
370
    -3
390
F
  0
LAYER
  5
77
330
2
100
AcDbSymbolTableRecord
100
AcDbLayerTableRecord
  2
치수문자_일반주서
 70
     0
 62
     7
  6
Continuous
370
    15
390
F
  0
LAYER
  5
78
330
2
100
AcDbSymbolTableRecord
100
AcDbLayerTableRecord
  2
개별주서
 70
     0
 62
   100
  6
Continuous
370
    30
390
F
  0
LAYER
  5
79
330
2
100
AcDbSymbolTableRecord
100
AcDbLayerTableRecord
  2
중간선
 70
     0
 62
     2
  6
Continuous
370
    15
390
F
  0
LAYER
  5
7A
330
2
100
AcDbSymbolTableRecord
100
AcDbLayerTableRecord
  2
윤곽선
 70
     0
 62
     3
  6
Continuous
370
    40
390
F
  0
LAYER
  5
7B
330
2
100
AcDbSymbolTableRecord
100
AcDbLayerTableRecord
  2
중심마크
 70
     0
 62
   100
  6
Continuous
370
    30
390
F
  0
LAYER
  5
7C
330
2
100
AcDbSymbolTableRecord
100
AcDbLayerTableRecord
  2
가상선
 70
     0
 62
     4
  6
PHANTOM
370
    -3
390
F
  0
LAYER
  5
7D
330
2
100
AcDbSymbolTableRecord
100
AcDbLayerTableRecord
  2
특수지정선
 70
     0
 62
     5
  6
CENTERX2
370
    60
390
F
  0
LAYER
  5
7E
330
2
100
AcDbSymbolTableRecord
100
AcDbLayerTableRecord
  2
참조1
 70
     0
 62
    -4
  6
Continuous
370
    -3
390
F
  0
LAYER
  5
152
330
2
100
AcDbSymbolTableRecord
100
AcDbLayerTableRecord
  2
Defpoints
 70
     0
 62
     7
  6
Continuous
290
     0
370
    -3
390
F
  0
ENDTAB
  0
TABLE
  2
STYLE
  5
3
330
0
100
AcDbSymbolTable
 70
     2
  0
STYLE
  5
11
330
3
100
AcDbSymbolTableRecord
100
AcDbTextStyleTableRecord
  2
Standard
 70
     0
 40
0.0
 41
1.0
 50
0.0
 71
     0
 42
3.5
  3
txt
  4

  0
STYLE
  5
94
330
3
100
AcDbSymbolTableRecord
100
AcDbTextStyleTableRecord
  2
SLDTEXTSTYLE0
 70
     0
 40
0.0
 41
0.75
 50
0.0
 71
     0
 42
3.5
  3
TXT
  4

  0
ENDTAB
  0
TABLE
  2
VIEW
  5
6
330
0
100
AcDbSymbolTable
 70
     0
  0
ENDTAB
  0
TABLE
  2
UCS
  5
7
330
0
100
AcDbSymbolTable
 70
     0
  0
ENDTAB
  0
TABLE
  2
APPID
  5
9
330
0
100
AcDbSymbolTable
 70
     1
  0
APPID
  5
12
330
9
100
AcDbSymbolTableRecord
100
AcDbRegAppTableRecord
  2
ACAD
 70
     0
  0
ENDTAB
  0
TABLE
  2
DIMSTYLE
  5
A
330
0
100
AcDbSymbolTable
 70
     4
100
AcDbDimStyleTable
  0
DIMSTYLE
105
27
330
A
100
AcDbSymbolTableRecord
100
AcDbDimStyleTableRecord
  2
ISO-25
 70
     0
 41
2.5
 42
0.625
 43
3.75
 44
1.25
 73
     0
 74
     0
 77
     1
 78
     8
140
2.5
141
2.5
143
0.03937007874016
147
0.625
171
     3
172
     1
178
     0
271
     2
272
     2
274
     3
278
    44
283
     0
284
     8
340
11
  0
DIMSTYLE
105
CF
330
A
100
AcDbSymbolTableRecord
100
AcDbDimStyleTableRecord
  2
SLDDIMSTYLE0
 70
     0
 41
3.302
 44
0.0
 45
0.000000001
 73
     0
 74
     0
 77
     1
 78
    12
 79
     3
140
3.5
143
0.0393700787401575
147
0.875
148
0.000000001
170
     1
173
     1
178
     0
271
     2
272
     2
276
     2
284
    12
340
94
  0
DIMSTYLE
105
F7
330
A
100
AcDbSymbolTableRecord
100
AcDbDimStyleTableRecord
  2
SLDDIMSTYLE1
 70
     0
 41
3.302
 44
0.0
 45
0.000000001
 73
     0
 74
     0
 77
     1
 78
     4
 79
     1
140
3.5
143
0.0393700787401575
147
0.875
148
0.000000001
170
     1
173
     1
178
     0
271
     2
272
     2
276
     2
284
    12
340
94
  0
DIMSTYLE
105
10B
102
{ACAD_REACTORS
330
10A
330
CE
330
E2
330
F6
102
}
330
A
100
AcDbSymbolTableRecord
100
AcDbDimStyleTableRecord
  2
SLDDIMSTYLE2
 70
     0
 41
3.302
 44
0.0
 45
0.000000001
 73
     0
 74
     0
 77
     1
 78
    12
 79
     3
140
3.5
143
0.0393700787401575
147
0.875
148
0.000000001
170
     1
172
     1
173
     1
178
     0
271
     2
272
     2
276
     2
284
    12
289
     0
340
94
  0
ENDTAB
  0
TABLE
  2
BLOCK_RECORD
  5
1
330
0
100
AcDbSymbolTable
 70
    19
  0
BLOCK_RECORD
  5
1F
330
1
100
AcDbSymbolTableRecord
100
AcDbBlockTableRecord
  2
*Model_Space
340
22
  0
BLOCK_RECORD
  5
1B
330
1
100
AcDbSymbolTableRecord
100
AcDbBlockTableRecord
  2
*Paper_Space
340
1E
  0
BLOCK_RECORD
  5
23
330
1
100
AcDbSymbolTableRecord
100
AcDbBlockTableRecord
  2
*Paper_Space0
340
26
  0
BLOCK_RECORD
  5
7F
330
1
100
AcDbSymbolTableRecord
100
AcDbBlockTableRecord
  2
블럭10
340
0
102
{BLKREFS
331
C7
102
}
  0
BLOCK_RECORD
  5
D0
330
1
100
AcDbSymbolTableRecord
100
AcDbBlockTableRecord
  2
_D
340
0
  0
BLOCK_RECORD
  5
E3
330
1
100
AcDbSymbolTableRecord
100
AcDbBlockTableRecord
  2
_D_1
340
0
  0
BLOCK_RECORD
  5
F8
330
1
100
AcDbSymbolTableRecord
100
AcDbBlockTableRecord
  2
_D_2
340
0
  0
BLOCK_RECORD
  5
10C
330
1
100
AcDbSymbolTableRecord
100
AcDbBlockTableRecord
  2
_D_3
340
0
  0
BLOCK_RECORD
  5
126
330
1
100
AcDbSymbolTableRecord
100
AcDbBlockTableRecord
  2
SW_DOWELSYMBOL_0
340
0
102
{BLKREFS
331
12C
102
}
  0
BLOCK_RECORD
  5
1DB
330
1
100
AcDbSymbolTableRecord
100
AcDbBlockTableRecord
  2
*D7
340
0
  0
BLOCK_RECORD
  5
1EA
330
1
100
AcDbSymbolTableRecord
100
AcDbBlockTableRecord
  2
*D8
340
0
  0
BLOCK_RECORD
  5
1F9
330
1
100
AcDbSymbolTableRecord
100
AcDbBlockTableRecord
  2
*D9
340
0
  0
BLOCK_RECORD
  5
232
330
1
100
AcDbSymbolTableRecord
100
AcDbBlockTableRecord
  2
*D10
340
0
  0
BLOCK_RECORD
  5
241
330
1
100
AcDbSymbolTableRecord
100
AcDbBlockTableRecord
  2
*D11
340
0
  0
BLOCK_RECORD
  5
250
330
1
100
AcDbSymbolTableRecord
100
AcDbBlockTableRecord
  2
*D12
340
0
  0
BLOCK_RECORD
  5
2EB
330
1
100
AcDbSymbolTableRecord
100
AcDbBlockTableRecord
  2
*D13
340
0
  0
BLOCK_RECORD
  5
2FA
330
1
100
AcDbSymbolTableRecord
100
AcDbBlockTableRecord
  2
*D14
340
0
  0
BLOCK_RECORD
  5
309
330
1
100
AcDbSymbolTableRecord
100
AcDbBlockTableRecord
  2
*D15
340
0
  0
BLOCK_RECORD
  5
343
330
1
100
AcDbSymbolTableRecord
100
AcDbBlockTableRecord
  2
*D16
340
0
  0
BLOCK_RECORD
  5
352
330
1
100
AcDbSymbolTableRecord
100
AcDbBlockTableRecord
  2
*D17
340
0
  0
BLOCK_RECORD
  5
361
330
1
100
AcDbSymbolTableRecord
100
AcDbBlockTableRecord
  2
*D18
340
0
  0
ENDTAB
  0
ENDSEC
  0
SECTION
  2
BLOCKS
  0
BLOCK
  5
20
330
1F
100
AcDbEntity
  8
0
100
AcDbBlockBegin
  2
*Model_Space
 70
     0
 10
0.0
 20
0.0
 30
0.0
  3
*Model_Space
  1
*Model_Space
  0
ENDBLK
  5
21
330
1F
100
AcDbEntity
  8
0
100
AcDbBlockEnd
  0
BLOCK
  5
1C
330
1B
100
AcDbEntity
 67
     1
  8
0
100
AcDbBlockBegin
  2
*Paper_Space
 70
     0
 10
0.0
 20
0.0
 30
0.0
  3
*Paper_Space
  1
*Paper_Space
  0
ENDBLK
  5
1D
330
1B
100
AcDbEntity
 67
     1
  8
0
100
AcDbBlockEnd
  0
BLOCK
  5
24
330
23
100
AcDbEntity
  8
0
100
AcDbBlockBegin
  2
*Paper_Space0
 70
     0
 10
0.0
 20
0.0
 30
0.0
  3
*Paper_Space0
  1
*Paper_Space0
  0
ENDBLK
  5
25
330
23
100
AcDbEntity
  8
0
100
AcDbBlockEnd
  0
BLOCK
  5
80
330
7F
100
AcDbEntity
  8
0
100
AcDbBlockBegin
  2
블럭10
 70
     2
 10
0.0
 20
0.0
 30
0.0
  3
블럭10
  1
블럭10
  0
ELLIPSE
  5
82
330
7F
100
AcDbEntity
  8
중심선
100
AcDbEllipse
 10
20.54032771741204
 20
12.0471743016438
 30
0.0
 11
6.600054785286829
 21
-1.261213355974178E-13
 31
0.0
210
0.0
220
0.0
230
1.0
 40
0.636358354079598
 41
0.9219305317359503
 42
6.513795318482858
  0
ELLIPSE
  5
83
330
7F
100
AcDbEntity
  8
중심선
100
AcDbEllipse
 10
20.54032771746488
 20
12.04717430159265
 30
0.0
 11
3.960054785062283
 21
1.540847449632565E-10
 31
0.0
210
0.0
220
0.0
230
1.0
 40
0.3939339440162632
 41
1.131841032648279
 42
5.62031148352944
  0
LINE
  5
84
330
7F
100
AcDbEntity
  8
중심선
100
AcDbLine
 10
2.268634060543552
 20
16.24717430164393
 30
0.0
 11
5.714909304380834
 21
16.24717430164393
 31
0.0
  0
LINE
  5
85
330
7F
100
AcDbEntity
  8
중심선
100
AcDbLine
 10
5.245725140726316
 20
7.84717430164391
 30
0.0
 11
8.692000384563599
 21
7.84717430164391
 31
0.0
  0
LINE
  5
86
330
7F
100
AcDbEntity
  8
중심선
100
AcDbLine
 10
15.74043728645272
 20
16.24717430164393
 30
0.0
 11
8.692000384563599
 21
7.84717430164391
 31
0.0
  0
LINE
  5
87
330
7F
100
AcDbEntity
  8
중심선
100
AcDbLine
 10
0.1404042013395286
 20
13.71084872107135
 30
0.0
 11
3.58671253028996
 21
13.71088815037384
 31
0.0
  0
LINE
  5
88
330
7F
100
AcDbEntity
  8
중심선
100
AcDbLine
 10
2.750260043222114
 20
10.84717430164391
 30
0.0
 11
6.196535287059397
 21
10.84717430164391
 31
0.0
  0
LINE
  5
89
330
7F
100
AcDbEntity
  8
중심선
100
AcDbLine
 10
12.29416204261559
 20
16.24717430164393
 30
0.0
 11
5.245725140726316
 21
7.84717430164391
 31
0.0
  0
LINE
  5
8A
330
7F
100
AcDbEntity
  8
중심선
100
AcDbLine
 10
10.72767329541681
 20
16.24717430164393
 30
0.0
 11
6.196535287059397
 21
10.84717430164391
 31
0.0
  0
LINE
  5
8B
330
7F
100
AcDbEntity
  8
중심선
100
AcDbLine
 10
7.28139805157953
 20
16.24717430164393
 30
0.0
 11
2.750260043222114
 21
10.84717430164391
 31
0.0
  0
LINE
  5
8C
330
7F
100
AcDbEntity
  8
중심선
100
AcDbLine
 10
5.714909304380834
 20
16.24717430164393
 30
0.0
 11
3.58671253028996
 21
13.71088815037384
 31
0.0
  0
LINE
  5
8D
330
7F
100
AcDbEntity
  8
중심선
100
AcDbLine
 10
2.268634060543552
 20
16.24717430164393
 30
0.0
 11
0.1404042013395286
 21
13.71084872107135
 31
0.0
  0
LINE
  5
8E
330
7F
100
AcDbEntity
  8
중심선
100
AcDbLine
 10
7.28139805157953
 20
16.24717430164393
 30
0.0
 11
10.72767329541681
 21
16.24717430164393
 31
0.0
  0
LINE
  5
8F
330
7F
100
AcDbEntity
  8
중심선
100
AcDbLine
 10
12.29416204261559
 20
16.24717430164393
 30
0.0
 11
15.74043728645272
 21
16.24717430164393
 31
0.0
  0
LINE
  5
90
330
7F
100
AcDbEntity
  8
중심선
100
AcDbLine
 10
19.22036997980202
 20
11.08717430171403
 30
0.0
 11
23.66174974927406
 21
11.08717430171406
 31
0.0
  0
LINE
  5
91
330
7F
100
AcDbEntity
  8
중심선
100
AcDbLine
 10
19.22039502424796
 20
13.00717430171391
 30
0.0
 11
19.22036997980202
 21
11.08717430171403
 31
0.0
  0
LINE
  5
92
330
7F
100
AcDbEntity
  8
중심선
100
AcDbLine
 10
19.22039502424796
 20
13.00717430171391
 30
0.0
 11
26.96566020931264
 21
13.00717430171391
 31
0.0
  0
LINE
  5
93
330
7F
100
AcDbEntity
  8
중심선
100
AcDbLine
 10
22.22332737316547
 20
13.45928029700563
 30
0.0
 11
24.52862924686651
 21
15.39360700705356
 31
0.0
  0
ATTDEF
  5
95
330
7F
100
AcDbEntity
  8
FORMAT
 62
     2
100
AcDbText
 10
4.408487351596664
 20
2.075366912832191
 30
0.0
 40
4.233333333333333
  1
E1053022
 41
0.75
  7
SLDTEXTSTYLE0
 11
4.408487351596664
 21
-0.0412997538344756
 31
0.0
100
AcDbAttributeDefinition
  3

  2
AUTOATTR0
 70
     0
 74
     1
  0
ENDBLK
  5
81
330
7F
100
AcDbEntity
  8
0
100
AcDbBlockEnd
  0
BLOCK
  5
D1
330
D0
100
AcDbEntity
  8
0
100
AcDbBlockBegin
  2
_D
 70
     0
 10
0.0
 20
0.0
 30
0.0
  3
_D
  1
_D
  0
LINE
  5
D3
330
D0
100
AcDbEntity
  8
치수문자_일반주서
 62
     0
370
    -2
100
AcDbLine
 10
44.51250000000005
 20
4.365625000000007
 30
0.0
 11
60.13033765006254
 21
4.365625000000065
 31
0.0
  0
LINE
  5
D4
330
D0
100
AcDbEntity
  8
치수문자_일반주서
 62
     0
370
    -2
100
AcDbLine
 10
44.51250000000003
 20
-4.365624999999993
 30
0.0
 11
60.13033765006257
 21
-4.365624999999934
 31
0.0
  0
LINE
  5
D5
330
D0
100
AcDbEntity
  8
치수문자_일반주서
 62
     0
370
    -2
100
AcDbLine
 10
60.13033765006254
 20
4.365625000000065
 30
0.0
 11
60.13033765006242
 21
40.71962500000008
 31
0.0
  0
LINE
  5
D6
330
D0
100
AcDbEntity
  8
치수문자_일반주서
 62
     0
370
    -2
100
AcDbLine
 10
60.13033765006254
 20
4.365625000000065
 30
0.0
 11
60.13033765006257
 21
-4.365624999999934
 31
0.0
  0
LINE
  5
D7
330
D0
100
AcDbEntity
  8
치수문자_일반주서
 62
     0
370
    -2
100
AcDbLine
 10
60.13033765006253
 20
7.667625000000065
 30
0.0
 11
60.13033765006251
 21
10.96962500000006
 31
0.0
  0
LINE
  5
D8
330
D0
100
AcDbEntity
  8
치수문자_일반주서
 62
     0
370
    -2
100
AcDbLine
 10
60.13033765006259
 20
-7.667624999999934
 30
0.0
 11
60.1303376500626
 21
-10.96962499999993
 31
0.0
  0
SOLID
  5
D9
330
D0
100
AcDbEntity
  8
치수문자_일반주서
 62
     0
100
AcDbTrace
 10
59.58000431672919
 20
7.667625000000063
 30
0.0
 11
60.68067098339586
 21
7.667625000000067
 31
0.0
 12
60.13033765006254
 22
4.365625000000065
 32
0.0
 13
60.13033765006254
 23
4.365625000000065
 33
0.0
  0
SOLID
  5
DA
330
D0
100
AcDbEntity
  8
치수문자_일반주서
 62
     0
100
AcDbTrace
 10
60.68067098339592
 20
-7.667624999999932
 30
0.0
 11
59.58000431672925
 21
-7.667624999999935
 31
0.0
 12
60.13033765006257
 22
-4.365624999999934
 32
0.0
 13
60.13033765006257
 23
-4.365624999999934
 33
0.0
  0
MTEXT
  5
DB
330
D0
100
AcDbEntity
  8
치수문자_일반주서
 62
     0
100
AcDbMText
 10
55.75533765006247
 20
25.84462500000007
 30
0.0
 40
3.5
 41
0.0
 71
     2
 72
     1
  1
\A1;%%c8.73 [11/32]
  7
SLDTEXTSTYLE0
 11
-3.255170729323293E-15
 21
1.0
 31
0.0
 73
     1
 44
1.0
  0
POINT
  5
DC
330
D0
100
AcDbEntity
  8
Defpoints
 62
     0
100
AcDbPoint
 10
44.45000000000005
 20
4.365625000000007
 30
0.0
  0
POINT
  5
25C
330
D0
100
AcDbEntity
  8
Defpoints
 62
     0
100
AcDbPoint
 10
44.45000000000003
 20
-4.365624999999993
 30
0.0
  0
POINT
  5
25D
330
D0
100
AcDbEntity
  8
Defpoints
 62
     0
100
AcDbPoint
 10
60.13033765006257
 20
-4.365624999999935
 30
0.0
  0
ENDBLK
  5
D2
330
D0
100
AcDbEntity
  8
0
100
AcDbBlockEnd
  0
BLOCK
  5
E4
330
E3
100
AcDbEntity
  8
0
100
AcDbBlockBegin
  2
_D_1
 70
     0
 10
0.0
 20
0.0
 30
0.0
  3
_D_1
  1
_D_1
  0
LINE
  5
E6
330
E3
100
AcDbEntity
  8
치수문자_일반주서
 62
     0
370
    -2
100
AcDbLine
 10
44.45000000000002
 20
4.428125000000006
 30
0.0
 11
44.45000000000002
 21
15.65618833894388
 31
0.0
  0
LINE
  5
E7
330
E3
100
AcDbEntity
  8
치수문자_일반주서
 62
     0
370
    -2
100
AcDbLine
 10
25.4
 20
4.354119513159953
 30
0.0
 11
25.4
 21
15.65618833894388
 31
0.0
  0
LINE
  5
E8
330
E3
100
AcDbEntity
  8
치수문자_일반주서
 62
     0
370
    -2
100
AcDbLine
 10
25.4
 20
15.65618833894388
 30
0.0
 11
-6.141500000000001
 21
15.65618833894388
 31
0.0
  0
LINE
  5
E9
330
E3
100
AcDbEntity
  8
치수문자_일반주서
 62
     0
370
    -2
100
AcDbLine
 10
44.45000000000002
 20
15.65618833894388
 30
0.0
 11
25.4
 21
15.65618833894388
 31
0.0
  0
LINE
  5
EA
330
E3
100
AcDbEntity
  8
치수문자_일반주서
 62
     0
370
    -2
100
AcDbLine
 10
47.75200000000002
 20
15.65618833894388
 30
0.0
 11
51.05400000000002
 21
15.65618833894388
 31
0.0
  0
LINE
  5
EB
330
E3
100
AcDbEntity
  8
치수문자_일반주서
 62
     0
370
    -2
100
AcDbLine
 10
22.098
 20
15.65618833894388
 30
0.0
 11
18.796
 21
15.65618833894388
 31
0.0
  0
SOLID
  5
EC
330
E3
100
AcDbEntity
  8
치수문자_일반주서
 62
     0
100
AcDbTrace
 10
47.75200000000002
 20
16.20652167227722
 30
0.0
 11
47.75200000000002
 21
15.10585500561055
 31
0.0
 12
44.45000000000002
 22
15.65618833894388
 32
0.0
 13
44.45000000000002
 23
15.65618833894388
 33
0.0
  0
SOLID
  5
ED
330
E3
100
AcDbEntity
  8
치수문자_일반주서
 62
     0
100
AcDbTrace
 10
22.098
 20
15.10585500561055
 30
0.0
 11
22.098
 21
16.20652167227722
 31
0.0
 12
25.4
 22
15.65618833894388
 32
0.0
 13
25.4
 23
15.65618833894388
 33
0.0
  0
MTEXT
  5
EE
330
E3
100
AcDbEntity
  8
치수문자_일반주서
 62
     0
100
AcDbMText
 10
6.327249999999999
 20
20.03118833894388
 30
0.0
 40
3.5
 41
0.0
 71
     2
 72
     1
  1
\A1;19.05 [3/4]
  7
SLDTEXTSTYLE0
 73
     1
 44
1.0
  0
POINT
  5
EF
330
E3
100
AcDbEntity
  8
Defpoints
 62
     0
100
AcDbPoint
 10
44.45000000000002
 20
4.365625000000006
 30
0.0
  0
POINT
  5
25E
330
E3
100
AcDbEntity
  8
Defpoints
 62
     0
100
AcDbPoint
 10
25.4
 20
4.291619513159953
 30
0.0
  0
POINT
  5
25F
330
E3
100
AcDbEntity
  8
Defpoints
 62
     0
100
AcDbPoint
 10
25.4
 20
15.65618833894388
 30
0.0
  0
ENDBLK
  5
E5
330
E3
100
AcDbEntity
  8
0
100
AcDbBlockEnd
  0
BLOCK
  5
F9
330
F8
100
AcDbEntity
  8
0
100
AcDbBlockBegin
  2
_D_2
 70
     0
 10
0.0
 20
0.0
 30
0.0
  3
_D_2
  1
_D_2
  0
LINE
  5
FB
330
F8
100
AcDbEntity
  8
치수문자_일반주서
 62
     0
370
    -2
100
AcDbLine
 10
44.45000000000002
 20
4.428125000000006
 30
0.0
 11
44.45000000000002
 21
27.67044754839289
 31
0.0
  0
LINE
  5
FC
330
F8
100
AcDbEntity
  8
치수문자_일반주서
 62
     0
370
    -2
100
AcDbLine
 10
-44.45000000000005
 20
4.428125000000001
 30
0.0
 11
-44.45000000000005
 21
27.67044754839289
 31
0.0
  0
LINE
  5
FD
330
F8
100
AcDbEntity
  8
치수문자_일반주서
 62
     0
370
    -2
100
AcDbLine
 10
41.14800000000002
 20
27.67044754839289
 30
0.0
 11
-41.14800000000005
 21
27.67044754839289
 31
0.0
  0
SOLID
  5
FE
330
F8
100
AcDbEntity
  8
치수문자_일반주서
 62
     0
100
AcDbTrace
 10
41.14800000000002
 20
27.12011421505956
 30
0.0
 11
41.14800000000002
 21
28.22078088172623
 31
0.0
 12
44.45000000000002
 22
27.67044754839289
 32
0.0
 13
44.45000000000002
 23
27.67044754839289
 33
0.0
  0
SOLID
  5
FF
330
F8
100
AcDbEntity
  8
치수문자_일반주서
 62
     0
100
AcDbTrace
 10
-41.14800000000005
 20
28.22078088172623
 30
0.0
 11
-41.14800000000005
 21
27.12011421505956
 31
0.0
 12
-44.45000000000005
 22
27.67044754839289
 32
0.0
 13
-44.45000000000005
 23
27.67044754839289
 33
0.0
  0
MTEXT
  5
100
330
F8
100
AcDbEntity
  8
치수문자_일반주서
 62
     0
100
AcDbMText
 10
0.7840760281528603
 20
32.04544754839289
 30
0.0
 40
3.5
 41
0.0
 71
     2
 72
     1
  1
\A1;88.9 [3 1/2]
  7
SLDTEXTSTYLE0
 73
     1
 44
1.0
  0
POINT
  5
101
330
F8
100
AcDbEntity
  8
Defpoints
 62
     0
100
AcDbPoint
 10
44.45000000000002
 20
4.365625000000006
 30
0.0
  0
POINT
  5
102
330
F8
100
AcDbEntity
  8
Defpoints
 62
     0
100
AcDbPoint
 10
-44.45000000000005
 20
4.365625000000001
 30
0.0
  0
POINT
  5
103
330
F8
100
AcDbEntity
  8
Defpoints
 62
     0
100
AcDbPoint
 10
-44.45000000000005
 20
27.67044754839289
 30
0.0
  0
ENDBLK
  5
FA
330
F8
100
AcDbEntity
  8
0
100
AcDbBlockEnd
  0
BLOCK
  5
10D
330
10C
100
AcDbEntity
  8
0
100
AcDbBlockBegin
  2
_D_3
 70
     0
 10
0.0
 20
0.0
 30
0.0
  3
_D_3
  1
_D_3
  0
LINE
  5
10F
330
10C
100
AcDbEntity
  8
치수문자_일반주서
 62
     0
370
    -2
100
AcDbLine
 10
-22.98134233574609
 20
4.762500000000024
 30
0.0
 11
-56.97375000000002
 21
4.762499999999896
 31
0.0
  0
LINE
  5
110
330
10C
100
AcDbEntity
  8
치수문자_일반주서
 62
     0
370
    -2
100
AcDbLine
 10
-22.98134233574608
 20
-4.762500000000006
 30
0.0
 11
-56.97374999999999
 21
-4.762500000000133
 31
0.0
  0
LINE
  5
111
330
10C
100
AcDbEntity
  8
치수문자_일반주서
 62
     0
370
    -2
100
AcDbLine
 10
-56.97375000000001
 20
1.460499999999897
 30
0.0
 11
-56.97375
 21
-1.460500000000134
 31
0.0
  0
SOLID
  5
112
330
10C
100
AcDbEntity
  8
치수문자_일반주서
 62
     0
100
AcDbTrace
 10
-56.42341666666668
 20
1.460499999999899
 30
0.0
 11
-57.52408333333334
 21
1.460499999999895
 31
0.0
 12
-56.97375000000002
 22
4.762499999999896
 32
0.0
 13
-56.97375000000002
 23
4.762499999999896
 33
0.0
  0
SOLID
  5
113
330
10C
100
AcDbEntity
  8
치수문자_일반주서
 62
     0
100
AcDbTrace
 10
-57.52408333333334
 20
-1.460500000000136
 30
0.0
 11
-56.42341666666667
 21
-1.460500000000132
 31
0.0
 12
-56.97374999999999
 22
-4.762500000000133
 32
0.0
 13
-56.97374999999999
 23
-4.762500000000133
 33
0.0
  0
MTEXT
  5
114
330
10C
100
AcDbEntity
  8
치수문자_일반주서
 62
     0
100
AcDbMText
 10
-61.34875000000001
 20
-0.0000000000000156
 30
0.0
 40
3.5
 41
0.0
 71
     2
 72
     1
  1
\A1;%%c9.53 [3/8]
  7
SLDTEXTSTYLE0
 11
-3.729883127349596E-15
 21
1.0
 31
0.0
 73
     1
 44
1.0
  0
POINT
  5
115
330
10C
100
AcDbEntity
  8
Defpoints
 62
     0
100
AcDbPoint
 10
-22.91884233574609
 20
4.762500000000024
 30
0.0
  0
POINT
  5
116
330
10C
100
AcDbEntity
  8
Defpoints
 62
     0
100
AcDbPoint
 10
-22.91884233574608
 20
-4.762500000000006
 30
0.0
  0
POINT
  5
117
330
10C
100
AcDbEntity
  8
Defpoints
 62
     0
100
AcDbPoint
 10
-56.97374999999999
 20
-4.762500000000133
 30
0.0
  0
ENDBLK
  5
10E
330
10C
100
AcDbEntity
  8
0
100
AcDbBlockEnd
  0
BLOCK
  5
127
330
126
100
AcDbEntity
  8
0
100
AcDbBlockBegin
  2
SW_DOWELSYMBOL_0
 70
     0
 10
0.0
 20
0.0
 30
0.0
  3
SW_DOWELSYMBOL_0
  1
SW_DOWELSYMBOL_0
  0
CIRCLE
  5
129
330
126
100
AcDbEntity
  8
해칭선
 62
     0
100
AcDbCircle
 10
0.0
 20
0.0
 30
0.0
 40
3.000000000000008
  0
HATCH
  5
12A
330
126
100
AcDbEntity
  8
0
  6
Continuous
 62
     0
370
     0
100
AcDbHatch
 10
0.0
 20
0.0
 30
0.0
210
0.0
220
0.0
230
1.0
  2
SOLID
 70
     1
 71
     0
 91
        1
 92
        0
 93
        3
 72
     2
 10
0.0
 20
0.0
 40
3.000000000000008
 50
0.0
 51
90.0
 73
     1
 72
     1
 10
0.0
 20
3.000000000000008
 11
0.0
 21
0.0
 72
     1
 10
0.0
 20
0.0
 11
3.00000000000001
 21
0.0
 97
        0
 75
     0
 76
     1
 98
        1
 10
0.0
 20
0.0
  0
HATCH
  5
12B
330
126
100
AcDbEntity
  8
0
  6
Continuous
 62
     0
370
     0
100
AcDbHatch
 10
0.0
 20
0.0
 30
0.0
210
0.0
220
0.0
230
1.0
  2
SOLID
 70
     1
 71
     0
 91
        1
 92
        0
 93
        3
 72
     2
 10
0.0
 20
0.0
 40
3.000000000000008
 50
180.0
 51
270.0000000000007
 73
     1
 72
     1
 10
0.0
 20
-3.000000000000008
 11
0.0
 21
0.0
 72
     1
 10
0.0
 20
0.0
 11
-3.00000000000001
 21
0.0
 97
        0
 75
     0
 76
     1
 98
        1
 10
0.0
 20
0.0
  0
ENDBLK
  5
128
330
126
100
AcDbEntity
  8
0
100
AcDbBlockEnd
  0
BLOCK
  5
1DC
330
1DB
100
AcDbEntity
  8
0
100
AcDbBlockBegin
  2
*D7
 70
     1
 10
0.0
 20
0.0
 30
0.0
  3
*D7
  1
*D8
  0
LINE
  5
1DE
330
1DB
100
AcDbEntity
  8
치수문자_일반주서
 62
     0
370
    -2
100
AcDbLine
 10
91.96250000000003
 20
14.93837499999995
 30
0.0
 11
103.5742082914504
 21
14.93837499999999
 31
0.0
  0
LINE
  5
1DF
330
1DB
100
AcDbEntity
  8
치수문자_일반주서
 62
     0
370
    -2
100
AcDbLine
 10
91.96250000000002
 20
6.603999999999955
 30
0.0
 11
103.5742082914505
 21
6.603999999999999
 31
0.0
  0
LINE
  5
1E0
330
1DB
100
AcDbEntity
  8
치수문자_일반주서
 62
     0
370
    -2
100
AcDbLine
 10
103.5742082914504
 20
14.93837499999999
 30
0.0
 11
103.5742082914503
 21
52.16737499999999
 31
0.0
  0
LINE
  5
1E1
330
1DB
100
AcDbEntity
  8
치수문자_일반주서
 62
     0
370
    -2
100
AcDbLine
 10
103.5742082914504
 20
14.93837499999999
 30
0.0
 11
103.5742082914505
 21
6.603999999999999
 31
0.0
  0
LINE
  5
1E2
330
1DB
100
AcDbEntity
  8
치수문자_일반주서
 62
     0
370
    -2
100
AcDbLine
 10
103.5742082914504
 20
18.24037499999999
 30
0.0
 11
103.5742082914504
 21
21.54237499999999
 31
0.0
  0
LINE
  5
1E3
330
1DB
100
AcDbEntity
  8
치수문자_일반주서
 62
     0
370
    -2
100
AcDbLine
 10
103.5742082914505
 20
3.302
 30
0.0
 11
103.5742082914505
 21
0.0
 31
0.0
  0
SOLID
  5
1E4
330
1DB
100
AcDbEntity
  8
치수문자_일반주서
 62
     0
100
AcDbTrace
 10
103.0238749581171
 20
18.24037499999999
 30
0.0
 11
104.1245416247837
 21
18.240375
 31
0.0
 12
103.5742082914504
 22
14.93837499999999
 32
0.0
 13
103.5742082914504
 23
14.93837499999999
 33
0.0
  0
SOLID
  5
1E5
330
1DB
100
AcDbEntity
  8
치수문자_일반주서
 62
     0
100
AcDbTrace
 10
104.1245416247838
 20
3.302000000000001
 30
0.0
 11
103.0238749581171
 21
3.301999999999998
 31
0.0
 12
103.5742082914505
 22
6.603999999999999
 32
0.0
 13
103.5742082914505
 23
6.603999999999999
 33
0.0
  0
MTEXT
  5
1E6
330
1DB
100
AcDbEntity
  8
치수문자_일반주서
 62
     0
100
AcDbMText
 10
99.19920829145036
 20
36.85487499999998
 30
0.0
 40
3.5
 41
0.0
 71
     2
 72
     1
  1
\A1;%%c8.33 [21/64]
  7
SLDTEXTSTYLE0
 11
-3.410178859291072E-15
 21
1.0
 31
0.0
 73
     1
 44
1.0
  0
POINT
  5
1E7
330
1DB
100
AcDbEntity
  8
Defpoints
 62
     0
100
AcDbPoint
 10
91.90000000000003
 20
14.93837499999995
 30
0.0
  0
POINT
  5
1E8
330
1DB
100
AcDbEntity
  8
Defpoints
 62
     0
100
AcDbPoint
 10
91.90000000000002
 20
6.603999999999955
 30
0.0
  0
POINT
  5
1E9
330
1DB
100
AcDbEntity
  8
Defpoints
 62
     0
100
AcDbPoint
 10
103.5742082914505
 20
6.603999999999998
 30
0.0
  0
ENDBLK
  5
1DD
330
1DB
100
AcDbEntity
  8
0
100
AcDbBlockEnd
  0
BLOCK
  5
1EB
330
1EA
100
AcDbEntity
  8
0
100
AcDbBlockBegin
  2
*D8
 70
     1
 10
0.0
 20
0.0
 30
0.0
  3
*D8
  1
*D9
  0
LINE
  5
1ED
330
1EA
100
AcDbEntity
  8
치수문자_일반주서
 62
     0
370
    -2
100
AcDbLine
 10
91.90000000000003
 20
15.00087499999995
 30
0.0
 11
91.90000000000003
 21
34.11603284439377
 31
0.0
  0
LINE
  5
1EE
330
1EA
100
AcDbEntity
  8
치수문자_일반주서
 62
     0
370
    -2
100
AcDbLine
 10
72.85
 20
14.99219983214056
 30
0.0
 11
72.85
 21
34.11603284439377
 31
0.0
  0
LINE
  5
1EF
330
1EA
100
AcDbEntity
  8
치수문자_일반주서
 62
     0
370
    -2
100
AcDbLine
 10
72.85
 20
34.11603284439377
 30
0.0
 11
40.0193402543814
 21
34.11603284439377
 31
0.0
  0
LINE
  5
1F0
330
1EA
100
AcDbEntity
  8
치수문자_일반주서
 62
     0
370
    -2
100
AcDbLine
 10
91.90000000000003
 20
34.11603284439377
 30
0.0
 11
72.85
 21
34.11603284439377
 31
0.0
  0
LINE
  5
1F1
330
1EA
100
AcDbEntity
  8
치수문자_일반주서
 62
     0
370
    -2
100
AcDbLine
 10
95.20200000000003
 20
34.11603284439377
 30
0.0
 11
98.50400000000002
 21
34.11603284439377
 31
0.0
  0
LINE
  5
1F2
330
1EA
100
AcDbEntity
  8
치수문자_일반주서
 62
     0
370
    -2
100
AcDbLine
 10
69.548
 20
34.11603284439377
 30
0.0
 11
66.24600000000001
 21
34.11603284439377
 31
0.0
  0
SOLID
  5
1F3
330
1EA
100
AcDbEntity
  8
치수문자_일반주서
 62
     0
100
AcDbTrace
 10
95.20200000000003
 20
34.66636617772711
 30
0.0
 11
95.20200000000003
 21
33.56569951106044
 31
0.0
 12
91.90000000000003
 22
34.11603284439377
 32
0.0
 13
91.90000000000003
 23
34.11603284439377
 33
0.0
  0
SOLID
  5
1F4
330
1EA
100
AcDbEntity
  8
치수문자_일반주서
 62
     0
100
AcDbTrace
 10
69.548
 20
33.56569951106044
 30
0.0
 11
69.548
 21
34.66636617772711
 31
0.0
 12
72.85
 22
34.11603284439377
 32
0.0
 13
72.85
 23
34.11603284439377
 33
0.0
  0
MTEXT
  5
1F5
330
1EA
100
AcDbEntity
  8
치수문자_일반주서
 62
     0
100
AcDbMText
 10
52.4880902543814
 20
38.49103284439377
 30
0.0
 40
3.5
 41
0.0
 71
     2
 72
     1
  1
\A1;19.05 [3/4]
  7
SLDTEXTSTYLE0
 73
     1
 44
1.0
  0
POINT
  5
1F6
330
1EA
100
AcDbEntity
  8
Defpoints
 62
     0
100
AcDbPoint
 10
91.90000000000003
 20
14.93837499999995
 30
0.0
  0
POINT
  5
1F7
330
1EA
100
AcDbEntity
  8
Defpoints
 62
     0
100
AcDbPoint
 10
72.85
 20
14.92969983214056
 30
0.0
  0
POINT
  5
1F8
330
1EA
100
AcDbEntity
  8
Defpoints
 62
     0
100
AcDbPoint
 10
72.85
 20
34.11603284439377
 30
0.0
  0
ENDBLK
  5
1EC
330
1EA
100
AcDbEntity
  8
0
100
AcDbBlockEnd
  0
BLOCK
  5
1FA
330
1F9
100
AcDbEntity
  8
0
100
AcDbBlockBegin
  2
*D9
 70
     1
 10
0.0
 20
0.0
 30
0.0
  3
*D9
  1
*D10
  0
LINE
  5
1FC
330
1F9
100
AcDbEntity
  8
치수문자_일반주서
 62
     0
370
    -2
100
AcDbLine
 10
91.90000000000003
 20
15.00087499999995
 30
0.0
 11
91.90000000000003
 21
47.27948206518138
 31
0.0
  0
LINE
  5
1FD
330
1F9
100
AcDbEntity
  8
치수문자_일반주서
 62
     0
370
    -2
100
AcDbLine
 10
3.000000000000007
 20
14.64368749999995
 30
0.0
 11
3.000000000000007
 21
47.27948206518138
 31
0.0
  0
LINE
  5
1FE
330
1F9
100
AcDbEntity
  8
치수문자_일반주서
 62
     0
370
    -2
100
AcDbLine
 10
88.59800000000004
 20
47.27948206518138
 30
0.0
 11
6.302000000000007
 21
47.27948206518138
 31
0.0
  0
SOLID
  5
1FF
330
1F9
100
AcDbEntity
  8
치수문자_일반주서
 62
     0
100
AcDbTrace
 10
88.59800000000004
 20
46.72914873184804
 30
0.0
 11
88.59800000000004
 21
47.82981539851471
 31
0.0
 12
91.90000000000003
 22
47.27948206518138
 32
0.0
 13
91.90000000000003
 23
47.27948206518138
 33
0.0
  0
SOLID
  5
200
330
1F9
100
AcDbEntity
  8
치수문자_일반주서
 62
     0
100
AcDbTrace
 10
6.302000000000007
 20
47.82981539851471
 30
0.0
 11
6.302000000000007
 21
46.72914873184804
 31
0.0
 12
3.000000000000007
 22
47.27948206518138
 32
0.0
 13
3.000000000000007
 23
47.27948206518138
 33
0.0
  0
MTEXT
  5
201
330
1F9
100
AcDbEntity
  8
치수문자_일반주서
 62
     0
100
AcDbMText
 10
46.84661201690102
 20
51.65448206518138
 30
0.0
 40
3.5
 41
0.0
 71
     2
 72
     1
  1
\A1;88.9 [3 1/2]
  7
SLDTEXTSTYLE0
 73
     1
 44
1.0
  0
POINT
  5
202
330
1F9
100
AcDbEntity
  8
Defpoints
 62
     0
100
AcDbPoint
 10
91.90000000000003
 20
14.93837499999995
 30
0.0
  0
POINT
  5
203
330
1F9
100
AcDbEntity
  8
Defpoints
 62
     0
100
AcDbPoint
 10
3.000000000000007
 20
14.58118749999995
 30
0.0
  0
POINT
  5
204
330
1F9
100
AcDbEntity
  8
Defpoints
 62
     0
100
AcDbPoint
 10
3.000000000000007
 20
47.27948206518138
 30
0.0
  0
ENDBLK
  5
1FB
330
1F9
100
AcDbEntity
  8
0
100
AcDbBlockEnd
  0
BLOCK
  5
233
330
232
100
AcDbEntity
  8
0
100
AcDbBlockBegin
  2
*D10
 70
     1
 10
0.0
 20
0.0
 30
0.0
  3
*D10
  1
*D11
  0
LINE
  5
235
330
232
100
AcDbEntity
  8
치수문자_일반주서
 62
     0
370
    -2
100
AcDbLine
 10
160.4789710923413
 20
-30.01541435875016
 30
0.0
 11
172.0906793837917
 21
-30.01541435875012
 31
0.0
  0
LINE
  5
236
330
232
100
AcDbEntity
  8
치수문자_일반주서
 62
     0
370
    -2
100
AcDbLine
 10
160.4789710923413
 20
-38.34978935875016
 30
0.0
 11
172.0906793837917
 21
-38.34978935875012
 31
0.0
  0
LINE
  5
237
330
232
100
AcDbEntity
  8
치수문자_일반주서
 62
     0
370
    -2
100
AcDbLine
 10
172.0906793837917
 20
-30.01541435875012
 30
0.0
 11
172.0906793837916
 21
7.213585641249878
 31
0.0
  0
LINE
  5
238
330
232
100
AcDbEntity
  8
치수문자_일반주서
 62
     0
370
    -2
100
AcDbLine
 10
172.0906793837917
 20
-30.01541435875012
 30
0.0
 11
172.0906793837917
 21
-38.34978935875012
 31
0.0
  0
LINE
  5
239
330
232
100
AcDbEntity
  8
치수문자_일반주서
 62
     0
370
    -2
100
AcDbLine
 10
172.0906793837917
 20
-26.71341435875012
 30
0.0
 11
172.0906793837917
 21
-23.41141435875012
 31
0.0
  0
LINE
  5
23A
330
232
100
AcDbEntity
  8
치수문자_일반주서
 62
     0
370
    -2
100
AcDbLine
 10
172.0906793837917
 20
-41.65178935875011
 30
0.0
 11
172.0906793837917
 21
-44.95378935875011
 31
0.0
  0
SOLID
  5
23B
330
232
100
AcDbEntity
  8
치수문자_일반주서
 62
     0
100
AcDbTrace
 10
171.5403460504584
 20
-26.71341435875012
 30
0.0
 11
172.641012717125
 21
-26.71341435875012
 31
0.0
 12
172.0906793837917
 22
-30.01541435875012
 32
0.0
 13
172.0906793837917
 23
-30.01541435875012
 33
0.0
  0
SOLID
  5
23C
330
232
100
AcDbEntity
  8
치수문자_일반주서
 62
     0
100
AcDbTrace
 10
172.6410127171251
 20
-41.65178935875011
 30
0.0
 11
171.5403460504584
 21
-41.65178935875011
 31
0.0
 12
172.0906793837917
 22
-38.34978935875012
 32
0.0
 13
172.0906793837917
 23
-38.34978935875012
 33
0.0
  0
MTEXT
  5
23D
330
232
100
AcDbEntity
  8
치수문자_일반주서
 62
     0
100
AcDbMText
 10
167.7156793837916
 20
-8.098914358750136
 30
0.0
 40
3.5
 41
0.0
 71
     2
 72
     1
  1
\A1;%%c8.33 [21/64]
  7
SLDTEXTSTYLE0
 11
-3.410178859291072E-15
 21
1.0
 31
0.0
 73
     1
 44
1.0
  0
POINT
  5
23E
330
232
100
AcDbEntity
  8
Defpoints
 62
     0
100
AcDbPoint
 10
160.4164710923413
 20
-30.01541435875016
 30
0.0
  0
POINT
  5
23F
330
232
100
AcDbEntity
  8
Defpoints
 62
     0
100
AcDbPoint
 10
160.4164710923413
 20
-38.34978935875016
 30
0.0
  0
POINT
  5
240
330
232
100
AcDbEntity
  8
Defpoints
 62
     0
100
AcDbPoint
 10
172.0906793837917
 20
-38.34978935875012
 30
0.0
  0
ENDBLK
  5
234
330
232
100
AcDbEntity
  8
0
100
AcDbBlockEnd
  0
BLOCK
  5
242
330
241
100
AcDbEntity
  8
0
100
AcDbBlockBegin
  2
*D11
 70
     1
 10
0.0
 20
0.0
 30
0.0
  3
*D11
  1
*D12
  0
LINE
  5
244
330
241
100
AcDbEntity
  8
치수문자_일반주서
 62
     0
370
    -2
100
AcDbLine
 10
160.4164710923413
 20
-29.95291435875016
 30
0.0
 11
160.4164710923413
 21
-10.83775651435634
 31
0.0
  0
LINE
  5
245
330
241
100
AcDbEntity
  8
치수문자_일반주서
 62
     0
370
    -2
100
AcDbLine
 10
141.3664710923412
 20
-29.96158952660955
 30
0.0
 11
141.3664710923412
 21
-10.83775651435634
 31
0.0
  0
LINE
  5
246
330
241
100
AcDbEntity
  8
치수문자_일반주서
 62
     0
370
    -2
100
AcDbLine
 10
141.3664710923412
 20
-10.83775651435634
 30
0.0
 11
108.5358113467227
 21
-10.83775651435634
 31
0.0
  0
LINE
  5
247
330
241
100
AcDbEntity
  8
치수문자_일반주서
 62
     0
370
    -2
100
AcDbLine
 10
160.4164710923413
 20
-10.83775651435634
 30
0.0
 11
141.3664710923412
 21
-10.83775651435634
 31
0.0
  0
LINE
  5
248
330
241
100
AcDbEntity
  8
치수문자_일반주서
 62
     0
370
    -2
100
AcDbLine
 10
163.7184710923413
 20
-10.83775651435634
 30
0.0
 11
167.0204710923413
 21
-10.83775651435634
 31
0.0
  0
LINE
  5
249
330
241
100
AcDbEntity
  8
치수문자_일반주서
 62
     0
370
    -2
100
AcDbLine
 10
138.0644710923413
 20
-10.83775651435634
 30
0.0
 11
134.7624710923413
 21
-10.83775651435634
 31
0.0
  0
SOLID
  5
24A
330
241
100
AcDbEntity
  8
치수문자_일반주서
 62
     0
100
AcDbTrace
 10
163.7184710923413
 20
-10.28742318102301
 30
0.0
 11
163.7184710923413
 21
-11.38808984768968
 31
0.0
 12
160.4164710923413
 22
-10.83775651435634
 32
0.0
 13
160.4164710923413
 23
-10.83775651435634
 33
0.0
  0
SOLID
  5
24B
330
241
100
AcDbEntity
  8
치수문자_일반주서
 62
     0
100
AcDbTrace
 10
138.0644710923413
 20
-11.38808984768968
 30
0.0
 11
138.0644710923413
 21
-10.28742318102301
 31
0.0
 12
141.3664710923412
 22
-10.83775651435634
 32
0.0
 13
141.3664710923412
 23
-10.83775651435634
 33
0.0
  0
MTEXT
  5
24C
330
241
100
AcDbEntity
  8
치수문자_일반주서
 62
     0
100
AcDbMText
 10
121.0045613467227
 20
-6.462756514356343
 30
0.0
 40
3.5
 41
0.0
 71
     2
 72
     1
  1
\A1;19.05 [3/4]
  7
SLDTEXTSTYLE0
 73
     1
 44
1.0
  0
POINT
  5
24D
330
241
100
AcDbEntity
  8
Defpoints
 62
     0
100
AcDbPoint
 10
160.4164710923413
 20
-30.01541435875016
 30
0.0
  0
POINT
  5
24E
330
241
100
AcDbEntity
  8
Defpoints
 62
     0
100
AcDbPoint
 10
141.3664710923412
 20
-30.02408952660955
 30
0.0
  0
POINT
  5
24F
330
241
100
AcDbEntity
  8
Defpoints
 62
     0
100
AcDbPoint
 10
141.3664710923412
 20
-10.83775651435634
 30
0.0
  0
ENDBLK
  5
243
330
241
100
AcDbEntity
  8
0
100
AcDbBlockEnd
  0
BLOCK
  5
251
330
250
100
AcDbEntity
  8
0
100
AcDbBlockBegin
  2
*D12
 70
     1
 10
0.0
 20
0.0
 30
0.0
  3
*D12
  1
*D13
  0
LINE
  5
253
330
250
100
AcDbEntity
  8
치수문자_일반주서
 62
     0
370
    -2
100
AcDbLine
 10
160.4164710923413
 20
-29.95291435875016
 30
0.0
 11
160.4164710923413
 21
2.325692706431262
 31
0.0
  0
LINE
  5
254
330
250
100
AcDbEntity
  8
치수문자_일반주서
 62
     0
370
    -2
100
AcDbLine
 10
71.51647109234125
 20
-30.31010185875017
 30
0.0
 11
71.51647109234125
 21
2.325692706431262
 31
0.0
  0
LINE
  5
255
330
250
100
AcDbEntity
  8
치수문자_일반주서
 62
     0
370
    -2
100
AcDbLine
 10
157.1144710923413
 20
2.325692706431262
 30
0.0
 11
74.81847109234124
 21
2.325692706431262
 31
0.0
  0
SOLID
  5
256
330
250
100
AcDbEntity
  8
치수문자_일반주서
 62
     0
100
AcDbTrace
 10
157.1144710923413
 20
1.775359373097929
 30
0.0
 11
157.1144710923413
 21
2.876026039764595
 31
0.0
 12
160.4164710923413
 22
2.325692706431262
 32
0.0
 13
160.4164710923413
 23
2.325692706431262
 33
0.0
  0
SOLID
  5
257
330
250
100
AcDbEntity
  8
치수문자_일반주서
 62
     0
100
AcDbTrace
 10
74.81847109234124
 20
2.876026039764595
 30
0.0
 11
74.81847109234124
 21
1.775359373097929
 31
0.0
 12
71.51647109234125
 22
2.325692706431262
 32
0.0
 13
71.51647109234125
 23
2.325692706431262
 33
0.0
  0
MTEXT
  5
258
330
250
100
AcDbEntity
  8
치수문자_일반주서
 62
     0
100
AcDbMText
 10
115.3630831092423
 20
6.700692706431262
 30
0.0
 40
3.5
 41
0.0
 71
     2
 72
     1
  1
\A1;88.9 [3 1/2]
  7
SLDTEXTSTYLE0
 73
     1
 44
1.0
  0
POINT
  5
259
330
250
100
AcDbEntity
  8
Defpoints
 62
     0
100
AcDbPoint
 10
160.4164710923413
 20
-30.01541435875016
 30
0.0
  0
POINT
  5
25A
330
250
100
AcDbEntity
  8
Defpoints
 62
     0
100
AcDbPoint
 10
71.51647109234125
 20
-30.37260185875017
 30
0.0
  0
POINT
  5
25B
330
250
100
AcDbEntity
  8
Defpoints
 62
     0
100
AcDbPoint
 10
71.51647109234125
 20
2.325692706431262
 30
0.0
  0
ENDBLK
  5
252
330
250
100
AcDbEntity
  8
0
100
AcDbBlockEnd
  0
BLOCK
  5
2EC
330
2EB
100
AcDbEntity
  8
0
100
AcDbBlockBegin
  2
*D13
 70
     1
 10
0.0
 20
0.0
 30
0.0
  3
*D13
  1
*D15
  0
LINE
  5
2EE
330
2EB
100
AcDbEntity
  8
치수문자_일반주서
 62
     0
370
    -2
100
AcDbLine
 10
91.96250000000005
 20
15.33524999999994
 30
0.0
 11
107.5803376500625
 21
15.33524999999999
 31
0.0
  0
LINE
  5
2EF
330
2EB
100
AcDbEntity
  8
치수문자_일반주서
 62
     0
370
    -2
100
AcDbLine
 10
91.96250000000003
 20
6.60399999999994
 30
0.0
 11
107.5803376500626
 21
6.603999999999996
 31
0.0
  0
LINE
  5
2F0
330
2EB
100
AcDbEntity
  8
치수문자_일반주서
 62
     0
370
    -2
100
AcDbLine
 10
107.5803376500625
 20
15.33524999999999
 30
0.0
 11
107.5803376500624
 21
51.68925000000002
 31
0.0
  0
LINE
  5
2F1
330
2EB
100
AcDbEntity
  8
치수문자_일반주서
 62
     0
370
    -2
100
AcDbLine
 10
107.5803376500625
 20
15.33524999999999
 30
0.0
 11
107.5803376500626
 21
6.603999999999996
 31
0.0
  0
LINE
  5
2F2
330
2EB
100
AcDbEntity
  8
치수문자_일반주서
 62
     0
370
    -2
100
AcDbLine
 10
107.5803376500625
 20
18.63724999999999
 30
0.0
 11
107.5803376500625
 21
21.93924999999999
 31
0.0
  0
LINE
  5
2F3
330
2EB
100
AcDbEntity
  8
치수문자_일반주서
 62
     0
370
    -2
100
AcDbLine
 10
107.5803376500626
 20
3.301999999999996
 30
0.0
 11
107.5803376500626
 21
-0.0000000000000036
 31
0.0
  0
SOLID
  5
2F4
330
2EB
100
AcDbEntity
  8
치수문자_일반주서
 62
     0
100
AcDbTrace
 10
107.0300043167292
 20
18.63724999999999
 30
0.0
 11
108.1306709833959
 21
18.63725
 31
0.0
 12
107.5803376500625
 22
15.33524999999999
 32
0.0
 13
107.5803376500625
 23
15.33524999999999
 33
0.0
  0
SOLID
  5
2F5
330
2EB
100
AcDbEntity
  8
치수문자_일반주서
 62
     0
100
AcDbTrace
 10
108.1306709833959
 20
3.301999999999998
 30
0.0
 11
107.0300043167293
 21
3.301999999999994
 31
0.0
 12
107.5803376500626
 22
6.603999999999996
 32
0.0
 13
107.5803376500626
 23
6.603999999999996
 33
0.0
  0
MTEXT
  5
2F6
330
2EB
100
AcDbEntity
  8
치수문자_일반주서
 62
     0
100
AcDbMText
 10
103.2053376500625
 20
36.81425
 30
0.0
 40
3.5
 41
0.0
 71
     2
 72
     1
  1
\A1;%%c8.73 [11/32]
  7
SLDTEXTSTYLE0
 11
-3.255170729323294E-15
 21
1.0
 31
0.0
 73
     1
 44
1.0
  0
POINT
  5
2F7
330
2EB
100
AcDbEntity
  8
Defpoints
 62
     0
100
AcDbPoint
 10
91.90000000000005
 20
15.33524999999994
 30
0.0
  0
POINT
  5
2F8
330
2EB
100
AcDbEntity
  8
Defpoints
 62
     0
100
AcDbPoint
 10
91.90000000000003
 20
6.60399999999994
 30
0.0
  0
POINT
  5
2F9
330
2EB
100
AcDbEntity
  8
Defpoints
 62
     0
100
AcDbPoint
 10
107.5803376500626
 20
6.603999999999998
 30
0.0
  0
ENDBLK
  5
2ED
330
2EB
100
AcDbEntity
  8
0
100
AcDbBlockEnd
  0
BLOCK
  5
2FB
330
2FA
100
AcDbEntity
  8
0
100
AcDbBlockBegin
  2
*D14
 70
     1
 10
0.0
 20
0.0
 30
0.0
  3
*D14
  1
*D16
  0
LINE
  5
2FD
330
2FA
100
AcDbEntity
  8
치수문자_일반주서
 62
     0
370
    -2
100
AcDbLine
 10
91.90000000000002
 20
15.39774999999994
 30
0.0
 11
91.90000000000002
 21
26.62581333894382
 31
0.0
  0
LINE
  5
2FE
330
2FA
100
AcDbEntity
  8
치수문자_일반주서
 62
     0
370
    -2
100
AcDbLine
 10
72.85
 20
15.32374451315989
 30
0.0
 11
72.85
 21
26.62581333894382
 31
0.0
  0
LINE
  5
2FF
330
2FA
100
AcDbEntity
  8
치수문자_일반주서
 62
     0
370
    -2
100
AcDbLine
 10
72.85
 20
26.62581333894382
 30
0.0
 11
41.3085
 21
26.62581333894382
 31
0.0
  0
LINE
  5
300
330
2FA
100
AcDbEntity
  8
치수문자_일반주서
 62
     0
370
    -2
100
AcDbLine
 10
91.90000000000002
 20
26.62581333894382
 30
0.0
 11
72.85
 21
26.62581333894382
 31
0.0
  0
LINE
  5
301
330
2FA
100
AcDbEntity
  8
치수문자_일반주서
 62
     0
370
    -2
100
AcDbLine
 10
95.20200000000003
 20
26.62581333894382
 30
0.0
 11
98.50400000000002
 21
26.62581333894382
 31
0.0
  0
LINE
  5
302
330
2FA
100
AcDbEntity
  8
치수문자_일반주서
 62
     0
370
    -2
100
AcDbLine
 10
69.548
 20
26.62581333894382
 30
0.0
 11
66.24600000000001
 21
26.62581333894382
 31
0.0
  0
SOLID
  5
303
330
2FA
100
AcDbEntity
  8
치수문자_일반주서
 62
     0
100
AcDbTrace
 10
95.20200000000003
 20
27.17614667227715
 30
0.0
 11
95.20200000000003
 21
26.07548000561048
 31
0.0
 12
91.90000000000002
 22
26.62581333894382
 32
0.0
 13
91.90000000000002
 23
26.62581333894382
 33
0.0
  0
SOLID
  5
304
330
2FA
100
AcDbEntity
  8
치수문자_일반주서
 62
     0
100
AcDbTrace
 10
69.548
 20
26.07548000561048
 30
0.0
 11
69.548
 21
27.17614667227715
 31
0.0
 12
72.85
 22
26.62581333894382
 32
0.0
 13
72.85
 23
26.62581333894382
 33
0.0
  0
MTEXT
  5
305
330
2FA
100
AcDbEntity
  8
치수문자_일반주서
 62
     0
100
AcDbMText
 10
53.77725
 20
31.00081333894382
 30
0.0
 40
3.5
 41
0.0
 71
     2
 72
     1
  1
\A1;19.05 [3/4]
  7
SLDTEXTSTYLE0
 73
     1
 44
1.0
  0
POINT
  5
306
330
2FA
100
AcDbEntity
  8
Defpoints
 62
     0
100
AcDbPoint
 10
91.90000000000002
 20
15.33524999999994
 30
0.0
  0
POINT
  5
307
330
2FA
100
AcDbEntity
  8
Defpoints
 62
     0
100
AcDbPoint
 10
72.85
 20
15.26124451315989
 30
0.0
  0
POINT
  5
308
330
2FA
100
AcDbEntity
  8
Defpoints
 62
     0
100
AcDbPoint
 10
72.85
 20
26.62581333894382
 30
0.0
  0
ENDBLK
  5
2FC
330
2FA
100
AcDbEntity
  8
0
100
AcDbBlockEnd
  0
BLOCK
  5
30A
330
309
100
AcDbEntity
  8
0
100
AcDbBlockBegin
  2
*D15
 70
     1
 10
0.0
 20
0.0
 30
0.0
  3
*D15
  1
*D17
  0
LINE
  5
30C
330
309
100
AcDbEntity
  8
치수문자_일반주서
 62
     0
370
    -2
100
AcDbLine
 10
91.90000000000002
 20
15.39774999999994
 30
0.0
 11
91.9
 21
38.64007254839282
 31
0.0
  0
LINE
  5
30D
330
309
100
AcDbEntity
  8
치수문자_일반주서
 62
     0
370
    -2
100
AcDbLine
 10
3.000000000000007
 20
14.84212499999993
 30
0.0
 11
2.999999999999993
 21
38.64007254839282
 31
0.0
  0
LINE
  5
30E
330
309
100
AcDbEntity
  8
치수문자_일반주서
 62
     0
370
    -2
100
AcDbLine
 10
88.59800000000001
 20
38.64007254839282
 30
0.0
 11
6.301999999999992
 21
38.64007254839282
 31
0.0
  0
SOLID
  5
30F
330
309
100
AcDbEntity
  8
치수문자_일반주서
 62
     0
100
AcDbTrace
 10
88.59800000000001
 20
38.08973921505949
 30
0.0
 11
88.59800000000001
 21
39.19040588172616
 31
0.0
 12
91.9
 22
38.64007254839282
 32
0.0
 13
91.9
 23
38.64007254839282
 33
0.0
  0
SOLID
  5
310
330
309
100
AcDbEntity
  8
치수문자_일반주서
 62
     0
100
AcDbTrace
 10
6.301999999999992
 20
39.19040588172616
 30
0.0
 11
6.301999999999992
 21
38.08973921505949
 31
0.0
 12
2.999999999999993
 22
38.64007254839282
 32
0.0
 13
2.999999999999993
 23
38.64007254839282
 33
0.0
  0
MTEXT
  5
311
330
309
100
AcDbEntity
  8
치수문자_일반주서
 62
     0
100
AcDbMText
 10
48.23407602815286
 20
43.01507254839282
 30
0.0
 40
3.5
 41
0.0
 71
     2
 72
     1
  1
\A1;88.9 [3 1/2]
  7
SLDTEXTSTYLE0
 73
     1
 44
1.0
  0
POINT
  5
312
330
309
100
AcDbEntity
  8
Defpoints
 62
     0
100
AcDbPoint
 10
91.90000000000002
 20
15.33524999999994
 30
0.0
  0
POINT
  5
313
330
309
100
AcDbEntity
  8
Defpoints
 62
     0
100
AcDbPoint
 10
3.000000000000007
 20
14.77962499999993
 30
0.0
  0
POINT
  5
314
330
309
100
AcDbEntity
  8
Defpoints
 62
     0
100
AcDbPoint
 10
3.000000000000007
 20
38.64007254839282
 30
0.0
  0
ENDBLK
  5
30B
330
309
100
AcDbEntity
  8
0
100
AcDbBlockEnd
  0
BLOCK
  5
344
330
343
100
AcDbEntity
  8
0
100
AcDbBlockBegin
  2
*D16
 70
     1
 10
0.0
 20
0.0
 30
0.0
  3
*D16
  1
*D18
  0
LINE
  5
346
330
343
100
AcDbEntity
  8
치수문자_일반주서
 62
     0
370
    -2
100
AcDbLine
 10
172.6554317392429
 20
-41.40684958970805
 30
0.0
 11
188.2732693893054
 21
-41.406849589708
 31
0.0
  0
LINE
  5
347
330
343
100
AcDbEntity
  8
치수문자_일반주서
 62
     0
370
    -2
100
AcDbLine
 10
172.6554317392429
 20
-50.13809958970805
 30
0.0
 11
188.2732693893054
 21
-50.13809958970799
 31
0.0
  0
LINE
  5
348
330
343
100
AcDbEntity
  8
치수문자_일반주서
 62
     0
370
    -2
100
AcDbLine
 10
188.2732693893054
 20
-41.406849589708
 30
0.0
 11
188.2732693893053
 21
-5.052849589707975
 31
0.0
  0
LINE
  5
349
330
343
100
AcDbEntity
  8
치수문자_일반주서
 62
     0
370
    -2
100
AcDbLine
 10
188.2732693893054
 20
-41.406849589708
 30
0.0
 11
188.2732693893054
 21
-50.13809958970799
 31
0.0
  0
LINE
  5
34A
330
343
100
AcDbEntity
  8
치수문자_일반주서
 62
     0
370
    -2
100
AcDbLine
 10
188.2732693893054
 20
-38.104849589708
 30
0.0
 11
188.2732693893054
 21
-34.802849589708
 31
0.0
  0
LINE
  5
34B
330
343
100
AcDbEntity
  8
치수문자_일반주서
 62
     0
370
    -2
100
AcDbLine
 10
188.2732693893054
 20
-53.44009958970799
 30
0.0
 11
188.2732693893054
 21
-56.74209958970799
 31
0.0
  0
SOLID
  5
34C
330
343
100
AcDbEntity
  8
치수문자_일반주서
 62
     0
100
AcDbTrace
 10
187.722936055972
 20
-38.104849589708
 30
0.0
 11
188.8236027226387
 21
-38.104849589708
 31
0.0
 12
188.2732693893054
 22
-41.406849589708
 32
0.0
 13
188.2732693893054
 23
-41.406849589708
 33
0.0
  0
SOLID
  5
34D
330
343
100
AcDbEntity
  8
치수문자_일반주서
 62
     0
100
AcDbTrace
 10
188.8236027226387
 20
-53.44009958970799
 30
0.0
 11
187.7229360559721
 21
-53.44009958970799
 31
0.0
 12
188.2732693893054
 22
-50.13809958970799
 32
0.0
 13
188.2732693893054
 23
-50.13809958970799
 33
0.0
  0
MTEXT
  5
34E
330
343
100
AcDbEntity
  8
치수문자_일반주서
 62
     0
100
AcDbMText
 10
183.8982693893053
 20
-19.92784958970799
 30
0.0
 40
3.5
 41
0.0
 71
     2
 72
     1
  1
\A1;%%c8.73 [11/32]
  7
SLDTEXTSTYLE0
 11
-3.255170729323295E-15
 21
1.0
 31
0.0
 73
     1
 44
1.0
  0
POINT
  5
34F
330
343
100
AcDbEntity
  8
Defpoints
 62
     0
100
AcDbPoint
 10
172.5929317392429
 20
-41.40684958970805
 30
0.0
  0
POINT
  5
350
330
343
100
AcDbEntity
  8
Defpoints
 62
     0
100
AcDbPoint
 10
172.5929317392429
 20
-50.13809958970805
 30
0.0
  0
POINT
  5
351
330
343
100
AcDbEntity
  8
Defpoints
 62
     0
100
AcDbPoint
 10
188.2732693893054
 20
-50.13809958970799
 30
0.0
  0
ENDBLK
  5
345
330
343
100
AcDbEntity
  8
0
100
AcDbBlockEnd
  0
BLOCK
  5
353
330
352
100
AcDbEntity
  8
0
100
AcDbBlockBegin
  2
*D17
 70
     1
 10
0.0
 20
0.0
 30
0.0
  3
*D17
  1
*D19
  0
LINE
  5
355
330
352
100
AcDbEntity
  8
치수문자_일반주서
 62
     0
370
    -2
100
AcDbLine
 10
172.5929317392429
 20
-41.34434958970805
 30
0.0
 11
172.5929317392429
 21
-30.11628625076417
 31
0.0
  0
LINE
  5
356
330
352
100
AcDbEntity
  8
치수문자_일반주서
 62
     0
370
    -2
100
AcDbLine
 10
153.5429317392428
 20
-41.4183550765481
 30
0.0
 11
153.5429317392428
 21
-30.11628625076417
 31
0.0
  0
LINE
  5
357
330
352
100
AcDbEntity
  8
치수문자_일반주서
 62
     0
370
    -2
100
AcDbLine
 10
153.5429317392428
 20
-30.11628625076417
 30
0.0
 11
122.0014317392428
 21
-30.11628625076417
 31
0.0
  0
LINE
  5
358
330
352
100
AcDbEntity
  8
치수문자_일반주서
 62
     0
370
    -2
100
AcDbLine
 10
172.5929317392429
 20
-30.11628625076417
 30
0.0
 11
153.5429317392428
 21
-30.11628625076417
 31
0.0
  0
LINE
  5
359
330
352
100
AcDbEntity
  8
치수문자_일반주서
 62
     0
370
    -2
100
AcDbLine
 10
175.8949317392429
 20
-30.11628625076417
 30
0.0
 11
179.1969317392429
 21
-30.11628625076417
 31
0.0
  0
LINE
  5
35A
330
352
100
AcDbEntity
  8
치수문자_일반주서
 62
     0
370
    -2
100
AcDbLine
 10
150.2409317392429
 20
-30.11628625076417
 30
0.0
 11
146.9389317392429
 21
-30.11628625076417
 31
0.0
  0
SOLID
  5
35B
330
352
100
AcDbEntity
  8
치수문자_일반주서
 62
     0
100
AcDbTrace
 10
175.8949317392429
 20
-29.56595291743084
 30
0.0
 11
175.8949317392429
 21
-30.66661958409751
 31
0.0
 12
172.5929317392429
 22
-30.11628625076417
 32
0.0
 13
172.5929317392429
 23
-30.11628625076417
 33
0.0
  0
SOLID
  5
35C
330
352
100
AcDbEntity
  8
치수문자_일반주서
 62
     0
100
AcDbTrace
 10
150.2409317392429
 20
-30.66661958409751
 30
0.0
 11
150.2409317392429
 21
-29.56595291743084
 31
0.0
 12
153.5429317392428
 22
-30.11628625076417
 32
0.0
 13
153.5429317392428
 23
-30.11628625076417
 33
0.0
  0
MTEXT
  5
35D
330
352
100
AcDbEntity
  8
치수문자_일반주서
 62
     0
100
AcDbMText
 10
134.4701817392428
 20
-25.74128625076417
 30
0.0
 40
3.5
 41
0.0
 71
     2
 72
     1
  1
\A1;19.05 [3/4]
  7
SLDTEXTSTYLE0
 73
     1
 44
1.0
  0
POINT
  5
35E
330
352
100
AcDbEntity
  8
Defpoints
 62
     0
100
AcDbPoint
 10
172.5929317392429
 20
-41.40684958970805
 30
0.0
  0
POINT
  5
35F
330
352
100
AcDbEntity
  8
Defpoints
 62
     0
100
AcDbPoint
 10
153.5429317392428
 20
-41.4808550765481
 30
0.0
  0
POINT
  5
360
330
352
100
AcDbEntity
  8
Defpoints
 62
     0
100
AcDbPoint
 10
153.5429317392428
 20
-30.11628625076417
 30
0.0
  0
ENDBLK
  5
354
330
352
100
AcDbEntity
  8
0
100
AcDbBlockEnd
  0
BLOCK
  5
362
330
361
100
AcDbEntity
  8
0
100
AcDbBlockBegin
  2
*D18
 70
     1
 10
0.0
 20
0.0
 30
0.0
  3
*D18
  1
*D20
  0
LINE
  5
364
330
361
100
AcDbEntity
  8
치수문자_일반주서
 62
     0
370
    -2
100
AcDbLine
 10
172.5929317392429
 20
-41.34434958970805
 30
0.0
 11
172.5929317392429
 21
-18.10202704131517
 31
0.0
  0
LINE
  5
365
330
361
100
AcDbEntity
  8
치수문자_일반주서
 62
     0
370
    -2
100
AcDbLine
 10
83.69293173924285
 20
-41.89997458970806
 30
0.0
 11
83.69293173924285
 21
-18.10202704131517
 31
0.0
  0
LINE
  5
366
330
361
100
AcDbEntity
  8
치수문자_일반주서
 62
     0
370
    -2
100
AcDbLine
 10
169.2909317392429
 20
-18.10202704131517
 30
0.0
 11
86.99493173924284
 21
-18.10202704131517
 31
0.0
  0
SOLID
  5
367
330
361
100
AcDbEntity
  8
치수문자_일반주서
 62
     0
100
AcDbTrace
 10
169.2909317392429
 20
-18.6523603746485
 30
0.0
 11
169.2909317392429
 21
-17.55169370798183
 31
0.0
 12
172.5929317392429
 22
-18.10202704131517
 32
0.0
 13
172.5929317392429
 23
-18.10202704131517
 33
0.0
  0
SOLID
  5
368
330
361
100
AcDbEntity
  8
치수문자_일반주서
 62
     0
100
AcDbTrace
 10
86.99493173924284
 20
-17.55169370798183
 30
0.0
 11
86.99493173924284
 21
-18.6523603746485
 31
0.0
 12
83.69293173924285
 22
-18.10202704131517
 32
0.0
 13
83.69293173924285
 23
-18.10202704131517
 33
0.0
  0
MTEXT
  5
369
330
361
100
AcDbEntity
  8
치수문자_일반주서
 62
     0
100
AcDbMText
 10
128.9270077673957
 20
-13.72702704131517
 30
0.0
 40
3.5
 41
0.0
 71
     2
 72
     1
  1
\A1;88.9 [3 1/2]
  7
SLDTEXTSTYLE0
 73
     1
 44
1.0
  0
POINT
  5
36A
330
361
100
AcDbEntity
  8
Defpoints
 62
     0
100
AcDbPoint
 10
172.5929317392429
 20
-41.40684958970805
 30
0.0
  0
POINT
  5
36B
330
361
100
AcDbEntity
  8
Defpoints
 62
     0
100
AcDbPoint
 10
83.69293173924285
 20
-41.96247458970806
 30
0.0
  0
POINT
  5
36C
330
361
100
AcDbEntity
  8
Defpoints
 62
     0
100
AcDbPoint
 10
83.69293173924285
 20
-18.10202704131517
 30
0.0
  0
ENDBLK
  5
363
330
361
100
AcDbEntity
  8
0
100
AcDbBlockEnd
  0
ENDSEC
  0
SECTION
  2
ENTITIES
  0
LINE
  5
96
330
1F
100
AcDbEntity
  8
외형선
  6
Continuous
370
    15
100
AcDbLine
 10
26.27682080853404
 20
-1.291934220011858
 30
0.0
 11
26.30854544147208
 21
-1.3095338208156
 31
0.0
  0
LINE
  5
97
330
1F
100
AcDbEntity
  8
0
  6
Continuous
 62
     1
370
    15
100
AcDbLine
 10
35.88308509852403
 20
4.365625
 30
0.0
 11
33.22080453561129
 21
4.365625
 31
0.0
  0
LINE
  5
98
330
1F
100
AcDbEntity
  8
0
  6
Continuous
 62
     1
370
    15
100
AcDbLine
 10
33.22080453561125
 20
-4.365625000000003
 30
0.0
 11
35.88308509852402
 21
-4.365625000000003
 31
0.0
  0
LINE
  5
99
330
1F
100
AcDbEntity
  8
외형선
  6
Continuous
370
    15
100
AcDbLine
 10
22.91884233574608
 20
-4.76250000000001
 30
0.0
 11
24.40000000000001
 21
-4.365625000000001
 31
0.0
  0
LINE
  5
9A
330
1F
100
AcDbEntity
  8
외형선
  6
Continuous
370
    15
100
AcDbLine
 10
24.40000000000001
 20
4.365624999999998
 30
0.0
 11
22.91884233574608
 21
4.762500000000006
 31
0.0
  0
LINE
  5
9B
330
1F
100
AcDbEntity
  8
외형선
  6
Continuous
370
    15
100
AcDbLine
 10
-22.91884233574608
 20
-4.762500000000006
 30
0.0
 11
22.91884233574608
 21
-4.762500000000006
 31
0.0
  0
LINE
  5
9C
330
1F
100
AcDbEntity
  8
외형선
  6
Continuous
370
    15
100
AcDbLine
 10
22.91884233574608
 20
4.762500000000002
 30
0.0
 11
4.838700000000017
 21
4.762500000000002
 31
0.0
  0
LINE
  5
9F
330
1F
100
AcDbEntity
  8
외형선
  6
Continuous
370
    15
100
AcDbLine
 10
24.40000000000001
 20
-4.365625000000001
 30
0.0
 11
24.89984966415628
 21
-4.365625000000001
 31
0.0
  0
LINE
  5
A0
330
1F
100
AcDbEntity
  8
외형선
  6
Continuous
370
    15
100
AcDbLine
 10
24.89984966415628
 20
4.365624999999998
 30
0.0
 11
24.40000000000001
 21
4.365624999999998
 31
0.0
  0
LINE
  5
A1
330
1F
100
AcDbEntity
  8
0
  6
Continuous
 62
     1
370
    15
100
AcDbLine
 10
44.45000000000001
 20
-3.953865140344617
 30
0.0
 11
44.45000000000001
 21
0.3740526403446666
 31
0.0
  0
SPLINE
  5
A2
330
1F
100
AcDbEntity
  8
0
  6
Continuous
 62
     1
370
    15
100
AcDbSpline
210
0.0
220
0.0
230
1.0
 70
     8
 71
     3
 72
    46
 73
    42
 74
     0
 42
0.000000001
 43
0.00000001
 40
0.0
 40
0.0
 40
0.0
 40
0.0
 40
0.0624999999999997
 40
0.0624999999999997
 40
0.1249999999999994
 40
0.1249999999999994
 40
0.1874999999999992
 40
0.1874999999999992
 40
0.2499999999999989
 40
0.2499999999999989
 40
0.3124999999999986
 40
0.3124999999999986
 40
0.3749999999999983
 40
0.3749999999999983
 40
0.4374999999999981
 40
0.4374999999999981
 40
0.4999999999999978
 40
0.4999999999999978
 40
0.5624999999999976
 40
0.5624999999999976
 40
0.5937499999999973
 40
0.5937499999999973
 40
0.6249999999999972
 40
0.6249999999999972
 40
0.6562499999999971
 40
0.6562499999999971
 40
0.6874999999999969
 40
0.6874999999999969
 40
0.7499999999999982
 40
0.7499999999999982
 40
0.7812499999999989
 40
0.7812499999999989
 40
0.8124999999999994
 40
0.8124999999999994
 40
0.8437500000000001
 40
0.8437500000000001
 40
0.8750000000000008
 40
0.8750000000000008
 40
0.9375000000000003
 40
0.9375000000000003
 40
1.0
 40
1.0
 40
1.0
 40
1.0
 10
44.45000000000002
 20
-3.953865140344617
 30
0.0
 10
44.05600858005861
 20
-3.856954633340871
 30
0.0
 10
43.6563601374386
 20
-3.743221682616339
 30
0.0
 10
42.86048882182327
 20
-3.486003234859259
 30
0.0
 10
42.46746086320366
 20
-3.343008068975304
 30
0.0
 10
41.67214005208201
 20
-3.029519517632589
 30
0.0
 10
41.2722483210519
 20
-2.859222179027954
 30
0.0
 10
40.48277136892402
 20
-2.497994799963249
 30
0.0
 10
40.08483888846867
 20
-2.305824604375387
 30
0.0
 10
39.28855975226764
 20
-1.903903667902903
 30
0.0
 10
38.89527462441771
 20
-1.695069760219777
 30
0.0
 10
38.10064667250371
 20
-1.263747053925579
 30
0.0
 10
37.70058415926437
 20
-1.041439803446055
 30
0.0
 10
36.9097519722282
 20
-0.5918005327107525
 30
0.0
 10
36.51328120613802
 20
-0.3634084752473756
 30
0.0
 10
35.71673717730971
 20
0.095191812591773
 30
0.0
 10
35.32293786448768
 20
0.3241853976935039
 30
0.0
 10
34.52914471257113
 20
0.7788021857602428
 30
0.0
 10
34.12898402724078
 20
1.004433505781309
 30
0.0
 10
33.53494822151114
 20
1.334116856355989
 30
0.0
 10
33.33837783256813
 20
1.442486097891116
 30
0.0
 10
32.94171649431014
 20
1.656667316735252
 30
0.0
 10
32.74250565860875
 20
1.762313407291647
 30
0.0
 10
32.34417274116053
 20
1.969719860975222
 30
0.0
 10
32.1450525758343
 20
2.071479229837407
 30
0.0
 10
31.74875112149857
 20
2.270186258869241
 30
0.0
 10
31.55223184836863
 20
2.367034078568617
 30
0.0
 10
30.95761916641963
 20
2.650781971319136
 30
0.0
 10
30.55743297887713
 20
2.830315295952639
 30
0.0
 10
29.96259081010538
 20
3.080179469988042
 30
0.0
 10
29.76604980699639
 20
3.160139353359438
 30
0.0
 10
29.36991184425266
 20
3.31379469016658
 30
0.0
 10
29.17083555934192
 20
3.387407316178942
 30
0.0
 10
28.77251331861473
 20
3.527480802944833
 30
0.0
 10
28.57326927886016
 20
3.593940977427609
 30
0.0
 10
28.17646547254494
 20
3.719118486989134
 30
0.0
 10
27.97982989688944
 20
3.777755377233076
 30
0.0
 10
27.38605504262594
 20
3.942198944519981
 30
0.0
 10
26.98591603827711
 20
4.03631242483103
 30
0.0
 10
26.1918590390229
 20
4.189929765333686
 30
0.0
 10
25.79823999064589
 20
4.249559144713452
 30
0.0
 10
25.4
 20
4.291619513159953
 30
0.0
  0
SPLINE
  5
A3
330
1F
100
AcDbEntity
  8
0
  6
Continuous
 62
     1
370
    15
100
AcDbSpline
210
0.0
220
0.0
230
1.0
 70
     8
 71
     3
 72
    18
 73
    14
 74
     0
 42
0.000000001
 43
0.00000001
 40
0.0
 40
0.0
 40
0.0
 40
0.0
 40
0.0962958199025682
 40
0.1925141271023936
 40
0.2886932854436786
 40
0.38487195518191
 40
0.4810888002772291
 40
0.5773821956290712
 40
0.6736803906613763
 40
0.779526864089513
 40
0.88535861799185
 40
0.9911803897148894
 40
1.0
 40
1.0
 40
1.0
 40
1.0
 10
44.45000000000002
 20
0.3740526403446665
 30
0.0
 10
43.94155642667943
 20
0.6648527037698855
 30
0.0
 10
42.92507854843221
 20
1.246218752973997
 30
0.0
 10
41.40111560387143
 20
2.064094399149225
 30
0.0
 10
39.87787140653185
 20
2.799309214416061
 30
0.0
 10
38.35463569627003
 20
3.42094370465261
 30
0.0
 10
36.83070284248751
 20
3.904170650964866
 30
0.0
 10
35.30578841072511
 20
4.229488490015378
 30
0.0
 10
33.73007454888047
 20
4.387625213564936
 30
0.0
 10
32.10409437063185
 20
4.356690821399371
 30
0.0
 10
30.42787058987068
 20
4.093557683305199
 30
0.0
 10
29.26391583215859
 20
3.817979445690902
 30
0.0
 10
28.65869013729926
 20
3.590635968621528
 30
0.0
 10
28.61212881127813
 20
3.57314594160431
 30
0.0
  0
SPLINE
  5
A4
330
1F
100
AcDbEntity
  8
0
  6
Continuous
 62
     1
370
    15
100
AcDbSpline
210
0.0
220
0.0
230
1.0
 70
     8
 71
     3
 72
    17
 73
    13
 74
     0
 42
0.000000001
 43
0.00000001
 40
0.0
 40
0.0
 40
0.0
 40
0.0
 40
0.1009670364432209
 40
0.2019564362592407
 40
0.3030086569843972
 40
0.4041286501760728
 40
0.5051747063365664
 40
0.6061609926501738
 40
0.7071279902348554
 40
0.8182231562499617
 40
0.9293285995359848
 40
1.0
 40
1.0
 40
1.0
 40
1.0
 10
25.40000000000004
 20
-0.8004271327796318
 30
0.0
 10
25.90765053504689
 20
-1.085552928331267
 30
0.0
 10
26.92306404558219
 20
-1.655867672466308
 30
0.0
 10
28.44661258149227
 20
-2.435740406281002
 30
0.0
 10
29.97111090671963
 20
-3.119407981616336
 30
0.0
 10
31.49625239114361
 20
-3.675839659436496
 30
0.0
 10
33.02067233822855
 20
-4.084017744204933
 30
0.0
 10
34.54418946490897
 20
-4.326237382145224
 30
0.0
 10
36.118071395396
 20
-4.397321876028295
 30
0.0
 10
37.74329450110201
 20
-4.264332861128439
 30
0.0
 10
39.21606420958678
 20
-3.984278662360951
 30
0.0
 10
40.13022051195038
 20
-3.67921827343282
 30
0.0
 10
40.48562720071367
 20
-3.560616561207615
 30
0.0
  0
SPLINE
  5
A5
330
1F
100
AcDbEntity
  8
외형선
  6
Continuous
370
    15
100
AcDbSpline
210
0.0
220
0.0
230
1.0
 70
    24
 71
     3
 72
    22
 73
    18
 74
     0
 42
0.000000001
 43
0.00000001
 40
0.0
 40
0.0
 40
0.0
 40
0.0
 40
0.0045183889757616
 40
0.0766086063111443
 40
0.150789444832992
 40
0.2228796621683587
 40
0.2970605006901896
 40
0.369150718025558
 40
0.4433315565473903
 40
0.515421773882758
 40
0.5896026124045898
 40
0.6616928297399164
 40
0.7358736682617035
 40
0.8079638855971129
 40
0.8821447241189899
 40
0.9542349414543579
 40
1.0
 40
1.0
 40
1.0
 40
1.0
 10
25.40000000000001
 20
3.752453710328054
 30
0.0
 10
25.4
 20
3.746372135976026
 30
0.0
 10
25.39999999999965
 20
3.64325995643908
 30
0.0
 10
25.40000000000018
 20
3.419394100673451
 30
0.0
 10
25.39999999999994
 20
3.050079198448894
 30
0.0
 10
25.40000000000004
 20
2.641541469452693
 30
0.0
 10
25.4
 20
2.212965741171531
 30
0.0
 10
25.40000000000001
 20
1.768696830683693
 30
0.0
 10
25.4
 20
1.329326511256616
 30
0.0
 10
25.40000000000004
 20
0.8993725107981305
 30
0.0
 10
25.40000000000007
 20
0.498765149546308
 30
0.0
 10
25.40000000000001
 20
0.1315554837490247
 30
0.0
 10
25.39999999999998
 20
-0.1849646945469052
 30
0.0
 10
25.40000000000008
 20
-0.4486129563245309
 30
0.0
 10
25.40000000000001
 20
-0.6431592200983866
 30
0.0
 10
25.39999999999998
 20
-0.7637910168402492
 30
0.0
 10
25.39999999999998
 20
-0.7868583810927001
 30
0.0
 10
25.40000000000001
 20
-0.7958158016885583
 30
0.0
  0
SPLINE
  5
A6
330
1F
100
AcDbEntity
  8
0
  6
Continuous
 62
     1
370
    15
100
AcDbSpline
210
0.0
220
0.0
230
1.0
 70
     8
 71
     3
 72
    46
 73
    42
 74
     0
 42
0.000000001
 43
0.00000001
 40
0.0
 40
0.0
 40
0.0
 40
0.0
 40
0.0624999999999992
 40
0.0624999999999992
 40
0.1249999999999984
 40
0.1249999999999984
 40
0.1874999999999976
 40
0.1874999999999976
 40
0.2499999999999968
 40
0.2499999999999968
 40
0.3124999999999961
 40
0.3124999999999961
 40
0.3749999999999952
 40
0.3749999999999952
 40
0.4374999999999944
 40
0.4374999999999944
 40
0.4999999999999937
 40
0.4999999999999937
 40
0.5624999999999929
 40
0.5624999999999929
 40
0.5937499999999932
 40
0.5937499999999932
 40
0.6249999999999937
 40
0.6249999999999937
 40
0.656249999999994
 40
0.656249999999994
 40
0.6874999999999944
 40
0.6874999999999944
 40
0.7499999999999968
 40
0.7499999999999968
 40
0.7812499999999972
 40
0.7812499999999972
 40
0.8124999999999976
 40
0.8124999999999976
 40
0.843749999999998
 40
0.843749999999998
 40
0.8749999999999983
 40
0.8749999999999983
 40
0.9374999999999991
 40
0.9374999999999991
 40
1.0
 40
1.0
 40
1.0
 40
1.0
 10
44.45000000000003
 20
-4.365624999999993
 30
0.0
 10
44.0560085800586
 20
-4.329985378226385
 30
0.0
 10
43.6563601374386
 20
-4.292308340266871
 30
0.0
 10
42.86048882182328
 20
-4.181811734850323
 30
0.0
 10
42.46746086320364
 20
-4.109307543045777
 30
0.0
 10
41.67214005208199
 20
-3.930446936044716
 30
0.0
 10
41.27224832105187
 20
-3.824116377108002
 30
0.0
 10
40.48277136892398
 20
-3.581819729257813
 30
0.0
 10
40.08483888846867
 20
-3.445041154421776
 30
0.0
 10
39.2885597522676
 20
-3.144034445984328
 30
0.0
 10
38.89527462441771
 20
-2.980539990618838
 30
0.0
 10
38.10064667250374
 20
-2.629234936143682
 30
0.0
 10
37.70058415926438
 20
-2.441512101735323
 30
0.0
 10
36.90975197222821
 20
-2.0489679924962
 30
0.0
 10
36.51328120613802
 20
-1.8432500879636
 30
0.0
 10
35.71673717730977
 20
-1.417632696603497
 30
0.0
 10
35.32293786448769
 20
-1.198884193747662
 30
0.0
 10
34.5291447125711
 20
-0.7521844238971724
 30
0.0
 10
34.12898402724075
 20
-0.5241727510702928
 30
0.0
 10
33.53494822151117
 20
-0.1814973078399664
 30
0.0
 10
33.33837783256815
 20
-0.0672446704839701
 30
0.0
 10
32.94171649431011
 20
0.1618407733398953
 30
0.0
 10
32.74250565860874
 20
0.2765038387472882
 30
0.0
 10
32.34417274116055
 20
0.5050030980205044
 30
0.0
 10
32.14505257583428
 20
0.6188381932781989
 30
0.0
 10
31.74875112149857
 20
0.8446277588376208
 30
0.0
 10
31.55223184836866
 20
0.9564602704169505
 30
0.0
 10
30.95761916641965
 20
1.289605628667672
 30
0.0
 10
30.55743297887713
 20
1.507966459555283
 30
0.0
 10
29.96259081010532
 20
1.823841542679065
 30
0.0
 10
29.76604980699634
 20
1.927056545181298
 30
0.0
 10
29.36991184425264
 20
2.12983433084716
 30
0.0
 10
29.17083555934189
 20
2.229298682600257
 30
0.0
 10
28.77251331861473
 20
2.423429804205385
 30
0.0
 10
28.57326927886013
 20
2.518095631782876
 30
0.0
 10
28.17646547254495
 20
2.701767345528836
 30
0.0
 10
27.97982989688946
 20
2.790642500302429
 30
0.0
 10
27.38605504262596
 20
3.048952851890165
 30
0.0
 10
26.98591603827714
 20
3.209836060319489
 30
0.0
 10
26.1918590390229
 20
3.502927660645778
 30
0.0
 10
25.79823999064589
 20
3.635215601098229
 30
0.0
 10
25.40000000000004
 20
3.752453710328059
 30
0.0
  0
LINE
  5
A7
330
1F
100
AcDbEntity
  8
0
  6
Continuous
 62
     1
370
    15
100
AcDbLine
 10
44.45000000000002
 20
-4.365624999999993
 30
0.0
 11
44.45000000000001
 21
-3.953865140344617
 31
0.0
  0
LINE
  5
A8
330
1F
100
AcDbEntity
  8
외형선
  6
Continuous
370
    15
100
AcDbLine
 10
25.40000000000001
 20
3.752453710328054
 30
0.0
 11
25.4
 21
4.291619513159953
 31
0.0
  0
SPLINE
  5
A9
330
1F
100
AcDbEntity
  8
0
  6
Continuous
 62
     1
370
    15
100
AcDbSpline
210
0.0
220
0.0
230
1.0
 70
     8
 71
     3
 72
    13
 73
     9
 74
     0
 42
0.000000001
 43
0.00000001
 40
0.0
 40
0.0
 40
0.0
 40
0.0
 40
0.0214983504185537
 40
0.2171450157430123
 40
0.4128097800888383
 40
0.6085014037818022
 40
0.8042285963081501
 40
0.9999999999999999
 40
0.9999999999999999
 40
0.9999999999999999
 40
0.9999999999999999
 10
35.88308509852402
 20
4.356226169046777
 30
0.0
 10
35.94446296967941
 20
4.359254336525828
 30
0.0
 10
36.56441280484471
 20
4.389840472769255
 30
0.0
 10
37.74330728686904
 20
4.25653597642166
 30
0.0
 10
39.41947415589814
 20
3.932194052021991
 30
0.0
 10
41.09597661467645
 20
3.394015887440179
 30
0.0
 10
42.77282258779486
 20
2.701340700485221
 30
0.0
 10
43.89089877521763
 20
2.134365787901403
 30
0.0
 10
44.45000000000002
 20
1.85084631792932
 30
0.0
  0
LINE
  5
AA
330
1F
100
AcDbEntity
  8
0
  6
Continuous
 62
     1
370
    15
100
AcDbLine
 10
44.45000000000001
 20
0.3740526403446666
 30
0.0
 11
44.45000000000001
 21
1.85084631792932
 31
0.0
  0
SPLINE
  5
AB
330
1F
100
AcDbEntity
  8
0
  6
Continuous
 62
     1
370
    15
100
AcDbSpline
210
0.0
220
0.0
230
1.0
 70
     8
 71
     3
 72
    12
 73
     8
 74
     0
 42
0.000000001
 43
0.00000001
 40
0.0
 40
0.0
 40
0.0
 40
0.0
 40
0.1427905091782393
 40
0.3571135676035737
 40
0.5714164108182747
 40
0.785708670895877
 40
1.0
 40
1.0
 40
1.0
 40
1.0
 10
33.22080453561125
 20
-4.34179520360187
 30
0.0
 10
32.84854205212449
 20
-4.342023658780908
 30
0.0
 10
31.91752790890173
 20
-4.342595016390697
 30
0.0
 10
30.42787175825389
 20
-4.099916679361376
 30
0.0
 10
28.75183713051818
 20
-3.655014277612191
 30
0.0
 10
27.07590492796817
 20
-3.03081415642082
 30
0.0
 10
25.95863416700723
 20
-2.497665857341222
 30
0.0
 10
25.40000000000004
 20
-2.231092286856408
 30
0.0
  0
LINE
  5
AC
330
1F
100
AcDbEntity
  8
외형선
  6
Continuous
370
    15
100
AcDbLine
 10
25.40000000000001
 20
-2.231092286856403
 30
0.0
 11
25.40000000000003
 21
-0.8004271327796261
 31
0.0
  0
SPLINE
  5
AD
330
1F
100
AcDbEntity
  8
0
  6
Continuous
 62
     1
370
    15
100
AcDbSpline
210
0.0
220
0.0
230
1.0
 70
     8
 71
     3
 72
    10
 73
     6
 74
     0
 42
0.000000001
 43
0.00000001
 40
0.0
 40
0.0
 40
0.0
 40
0.0
 40
0.3846999428720804
 40
0.7690902239919976
 40
1.0
 40
1.0
 40
1.0
 40
1.0
 10
44.45000000000005
 20
4.365625000000007
 30
0.0
 10
43.94155680757834
 20
4.306171993622483
 30
0.0
 10
42.92507969082229
 20
4.219409287187655
 30
0.0
 10
41.60370901688609
 20
3.936134424812511
 30
0.0
 10
40.79072413012921
 20
3.663086117074948
 30
0.0
 10
40.48562720071367
 20
3.560616561207611
 30
0.0
  0
LINE
  5
AE
330
1F
100
AcDbEntity
  8
0
  6
Continuous
 62
     1
370
    15
100
AcDbLine
 10
44.45000000000001
 20
1.836638434010185
 30
0.0
 11
44.45000000000002
 21
4.365625000000006
 31
0.0
  0
SPLINE
  5
AF
330
1F
100
AcDbEntity
  8
0
  6
Continuous
 62
     1
370
    15
100
AcDbSpline
210
0.0
220
0.0
230
1.0
 70
     8
 71
     3
 72
    10
 73
     6
 74
     0
 42
0.000000001
 43
0.00000001
 40
0.0
 40
0.0
 40
0.0
 40
0.0
 40
0.4741423340671124
 40
0.9483896867833643
 40
0.9999999999999999
 40
0.9999999999999999
 40
0.9999999999999999
 40
0.9999999999999999
 10
25.4
 20
-4.291619513159951
 30
0.0
 10
25.90765533231148
 20
-4.218421701568482
 30
0.0
 10
26.92307843843859
 20
-4.072009865668936
 30
0.0
 10
27.99373852008519
 20
-3.801860748782483
 30
0.0
 10
28.55686112930962
 20
-3.593586976019991
 30
0.0
 10
28.61212881127806
 20
-3.573145941604313
 30
0.0
  0
SPLINE
  5
B0
330
1F
100
AcDbEntity
  8
외형선
  6
Continuous
370
    15
100
AcDbSpline
210
0.0
220
0.0
230
1.0
 70
    24
 71
     3
 72
    12
 73
     8
 74
     0
 42
0.000000001
 43
0.00000001
 40
0.0
 40
0.0
 40
0.0
 40
0.0
 40
0.1844164650120503
 40
0.3930945823180708
 40
0.5958915731513557
 40
0.8045696904572477
 40
1.0
 40
1.0
 40
1.0
 40
1.0
 10
25.40000000000001
 20
-2.292469099869487
 30
0.0
 10
25.40000000000004
 20
-2.396461685980039
 30
0.0
 10
25.40000000000008
 20
-2.618128022544036
 30
0.0
 10
25.39999999999997
 20
-3.004532114278808
 30
0.0
 10
25.40000000000001
 20
-3.429832052677114
 30
0.0
 10
25.40000000000007
 20
-3.863242396736394
 30
0.0
 10
25.40000000000003
 20
-4.151982376504559
 30
0.0
 10
25.40000000000001
 20
-4.291619513159953
 30
0.0
  0
LINE
  5
B1
330
1F
100
AcDbEntity
  8
외형선
  6
Continuous
370
    15
100
AcDbLine
 10
24.40000000000001
 20
-0.0000000000000019
 30
0.0
 11
24.40000000000001
 21
4.365624999999999
 31
0.0
  0
LINE
  5
B2
330
1F
100
AcDbEntity
  8
외형선
  6
Continuous
370
    15
100
AcDbLine
 10
24.40000000000001
 20
-4.365625000000005
 30
0.0
 11
24.40000000000001
 21
-0.0000000000000019
 31
0.0
  0
LINE
  5
B3
330
1F
100
AcDbEntity
  8
외형선
  6
Continuous
370
    15
100
AcDbLine
 10
22.91884233574608
 20
-0.0000000000000019
 30
0.0
 11
22.91884233574608
 21
4.762500000000006
 31
0.0
  0
LINE
  5
B4
330
1F
100
AcDbEntity
  8
외형선
  6
Continuous
370
    15
100
AcDbLine
 10
22.91884233574608
 20
-4.76250000000001
 30
0.0
 11
22.91884233574608
 21
-0.0000000000000019
 31
0.0
  0
LINE
  5
B9
330
1F
100
AcDbEntity
  8
외형선
  6
Continuous
370
    15
100
AcDbLine
 10
24.89984966415628
 20
4.335067586475626
 30
0.0
 11
24.89984966415628
 21
4.365624999999998
 31
0.0
  0
SPLINE
  5
BA
330
1F
100
AcDbEntity
  8
외형선
  6
Continuous
370
    15
100
AcDbSpline
210
0.0
220
0.0
230
1.0
 70
     8
 71
     3
 72
     8
 73
     4
 74
     0
 42
0.000000001
 43
0.00000001
 40
0.0
 40
0.0
 40
0.0
 40
0.0
 40
1.0
 40
1.0
 40
1.0
 40
1.0
 10
25.4
 20
4.291619513159956
 30
0.0
 10
25.23325061223957
 20
4.309230855195339
 30
0.0
 10
25.066352329831
 20
4.323727623783305
 30
0.0
 10
24.89984966415628
 20
4.33506714413027
 30
0.0
  0
SPLINE
  5
BB
330
1F
100
AcDbEntity
  8
외형선
  6
Continuous
370
    15
100
AcDbSpline
210
0.0
220
0.0
230
1.0
 70
     8
 71
     3
 72
     8
 73
     4
 74
     0
 42
0.000000001
 43
0.00000001
 40
0.0
 40
0.0
 40
0.0
 40
0.0
 40
1.0
 40
1.0
 40
1.0
 40
1.0
 10
25.4
 20
3.75245371032806
 30
0.0
 10
25.23325061223956
 20
3.801543162405836
 30
0.0
 10
25.06635232983099
 20
3.847919320402425
 30
0.0
 10
24.89984966415626
 20
3.891434950989153
 30
0.0
  0
LINE
  5
BC
330
1F
100
AcDbEntity
  8
외형선
  6
Continuous
370
    15
100
AcDbLine
 10
24.89984966415628
 20
-0.5156264746048406
 30
0.0
 11
24.89984966415628
 21
3.891437804989164
 31
0.0
  0
SPLINE
  5
BD
330
1F
100
AcDbEntity
  8
외형선
  6
Continuous
370
    15
100
AcDbSpline
210
0.0
220
0.0
230
1.0
 70
     8
 71
     3
 72
     8
 73
     4
 74
     0
 42
0.000000001
 43
0.00000001
 40
0.0
 40
0.0
 40
0.0
 40
0.0
 40
1.0
 40
1.0
 40
1.0
 40
1.0
 10
25.4
 20
-0.8004271327795991
 30
0.0
 10
25.23325061223957
 20
-0.70600107444557
 30
0.0
 10
25.066352329831
 20
-0.6109651500828785
 30
0.0
 10
24.89984966415628
 20
-0.5156301935566647
 30
0.0
  0
SPLINE
  5
BE
330
1F
100
AcDbEntity
  8
외형선
  6
Continuous
370
    15
100
AcDbSpline
210
0.0
220
0.0
230
1.0
 70
     8
 71
     3
 72
     8
 73
     4
 74
     0
 42
0.000000001
 43
0.00000001
 40
0.0
 40
0.0
 40
0.0
 40
0.0
 40
1.0
 40
1.0
 40
1.0
 40
1.0
 10
25.4
 20
-2.231092286856395
 30
0.0
 10
25.23325061223956
 20
-2.14852918640896
 30
0.0
 10
25.06635232983099
 20
-2.0643197143263
 30
0.0
 10
24.89984966415626
 20
-1.978740928682926
 30
0.0
  0
LINE
  5
BF
330
1F
100
AcDbEntity
  8
외형선
  6
Continuous
370
    15
100
AcDbLine
 10
24.89984966415628
 20
-4.365625000000001
 30
0.0
 11
24.89984966415628
 21
-1.978735315934412
 31
0.0
  0
SPLINE
  5
C0
330
1F
100
AcDbEntity
  8
외형선
  6
Continuous
370
    15
100
AcDbSpline
210
0.0
220
0.0
230
1.0
 70
     8
 71
     3
 72
     8
 73
     4
 74
     0
 42
0.000000001
 43
0.00000001
 40
0.0
 40
0.0
 40
0.0
 40
0.0
 40
1.0
 40
1.0
 40
1.0
 40
1.0
 10
25.4
 20
-4.291619513159955
 30
0.0
 10
25.23325061223957
 20
-4.309230855195338
 30
0.0
 10
25.066352329831
 20
-4.323727623783303
 30
0.0
 10
24.89984966415628
 20
-4.335067144130269
 30
0.0
  0
SPLINE
  5
C1
330
1F
100
AcDbEntity
  8
외형선
  6
Continuous
370
    15
100
AcDbSpline
210
0.0
220
0.0
230
1.0
 70
    24
 71
     3
 72
    21
 73
    17
 74
     0
 42
0.000000001
 43
0.00000001
 40
0.0
 40
0.0
 40
0.0
 40
0.0
 40
0.0400398551866866
 40
0.1122432010637588
 40
0.1865404488626661
 40
0.2587437947397955
 40
0.3330410425387657
 40
0.4052443884158666
 40
0.4795416362148058
 40
0.5517449820919054
 40
0.626042229890843
 40
0.6982455757679402
 40
0.7725428235668756
 40
0.8447461694439798
 40
0.919043417242923
 40
1.0
 40
1.0
 40
1.0
 40
1.0
 10
25.40000000000003
 20
-0.7953414384853345
 30
0.0
 10
25.40000000000003
 20
-0.7877364173412224
 30
0.0
 10
25.40000000000003
 20
-0.7664173612808857
 30
0.0
 10
25.40000000000003
 20
-0.6524571054486498
 30
0.0
 10
25.39999999999998
 20
-0.4619525303666948
 30
0.0
 10
25.39999999999998
 20
-0.201798861736462
 30
0.0
 10
25.40000000000011
 20
0.1116806934324028
 30
0.0
 10
25.39999999999996
 20
0.4764029771304985
 30
0.0
 10
25.40000000000011
 20
0.8751750951912601
 30
0.0
 10
25.39999999999996
 20
1.303962211265105
 30
0.0
 10
25.40000000000008
 20
1.742915072293799
 30
0.0
 10
25.39999999999994
 20
2.187414578442484
 30
0.0
 10
25.39999999999998
 20
2.617253136201005
 30
0.0
 10
25.39999999999998
 20
3.026595905528756
 30
0.0
 10
25.40000000000007
 20
3.416736497654614
 30
0.0
 10
25.40000000000003
 20
3.637393083112029
 30
0.0
 10
25.4
 20
3.752453710328126
 30
0.0
  0
SPLINE
  5
C2
330
1F
100
AcDbEntity
  8
외형선
  6
Continuous
370
    15
100
AcDbSpline
210
0.0
220
0.0
230
1.0
 70
    24
 71
     3
 72
    12
 73
     8
 74
     0
 42
0.000000001
 43
0.00000001
 40
0.0
 40
0.0
 40
0.0
 40
0.0
 40
0.1936659683958601
 40
0.3924238556614361
 40
0.5953474002716288
 40
0.8041557414225284
 40
1.0
 40
1.0
 40
1.0
 40
1.0
 10
25.4
 20
-4.291619513159953
 30
0.0
 10
25.4
 20
-4.153335567180627
 30
0.0
 10
25.40000000000001
 20
-3.87313187570726
 30
0.0
 10
25.40000000000007
 20
-3.448219752689035
 30
0.0
 10
25.39999999999998
 20
-3.028464330475434
 30
0.0
 10
25.39999999999997
 20
-2.633224384774582
 30
0.0
 10
25.4
 20
-2.403595275934523
 30
0.0
 10
25.40000000000003
 20
-2.292459099869487
 30
0.0
  0
LINE
  5
C3
330
1F
100
AcDbEntity
  8
중심선
 48
0.8
100
AcDbLine
 10
-47.45
 20
-0.0000000000000058
 30
0.0
 11
47.45000000000001
 21
0.0000000000000058
 31
0.0
  0
LINE
  5
C4
330
1F
100
AcDbEntity
  8
참조1
100
AcDbLine
 10
4.955880657015618
 20
0.0010749287238892
 30
0.0
 11
4.955880657015622
 21
-39.99892507127611
 31
0.0
  0
LINE
  5
C5
330
1F
100
AcDbEntity
  8
참조1
100
AcDbLine
 10
4.955880657015622
 20
-39.99892507127611
 30
0.0
 11
-29.25297615729306
 21
-39.9989250712761
 31
0.0
  0
CIRCLE
  5
C6
330
1F
100
AcDbEntity
  8
해칭선
100
AcDbCircle
 10
0.0
 20
0.0
 30
0.0
 40
3.000000000000008
  0
INSERT
  5
C7
330
1F
100
AcDbEntity
  8
0
  6
Continuous
 62
     7
100
AcDbBlockReference
 66
     1
  2
블럭10
 10
-13.9402729321252
 20
-52.04717430164393
 30
0.0
  0
ATTRIB
  5
C8
330
C7
100
AcDbEntity
  8
FORMAT
 62
     2
100
AcDbText
 10
-23.12156822086648
 20
-49.97180738881174
 30
0.0
 40
4.233333333333333
  1
E2051022 [ 4 FLUTE ]
 41
0.75
  7
SLDTEXTSTYLE0
 11
-23.12156822086648
 21
-52.08847405547841
 31
0.0
100
AcDbAttribute
  2
AUTOATTR0
 70
     0
 74
     1
  0
SEQEND
  5
C9
330
C7
100
AcDbEntity
  8
0
  6
Continuous
 62
     7
  0
HATCH
  5
CA
330
1F
100
AcDbEntity
  8
중심선
100
AcDbHatch
 10
0.0
 20
0.0
 30
0.0
210
0.0
220
0.0
230
1.0
  2
SOLID
 70
     1
 71
     0
 91
        1
 92
        0
 93
        4
 72
     1
 10
-8.22536362774435
 20
-35.8
 11
-11.67163887158163
 21
-35.8
 72
     1
 10
-11.67163887158163
 20
-35.8
 11
-13.79986873078565
 21
-38.3363255805726
 72
     1
 10
-13.79986873078565
 20
-38.3363255805726
 11
-10.35356040183522
 21
-38.33628615127011
 72
     1
 10
-10.35356040183522
 20
-38.33628615127011
 11
-8.22536362774435
 21
-35.8
 97
        0
 75
     0
 76
     1
 98
        1
 10
-4.955880657015612
 20
-0.0010749287238951
  0
HATCH
  5
CB
330
1F
100
AcDbEntity
  8
중심선
100
AcDbHatch
 10
0.0
 20
0.0
 30
0.0
210
0.0
220
0.0
230
1.0
  2
SOLID
 70
     1
 71
     0
 91
        1
 92
        0
 93
        4
 72
     1
 10
-3.212599636708343
 20
-35.79999999999998
 11
-6.658874880545653
 21
-35.8
 72
     1
 10
-6.658874880545653
 20
-35.8
 11
-11.19001288890307
 21
-41.20000000000002
 72
     1
 10
-11.19001288890307
 20
-41.20000000000002
 11
-7.743737645065787
 21
-41.20000000000002
 72
     1
 10
-7.743737645065787
 20
-41.20000000000002
 11
-3.212599636708343
 21
-35.79999999999998
 97
        0
 75
     0
 76
     1
 98
        1
 10
-4.955880657015612
 20
-0.0010749287238951
  0
HATCH
  5
CC
330
1F
100
AcDbEntity
  8
중심선
100
AcDbHatch
 10
0.0
 20
0.0
 30
0.0
210
0.0
220
0.0
230
1.0
  2
SOLID
 70
     1
 71
     0
 91
        1
 92
        0
 93
        4
 72
     1
 10
1.800164354327524
 20
-35.79999999999998
 11
-1.646110889509591
 21
-35.79999999999998
 72
     1
 10
-1.646110889509591
 20
-35.79999999999998
 11
-8.694547791398868
 21
-44.20000000000002
 72
     1
 10
-8.694547791398868
 20
-44.20000000000002
 11
-5.248272547561585
 21
-44.20000000000002
 72
     1
 10
-5.248272547561585
 20
-44.20000000000002
 11
1.800164354327524
 21
-35.79999999999998
 97
        0
 75
     0
 76
     1
 98
        1
 10
-4.955880657015612
 20
-0.0010749287238951
  0
HATCH
  5
CD
330
1F
100
AcDbEntity
  8
중심선
100
AcDbHatch
 10
0.0
 20
0.0
 30
0.0
210
0.0
220
0.0
230
1.0
  2
SOLID
 70
     1
 71
     0
 91
        1
 92
        0
 93
        6
 72
     3
 10
6.600054785339696
 20
-40.00000000005127
 11
3.960054785062283
 21
1.540882976769353E-10
 40
0.3939339440162628
 50
17.09539180608436
 51
320.0019657685087
 73
     0
 72
     1
 10
8.283054441040292
 20
-38.58789400463833
 11
10.58835631474133
 21
-36.65356729459038
 72
     3
 10
6.600054785286849
 20
-40.00000000000015
 11
6.600054785286831
 21
-1.278976924368180E-13
 40
0.6363583540795978
 50
39.99873849337411
 51
368.4976242363724
 73
     1
 72
     1
 10
13.02538727718746
 20
-39.03999999993002
 11
5.280122092122772
 21
-39.03999999993002
 72
     1
 10
5.280122092122772
 20
-39.03999999993002
 11
5.280097047676838
 21
-40.95999999992991
 72
     1
 10
5.280097047676838
 20
-40.95999999992991
 11
9.721476817148876
 21
-40.95999999992988
 97
        0
 75
     0
 76
     1
 98
        1
 10
-4.955880657015612
 20
-0.0010749287238951
  0
DIMENSION
  5
CE
330
1F
100
AcDbEntity
  8
치수문자_일반주서
100
AcDbDimension
  2
_D
 10
60.13033765006257
 20
-4.365624999999934
 30
0.0
 11
60.13033765006247
 21
25.84462500000008
 31
0.0
 70
   160
  1
%%c<>
 71
     2
 42
8.73125
 52
-270.0
  3
SLDDIMSTYLE2
100
AcDbAlignedDimension
 13
44.45000000000005
 23
4.365625000000007
 33
0.0
 14
44.45000000000003
 24
-4.365624999999993
 34
0.0
 50
90.0000000000002
100
AcDbRotatedDimension
1001
ACAD
1000
DSTYLE
1002
{
1070
   171
1070
     6
1070
   273
1070
     7
1002
}
  0
DIMENSION
  5
E2
330
1F
100
AcDbEntity
  8
치수문자_일반주서
100
AcDbDimension
  2
_D_1
 10
25.4
 20
15.65618833894388
 30
0.0
 11
6.327249999999999
 21
15.65618833894388
 31
0.0
 70
   160
  1
<>
 71
     2
 42
19.05000000000002
  3
SLDDIMSTYLE2
100
AcDbAlignedDimension
 13
44.45000000000002
 23
4.365625000000006
 33
0.0
 14
25.4
 24
4.291619513159953
 34
0.0
100
AcDbRotatedDimension
1001
ACAD
1000
DSTYLE
1002
{
1070
   171
1070
     6
1070
   273
1070
     7
1002
}
  0
DIMENSION
  5
F6
330
1F
100
AcDbEntity
  8
치수문자_일반주서
100
AcDbDimension
  2
_D_2
 10
-44.45000000000005
 20
27.67044754839289
 30
0.0
 11
0.7840760281528603
 21
27.67044754839289
 31
0.0
 70
   160
  1
<>
 71
     2
 42
88.90000000000006
  3
SLDDIMSTYLE2
100
AcDbAlignedDimension
 13
44.45000000000002
 23
4.365625000000006
 33
0.0
 14
-44.45000000000005
 24
4.365625000000001
 34
0.0
100
AcDbRotatedDimension
1001
ACAD
1000
DSTYLE
1002
{
1070
   171
1070
     6
1070
   273
1070
     7
1002
}
  0
DIMENSION
  5
10A
330
1F
100
AcDbEntity
  8
치수문자_일반주서
100
AcDbDimension
  2
_D_3
 10
-56.97374999999999
 20
-4.762500000000133
 30
0.0
 11
-56.97375000000001
 21
0.0000000000000007
 31
0.0
 70
   160
  1
%%c<>
 71
     2
 42
9.52500000000003
 52
-270.0
  3
SLDDIMSTYLE2
100
AcDbAlignedDimension
 13
-22.91884233574609
 23
4.762500000000024
 33
0.0
 14
-22.91884233574608
 24
-4.762500000000006
 34
0.0
 50
90.0000000000002
100
AcDbRotatedDimension
1001
ACAD
1000
DSTYLE
1002
{
1070
   171
1070
     6
1070
   273
1070
     7
1002
}
  0
LINE
  5
11F
330
1F
100
AcDbEntity
  8
참조1
100
AcDbLine
 10
68.7193644723612
 20
7.441074928723896
 30
0.0
 11
68.7193644723612
 21
-7.438925071276109
 31
0.0
  0
LINE
  5
120
330
1F
100
AcDbEntity
  8
참조1
100
AcDbLine
 10
81.41936447236121
 20
5.441074928723896
 30
0.0
 11
68.7193644723612
 21
5.441074928723896
 31
0.0
  0
SOLID
  5
121
330
1F
100
AcDbEntity
  8
참조1
100
AcDbTrace
 10
68.7193644723612
 20
5.441074928723896
 30
0.0
 11
75.0693644723612
 21
4.425074928723896
 31
0.0
 12
75.0693644723612
 22
6.457074928723896
 32
0.0
 13
75.0693644723612
 23
6.457074928723896
 33
0.0
  0
LINE
  5
122
330
1F
100
AcDbEntity
  8
참조1
100
AcDbLine
 10
81.41936447236121
 20
-5.438925071276109
 30
0.0
 11
68.7193644723612
 21
-5.438925071276109
 31
0.0
  0
SOLID
  5
123
330
1F
100
AcDbEntity
  8
참조1
100
AcDbTrace
 10
68.7193644723612
 20
-5.438925071276109
 30
0.0
 11
75.0693644723612
 21
-6.454925071276109
 31
0.0
 12
75.0693644723612
 22
-4.422925071276109
 32
0.0
 13
75.0693644723612
 23
-4.422925071276109
 33
0.0
  0
MTEXT
  5
124
330
1F
100
AcDbEntity
  8
참조1
100
AcDbMText
 10
78.1037146049872
 20
11.01136670591223
 30
0.0
 40
3.5
 41
0.0
 71
     1
 72
     1
  1
A
  7
SLDTEXTSTYLE0
 73
     1
 44
1.0
  0
MTEXT
  5
125
330
1F
100
AcDbEntity
  8
참조1
100
AcDbMText
 10
78.1037146049872
 20
0.1313667059122219
 30
0.0
 40
3.5
 41
0.0
 71
     1
 72
     1
  1
A
  7
SLDTEXTSTYLE0
 73
     1
 44
1.0
  0
INSERT
  5
12C
330
1F
100
AcDbEntity
  8
해칭선
100
AcDbBlockReference
  2
SW_DOWELSYMBOL_0
 10
0.0
 20
0.0
 30
0.0
  0
LINE
  5
316
330
1F
100
AcDbEntity
  8
외형선
  6
Continuous
370
    15
100
AcDbLine
 10
-26.27682080853407
 20
1.291934220011868
 30
0.0
 11
-26.30854544147209
 21
1.309533820815609
 31
0.0
  0
LINE
  5
317
330
1F
100
AcDbEntity
  8
0
  6
Continuous
 62
     1
370
    15
100
AcDbLine
 10
-35.88308509852405
 20
-4.365624999999987
 30
0.0
 11
-33.22080453561131
 21
-4.365624999999987
 31
0.0
  0
LINE
  5
318
330
1F
100
AcDbEntity
  8
0
  6
Continuous
 62
     1
370
    15
100
AcDbLine
 10
-33.22080453561125
 20
4.365625000000016
 30
0.0
 11
-35.88308509852402
 21
4.365625000000016
 31
0.0
  0
LINE
  5
319
330
1F
100
AcDbEntity
  8
외형선
  6
Continuous
370
    15
100
AcDbLine
 10
-22.91884233574609
 20
4.762500000000024
 30
0.0
 11
-24.40000000000003
 21
4.365625000000016
 31
0.0
  0
LINE
  5
31A
330
1F
100
AcDbEntity
  8
외형선
  6
Continuous
370
    15
100
AcDbLine
 10
-24.40000000000003
 20
-4.365624999999987
 30
0.0
 11
-22.91884233574609
 21
-4.762499999999996
 31
0.0
  0
LINE
  5
31D
330
1F
100
AcDbEntity
  8
외형선
  6
Continuous
370
    15
100
AcDbLine
 10
-24.40000000000003
 20
4.365625000000016
 30
0.0
 11
-24.89984966415631
 21
4.365625000000016
 31
0.0
  0
LINE
  5
31E
330
1F
100
AcDbEntity
  8
외형선
  6
Continuous
370
    15
100
AcDbLine
 10
-24.89984966415631
 20
-4.365624999999987
 30
0.0
 11
-24.40000000000003
 21
-4.365624999999987
 31
0.0
  0
LINE
  5
31F
330
1F
100
AcDbEntity
  8
0
  6
Continuous
 62
     1
370
    15
100
AcDbLine
 10
-44.45000000000002
 20
3.953865140344625
 30
0.0
 11
-44.45000000000002
 21
-0.3740526403446579
 31
0.0
  0
SPLINE
  5
320
330
1F
100
AcDbEntity
  8
0
  6
Continuous
 62
     1
370
    15
100
AcDbSpline
210
0.0
220
0.0
230
1.0
 70
     8
 71
     3
 72
    46
 73
    42
 74
     0
 42
0.000000001
 43
0.00000001
 40
0.0
 40
0.0
 40
0.0
 40
0.0
 40
0.0624999999999997
 40
0.0624999999999997
 40
0.1249999999999994
 40
0.1249999999999994
 40
0.1874999999999992
 40
0.1874999999999992
 40
0.2499999999999989
 40
0.2499999999999989
 40
0.3124999999999986
 40
0.3124999999999986
 40
0.3749999999999983
 40
0.3749999999999983
 40
0.4374999999999981
 40
0.4374999999999981
 40
0.4999999999999978
 40
0.4999999999999978
 40
0.5624999999999976
 40
0.5624999999999976
 40
0.5937499999999973
 40
0.5937499999999973
 40
0.6249999999999972
 40
0.6249999999999972
 40
0.6562499999999971
 40
0.6562499999999971
 40
0.6874999999999969
 40
0.6874999999999969
 40
0.7499999999999982
 40
0.7499999999999982
 40
0.7812499999999989
 40
0.7812499999999989
 40
0.8124999999999994
 40
0.8124999999999994
 40
0.8437500000000001
 40
0.8437500000000001
 40
0.8750000000000008
 40
0.8750000000000008
 40
0.9375000000000003
 40
0.9375000000000003
 40
1.0
 40
1.0
 40
1.0
 40
1.0
 10
-44.45000000000005
 20
3.953865140344625
 30
0.0
 10
-44.05600858005863
 20
3.856954633340884
 30
0.0
 10
-43.65636013743861
 20
3.743221682616351
 30
0.0
 10
-42.86048882182328
 20
3.486003234859268
 30
0.0
 10
-42.46746086320366
 20
3.343008068975315
 30
0.0
 10
-41.67214005208203
 20
3.0295195176326
 30
0.0
 10
-41.2722483210519
 20
2.859222179027967
 30
0.0
 10
-40.48277136892403
 20
2.497994799963259
 30
0.0
 10
-40.08483888846868
 20
2.305824604375395
 30
0.0
 10
-39.28855975226764
 20
1.903903667902917
 30
0.0
 10
-38.89527462441771
 20
1.695069760219788
 30
0.0
 10
-38.10064667250373
 20
1.263747053925592
 30
0.0
 10
-37.70058415926439
 20
1.041439803446067
 30
0.0
 10
-36.90975197222821
 20
0.5918005327107637
 30
0.0
 10
-36.51328120613803
 20
0.3634084752473897
 30
0.0
 10
-35.71673717730971
 20
-0.0951918125917642
 30
0.0
 10
-35.3229378644877
 20
-0.3241853976934904
 30
0.0
 10
-34.52914471257114
 20
-0.7788021857602344
 30
0.0
 10
-34.12898402724079
 20
-1.0044335057813
 30
0.0
 10
-33.53494822151117
 20
-1.334116856355976
 30
0.0
 10
-33.33837783256814
 20
-1.442486097891106
 30
0.0
 10
-32.94171649431016
 20
-1.656667316735245
 30
0.0
 10
-32.74250565860876
 20
-1.762313407291636
 30
0.0
 10
-32.34417274116055
 20
-1.969719860975211
 30
0.0
 10
-32.14505257583431
 20
-2.071479229837394
 30
0.0
 10
-31.74875112149857
 20
-2.270186258869231
 30
0.0
 10
-31.55223184836865
 20
-2.367034078568608
 30
0.0
 10
-30.95761916641965
 20
-2.650781971319127
 30
0.0
 10
-30.55743297887716
 20
-2.83031529595263
 30
0.0
 10
-29.96259081010538
 20
-3.080179469988032
 30
0.0
 10
-29.76604980699642
 20
-3.160139353359426
 30
0.0
 10
-29.36991184425267
 20
-3.313794690166567
 30
0.0
 10
-29.17083555934192
 20
-3.38740731617893
 30
0.0
 10
-28.77251331861476
 20
-3.527480802944822
 30
0.0
 10
-28.57326927886018
 20
-3.5939409774276
 30
0.0
 10
-28.17646547254495
 20
-3.719118486989125
 30
0.0
 10
-27.97982989688944
 20
-3.777755377233063
 30
0.0
 10
-27.38605504262597
 20
-3.942198944519973
 30
0.0
 10
-26.98591603827714
 20
-4.036312424831017
 30
0.0
 10
-26.19185903902292
 20
-4.18992976533368
 30
0.0
 10
-25.79823999064592
 20
-4.249559144713437
 30
0.0
 10
-25.40000000000001
 20
-4.291619513159944
 30
0.0
  0
SPLINE
  5
321
330
1F
100
AcDbEntity
  8
0
  6
Continuous
 62
     1
370
    15
100
AcDbSpline
210
0.0
220
0.0
230
1.0
 70
     8
 71
     3
 72
    18
 73
    14
 74
     0
 42
0.000000001
 43
0.00000001
 40
0.0
 40
0.0
 40
0.0
 40
0.0
 40
0.0962958199025682
 40
0.1925141271023936
 40
0.2886932854436786
 40
0.38487195518191
 40
0.4810888002772291
 40
0.5773821956290712
 40
0.6736803906613763
 40
0.779526864089513
 40
0.88535861799185
 40
0.9911803897148894
 40
1.0
 40
1.0
 40
1.0
 40
1.0
 10
-44.45000000000005
 20
-0.3740526403446579
 30
0.0
 10
-43.94155642667943
 20
-0.664852703769874
 30
0.0
 10
-42.92507854843223
 20
-1.246218752973988
 30
0.0
 10
-41.40111560387146
 20
-2.064094399149212
 30
0.0
 10
-39.87787140653188
 20
-2.799309214416049
 30
0.0
 10
-38.35463569627004
 20
-3.420943704652601
 30
0.0
 10
-36.83070284248754
 20
-3.904170650964851
 30
0.0
 10
-35.30578841072511
 20
-4.229488490015363
 30
0.0
 10
-33.73007454888048
 20
-4.387625213564924
 30
0.0
 10
-32.10409437063186
 20
-4.356690821399361
 30
0.0
 10
-30.42787058987068
 20
-4.093557683305185
 30
0.0
 10
-29.2639158321586
 20
-3.817979445690888
 30
0.0
 10
-28.65869013729929
 20
-3.59063596862152
 30
0.0
 10
-28.61212881127815
 20
-3.573145941604302
 30
0.0
  0
SPLINE
  5
322
330
1F
100
AcDbEntity
  8
0
  6
Continuous
 62
     1
370
    15
100
AcDbSpline
210
0.0
220
0.0
230
1.0
 70
     8
 71
     3
 72
    17
 73
    13
 74
     0
 42
0.000000001
 43
0.00000001
 40
0.0
 40
0.0
 40
0.0
 40
0.0
 40
0.1009670364432209
 40
0.2019564362592407
 40
0.3030086569843972
 40
0.4041286501760728
 40
0.5051747063365664
 40
0.6061609926501738
 40
0.7071279902348554
 40
0.8182231562499617
 40
0.9293285995359848
 40
1.0
 40
1.0
 40
1.0
 40
1.0
 10
-25.40000000000006
 20
0.800427132779639
 30
0.0
 10
-25.90765053504691
 20
1.085552928331275
 30
0.0
 10
-26.92306404558221
 20
1.655867672466321
 30
0.0
 10
-28.44661258149227
 20
2.435740406281013
 30
0.0
 10
-29.97111090671964
 20
3.119407981616348
 30
0.0
 10
-31.49625239114363
 20
3.675839659436505
 30
0.0
 10
-33.02067233822856
 20
4.084017744204942
 30
0.0
 10
-34.54418946490898
 20
4.326237382145237
 30
0.0
 10
-36.11807139539602
 20
4.397321876028307
 30
0.0
 10
-37.74329450110201
 20
4.264332861128452
 30
0.0
 10
-39.21606420958679
 20
3.984278662360964
 30
0.0
 10
-40.1302205119504
 20
3.679218273432831
 30
0.0
 10
-40.48562720071368
 20
3.560616561207624
 30
0.0
  0
SPLINE
  5
323
330
1F
100
AcDbEntity
  8
외형선
  6
Continuous
370
    15
100
AcDbSpline
210
0.0
220
0.0
230
1.0
 70
    24
 71
     3
 72
    22
 73
    18
 74
     0
 42
0.000000001
 43
0.00000001
 40
0.0
 40
0.0
 40
0.0
 40
0.0
 40
0.0045183889757616
 40
0.0766086063111443
 40
0.150789444832992
 40
0.2228796621683587
 40
0.2970605006901896
 40
0.369150718025558
 40
0.4433315565473903
 40
0.515421773882758
 40
0.5896026124045898
 40
0.6616928297399164
 40
0.7358736682617035
 40
0.8079638855971129
 40
0.8821447241189899
 40
0.9542349414543579
 40
1.0
 40
1.0
 40
1.0
 40
1.0
 10
-25.40000000000003
 20
-3.752453710328041
 30
0.0
 10
-25.40000000000001
 20
-3.746372135976017
 30
0.0
 10
-25.39999999999966
 20
-3.643259956439074
 30
0.0
 10
-25.4000000000002
 20
-3.419394100673436
 30
0.0
 10
-25.39999999999995
 20
-3.050079198448884
 30
0.0
 10
-25.40000000000006
 20
-2.641541469452683
 30
0.0
 10
-25.40000000000001
 20
-2.212965741171523
 30
0.0
 10
-25.40000000000003
 20
-1.76869683068368
 30
0.0
 10
-25.40000000000001
 20
-1.329326511256603
 30
0.0
 10
-25.40000000000006
 20
-0.8993725107981233
 30
0.0
 10
-25.40000000000009
 20
-0.498765149546294
 30
0.0
 10
-25.40000000000003
 20
-0.1315554837490182
 30
0.0
 10
-25.40000000000001
 20
0.1849646945469133
 30
0.0
 10
-25.40000000000009
 20
0.4486129563245457
 30
0.0
 10
-25.40000000000003
 20
0.6431592200983972
 30
0.0
 10
-25.40000000000001
 20
0.7637910168402585
 30
0.0
 10
-25.40000000000001
 20
0.7868583810927136
 30
0.0
 10
-25.40000000000003
 20
0.7958158016885691
 30
0.0
  0
SPLINE
  5
324
330
1F
100
AcDbEntity
  8
0
  6
Continuous
 62
     1
370
    15
100
AcDbSpline
210
0.0
220
0.0
230
1.0
 70
     8
 71
     3
 72
    46
 73
    42
 74
     0
 42
0.000000001
 43
0.00000001
 40
0.0
 40
0.0
 40
0.0
 40
0.0
 40
0.0624999999999992
 40
0.0624999999999992
 40
0.1249999999999984
 40
0.1249999999999984
 40
0.1874999999999976
 40
0.1874999999999976
 40
0.2499999999999968
 40
0.2499999999999968
 40
0.3124999999999961
 40
0.3124999999999961
 40
0.3749999999999952
 40
0.3749999999999952
 40
0.4374999999999944
 40
0.4374999999999944
 40
0.4999999999999937
 40
0.4999999999999937
 40
0.5624999999999929
 40
0.5624999999999929
 40
0.5937499999999932
 40
0.5937499999999932
 40
0.6249999999999937
 40
0.6249999999999937
 40
0.656249999999994
 40
0.656249999999994
 40
0.6874999999999944
 40
0.6874999999999944
 40
0.7499999999999968
 40
0.7499999999999968
 40
0.7812499999999972
 40
0.7812499999999972
 40
0.8124999999999976
 40
0.8124999999999976
 40
0.843749999999998
 40
0.843749999999998
 40
0.8749999999999983
 40
0.8749999999999983
 40
0.9374999999999991
 40
0.9374999999999991
 40
1.0
 40
1.0
 40
1.0
 40
1.0
 10
-44.45000000000005
 20
4.365625000000001
 30
0.0
 10
-44.0560085800586
 20
4.329985378226397
 30
0.0
 10
-43.65636013743861
 20
4.292308340266878
 30
0.0
 10
-42.86048882182331
 20
4.181811734850335
 30
0.0
 10
-42.46746086320366
 20
4.109307543045787
 30
0.0
 10
-41.672140052082
 20
3.930446936044724
 30
0.0
 10
-41.27224832105188
 20
3.824116377108012
 30
0.0
 10
-40.48277136892401
 20
3.581819729257823
 30
0.0
 10
-40.08483888846868
 20
3.445041154421787
 30
0.0
 10
-39.28855975226762
 20
3.144034445984339
 30
0.0
 10
-38.89527462441771
 20
2.980539990618851
 30
0.0
 10
-38.10064667250376
 20
2.629234936143696
 30
0.0
 10
-37.70058415926439
 20
2.441512101735334
 30
0.0
 10
-36.90975197222824
 20
2.048967992496209
 30
0.0
 10
-36.51328120613803
 20
1.843250087963611
 30
0.0
 10
-35.71673717730977
 20
1.417632696603505
 30
0.0
 10
-35.3229378644877
 20
1.198884193747674
 30
0.0
 10
-34.52914471257111
 20
0.7521844238971839
 30
0.0
 10
-34.12898402724076
 20
0.524172751070303
 30
0.0
 10
-33.53494822151117
 20
0.1814973078399761
 30
0.0
 10
-33.33837783256817
 20
0.0672446704839801
 30
0.0
 10
-32.94171649431013
 20
-0.1618407733398825
 30
0.0
 10
-32.74250565860876
 20
-0.2765038387472812
 30
0.0
 10
-32.34417274116055
 20
-0.505003098020495
 30
0.0
 10
-32.14505257583431
 20
-0.6188381932781865
 30
0.0
 10
-31.74875112149857
 20
-0.8446277588376104
 30
0.0
 10
-31.55223184836868
 20
-0.9564602704169402
 30
0.0
 10
-30.95761916641968
 20
-1.289605628667665
 30
0.0
 10
-30.55743297887716
 20
-1.50796645955527
 30
0.0
 10
-29.96259081010533
 20
-1.823841542679055
 30
0.0
 10
-29.76604980699636
 20
-1.927056545181287
 30
0.0
 10
-29.36991184425267
 20
-2.129834330847153
 30
0.0
 10
-29.1708355593419
 20
-2.229298682600245
 30
0.0
 10
-28.77251331861476
 20
-2.423429804205377
 30
0.0
 10
-28.57326927886015
 20
-2.518095631782863
 30
0.0
 10
-28.17646547254498
 20
-2.701767345528829
 30
0.0
 10
-27.97982989688947
 20
-2.790642500302418
 30
0.0
 10
-27.38605504262597
 20
-3.048952851890157
 30
0.0
 10
-26.98591603827714
 20
-3.209836060319482
 30
0.0
 10
-26.19185903902292
 20
-3.502927660645767
 30
0.0
 10
-25.79823999064592
 20
-3.635215601098217
 30
0.0
 10
-25.40000000000006
 20
-3.752453710328048
 30
0.0
  0
LINE
  5
325
330
1F
100
AcDbEntity
  8
0
  6
Continuous
 62
     1
370
    15
100
AcDbLine
 10
-44.45000000000005
 20
4.365625000000001
 30
0.0
 11
-44.45000000000002
 21
3.953865140344625
 31
0.0
  0
LINE
  5
326
330
1F
100
AcDbEntity
  8
외형선
  6
Continuous
370
    15
100
AcDbLine
 10
-25.40000000000003
 20
-3.752453710328041
 30
0.0
 11
-25.40000000000001
 21
-4.291619513159944
 31
0.0
  0
SPLINE
  5
327
330
1F
100
AcDbEntity
  8
0
  6
Continuous
 62
     1
370
    15
100
AcDbSpline
210
0.0
220
0.0
230
1.0
 70
     8
 71
     3
 72
    13
 73
     9
 74
     0
 42
0.000000001
 43
0.00000001
 40
0.0
 40
0.0
 40
0.0
 40
0.0
 40
0.0214983504185537
 40
0.2171450157430123
 40
0.4128097800888383
 40
0.6085014037818022
 40
0.8042285963081501
 40
0.9999999999999999
 40
0.9999999999999999
 40
0.9999999999999999
 40
0.9999999999999999
 10
-35.88308509852402
 20
-4.356226169046771
 30
0.0
 10
-35.94446296967942
 20
-4.359254336525815
 30
0.0
 10
-36.56441280484472
 20
-4.389840472769244
 30
0.0
 10
-37.74330728686905
 20
-4.256535976421652
 30
0.0
 10
-39.41947415589817
 20
-3.932194052021977
 30
0.0
 10
-41.09597661467646
 20
-3.394015887440169
 30
0.0
 10
-42.77282258779488
 20
-2.701340700485211
 30
0.0
 10
-43.89089877521764
 20
-2.134365787901395
 30
0.0
 10
-44.45000000000005
 20
-1.85084631792931
 30
0.0
  0
LINE
  5
328
330
1F
100
AcDbEntity
  8
0
  6
Continuous
 62
     1
370
    15
100
AcDbLine
 10
-44.45000000000002
 20
-0.3740526403446579
 30
0.0
 11
-44.45000000000002
 21
-1.85084631792931
 31
0.0
  0
SPLINE
  5
329
330
1F
100
AcDbEntity
  8
0
  6
Continuous
 62
     1
370
    15
100
AcDbSpline
210
0.0
220
0.0
230
1.0
 70
     8
 71
     3
 72
    12
 73
     8
 74
     0
 42
0.000000001
 43
0.00000001
 40
0.0
 40
0.0
 40
0.0
 40
0.0
 40
0.1427905091782393
 40
0.3571135676035737
 40
0.5714164108182747
 40
0.785708670895877
 40
1.0
 40
1.0
 40
1.0
 40
1.0
 10
-33.22080453561125
 20
4.341795203601883
 30
0.0
 10
-32.84854205212451
 20
4.342023658780917
 30
0.0
 10
-31.91752790890175
 20
4.34259501639071
 30
0.0
 10
-30.4278717582539
 20
4.099916679361385
 30
0.0
 10
-28.7518371305182
 20
3.655014277612203
 30
0.0
 10
-27.07590492796817
 20
3.030814156420831
 30
0.0
 10
-25.95863416700723
 20
2.497665857341232
 30
0.0
 10
-25.40000000000006
 20
2.231092286856416
 30
0.0
  0
LINE
  5
32A
330
1F
100
AcDbEntity
  8
외형선
  6
Continuous
370
    15
100
AcDbLine
 10
-25.40000000000003
 20
2.231092286856416
 30
0.0
 11
-25.40000000000003
 21
0.800427132779639
 31
0.0
  0
SPLINE
  5
32B
330
1F
100
AcDbEntity
  8
0
  6
Continuous
 62
     1
370
    15
100
AcDbSpline
210
0.0
220
0.0
230
1.0
 70
     8
 71
     3
 72
    10
 73
     6
 74
     0
 42
0.000000001
 43
0.00000001
 40
0.0
 40
0.0
 40
0.0
 40
0.0
 40
0.3846999428720804
 40
0.7690902239919976
 40
1.0
 40
1.0
 40
1.0
 40
1.0
 10
-44.45000000000005
 20
-4.365624999999994
 30
0.0
 10
-43.94155680757837
 20
-4.30617199362247
 30
0.0
 10
-42.92507969082232
 20
-4.219409287187645
 30
0.0
 10
-41.60370901688611
 20
-3.936134424812501
 30
0.0
 10
-40.79072413012921
 20
-3.66308611707494
 30
0.0
 10
-40.48562720071368
 20
-3.560616561207603
 30
0.0
  0
LINE
  5
32C
330
1F
100
AcDbEntity
  8
0
  6
Continuous
 62
     1
370
    15
100
AcDbLine
 10
-44.45000000000002
 20
-1.836638434010176
 30
0.0
 11
-44.45000000000005
 21
-4.365624999999994
 31
0.0
  0
SPLINE
  5
32D
330
1F
100
AcDbEntity
  8
0
  6
Continuous
 62
     1
370
    15
100
AcDbSpline
210
0.0
220
0.0
230
1.0
 70
     8
 71
     3
 72
    10
 73
     6
 74
     0
 42
0.000000001
 43
0.00000001
 40
0.0
 40
0.0
 40
0.0
 40
0.0
 40
0.4741423340671124
 40
0.9483896867833643
 40
0.9999999999999999
 40
0.9999999999999999
 40
0.9999999999999999
 40
0.9999999999999999
 10
-25.40000000000001
 20
4.291619513159965
 30
0.0
 10
-25.90765533231149
 20
4.218421701568495
 30
0.0
 10
-26.92307843843861
 20
4.072009865668946
 30
0.0
 10
-27.9937385200852
 20
3.801860748782495
 30
0.0
 10
-28.55686112930965
 20
3.593586976019999
 30
0.0
 10
-28.61212881127807
 20
3.573145941604324
 30
0.0
  0
SPLINE
  5
32E
330
1F
100
AcDbEntity
  8
외형선
  6
Continuous
370
    15
100
AcDbSpline
210
0.0
220
0.0
230
1.0
 70
    24
 71
     3
 72
    12
 73
     8
 74
     0
 42
0.000000001
 43
0.00000001
 40
0.0
 40
0.0
 40
0.0
 40
0.0
 40
0.1844164650120503
 40
0.3930945823180708
 40
0.5958915731513557
 40
0.8045696904572477
 40
1.0
 40
1.0
 40
1.0
 40
1.0
 10
-25.40000000000003
 20
2.2924690998695
 30
0.0
 10
-25.40000000000006
 20
2.39646168598005
 30
0.0
 10
-25.40000000000009
 20
2.618128022544049
 30
0.0
 10
-25.39999999999998
 20
3.004532114278817
 30
0.0
 10
-25.40000000000003
 20
3.429832052677121
 30
0.0
 10
-25.40000000000009
 20
3.863242396736403
 30
0.0
 10
-25.40000000000003
 20
4.15198237650457
 30
0.0
 10
-25.40000000000003
 20
4.291619513159965
 30
0.0
  0
LINE
  5
32F
330
1F
100
AcDbEntity
  8
외형선
  6
Continuous
370
    15
100
AcDbLine
 10
-24.40000000000003
 20
0.0000000000000143
 30
0.0
 11
-24.40000000000003
 21
-4.365624999999987
 31
0.0
  0
LINE
  5
330
330
1F
100
AcDbEntity
  8
외형선
  6
Continuous
370
    15
100
AcDbLine
 10
-24.40000000000003
 20
4.365625000000016
 30
0.0
 11
-24.40000000000003
 21
0.0000000000000143
 31
0.0
  0
LINE
  5
331
330
1F
100
AcDbEntity
  8
외형선
  6
Continuous
370
    15
100
AcDbLine
 10
-22.91884233574609
 20
0.0000000000000143
 30
0.0
 11
-22.91884233574609
 21
-4.762499999999996
 31
0.0
  0
LINE
  5
332
330
1F
100
AcDbEntity
  8
외형선
  6
Continuous
370
    15
100
AcDbLine
 10
-22.91884233574609
 20
4.762500000000024
 30
0.0
 11
-22.91884233574609
 21
0.0000000000000143
 31
0.0
  0
LINE
  5
333
330
1F
100
AcDbEntity
  8
외형선
  6
Continuous
370
    15
100
AcDbLine
 10
-24.89984966415631
 20
-4.335067586475617
 30
0.0
 11
-24.89984966415631
 21
-4.365624999999987
 31
0.0
  0
SPLINE
  5
334
330
1F
100
AcDbEntity
  8
외형선
  6
Continuous
370
    15
100
AcDbSpline
210
0.0
220
0.0
230
1.0
 70
     8
 71
     3
 72
     8
 73
     4
 74
     0
 42
0.000000001
 43
0.00000001
 40
0.0
 40
0.0
 40
0.0
 40
0.0
 40
1.0
 40
1.0
 40
1.0
 40
1.0
 10
-25.40000000000001
 20
-4.291619513159944
 30
0.0
 10
-25.2332506122396
 20
-4.309230855195331
 30
0.0
 10
-25.06635232983103
 20
-4.323727623783292
 30
0.0
 10
-24.89984966415631
 20
-4.335067144130257
 30
0.0
  0
SPLINE
  5
335
330
1F
100
AcDbEntity
  8
외형선
  6
Continuous
370
    15
100
AcDbSpline
210
0.0
220
0.0
230
1.0
 70
     8
 71
     3
 72
     8
 73
     4
 74
     0
 42
0.000000001
 43
0.00000001
 40
0.0
 40
0.0
 40
0.0
 40
0.0
 40
1.0
 40
1.0
 40
1.0
 40
1.0
 10
-25.40000000000001
 20
-3.752453710328048
 30
0.0
 10
-25.23325061223957
 20
-3.801543162405828
 30
0.0
 10
-25.06635232983101
 20
-3.847919320402418
 30
0.0
 10
-24.89984966415628
 20
-3.891434950989144
 30
0.0
  0
LINE
  5
336
330
1F
100
AcDbEntity
  8
외형선
  6
Continuous
370
    15
100
AcDbLine
 10
-24.89984966415631
 20
0.5156264746048508
 30
0.0
 11
-24.89984966415631
 21
-3.891437804989152
 31
0.0
  0
SPLINE
  5
337
330
1F
100
AcDbEntity
  8
외형선
  6
Continuous
370
    15
100
AcDbSpline
210
0.0
220
0.0
230
1.0
 70
     8
 71
     3
 72
     8
 73
     4
 74
     0
 42
0.000000001
 43
0.00000001
 40
0.0
 40
0.0
 40
0.0
 40
0.0
 40
1.0
 40
1.0
 40
1.0
 40
1.0
 10
-25.40000000000001
 20
0.8004271327796105
 30
0.0
 10
-25.2332506122396
 20
0.706001074445581
 30
0.0
 10
-25.06635232983103
 20
0.6109651500828904
 30
0.0
 10
-24.89984966415631
 20
0.5156301935566746
 30
0.0
  0
SPLINE
  5
338
330
1F
100
AcDbEntity
  8
외형선
  6
Continuous
370
    15
100
AcDbSpline
210
0.0
220
0.0
230
1.0
 70
     8
 71
     3
 72
     8
 73
     4
 74
     0
 42
0.000000001
 43
0.00000001
 40
0.0
 40
0.0
 40
0.0
 40
0.0
 40
1.0
 40
1.0
 40
1.0
 40
1.0
 10
-25.40000000000001
 20
2.231092286856402
 30
0.0
 10
-25.23325061223957
 20
2.148529186408972
 30
0.0
 10
-25.06635232983101
 20
2.064319714326309
 30
0.0
 10
-24.89984966415628
 20
1.978740928682939
 30
0.0
  0
LINE
  5
339
330
1F
100
AcDbEntity
  8
외형선
  6
Continuous
370
    15
100
AcDbLine
 10
-24.89984966415631
 20
4.365625000000016
 30
0.0
 11
-24.89984966415631
 21
1.978735315934422
 31
0.0
  0
SPLINE
  5
33A
330
1F
100
AcDbEntity
  8
외형선
  6
Continuous
370
    15
100
AcDbSpline
210
0.0
220
0.0
230
1.0
 70
     8
 71
     3
 72
     8
 73
     4
 74
     0
 42
0.000000001
 43
0.00000001
 40
0.0
 40
0.0
 40
0.0
 40
0.0
 40
1.0
 40
1.0
 40
1.0
 40
1.0
 10
-25.40000000000001
 20
4.291619513159965
 30
0.0
 10
-25.2332506122396
 20
4.309230855195345
 30
0.0
 10
-25.06635232983103
 20
4.323727623783313
 30
0.0
 10
-24.89984966415631
 20
4.335067144130278
 30
0.0
  0
SPLINE
  5
33B
330
1F
100
AcDbEntity
  8
외형선
  6
Continuous
370
    15
100
AcDbSpline
210
0.0
220
0.0
230
1.0
 70
    24
 71
     3
 72
    21
 73
    17
 74
     0
 42
0.000000001
 43
0.00000001
 40
0.0
 40
0.0
 40
0.0
 40
0.0
 40
0.0400398551866866
 40
0.1122432010637588
 40
0.1865404488626661
 40
0.2587437947397955
 40
0.3330410425387657
 40
0.4052443884158666
 40
0.4795416362148058
 40
0.5517449820919054
 40
0.626042229890843
 40
0.6982455757679402
 40
0.7725428235668756
 40
0.8447461694439798
 40
0.919043417242923
 40
1.0
 40
1.0
 40
1.0
 40
1.0
 10
-25.40000000000003
 20
0.7953414384853447
 30
0.0
 10
-25.40000000000003
 20
0.787736417341229
 30
0.0
 10
-25.40000000000003
 20
0.7664173612808939
 30
0.0
 10
-25.40000000000003
 20
0.6524571054486615
 30
0.0
 10
-25.40000000000001
 20
0.461952530366709
 30
0.0
 10
-25.40000000000001
 20
0.2017988617364709
 30
0.0
 10
-25.40000000000012
 20
-0.1116806934323903
 30
0.0
 10
-25.39999999999998
 20
-0.4764029771304833
 30
0.0
 10
-25.40000000000012
 20
-0.8751750951912455
 30
0.0
 10
-25.39999999999998
 20
-1.303962211265095
 30
0.0
 10
-25.40000000000009
 20
-1.742915072293791
 30
0.0
 10
-25.39999999999995
 20
-2.187414578442471
 30
0.0
 10
-25.40000000000001
 20
-2.617253136200993
 30
0.0
 10
-25.40000000000001
 20
-3.026595905528744
 30
0.0
 10
-25.40000000000009
 20
-3.416736497654604
 30
0.0
 10
-25.40000000000003
 20
-3.637393083112016
 30
0.0
 10
-25.40000000000001
 20
-3.752453710328119
 30
0.0
  0
SPLINE
  5
33C
330
1F
100
AcDbEntity
  8
외형선
  6
Continuous
370
    15
100
AcDbSpline
210
0.0
220
0.0
230
1.0
 70
    24
 71
     3
 72
    12
 73
     8
 74
     0
 42
0.000000001
 43
0.00000001
 40
0.0
 40
0.0
 40
0.0
 40
0.0
 40
0.1936659683958601
 40
0.3924238556614361
 40
0.5953474002716288
 40
0.8041557414225284
 40
1.0
 40
1.0
 40
1.0
 40
1.0
 10
-25.40000000000001
 20
4.291619513159965
 30
0.0
 10
-25.40000000000001
 20
4.15333556718064
 30
0.0
 10
-25.40000000000003
 20
3.873131875707273
 30
0.0
 10
-25.40000000000009
 20
3.448219752689049
 30
0.0
 10
-25.40000000000001
 20
3.028464330475444
 30
0.0
 10
-25.39999999999998
 20
2.633224384774593
 30
0.0
 10
-25.40000000000001
 20
2.403595275934535
 30
0.0
 10
-25.40000000000003
 20
2.292459099869497
 30
0.0
  0
LINE
  5
3BA
330
1F
100
AcDbEntity
  8
외형선
  6
Continuous
370
    15
100
AcDbLine
 10
-3.568700000000035
 20
3.49250000000002
 30
0.0
 11
3.568700000000035
 21
3.49250000000002
 31
0.0
  0
LINE
  5
3BB
330
1F
100
AcDbEntity
  8
외형선
  6
Continuous
370
    15
100
AcDbLine
 10
-3.568700000000035
 20
3.49250000000002
 30
0.0
 11
-4.838700000000017
 21
4.762500000000002
 31
0.0
  0
LINE
  5
3BC
330
1F
100
AcDbEntity
  8
외형선
  6
Continuous
370
    15
100
AcDbLine
 10
3.568700000000035
 20
3.49250000000002
 30
0.0
 11
4.838700000000017
 21
4.762500000000002
 31
0.0
  0
LINE
  5
3BE
330
1F
100
AcDbEntity
  8
외형선
  6
Continuous
370
    15
100
AcDbLine
 10
-4.838700000000017
 20
4.762500000000002
 30
0.0
 11
-22.91884233574611
 21
4.762500000000002
 31
0.0
  0
ENDSEC
  0
SECTION
  2
OBJECTS
  0
DICTIONARY
  5
C
330
0
100
AcDbDictionary
281
     1
  3
ACAD_GROUP
350
D
  3
ACAD_IMAGE_VARS
350
150
  3
ACAD_LAYOUT
350
1A
  3
ACAD_MLINESTYLE
350
17
  3
ACAD_PLOTSETTINGS
350
19
  3
ACAD_PLOTSTYLENAME
350
E
  3
ACAD_SCALELIST
350
47
  3
APPDATA
350
14E
  3
DWGPROPS
350
405
  0
DICTIONARY
  5
1D7
330
2
100
AcDbDictionary
280
     1
281
     1
  3
ACAD_LAYERSTATES
360
1D8
  0
DICTIONARY
  5
D
102
{ACAD_REACTORS
330
C
102
}
330
C
100
AcDbDictionary
281
     1
  0
RASTERVARIABLES
  5
150
102
{ACAD_REACTORS
330
C
102
}
330
C
100
AcDbRasterVariables
 90
        0
 70
     1
 71
     1
 72
     1
  0
DICTIONARY
  5
1A
102
{ACAD_REACTORS
330
C
102
}
330
C
100
AcDbDictionary
281
     1
  3
Layout1
350
1E
  3
Layout2
350
26
  3
Model
350
22
  0
DICTIONARY
  5
17
102
{ACAD_REACTORS
330
C
102
}
330
C
100
AcDbDictionary
281
     1
  3
Standard
350
18
  0
DICTIONARY
  5
19
102
{ACAD_REACTORS
330
C
102
}
330
C
100
AcDbDictionary
281
     1
  0
ACDBDICTIONARYWDFLT
  5
E
102
{ACAD_REACTORS
330
C
102
}
330
C
100
AcDbDictionary
281
     1
  3
Normal
350
F
100
AcDbDictionaryWithDefault
340
F
  0
DICTIONARY
  5
47
102
{ACAD_REACTORS
330
C
102
}
330
C
100
AcDbDictionary
281
     1
  3
A0
350
48
  3
A1
350
49
  3
A2
350
4A
  3
A3
350
4B
  3
A4
350
4C
  3
A5
350
4D
  3
A6
350
4E
  3
A7
350
4F
  3
A8
350
50
  3
A9
350
51
  3
B0
350
52
  3
B1
350
53
  3
B2
350
54
  3
B3
350
55
  3
B4
350
56
  3
B5
350
57
  3
B6
350
58
  3
B7
350
59
  3
B8
350
5A
  3
B9
350
5B
  3
C0
350
5C
  3
C1
350
5D
  3
C2
350
5E
  3
C3
350
5F
  3
C4
350
60
  3
C5
350
61
  3
C6
350
62
  3
C7
350
63
  3
C8
350
64
  3
C9
350
65
  3
D0
350
66
  3
D1
350
67
  3
D2
350
68
  0
DICTIONARY
  5
14E
102
{ACAD_REACTORS
330
C
102
}
330
C
100
AcDbDictionary
281
     1
  0
XRECORD
  5
405
102
{ACAD_REACTORS
330
C
102
}
330
C
100
AcDbXrecord
280
     1
  1
DWGPROPS COOKIE
  2

  3

  4

  6

  7

  8
12016016
  9

300
=
301
=
302
=
303
=
304
=
305
=
306
=
307
=
308
=
309
=
 40
0.0
 41
2458313.097083588
 42
2458319.11000044
  1

 90
        0
  0
DICTIONARY
  5
1D8
102
{ACAD_REACTORS
330
1D7
102
}
330
1D7
100
AcDbDictionary
281
     1
  0
LAYOUT
  5
1E
102
{ACAD_REACTORS
330
1A
102
}
330
1A
100
AcDbPlotSettings
  1

  2
none_device
  4

  6

 40
0.0
 41
0.0
 42
0.0
 43
0.0
 44
0.0
 45
0.0
 46
0.0
 47
0.0
 48
0.0
 49
0.0
140
0.0
141
0.0
142
1.0
143
1.0
 70
   688
 72
     1
 73
     0
 74
     5
  7

 75
    16
147
1.0
148
0.0
149
0.0
100
AcDbLayout
  1
Layout1
 70
     1
 71
     1
 10
0.0
 20
0.0
 11
420.0
 21
297.0
 12
0.0
 22
0.0
 32
0.0
 14
1.000000000000000E+20
 24
1.000000000000000E+20
 34
1.000000000000000E+20
 15
-1.000000000000000E+20
 25
-1.000000000000000E+20
 35
-1.000000000000000E+20
146
0.0
 13
0.0
 23
0.0
 33
0.0
 16
1.0
 26
0.0
 36
0.0
 17
0.0
 27
1.0
 37
0.0
 76
     0
330
1B
  0
LAYOUT
  5
26
102
{ACAD_REACTORS
330
1A
102
}
330
1A
100
AcDbPlotSettings
  1

  2
none_device
  4

  6

 40
0.0
 41
0.0
 42
0.0
 43
0.0
 44
0.0
 45
0.0
 46
0.0
 47
0.0
 48
0.0
 49
0.0
140
0.0
141
0.0
142
1.0
143
1.0
 70
   688
 72
     1
 73
     0
 74
     5
  7

 75
    16
147
1.0
148
0.0
149
0.0
100
AcDbLayout
  1
Layout2
 70
     1
 71
     2
 10
0.0
 20
0.0
 11
0.0
 21
0.0
 12
0.0
 22
0.0
 32
0.0
 14
0.0
 24
0.0
 34
0.0
 15
0.0
 25
0.0
 35
0.0
146
0.0
 13
0.0
 23
0.0
 33
0.0
 16
1.0
 26
0.0
 36
0.0
 17
0.0
 27
1.0
 37
0.0
 76
     0
330
23
  0
LAYOUT
  5
22
102
{ACAD_REACTORS
330
1A
102
}
330
1A
100
AcDbPlotSettings
  1

  2
none_device
  4
ANSI_A_(11.00_x_8.50_Inches)
  6

 40
6.35
 41
19.05
 42
6.35000508
 43
19.05000254
 44
279.4
 45
215.9
 46
76.40317549079083
 47
81.11598022881412
 48
0.0
 49
0.0
140
0.0
141
0.0
142
0.0509944409367187
143
1.0
 70
  1696
 72
     0
 73
     0
 74
     0
  7

 75
     0
147
0.0235690232323232
148
0.0
149
0.0
100
AcDbLayout
  1
Model
 70
     1
 71
     0
 10
0.0
 20
0.0
 11
420.0
 21
297.0
 12
0.0
 22
0.0
 32
0.0
 14
-61.34875000000005
 24
-49.97180738881174
 34
0.0
 15
81.41936447236121
 25
40.71962500000008
 35
0.0
146
0.0
 13
0.0
 23
0.0
 33
0.0
 16
1.0
 26
0.0
 36
0.0
 17
0.0
 27
1.0
 37
0.0
 76
     0
330
1F
331
29
  0
MLINESTYLE
  5
18
102
{ACAD_REACTORS
330
17
102
}
330
17
100
AcDbMlineStyle
  2
Standard
 70
     0
  3

 62
   256
 51
90.0
 52
90.0
 71
     2
 49
0.5
 62
   256
  6
BYLAYER
 49
-0.5
 62
   256
  6
BYLAYER
  0
ACDBPLACEHOLDER
  5
F
102
{ACAD_REACTORS
330
E
102
}
330
E
  0
SCALE
  5
48
102
{ACAD_REACTORS
330
47
102
}
330
47
100
AcDbScale
 70
     0
300
1:1
140
1.0
141
1.0
290
     1
  0
SCALE
  5
49
102
{ACAD_REACTORS
330
47
102
}
330
47
100
AcDbScale
 70
     0
300
1:2
140
1.0
141
2.0
290
     0
  0
SCALE
  5
4A
102
{ACAD_REACTORS
330
47
102
}
330
47
100
AcDbScale
 70
     0
300
1:4
140
1.0
141
4.0
290
     0
  0
SCALE
  5
4B
102
{ACAD_REACTORS
330
47
102
}
330
47
100
AcDbScale
 70
     0
300
1:5
140
1.0
141
5.0
290
     0
  0
SCALE
  5
4C
102
{ACAD_REACTORS
330
47
102
}
330
47
100
AcDbScale
 70
     0
300
1:8
140
1.0
141
8.0
290
     0
  0
SCALE
  5
4D
102
{ACAD_REACTORS
330
47
102
}
330
47
100
AcDbScale
 70
     0
300
1:10
140
1.0
141
10.0
290
     0
  0
SCALE
  5
4E
102
{ACAD_REACTORS
330
47
102
}
330
47
100
AcDbScale
 70
     0
300
1:16
140
1.0
141
16.0
290
     0
  0
SCALE
  5
4F
102
{ACAD_REACTORS
330
47
102
}
330
47
100
AcDbScale
 70
     0
300
1:20
140
1.0
141
20.0
290
     0
  0
SCALE
  5
50
102
{ACAD_REACTORS
330
47
102
}
330
47
100
AcDbScale
 70
     0
300
1:30
140
1.0
141
30.0
290
     0
  0
SCALE
  5
51
102
{ACAD_REACTORS
330
47
102
}
330
47
100
AcDbScale
 70
     0
300
1:40
140
1.0
141
40.0
290
     0
  0
SCALE
  5
52
102
{ACAD_REACTORS
330
47
102
}
330
47
100
AcDbScale
 70
     0
300
1:50
140
1.0
141
50.0
290
     0
  0
SCALE
  5
53
102
{ACAD_REACTORS
330
47
102
}
330
47
100
AcDbScale
 70
     0
300
1:100
140
1.0
141
100.0
290
     0
  0
SCALE
  5
54
102
{ACAD_REACTORS
330
47
102
}
330
47
100
AcDbScale
 70
     0
300
2:1
140
2.0
141
1.0
290
     0
  0
SCALE
  5
55
102
{ACAD_REACTORS
330
47
102
}
330
47
100
AcDbScale
 70
     0
300
4:1
140
4.0
141
1.0
290
     0
  0
SCALE
  5
56
102
{ACAD_REACTORS
330
47
102
}
330
47
100
AcDbScale
 70
     0
300
8:1
140
8.0
141
1.0
290
     0
  0
SCALE
  5
57
102
{ACAD_REACTORS
330
47
102
}
330
47
100
AcDbScale
 70
     0
300
10:1
140
10.0
141
1.0
290
     0
  0
SCALE
  5
58
102
{ACAD_REACTORS
330
47
102
}
330
47
100
AcDbScale
 70
     0
300
100:1
140
100.0
141
1.0
290
     0
  0
SCALE
  5
59
102
{ACAD_REACTORS
330
47
102
}
330
47
100
AcDbScale
 70
     0
300
1/128" = 1'-0"
140
0.0078125
141
12.0
290
     0
  0
SCALE
  5
5A
102
{ACAD_REACTORS
330
47
102
}
330
47
100
AcDbScale
 70
     0
300
1/64" = 1'-0"
140
0.015625
141
12.0
290
     0
  0
SCALE
  5
5B
102
{ACAD_REACTORS
330
47
102
}
330
47
100
AcDbScale
 70
     0
300
1/32" = 1'-0"
140
0.03125
141
12.0
290
     0
  0
SCALE
  5
5C
102
{ACAD_REACTORS
330
47
102
}
330
47
100
AcDbScale
 70
     0
300
1/16" = 1'-0"
140
0.0625
141
12.0
290
     0
  0
SCALE
  5
5D
102
{ACAD_REACTORS
330
47
102
}
330
47
100
AcDbScale
 70
     0
300
3/32" = 1'-0"
140
0.09375
141
12.0
290
     0
  0
SCALE
  5
5E
102
{ACAD_REACTORS
330
47
102
}
330
47
100
AcDbScale
 70
     0
300
1/8" = 1'-0"
140
0.125
141
12.0
290
     0
  0
SCALE
  5
5F
102
{ACAD_REACTORS
330
47
102
}
330
47
100
AcDbScale
 70
     0
300
3/16" = 1'-0"
140
0.1875
141
12.0
290
     0
  0
SCALE
  5
60
102
{ACAD_REACTORS
330
47
102
}
330
47
100
AcDbScale
 70
     0
300
1/4" = 1'-0"
140
0.25
141
12.0
290
     0
  0
SCALE
  5
61
102
{ACAD_REACTORS
330
47
102
}
330
47
100
AcDbScale
 70
     0
300
3/8" = 1'-0"
140
0.375
141
12.0
290
     0
  0
SCALE
  5
62
102
{ACAD_REACTORS
330
47
102
}
330
47
100
AcDbScale
 70
     0
300
1/2" = 1'-0"
140
0.5
141
12.0
290
     0
  0
SCALE
  5
63
102
{ACAD_REACTORS
330
47
102
}
330
47
100
AcDbScale
 70
     0
300
3/4" = 1'-0"
140
0.75
141
12.0
290
     0
  0
SCALE
  5
64
102
{ACAD_REACTORS
330
47
102
}
330
47
100
AcDbScale
 70
     0
300
1" = 1'-0"
140
1.0
141
12.0
290
     0
  0
SCALE
  5
65
102
{ACAD_REACTORS
330
47
102
}
330
47
100
AcDbScale
 70
     0
300
1-1/2" = 1'-0"
140
1.5
141
12.0
290
     0
  0
SCALE
  5
66
102
{ACAD_REACTORS
330
47
102
}
330
47
100
AcDbScale
 70
     0
300
3" = 1'-0"
140
3.0
141
12.0
290
     0
  0
SCALE
  5
67
102
{ACAD_REACTORS
330
47
102
}
330
47
100
AcDbScale
 70
     0
300
6" = 1'-0"
140
6.0
141
12.0
290
     0
  0
SCALE
  5
68
102
{ACAD_REACTORS
330
47
102
}
330
47
100
AcDbScale
 70
     0
300
1'-0" = 1'-0"
140
12.0
141
12.0
290
     0
  0
ENDSEC
  0
EOF
