  0
SECTION
  2
HEADER
  9
$ACADVER
  1
AC1015
  9
$ACADMAINTVER
 70
     6
  9
$DWGCODEPAGE
  3
ANSI_949
  9
$INSBASE
 10
0.0
 20
0.0
 30
0.0
  9
$EXTMIN
 10
-68.96875000000007
 20
-49.97180738881174
 30
0.0
  9
$EXTMAX
 10
81.41936447236121
 20
39.28525000000006
 30
0.0
  9
$LIMMIN
 10
0.0
 20
0.0
  9
$LIMMAX
 10
420.0
 20
297.0
  9
$ORTHOMODE
 70
     1
  9
$REGENMODE
 70
     1
  9
$FILLMODE
 70
     1
  9
$QTEXTMODE
 70
     0
  9
$MIRRTEXT
 70
     1
  9
$LTSCALE
 40
1.0
  9
$ATTMODE
 70
     1
  9
$TEXTSIZE
 40
3.5
  9
$TRACEWID
 40
1.0
  9
$TEXTSTYLE
  7
Standard
  9
$CLAYER
  8
0
  9
$CELTYPE
  6
ByLayer
  9
$CECOLOR
 62
   256
  9
$CELTSCALE
 40
1.0
  9
$DISPSILH
 70
     0
  9
$DIMSCALE
 40
1.0
  9
$DIMASZ
 40
3.302
  9
$DIMEXO
 40
1.0
  9
$DIMDLI
 40
3.75
  9
$DIMRND
 40
0.0
  9
$DIMDLE
 40
0.0
  9
$DIMEXE
 40
1.0
  9
$DIMTP
 40
0.0
  9
$DIMTM
 40
0.0
  9
$DIMTXT
 40
3.5
  9
$DIMCEN
 40
2.5
  9
$DIMTSZ
 40
0.0
  9
$DIMTOL
 70
     0
  9
$DIMLIM
 70
     0
  9
$DIMTIH
 70
     1
  9
$DIMTOH
 70
     1
  9
$DIMSE1
 70
     0
  9
$DIMSE2
 70
     0
  9
$DIMTAD
 70
     1
  9
$DIMZIN
 70
     0
  9
$DIMBLK
  1

  9
$DIMASO
 70
     1
  9
$DIMSHO
 70
     1
  9
$DIMPOST
  1

  9
$DIMAPOST
  1

  9
$DIMALT
 70
     0
  9
$DIMALTD
 70
     3
  9
$DIMALTF
 40
0.0393700787401575
  9
$DIMLFAC
 40
1.0
  9
$DIMTOFL
 70
     1
  9
$DIMTVP
 40
0.0
  9
$DIMTIX
 70
     0
  9
$DIMSOXD
 70
     0
  9
$DIMSAH
 70
     0
  9
$DIMBLK1
  1

  9
$DIMBLK2
  1

  9
$DIMSTYLE
  2
ISO-25
  9
$DIMCLRD
 70
     0
  9
$DIMCLRE
 70
     0
  9
$DIMCLRT
 70
     0
  9
$DIMTFAC
 40
1.0
  9
$DIMGAP
 40
1.524
  9
$DIMJUST
 70
     0
  9
$DIMSD1
 70
     0
  9
$DIMSD2
 70
     0
  9
$DIMTOLJ
 70
     0
  9
$DIMTZIN
 70
     0
  9
$DIMALTZ
 70
     0
  9
$DIMALTTZ
 70
     0
  9
$DIMUPT
 70
     0
  9
$DIMDEC
 70
     2
  9
$DIMTDEC
 70
     2
  9
$DIMALTU
 70
     2
  9
$DIMALTTD
 70
     3
  9
$DIMTXSTY
  7
Standard
  9
$DIMAUNIT
 70
     0
  9
$DIMADEC
 70
     2
  9
$DIMALTRND
 40
0.0
  9
$DIMAZIN
 70
     0
  9
$DIMDSEP
 70
    44
  9
$DIMATFIT
 70
     3
  9
$DIMFRAC
 70
     0
  9
$DIMLDRBLK
  1

  9
$DIMLUNIT
 70
     2
  9
$DIMLWD
 70
    -2
  9
$DIMLWE
 70
    -2
  9
$DIMTMOVE
 70
     0
  9
$LUNITS
 70
     2
  9
$LUPREC
 70
     2
  9
$SKETCHINC
 40
1.0
  9
$FILLETRAD
 40
10.0
  9
$AUNITS
 70
     0
  9
$AUPREC
 70
     2
  9
$MENU
  1
.
  9
$ELEVATION
 40
0.0
  9
$PELEVATION
 40
0.0
  9
$THICKNESS
 40
0.0
  9
$LIMCHECK
 70
     0
  9
$CHAMFERA
 40
0.0
  9
$CHAMFERB
 40
0.0
  9
$CHAMFERC
 40
0.0
  9
$CHAMFERD
 40
0.0
  9
$SKPOLY
 70
     0
  9
$TDCREATE
 40
2458313.473354005
  9
$TDUCREATE
 40
2458313.098354005
  9
$TDUPDATE
 40
2458319.484672801
  9
$TDUUPDATE
 40
2458319.109672801
  9
$TDINDWG
 40
0.0011475231
  9
$TDUSRTIMER
 40
2458319.109527187
  9
$USRTIMER
 70
     1
  9
$ANGBASE
 50
0.0
  9
$ANGDIR
 70
     0
  9
$PDMODE
 70
     0
  9
$PDSIZE
 40
-1.0
  9
$PLINEWID
 40
0.0
  9
$SPLFRAME
 70
     0
  9
$SPLINETYPE
 70
     6
  9
$SPLINESEGS
 70
     8
  9
$HANDSEED
  5
405
  9
$SURFTAB1
 70
     6
  9
$SURFTAB2
 70
     6
  9
$SURFTYPE
 70
     6
  9
$SURFU
 70
     6
  9
$SURFV
 70
     6
  9
$UCSBASE
  2

  9
$UCSNAME
  2

  9
$UCSORG
 10
0.0
 20
0.0
 30
0.0
  9
$UCSXDIR
 10
1.0
 20
0.0
 30
0.0
  9
$UCSYDIR
 10
0.0
 20
1.0
 30
0.0
  9
$UCSORTHOREF
  2

  9
$UCSORTHOVIEW
 70
     0
  9
$UCSORGTOP
 10
0.0
 20
0.0
 30
0.0
  9
$UCSORGBOTTOM
 10
0.0
 20
0.0
 30
0.0
  9
$UCSORGLEFT
 10
0.0
 20
0.0
 30
0.0
  9
$UCSORGRIGHT
 10
0.0
 20
0.0
 30
0.0
  9
$UCSORGFRONT
 10
0.0
 20
0.0
 30
0.0
  9
$UCSORGBACK
 10
0.0
 20
0.0
 30
0.0
  9
$PUCSBASE
  2

  9
$PUCSNAME
  2

  9
$PUCSORG
 10
0.0
 20
0.0
 30
0.0
  9
$PUCSXDIR
 10
1.0
 20
0.0
 30
0.0
  9
$PUCSYDIR
 10
0.0
 20
1.0
 30
0.0
  9
$PUCSORTHOREF
  2

  9
$PUCSORTHOVIEW
 70
     0
  9
$PUCSORGTOP
 10
0.0
 20
0.0
 30
0.0
  9
$PUCSORGBOTTOM
 10
0.0
 20
0.0
 30
0.0
  9
$PUCSORGLEFT
 10
0.0
 20
0.0
 30
0.0
  9
$PUCSORGRIGHT
 10
0.0
 20
0.0
 30
0.0
  9
$PUCSORGFRONT
 10
0.0
 20
0.0
 30
0.0
  9
$PUCSORGBACK
 10
0.0
 20
0.0
 30
0.0
  9
$USERI1
 70
     0
  9
$USERI2
 70
     0
  9
$USERI3
 70
     0
  9
$USERI4
 70
     0
  9
$USERI5
 70
     0
  9
$USERR1
 40
0.0
  9
$USERR2
 40
0.0
  9
$USERR3
 40
0.0
  9
$USERR4
 40
0.0
  9
$USERR5
 40
0.0
  9
$WORLDVIEW
 70
     1
  9
$SHADEDGE
 70
     3
  9
$SHADEDIF
 70
    70
  9
$TILEMODE
 70
     1
  9
$MAXACTVP
 70
    64
  9
$PINSBASE
 10
0.0
 20
0.0
 30
0.0
  9
$PLIMCHECK
 70
     0
  9
$PEXTMIN
 10
1.000000000000000E+20
 20
1.000000000000000E+20
 30
1.000000000000000E+20
  9
$PEXTMAX
 10
-1.000000000000000E+20
 20
-1.000000000000000E+20
 30
-1.000000000000000E+20
  9
$PLIMMIN
 10
0.0
 20
0.0
  9
$PLIMMAX
 10
0.0
 20
0.0
  9
$UNITMODE
 70
     0
  9
$VISRETAIN
 70
     1
  9
$PLINEGEN
 70
     0
  9
$PSLTSCALE
 70
     1
  9
$TREEDEPTH
 70
  3020
  9
$CMLSTYLE
  2
Standard
  9
$CMLJUST
 70
     0
  9
$CMLSCALE
 40
20.0
  9
$PROXYGRAPHICS
 70
     1
  9
$MEASUREMENT
 70
     1
  9
$CELWEIGHT
370
    -1
  9
$ENDCAPS
280
     0
  9
$JOINSTYLE
280
     0
  9
$LWDISPLAY
290
     1
  9
$INSUNITS
 70
     4
  9
$HYPERLINKBASE
  1

  9
$STYLESHEET
  1

  9
$XEDIT
290
     1
  9
$CEPSNTYPE
380
     0
  9
$PSTYLEMODE
290
     1
  9
$FINGERPRINTGUID
  2
{4037284A-01EA-4EC1-B42F-16C7C8ED0BD4}
  9
$VERSIONGUID
  2
{FAEB1C32-E019-11D5-929B-00C0DF256EC4}
  9
$EXTNAMES
290
     1
  9
$PSVPSCALE
 40
0.0
  9
$OLESTARTUP
290
     0
  0
ENDSEC
  0
SECTION
  2
CLASSES
  0
CLASS
  1
ACDBDICTIONARYWDFLT
  2
AcDbDictionaryWithDefault
  3
ObjectDBX Classes
 90
        0
280
     0
281
     0
  0
CLASS
  1
VISUALSTYLE
  2
AcDbVisualStyle
  3
ObjectDBX Classes
 90
     4095
280
     0
281
     0
  0
CLASS
  1
MATERIAL
  2
AcDbMaterial
  3
ObjectDBX Classes
 90
     1153
280
     0
281
     0
  0
CLASS
  1
SCALE
  2
AcDbScale
  3
ObjectDBX Classes
 90
     1153
280
     0
281
     0
  0
CLASS
  1
SUN
  2
AcDbSun
  3
SCENEOE
 90
     1153
280
     0
281
     0
  0
CLASS
  1
ACDBPLACEHOLDER
  2
AcDbPlaceHolder
  3
ObjectDBX Classes
 90
        0
280
     0
281
     0
  0
CLASS
  1
LAYOUT
  2
AcDbLayout
  3
ObjectDBX Classes
 90
        0
280
     0
281
     0
  0
CLASS
  1
TABLESTYLE
  2
AcDbTableStyle
  3
ObjectDBX Classes
 90
     4095
280
     0
281
     0
  0
CLASS
  1
MLEADERSTYLE
  2
AcDbMLeaderStyle
  3
ACDB_MLEADERSTYLE_CLASS
 90
     4095
280
     0
281
     0
  0
CLASS
  1
RASTERVARIABLES
  2
AcDbRasterVariables
  3
ISM
 90
        0
280
     0
281
     0
  0
ENDSEC
  0
SECTION
  2
TABLES
  0
TABLE
  2
VPORT
  5
8
330
0
100
AcDbSymbolTable
 70
     1
  0
VPORT
  5
29
330
8
100
AcDbSymbolTableRecord
100
AcDbViewportTableRecord
  2
*Active
 70
     0
 10
0.0
 20
0.0
 11
1.0
 21
1.0
 12
4.87968103128452
 22
-8.175171360229768
 13
0.0
 23
0.0
 14
10.0
 24
10.0
 15
10.0
 25
10.0
 16
0.0
 26
0.0
 36
1.0
 17
0.0
 27
0.0
 37
0.0
 40
162.6396103836045
 41
1.632093933463796
 42
50.0
 43
0.0
 44
0.0
 50
0.0
 51
0.0
 71
    16
 72
  2000
 73
     1
 74
     3
 75
     0
 76
     0
 77
     0
 78
     0
281
     0
 65
     1
110
0.0
120
0.0
130
0.0
111
1.0
121
0.0
131
0.0
112
0.0
122
1.0
132
0.0
 79
     0
146
0.0
  0
ENDTAB
  0
TABLE
  2
LTYPE
  5
5
330
0
100
AcDbSymbolTable
 70
     6
  0
LTYPE
  5
14
330
5
100
AcDbSymbolTableRecord
100
AcDbLinetypeTableRecord
  2
ByBlock
 70
     0
  3

 72
    65
 73
     0
 40
0.0
  0
LTYPE
  5
15
330
5
100
AcDbSymbolTableRecord
100
AcDbLinetypeTableRecord
  2
ByLayer
 70
     0
  3

 72
    65
 73
     0
 40
0.0
  0
LTYPE
  5
16
330
5
100
AcDbSymbolTableRecord
100
AcDbLinetypeTableRecord
  2
Continuous
 70
     0
  3
Solid line
 72
    65
 73
     0
 40
0.0
  0
LTYPE
  5
6A
330
5
100
AcDbSymbolTableRecord
100
AcDbLinetypeTableRecord
  2
HIDDEN
 70
     0
  3
Hidden __ __ __ __ __ __ __ __ __ __ __ __ __ __
 72
    65
 73
     2
 40
1.905
 49
1.27
 74
     0
 49
-0.635
 74
     0
  0
LTYPE
  5
6B
330
5
100
AcDbSymbolTableRecord
100
AcDbLinetypeTableRecord
  2
PHANTOM
 70
     0
  3
Phantom ______  __  __  ______  __  __  ______
 72
    65
 73
     6
 40
12.7
 49
6.35
 74
     0
 49
-1.27
 74
     0
 49
1.27
 74
     0
 49
-1.27
 74
     0
 49
1.27
 74
     0
 49
-1.27
 74
     0
  0
LTYPE
  5
6C
330
5
100
AcDbSymbolTableRecord
100
AcDbLinetypeTableRecord
  2
CENTER
 70
     0
  3
Center ____ _ ____ _ ____ _ ____ _ ____ _ ____
 72
    65
 73
     4
 40
10.16
 49
6.35
 74
     0
 49
-1.27
 74
     0
 49
1.27
 74
     0
 49
-1.27
 74
     0
  0
LTYPE
  5
6D
330
5
100
AcDbSymbolTableRecord
100
AcDbLinetypeTableRecord
  2
CENTERX2
 70
     0
  3
Center (2x) ________  __  ________  __  _____
 72
    65
 73
     4
 40
20.32
 49
12.7
 74
     0
 49
-2.54
 74
     0
 49
2.54
 74
     0
 49
-2.54
 74
     0
  0
LTYPE
  5
6E
330
5
100
AcDbSymbolTableRecord
100
AcDbLinetypeTableRecord
  2
DOT2
 70
     0
  3
Dot (.5x) ........................................
 72
    65
 73
     2
 40
0.635
 49
0.0
 74
     0
 49
-0.635
 74
     0
  0
ENDTAB
  0
TABLE
  2
LAYER
  5
2
102
{ACAD_XDICTIONARY
360
1D7
102
}
330
0
100
AcDbSymbolTable
 70
    18
  0
LAYER
  5
10
330
2
100
AcDbSymbolTableRecord
100
AcDbLayerTableRecord
  2
0
 70
     0
 62
     7
  6
Continuous
370
    -3
390
F
  0
LAYER
  5
6F
330
2
100
AcDbSymbolTableRecord
100
AcDbLayerTableRecord
  2
FORMAT
 70
     0
 62
     2
  6
Continuous
370
    -3
390
F
  0
LAYER
  5
70
330
2
100
AcDbSymbolTableRecord
100
AcDbLayerTableRecord
  2
외형선
 70
     0
 62
     4
  6
Continuous
370
    30
390
F
  0
LAYER
  5
71
330
2
100
AcDbSymbolTableRecord
100
AcDbLayerTableRecord
  2
숨은선
 70
     0
 62
     2
  6
HIDDEN
370
    15
390
F
  0
LAYER
  5
72
330
2
100
AcDbSymbolTableRecord
100
AcDbLayerTableRecord
  2
중심선
 70
     0
 62
     1
  6
CENTERX2
370
    -3
390
F
  0
LAYER
  5
73
330
2
100
AcDbSymbolTableRecord
100
AcDbLayerTableRecord
  2
파단선
 70
     0
 62
     4
  6
Continuous
370
    -3
390
F
  0
LAYER
  5
74
330
2
100
AcDbSymbolTableRecord
100
AcDbLayerTableRecord
  2
해칭선
 70
     0
 62
   100
  6
Continuous
370
    -3
390
F
  0
LAYER
  5
75
330
2
100
AcDbSymbolTableRecord
100
AcDbLayerTableRecord
  2
가는실선
 70
     0
 62
     4
  6
Continuous
370
    -3
390
F
  0
LAYER
  5
76
330
2
100
AcDbSymbolTableRecord
100
AcDbLayerTableRecord
  2
치수_보조선
 70
     0
 62
     4
  6
Continuous
370
    -3
390
F
  0
LAYER
  5
77
330
2
100
AcDbSymbolTableRecord
100
AcDbLayerTableRecord
  2
치수문자_일반주서
 70
     0
 62
     7
  6
Continuous
370
    15
390
F
  0
LAYER
  5
78
330
2
100
AcDbSymbolTableRecord
100
AcDbLayerTableRecord
  2
개별주서
 70
     0
 62
   100
  6
Continuous
370
    30
390
F
  0
LAYER
  5
79
330
2
100
AcDbSymbolTableRecord
100
AcDbLayerTableRecord
  2
중간선
 70
     0
 62
     2
  6
Continuous
370
    15
390
F
  0
LAYER
  5
7A
330
2
100
AcDbSymbolTableRecord
100
AcDbLayerTableRecord
  2
윤곽선
 70
     0
 62
     3
  6
Continuous
370
    40
390
F
  0
LAYER
  5
7B
330
2
100
AcDbSymbolTableRecord
100
AcDbLayerTableRecord
  2
중심마크
 70
     0
 62
   100
  6
Continuous
370
    30
390
F
  0
LAYER
  5
7C
330
2
100
AcDbSymbolTableRecord
100
AcDbLayerTableRecord
  2
가상선
 70
     0
 62
     4
  6
PHANTOM
370
    -3
390
F
  0
LAYER
  5
7D
330
2
100
AcDbSymbolTableRecord
100
AcDbLayerTableRecord
  2
특수지정선
 70
     0
 62
     5
  6
CENTERX2
370
    60
390
F
  0
LAYER
  5
7E
330
2
100
AcDbSymbolTableRecord
100
AcDbLayerTableRecord
  2
참조1
 70
     0
 62
    -4
  6
Continuous
370
    -3
390
F
  0
LAYER
  5
151
330
2
100
AcDbSymbolTableRecord
100
AcDbLayerTableRecord
  2
Defpoints
 70
     0
 62
     7
  6
Continuous
290
     0
370
    -3
390
F
  0
ENDTAB
  0
TABLE
  2
STYLE
  5
3
330
0
100
AcDbSymbolTable
 70
     2
  0
STYLE
  5
11
330
3
100
AcDbSymbolTableRecord
100
AcDbTextStyleTableRecord
  2
Standard
 70
     0
 40
0.0
 41
1.0
 50
0.0
 71
     0
 42
3.5
  3
txt
  4

  0
STYLE
  5
94
330
3
100
AcDbSymbolTableRecord
100
AcDbTextStyleTableRecord
  2
SLDTEXTSTYLE0
 70
     0
 40
0.0
 41
0.75
 50
0.0
 71
     0
 42
3.5
  3
TXT
  4

  0
ENDTAB
  0
TABLE
  2
VIEW
  5
6
330
0
100
AcDbSymbolTable
 70
     0
  0
ENDTAB
  0
TABLE
  2
UCS
  5
7
330
0
100
AcDbSymbolTable
 70
     0
  0
ENDTAB
  0
TABLE
  2
APPID
  5
9
330
0
100
AcDbSymbolTable
 70
     1
  0
APPID
  5
12
330
9
100
AcDbSymbolTableRecord
100
AcDbRegAppTableRecord
  2
ACAD
 70
     0
  0
ENDTAB
  0
TABLE
  2
DIMSTYLE
  5
A
330
0
100
AcDbSymbolTable
 70
     4
100
AcDbDimStyleTable
  0
DIMSTYLE
105
27
330
A
100
AcDbSymbolTableRecord
100
AcDbDimStyleTableRecord
  2
ISO-25
 70
     0
 41
2.5
 42
0.625
 43
3.75
 44
1.25
 73
     0
 74
     0
 77
     1
 78
     8
140
2.5
141
2.5
143
0.03937007874016
147
0.625
171
     3
172
     1
178
     0
271
     2
272
     2
274
     3
278
    44
283
     0
284
     8
340
11
  0
DIMSTYLE
105
CE
330
A
100
AcDbSymbolTableRecord
100
AcDbDimStyleTableRecord
  2
SLDDIMSTYLE0
 70
     0
 41
3.302
 44
0.0
 45
0.000000001
 73
     0
 74
     0
 77
     1
 78
    12
 79
     3
140
3.5
143
0.0393700787401575
147
0.875
148
0.000000001
170
     1
173
     1
178
     0
271
     2
272
     2
276
     2
284
    12
340
94
  0
DIMSTYLE
105
E2
330
A
100
AcDbSymbolTableRecord
100
AcDbDimStyleTableRecord
  2
SLDDIMSTYLE1
 70
     0
 41
3.302
 44
0.0
 45
0.000000001
 73
     0
 74
     0
 77
     1
 78
     4
 79
     1
140
3.5
143
0.0393700787401575
147
0.875
148
0.000000001
170
     1
173
     1
178
     0
271
     2
272
     2
276
     2
284
    12
340
94
  0
DIMSTYLE
105
10A
102
{ACAD_REACTORS
330
109
330
CD
330
E1
330
F6
102
}
330
A
100
AcDbSymbolTableRecord
100
AcDbDimStyleTableRecord
  2
SLDDIMSTYLE2
 70
     0
 41
3.302
 44
0.0
 45
0.000000001
 73
     0
 74
     0
 77
     1
 78
     4
 79
     1
140
3.5
143
0.0393700787401575
147
0.875
148
0.000000001
170
     1
172
     1
173
     1
178
     0
271
     2
272
     2
276
     2
284
    12
289
     0
340
94
  0
ENDTAB
  0
TABLE
  2
BLOCK_RECORD
  5
1
330
0
100
AcDbSymbolTable
 70
    19
  0
BLOCK_RECORD
  5
1F
330
1
100
AcDbSymbolTableRecord
100
AcDbBlockTableRecord
  2
*Model_Space
340
22
  0
BLOCK_RECORD
  5
1B
330
1
100
AcDbSymbolTableRecord
100
AcDbBlockTableRecord
  2
*Paper_Space
340
1E
  0
BLOCK_RECORD
  5
23
330
1
100
AcDbSymbolTableRecord
100
AcDbBlockTableRecord
  2
*Paper_Space0
340
26
  0
BLOCK_RECORD
  5
7F
330
1
100
AcDbSymbolTableRecord
100
AcDbBlockTableRecord
  2
블럭10
340
0
102
{BLKREFS
331
C6
102
}
  0
BLOCK_RECORD
  5
CF
330
1
100
AcDbSymbolTableRecord
100
AcDbBlockTableRecord
  2
_D
340
0
  0
BLOCK_RECORD
  5
E3
330
1
100
AcDbSymbolTableRecord
100
AcDbBlockTableRecord
  2
_D_1
340
0
  0
BLOCK_RECORD
  5
F7
330
1
100
AcDbSymbolTableRecord
100
AcDbBlockTableRecord
  2
_D_2
340
0
  0
BLOCK_RECORD
  5
10B
330
1
100
AcDbSymbolTableRecord
100
AcDbBlockTableRecord
  2
_D_3
340
0
  0
BLOCK_RECORD
  5
125
330
1
100
AcDbSymbolTableRecord
100
AcDbBlockTableRecord
  2
SW_DOWELSYMBOL_0
340
0
102
{BLKREFS
331
12B
102
}
  0
BLOCK_RECORD
  5
1DB
330
1
100
AcDbSymbolTableRecord
100
AcDbBlockTableRecord
  2
*D7
340
0
  0
BLOCK_RECORD
  5
1EA
330
1
100
AcDbSymbolTableRecord
100
AcDbBlockTableRecord
  2
*D8
340
0
  0
BLOCK_RECORD
  5
1F9
330
1
100
AcDbSymbolTableRecord
100
AcDbBlockTableRecord
  2
*D9
340
0
  0
BLOCK_RECORD
  5
233
330
1
100
AcDbSymbolTableRecord
100
AcDbBlockTableRecord
  2
*D10
340
0
  0
BLOCK_RECORD
  5
242
330
1
100
AcDbSymbolTableRecord
100
AcDbBlockTableRecord
  2
*D11
340
0
  0
BLOCK_RECORD
  5
251
330
1
100
AcDbSymbolTableRecord
100
AcDbBlockTableRecord
  2
*D12
340
0
  0
BLOCK_RECORD
  5
2EB
330
1
100
AcDbSymbolTableRecord
100
AcDbBlockTableRecord
  2
*D13
340
0
  0
BLOCK_RECORD
  5
2FA
330
1
100
AcDbSymbolTableRecord
100
AcDbBlockTableRecord
  2
*D14
340
0
  0
BLOCK_RECORD
  5
309
330
1
100
AcDbSymbolTableRecord
100
AcDbBlockTableRecord
  2
*D15
340
0
  0
BLOCK_RECORD
  5
342
330
1
100
AcDbSymbolTableRecord
100
AcDbBlockTableRecord
  2
*D16
340
0
  0
BLOCK_RECORD
  5
351
330
1
100
AcDbSymbolTableRecord
100
AcDbBlockTableRecord
  2
*D17
340
0
  0
BLOCK_RECORD
  5
360
330
1
100
AcDbSymbolTableRecord
100
AcDbBlockTableRecord
  2
*D18
340
0
  0
ENDTAB
  0
ENDSEC
  0
SECTION
  2
BLOCKS
  0
BLOCK
  5
20
330
1F
100
AcDbEntity
  8
0
100
AcDbBlockBegin
  2
*Model_Space
 70
     0
 10
0.0
 20
0.0
 30
0.0
  3
*Model_Space
  1
*Model_Space
  0
ENDBLK
  5
21
330
1F
100
AcDbEntity
  8
0
100
AcDbBlockEnd
  0
BLOCK
  5
1C
330
1B
100
AcDbEntity
 67
     1
  8
0
100
AcDbBlockBegin
  2
*Paper_Space
 70
     0
 10
0.0
 20
0.0
 30
0.0
  3
*Paper_Space
  1
*Paper_Space
  0
ENDBLK
  5
1D
330
1B
100
AcDbEntity
 67
     1
  8
0
100
AcDbBlockEnd
  0
BLOCK
  5
24
330
23
100
AcDbEntity
  8
0
100
AcDbBlockBegin
  2
*Paper_Space0
 70
     0
 10
0.0
 20
0.0
 30
0.0
  3
*Paper_Space0
  1
*Paper_Space0
  0
ENDBLK
  5
25
330
23
100
AcDbEntity
  8
0
100
AcDbBlockEnd
  0
BLOCK
  5
80
330
7F
100
AcDbEntity
  8
0
100
AcDbBlockBegin
  2
블럭10
 70
     2
 10
0.0
 20
0.0
 30
0.0
  3
블럭10
  1
블럭10
  0
ELLIPSE
  5
82
330
7F
100
AcDbEntity
  8
중심선
100
AcDbEllipse
 10
20.54032771741204
 20
12.0471743016438
 30
0.0
 11
6.600054785286829
 21
-1.261213355974178E-13
 31
0.0
210
0.0
220
0.0
230
1.0
 40
0.636358354079598
 41
0.9219305317359503
 42
6.513795318482858
  0
ELLIPSE
  5
83
330
7F
100
AcDbEntity
  8
중심선
100
AcDbEllipse
 10
20.54032771746488
 20
12.04717430159265
 30
0.0
 11
3.960054785062283
 21
1.540847449632565E-10
 31
0.0
210
0.0
220
0.0
230
1.0
 40
0.3939339440162632
 41
1.131841032648279
 42
5.62031148352944
  0
LINE
  5
84
330
7F
100
AcDbEntity
  8
중심선
100
AcDbLine
 10
2.268634060543552
 20
16.24717430164393
 30
0.0
 11
5.714909304380834
 21
16.24717430164393
 31
0.0
  0
LINE
  5
85
330
7F
100
AcDbEntity
  8
중심선
100
AcDbLine
 10
5.245725140726316
 20
7.84717430164391
 30
0.0
 11
8.692000384563599
 21
7.84717430164391
 31
0.0
  0
LINE
  5
86
330
7F
100
AcDbEntity
  8
중심선
100
AcDbLine
 10
15.74043728645272
 20
16.24717430164393
 30
0.0
 11
8.692000384563599
 21
7.84717430164391
 31
0.0
  0
LINE
  5
87
330
7F
100
AcDbEntity
  8
중심선
100
AcDbLine
 10
0.1404042013395286
 20
13.71084872107135
 30
0.0
 11
3.58671253028996
 21
13.71088815037384
 31
0.0
  0
LINE
  5
88
330
7F
100
AcDbEntity
  8
중심선
100
AcDbLine
 10
2.750260043222114
 20
10.84717430164391
 30
0.0
 11
6.196535287059397
 21
10.84717430164391
 31
0.0
  0
LINE
  5
89
330
7F
100
AcDbEntity
  8
중심선
100
AcDbLine
 10
12.29416204261559
 20
16.24717430164393
 30
0.0
 11
5.245725140726316
 21
7.84717430164391
 31
0.0
  0
LINE
  5
8A
330
7F
100
AcDbEntity
  8
중심선
100
AcDbLine
 10
10.72767329541681
 20
16.24717430164393
 30
0.0
 11
6.196535287059397
 21
10.84717430164391
 31
0.0
  0
LINE
  5
8B
330
7F
100
AcDbEntity
  8
중심선
100
AcDbLine
 10
7.28139805157953
 20
16.24717430164393
 30
0.0
 11
2.750260043222114
 21
10.84717430164391
 31
0.0
  0
LINE
  5
8C
330
7F
100
AcDbEntity
  8
중심선
100
AcDbLine
 10
5.714909304380834
 20
16.24717430164393
 30
0.0
 11
3.58671253028996
 21
13.71088815037384
 31
0.0
  0
LINE
  5
8D
330
7F
100
AcDbEntity
  8
중심선
100
AcDbLine
 10
2.268634060543552
 20
16.24717430164393
 30
0.0
 11
0.1404042013395286
 21
13.71084872107135
 31
0.0
  0
LINE
  5
8E
330
7F
100
AcDbEntity
  8
중심선
100
AcDbLine
 10
7.28139805157953
 20
16.24717430164393
 30
0.0
 11
10.72767329541681
 21
16.24717430164393
 31
0.0
  0
LINE
  5
8F
330
7F
100
AcDbEntity
  8
중심선
100
AcDbLine
 10
12.29416204261559
 20
16.24717430164393
 30
0.0
 11
15.74043728645272
 21
16.24717430164393
 31
0.0
  0
LINE
  5
90
330
7F
100
AcDbEntity
  8
중심선
100
AcDbLine
 10
19.22036997980202
 20
11.08717430171403
 30
0.0
 11
23.66174974927406
 21
11.08717430171406
 31
0.0
  0
LINE
  5
91
330
7F
100
AcDbEntity
  8
중심선
100
AcDbLine
 10
19.22039502424796
 20
13.00717430171391
 30
0.0
 11
19.22036997980202
 21
11.08717430171403
 31
0.0
  0
LINE
  5
92
330
7F
100
AcDbEntity
  8
중심선
100
AcDbLine
 10
19.22039502424796
 20
13.00717430171391
 30
0.0
 11
26.96566020931264
 21
13.00717430171391
 31
0.0
  0
LINE
  5
93
330
7F
100
AcDbEntity
  8
중심선
100
AcDbLine
 10
22.22332737316547
 20
13.45928029700563
 30
0.0
 11
24.52862924686651
 21
15.39360700705356
 31
0.0
  0
ATTDEF
  5
95
330
7F
100
AcDbEntity
  8
FORMAT
 62
     2
100
AcDbText
 10
4.408487351596664
 20
2.075366912832191
 30
0.0
 40
4.233333333333333
  1
E1053028
 41
0.75
  7
SLDTEXTSTYLE0
 11
4.408487351596664
 21
-0.0412997538344756
 31
0.0
100
AcDbAttributeDefinition
  3

  2
AUTOATTR0
 70
     0
 74
     1
  0
ENDBLK
  5
81
330
7F
100
AcDbEntity
  8
0
100
AcDbBlockEnd
  0
BLOCK
  5
D0
330
CF
100
AcDbEntity
  8
0
100
AcDbBlockBegin
  2
_D
 70
     0
 10
0.0
 20
0.0
 30
0.0
  3
_D
  1
_D
  0
LINE
  5
D2
330
CF
100
AcDbEntity
  8
치수문자_일반주서
 62
     0
370
    -2
100
AcDbLine
 10
52.44999999999998
 20
5.556250000000007
 30
0.0
 11
67.2947114742192
 21
5.556250000000059
 31
0.0
  0
LINE
  5
D3
330
CF
100
AcDbEntity
  8
치수문자_일반주서
 62
     0
370
    -2
100
AcDbLine
 10
52.44999999999998
 20
-5.556249999999994
 30
0.0
 11
67.29471147421924
 21
-5.556249999999942
 31
0.0
  0
LINE
  5
D4
330
CF
100
AcDbEntity
  8
치수문자_일반주서
 62
     0
370
    -2
100
AcDbLine
 10
67.2947114742192
 20
5.556250000000059
 30
0.0
 11
67.29471147421907
 21
39.28525000000006
 31
0.0
  0
LINE
  5
D5
330
CF
100
AcDbEntity
  8
치수문자_일반주서
 62
     0
370
    -2
100
AcDbLine
 10
67.2947114742192
 20
5.556250000000059
 30
0.0
 11
67.29471147421924
 21
-5.556249999999942
 31
0.0
  0
LINE
  5
D6
330
CF
100
AcDbEntity
  8
치수문자_일반주서
 62
     0
370
    -2
100
AcDbLine
 10
67.29471147421918
 20
8.858250000000059
 30
0.0
 11
67.29471147421917
 21
12.16025000000006
 31
0.0
  0
LINE
  5
D7
330
CF
100
AcDbEntity
  8
치수문자_일반주서
 62
     0
370
    -2
100
AcDbLine
 10
67.29471147421926
 20
-8.858249999999941
 30
0.0
 11
67.29471147421927
 21
-12.16024999999994
 31
0.0
  0
SOLID
  5
D8
330
CF
100
AcDbEntity
  8
치수문자_일반주서
 62
     0
100
AcDbTrace
 10
66.74437814088586
 20
8.858250000000057
 30
0.0
 11
67.84504480755251
 21
8.85825000000006
 31
0.0
 12
67.2947114742192
 22
5.556250000000059
 32
0.0
 13
67.2947114742192
 23
5.556250000000059
 33
0.0
  0
SOLID
  5
D9
330
CF
100
AcDbEntity
  8
치수문자_일반주서
 62
     0
100
AcDbTrace
 10
67.84504480755258
 20
-8.85824999999994
 30
0.0
 11
66.74437814088593
 21
-8.858249999999943
 31
0.0
 12
67.29471147421924
 22
-5.556249999999942
 32
0.0
 13
67.29471147421924
 23
-5.556249999999942
 33
0.0
  0
MTEXT
  5
DA
330
CF
100
AcDbEntity
  8
치수문자_일반주서
 62
     0
100
AcDbMText
 10
62.91971147421913
 20
25.72275000000004
 30
0.0
 40
3.5
 41
0.0
 71
     2
 72
     1
  1
\A1;%%c11.11 [7/16]
  7
SLDTEXTSTYLE0
 11
-3.836451216702453E-15
 21
1.0
 31
0.0
 73
     1
 44
1.0
  0
POINT
  5
DB
330
CF
100
AcDbEntity
  8
Defpoints
 62
     0
100
AcDbPoint
 10
52.38749999999998
 20
5.556250000000007
 30
0.0
  0
POINT
  5
25D
330
CF
100
AcDbEntity
  8
Defpoints
 62
     0
100
AcDbPoint
 10
52.38749999999998
 20
-5.556249999999994
 30
0.0
  0
POINT
  5
25E
330
CF
100
AcDbEntity
  8
Defpoints
 62
     0
100
AcDbPoint
 10
67.29471147421924
 20
-5.556249999999938
 30
0.0
  0
ENDBLK
  5
D1
330
CF
100
AcDbEntity
  8
0
100
AcDbBlockEnd
  0
BLOCK
  5
E4
330
E3
100
AcDbEntity
  8
0
100
AcDbBlockBegin
  2
_D_1
 70
     0
 10
0.0
 20
0.0
 30
0.0
  3
_D_1
  1
_D_1
  0
LINE
  5
E6
330
E3
100
AcDbEntity
  8
치수문자_일반주서
 62
     0
370
    -2
100
AcDbLine
 10
52.38749999999998
 20
5.618750000000007
 30
0.0
 11
52.38749999999998
 21
17.20073416691322
 31
0.0
  0
LINE
  5
E7
330
E3
100
AcDbEntity
  8
치수문자_일반주서
 62
     0
370
    -2
100
AcDbLine
 10
26.9875
 20
5.607176808996303
 30
0.0
 11
26.9875
 21
17.20073416691322
 31
0.0
  0
LINE
  5
E8
330
E3
100
AcDbEntity
  8
치수문자_일반주서
 62
     0
370
    -2
100
AcDbLine
 10
26.9875
 20
17.20073416691322
 30
0.0
 11
0.695999999999998
 21
17.20073416691322
 31
0.0
  0
LINE
  5
E9
330
E3
100
AcDbEntity
  8
치수문자_일반주서
 62
     0
370
    -2
100
AcDbLine
 10
52.38749999999998
 20
17.20073416691322
 30
0.0
 11
26.9875
 21
17.20073416691322
 31
0.0
  0
LINE
  5
EA
330
E3
100
AcDbEntity
  8
치수문자_일반주서
 62
     0
370
    -2
100
AcDbLine
 10
55.68949999999998
 20
17.20073416691322
 30
0.0
 11
58.99149999999998
 21
17.20073416691322
 31
0.0
  0
LINE
  5
EB
330
E3
100
AcDbEntity
  8
치수문자_일반주서
 62
     0
370
    -2
100
AcDbLine
 10
23.6855
 20
17.20073416691322
 30
0.0
 11
20.3835
 21
17.20073416691322
 31
0.0
  0
SOLID
  5
EC
330
E3
100
AcDbEntity
  8
치수문자_일반주서
 62
     0
100
AcDbTrace
 10
55.68949999999998
 20
17.75106750024656
 30
0.0
 11
55.68949999999998
 21
16.65040083357989
 31
0.0
 12
52.38749999999998
 22
17.20073416691322
 32
0.0
 13
52.38749999999998
 23
17.20073416691322
 33
0.0
  0
SOLID
  5
ED
330
E3
100
AcDbEntity
  8
치수문자_일반주서
 62
     0
100
AcDbTrace
 10
23.6855
 20
16.65040083357989
 30
0.0
 11
23.6855
 21
17.75106750024656
 31
0.0
 12
26.9875
 22
17.20073416691322
 32
0.0
 13
26.9875
 23
17.20073416691322
 33
0.0
  0
MTEXT
  5
EE
330
E3
100
AcDbEntity
  8
치수문자_일반주서
 62
     0
100
AcDbMText
 10
10.53975
 20
21.57573416691322
 30
0.0
 40
3.5
 41
0.0
 71
     2
 72
     1
  1
\A1;25.40 [1]
  7
SLDTEXTSTYLE0
 73
     1
 44
1.0
  0
POINT
  5
EF
330
E3
100
AcDbEntity
  8
Defpoints
 62
     0
100
AcDbPoint
 10
52.38749999999998
 20
5.556250000000007
 30
0.0
  0
POINT
  5
25F
330
E3
100
AcDbEntity
  8
Defpoints
 62
     0
100
AcDbPoint
 10
26.9875
 20
5.544676808996303
 30
0.0
  0
POINT
  5
260
330
E3
100
AcDbEntity
  8
Defpoints
 62
     0
100
AcDbPoint
 10
26.9875
 20
17.20073416691322
 30
0.0
  0
ENDBLK
  5
E5
330
E3
100
AcDbEntity
  8
0
100
AcDbBlockEnd
  0
BLOCK
  5
F8
330
F7
100
AcDbEntity
  8
0
100
AcDbBlockBegin
  2
_D_2
 70
     0
 10
0.0
 20
0.0
 30
0.0
  3
_D_2
  1
_D_2
  0
LINE
  5
FA
330
F7
100
AcDbEntity
  8
치수문자_일반주서
 62
     0
370
    -2
100
AcDbLine
 10
52.38749999999998
 20
5.618750000000007
 30
0.0
 11
52.38749999999998
 21
32.15975899671638
 31
0.0
  0
LINE
  5
FB
330
F7
100
AcDbEntity
  8
치수문자_일반주서
 62
     0
370
    -2
100
AcDbLine
 10
-52.38749999999998
 20
5.618749999999998
 30
0.0
 11
-52.38749999999998
 21
32.15975899671638
 31
0.0
  0
LINE
  5
FC
330
F7
100
AcDbEntity
  8
치수문자_일반주서
 62
     0
370
    -2
100
AcDbLine
 10
49.08549999999998
 20
32.15975899671638
 30
0.0
 11
-49.08549999999998
 21
32.15975899671638
 31
0.0
  0
SOLID
  5
FD
330
F7
100
AcDbEntity
  8
치수문자_일반주서
 62
     0
100
AcDbTrace
 10
49.08549999999998
 20
31.60942566338304
 30
0.0
 11
49.08549999999998
 21
32.71009233004971
 31
0.0
 12
52.38749999999998
 22
32.15975899671638
 32
0.0
 13
52.38749999999998
 23
32.15975899671638
 33
0.0
  0
SOLID
  5
FE
330
F7
100
AcDbEntity
  8
치수문자_일반주서
 62
     0
100
AcDbTrace
 10
-49.08549999999998
 20
32.71009233004971
 30
0.0
 11
-49.08549999999998
 21
31.60942566338304
 31
0.0
 12
-52.38749999999998
 22
32.15975899671638
 32
0.0
 13
-52.38749999999998
 23
32.15975899671638
 33
0.0
  0
MTEXT
  5
FF
330
F7
100
AcDbEntity
  8
치수문자_일반주서
 62
     0
100
AcDbMText
 10
2.412878706424969
 20
36.53475899671638
 30
0.0
 40
3.5
 41
0.0
 71
     2
 72
     1
  1
\A1;104.78 [4 1/8]
  7
SLDTEXTSTYLE0
 73
     1
 44
1.0
  0
POINT
  5
100
330
F7
100
AcDbEntity
  8
Defpoints
 62
     0
100
AcDbPoint
 10
52.38749999999998
 20
5.556250000000007
 30
0.0
  0
POINT
  5
101
330
F7
100
AcDbEntity
  8
Defpoints
 62
     0
100
AcDbPoint
 10
-52.38749999999998
 20
5.556249999999998
 30
0.0
  0
POINT
  5
102
330
F7
100
AcDbEntity
  8
Defpoints
 62
     0
100
AcDbPoint
 10
-52.38749999999998
 20
32.15975899671638
 30
0.0
  0
ENDBLK
  5
F9
330
F7
100
AcDbEntity
  8
0
100
AcDbBlockEnd
  0
BLOCK
  5
10C
330
10B
100
AcDbEntity
  8
0
100
AcDbBlockBegin
  2
_D_3
 70
     0
 10
0.0
 20
0.0
 30
0.0
  3
_D_3
  1
_D_3
  0
LINE
  5
10E
330
10B
100
AcDbEntity
  8
치수문자_일반주서
 62
     0
370
    -2
100
AcDbLine
 10
-22.51188007479096
 20
6.350000000000001
 30
0.0
 11
-64.59375000000004
 21
6.349999999999842
 31
0.0
  0
LINE
  5
10F
330
10B
100
AcDbEntity
  8
치수문자_일반주서
 62
     0
370
    -2
100
AcDbLine
 10
-23.08768467149216
 20
-6.350000000000007
 30
0.0
 11
-64.59375
 21
-6.350000000000164
 31
0.0
  0
LINE
  5
110
330
10B
100
AcDbEntity
  8
치수문자_일반주서
 62
     0
370
    -2
100
AcDbLine
 10
-64.59375000000003
 20
3.047999999999843
 30
0.0
 11
-64.59375000000001
 21
-3.048000000000164
 31
0.0
  0
SOLID
  5
111
330
10B
100
AcDbEntity
  8
치수문자_일반주서
 62
     0
100
AcDbTrace
 10
-64.0434166666667
 20
3.047999999999845
 30
0.0
 11
-65.14408333333336
 21
3.047999999999841
 31
0.0
 12
-64.59375000000004
 22
6.349999999999842
 32
0.0
 13
-64.59375000000004
 23
6.349999999999842
 33
0.0
  0
SOLID
  5
112
330
10B
100
AcDbEntity
  8
치수문자_일반주서
 62
     0
100
AcDbTrace
 10
-65.14408333333334
 20
-3.048000000000166
 30
0.0
 11
-64.04341666666669
 21
-3.048000000000163
 31
0.0
 12
-64.59375
 22
-6.350000000000164
 32
0.0
 13
-64.59375
 23
-6.350000000000164
 33
0.0
  0
MTEXT
  5
113
330
10B
100
AcDbEntity
  8
치수문자_일반주서
 62
     0
100
AcDbMText
 10
-68.96875000000003
 20
-0.0000000000000232
 30
0.0
 40
3.5
 41
0.0
 71
     2
 72
     1
  1
\A1;%%c12.70 [1/2]
  7
SLDTEXTSTYLE0
 11
-3.356894814614645E-15
 21
1.0
 31
0.0
 73
     1
 44
1.0
  0
POINT
  5
114
330
10B
100
AcDbEntity
  8
Defpoints
 62
     0
100
AcDbPoint
 10
-22.44938007479096
 20
6.350000000000001
 30
0.0
  0
POINT
  5
115
330
10B
100
AcDbEntity
  8
Defpoints
 62
     0
100
AcDbPoint
 10
-23.02518467149216
 20
-6.350000000000007
 30
0.0
  0
POINT
  5
116
330
10B
100
AcDbEntity
  8
Defpoints
 62
     0
100
AcDbPoint
 10
-64.59375
 20
-6.350000000000162
 30
0.0
  0
ENDBLK
  5
10D
330
10B
100
AcDbEntity
  8
0
100
AcDbBlockEnd
  0
BLOCK
  5
126
330
125
100
AcDbEntity
  8
0
100
AcDbBlockBegin
  2
SW_DOWELSYMBOL_0
 70
     0
 10
0.0
 20
0.0
 30
0.0
  3
SW_DOWELSYMBOL_0
  1
SW_DOWELSYMBOL_0
  0
CIRCLE
  5
128
330
125
100
AcDbEntity
  8
해칭선
 62
     0
100
AcDbCircle
 10
0.0
 20
0.0
 30
0.0
 40
3.000000000000008
  0
HATCH
  5
129
330
125
100
AcDbEntity
  8
0
  6
Continuous
 62
     0
370
     0
100
AcDbHatch
 10
0.0
 20
0.0
 30
0.0
210
0.0
220
0.0
230
1.0
  2
SOLID
 70
     1
 71
     0
 91
        1
 92
        0
 93
        3
 72
     2
 10
0.0
 20
0.0
 40
3.000000000000008
 50
0.0
 51
90.0
 73
     1
 72
     1
 10
0.0
 20
3.000000000000008
 11
0.0
 21
0.0
 72
     1
 10
0.0
 20
0.0
 11
3.00000000000001
 21
0.0
 97
        0
 75
     0
 76
     1
 98
        1
 10
0.0
 20
0.0
  0
HATCH
  5
12A
330
125
100
AcDbEntity
  8
0
  6
Continuous
 62
     0
370
     0
100
AcDbHatch
 10
0.0
 20
0.0
 30
0.0
210
0.0
220
0.0
230
1.0
  2
SOLID
 70
     1
 71
     0
 91
        1
 92
        0
 93
        3
 72
     2
 10
0.0
 20
0.0
 40
3.000000000000008
 50
180.0
 51
270.0000000000007
 73
     1
 72
     1
 10
0.0
 20
-3.000000000000008
 11
0.0
 21
0.0
 72
     1
 10
0.0
 20
0.0
 11
-3.00000000000001
 21
0.0
 97
        0
 75
     0
 76
     1
 98
        1
 10
0.0
 20
0.0
  0
ENDBLK
  5
127
330
125
100
AcDbEntity
  8
0
100
AcDbBlockEnd
  0
BLOCK
  5
1DC
330
1DB
100
AcDbEntity
  8
0
100
AcDbBlockBegin
  2
*D7
 70
     1
 10
0.0
 20
0.0
 30
0.0
  3
*D7
  1
*D8
  0
LINE
  5
1DE
330
1DB
100
AcDbEntity
  8
치수문자_일반주서
 62
     0
370
    -2
100
AcDbLine
 10
107.8375
 20
17.31962499999994
 30
0.0
 11
122.8772291500535
 21
17.31962499999999
 31
0.0
  0
LINE
  5
1DF
330
1DB
100
AcDbEntity
  8
치수문자_일반주서
 62
     0
370
    -2
100
AcDbLine
 10
107.8375
 20
6.603999999999941
 30
0.0
 11
122.8772291500536
 21
6.603999999999999
 31
0.0
  0
LINE
  5
1E0
330
1DB
100
AcDbEntity
  8
치수문자_일반주서
 62
     0
370
    -2
100
AcDbLine
 10
122.8772291500535
 20
17.31962499999999
 30
0.0
 11
122.8772291500534
 21
56.73612500000002
 31
0.0
  0
LINE
  5
1E1
330
1DB
100
AcDbEntity
  8
치수문자_일반주서
 62
     0
370
    -2
100
AcDbLine
 10
122.8772291500535
 20
17.31962499999999
 30
0.0
 11
122.8772291500536
 21
6.603999999999999
 31
0.0
  0
LINE
  5
1E2
330
1DB
100
AcDbEntity
  8
치수문자_일반주서
 62
     0
370
    -2
100
AcDbLine
 10
122.8772291500535
 20
20.62162499999999
 30
0.0
 11
122.8772291500535
 21
23.92362499999999
 31
0.0
  0
LINE
  5
1E3
330
1DB
100
AcDbEntity
  8
치수문자_일반주서
 62
     0
370
    -2
100
AcDbLine
 10
122.8772291500536
 20
3.302
 30
0.0
 11
122.8772291500536
 21
0.0
 31
0.0
  0
SOLID
  5
1E4
330
1DB
100
AcDbEntity
  8
치수문자_일반주서
 62
     0
100
AcDbTrace
 10
122.3268958167202
 20
20.62162499999999
 30
0.0
 11
123.4275624833868
 21
20.621625
 31
0.0
 12
122.8772291500535
 22
17.31962499999999
 32
0.0
 13
122.8772291500535
 23
17.31962499999999
 33
0.0
  0
SOLID
  5
1E5
330
1DB
100
AcDbEntity
  8
치수문자_일반주서
 62
     0
100
AcDbTrace
 10
123.4275624833869
 20
3.302000000000002
 30
0.0
 11
122.3268958167203
 21
3.301999999999997
 31
0.0
 12
122.8772291500536
 22
6.603999999999999
 32
0.0
 13
122.8772291500536
 23
6.603999999999999
 33
0.0
  0
MTEXT
  5
1E6
330
1DB
100
AcDbEntity
  8
치수문자_일반주서
 62
     0
100
AcDbMText
 10
118.5022291500534
 20
40.32987500000001
 30
0.0
 40
3.5
 41
0.0
 71
     2
 72
     1
  1
\A1;%%c10.72 [27/64]
  7
SLDTEXTSTYLE0
 11
-3.978542002506250E-15
 21
1.0
 31
0.0
 73
     1
 44
1.0
  0
POINT
  5
1E7
330
1DB
100
AcDbEntity
  8
Defpoints
 62
     0
100
AcDbPoint
 10
107.775
 20
17.31962499999994
 30
0.0
  0
POINT
  5
1E8
330
1DB
100
AcDbEntity
  8
Defpoints
 62
     0
100
AcDbPoint
 10
107.775
 20
6.603999999999941
 30
0.0
  0
POINT
  5
1E9
330
1DB
100
AcDbEntity
  8
Defpoints
 62
     0
100
AcDbPoint
 10
122.8772291500536
 20
6.603999999999998
 30
0.0
  0
ENDBLK
  5
1DD
330
1DB
100
AcDbEntity
  8
0
100
AcDbBlockEnd
  0
BLOCK
  5
1EB
330
1EA
100
AcDbEntity
  8
0
100
AcDbBlockBegin
  2
*D8
 70
     1
 10
0.0
 20
0.0
 30
0.0
  3
*D8
  1
*D9
  0
LINE
  5
1ED
330
1EA
100
AcDbEntity
  8
치수문자_일반주서
 62
     0
370
    -2
100
AcDbLine
 10
107.775
 20
17.38212499999994
 30
0.0
 11
107.775
 21
32.68136223390211
 31
0.0
  0
LINE
  5
1EE
330
1EA
100
AcDbEntity
  8
치수문자_일반주서
 62
     0
370
    -2
100
AcDbLine
 10
82.37500000000003
 20
17.37914074165454
 30
0.0
 11
82.37500000000003
 21
32.68136223390211
 31
0.0
  0
LINE
  5
1EF
330
1EA
100
AcDbEntity
  8
치수문자_일반주서
 62
     0
370
    -2
100
AcDbLine
 10
82.37500000000003
 20
32.68136223390211
 30
0.0
 11
49.37805434238038
 21
32.68136223390211
 31
0.0
  0
LINE
  5
1F0
330
1EA
100
AcDbEntity
  8
치수문자_일반주서
 62
     0
370
    -2
100
AcDbLine
 10
107.775
 20
32.68136223390211
 30
0.0
 11
82.37500000000003
 21
32.68136223390211
 31
0.0
  0
LINE
  5
1F1
330
1EA
100
AcDbEntity
  8
치수문자_일반주서
 62
     0
370
    -2
100
AcDbLine
 10
111.077
 20
32.68136223390211
 30
0.0
 11
114.379
 21
32.68136223390211
 31
0.0
  0
LINE
  5
1F2
330
1EA
100
AcDbEntity
  8
치수문자_일반주서
 62
     0
370
    -2
100
AcDbLine
 10
79.07300000000004
 20
32.68136223390211
 30
0.0
 11
75.77100000000004
 21
32.68136223390211
 31
0.0
  0
SOLID
  5
1F3
330
1EA
100
AcDbEntity
  8
치수문자_일반주서
 62
     0
100
AcDbTrace
 10
111.077
 20
33.23169556723544
 30
0.0
 11
111.077
 21
32.13102890056877
 31
0.0
 12
107.775
 22
32.68136223390211
 32
0.0
 13
107.775
 23
32.68136223390211
 33
0.0
  0
SOLID
  5
1F4
330
1EA
100
AcDbEntity
  8
치수문자_일반주서
 62
     0
100
AcDbTrace
 10
79.07300000000004
 20
32.13102890056877
 30
0.0
 11
79.07300000000004
 21
33.23169556723544
 31
0.0
 12
82.37500000000003
 22
32.68136223390211
 32
0.0
 13
82.37500000000003
 23
32.68136223390211
 33
0.0
  0
MTEXT
  5
1F5
330
1EA
100
AcDbEntity
  8
치수문자_일반주서
 62
     0
100
AcDbMText
 10
59.22180434238038
 20
37.05636223390211
 30
0.0
 40
3.5
 41
0.0
 71
     2
 72
     1
  1
\A1;25.40 [1]
  7
SLDTEXTSTYLE0
 73
     1
 44
1.0
  0
POINT
  5
1F6
330
1EA
100
AcDbEntity
  8
Defpoints
 62
     0
100
AcDbPoint
 10
107.775
 20
17.31962499999994
 30
0.0
  0
POINT
  5
1F7
330
1EA
100
AcDbEntity
  8
Defpoints
 62
     0
100
AcDbPoint
 10
82.37500000000003
 20
17.31664074165454
 30
0.0
  0
POINT
  5
1F8
330
1EA
100
AcDbEntity
  8
Defpoints
 62
     0
100
AcDbPoint
 10
82.37500000000003
 20
32.68136223390211
 30
0.0
  0
ENDBLK
  5
1EC
330
1EA
100
AcDbEntity
  8
0
100
AcDbBlockEnd
  0
BLOCK
  5
1FA
330
1F9
100
AcDbEntity
  8
0
100
AcDbBlockBegin
  2
*D9
 70
     1
 10
0.0
 20
0.0
 30
0.0
  3
*D9
  1
*D10
  0
LINE
  5
1FC
330
1F9
100
AcDbEntity
  8
치수문자_일반주서
 62
     0
370
    -2
100
AcDbLine
 10
107.775
 20
17.38212499999994
 30
0.0
 11
107.775
 21
47.4016792206765
 31
0.0
  0
LINE
  5
1FD
330
1F9
100
AcDbEntity
  8
치수문자_일반주서
 62
     0
370
    -2
100
AcDbLine
 10
3.000000000000007
 20
17.10431249999993
 30
0.0
 11
2.999999999999993
 21
47.4016792206765
 31
0.0
  0
LINE
  5
1FE
330
1F9
100
AcDbEntity
  8
치수문자_일반주서
 62
     0
370
    -2
100
AcDbLine
 10
104.473
 20
47.4016792206765
 30
0.0
 11
6.301999999999992
 21
47.4016792206765
 31
0.0
  0
SOLID
  5
1FF
330
1F9
100
AcDbEntity
  8
치수문자_일반주서
 62
     0
100
AcDbTrace
 10
104.473
 20
46.85134588734316
 30
0.0
 11
104.473
 21
47.95201255400983
 31
0.0
 12
107.775
 22
47.4016792206765
 32
0.0
 13
107.775
 23
47.4016792206765
 33
0.0
  0
SOLID
  5
200
330
1F9
100
AcDbEntity
  8
치수문자_일반주서
 62
     0
100
AcDbTrace
 10
6.301999999999992
 20
47.95201255400983
 30
0.0
 11
6.301999999999992
 21
46.85134588734316
 31
0.0
 12
2.999999999999993
 22
47.4016792206765
 32
0.0
 13
2.999999999999993
 23
47.4016792206765
 33
0.0
  0
MTEXT
  5
201
330
1F9
100
AcDbEntity
  8
치수문자_일반주서
 62
     0
100
AcDbMText
 10
53.25410826666104
 20
51.7766792206765
 30
0.0
 40
3.5
 41
0.0
 71
     2
 72
     1
  1
\A1;104.78 [4 1/8]
  7
SLDTEXTSTYLE0
 73
     1
 44
1.0
  0
POINT
  5
202
330
1F9
100
AcDbEntity
  8
Defpoints
 62
     0
100
AcDbPoint
 10
107.775
 20
17.31962499999994
 30
0.0
  0
POINT
  5
203
330
1F9
100
AcDbEntity
  8
Defpoints
 62
     0
100
AcDbPoint
 10
3.000000000000007
 20
17.04181249999993
 30
0.0
  0
POINT
  5
204
330
1F9
100
AcDbEntity
  8
Defpoints
 62
     0
100
AcDbPoint
 10
3.000000000000007
 20
47.4016792206765
 30
0.0
  0
ENDBLK
  5
1FB
330
1F9
100
AcDbEntity
  8
0
100
AcDbBlockEnd
  0
BLOCK
  5
234
330
233
100
AcDbEntity
  8
0
100
AcDbBlockBegin
  2
*D10
 70
     1
 10
0.0
 20
0.0
 30
0.0
  3
*D10
  1
*D11
  0
LINE
  5
236
330
233
100
AcDbEntity
  8
치수문자_일반주서
 62
     0
370
    -2
100
AcDbLine
 10
194.5600535636652
 20
-27.03845412736737
 30
0.0
 11
209.5997827137187
 21
-27.03845412736731
 31
0.0
  0
LINE
  5
237
330
233
100
AcDbEntity
  8
치수문자_일반주서
 62
     0
370
    -2
100
AcDbLine
 10
194.5600535636652
 20
-37.75407912736736
 30
0.0
 11
209.5997827137187
 21
-37.75407912736731
 31
0.0
  0
LINE
  5
238
330
233
100
AcDbEntity
  8
치수문자_일반주서
 62
     0
370
    -2
100
AcDbLine
 10
209.5997827137187
 20
-27.03845412736731
 30
0.0
 11
209.5997827137186
 21
12.37804587263272
 31
0.0
  0
LINE
  5
239
330
233
100
AcDbEntity
  8
치수문자_일반주서
 62
     0
370
    -2
100
AcDbLine
 10
209.5997827137187
 20
-27.03845412736731
 30
0.0
 11
209.5997827137187
 21
-37.75407912736731
 31
0.0
  0
LINE
  5
23A
330
233
100
AcDbEntity
  8
치수문자_일반주서
 62
     0
370
    -2
100
AcDbLine
 10
209.5997827137187
 20
-23.73645412736731
 30
0.0
 11
209.5997827137187
 21
-20.43445412736731
 31
0.0
  0
LINE
  5
23B
330
233
100
AcDbEntity
  8
치수문자_일반주서
 62
     0
370
    -2
100
AcDbLine
 10
209.5997827137187
 20
-41.0560791273673
 30
0.0
 11
209.5997827137187
 21
-44.3580791273673
 31
0.0
  0
SOLID
  5
23C
330
233
100
AcDbEntity
  8
치수문자_일반주서
 62
     0
100
AcDbTrace
 10
209.0494493803853
 20
-23.73645412736731
 30
0.0
 11
210.150116047052
 21
-23.73645412736731
 31
0.0
 12
209.5997827137187
 22
-27.03845412736731
 32
0.0
 13
209.5997827137187
 23
-27.03845412736731
 33
0.0
  0
SOLID
  5
23D
330
233
100
AcDbEntity
  8
치수문자_일반주서
 62
     0
100
AcDbTrace
 10
210.150116047052
 20
-41.0560791273673
 30
0.0
 11
209.0494493803854
 21
-41.0560791273673
 31
0.0
 12
209.5997827137187
 22
-37.75407912736731
 32
0.0
 13
209.5997827137187
 23
-37.75407912736731
 33
0.0
  0
MTEXT
  5
23E
330
233
100
AcDbEntity
  8
치수문자_일반주서
 62
     0
100
AcDbMText
 10
205.2247827137186
 20
-4.028204127367293
 30
0.0
 40
3.5
 41
0.0
 71
     2
 72
     1
  1
\A1;%%c10.72 [27/64]
  7
SLDTEXTSTYLE0
 11
-2.652361335004166E-15
 21
1.0
 31
0.0
 73
     1
 44
1.0
  0
POINT
  5
23F
330
233
100
AcDbEntity
  8
Defpoints
 62
     0
100
AcDbPoint
 10
194.4975535636652
 20
-27.03845412736737
 30
0.0
  0
POINT
  5
240
330
233
100
AcDbEntity
  8
Defpoints
 62
     0
100
AcDbPoint
 10
194.4975535636652
 20
-37.75407912736736
 30
0.0
  0
POINT
  5
241
330
233
100
AcDbEntity
  8
Defpoints
 62
     0
100
AcDbPoint
 10
209.5997827137188
 20
-37.75407912736731
 30
0.0
  0
ENDBLK
  5
235
330
233
100
AcDbEntity
  8
0
100
AcDbBlockEnd
  0
BLOCK
  5
243
330
242
100
AcDbEntity
  8
0
100
AcDbBlockBegin
  2
*D11
 70
     1
 10
0.0
 20
0.0
 30
0.0
  3
*D11
  1
*D12
  0
LINE
  5
245
330
242
100
AcDbEntity
  8
치수문자_일반주서
 62
     0
370
    -2
100
AcDbLine
 10
194.4975535636652
 20
-26.97595412736737
 30
0.0
 11
194.4975535636652
 21
-11.6767168934652
 31
0.0
  0
LINE
  5
246
330
242
100
AcDbEntity
  8
치수문자_일반주서
 62
     0
370
    -2
100
AcDbLine
 10
169.0975535636652
 20
-26.97893838571277
 30
0.0
 11
169.0975535636652
 21
-11.6767168934652
 31
0.0
  0
LINE
  5
247
330
242
100
AcDbEntity
  8
치수문자_일반주서
 62
     0
370
    -2
100
AcDbLine
 10
169.0975535636652
 20
-11.6767168934652
 30
0.0
 11
136.1006079060456
 21
-11.6767168934652
 31
0.0
  0
LINE
  5
248
330
242
100
AcDbEntity
  8
치수문자_일반주서
 62
     0
370
    -2
100
AcDbLine
 10
194.4975535636652
 20
-11.6767168934652
 30
0.0
 11
169.0975535636652
 21
-11.6767168934652
 31
0.0
  0
LINE
  5
249
330
242
100
AcDbEntity
  8
치수문자_일반주서
 62
     0
370
    -2
100
AcDbLine
 10
197.7995535636652
 20
-11.6767168934652
 30
0.0
 11
201.1015535636652
 21
-11.6767168934652
 31
0.0
  0
LINE
  5
24A
330
242
100
AcDbEntity
  8
치수문자_일반주서
 62
     0
370
    -2
100
AcDbLine
 10
165.7955535636652
 20
-11.6767168934652
 30
0.0
 11
162.4935535636652
 21
-11.6767168934652
 31
0.0
  0
SOLID
  5
24B
330
242
100
AcDbEntity
  8
치수문자_일반주서
 62
     0
100
AcDbTrace
 10
197.7995535636652
 20
-11.12638356013187
 30
0.0
 11
197.7995535636652
 21
-12.22705022679853
 31
0.0
 12
194.4975535636652
 22
-11.6767168934652
 32
0.0
 13
194.4975535636652
 23
-11.6767168934652
 33
0.0
  0
SOLID
  5
24C
330
242
100
AcDbEntity
  8
치수문자_일반주서
 62
     0
100
AcDbTrace
 10
165.7955535636652
 20
-12.22705022679853
 30
0.0
 11
165.7955535636652
 21
-11.12638356013187
 31
0.0
 12
169.0975535636652
 22
-11.6767168934652
 32
0.0
 13
169.0975535636652
 23
-11.6767168934652
 33
0.0
  0
MTEXT
  5
24D
330
242
100
AcDbEntity
  8
치수문자_일반주서
 62
     0
100
AcDbMText
 10
145.9443579060456
 20
-7.301716893465198
 30
0.0
 40
3.5
 41
0.0
 71
     2
 72
     1
  1
\A1;25.40 [1]
  7
SLDTEXTSTYLE0
 73
     1
 44
1.0
  0
POINT
  5
24E
330
242
100
AcDbEntity
  8
Defpoints
 62
     0
100
AcDbPoint
 10
194.4975535636652
 20
-27.03845412736737
 30
0.0
  0
POINT
  5
24F
330
242
100
AcDbEntity
  8
Defpoints
 62
     0
100
AcDbPoint
 10
169.0975535636652
 20
-27.04143838571277
 30
0.0
  0
POINT
  5
250
330
242
100
AcDbEntity
  8
Defpoints
 62
     0
100
AcDbPoint
 10
169.0975535636652
 20
-11.6767168934652
 30
0.0
  0
ENDBLK
  5
244
330
242
100
AcDbEntity
  8
0
100
AcDbBlockEnd
  0
BLOCK
  5
252
330
251
100
AcDbEntity
  8
0
100
AcDbBlockBegin
  2
*D12
 70
     1
 10
0.0
 20
0.0
 30
0.0
  3
*D12
  1
*D13
  0
LINE
  5
254
330
251
100
AcDbEntity
  8
치수문자_일반주서
 62
     0
370
    -2
100
AcDbLine
 10
194.4975535636652
 20
-26.97595412736737
 30
0.0
 11
194.4975535636652
 21
3.043600093309195
 31
0.0
  0
LINE
  5
255
330
251
100
AcDbEntity
  8
치수문자_일반주서
 62
     0
370
    -2
100
AcDbLine
 10
89.72255356366517
 20
-27.25376662736737
 30
0.0
 11
89.72255356366517
 21
3.043600093309195
 31
0.0
  0
LINE
  5
256
330
251
100
AcDbEntity
  8
치수문자_일반주서
 62
     0
370
    -2
100
AcDbLine
 10
191.1955535636652
 20
3.043600093309195
 30
0.0
 11
93.02455356366517
 21
3.043600093309195
 31
0.0
  0
SOLID
  5
257
330
251
100
AcDbEntity
  8
치수문자_일반주서
 62
     0
100
AcDbTrace
 10
191.1955535636652
 20
2.493266759975862
 30
0.0
 11
191.1955535636652
 21
3.593933426642528
 31
0.0
 12
194.4975535636652
 22
3.043600093309195
 32
0.0
 13
194.4975535636652
 23
3.043600093309195
 33
0.0
  0
SOLID
  5
258
330
251
100
AcDbEntity
  8
치수문자_일반주서
 62
     0
100
AcDbTrace
 10
93.02455356366517
 20
3.593933426642528
 30
0.0
 11
93.02455356366517
 21
2.493266759975862
 31
0.0
 12
89.72255356366517
 22
3.043600093309195
 32
0.0
 13
89.72255356366517
 23
3.043600093309195
 33
0.0
  0
MTEXT
  5
259
330
251
100
AcDbEntity
  8
치수문자_일반주서
 62
     0
100
AcDbMText
 10
139.9766618303262
 20
7.418600093309195
 30
0.0
 40
3.5
 41
0.0
 71
     2
 72
     1
  1
\A1;104.78 [4 1/8]
  7
SLDTEXTSTYLE0
 73
     1
 44
1.0
  0
POINT
  5
25A
330
251
100
AcDbEntity
  8
Defpoints
 62
     0
100
AcDbPoint
 10
194.4975535636652
 20
-27.03845412736737
 30
0.0
  0
POINT
  5
25B
330
251
100
AcDbEntity
  8
Defpoints
 62
     0
100
AcDbPoint
 10
89.72255356366517
 20
-27.31626662736737
 30
0.0
  0
POINT
  5
25C
330
251
100
AcDbEntity
  8
Defpoints
 62
     0
100
AcDbPoint
 10
89.72255356366517
 20
3.043600093309195
 30
0.0
  0
ENDBLK
  5
253
330
251
100
AcDbEntity
  8
0
100
AcDbBlockEnd
  0
BLOCK
  5
2EC
330
2EB
100
AcDbEntity
  8
0
100
AcDbBlockBegin
  2
*D13
 70
     1
 10
0.0
 20
0.0
 30
0.0
  3
*D13
  1
*D15
  0
LINE
  5
2EE
330
2EB
100
AcDbEntity
  8
치수문자_일반주서
 62
     0
370
    -2
100
AcDbLine
 10
107.8375
 20
17.71649999999995
 30
0.0
 11
122.6822114742192
 21
17.7165
 31
0.0
  0
LINE
  5
2EF
330
2EB
100
AcDbEntity
  8
치수문자_일반주서
 62
     0
370
    -2
100
AcDbLine
 10
107.8375
 20
6.603999999999948
 30
0.0
 11
122.6822114742193
 21
6.604000000000006
 31
0.0
  0
LINE
  5
2F0
330
2EB
100
AcDbEntity
  8
치수문자_일반주서
 62
     0
370
    -2
100
AcDbLine
 10
122.6822114742192
 20
17.7165
 30
0.0
 11
122.6822114742191
 21
51.4455
 31
0.0
  0
LINE
  5
2F1
330
2EB
100
AcDbEntity
  8
치수문자_일반주서
 62
     0
370
    -2
100
AcDbLine
 10
122.6822114742192
 20
17.7165
 30
0.0
 11
122.6822114742193
 21
6.604000000000006
 31
0.0
  0
LINE
  5
2F2
330
2EB
100
AcDbEntity
  8
치수문자_일반주서
 62
     0
370
    -2
100
AcDbLine
 10
122.6822114742192
 20
21.0185
 30
0.0
 11
122.6822114742192
 21
24.3205
 31
0.0
  0
LINE
  5
2F3
330
2EB
100
AcDbEntity
  8
치수문자_일반주서
 62
     0
370
    -2
100
AcDbLine
 10
122.6822114742193
 20
3.302000000000007
 30
0.0
 11
122.6822114742193
 21
0.0000000000000071
 31
0.0
  0
SOLID
  5
2F4
330
2EB
100
AcDbEntity
  8
치수문자_일반주서
 62
     0
100
AcDbTrace
 10
122.1318781408859
 20
21.0185
 30
0.0
 11
123.2325448075525
 21
21.01850000000001
 31
0.0
 12
122.6822114742192
 22
17.7165
 32
0.0
 13
122.6822114742192
 23
17.7165
 33
0.0
  0
SOLID
  5
2F5
330
2EB
100
AcDbEntity
  8
치수문자_일반주서
 62
     0
100
AcDbTrace
 10
123.2325448075526
 20
3.302000000000009
 30
0.0
 11
122.1318781408859
 21
3.302000000000004
 31
0.0
 12
122.6822114742193
 22
6.604000000000006
 32
0.0
 13
122.6822114742193
 23
6.604000000000006
 33
0.0
  0
MTEXT
  5
2F6
330
2EB
100
AcDbEntity
  8
치수문자_일반주서
 62
     0
100
AcDbMText
 10
118.3072114742191
 20
37.88299999999999
 30
0.0
 40
3.5
 41
0.0
 71
     2
 72
     1
  1
\A1;%%c11.11 [7/16]
  7
SLDTEXTSTYLE0
 11
-3.836451216702453E-15
 21
1.0
 31
0.0
 73
     1
 44
1.0
  0
POINT
  5
2F7
330
2EB
100
AcDbEntity
  8
Defpoints
 62
     0
100
AcDbPoint
 10
107.775
 20
17.71649999999995
 30
0.0
  0
POINT
  5
2F8
330
2EB
100
AcDbEntity
  8
Defpoints
 62
     0
100
AcDbPoint
 10
107.775
 20
6.603999999999948
 30
0.0
  0
POINT
  5
2F9
330
2EB
100
AcDbEntity
  8
Defpoints
 62
     0
100
AcDbPoint
 10
122.6822114742193
 20
6.604000000000004
 30
0.0
  0
ENDBLK
  5
2ED
330
2EB
100
AcDbEntity
  8
0
100
AcDbBlockEnd
  0
BLOCK
  5
2FB
330
2FA
100
AcDbEntity
  8
0
100
AcDbBlockBegin
  2
*D14
 70
     1
 10
0.0
 20
0.0
 30
0.0
  3
*D14
  1
*D16
  0
LINE
  5
2FD
330
2FA
100
AcDbEntity
  8
치수문자_일반주서
 62
     0
370
    -2
100
AcDbLine
 10
107.775
 20
17.77899999999995
 30
0.0
 11
107.775
 21
29.36098416691316
 31
0.0
  0
LINE
  5
2FE
330
2FA
100
AcDbEntity
  8
치수문자_일반주서
 62
     0
370
    -2
100
AcDbLine
 10
82.375
 20
17.76742680899624
 30
0.0
 11
82.375
 21
29.36098416691316
 31
0.0
  0
LINE
  5
2FF
330
2FA
100
AcDbEntity
  8
치수문자_일반주서
 62
     0
370
    -2
100
AcDbLine
 10
82.375
 20
29.36098416691316
 30
0.0
 11
56.0835
 21
29.36098416691316
 31
0.0
  0
LINE
  5
300
330
2FA
100
AcDbEntity
  8
치수문자_일반주서
 62
     0
370
    -2
100
AcDbLine
 10
107.775
 20
29.36098416691316
 30
0.0
 11
82.375
 21
29.36098416691316
 31
0.0
  0
LINE
  5
301
330
2FA
100
AcDbEntity
  8
치수문자_일반주서
 62
     0
370
    -2
100
AcDbLine
 10
111.077
 20
29.36098416691316
 30
0.0
 11
114.379
 21
29.36098416691316
 31
0.0
  0
LINE
  5
302
330
2FA
100
AcDbEntity
  8
치수문자_일반주서
 62
     0
370
    -2
100
AcDbLine
 10
79.07300000000001
 20
29.36098416691316
 30
0.0
 11
75.77100000000002
 21
29.36098416691316
 31
0.0
  0
SOLID
  5
303
330
2FA
100
AcDbEntity
  8
치수문자_일반주서
 62
     0
100
AcDbTrace
 10
111.077
 20
29.9113175002465
 30
0.0
 11
111.077
 21
28.81065083357983
 31
0.0
 12
107.775
 22
29.36098416691316
 32
0.0
 13
107.775
 23
29.36098416691316
 33
0.0
  0
SOLID
  5
304
330
2FA
100
AcDbEntity
  8
치수문자_일반주서
 62
     0
100
AcDbTrace
 10
79.07300000000001
 20
28.81065083357983
 30
0.0
 11
79.07300000000001
 21
29.9113175002465
 31
0.0
 12
82.375
 22
29.36098416691316
 32
0.0
 13
82.375
 23
29.36098416691316
 33
0.0
  0
MTEXT
  5
305
330
2FA
100
AcDbEntity
  8
치수문자_일반주서
 62
     0
100
AcDbMText
 10
65.92725
 20
33.73598416691316
 30
0.0
 40
3.5
 41
0.0
 71
     2
 72
     1
  1
\A1;25.40 [1]
  7
SLDTEXTSTYLE0
 73
     1
 44
1.0
  0
POINT
  5
306
330
2FA
100
AcDbEntity
  8
Defpoints
 62
     0
100
AcDbPoint
 10
107.775
 20
17.71649999999995
 30
0.0
  0
POINT
  5
307
330
2FA
100
AcDbEntity
  8
Defpoints
 62
     0
100
AcDbPoint
 10
82.375
 20
17.70492680899624
 30
0.0
  0
POINT
  5
308
330
2FA
100
AcDbEntity
  8
Defpoints
 62
     0
100
AcDbPoint
 10
82.375
 20
29.36098416691316
 30
0.0
  0
ENDBLK
  5
2FC
330
2FA
100
AcDbEntity
  8
0
100
AcDbBlockEnd
  0
BLOCK
  5
30A
330
309
100
AcDbEntity
  8
0
100
AcDbBlockBegin
  2
*D15
 70
     1
 10
0.0
 20
0.0
 30
0.0
  3
*D15
  1
*D17
  0
LINE
  5
30C
330
309
100
AcDbEntity
  8
치수문자_일반주서
 62
     0
370
    -2
100
AcDbLine
 10
107.775
 20
17.77899999999995
 30
0.0
 11
107.775
 21
44.32000899671632
 31
0.0
  0
LINE
  5
30D
330
309
100
AcDbEntity
  8
치수문자_일반주서
 62
     0
370
    -2
100
AcDbLine
 10
3.000000000000007
 20
17.30274999999994
 30
0.0
 11
2.999999999999993
 21
44.32000899671632
 31
0.0
  0
LINE
  5
30E
330
309
100
AcDbEntity
  8
치수문자_일반주서
 62
     0
370
    -2
100
AcDbLine
 10
104.473
 20
44.32000899671632
 30
0.0
 11
6.301999999999992
 21
44.32000899671632
 31
0.0
  0
SOLID
  5
30F
330
309
100
AcDbEntity
  8
치수문자_일반주서
 62
     0
100
AcDbTrace
 10
104.473
 20
43.76967566338298
 30
0.0
 11
104.473
 21
44.87034233004965
 31
0.0
 12
107.775
 22
44.32000899671632
 32
0.0
 13
107.775
 23
44.32000899671632
 33
0.0
  0
SOLID
  5
310
330
309
100
AcDbEntity
  8
치수문자_일반주서
 62
     0
100
AcDbTrace
 10
6.301999999999992
 20
44.87034233004965
 30
0.0
 11
6.301999999999992
 21
43.76967566338298
 31
0.0
 12
2.999999999999993
 22
44.32000899671632
 32
0.0
 13
2.999999999999993
 23
44.32000899671632
 33
0.0
  0
MTEXT
  5
311
330
309
100
AcDbEntity
  8
치수문자_일반주서
 62
     0
100
AcDbMText
 10
57.80037870642498
 20
48.69500899671632
 30
0.0
 40
3.5
 41
0.0
 71
     2
 72
     1
  1
\A1;104.78 [4 1/8]
  7
SLDTEXTSTYLE0
 73
     1
 44
1.0
  0
POINT
  5
312
330
309
100
AcDbEntity
  8
Defpoints
 62
     0
100
AcDbPoint
 10
107.775
 20
17.71649999999995
 30
0.0
  0
POINT
  5
313
330
309
100
AcDbEntity
  8
Defpoints
 62
     0
100
AcDbPoint
 10
3.000000000000007
 20
17.24024999999994
 30
0.0
  0
POINT
  5
314
330
309
100
AcDbEntity
  8
Defpoints
 62
     0
100
AcDbPoint
 10
3.000000000000007
 20
44.32000899671632
 30
0.0
  0
ENDBLK
  5
30B
330
309
100
AcDbEntity
  8
0
100
AcDbBlockEnd
  0
BLOCK
  5
343
330
342
100
AcDbEntity
  8
0
100
AcDbBlockBegin
  2
*D16
 70
     1
 10
0.0
 20
0.0
 30
0.0
  3
*D16
  1
*D18
  0
LINE
  5
345
330
342
100
AcDbEntity
  8
치수문자_일반주서
 62
     0
370
    -2
100
AcDbLine
 10
277.8396856145615
 20
-25.27946449260998
 30
0.0
 11
292.6843970887807
 21
-25.27946449260993
 31
0.0
  0
LINE
  5
346
330
342
100
AcDbEntity
  8
치수문자_일반주서
 62
     0
370
    -2
100
AcDbLine
 10
277.8396856145615
 20
-36.39196449260998
 30
0.0
 11
292.6843970887808
 21
-36.39196449260992
 31
0.0
  0
LINE
  5
347
330
342
100
AcDbEntity
  8
치수문자_일반주서
 62
     0
370
    -2
100
AcDbLine
 10
292.6843970887807
 20
-25.27946449260993
 30
0.0
 11
292.6843970887805
 21
8.449535507390074
 31
0.0
  0
LINE
  5
348
330
342
100
AcDbEntity
  8
치수문자_일반주서
 62
     0
370
    -2
100
AcDbLine
 10
292.6843970887807
 20
-25.27946449260993
 30
0.0
 11
292.6843970887808
 21
-36.39196449260992
 31
0.0
  0
LINE
  5
349
330
342
100
AcDbEntity
  8
치수문자_일반주서
 62
     0
370
    -2
100
AcDbLine
 10
292.6843970887807
 20
-21.97746449260993
 30
0.0
 11
292.6843970887807
 21
-18.67546449260993
 31
0.0
  0
LINE
  5
34A
330
342
100
AcDbEntity
  8
치수문자_일반주서
 62
     0
370
    -2
100
AcDbLine
 10
292.6843970887808
 20
-39.69396449260992
 30
0.0
 11
292.6843970887808
 21
-42.99596449260992
 31
0.0
  0
SOLID
  5
34B
330
342
100
AcDbEntity
  8
치수문자_일반주서
 62
     0
100
AcDbTrace
 10
292.1340637554474
 20
-21.97746449260993
 30
0.0
 11
293.2347304221141
 21
-21.97746449260992
 31
0.0
 12
292.6843970887807
 22
-25.27946449260993
 32
0.0
 13
292.6843970887807
 23
-25.27946449260993
 33
0.0
  0
SOLID
  5
34C
330
342
100
AcDbEntity
  8
치수문자_일반주서
 62
     0
100
AcDbTrace
 10
293.2347304221141
 20
-39.69396449260992
 30
0.0
 11
292.1340637554474
 21
-39.69396449260992
 31
0.0
 12
292.6843970887808
 22
-36.39196449260992
 32
0.0
 13
292.6843970887808
 23
-36.39196449260992
 33
0.0
  0
MTEXT
  5
34D
330
342
100
AcDbEntity
  8
치수문자_일반주서
 62
     0
100
AcDbMText
 10
288.3093970887806
 20
-5.112964492609948
 30
0.0
 40
3.5
 41
0.0
 71
     2
 72
     1
  1
\A1;%%c11.11 [7/16]
  7
SLDTEXTSTYLE0
 11
-5.115268288936606E-15
 21
1.0
 31
0.0
 73
     1
 44
1.0
  0
POINT
  5
34E
330
342
100
AcDbEntity
  8
Defpoints
 62
     0
100
AcDbPoint
 10
277.7771856145615
 20
-25.27946449260998
 30
0.0
  0
POINT
  5
34F
330
342
100
AcDbEntity
  8
Defpoints
 62
     0
100
AcDbPoint
 10
277.7771856145615
 20
-36.39196449260998
 30
0.0
  0
POINT
  5
350
330
342
100
AcDbEntity
  8
Defpoints
 62
     0
100
AcDbPoint
 10
292.6843970887807
 20
-36.39196449260992
 30
0.0
  0
ENDBLK
  5
344
330
342
100
AcDbEntity
  8
0
100
AcDbBlockEnd
  0
BLOCK
  5
352
330
351
100
AcDbEntity
  8
0
100
AcDbBlockBegin
  2
*D17
 70
     1
 10
0.0
 20
0.0
 30
0.0
  3
*D17
  1
*D19
  0
LINE
  5
354
330
351
100
AcDbEntity
  8
치수문자_일반주서
 62
     0
370
    -2
100
AcDbLine
 10
277.7771856145615
 20
-25.21696449260998
 30
0.0
 11
277.7771856145615
 21
-13.63498032569677
 31
0.0
  0
LINE
  5
355
330
351
100
AcDbEntity
  8
치수문자_일반주서
 62
     0
370
    -2
100
AcDbLine
 10
252.3771856145615
 20
-25.22853768361368
 30
0.0
 11
252.3771856145615
 21
-13.63498032569677
 31
0.0
  0
LINE
  5
356
330
351
100
AcDbEntity
  8
치수문자_일반주서
 62
     0
370
    -2
100
AcDbLine
 10
252.3771856145615
 20
-13.63498032569677
 30
0.0
 11
226.0856856145614
 21
-13.63498032569677
 31
0.0
  0
LINE
  5
357
330
351
100
AcDbEntity
  8
치수문자_일반주서
 62
     0
370
    -2
100
AcDbLine
 10
277.7771856145615
 20
-13.63498032569677
 30
0.0
 11
252.3771856145615
 21
-13.63498032569677
 31
0.0
  0
LINE
  5
358
330
351
100
AcDbEntity
  8
치수문자_일반주서
 62
     0
370
    -2
100
AcDbLine
 10
281.0791856145615
 20
-13.63498032569677
 30
0.0
 11
284.3811856145615
 21
-13.63498032569677
 31
0.0
  0
LINE
  5
359
330
351
100
AcDbEntity
  8
치수문자_일반주서
 62
     0
370
    -2
100
AcDbLine
 10
249.0751856145615
 20
-13.63498032569677
 30
0.0
 11
245.7731856145615
 21
-13.63498032569677
 31
0.0
  0
SOLID
  5
35A
330
351
100
AcDbEntity
  8
치수문자_일반주서
 62
     0
100
AcDbTrace
 10
281.0791856145615
 20
-13.08464699236343
 30
0.0
 11
281.0791856145615
 21
-14.1853136590301
 31
0.0
 12
277.7771856145615
 22
-13.63498032569677
 32
0.0
 13
277.7771856145615
 23
-13.63498032569677
 33
0.0
  0
SOLID
  5
35B
330
351
100
AcDbEntity
  8
치수문자_일반주서
 62
     0
100
AcDbTrace
 10
249.0751856145615
 20
-14.1853136590301
 30
0.0
 11
249.0751856145615
 21
-13.08464699236343
 31
0.0
 12
252.3771856145615
 22
-13.63498032569677
 32
0.0
 13
252.3771856145615
 23
-13.63498032569677
 33
0.0
  0
MTEXT
  5
35C
330
351
100
AcDbEntity
  8
치수문자_일반주서
 62
     0
100
AcDbMText
 10
235.9294356145614
 20
-9.259980325696766
 30
0.0
 40
3.5
 41
0.0
 71
     2
 72
     1
  1
\A1;25.40 [1]
  7
SLDTEXTSTYLE0
 73
     1
 44
1.0
  0
POINT
  5
35D
330
351
100
AcDbEntity
  8
Defpoints
 62
     0
100
AcDbPoint
 10
277.7771856145615
 20
-25.27946449260998
 30
0.0
  0
POINT
  5
35E
330
351
100
AcDbEntity
  8
Defpoints
 62
     0
100
AcDbPoint
 10
252.3771856145615
 20
-25.29103768361368
 30
0.0
  0
POINT
  5
35F
330
351
100
AcDbEntity
  8
Defpoints
 62
     0
100
AcDbPoint
 10
252.3771856145615
 20
-13.63498032569677
 30
0.0
  0
ENDBLK
  5
353
330
351
100
AcDbEntity
  8
0
100
AcDbBlockEnd
  0
BLOCK
  5
361
330
360
100
AcDbEntity
  8
0
100
AcDbBlockBegin
  2
*D18
 70
     1
 10
0.0
 20
0.0
 30
0.0
  3
*D18
  1
*D20
  0
LINE
  5
363
330
360
100
AcDbEntity
  8
치수문자_일반주서
 62
     0
370
    -2
100
AcDbLine
 10
277.7771856145615
 20
-25.21696449260998
 30
0.0
 11
277.7771856145615
 21
1.324044504106389
 31
0.0
  0
LINE
  5
364
330
360
100
AcDbEntity
  8
치수문자_일반주서
 62
     0
370
    -2
100
AcDbLine
 10
173.0021856145615
 20
-25.69321449260999
 30
0.0
 11
173.0021856145615
 21
1.324044504106389
 31
0.0
  0
LINE
  5
365
330
360
100
AcDbEntity
  8
치수문자_일반주서
 62
     0
370
    -2
100
AcDbLine
 10
274.4751856145614
 20
1.324044504106389
 30
0.0
 11
176.3041856145614
 21
1.324044504106389
 31
0.0
  0
SOLID
  5
366
330
360
100
AcDbEntity
  8
치수문자_일반주서
 62
     0
100
AcDbTrace
 10
274.4751856145614
 20
0.7737111707730561
 30
0.0
 11
274.4751856145614
 21
1.874377837439722
 31
0.0
 12
277.7771856145615
 22
1.324044504106389
 32
0.0
 13
277.7771856145615
 23
1.324044504106389
 33
0.0
  0
SOLID
  5
367
330
360
100
AcDbEntity
  8
치수문자_일반주서
 62
     0
100
AcDbTrace
 10
176.3041856145614
 20
1.874377837439722
 30
0.0
 11
176.3041856145614
 21
0.7737111707730561
 31
0.0
 12
173.0021856145615
 22
1.324044504106389
 32
0.0
 13
173.0021856145615
 23
1.324044504106389
 33
0.0
  0
MTEXT
  5
368
330
360
100
AcDbEntity
  8
치수문자_일반주서
 62
     0
100
AcDbMText
 10
227.8025643209864
 20
5.699044504106389
 30
0.0
 40
3.5
 41
0.0
 71
     2
 72
     1
  1
\A1;104.78 [4 1/8]
  7
SLDTEXTSTYLE0
 73
     1
 44
1.0
  0
POINT
  5
369
330
360
100
AcDbEntity
  8
Defpoints
 62
     0
100
AcDbPoint
 10
277.7771856145615
 20
-25.27946449260998
 30
0.0
  0
POINT
  5
36A
330
360
100
AcDbEntity
  8
Defpoints
 62
     0
100
AcDbPoint
 10
173.0021856145615
 20
-25.75571449260999
 30
0.0
  0
POINT
  5
36B
330
360
100
AcDbEntity
  8
Defpoints
 62
     0
100
AcDbPoint
 10
173.0021856145615
 20
1.324044504106389
 30
0.0
  0
ENDBLK
  5
362
330
360
100
AcDbEntity
  8
0
100
AcDbBlockEnd
  0
ENDSEC
  0
SECTION
  2
ENTITIES
  0
LINE
  5
96
330
1F
100
AcDbEntity
  8
0
  6
Continuous
 62
     1
370
    15
100
AcDbLine
 10
38.09603190198561
 20
-5.556250000000005
 30
0.0
 11
41.48431321774631
 21
-5.556250000000005
 31
0.0
  0
LINE
  5
97
330
1F
100
AcDbEntity
  8
0
  6
Continuous
 62
     1
370
    15
100
AcDbLine
 10
41.4843132177463
 20
5.556249999999999
 30
0.0
 11
38.0960319019857
 21
5.556249999999999
 31
0.0
  0
LINE
  5
98
330
1F
100
AcDbEntity
  8
외형선
  6
Continuous
370
    15
100
AcDbLine
 10
23.02518467149217
 20
-6.350000000000011
 30
0.0
 11
25.9875
 21
-5.556250000000003
 31
0.0
  0
LINE
  5
99
330
1F
100
AcDbEntity
  8
외형선
  6
Continuous
370
    15
100
AcDbLine
 10
25.9875
 20
5.556249999999998
 30
0.0
 11
23.02518467149217
 21
6.350000000000006
 31
0.0
  0
LINE
  5
9A
330
1F
100
AcDbEntity
  8
외형선
  6
Continuous
370
    15
100
AcDbLine
 10
-23.02518467149216
 20
-6.350000000000007
 30
0.0
 11
23.02518467149216
 21
-6.350000000000007
 31
0.0
  0
LINE
  5
9B
330
1F
100
AcDbEntity
  8
외형선
  6
Continuous
370
    15
100
AcDbLine
 10
23.02518467149217
 20
6.350000000000001
 30
0.0
 11
5.72770000000002
 21
6.350000000000001
 31
0.0
  0
LINE
  5
9E
330
1F
100
AcDbEntity
  8
외형선
  6
Continuous
370
    15
100
AcDbLine
 10
25.9875
 20
-5.556250000000003
 30
0.0
 11
26.48748772965626
 21
-5.556250000000003
 31
0.0
  0
LINE
  5
9F
330
1F
100
AcDbEntity
  8
외형선
  6
Continuous
370
    15
100
AcDbLine
 10
26.48748772965626
 20
5.556249999999998
 30
0.0
 11
25.9875
 21
5.556249999999998
 31
0.0
  0
SPLINE
  5
A0
330
1F
100
AcDbEntity
  8
0
  6
Continuous
 62
     1
370
    15
100
AcDbSpline
210
0.0
220
0.0
230
1.0
 70
     8
 71
     3
 72
    18
 73
    14
 74
     0
 42
0.000000001
 43
0.00000001
 40
0.0
 40
0.0
 40
0.0
 40
0.0
 40
0.0997382379825484
 40
0.1994839492035737
 40
0.2992384986703051
 40
0.3990032440013565
 40
0.498768879634614
 40
0.5985242267985088
 40
0.6982706223144511
 40
0.7896965041050648
 40
0.8810986314607061
 40
0.9724944091493273
 40
1.0
 40
1.0
 40
1.0
 40
1.0
 10
26.98750000000003
 20
-0.3584315084902752
 30
0.0
 10
27.66479926573875
 20
-0.747111974908924
 30
0.0
 10
29.01944854624723
 20
-1.524502030998001
 30
0.0
 10
31.05154556640264
 20
-2.618596478994209
 30
0.0
 10
33.08385429928781
 20
-3.597561693601791
 30
0.0
 10
35.11634956320696
 20
-4.416429833443984
 30
0.0
 10
37.14886235700407
 20
-5.039133849570182
 30
0.0
 10
39.18117257345759
 20
-5.438268749025785
 30
0.0
 10
41.15689534767575
 20
-5.590465546067946
 30
0.0
 10
43.07558672581405
 20
-5.516879473919761
 30
0.0
 10
44.93751609921909
 20
-5.227254985434928
 30
0.0
 10
46.36539625848329
 20
-4.890577267031271
 30
0.0
 10
47.17272634131263
 20
-4.601595442801494
 30
0.0
 10
47.35948694140113
 20
-4.534744943785424
 30
0.0
  0
SPLINE
  5
A1
330
1F
100
AcDbEntity
  8
외형선
  6
Continuous
370
    15
100
AcDbSpline
210
0.0
220
0.0
230
1.0
 70
    24
 71
     3
 72
    21
 73
    17
 74
     0
 42
0.000000001
 43
0.00000001
 40
0.0
 40
0.0
 40
0.0
 40
0.0
 40
0.0557811275676034
 40
0.1297771879129953
 40
0.205919139021253
 40
0.2799151993666454
 40
0.3560571504749034
 40
0.4300532108202959
 40
0.506195161928554
 40
0.5801912222739508
 40
0.6563331733822045
 40
0.7303292337275965
 40
0.8064711848358541
 40
0.880467245181244
 40
0.9566091962895054
 40
1.0
 40
1.0
 40
1.0
 40
1.0
 10
26.98750000000003
 20
5.081068830084911
 30
0.0
 10
26.9875
 20
4.97314125997521
 30
0.0
 10
26.98749999999995
 20
4.722043134894386
 30
0.0
 10
26.98749999999991
 20
4.269650189839612
 30
0.0
 10
26.98749999999998
 20
3.741666133123955
 30
0.0
 10
26.98749999999997
 20
3.183217544390304
 30
0.0
 10
26.9875
 20
2.621511333991405
 30
0.0
 10
26.98749999999998
 20
2.061976528855126
 30
0.0
 10
26.98750000000007
 20
1.530610845149895
 30
0.0
 10
26.98749999999995
 20
1.032892450104898
 30
0.0
 10
26.98750000000008
 20
0.5917716063923696
 30
0.0
 10
26.98749999999993
 20
0.2121766724844951
 30
0.0
 10
26.98750000000007
 20
-0.0897447903277728
 30
0.0
 10
26.98749999999993
 20
-0.3055355760479511
 30
0.0
 10
26.98750000000001
 20
-0.4260563691817436
 30
0.0
 10
26.98749999999998
 20
-0.4359586443851211
 30
0.0
 10
26.98749999999997
 20
-0.4395532045564194
 30
0.0
  0
SPLINE
  5
A2
330
1F
100
AcDbEntity
  8
0
  6
Continuous
 62
     1
370
    15
100
AcDbSpline
210
0.0
220
0.0
230
1.0
 70
     8
 71
     3
 72
    50
 73
    46
 74
     0
 42
0.000000001
 43
0.00000001
 40
0.0
 40
0.0
 40
0.0
 40
0.0
 40
0.0624999999999991
 40
0.0624999999999991
 40
0.0937499999999986
 40
0.0937499999999986
 40
0.1249999999999981
 40
0.1249999999999981
 40
0.1562499999999977
 40
0.1562499999999977
 40
0.1874999999999972
 40
0.1874999999999972
 40
0.2499999999999976
 40
0.2499999999999976
 40
0.3124999999999979
 40
0.3124999999999979
 40
0.3749999999999982
 40
0.3749999999999982
 40
0.4062499999999984
 40
0.4062499999999984
 40
0.4374999999999986
 40
0.4374999999999986
 40
0.4999999999999976
 40
0.4999999999999976
 40
0.5312499999999978
 40
0.5312499999999978
 40
0.562499999999998
 40
0.562499999999998
 40
0.6249999999999994
 40
0.6249999999999994
 40
0.6562500000000002
 40
0.6562500000000002
 40
0.687500000000001
 40
0.687500000000001
 40
0.7500000000000024
 40
0.7500000000000024
 40
0.7812500000000027
 40
0.7812500000000027
 40
0.8125000000000029
 40
0.8125000000000029
 40
0.875000000000002
 40
0.875000000000002
 40
0.937500000000001
 40
0.937500000000001
 40
1.0
 40
1.0
 40
1.0
 40
1.0
 10
52.38749999999998
 20
-5.556249999999994
 30
0.0
 10
51.86168737475885
 20
-5.509696720060885
 30
0.0
 10
51.32853428804994
 20
-5.458286690037255
 30
0.0
 10
50.53398459760873
 20
-5.344528434099272
 30
0.0
 10
50.27118926564726
 20
-5.300613292210618
 30
0.0
 10
49.74354274684757
 20
-5.200795184078822
 30
0.0
 10
49.47825952138737
 20
-5.144842663847557
 30
0.0
 10
48.94746888666794
 20
-5.021351076707303
 30
0.0
 10
48.68196454902778
 20
-4.953812702804055
 30
0.0
 10
48.15344106013723
 20
-4.807887574064314
 30
0.0
 10
47.89108367298279
 20
-4.729586840278016
 30
0.0
 10
47.09748479990974
 20
-4.478242017570731
 30
0.0
 10
46.56408145472732
 20
-4.289019075467078
 30
0.0
 10
45.51022070755878
 20
-3.875084789397482
 30
0.0
 10
44.97954823057655
 20
-3.649096079724296
 30
0.0
 10
43.91916554242281
 20
-3.166178783408292
 30
0.0
 10
43.39422247022598
 20
-2.910079134771192
 30
0.0
 10
42.5982514805073
 20
-2.506525646844316
 30
0.0
 10
42.33259778170965
 20
-2.368947577500693
 30
0.0
 10
41.80333859602826
 20
-2.089088623435537
 30
0.0
 10
41.54090925329136
 20
-1.947026511626522
 30
0.0
 10
40.74847383638787
 20
-1.513796531199118
 30
0.0
 10
40.21496587995995
 20
-1.215814826702958
 30
0.0
 10
39.42310347165765
 20
-0.764169194696095
 30
0.0
 10
39.16048336138636
 20
-0.612840547825969
 30
0.0
 10
38.63094806007796
 20
-0.3083170073540939
 30
0.0
 10
38.36525177210226
 20
-0.1553542088594392
 30
0.0
 10
37.56944158425507
 20
0.3032982113317643
 30
0.0
 10
37.04459453312053
 20
0.6079836134608919
 30
0.0
 10
36.24905327470447
 20
1.06039749252692
 30
0.0
 10
35.98332210071313
 20
1.210271631284169
 30
0.0
 10
35.45346915071899
 20
1.506632336440225
 30
0.0
 10
35.19045801629888
 20
1.652916104983573
 30
0.0
 10
34.39939765243356
 20
2.08604585122684
 30
0.0
 10
33.86593082782311
 20
2.367714255166887
 30
0.0
 10
33.07281265599314
 20
2.770984720610176
 30
0.0
 10
32.81048661248952
 20
2.902082877854319
 30
0.0
 10
32.28162525806908
 20
3.158110121624276
 30
0.0
 10
32.0160470316446
 20
3.282868909367851
 30
0.0
 10
31.21992829636324
 20
3.645433724653511
 30
0.0
 10
30.69473641125224
 20
3.870864716240416
 30
0.0
 10
29.63487355172838
 20
4.286012651007583
 30
0.0
 10
29.10285439623188
 20
4.475236401330916
 30
0.0
 10
28.05022113893053
 20
4.810290519344329
 30
0.0
 10
27.51694115151655
 20
4.957429592868709
 30
0.0
 10
26.98750000000005
 20
5.081068830084909
 30
0.0
  0
LINE
  5
A3
330
1F
100
AcDbEntity
  8
0
  6
Continuous
 62
     1
370
    15
100
AcDbLine
 10
52.3875
 20
-5.032191996802244
 30
0.0
 11
52.3875
 21
0.4760669968023041
 31
0.0
  0
SPLINE
  5
A4
330
1F
100
AcDbEntity
  8
0
  6
Continuous
 62
     1
370
    15
100
AcDbSpline
210
0.0
220
0.0
230
1.0
 70
     8
 71
     3
 72
    50
 73
    46
 74
     0
 42
0.000000001
 43
0.00000001
 40
0.0
 40
0.0
 40
0.0
 40
0.0
 40
0.0625000000000008
 40
0.0625000000000008
 40
0.0937500000000012
 40
0.0937500000000012
 40
0.1250000000000015
 40
0.1250000000000015
 40
0.1562500000000019
 40
0.1562500000000019
 40
0.1875000000000023
 40
0.1875000000000023
 40
0.2500000000000031
 40
0.2500000000000031
 40
0.3125000000000039
 40
0.3125000000000039
 40
0.3750000000000047
 40
0.3750000000000047
 40
0.4062500000000045
 40
0.4062500000000045
 40
0.4375000000000043
 40
0.4375000000000043
 40
0.5000000000000038
 40
0.5000000000000038
 40
0.5312500000000037
 40
0.5312500000000037
 40
0.5625000000000033
 40
0.5625000000000033
 40
0.6250000000000041
 40
0.6250000000000041
 40
0.6562500000000039
 40
0.6562500000000039
 40
0.6875000000000036
 40
0.6875000000000036
 40
0.7500000000000019
 40
0.7500000000000019
 40
0.7812500000000017
 40
0.7812500000000017
 40
0.8125000000000014
 40
0.8125000000000014
 40
0.875000000000001
 40
0.875000000000001
 40
0.9375000000000006
 40
0.9375000000000006
 40
1.0
 40
1.0
 40
1.0
 40
1.0
 10
52.38750000000001
 20
-5.032191996802243
 30
0.0
 10
51.86168737475882
 20
-4.90294451248158
 30
0.0
 10
51.32853428804994
 20
-4.750220569663449
 30
0.0
 10
50.53398459760869
 20
-4.490322738002141
 30
0.0
 10
50.27118926564727
 20
-4.398732465453347
 30
0.0
 10
49.74354274684756
 20
-4.205585683654981
 30
0.0
 10
49.47825952138741
 20
-4.103957994350439
 30
0.0
 10
48.94746888666793
 20
-3.891573294419477
 30
0.0
 10
48.68196454902782
 20
-3.780817495889342
 30
0.0
 10
48.15344106013722
 20
-3.551345170453857
 30
0.0
 10
47.89108367298278
 20
-3.432743180662734
 30
0.0
 10
47.09748479990967
 20
-3.064704257159434
 30
0.0
 10
46.56408145472729
 20
-2.803573408880459
 30
0.0
 10
45.51022070755879
 20
-2.260462483615645
 30
0.0
 10
44.97954823057654
 20
-1.97677107760426
 30
0.0
 10
43.91916554242285
 20
-1.394177757398301
 30
0.0
 10
43.39422247022595
 20
-1.096206058108703
 30
0.0
 10
42.59825148050729
 20
-0.6422249151964303
 30
0.0
 10
42.33259778170965
 20
-0.4899327008838428
 30
0.0
 10
41.80333859602828
 20
-0.1849745770995151
 30
0.0
 10
41.54090925329135
 20
-0.0325365624572623
 30
0.0
 10
40.74847383638784
 20
0.4253600329784245
 30
0.0
 10
40.21496587995994
 20
0.731070877780358
 30
0.0
 10
39.42310347165767
 20
1.181011702379183
 30
0.0
 10
39.16048336138632
 20
1.329575807489351
 30
0.0
 10
38.6309480600779
 20
1.624158685520021
 30
0.0
 10
38.36525177210229
 20
1.769944081701989
 30
0.0
 10
37.56944158425507
 20
2.200540484484723
 30
0.0
 10
37.0445945331205
 20
2.477906418504824
 30
0.0
 10
36.24905327470446
 20
2.87669040529526
 30
0.0
 10
35.9833221007131
 20
3.006589490782054
 30
0.0
 10
35.45346915071901
 20
3.259010955548861
 30
0.0
 10
35.19045801629891
 20
3.381368036070871
 30
0.0
 10
34.39939765243363
 20
3.736883514909064
 30
0.0
 10
33.86593082782311
 20
3.958855493160202
 30
0.0
 10
33.07281265599311
 20
4.262438079428753
 30
0.0
 10
32.81048661248953
 20
4.35867002083083
 30
0.0
 10
32.28162525806901
 20
4.541561800450166
 30
0.0
 10
32.01604703164454
 20
4.628088006888672
 30
0.0
 10
31.21992829636314
 20
4.871528807651241
 30
0.0
 10
30.6947364112522
 20
5.011901388384106
 30
0.0
 10
29.63487355172836
 20
5.246874681635832
 30
0.0
 10
29.10285439623186
 20
5.34109945463398
 30
0.0
 10
28.05022113893052
 20
5.479883769345865
 30
0.0
 10
27.51694115151654
 20
5.524965439563728
 30
0.0
 10
26.98750000000001
 20
5.544676808996307
 30
0.0
  0
SPLINE
  5
A5
330
1F
100
AcDbEntity
  8
0
  6
Continuous
 62
     1
370
    15
100
AcDbSpline
210
0.0
220
0.0
230
1.0
 70
     8
 71
     3
 72
    18
 73
    14
 74
     0
 42
0.000000001
 43
0.00000001
 40
0.0
 40
0.0
 40
0.0
 40
0.0
 40
0.1007431345899887
 40
0.2014759164439447
 40
0.302199716153014
 40
0.4029159118166147
 40
0.503625887902547
 40
0.6043310340957343
 40
0.7050327441376287
 40
0.7973243961765961
 40
0.8896226177201622
 40
0.9819449835274274
 40
1.0
 40
1.0
 40
1.0
 40
1.0
 10
52.38750000000001
 20
0.4760669968023031
 30
0.0
 10
51.70997596112625
 20
0.8636508245349277
 30
0.0
 10
50.35499750824754
 20
1.638778650456701
 30
0.0
 10
48.32267952367366
 20
2.723050429024027
 30
0.0
 10
46.29057486994231
 20
3.687840443063697
 30
0.0
 10
44.25865756134294
 20
4.488428139940958
 30
0.0
 10
42.22688152533922
 20
5.089680776060153
 30
0.0
 10
40.19525609224053
 20
5.465183036039889
 30
0.0
 10
38.2201322490542
 20
5.593127185545946
 30
0.0
 10
36.3019763909703
 20
5.496544099465684
 30
0.0
 10
34.44002088429869
 20
5.183133504140776
 30
0.0
 10
33.07722659506835
 20
4.851783983913917
 30
0.0
 10
32.33494764991219
 20
4.581138418703615
 30
0.0
 10
32.21352912824386
 20
4.536867481694872
 30
0.0
  0
LINE
  5
A6
330
1F
100
AcDbEntity
  8
0
  6
Continuous
 62
     1
370
    15
100
AcDbLine
 10
52.38749999999998
 20
-5.556249999999994
 30
0.0
 11
52.3875
 21
-5.032191996802244
 31
0.0
  0
LINE
  5
A7
330
1F
100
AcDbEntity
  8
외형선
  6
Continuous
370
    15
100
AcDbLine
 10
26.98750000000003
 20
5.081068830084911
 30
0.0
 11
26.9875
 21
5.544676808996303
 31
0.0
  0
SPLINE
  5
A8
330
1F
100
AcDbEntity
  8
0
  6
Continuous
 62
     1
370
    15
100
AcDbSpline
210
0.0
220
0.0
230
1.0
 70
     8
 71
     3
 72
    13
 73
     9
 74
     0
 42
0.000000001
 43
0.00000001
 40
0.0
 40
0.0
 40
0.0
 40
0.0
 40
0.1615156423506399
 40
0.329131186515688
 40
0.4967905771799508
 40
0.6645255331423967
 40
0.8323048448415551
 40
1.0
 40
1.0
 40
1.0
 40
1.0
 10
38.0960319019856
 20
-5.552618728030497
 30
0.0
 10
37.49802126933591
 20
-5.535465461924785
 30
0.0
 10
36.2794151565874
 20
-5.500511108626074
 30
0.0
 10
34.44003582188306
 20
-5.189411708523309
 30
0.0
 10
32.57753246301528
 20
-4.697387471793014
 30
0.0
 10
30.71424123312129
 20
-4.023925648918551
 30
0.0
 10
28.85063403381903
 20
-3.207581157296214
 30
0.0
 10
27.60844080646291
 20
-2.56797735636158
 30
0.0
 10
26.98750000000005
 20
-2.248255680842257
 30
0.0
  0
LINE
  5
A9
330
1F
100
AcDbEntity
  8
외형선
  6
Continuous
370
    15
100
AcDbLine
 10
26.98750000000003
 20
-2.248255680842251
 30
0.0
 11
26.98750000000001
 21
-0.3584315084902656
 31
0.0
  0
SPLINE
  5
AA
330
1F
100
AcDbEntity
  8
0
  6
Continuous
 62
     1
370
    15
100
AcDbSpline
210
0.0
220
0.0
230
1.0
 70
     8
 71
     3
 72
    13
 73
     9
 74
     0
 42
0.000000001
 43
0.00000001
 40
0.0
 40
0.0
 40
0.0
 40
0.0
 40
0.1459591320144883
 40
0.3167260126060107
 40
0.4874810300947676
 40
0.6582567553332318
 40
0.8290856658598348
 40
1.0
 40
1.0
 40
1.0
 40
1.0
 10
41.4843132177463
 20
5.543338450554627
 30
0.0
 10
42.01479431852888
 20
5.533917429175431
 30
0.0
 10
43.16591903059577
 20
5.513474155123816
 30
0.0
 10
44.93750894969224
 20
5.231375887353273
 30
0.0
 10
46.79927461009471
 20
4.760819429958125
 30
0.0
 10
48.66131177382677
 20
4.105239673834209
 30
0.0
 10
50.52402687378405
 20
3.304036076828276
 30
0.0
 10
51.76623878838094
 20
2.67181309430647
 30
0.0
 10
52.38750000000001
 20
2.3556225864555
 30
0.0
  0
LINE
  5
AB
330
1F
100
AcDbEntity
  8
0
  6
Continuous
 62
     1
370
    15
100
AcDbLine
 10
52.3875
 20
0.476066996802304
 30
0.0
 11
52.3875
 21
2.3556225864555
 31
0.0
  0
SPLINE
  5
AC
330
1F
100
AcDbEntity
  8
0
  6
Continuous
 62
     1
370
    15
100
AcDbSpline
210
0.0
220
0.0
230
1.0
 70
     8
 71
     3
 72
    10
 73
     6
 74
     0
 42
0.000000001
 43
0.00000001
 40
0.0
 40
0.0
 40
0.0
 40
0.0
 40
0.3888096710541069
 40
0.7776484750411056
 40
1.0
 40
1.0
 40
1.0
 40
1.0
 10
26.98750000000003
 20
-5.544676808996312
 30
0.0
 10
27.6647996418284
 20
-5.493810888594997
 30
0.0
 10
29.01944967454433
 20
-5.392075236484274
 30
0.0
 10
30.76145869188726
 20
-5.026447434156597
 30
0.0
 10
31.82618196102105
 20
-4.667465421689382
 30
0.0
 10
32.21352912824379
 20
-4.536867481694876
 30
0.0
  0
SPLINE
  5
AD
330
1F
100
AcDbEntity
  8
외형선
  6
Continuous
370
    15
100
AcDbSpline
210
0.0
220
0.0
230
1.0
 70
    24
 71
     3
 72
    14
 73
    10
 74
     0
 42
0.000000001
 43
0.00000001
 40
0.0
 40
0.0
 40
0.0
 40
0.0
 40
0.1571113450091176
 40
0.3189262711776014
 40
0.4761808052060771
 40
0.6379957313745687
 40
0.7952502654030476
 40
0.9570651915715305
 40
1.0
 40
1.0
 40
1.0
 40
1.0
 10
26.98750000000003
 20
-2.320817647890044
 30
0.0
 10
26.98749999999998
 20
-2.453601169596876
 30
0.0
 10
26.98749999999993
 20
-2.723143470627602
 30
0.0
 10
26.98750000000007
 20
-3.201255905648047
 30
0.0
 10
26.98749999999993
 20
-3.723078214815763
 30
0.0
 10
26.98750000000003
 20
-4.270649565228442
 30
0.0
 10
26.98749999999988
 20
-4.836267332368942
 30
0.0
 10
26.98750000000003
 20
-5.261370705276511
 30
0.0
 10
26.9875
 20
-5.495567191007036
 30
0.0
 10
26.9875
 20
-5.544676808996307
 30
0.0
  0
SPLINE
  5
AE
330
1F
100
AcDbEntity
  8
0
  6
Continuous
 62
     1
370
    15
100
AcDbSpline
210
0.0
220
0.0
230
1.0
 70
     8
 71
     3
 72
    10
 73
     6
 74
     0
 42
0.000000001
 43
0.00000001
 40
0.0
 40
0.0
 40
0.0
 40
0.0
 40
0.4042414463050075
 40
0.8084413512682245
 40
1.0
 40
1.0
 40
1.0
 40
1.0
 10
52.38749999999998
 20
5.556250000000007
 30
0.0
 10
51.70997631034776
 20
5.476403606310784
 30
0.0
 10
50.35499855587626
 20
5.357582126154325
 30
0.0
 10
48.67900112676417
 20
4.990478035075465
 30
0.0
 10
47.68053207232352
 20
4.645627336397684
 30
0.0
 10
47.35948694140113
 20
4.534744943785418
 30
0.0
  0
LINE
  5
AF
330
1F
100
AcDbEntity
  8
0
  6
Continuous
 62
     1
370
    15
100
AcDbLine
 10
52.3875
 20
2.353247522564578
 30
0.0
 11
52.38749999999998
 21
5.556250000000007
 31
0.0
  0
LINE
  5
B0
330
1F
100
AcDbEntity
  8
외형선
  6
Continuous
370
    15
100
AcDbLine
 10
25.9875
 20
-0.0000000000000027
 30
0.0
 11
25.9875
 21
5.556249999999998
 31
0.0
  0
LINE
  5
B1
330
1F
100
AcDbEntity
  8
외형선
  6
Continuous
370
    15
100
AcDbLine
 10
25.9875
 20
-5.556250000000003
 30
0.0
 11
25.9875
 21
-0.0000000000000027
 31
0.0
  0
LINE
  5
B2
330
1F
100
AcDbEntity
  8
외형선
  6
Continuous
370
    15
100
AcDbLine
 10
23.02518467149217
 20
-0.0000000000000027
 30
0.0
 11
23.02518467149217
 21
6.350000000000006
 31
0.0
  0
LINE
  5
B3
330
1F
100
AcDbEntity
  8
외형선
  6
Continuous
370
    15
100
AcDbLine
 10
23.02518467149217
 20
-6.350000000000011
 30
0.0
 11
23.02518467149217
 21
-0.0000000000000027
 31
0.0
  0
LINE
  5
B8
330
1F
100
AcDbEntity
  8
외형선
  6
Continuous
370
    15
100
AcDbLine
 10
26.48748772965626
 20
5.555814905259488
 30
0.0
 11
26.48748772965626
 21
5.556249999999998
 31
0.0
  0
SPLINE
  5
B9
330
1F
100
AcDbEntity
  8
외형선
  6
Continuous
370
    15
100
AcDbSpline
210
0.0
220
0.0
230
1.0
 70
     8
 71
     3
 72
     8
 73
     4
 74
     0
 42
0.000000001
 43
0.00000001
 40
0.0
 40
0.0
 40
0.0
 40
0.0
 40
1.0
 40
1.0
 40
1.0
 40
1.0
 10
26.9875
 20
5.544676808996299
 30
0.0
 10
26.82033358904642
 20
5.550900501419123
 30
0.0
 10
26.65355101104784
 20
5.554610181910047
 30
0.0
 10
26.48748772965623
 20
5.555814889790206
 30
0.0
  0
SPLINE
  5
BA
330
1F
100
AcDbEntity
  8
외형선
  6
Continuous
370
    15
100
AcDbSpline
210
0.0
220
0.0
230
1.0
 70
     8
 71
     3
 72
     8
 73
     4
 74
     0
 42
0.000000001
 43
0.00000001
 40
0.0
 40
0.0
 40
0.0
 40
0.0
 40
1.0
 40
1.0
 40
1.0
 40
1.0
 10
26.98749999999998
 20
5.08106883008492
 30
0.0
 10
26.82033358904642
 20
5.120106837386139
 30
0.0
 10
26.65355101104782
 20
5.156815495113707
 30
0.0
 10
26.48748772965623
 20
5.191135752668225
 30
0.0
  0
LINE
  5
BB
330
1F
100
AcDbEntity
  8
외형선
  6
Continuous
370
    15
100
AcDbLine
 10
26.48748772965626
 20
-0.06953273327352
 30
0.0
 11
26.48748772965626
 21
5.191137985367198
 31
0.0
  0
SPLINE
  5
BC
330
1F
100
AcDbEntity
  8
외형선
  6
Continuous
370
    15
100
AcDbSpline
210
0.0
220
0.0
230
1.0
 70
     8
 71
     3
 72
     8
 73
     4
 74
     0
 42
0.000000001
 43
0.00000001
 40
0.0
 40
0.0
 40
0.0
 40
0.0
 40
1.0
 40
1.0
 40
1.0
 40
1.0
 10
26.9875
 20
-0.3584315084902827
 30
0.0
 10
26.82033358904642
 20
-0.2621554774334334
 30
0.0
 10
26.65355101104784
 20
-0.1657910080689765
 30
0.0
 10
26.48748772965623
 20
-0.0695339692912796
 30
0.0
  0
SPLINE
  5
BD
330
1F
100
AcDbEntity
  8
외형선
  6
Continuous
370
    15
100
AcDbSpline
210
0.0
220
0.0
230
1.0
 70
     8
 71
     3
 72
     8
 73
     4
 74
     0
 42
0.000000001
 43
0.00000001
 40
0.0
 40
0.0
 40
0.0
 40
0.0
 40
1.0
 40
1.0
 40
1.0
 40
1.0
 10
26.98749999999998
 20
-2.248255680842232
 30
0.0
 10
26.82033358904642
 20
-2.160029593490575
 30
0.0
 10
26.65355101104782
 20
-2.070853659892562
 30
0.0
 10
26.48748772965623
 20
-1.980914854270528
 30
0.0
  0
LINE
  5
BE
330
1F
100
AcDbEntity
  8
외형선
  6
Continuous
370
    15
100
AcDbLine
 10
26.48748772965626
 20
-5.556250000000003
 30
0.0
 11
26.48748772965626
 21
-1.980909003305729
 31
0.0
  0
SPLINE
  5
BF
330
1F
100
AcDbEntity
  8
외형선
  6
Continuous
370
    15
100
AcDbSpline
210
0.0
220
0.0
230
1.0
 70
     8
 71
     3
 72
     8
 73
     4
 74
     0
 42
0.000000001
 43
0.00000001
 40
0.0
 40
0.0
 40
0.0
 40
0.0
 40
1.0
 40
1.0
 40
1.0
 40
1.0
 10
26.9875
 20
-5.544676808996302
 30
0.0
 10
26.82033358904642
 20
-5.550900501419126
 30
0.0
 10
26.65355101104784
 20
-5.554610181910052
 30
0.0
 10
26.48748772965623
 20
-5.55581488979021
 30
0.0
  0
SPLINE
  5
C0
330
1F
100
AcDbEntity
  8
외형선
  6
Continuous
370
    15
100
AcDbSpline
210
0.0
220
0.0
230
1.0
 70
    24
 71
     3
 72
    21
 73
    17
 74
     0
 42
0.000000001
 43
0.00000001
 40
0.0
 40
0.0
 40
0.0
 40
0.0
 40
0.0255575770854522
 40
0.0996764699406054
 40
0.1759448157097283
 40
0.2500637085648981
 40
0.3263320543340393
 40
0.4004509471892008
 40
0.4767192929583322
 40
0.5508381858134932
 40
0.6271065315826244
 40
0.7012254244377815
 40
0.7774937702069079
 40
0.8516126630620762
 40
0.9278810088312156
 40
1.0
 40
1.0
 40
1.0
 40
1.0
 10
26.98750000000005
 20
-0.438830712777014
 30
0.0
 10
26.98750000000005
 20
-0.4388996509463179
 30
0.0
 10
26.98750000000005
 20
-0.4391685149836793
 30
0.0
 10
26.98750000000007
 20
-0.3406959599121799
 30
0.0
 10
26.98749999999997
 20
-0.1493813984783258
 30
0.0
 10
26.98750000000003
 20
0.1370013611080633
 30
0.0
 10
26.98749999999995
 20
0.4964803737174261
 30
0.0
 10
26.98749999999997
 20
0.9276887513039962
 30
0.0
 10
26.98749999999998
 20
1.410036905059443
 30
0.0
 10
26.98750000000003
 20
1.938713578621292
 30
0.0
 10
26.98749999999991
 20
2.48922325496279
 30
0.0
 10
26.98750000000001
 20
3.055796514690164
 30
0.0
 10
26.98750000000001
 20
3.612596576502059
 30
0.0
 10
26.98749999999997
 20
4.152387559698173
 30
0.0
 10
26.9875
 20
4.651271163230117
 30
0.0
 10
26.98750000000004
 20
4.940498831906636
 30
0.0
 10
26.98750000000003
 20
5.081068830084956
 30
0.0
  0
SPLINE
  5
C1
330
1F
100
AcDbEntity
  8
외형선
  6
Continuous
370
    15
100
AcDbSpline
210
0.0
220
0.0
230
1.0
 70
    24
 71
     3
 72
    14
 73
    10
 74
     0
 42
0.000000001
 43
0.00000001
 40
0.0
 40
0.0
 40
0.0
 40
0.0
 40
0.1608426470652998
 40
0.3266027108631176
 40
0.4834641942974798
 40
0.6448746713779898
 40
0.8017361548123871
 40
0.9631466318929361
 40
0.9999999999999999
 40
0.9999999999999999
 40
0.9999999999999999
 40
0.9999999999999999
 10
26.9875
 20
-5.544676808996302
 30
0.0
 10
26.98749999999998
 20
-5.358432895642247
 30
0.0
 10
26.98749999999998
 20
-4.980251063317052
 30
0.0
 10
26.98750000000005
 20
-4.407123672111054
 30
0.0
 10
26.98750000000005
 20
-3.845946203176147
 30
0.0
 10
26.98749999999998
 20
-3.318441696855777
 30
0.0
 10
26.98750000000004
 20
-2.832862859600149
 30
0.0
 10
26.98749999999994
 20
-2.497663554881368
 30
0.0
 10
26.98749999999997
 20
-2.348528867238162
 30
0.0
 10
26.98749999999997
 20
-2.320807647890044
 30
0.0
  0
LINE
  5
C2
330
1F
100
AcDbEntity
  8
중심선
 48
0.8
100
AcDbLine
 10
-55.38750000000001
 20
-0.0000000000000066
 30
0.0
 11
55.38750000000001
 21
0.0000000000000066
 31
0.0
  0
LINE
  5
C3
330
1F
100
AcDbEntity
  8
참조1
100
AcDbLine
 10
12.89338065701562
 20
0.0010749287238892
 30
0.0
 11
12.89338065701562
 21
-39.99892507127611
 31
0.0
  0
LINE
  5
C4
330
1F
100
AcDbEntity
  8
참조1
100
AcDbLine
 10
12.89338065701562
 20
-39.99892507127611
 30
0.0
 11
-29.25297615729306
 21
-39.9989250712761
 31
0.0
  0
CIRCLE
  5
C5
330
1F
100
AcDbEntity
  8
해칭선
100
AcDbCircle
 10
0.0
 20
0.0
 30
0.0
 40
3.000000000000005
  0
INSERT
  5
C6
330
1F
100
AcDbEntity
  8
0
  6
Continuous
 62
     7
100
AcDbBlockReference
 66
     1
  2
블럭10
 10
-13.9402729321252
 20
-52.04717430164393
 30
0.0
  0
ATTRIB
  5
C7
330
C6
100
AcDbEntity
  8
FORMAT
 62
     2
100
AcDbText
 10
-23.12156822086649
 20
-49.97180738881174
 30
0.0
 40
4.233333333333333
  1
E2051028 [ 4 FLUTE ]
 41
0.75
  7
SLDTEXTSTYLE0
 11
-23.12156822086649
 21
-52.08847405547841
 31
0.0
100
AcDbAttribute
  2
AUTOATTR0
 70
     0
 74
     1
  0
SEQEND
  5
C8
330
C6
100
AcDbEntity
  8
0
  6
Continuous
 62
     7
  0
HATCH
  5
C9
330
1F
100
AcDbEntity
  8
중심선
100
AcDbHatch
 10
0.0
 20
0.0
 30
0.0
210
0.0
220
0.0
230
1.0
  2
SOLID
 70
     1
 71
     0
 91
        1
 92
        0
 93
        4
 72
     1
 10
-8.225363627744372
 20
-35.8
 11
-11.67163887158165
 21
-35.8
 72
     1
 10
-11.67163887158165
 20
-35.8
 11
-13.79986873078568
 21
-38.33632558057257
 72
     1
 10
-13.79986873078568
 20
-38.33632558057257
 11
-10.35356040183524
 21
-38.33628615127008
 72
     1
 10
-10.35356040183524
 20
-38.33628615127008
 11
-8.225363627744372
 21
-35.8
 97
        0
 75
     0
 76
     1
 98
        1
 10
-12.89338065701562
 20
-0.0010749287238958
  0
HATCH
  5
CA
330
1F
100
AcDbEntity
  8
중심선
100
AcDbHatch
 10
0.0
 20
0.0
 30
0.0
210
0.0
220
0.0
230
1.0
  2
SOLID
 70
     1
 71
     0
 91
        1
 92
        0
 93
        4
 72
     1
 10
-3.212599636708392
 20
-35.8
 11
-6.658874880545646
 21
-35.79999999999998
 72
     1
 10
-6.658874880545646
 20
-35.79999999999998
 11
-11.19001288890309
 21
-41.20000000000002
 72
     1
 10
-11.19001288890309
 20
-41.20000000000002
 11
-7.743737645065809
 21
-41.20000000000002
 72
     1
 10
-7.743737645065808
 20
-41.20000000000002
 11
-3.212599636708392
 21
-35.8
 97
        0
 75
     0
 76
     1
 98
        1
 10
-12.89338065701562
 20
-0.0010749287238958
  0
HATCH
  5
CB
330
1F
100
AcDbEntity
  8
중심선
100
AcDbHatch
 10
0.0
 20
0.0
 30
0.0
210
0.0
220
0.0
230
1.0
  2
SOLID
 70
     1
 71
     0
 91
        1
 92
        0
 93
        4
 72
     1
 10
1.800164354327476
 20
-35.79999999999998
 11
-1.646110889509611
 21
-35.79999999999998
 72
     1
 10
-1.646110889509611
 20
-35.79999999999998
 11
-8.69454779139889
 21
-44.20000000000002
 72
     1
 10
-8.69454779139889
 20
-44.20000000000002
 11
-5.248272547561608
 21
-44.20000000000002
 72
     1
 10
-5.248272547561607
 20
-44.20000000000002
 11
1.800164354327476
 21
-35.79999999999998
 97
        0
 75
     0
 76
     1
 98
        1
 10
-12.89338065701562
 20
-0.0010749287238958
  0
HATCH
  5
CC
330
1F
100
AcDbEntity
  8
중심선
100
AcDbHatch
 10
0.0
 20
0.0
 30
0.0
210
0.0
220
0.0
230
1.0
  2
SOLID
 70
     1
 71
     0
 91
        1
 92
        0
 93
        6
 72
     3
 10
6.600054785339676
 20
-40.00000000005127
 11
3.960054785062283
 21
1.540882976769353E-10
 40
0.3939339440162628
 50
17.09539180608436
 51
320.0019657685078
 73
     0
 72
     1
 10
8.28305444104027
 20
-38.5878940046383
 11
10.58835631474131
 21
-36.65356729459035
 72
     3
 10
6.600054785286829
 20
-40.00000000000015
 11
6.600054785286829
 21
-1.278976924368180E-13
 40
0.636358354079598
 50
39.99873849337431
 51
368.4976242363724
 73
     1
 72
     1
 10
13.02538727718744
 20
-39.03999999993002
 11
5.280122092122753
 21
-39.03999999993002
 72
     1
 10
5.280122092122753
 20
-39.03999999993002
 11
5.280097047676819
 21
-40.95999999992991
 72
     1
 10
5.280097047676819
 20
-40.95999999992991
 11
9.721476817148854
 21
-40.95999999992988
 97
        0
 75
     0
 76
     1
 98
        1
 10
-12.89338065701562
 20
-0.0010749287238958
  0
DIMENSION
  5
CD
330
1F
100
AcDbEntity
  8
치수문자_일반주서
100
AcDbDimension
  2
_D
 10
67.29471147421924
 20
-5.556249999999942
 30
0.0
 11
67.29471147421913
 21
25.72275000000006
 31
0.0
 70
   160
  1
%%c<>
 71
     2
 42
11.1125
 52
-270.0
  3
SLDDIMSTYLE2
100
AcDbAlignedDimension
 13
52.38749999999998
 23
5.556250000000007
 33
0.0
 14
52.38749999999998
 24
-5.556249999999994
 34
0.0
 50
90.0000000000002
100
AcDbRotatedDimension
1001
ACAD
1000
DSTYLE
1002
{
1070
   171
1070
     6
1070
   273
1070
     5
1002
}
  0
DIMENSION
  5
E1
330
1F
100
AcDbEntity
  8
치수문자_일반주서
100
AcDbDimension
  2
_D_1
 10
26.9875
 20
17.20073416691322
 30
0.0
 11
10.53975
 21
17.20073416691322
 31
0.0
 70
   160
  1
<>
 71
     2
 42
25.39999999999998
  3
SLDDIMSTYLE2
100
AcDbAlignedDimension
 13
52.38749999999998
 23
5.556250000000007
 33
0.0
 14
26.9875
 24
5.544676808996303
 34
0.0
 50
0.000000000000016
100
AcDbRotatedDimension
1001
ACAD
1000
DSTYLE
1002
{
1070
   171
1070
     6
1070
   273
1070
     5
1002
}
  0
DIMENSION
  5
F6
330
1F
100
AcDbEntity
  8
치수문자_일반주서
100
AcDbDimension
  2
_D_2
 10
-52.38749999999998
 20
32.15975899671638
 30
0.0
 11
2.412878706424969
 21
32.15975899671638
 31
0.0
 70
   160
  1
<>
 71
     2
 42
104.775
  3
SLDDIMSTYLE2
100
AcDbAlignedDimension
 13
52.38749999999998
 23
5.556250000000007
 33
0.0
 14
-52.38749999999998
 24
5.556249999999998
 34
0.0
100
AcDbRotatedDimension
1001
ACAD
1000
DSTYLE
1002
{
1070
   171
1070
     6
1070
   273
1070
     5
1002
}
  0
DIMENSION
  5
109
330
1F
100
AcDbEntity
  8
치수문자_일반주서
100
AcDbDimension
  2
_D_3
 10
-64.59375
 20
-6.350000000000164
 30
0.0
 11
-64.59375000000003
 21
-0.0000000000000087
 31
0.0
 70
   160
  1
%%c<>
 71
     2
 42
12.70000000000001
 52
-270.0
  3
SLDDIMSTYLE2
100
AcDbAlignedDimension
 13
-22.44938007479096
 23
6.350000000000001
 33
0.0
 14
-23.02518467149216
 24
-6.350000000000007
 34
0.0
 50
90.0000000000002
100
AcDbRotatedDimension
1001
ACAD
1000
DSTYLE
1002
{
1070
   171
1070
     6
1070
   273
1070
     5
1002
}
  0
LINE
  5
11E
330
1F
100
AcDbEntity
  8
참조1
100
AcDbLine
 10
68.7193644723612
 20
7.441074928723896
 30
0.0
 11
68.7193644723612
 21
-7.438925071276109
 31
0.0
  0
LINE
  5
11F
330
1F
100
AcDbEntity
  8
참조1
100
AcDbLine
 10
81.41936447236121
 20
5.441074928723896
 30
0.0
 11
68.7193644723612
 21
5.441074928723896
 31
0.0
  0
SOLID
  5
120
330
1F
100
AcDbEntity
  8
참조1
100
AcDbTrace
 10
68.7193644723612
 20
5.441074928723896
 30
0.0
 11
75.0693644723612
 21
4.425074928723896
 31
0.0
 12
75.0693644723612
 22
6.457074928723896
 32
0.0
 13
75.0693644723612
 23
6.457074928723896
 33
0.0
  0
LINE
  5
121
330
1F
100
AcDbEntity
  8
참조1
100
AcDbLine
 10
81.41936447236121
 20
-5.438925071276109
 30
0.0
 11
68.7193644723612
 21
-5.438925071276109
 31
0.0
  0
SOLID
  5
122
330
1F
100
AcDbEntity
  8
참조1
100
AcDbTrace
 10
68.7193644723612
 20
-5.438925071276109
 30
0.0
 11
75.0693644723612
 21
-6.454925071276109
 31
0.0
 12
75.0693644723612
 22
-4.422925071276109
 32
0.0
 13
75.0693644723612
 23
-4.422925071276109
 33
0.0
  0
MTEXT
  5
123
330
1F
100
AcDbEntity
  8
참조1
100
AcDbMText
 10
78.1037146049872
 20
11.01136670591223
 30
0.0
 40
3.5
 41
0.0
 71
     1
 72
     1
  1
A
  7
SLDTEXTSTYLE0
 73
     1
 44
1.0
  0
MTEXT
  5
124
330
1F
100
AcDbEntity
  8
참조1
100
AcDbMText
 10
78.1037146049872
 20
0.1313667059122219
 30
0.0
 40
3.5
 41
0.0
 71
     1
 72
     1
  1
A
  7
SLDTEXTSTYLE0
 73
     1
 44
1.0
  0
INSERT
  5
12B
330
1F
100
AcDbEntity
  8
해칭선
100
AcDbBlockReference
  2
SW_DOWELSYMBOL_0
 10
0.0
 20
0.0
 30
0.0
  0
LINE
  5
316
330
1F
100
AcDbEntity
  8
0
  6
Continuous
 62
     1
370
    15
100
AcDbLine
 10
-38.0960319019856
 20
5.556250000000012
 30
0.0
 11
-41.48431321774631
 21
5.556250000000012
 31
0.0
  0
LINE
  5
317
330
1F
100
AcDbEntity
  8
0
  6
Continuous
 62
     1
370
    15
100
AcDbLine
 10
-41.48431321774626
 20
-5.556249999999999
 30
0.0
 11
-38.09603190198572
 21
-5.556249999999999
 31
0.0
  0
LINE
  5
318
330
1F
100
AcDbEntity
  8
외형선
  6
Continuous
370
    15
100
AcDbLine
 10
-23.02518467149215
 20
6.350000000000008
 30
0.0
 11
-25.98749999999998
 21
5.556249999999998
 31
0.0
  0
LINE
  5
319
330
1F
100
AcDbEntity
  8
외형선
  6
Continuous
370
    15
100
AcDbLine
 10
-25.98749999999998
 20
-5.556249999999999
 30
0.0
 11
-23.02518467149215
 21
-6.350000000000002
 31
0.0
  0
LINE
  5
31C
330
1F
100
AcDbEntity
  8
외형선
  6
Continuous
370
    15
100
AcDbLine
 10
-25.98749999999998
 20
5.556249999999998
 30
0.0
 11
-26.48748772965626
 21
5.556249999999998
 31
0.0
  0
LINE
  5
31D
330
1F
100
AcDbEntity
  8
외형선
  6
Continuous
370
    15
100
AcDbLine
 10
-26.48748772965626
 20
-5.556249999999999
 30
0.0
 11
-25.98749999999998
 21
-5.556249999999999
 31
0.0
  0
SPLINE
  5
31E
330
1F
100
AcDbEntity
  8
0
  6
Continuous
 62
     1
370
    15
100
AcDbSpline
210
0.0
220
0.0
230
1.0
 70
     8
 71
     3
 72
    18
 73
    14
 74
     0
 42
0.000000001
 43
0.00000001
 40
0.0
 40
0.0
 40
0.0
 40
0.0
 40
0.0997382379825484
 40
0.1994839492035737
 40
0.2992384986703051
 40
0.3990032440013565
 40
0.498768879634614
 40
0.5985242267985088
 40
0.6982706223144511
 40
0.7896965041050648
 40
0.8810986314607061
 40
0.9724944091493273
 40
1.0
 40
1.0
 40
1.0
 40
1.0
 10
-26.9875
 20
0.3584315084902798
 30
0.0
 10
-27.66479926573873
 20
0.7471119749089283
 30
0.0
 10
-29.01944854624721
 20
1.524502030998
 30
0.0
 10
-31.05154556640263
 20
2.618596478994213
 30
0.0
 10
-33.08385429928779
 20
3.59756169360179
 30
0.0
 10
-35.11634956320693
 20
4.416429833443984
 30
0.0
 10
-37.14886235700407
 20
5.039133849570191
 30
0.0
 10
-39.18117257345761
 20
5.438268749025794
 30
0.0
 10
-41.15689534767574
 20
5.590465546067953
 30
0.0
 10
-43.07558672581404
 20
5.516879473919764
 30
0.0
 10
-44.93751609921906
 20
5.227254985434931
 30
0.0
 10
-46.36539625848331
 20
4.890577267031275
 30
0.0
 10
-47.17272634131262
 20
4.601595442801496
 30
0.0
 10
-47.35948694140108
 20
4.534744943785426
 30
0.0
  0
SPLINE
  5
31F
330
1F
100
AcDbEntity
  8
외형선
  6
Continuous
370
    15
100
AcDbSpline
210
0.0
220
0.0
230
1.0
 70
    24
 71
     3
 72
    21
 73
    17
 74
     0
 42
0.000000001
 43
0.00000001
 40
0.0
 40
0.0
 40
0.0
 40
0.0
 40
0.0557811275676034
 40
0.1297771879129953
 40
0.205919139021253
 40
0.2799151993666454
 40
0.3560571504749034
 40
0.4300532108202959
 40
0.506195161928554
 40
0.5801912222739508
 40
0.6563331733822045
 40
0.7303292337275965
 40
0.8064711848358541
 40
0.880467245181244
 40
0.9566091962895054
 40
1.0
 40
1.0
 40
1.0
 40
1.0
 10
-26.9875
 20
-5.08106883008491
 30
0.0
 10
-26.98749999999998
 20
-4.973141259975209
 30
0.0
 10
-26.98749999999995
 20
-4.722043134894386
 30
0.0
 10
-26.98749999999989
 20
-4.26965018983961
 30
0.0
 10
-26.98749999999998
 20
-3.74166613312395
 30
0.0
 10
-26.98749999999995
 20
-3.183217544390296
 30
0.0
 10
-26.98749999999998
 20
-2.6215113339914
 30
0.0
 10
-26.98749999999998
 20
-2.06197652885512
 30
0.0
 10
-26.98750000000006
 20
-1.530610845149888
 30
0.0
 10
-26.98749999999995
 20
-1.032892450104893
 30
0.0
 10
-26.98750000000006
 20
-0.5917716063923677
 30
0.0
 10
-26.98749999999992
 20
-0.2121766724844931
 30
0.0
 10
-26.98750000000006
 20
0.0897447903277737
 30
0.0
 10
-26.98749999999992
 20
0.3055355760479543
 30
0.0
 10
-26.9875
 20
0.4260563691817467
 30
0.0
 10
-26.98749999999998
 20
0.4359586443851236
 30
0.0
 10
-26.98749999999995
 20
0.439553204556421
 30
0.0
  0
SPLINE
  5
320
330
1F
100
AcDbEntity
  8
0
  6
Continuous
 62
     1
370
    15
100
AcDbSpline
210
0.0
220
0.0
230
1.0
 70
     8
 71
     3
 72
    50
 73
    46
 74
     0
 42
0.000000001
 43
0.00000001
 40
0.0
 40
0.0
 40
0.0
 40
0.0
 40
0.0624999999999991
 40
0.0624999999999991
 40
0.0937499999999986
 40
0.0937499999999986
 40
0.1249999999999981
 40
0.1249999999999981
 40
0.1562499999999977
 40
0.1562499999999977
 40
0.1874999999999972
 40
0.1874999999999972
 40
0.2499999999999976
 40
0.2499999999999976
 40
0.3124999999999979
 40
0.3124999999999979
 40
0.3749999999999982
 40
0.3749999999999982
 40
0.4062499999999984
 40
0.4062499999999984
 40
0.4374999999999986
 40
0.4374999999999986
 40
0.4999999999999976
 40
0.4999999999999976
 40
0.5312499999999978
 40
0.5312499999999978
 40
0.562499999999998
 40
0.562499999999998
 40
0.6249999999999994
 40
0.6249999999999994
 40
0.6562500000000002
 40
0.6562500000000002
 40
0.687500000000001
 40
0.687500000000001
 40
0.7500000000000024
 40
0.7500000000000024
 40
0.7812500000000027
 40
0.7812500000000027
 40
0.8125000000000029
 40
0.8125000000000029
 40
0.875000000000002
 40
0.875000000000002
 40
0.937500000000001
 40
0.937500000000001
 40
1.0
 40
1.0
 40
1.0
 40
1.0
 10
-52.38749999999998
 20
5.556249999999998
 30
0.0
 10
-51.86168737475884
 20
5.509696720060886
 30
0.0
 10
-51.32853428804992
 20
5.458286690037261
 30
0.0
 10
-50.5339845976087
 20
5.34452843409928
 30
0.0
 10
-50.27118926564724
 20
5.300613292210627
 30
0.0
 10
-49.74354274684753
 20
5.200795184078827
 30
0.0
 10
-49.47825952138736
 20
5.144842663847562
 30
0.0
 10
-48.94746888666793
 20
5.021351076707311
 30
0.0
 10
-48.68196454902778
 20
4.953812702804057
 30
0.0
 10
-48.15344106013719
 20
4.807887574064323
 30
0.0
 10
-47.89108367298279
 20
4.729586840278023
 30
0.0
 10
-47.09748479990974
 20
4.478242017570735
 30
0.0
 10
-46.56408145472732
 20
4.28901907546708
 30
0.0
 10
-45.51022070755879
 20
3.87508478939749
 30
0.0
 10
-44.97954823057653
 20
3.649096079724302
 30
0.0
 10
-43.91916554242277
 20
3.166178783408298
 30
0.0
 10
-43.39422247022593
 20
2.910079134771194
 30
0.0
 10
-42.59825148050731
 20
2.506525646844323
 30
0.0
 10
-42.33259778170963
 20
2.368947577500698
 30
0.0
 10
-41.80333859602825
 20
2.089088623435543
 30
0.0
 10
-41.54090925329137
 20
1.947026511626532
 30
0.0
 10
-40.74847383638785
 20
1.513796531199126
 30
0.0
 10
-40.21496587995994
 20
1.215814826702967
 30
0.0
 10
-39.42310347165766
 20
0.7641691946960976
 30
0.0
 10
-39.16048336138635
 20
0.6128405478259709
 30
0.0
 10
-38.63094806007791
 20
0.3083170073540942
 30
0.0
 10
-38.36525177210228
 20
0.155354208859442
 30
0.0
 10
-37.56944158425505
 20
-0.3032982113317615
 30
0.0
 10
-37.04459453312051
 20
-0.6079836134608889
 30
0.0
 10
-36.24905327470446
 20
-1.060397492526918
 30
0.0
 10
-35.9833221007131
 20
-1.210271631284166
 30
0.0
 10
-35.45346915071899
 20
-1.506632336440227
 30
0.0
 10
-35.19045801629886
 20
-1.652916104983569
 30
0.0
 10
-34.39939765243354
 20
-2.086045851226836
 30
0.0
 10
-33.86593082782309
 20
-2.367714255166881
 30
0.0
 10
-33.07281265599311
 20
-2.770984720610173
 30
0.0
 10
-32.81048661248951
 20
-2.90208287785432
 30
0.0
 10
-32.28162525806908
 20
-3.158110121624269
 30
0.0
 10
-32.01604703164457
 20
-3.28286890936785
 30
0.0
 10
-31.21992829636326
 20
-3.645433724653508
 30
0.0
 10
-30.69473641125222
 20
-3.870864716240412
 30
0.0
 10
-29.63487355172835
 20
-4.286012651007582
 30
0.0
 10
-29.10285439623186
 20
-4.475236401330911
 30
0.0
 10
-28.0502211389305
 20
-4.810290519344329
 30
0.0
 10
-27.51694115151655
 20
-4.957429592868707
 30
0.0
 10
-26.98750000000003
 20
-5.08106883008491
 30
0.0
  0
LINE
  5
321
330
1F
100
AcDbEntity
  8
0
  6
Continuous
 62
     1
370
    15
100
AcDbLine
 10
-52.38749999999998
 20
5.032191996802253
 30
0.0
 11
-52.38749999999998
 21
-0.4760669968022959
 31
0.0
  0
SPLINE
  5
322
330
1F
100
AcDbEntity
  8
0
  6
Continuous
 62
     1
370
    15
100
AcDbSpline
210
0.0
220
0.0
230
1.0
 70
     8
 71
     3
 72
    50
 73
    46
 74
     0
 42
0.000000001
 43
0.00000001
 40
0.0
 40
0.0
 40
0.0
 40
0.0
 40
0.0625000000000008
 40
0.0625000000000008
 40
0.0937500000000012
 40
0.0937500000000012
 40
0.1250000000000015
 40
0.1250000000000015
 40
0.1562500000000019
 40
0.1562500000000019
 40
0.1875000000000023
 40
0.1875000000000023
 40
0.2500000000000031
 40
0.2500000000000031
 40
0.3125000000000039
 40
0.3125000000000039
 40
0.3750000000000047
 40
0.3750000000000047
 40
0.4062500000000045
 40
0.4062500000000045
 40
0.4375000000000043
 40
0.4375000000000043
 40
0.5000000000000038
 40
0.5000000000000038
 40
0.5312500000000037
 40
0.5312500000000037
 40
0.5625000000000033
 40
0.5625000000000033
 40
0.6250000000000041
 40
0.6250000000000041
 40
0.6562500000000039
 40
0.6562500000000039
 40
0.6875000000000036
 40
0.6875000000000036
 40
0.7500000000000019
 40
0.7500000000000019
 40
0.7812500000000017
 40
0.7812500000000017
 40
0.8125000000000014
 40
0.8125000000000014
 40
0.875000000000001
 40
0.875000000000001
 40
0.9375000000000006
 40
0.9375000000000006
 40
1.0
 40
1.0
 40
1.0
 40
1.0
 10
-52.38749999999998
 20
5.032191996802246
 30
0.0
 10
-51.86168737475884
 20
4.902944512481588
 30
0.0
 10
-51.32853428804992
 20
4.750220569663454
 30
0.0
 10
-50.53398459760864
 20
4.490322738002148
 30
0.0
 10
-50.27118926564724
 20
4.398732465453349
 30
0.0
 10
-49.74354274684753
 20
4.205585683654987
 30
0.0
 10
-49.47825952138736
 20
4.103957994350444
 30
0.0
 10
-48.94746888666793
 20
3.891573294419487
 30
0.0
 10
-48.68196454902783
 20
3.780817495889351
 30
0.0
 10
-48.15344106013719
 20
3.551345170453863
 30
0.0
 10
-47.89108367298274
 20
3.43274318066274
 30
0.0
 10
-47.09748479990969
 20
3.064704257159441
 30
0.0
 10
-46.56408145472727
 20
2.803573408880467
 30
0.0
 10
-45.51022070755879
 20
2.260462483615654
 30
0.0
 10
-44.97954823057653
 20
1.976771077604268
 30
0.0
 10
-43.91916554242282
 20
1.39417775739831
 30
0.0
 10
-43.39422247022593
 20
1.096206058108705
 30
0.0
 10
-42.59825148050731
 20
0.6422249151964323
 30
0.0
 10
-42.33259778170963
 20
0.4899327008838441
 30
0.0
 10
-41.80333859602825
 20
0.1849745770995199
 30
0.0
 10
-41.54090925329137
 20
0.0325365624572627
 30
0.0
 10
-40.7484738363878
 20
-0.425360032978422
 30
0.0
 10
-40.21496587995994
 20
-0.7310708777803583
 30
0.0
 10
-39.42310347165766
 20
-1.181011702379181
 30
0.0
 10
-39.16048336138629
 20
-1.329575807489349
 30
0.0
 10
-38.63094806007791
 20
-1.624158685520023
 30
0.0
 10
-38.36525177210228
 20
-1.769944081701987
 30
0.0
 10
-37.56944158425505
 20
-2.20054048448472
 30
0.0
 10
-37.04459453312051
 20
-2.477906418504823
 30
0.0
 10
-36.24905327470446
 20
-2.876690405295257
 30
0.0
 10
-35.9833221007131
 20
-3.006589490782055
 30
0.0
 10
-35.45346915071899
 20
-3.259010955548853
 30
0.0
 10
-35.19045801629891
 20
-3.381368036070868
 30
0.0
 10
-34.39939765243366
 20
-3.73688351490906
 30
0.0
 10
-33.86593082782309
 20
-3.958855493160194
 30
0.0
 10
-33.07281265599311
 20
-4.262438079428756
 30
0.0
 10
-32.81048661248951
 20
-4.358670020830822
 30
0.0
 10
-32.28162525806896
 20
-4.541561800450162
 30
0.0
 10
-32.01604703164451
 20
-4.628088006888668
 30
0.0
 10
-31.21992829636314
 20
-4.871528807651239
 30
0.0
 10
-30.69473641125216
 20
-5.011901388384104
 30
0.0
 10
-29.63487355172835
 20
-5.246874681635831
 30
0.0
 10
-29.10285439623186
 20
-5.341099454633977
 30
0.0
 10
-28.0502211389305
 20
-5.479883769345869
 30
0.0
 10
-27.51694115151653
 20
-5.524965439563723
 30
0.0
 10
-26.9875
 20
-5.544676808996308
 30
0.0
  0
SPLINE
  5
323
330
1F
100
AcDbEntity
  8
0
  6
Continuous
 62
     1
370
    15
100
AcDbSpline
210
0.0
220
0.0
230
1.0
 70
     8
 71
     3
 72
    18
 73
    14
 74
     0
 42
0.000000001
 43
0.00000001
 40
0.0
 40
0.0
 40
0.0
 40
0.0
 40
0.1007431345899887
 40
0.2014759164439447
 40
0.302199716153014
 40
0.4029159118166147
 40
0.503625887902547
 40
0.6043310340957343
 40
0.7050327441376287
 40
0.7973243961765961
 40
0.8896226177201622
 40
0.9819449835274274
 40
1.0
 40
1.0
 40
1.0
 40
1.0
 10
-52.38749999999998
 20
-0.4760669968022959
 30
0.0
 10
-51.70997596112624
 20
-0.8636508245349226
 30
0.0
 10
-50.35499750824749
 20
-1.638778650456694
 30
0.0
 10
-48.32267952367362
 20
-2.723050429024021
 30
0.0
 10
-46.2905748699423
 20
-3.6878404430637
 30
0.0
 10
-44.25865756134294
 20
-4.488428139940958
 30
0.0
 10
-42.22688152533919
 20
-5.08968077606015
 30
0.0
 10
-40.19525609224052
 20
-5.465183036039883
 30
0.0
 10
-38.22013224905418
 20
-5.593127185545947
 30
0.0
 10
-36.30197639097025
 20
-5.496544099465681
 30
0.0
 10
-34.44002088429868
 20
-5.183133504140778
 30
0.0
 10
-33.07722659506833
 20
-4.851783983913912
 30
0.0
 10
-32.33494764991217
 20
-4.581138418703611
 30
0.0
 10
-32.21352912824386
 20
-4.536867481694871
 30
0.0
  0
LINE
  5
324
330
1F
100
AcDbEntity
  8
0
  6
Continuous
 62
     1
370
    15
100
AcDbLine
 10
-52.38749999999998
 20
5.556249999999998
 30
0.0
 11
-52.38749999999998
 21
5.032191996802253
 31
0.0
  0
LINE
  5
325
330
1F
100
AcDbEntity
  8
외형선
  6
Continuous
370
    15
100
AcDbLine
 10
-26.9875
 20
-5.08106883008491
 30
0.0
 11
-26.98749999999998
 21
-5.544676808996301
 31
0.0
  0
SPLINE
  5
326
330
1F
100
AcDbEntity
  8
0
  6
Continuous
 62
     1
370
    15
100
AcDbSpline
210
0.0
220
0.0
230
1.0
 70
     8
 71
     3
 72
    13
 73
     9
 74
     0
 42
0.000000001
 43
0.00000001
 40
0.0
 40
0.0
 40
0.0
 40
0.0
 40
0.1615156423506399
 40
0.329131186515688
 40
0.4967905771799508
 40
0.6645255331423967
 40
0.8323048448415551
 40
1.0
 40
1.0
 40
1.0
 40
1.0
 10
-38.0960319019856
 20
5.552618728030501
 30
0.0
 10
-37.49802126933593
 20
5.535465461924793
 30
0.0
 10
-36.27941515658738
 20
5.500511108626077
 30
0.0
 10
-34.44003582188304
 20
5.189411708523308
 30
0.0
 10
-32.57753246301524
 20
4.697387471793014
 30
0.0
 10
-30.71424123312124
 20
4.023925648918548
 30
0.0
 10
-28.850634033819
 20
3.207581157296211
 30
0.0
 10
-27.6084408064629
 20
2.567977356361581
 30
0.0
 10
-26.98750000000003
 20
2.248255680842255
 30
0.0
  0
LINE
  5
327
330
1F
100
AcDbEntity
  8
외형선
  6
Continuous
370
    15
100
AcDbLine
 10
-26.9875
 20
2.248255680842248
 30
0.0
 11
-26.9875
 21
0.3584315084902656
 31
0.0
  0
SPLINE
  5
328
330
1F
100
AcDbEntity
  8
0
  6
Continuous
 62
     1
370
    15
100
AcDbSpline
210
0.0
220
0.0
230
1.0
 70
     8
 71
     3
 72
    13
 73
     9
 74
     0
 42
0.000000001
 43
0.00000001
 40
0.0
 40
0.0
 40
0.0
 40
0.0
 40
0.1459591320144883
 40
0.3167260126060107
 40
0.4874810300947676
 40
0.6582567553332318
 40
0.8290856658598348
 40
1.0
 40
1.0
 40
1.0
 40
1.0
 10
-41.48431321774626
 20
-5.543338450554622
 30
0.0
 10
-42.01479431852885
 20
-5.533917429175426
 30
0.0
 10
-43.16591903059577
 20
-5.51347415512381
 30
0.0
 10
-44.93750894969224
 20
-5.231375887353274
 30
0.0
 10
-46.79927461009469
 20
-4.760819429958127
 30
0.0
 10
-48.66131177382675
 20
-4.105239673834206
 30
0.0
 10
-50.524026873784
 20
-3.304036076828269
 30
0.0
 10
-51.76623878838091
 20
-2.671813094306466
 30
0.0
 10
-52.38749999999998
 20
-2.355622586455489
 30
0.0
  0
LINE
  5
329
330
1F
100
AcDbEntity
  8
0
  6
Continuous
 62
     1
370
    15
100
AcDbLine
 10
-52.38749999999998
 20
-0.4760669968022959
 30
0.0
 11
-52.38749999999998
 21
-2.355622586455489
 31
0.0
  0
SPLINE
  5
32A
330
1F
100
AcDbEntity
  8
0
  6
Continuous
 62
     1
370
    15
100
AcDbSpline
210
0.0
220
0.0
230
1.0
 70
     8
 71
     3
 72
    10
 73
     6
 74
     0
 42
0.000000001
 43
0.00000001
 40
0.0
 40
0.0
 40
0.0
 40
0.0
 40
0.3888096710541069
 40
0.7776484750411056
 40
1.0
 40
1.0
 40
1.0
 40
1.0
 10
-26.9875
 20
5.544676808996306
 30
0.0
 10
-27.66479964182837
 20
5.493810888594999
 30
0.0
 10
-29.01944967454431
 20
5.392075236484273
 30
0.0
 10
-30.76145869188723
 20
5.026447434156593
 30
0.0
 10
-31.826181961021
 20
4.667465421689378
 30
0.0
 10
-32.21352912824374
 20
4.536867481694876
 30
0.0
  0
SPLINE
  5
32B
330
1F
100
AcDbEntity
  8
외형선
  6
Continuous
370
    15
100
AcDbSpline
210
0.0
220
0.0
230
1.0
 70
    24
 71
     3
 72
    14
 73
    10
 74
     0
 42
0.000000001
 43
0.00000001
 40
0.0
 40
0.0
 40
0.0
 40
0.0
 40
0.1571113450091176
 40
0.3189262711776014
 40
0.4761808052060771
 40
0.6379957313745687
 40
0.7952502654030476
 40
0.9570651915715305
 40
1.0
 40
1.0
 40
1.0
 40
1.0
 10
-26.9875
 20
2.320817647890045
 30
0.0
 10
-26.98749999999998
 20
2.453601169596872
 30
0.0
 10
-26.98749999999992
 20
2.723143470627597
 30
0.0
 10
-26.98750000000006
 20
3.201255905648047
 30
0.0
 10
-26.98749999999992
 20
3.723078214815764
 30
0.0
 10
-26.9875
 20
4.270649565228438
 30
0.0
 10
-26.98749999999986
 20
4.83626733236894
 30
0.0
 10
-26.9875
 20
5.261370705276511
 30
0.0
 10
-26.98749999999998
 20
5.495567191007033
 30
0.0
 10
-26.98749999999998
 20
5.544676808996306
 30
0.0
  0
SPLINE
  5
32C
330
1F
100
AcDbEntity
  8
0
  6
Continuous
 62
     1
370
    15
100
AcDbSpline
210
0.0
220
0.0
230
1.0
 70
     8
 71
     3
 72
    10
 73
     6
 74
     0
 42
0.000000001
 43
0.00000001
 40
0.0
 40
0.0
 40
0.0
 40
0.0
 40
0.4042414463050075
 40
0.8084413512682245
 40
1.0
 40
1.0
 40
1.0
 40
1.0
 10
-52.38749999999998
 20
-5.556249999999999
 30
0.0
 10
-51.70997631034776
 20
-5.476403606310776
 30
0.0
 10
-50.35499855587624
 20
-5.357582126154321
 30
0.0
 10
-48.67900112676414
 20
-4.990478035075463
 30
0.0
 10
-47.68053207232349
 20
-4.645627336397681
 30
0.0
 10
-47.35948694140108
 20
-4.53474494378542
 30
0.0
  0
LINE
  5
32D
330
1F
100
AcDbEntity
  8
0
  6
Continuous
 62
     1
370
    15
100
AcDbLine
 10
-52.38749999999998
 20
-2.353247522564573
 30
0.0
 11
-52.38749999999998
 21
-5.556249999999999
 31
0.0
  0
LINE
  5
32E
330
1F
100
AcDbEntity
  8
외형선
  6
Continuous
370
    15
100
AcDbLine
 10
-25.98749999999998
 20
0.0000000000000029
 30
0.0
 11
-25.98749999999998
 21
-5.556249999999999
 31
0.0
  0
LINE
  5
32F
330
1F
100
AcDbEntity
  8
외형선
  6
Continuous
370
    15
100
AcDbLine
 10
-25.98749999999998
 20
5.556249999999998
 30
0.0
 11
-25.98749999999998
 21
0.0000000000000029
 31
0.0
  0
LINE
  5
330
330
1F
100
AcDbEntity
  8
외형선
  6
Continuous
370
    15
100
AcDbLine
 10
-23.02518467149215
 20
0.0000000000000029
 30
0.0
 11
-23.02518467149215
 21
-6.350000000000002
 31
0.0
  0
LINE
  5
331
330
1F
100
AcDbEntity
  8
외형선
  6
Continuous
370
    15
100
AcDbLine
 10
-23.02518467149215
 20
6.350000000000008
 30
0.0
 11
-23.02518467149215
 21
0.0000000000000029
 31
0.0
  0
LINE
  5
332
330
1F
100
AcDbEntity
  8
외형선
  6
Continuous
370
    15
100
AcDbLine
 10
-26.48748772965626
 20
-5.555814905259489
 30
0.0
 11
-26.48748772965626
 21
-5.556249999999999
 31
0.0
  0
SPLINE
  5
333
330
1F
100
AcDbEntity
  8
외형선
  6
Continuous
370
    15
100
AcDbSpline
210
0.0
220
0.0
230
1.0
 70
     8
 71
     3
 72
     8
 73
     4
 74
     0
 42
0.000000001
 43
0.00000001
 40
0.0
 40
0.0
 40
0.0
 40
0.0
 40
1.0
 40
1.0
 40
1.0
 40
1.0
 10
-26.98749999999998
 20
-5.544676808996294
 30
0.0
 10
-26.82033358904641
 20
-5.550900501419116
 30
0.0
 10
-26.65355101104782
 20
-5.554610181910044
 30
0.0
 10
-26.4874877296562
 20
-5.555814889790207
 30
0.0
  0
SPLINE
  5
334
330
1F
100
AcDbEntity
  8
외형선
  6
Continuous
370
    15
100
AcDbSpline
210
0.0
220
0.0
230
1.0
 70
     8
 71
     3
 72
     8
 73
     4
 74
     0
 42
0.000000001
 43
0.00000001
 40
0.0
 40
0.0
 40
0.0
 40
0.0
 40
1.0
 40
1.0
 40
1.0
 40
1.0
 10
-26.98749999999998
 20
-5.081068830084917
 30
0.0
 10
-26.82033358904641
 20
-5.12010683738614
 30
0.0
 10
-26.65355101104782
 20
-5.156815495113706
 30
0.0
 10
-26.4874877296562
 20
-5.191135752668225
 30
0.0
  0
LINE
  5
335
330
1F
100
AcDbEntity
  8
외형선
  6
Continuous
370
    15
100
AcDbLine
 10
-26.48748772965626
 20
0.0695327332735218
 30
0.0
 11
-26.48748772965626
 21
-5.1911379853672
 31
0.0
  0
SPLINE
  5
336
330
1F
100
AcDbEntity
  8
외형선
  6
Continuous
370
    15
100
AcDbSpline
210
0.0
220
0.0
230
1.0
 70
     8
 71
     3
 72
     8
 73
     4
 74
     0
 42
0.000000001
 43
0.00000001
 40
0.0
 40
0.0
 40
0.0
 40
0.0
 40
1.0
 40
1.0
 40
1.0
 40
1.0
 10
-26.98749999999998
 20
0.3584315084902869
 30
0.0
 10
-26.82033358904641
 20
0.2621554774334343
 30
0.0
 10
-26.65355101104782
 20
0.1657910080689782
 30
0.0
 10
-26.4874877296562
 20
0.0695339692912811
 30
0.0
  0
SPLINE
  5
337
330
1F
100
AcDbEntity
  8
외형선
  6
Continuous
370
    15
100
AcDbSpline
210
0.0
220
0.0
230
1.0
 70
     8
 71
     3
 72
     8
 73
     4
 74
     0
 42
0.000000001
 43
0.00000001
 40
0.0
 40
0.0
 40
0.0
 40
0.0
 40
1.0
 40
1.0
 40
1.0
 40
1.0
 10
-26.98749999999998
 20
2.248255680842227
 30
0.0
 10
-26.82033358904641
 20
2.16002959349057
 30
0.0
 10
-26.65355101104782
 20
2.070853659892563
 30
0.0
 10
-26.4874877296562
 20
1.980914854270529
 30
0.0
  0
LINE
  5
338
330
1F
100
AcDbEntity
  8
외형선
  6
Continuous
370
    15
100
AcDbLine
 10
-26.48748772965626
 20
5.556249999999998
 30
0.0
 11
-26.48748772965626
 21
1.980909003305732
 31
0.0
  0
SPLINE
  5
339
330
1F
100
AcDbEntity
  8
외형선
  6
Continuous
370
    15
100
AcDbSpline
210
0.0
220
0.0
230
1.0
 70
     8
 71
     3
 72
     8
 73
     4
 74
     0
 42
0.000000001
 43
0.00000001
 40
0.0
 40
0.0
 40
0.0
 40
0.0
 40
1.0
 40
1.0
 40
1.0
 40
1.0
 10
-26.98749999999998
 20
5.544676808996299
 30
0.0
 10
-26.82033358904641
 20
5.550900501419128
 30
0.0
 10
-26.65355101104782
 20
5.554610181910049
 30
0.0
 10
-26.4874877296562
 20
5.555814889790205
 30
0.0
  0
SPLINE
  5
33A
330
1F
100
AcDbEntity
  8
외형선
  6
Continuous
370
    15
100
AcDbSpline
210
0.0
220
0.0
230
1.0
 70
    24
 71
     3
 72
    21
 73
    17
 74
     0
 42
0.000000001
 43
0.00000001
 40
0.0
 40
0.0
 40
0.0
 40
0.0
 40
0.0255575770854522
 40
0.0996764699406054
 40
0.1759448157097283
 40
0.2500637085648981
 40
0.3263320543340393
 40
0.4004509471892008
 40
0.4767192929583322
 40
0.5508381858134932
 40
0.6271065315826244
 40
0.7012254244377815
 40
0.7774937702069079
 40
0.8516126630620762
 40
0.9278810088312156
 40
1.0
 40
1.0
 40
1.0
 40
1.0
 10
-26.98750000000003
 20
0.4388307127770148
 30
0.0
 10
-26.98750000000003
 20
0.4388996509463212
 30
0.0
 10
-26.98750000000003
 20
0.4391685149836804
 30
0.0
 10
-26.98750000000006
 20
0.3406959599121813
 30
0.0
 10
-26.98749999999995
 20
0.1493813984783288
 30
0.0
 10
-26.9875
 20
-0.1370013611080594
 30
0.0
 10
-26.98749999999995
 20
-0.4964803737174222
 30
0.0
 10
-26.98749999999995
 20
-0.9276887513039938
 30
0.0
 10
-26.98749999999998
 20
-1.410036905059436
 30
0.0
 10
-26.9875
 20
-1.93871357862129
 30
0.0
 10
-26.98749999999989
 20
-2.489223254962788
 30
0.0
 10
-26.9875
 20
-3.055796514690166
 30
0.0
 10
-26.9875
 20
-3.612596576502057
 30
0.0
 10
-26.98749999999995
 20
-4.152387559698171
 30
0.0
 10
-26.98749999999998
 20
-4.651271163230114
 30
0.0
 10
-26.98750000000003
 20
-4.940498831906631
 30
0.0
 10
-26.9875
 20
-5.081068830084953
 30
0.0
  0
SPLINE
  5
33B
330
1F
100
AcDbEntity
  8
외형선
  6
Continuous
370
    15
100
AcDbSpline
210
0.0
220
0.0
230
1.0
 70
    24
 71
     3
 72
    14
 73
    10
 74
     0
 42
0.000000001
 43
0.00000001
 40
0.0
 40
0.0
 40
0.0
 40
0.0
 40
0.1608426470652998
 40
0.3266027108631176
 40
0.4834641942974798
 40
0.6448746713779898
 40
0.8017361548123871
 40
0.9631466318929361
 40
0.9999999999999999
 40
0.9999999999999999
 40
0.9999999999999999
 40
0.9999999999999999
 10
-26.98749999999998
 20
5.544676808996299
 30
0.0
 10
-26.98749999999998
 20
5.358432895642244
 30
0.0
 10
-26.98749999999998
 20
4.980251063317048
 30
0.0
 10
-26.98750000000003
 20
4.407123672111054
 30
0.0
 10
-26.98750000000003
 20
3.845946203176147
 30
0.0
 10
-26.98749999999998
 20
3.318441696855778
 30
0.0
 10
-26.98750000000003
 20
2.832862859600147
 30
0.0
 10
-26.98749999999992
 20
2.497663554881363
 30
0.0
 10
-26.98749999999995
 20
2.348528867238165
 30
0.0
 10
-26.98749999999995
 20
2.320807647890042
 30
0.0
  0
LINE
  5
3BA
330
1F
100
AcDbEntity
  8
외형선
  6
Continuous
370
    15
100
AcDbLine
 10
-4.203700000000026
 20
4.826000000000001
 30
0.0
 11
4.203700000000026
 21
4.826000000000001
 31
0.0
  0
LINE
  5
3BB
330
1F
100
AcDbEntity
  8
외형선
  6
Continuous
370
    15
100
AcDbLine
 10
-4.203700000000026
 20
4.826000000000001
 30
0.0
 11
-5.727700000000027
 21
6.350000000000001
 31
0.0
  0
LINE
  5
3BC
330
1F
100
AcDbEntity
  8
외형선
  6
Continuous
370
    15
100
AcDbLine
 10
4.203700000000026
 20
4.826000000000001
 30
0.0
 11
5.727700000000027
 21
6.350000000000001
 31
0.0
  0
LINE
  5
3BD
330
1F
100
AcDbEntity
  8
외형선
  6
Continuous
370
    15
100
AcDbLine
 10
-5.727700000000031
 20
6.350000000000001
 30
0.0
 11
-23.02518467149215
 21
6.350000000000001
 31
0.0
  0
ENDSEC
  0
SECTION
  2
OBJECTS
  0
DICTIONARY
  5
C
330
0
100
AcDbDictionary
281
     1
  3
ACAD_GROUP
350
D
  3
ACAD_IMAGE_VARS
350
14F
  3
ACAD_LAYOUT
350
1A
  3
ACAD_MLINESTYLE
350
17
  3
ACAD_PLOTSETTINGS
350
19
  3
ACAD_PLOTSTYLENAME
350
E
  3
ACAD_SCALELIST
350
47
  3
APPDATA
350
14D
  3
DWGPROPS
350
404
  0
DICTIONARY
  5
1D7
330
2
100
AcDbDictionary
280
     1
281
     1
  3
ACAD_LAYERSTATES
360
1D8
  0
DICTIONARY
  5
D
102
{ACAD_REACTORS
330
C
102
}
330
C
100
AcDbDictionary
281
     1
  0
RASTERVARIABLES
  5
14F
102
{ACAD_REACTORS
330
C
102
}
330
C
100
AcDbRasterVariables
 90
        0
 70
     1
 71
     1
 72
     1
  0
DICTIONARY
  5
1A
102
{ACAD_REACTORS
330
C
102
}
330
C
100
AcDbDictionary
281
     1
  3
Layout1
350
1E
  3
Layout2
350
26
  3
Model
350
22
  0
DICTIONARY
  5
17
102
{ACAD_REACTORS
330
C
102
}
330
C
100
AcDbDictionary
281
     1
  3
Standard
350
18
  0
DICTIONARY
  5
19
102
{ACAD_REACTORS
330
C
102
}
330
C
100
AcDbDictionary
281
     1
  0
ACDBDICTIONARYWDFLT
  5
E
102
{ACAD_REACTORS
330
C
102
}
330
C
100
AcDbDictionary
281
     1
  3
Normal
350
F
100
AcDbDictionaryWithDefault
340
F
  0
DICTIONARY
  5
47
102
{ACAD_REACTORS
330
C
102
}
330
C
100
AcDbDictionary
281
     1
  3
A0
350
48
  3
A1
350
49
  3
A2
350
4A
  3
A3
350
4B
  3
A4
350
4C
  3
A5
350
4D
  3
A6
350
4E
  3
A7
350
4F
  3
A8
350
50
  3
A9
350
51
  3
B0
350
52
  3
B1
350
53
  3
B2
350
54
  3
B3
350
55
  3
B4
350
56
  3
B5
350
57
  3
B6
350
58
  3
B7
350
59
  3
B8
350
5A
  3
B9
350
5B
  3
C0
350
5C
  3
C1
350
5D
  3
C2
350
5E
  3
C3
350
5F
  3
C4
350
60
  3
C5
350
61
  3
C6
350
62
  3
C7
350
63
  3
C8
350
64
  3
C9
350
65
  3
D0
350
66
  3
D1
350
67
  3
D2
350
68
  0
DICTIONARY
  5
14D
102
{ACAD_REACTORS
330
C
102
}
330
C
100
AcDbDictionary
281
     1
  0
XRECORD
  5
404
102
{ACAD_REACTORS
330
C
102
}
330
C
100
AcDbXrecord
280
     1
  1
DWGPROPS COOKIE
  2

  3

  4

  6

  7

  8
12016016
  9

300
=
301
=
302
=
303
=
304
=
305
=
306
=
307
=
308
=
309
=
 40
0.0
 41
2458313.098354005
 42
2458319.109672801
  1

 90
        0
  0
DICTIONARY
  5
1D8
102
{ACAD_REACTORS
330
1D7
102
}
330
1D7
100
AcDbDictionary
281
     1
  0
LAYOUT
  5
1E
102
{ACAD_REACTORS
330
1A
102
}
330
1A
100
AcDbPlotSettings
  1

  2
none_device
  4

  6

 40
0.0
 41
0.0
 42
0.0
 43
0.0
 44
0.0
 45
0.0
 46
0.0
 47
0.0
 48
0.0
 49
0.0
140
0.0
141
0.0
142
1.0
143
1.0
 70
   688
 72
     1
 73
     0
 74
     5
  7

 75
    16
147
1.0
148
0.0
149
0.0
100
AcDbLayout
  1
Layout1
 70
     1
 71
     1
 10
0.0
 20
0.0
 11
420.0
 21
297.0
 12
0.0
 22
0.0
 32
0.0
 14
1.000000000000000E+20
 24
1.000000000000000E+20
 34
1.000000000000000E+20
 15
-1.000000000000000E+20
 25
-1.000000000000000E+20
 35
-1.000000000000000E+20
146
0.0
 13
0.0
 23
0.0
 33
0.0
 16
1.0
 26
0.0
 36
0.0
 17
0.0
 27
1.0
 37
0.0
 76
     0
330
1B
  0
LAYOUT
  5
26
102
{ACAD_REACTORS
330
1A
102
}
330
1A
100
AcDbPlotSettings
  1

  2
none_device
  4

  6

 40
0.0
 41
0.0
 42
0.0
 43
0.0
 44
0.0
 45
0.0
 46
0.0
 47
0.0
 48
0.0
 49
0.0
140
0.0
141
0.0
142
1.0
143
1.0
 70
   688
 72
     1
 73
     0
 74
     5
  7

 75
    16
147
1.0
148
0.0
149
0.0
100
AcDbLayout
  1
Layout2
 70
     1
 71
     2
 10
0.0
 20
0.0
 11
0.0
 21
0.0
 12
0.0
 22
0.0
 32
0.0
 14
0.0
 24
0.0
 34
0.0
 15
0.0
 25
0.0
 35
0.0
146
0.0
 13
0.0
 23
0.0
 33
0.0
 16
1.0
 26
0.0
 36
0.0
 17
0.0
 27
1.0
 37
0.0
 76
     0
330
23
  0
LAYOUT
  5
22
102
{ACAD_REACTORS
330
1A
102
}
330
1A
100
AcDbPlotSettings
  1

  2
none_device
  4
ANSI_A_(11.00_x_8.50_Inches)
  6

 40
6.35
 41
19.05
 42
6.35000508
 43
19.05000254
 44
279.4
 45
215.9
 46
61.47075058006798
 47
80.68379317705299
 48
0.0
 49
0.0
140
0.0
141
0.0
142
0.0418462529351176
143
1.0
 70
  1696
 72
     0
 73
     0
 74
     0
  7

 75
     0
147
0.0235690232323232
148
0.0
149
0.0
100
AcDbLayout
  1
Model
 70
     1
 71
     0
 10
0.0
 20
0.0
 11
420.0
 21
297.0
 12
0.0
 22
0.0
 32
0.0
 14
-68.96875000000007
 24
-49.97180738881174
 34
0.0
 15
81.41936447236121
 25
39.28525000000006
 35
0.0
146
0.0
 13
0.0
 23
0.0
 33
0.0
 16
1.0
 26
0.0
 36
0.0
 17
0.0
 27
1.0
 37
0.0
 76
     0
330
1F
331
29
  0
MLINESTYLE
  5
18
102
{ACAD_REACTORS
330
17
102
}
330
17
100
AcDbMlineStyle
  2
Standard
 70
     0
  3

 62
   256
 51
90.0
 52
90.0
 71
     2
 49
0.5
 62
   256
  6
BYLAYER
 49
-0.5
 62
   256
  6
BYLAYER
  0
ACDBPLACEHOLDER
  5
F
102
{ACAD_REACTORS
330
E
102
}
330
E
  0
SCALE
  5
48
102
{ACAD_REACTORS
330
47
102
}
330
47
100
AcDbScale
 70
     0
300
1:1
140
1.0
141
1.0
290
     1
  0
SCALE
  5
49
102
{ACAD_REACTORS
330
47
102
}
330
47
100
AcDbScale
 70
     0
300
1:2
140
1.0
141
2.0
290
     0
  0
SCALE
  5
4A
102
{ACAD_REACTORS
330
47
102
}
330
47
100
AcDbScale
 70
     0
300
1:4
140
1.0
141
4.0
290
     0
  0
SCALE
  5
4B
102
{ACAD_REACTORS
330
47
102
}
330
47
100
AcDbScale
 70
     0
300
1:5
140
1.0
141
5.0
290
     0
  0
SCALE
  5
4C
102
{ACAD_REACTORS
330
47
102
}
330
47
100
AcDbScale
 70
     0
300
1:8
140
1.0
141
8.0
290
     0
  0
SCALE
  5
4D
102
{ACAD_REACTORS
330
47
102
}
330
47
100
AcDbScale
 70
     0
300
1:10
140
1.0
141
10.0
290
     0
  0
SCALE
  5
4E
102
{ACAD_REACTORS
330
47
102
}
330
47
100
AcDbScale
 70
     0
300
1:16
140
1.0
141
16.0
290
     0
  0
SCALE
  5
4F
102
{ACAD_REACTORS
330
47
102
}
330
47
100
AcDbScale
 70
     0
300
1:20
140
1.0
141
20.0
290
     0
  0
SCALE
  5
50
102
{ACAD_REACTORS
330
47
102
}
330
47
100
AcDbScale
 70
     0
300
1:30
140
1.0
141
30.0
290
     0
  0
SCALE
  5
51
102
{ACAD_REACTORS
330
47
102
}
330
47
100
AcDbScale
 70
     0
300
1:40
140
1.0
141
40.0
290
     0
  0
SCALE
  5
52
102
{ACAD_REACTORS
330
47
102
}
330
47
100
AcDbScale
 70
     0
300
1:50
140
1.0
141
50.0
290
     0
  0
SCALE
  5
53
102
{ACAD_REACTORS
330
47
102
}
330
47
100
AcDbScale
 70
     0
300
1:100
140
1.0
141
100.0
290
     0
  0
SCALE
  5
54
102
{ACAD_REACTORS
330
47
102
}
330
47
100
AcDbScale
 70
     0
300
2:1
140
2.0
141
1.0
290
     0
  0
SCALE
  5
55
102
{ACAD_REACTORS
330
47
102
}
330
47
100
AcDbScale
 70
     0
300
4:1
140
4.0
141
1.0
290
     0
  0
SCALE
  5
56
102
{ACAD_REACTORS
330
47
102
}
330
47
100
AcDbScale
 70
     0
300
8:1
140
8.0
141
1.0
290
     0
  0
SCALE
  5
57
102
{ACAD_REACTORS
330
47
102
}
330
47
100
AcDbScale
 70
     0
300
10:1
140
10.0
141
1.0
290
     0
  0
SCALE
  5
58
102
{ACAD_REACTORS
330
47
102
}
330
47
100
AcDbScale
 70
     0
300
100:1
140
100.0
141
1.0
290
     0
  0
SCALE
  5
59
102
{ACAD_REACTORS
330
47
102
}
330
47
100
AcDbScale
 70
     0
300
1/128" = 1'-0"
140
0.0078125
141
12.0
290
     0
  0
SCALE
  5
5A
102
{ACAD_REACTORS
330
47
102
}
330
47
100
AcDbScale
 70
     0
300
1/64" = 1'-0"
140
0.015625
141
12.0
290
     0
  0
SCALE
  5
5B
102
{ACAD_REACTORS
330
47
102
}
330
47
100
AcDbScale
 70
     0
300
1/32" = 1'-0"
140
0.03125
141
12.0
290
     0
  0
SCALE
  5
5C
102
{ACAD_REACTORS
330
47
102
}
330
47
100
AcDbScale
 70
     0
300
1/16" = 1'-0"
140
0.0625
141
12.0
290
     0
  0
SCALE
  5
5D
102
{ACAD_REACTORS
330
47
102
}
330
47
100
AcDbScale
 70
     0
300
3/32" = 1'-0"
140
0.09375
141
12.0
290
     0
  0
SCALE
  5
5E
102
{ACAD_REACTORS
330
47
102
}
330
47
100
AcDbScale
 70
     0
300
1/8" = 1'-0"
140
0.125
141
12.0
290
     0
  0
SCALE
  5
5F
102
{ACAD_REACTORS
330
47
102
}
330
47
100
AcDbScale
 70
     0
300
3/16" = 1'-0"
140
0.1875
141
12.0
290
     0
  0
SCALE
  5
60
102
{ACAD_REACTORS
330
47
102
}
330
47
100
AcDbScale
 70
     0
300
1/4" = 1'-0"
140
0.25
141
12.0
290
     0
  0
SCALE
  5
61
102
{ACAD_REACTORS
330
47
102
}
330
47
100
AcDbScale
 70
     0
300
3/8" = 1'-0"
140
0.375
141
12.0
290
     0
  0
SCALE
  5
62
102
{ACAD_REACTORS
330
47
102
}
330
47
100
AcDbScale
 70
     0
300
1/2" = 1'-0"
140
0.5
141
12.0
290
     0
  0
SCALE
  5
63
102
{ACAD_REACTORS
330
47
102
}
330
47
100
AcDbScale
 70
     0
300
3/4" = 1'-0"
140
0.75
141
12.0
290
     0
  0
SCALE
  5
64
102
{ACAD_REACTORS
330
47
102
}
330
47
100
AcDbScale
 70
     0
300
1" = 1'-0"
140
1.0
141
12.0
290
     0
  0
SCALE
  5
65
102
{ACAD_REACTORS
330
47
102
}
330
47
100
AcDbScale
 70
     0
300
1-1/2" = 1'-0"
140
1.5
141
12.0
290
     0
  0
SCALE
  5
66
102
{ACAD_REACTORS
330
47
102
}
330
47
100
AcDbScale
 70
     0
300
3" = 1'-0"
140
3.0
141
12.0
290
     0
  0
SCALE
  5
67
102
{ACAD_REACTORS
330
47
102
}
330
47
100
AcDbScale
 70
     0
300
6" = 1'-0"
140
6.0
141
12.0
290
     0
  0
SCALE
  5
68
102
{ACAD_REACTORS
330
47
102
}
330
47
100
AcDbScale
 70
     0
300
1'-0" = 1'-0"
140
12.0
141
12.0
290
     0
  0
ENDSEC
  0
EOF
