  0
SECTION
  2
HEADER
  9
$ACADVER
  1
AC1015
  9
$ACADMAINTVER
 70
     6
  9
$DWGCODEPAGE
  3
ANSI_949
  9
$INSBASE
 10
0.0
 20
0.0
 30
0.0
  9
$EXTMIN
 10
-79.76375000000006
 20
-49.97180738881174
 30
0.0
  9
$EXTMAX
 10
81.41936447236121
 20
42.54150000000009
 30
0.0
  9
$LIMMIN
 10
0.0
 20
0.0
  9
$LIMMAX
 10
420.0
 20
297.0
  9
$ORTHOMODE
 70
     1
  9
$REGENMODE
 70
     1
  9
$FILLMODE
 70
     1
  9
$QTEXTMODE
 70
     0
  9
$MIRRTEXT
 70
     1
  9
$LTSCALE
 40
1.0
  9
$ATTMODE
 70
     1
  9
$TEXTSIZE
 40
3.5
  9
$TRACEWID
 40
1.0
  9
$TEXTSTYLE
  7
Standard
  9
$CLAYER
  8
0
  9
$CELTYPE
  6
ByLayer
  9
$CECOLOR
 62
   256
  9
$CELTSCALE
 40
1.0
  9
$DISPSILH
 70
     0
  9
$DIMSCALE
 40
1.0
  9
$DIMASZ
 40
3.302
  9
$DIMEXO
 40
1.0
  9
$DIMDLI
 40
3.75
  9
$DIMRND
 40
0.0
  9
$DIMDLE
 40
0.0
  9
$DIMEXE
 40
1.0
  9
$DIMTP
 40
0.0
  9
$DIMTM
 40
0.0
  9
$DIMTXT
 40
3.5
  9
$DIMCEN
 40
2.5
  9
$DIMTSZ
 40
0.0
  9
$DIMTOL
 70
     0
  9
$DIMLIM
 70
     0
  9
$DIMTIH
 70
     1
  9
$DIMTOH
 70
     1
  9
$DIMSE1
 70
     0
  9
$DIMSE2
 70
     0
  9
$DIMTAD
 70
     1
  9
$DIMZIN
 70
     0
  9
$DIMBLK
  1

  9
$DIMASO
 70
     1
  9
$DIMSHO
 70
     1
  9
$DIMPOST
  1

  9
$DIMAPOST
  1

  9
$DIMALT
 70
     0
  9
$DIMALTD
 70
     3
  9
$DIMALTF
 40
0.0393700787401575
  9
$DIMLFAC
 40
1.0
  9
$DIMTOFL
 70
     1
  9
$DIMTVP
 40
0.0
  9
$DIMTIX
 70
     0
  9
$DIMSOXD
 70
     0
  9
$DIMSAH
 70
     0
  9
$DIMBLK1
  1

  9
$DIMBLK2
  1

  9
$DIMSTYLE
  2
ISO-25
  9
$DIMCLRD
 70
     0
  9
$DIMCLRE
 70
     0
  9
$DIMCLRT
 70
     0
  9
$DIMTFAC
 40
1.0
  9
$DIMGAP
 40
1.524
  9
$DIMJUST
 70
     0
  9
$DIMSD1
 70
     0
  9
$DIMSD2
 70
     0
  9
$DIMTOLJ
 70
     0
  9
$DIMTZIN
 70
     0
  9
$DIMALTZ
 70
     0
  9
$DIMALTTZ
 70
     0
  9
$DIMUPT
 70
     0
  9
$DIMDEC
 70
     2
  9
$DIMTDEC
 70
     2
  9
$DIMALTU
 70
     2
  9
$DIMALTTD
 70
     3
  9
$DIMTXSTY
  7
Standard
  9
$DIMAUNIT
 70
     0
  9
$DIMADEC
 70
     2
  9
$DIMALTRND
 40
0.0
  9
$DIMAZIN
 70
     0
  9
$DIMDSEP
 70
    44
  9
$DIMATFIT
 70
     3
  9
$DIMFRAC
 70
     0
  9
$DIMLDRBLK
  1

  9
$DIMLUNIT
 70
     2
  9
$DIMLWD
 70
    -2
  9
$DIMLWE
 70
    -2
  9
$DIMTMOVE
 70
     0
  9
$LUNITS
 70
     2
  9
$LUPREC
 70
     2
  9
$SKETCHINC
 40
1.0
  9
$FILLETRAD
 40
10.0
  9
$AUNITS
 70
     0
  9
$AUPREC
 70
     2
  9
$MENU
  1
.
  9
$ELEVATION
 40
0.0
  9
$PELEVATION
 40
0.0
  9
$THICKNESS
 40
0.0
  9
$LIMCHECK
 70
     0
  9
$CHAMFERA
 40
0.0
  9
$CHAMFERB
 40
0.0
  9
$CHAMFERC
 40
0.0
  9
$CHAMFERD
 40
0.0
  9
$SKPOLY
 70
     0
  9
$TDCREATE
 40
2458313.474624908
  9
$TDUCREATE
 40
2458313.099624908
  9
$TDUPDATE
 40
2458319.486295127
  9
$TDUUPDATE
 40
2458319.111295127
  9
$TDINDWG
 40
0.0024502894
  9
$TDUSRTIMER
 40
2458319.111260208
  9
$USRTIMER
 70
     1
  9
$ANGBASE
 50
0.0
  9
$ANGDIR
 70
     0
  9
$PDMODE
 70
     0
  9
$PDSIZE
 40
-1.0
  9
$PLINEWID
 40
0.0
  9
$SPLFRAME
 70
     0
  9
$SPLINETYPE
 70
     6
  9
$SPLINESEGS
 70
     8
  9
$HANDSEED
  5
3EE
  9
$SURFTAB1
 70
     6
  9
$SURFTAB2
 70
     6
  9
$SURFTYPE
 70
     6
  9
$SURFU
 70
     6
  9
$SURFV
 70
     6
  9
$UCSBASE
  2

  9
$UCSNAME
  2

  9
$UCSORG
 10
0.0
 20
0.0
 30
0.0
  9
$UCSXDIR
 10
1.0
 20
0.0
 30
0.0
  9
$UCSYDIR
 10
0.0
 20
1.0
 30
0.0
  9
$UCSORTHOREF
  2

  9
$UCSORTHOVIEW
 70
     0
  9
$UCSORGTOP
 10
0.0
 20
0.0
 30
0.0
  9
$UCSORGBOTTOM
 10
0.0
 20
0.0
 30
0.0
  9
$UCSORGLEFT
 10
0.0
 20
0.0
 30
0.0
  9
$UCSORGRIGHT
 10
0.0
 20
0.0
 30
0.0
  9
$UCSORGFRONT
 10
0.0
 20
0.0
 30
0.0
  9
$UCSORGBACK
 10
0.0
 20
0.0
 30
0.0
  9
$PUCSBASE
  2

  9
$PUCSNAME
  2

  9
$PUCSORG
 10
0.0
 20
0.0
 30
0.0
  9
$PUCSXDIR
 10
1.0
 20
0.0
 30
0.0
  9
$PUCSYDIR
 10
0.0
 20
1.0
 30
0.0
  9
$PUCSORTHOREF
  2

  9
$PUCSORTHOVIEW
 70
     0
  9
$PUCSORGTOP
 10
0.0
 20
0.0
 30
0.0
  9
$PUCSORGBOTTOM
 10
0.0
 20
0.0
 30
0.0
  9
$PUCSORGLEFT
 10
0.0
 20
0.0
 30
0.0
  9
$PUCSORGRIGHT
 10
0.0
 20
0.0
 30
0.0
  9
$PUCSORGFRONT
 10
0.0
 20
0.0
 30
0.0
  9
$PUCSORGBACK
 10
0.0
 20
0.0
 30
0.0
  9
$USERI1
 70
     0
  9
$USERI2
 70
     0
  9
$USERI3
 70
     0
  9
$USERI4
 70
     0
  9
$USERI5
 70
     0
  9
$USERR1
 40
0.0
  9
$USERR2
 40
0.0
  9
$USERR3
 40
0.0
  9
$USERR4
 40
0.0
  9
$USERR5
 40
0.0
  9
$WORLDVIEW
 70
     1
  9
$SHADEDGE
 70
     3
  9
$SHADEDIF
 70
    70
  9
$TILEMODE
 70
     1
  9
$MAXACTVP
 70
    64
  9
$PINSBASE
 10
0.0
 20
0.0
 30
0.0
  9
$PLIMCHECK
 70
     0
  9
$PEXTMIN
 10
1.000000000000000E+20
 20
1.000000000000000E+20
 30
1.000000000000000E+20
  9
$PEXTMAX
 10
-1.000000000000000E+20
 20
-1.000000000000000E+20
 30
-1.000000000000000E+20
  9
$PLIMMIN
 10
0.0
 20
0.0
  9
$PLIMMAX
 10
0.0
 20
0.0
  9
$UNITMODE
 70
     0
  9
$VISRETAIN
 70
     1
  9
$PLINEGEN
 70
     0
  9
$PSLTSCALE
 70
     1
  9
$TREEDEPTH
 70
  3020
  9
$CMLSTYLE
  2
Standard
  9
$CMLJUST
 70
     0
  9
$CMLSCALE
 40
20.0
  9
$PROXYGRAPHICS
 70
     1
  9
$MEASUREMENT
 70
     1
  9
$CELWEIGHT
370
    -1
  9
$ENDCAPS
280
     0
  9
$JOINSTYLE
280
     0
  9
$LWDISPLAY
290
     1
  9
$INSUNITS
 70
     4
  9
$HYPERLINKBASE
  1

  9
$STYLESHEET
  1

  9
$XEDIT
290
     1
  9
$CEPSNTYPE
380
     0
  9
$PSTYLEMODE
290
     1
  9
$FINGERPRINTGUID
  2
{8D4704B4-3663-4AE4-980C-5CEA31B85D5F}
  9
$VERSIONGUID
  2
{FAEB1C32-E019-11D5-929B-00C0DF256EC4}
  9
$EXTNAMES
290
     1
  9
$PSVPSCALE
 40
0.0
  9
$OLESTARTUP
290
     0
  0
ENDSEC
  0
SECTION
  2
CLASSES
  0
CLASS
  1
ACDBDICTIONARYWDFLT
  2
AcDbDictionaryWithDefault
  3
ObjectDBX Classes
 90
        0
280
     0
281
     0
  0
CLASS
  1
VISUALSTYLE
  2
AcDbVisualStyle
  3
ObjectDBX Classes
 90
     4095
280
     0
281
     0
  0
CLASS
  1
MATERIAL
  2
AcDbMaterial
  3
ObjectDBX Classes
 90
     1153
280
     0
281
     0
  0
CLASS
  1
SCALE
  2
AcDbScale
  3
ObjectDBX Classes
 90
     1153
280
     0
281
     0
  0
CLASS
  1
SUN
  2
AcDbSun
  3
SCENEOE
 90
     1153
280
     0
281
     0
  0
CLASS
  1
ACDBPLACEHOLDER
  2
AcDbPlaceHolder
  3
ObjectDBX Classes
 90
        0
280
     0
281
     0
  0
CLASS
  1
LAYOUT
  2
AcDbLayout
  3
ObjectDBX Classes
 90
        0
280
     0
281
     0
  0
CLASS
  1
TABLESTYLE
  2
AcDbTableStyle
  3
ObjectDBX Classes
 90
     4095
280
     0
281
     0
  0
CLASS
  1
MLEADERSTYLE
  2
AcDbMLeaderStyle
  3
ACDB_MLEADERSTYLE_CLASS
 90
     4095
280
     0
281
     0
  0
CLASS
  1
RASTERVARIABLES
  2
AcDbRasterVariables
  3
ISM
 90
        0
280
     0
281
     0
  0
ENDSEC
  0
SECTION
  2
TABLES
  0
TABLE
  2
VPORT
  5
8
330
0
100
AcDbSymbolTable
 70
     1
  0
VPORT
  5
29
330
8
100
AcDbSymbolTableRecord
100
AcDbViewportTableRecord
  2
*Active
 70
     0
 10
0.0
 20
0.0
 11
1.0
 21
1.0
 12
-1.366985231313439
 22
-1.510776308296544
 13
0.0
 23
0.0
 14
10.0
 24
10.0
 15
10.0
 25
10.0
 16
0.0
 26
0.0
 36
1.0
 17
0.0
 27
0.0
 37
0.0
 40
131.5276704235206
 41
1.632093933463796
 42
50.0
 43
0.0
 44
0.0
 50
0.0
 51
0.0
 71
    16
 72
  2000
 73
     1
 74
     3
 75
     0
 76
     0
 77
     0
 78
     0
281
     0
 65
     1
110
0.0
120
0.0
130
0.0
111
1.0
121
0.0
131
0.0
112
0.0
122
1.0
132
0.0
 79
     0
146
0.0
  0
ENDTAB
  0
TABLE
  2
LTYPE
  5
5
330
0
100
AcDbSymbolTable
 70
     6
  0
LTYPE
  5
14
330
5
100
AcDbSymbolTableRecord
100
AcDbLinetypeTableRecord
  2
ByBlock
 70
     0
  3

 72
    65
 73
     0
 40
0.0
  0
LTYPE
  5
15
330
5
100
AcDbSymbolTableRecord
100
AcDbLinetypeTableRecord
  2
ByLayer
 70
     0
  3

 72
    65
 73
     0
 40
0.0
  0
LTYPE
  5
16
330
5
100
AcDbSymbolTableRecord
100
AcDbLinetypeTableRecord
  2
Continuous
 70
     0
  3
Solid line
 72
    65
 73
     0
 40
0.0
  0
LTYPE
  5
6A
330
5
100
AcDbSymbolTableRecord
100
AcDbLinetypeTableRecord
  2
HIDDEN
 70
     0
  3
Hidden __ __ __ __ __ __ __ __ __ __ __ __ __ __
 72
    65
 73
     2
 40
1.905
 49
1.27
 74
     0
 49
-0.635
 74
     0
  0
LTYPE
  5
6B
330
5
100
AcDbSymbolTableRecord
100
AcDbLinetypeTableRecord
  2
PHANTOM
 70
     0
  3
Phantom ______  __  __  ______  __  __  ______
 72
    65
 73
     6
 40
12.7
 49
6.35
 74
     0
 49
-1.27
 74
     0
 49
1.27
 74
     0
 49
-1.27
 74
     0
 49
1.27
 74
     0
 49
-1.27
 74
     0
  0
LTYPE
  5
6C
330
5
100
AcDbSymbolTableRecord
100
AcDbLinetypeTableRecord
  2
CENTER
 70
     0
  3
Center ____ _ ____ _ ____ _ ____ _ ____ _ ____
 72
    65
 73
     4
 40
10.16
 49
6.35
 74
     0
 49
-1.27
 74
     0
 49
1.27
 74
     0
 49
-1.27
 74
     0
  0
LTYPE
  5
6D
330
5
100
AcDbSymbolTableRecord
100
AcDbLinetypeTableRecord
  2
CENTERX2
 70
     0
  3
Center (2x) ________  __  ________  __  _____
 72
    65
 73
     4
 40
20.32
 49
12.7
 74
     0
 49
-2.54
 74
     0
 49
2.54
 74
     0
 49
-2.54
 74
     0
  0
LTYPE
  5
6E
330
5
100
AcDbSymbolTableRecord
100
AcDbLinetypeTableRecord
  2
DOT2
 70
     0
  3
Dot (.5x) ........................................
 72
    65
 73
     2
 40
0.635
 49
0.0
 74
     0
 49
-0.635
 74
     0
  0
ENDTAB
  0
TABLE
  2
LAYER
  5
2
102
{ACAD_XDICTIONARY
360
1CE
102
}
330
0
100
AcDbSymbolTable
 70
    18
  0
LAYER
  5
10
330
2
100
AcDbSymbolTableRecord
100
AcDbLayerTableRecord
  2
0
 70
     0
 62
     7
  6
Continuous
370
    -3
390
F
  0
LAYER
  5
6F
330
2
100
AcDbSymbolTableRecord
100
AcDbLayerTableRecord
  2
FORMAT
 70
     0
 62
     2
  6
Continuous
370
    -3
390
F
  0
LAYER
  5
70
330
2
100
AcDbSymbolTableRecord
100
AcDbLayerTableRecord
  2
외형선
 70
     0
 62
     4
  6
Continuous
370
    30
390
F
  0
LAYER
  5
71
330
2
100
AcDbSymbolTableRecord
100
AcDbLayerTableRecord
  2
숨은선
 70
     0
 62
     2
  6
HIDDEN
370
    15
390
F
  0
LAYER
  5
72
330
2
100
AcDbSymbolTableRecord
100
AcDbLayerTableRecord
  2
중심선
 70
     0
 62
     1
  6
CENTERX2
370
    -3
390
F
  0
LAYER
  5
73
330
2
100
AcDbSymbolTableRecord
100
AcDbLayerTableRecord
  2
파단선
 70
     0
 62
     4
  6
Continuous
370
    -3
390
F
  0
LAYER
  5
74
330
2
100
AcDbSymbolTableRecord
100
AcDbLayerTableRecord
  2
해칭선
 70
     0
 62
   100
  6
Continuous
370
    -3
390
F
  0
LAYER
  5
75
330
2
100
AcDbSymbolTableRecord
100
AcDbLayerTableRecord
  2
가는실선
 70
     0
 62
     4
  6
Continuous
370
    -3
390
F
  0
LAYER
  5
76
330
2
100
AcDbSymbolTableRecord
100
AcDbLayerTableRecord
  2
치수_보조선
 70
     0
 62
     4
  6
Continuous
370
    -3
390
F
  0
LAYER
  5
77
330
2
100
AcDbSymbolTableRecord
100
AcDbLayerTableRecord
  2
치수문자_일반주서
 70
     0
 62
     7
  6
Continuous
370
    15
390
F
  0
LAYER
  5
78
330
2
100
AcDbSymbolTableRecord
100
AcDbLayerTableRecord
  2
개별주서
 70
     0
 62
   100
  6
Continuous
370
    30
390
F
  0
LAYER
  5
79
330
2
100
AcDbSymbolTableRecord
100
AcDbLayerTableRecord
  2
중간선
 70
     0
 62
     2
  6
Continuous
370
    15
390
F
  0
LAYER
  5
7A
330
2
100
AcDbSymbolTableRecord
100
AcDbLayerTableRecord
  2
윤곽선
 70
     0
 62
     3
  6
Continuous
370
    40
390
F
  0
LAYER
  5
7B
330
2
100
AcDbSymbolTableRecord
100
AcDbLayerTableRecord
  2
중심마크
 70
     0
 62
   100
  6
Continuous
370
    30
390
F
  0
LAYER
  5
7C
330
2
100
AcDbSymbolTableRecord
100
AcDbLayerTableRecord
  2
가상선
 70
     0
 62
     4
  6
PHANTOM
370
    -3
390
F
  0
LAYER
  5
7D
330
2
100
AcDbSymbolTableRecord
100
AcDbLayerTableRecord
  2
특수지정선
 70
     0
 62
     5
  6
CENTERX2
370
    60
390
F
  0
LAYER
  5
7E
330
2
100
AcDbSymbolTableRecord
100
AcDbLayerTableRecord
  2
참조1
 70
     0
 62
    -4
  6
Continuous
370
    -3
390
F
  0
LAYER
  5
149
330
2
100
AcDbSymbolTableRecord
100
AcDbLayerTableRecord
  2
Defpoints
 70
     0
 62
     7
  6
Continuous
290
     0
370
    -3
390
F
  0
ENDTAB
  0
TABLE
  2
STYLE
  5
3
330
0
100
AcDbSymbolTable
 70
     2
  0
STYLE
  5
11
330
3
100
AcDbSymbolTableRecord
100
AcDbTextStyleTableRecord
  2
Standard
 70
     0
 40
0.0
 41
1.0
 50
0.0
 71
     0
 42
3.5
  3
txt
  4

  0
STYLE
  5
94
330
3
100
AcDbSymbolTableRecord
100
AcDbTextStyleTableRecord
  2
SLDTEXTSTYLE0
 70
     0
 40
0.0
 41
0.75
 50
0.0
 71
     0
 42
3.5
  3
TXT
  4

  0
ENDTAB
  0
TABLE
  2
VIEW
  5
6
330
0
100
AcDbSymbolTable
 70
     0
  0
ENDTAB
  0
TABLE
  2
UCS
  5
7
330
0
100
AcDbSymbolTable
 70
     0
  0
ENDTAB
  0
TABLE
  2
APPID
  5
9
330
0
100
AcDbSymbolTable
 70
     1
  0
APPID
  5
12
330
9
100
AcDbSymbolTableRecord
100
AcDbRegAppTableRecord
  2
ACAD
 70
     0
  0
ENDTAB
  0
TABLE
  2
DIMSTYLE
  5
A
330
0
100
AcDbSymbolTable
 70
     4
100
AcDbDimStyleTable
  0
DIMSTYLE
105
27
330
A
100
AcDbSymbolTableRecord
100
AcDbDimStyleTableRecord
  2
ISO-25
 70
     0
 41
2.5
 42
0.625
 43
3.75
 44
1.25
 73
     0
 74
     0
 77
     1
 78
     8
140
2.5
141
2.5
143
0.03937007874016
147
0.625
171
     3
172
     1
178
     0
271
     2
272
     2
274
     3
278
    44
283
     0
284
     8
340
11
  0
DIMSTYLE
105
C7
330
A
100
AcDbSymbolTableRecord
100
AcDbDimStyleTableRecord
  2
SLDDIMSTYLE0
 70
     0
 41
3.302
 44
0.0
 45
0.000000001
 73
     0
 74
     0
 77
     1
 78
    12
 79
     3
140
3.5
143
0.0393700787401575
147
0.875
148
0.000000001
170
     1
173
     1
178
     0
271
     2
272
     2
276
     2
284
    12
340
94
  0
DIMSTYLE
105
102
330
A
100
AcDbSymbolTableRecord
100
AcDbDimStyleTableRecord
  2
SLDDIMSTYLE1
 70
     0
 41
3.302
 44
0.0
 45
0.000000001
 73
     0
 74
     0
 77
     1
 78
    12
 79
     3
140
3.5
143
0.0393700787401575
147
0.875
148
0.000000001
170
     1
172
     1
173
     1
178
     0
271
     2
272
     2
276
     2
284
    12
289
     0
340
94
  0
DIMSTYLE
105
152
102
{ACAD_REACTORS
330
C6
330
DA
330
EE
330
101
102
}
330
A
100
AcDbSymbolTableRecord
100
AcDbDimStyleTableRecord
  2
SLDDIMSTYLE2
 70
     0
 41
3.302
 44
0.0
 45
0.000000001
 73
     0
 74
     0
 77
     1
 78
     4
 79
     1
140
3.5
143
0.0393700787401575
147
0.875
148
0.000000001
170
     1
172
     1
173
     1
178
     0
271
     2
272
     2
276
     2
284
    12
289
     0
340
94
  0
ENDTAB
  0
TABLE
  2
BLOCK_RECORD
  5
1
330
0
100
AcDbSymbolTable
 70
    19
  0
BLOCK_RECORD
  5
1F
330
1
100
AcDbSymbolTableRecord
100
AcDbBlockTableRecord
  2
*Model_Space
340
22
  0
BLOCK_RECORD
  5
1B
330
1
100
AcDbSymbolTableRecord
100
AcDbBlockTableRecord
  2
*Paper_Space
340
1E
  0
BLOCK_RECORD
  5
23
330
1
100
AcDbSymbolTableRecord
100
AcDbBlockTableRecord
  2
*Paper_Space0
340
26
  0
BLOCK_RECORD
  5
7F
330
1
100
AcDbSymbolTableRecord
100
AcDbBlockTableRecord
  2
블럭10
340
0
102
{BLKREFS
331
BF
102
}
  0
BLOCK_RECORD
  5
C8
330
1
100
AcDbSymbolTableRecord
100
AcDbBlockTableRecord
  2
_D
340
0
  0
BLOCK_RECORD
  5
DB
330
1
100
AcDbSymbolTableRecord
100
AcDbBlockTableRecord
  2
_D_1
340
0
  0
BLOCK_RECORD
  5
EF
330
1
100
AcDbSymbolTableRecord
100
AcDbBlockTableRecord
  2
_D_2
340
0
  0
BLOCK_RECORD
  5
103
330
1
100
AcDbSymbolTableRecord
100
AcDbBlockTableRecord
  2
_D_3
340
0
  0
BLOCK_RECORD
  5
11D
330
1
100
AcDbSymbolTableRecord
100
AcDbBlockTableRecord
  2
SW_DOWELSYMBOL_0
340
0
102
{BLKREFS
331
123
102
}
  0
BLOCK_RECORD
  5
1D2
330
1
100
AcDbSymbolTableRecord
100
AcDbBlockTableRecord
  2
*D7
340
0
  0
BLOCK_RECORD
  5
1E1
330
1
100
AcDbSymbolTableRecord
100
AcDbBlockTableRecord
  2
*D8
340
0
  0
BLOCK_RECORD
  5
1F0
330
1
100
AcDbSymbolTableRecord
100
AcDbBlockTableRecord
  2
*D9
340
0
  0
BLOCK_RECORD
  5
229
330
1
100
AcDbSymbolTableRecord
100
AcDbBlockTableRecord
  2
*D10
340
0
  0
BLOCK_RECORD
  5
238
330
1
100
AcDbSymbolTableRecord
100
AcDbBlockTableRecord
  2
*D11
340
0
  0
BLOCK_RECORD
  5
247
330
1
100
AcDbSymbolTableRecord
100
AcDbBlockTableRecord
  2
*D12
340
0
  0
BLOCK_RECORD
  5
2DA
330
1
100
AcDbSymbolTableRecord
100
AcDbBlockTableRecord
  2
*D13
340
0
  0
BLOCK_RECORD
  5
2E9
330
1
100
AcDbSymbolTableRecord
100
AcDbBlockTableRecord
  2
*D14
340
0
  0
BLOCK_RECORD
  5
2F8
330
1
100
AcDbSymbolTableRecord
100
AcDbBlockTableRecord
  2
*D15
340
0
  0
BLOCK_RECORD
  5
32A
330
1
100
AcDbSymbolTableRecord
100
AcDbBlockTableRecord
  2
*D16
340
0
  0
BLOCK_RECORD
  5
339
330
1
100
AcDbSymbolTableRecord
100
AcDbBlockTableRecord
  2
*D17
340
0
  0
BLOCK_RECORD
  5
348
330
1
100
AcDbSymbolTableRecord
100
AcDbBlockTableRecord
  2
*D18
340
0
  0
ENDTAB
  0
ENDSEC
  0
SECTION
  2
BLOCKS
  0
BLOCK
  5
20
330
1F
100
AcDbEntity
  8
0
100
AcDbBlockBegin
  2
*Model_Space
 70
     0
 10
0.0
 20
0.0
 30
0.0
  3
*Model_Space
  1
*Model_Space
  0
ENDBLK
  5
21
330
1F
100
AcDbEntity
  8
0
100
AcDbBlockEnd
  0
BLOCK
  5
1C
330
1B
100
AcDbEntity
 67
     1
  8
0
100
AcDbBlockBegin
  2
*Paper_Space
 70
     0
 10
0.0
 20
0.0
 30
0.0
  3
*Paper_Space
  1
*Paper_Space
  0
ENDBLK
  5
1D
330
1B
100
AcDbEntity
 67
     1
  8
0
100
AcDbBlockEnd
  0
BLOCK
  5
24
330
23
100
AcDbEntity
  8
0
100
AcDbBlockBegin
  2
*Paper_Space0
 70
     0
 10
0.0
 20
0.0
 30
0.0
  3
*Paper_Space0
  1
*Paper_Space0
  0
ENDBLK
  5
25
330
23
100
AcDbEntity
  8
0
100
AcDbBlockEnd
  0
BLOCK
  5
80
330
7F
100
AcDbEntity
  8
0
100
AcDbBlockBegin
  2
블럭10
 70
     2
 10
0.0
 20
0.0
 30
0.0
  3
블럭10
  1
블럭10
  0
ELLIPSE
  5
82
330
7F
100
AcDbEntity
  8
중심선
100
AcDbEllipse
 10
20.54032771741204
 20
12.0471743016438
 30
0.0
 11
6.600054785286829
 21
-1.261213355974178E-13
 31
0.0
210
0.0
220
0.0
230
1.0
 40
0.636358354079598
 41
0.9219305317359503
 42
6.513795318482858
  0
ELLIPSE
  5
83
330
7F
100
AcDbEntity
  8
중심선
100
AcDbEllipse
 10
20.54032771746488
 20
12.04717430159265
 30
0.0
 11
3.960054785062283
 21
1.540847449632565E-10
 31
0.0
210
0.0
220
0.0
230
1.0
 40
0.3939339440162632
 41
1.131841032648279
 42
5.62031148352944
  0
LINE
  5
84
330
7F
100
AcDbEntity
  8
중심선
100
AcDbLine
 10
2.268634060543552
 20
16.24717430164393
 30
0.0
 11
5.714909304380834
 21
16.24717430164393
 31
0.0
  0
LINE
  5
85
330
7F
100
AcDbEntity
  8
중심선
100
AcDbLine
 10
5.245725140726316
 20
7.84717430164391
 30
0.0
 11
8.692000384563599
 21
7.84717430164391
 31
0.0
  0
LINE
  5
86
330
7F
100
AcDbEntity
  8
중심선
100
AcDbLine
 10
15.74043728645272
 20
16.24717430164393
 30
0.0
 11
8.692000384563599
 21
7.84717430164391
 31
0.0
  0
LINE
  5
87
330
7F
100
AcDbEntity
  8
중심선
100
AcDbLine
 10
0.1404042013395286
 20
13.71084872107135
 30
0.0
 11
3.58671253028996
 21
13.71088815037384
 31
0.0
  0
LINE
  5
88
330
7F
100
AcDbEntity
  8
중심선
100
AcDbLine
 10
2.750260043222114
 20
10.84717430164391
 30
0.0
 11
6.196535287059397
 21
10.84717430164391
 31
0.0
  0
LINE
  5
89
330
7F
100
AcDbEntity
  8
중심선
100
AcDbLine
 10
12.29416204261559
 20
16.24717430164393
 30
0.0
 11
5.245725140726316
 21
7.84717430164391
 31
0.0
  0
LINE
  5
8A
330
7F
100
AcDbEntity
  8
중심선
100
AcDbLine
 10
10.72767329541681
 20
16.24717430164393
 30
0.0
 11
6.196535287059397
 21
10.84717430164391
 31
0.0
  0
LINE
  5
8B
330
7F
100
AcDbEntity
  8
중심선
100
AcDbLine
 10
7.28139805157953
 20
16.24717430164393
 30
0.0
 11
2.750260043222114
 21
10.84717430164391
 31
0.0
  0
LINE
  5
8C
330
7F
100
AcDbEntity
  8
중심선
100
AcDbLine
 10
5.714909304380834
 20
16.24717430164393
 30
0.0
 11
3.58671253028996
 21
13.71088815037384
 31
0.0
  0
LINE
  5
8D
330
7F
100
AcDbEntity
  8
중심선
100
AcDbLine
 10
2.268634060543552
 20
16.24717430164393
 30
0.0
 11
0.1404042013395286
 21
13.71084872107135
 31
0.0
  0
LINE
  5
8E
330
7F
100
AcDbEntity
  8
중심선
100
AcDbLine
 10
7.28139805157953
 20
16.24717430164393
 30
0.0
 11
10.72767329541681
 21
16.24717430164393
 31
0.0
  0
LINE
  5
8F
330
7F
100
AcDbEntity
  8
중심선
100
AcDbLine
 10
12.29416204261559
 20
16.24717430164393
 30
0.0
 11
15.74043728645272
 21
16.24717430164393
 31
0.0
  0
LINE
  5
90
330
7F
100
AcDbEntity
  8
중심선
100
AcDbLine
 10
19.22036997980202
 20
11.08717430171403
 30
0.0
 11
23.66174974927406
 21
11.08717430171406
 31
0.0
  0
LINE
  5
91
330
7F
100
AcDbEntity
  8
중심선
100
AcDbLine
 10
19.22039502424796
 20
13.00717430171391
 30
0.0
 11
19.22036997980202
 21
11.08717430171403
 31
0.0
  0
LINE
  5
92
330
7F
100
AcDbEntity
  8
중심선
100
AcDbLine
 10
19.22039502424796
 20
13.00717430171391
 30
0.0
 11
26.96566020931264
 21
13.00717430171391
 31
0.0
  0
LINE
  5
93
330
7F
100
AcDbEntity
  8
중심선
100
AcDbLine
 10
22.22332737316547
 20
13.45928029700563
 30
0.0
 11
24.52862924686651
 21
15.39360700705356
 31
0.0
  0
ATTDEF
  5
95
330
7F
100
AcDbEntity
  8
FORMAT
 62
     2
100
AcDbText
 10
4.408487351596664
 20
2.075366912832191
 30
0.0
 40
4.233333333333333
  1
E1053040
 41
0.75
  7
SLDTEXTSTYLE0
 11
4.408487351596664
 21
-0.0412997538344756
 31
0.0
100
AcDbAttributeDefinition
  3

  2
AUTOATTR0
 70
     0
 74
     1
  0
ENDBLK
  5
81
330
7F
100
AcDbEntity
  8
0
100
AcDbBlockEnd
  0
BLOCK
  5
C9
330
C8
100
AcDbEntity
  8
0
100
AcDbBlockBegin
  2
_D
 70
     0
 10
0.0
 20
0.0
 30
0.0
  3
_D
  1
_D
  0
LINE
  5
CB
330
C8
100
AcDbEntity
  8
치수문자_일반주서
 62
     0
370
    -2
100
AcDbLine
 10
63.5625
 20
7.937500000000008
 30
0.0
 11
76.39625148254144
 21
7.937500000000053
 31
0.0
  0
LINE
  5
CC
330
C8
100
AcDbEntity
  8
치수문자_일반주서
 62
     0
370
    -2
100
AcDbLine
 10
63.5625
 20
-7.937499999999992
 30
0.0
 11
76.3962514825415
 21
-7.937499999999943
 31
0.0
  0
LINE
  5
CD
330
C8
100
AcDbEntity
  8
치수문자_일반주서
 62
     0
370
    -2
100
AcDbLine
 10
76.39625148254144
 20
7.937500000000053
 30
0.0
 11
76.39625148254132
 21
42.54150000000009
 31
0.0
  0
LINE
  5
CE
330
C8
100
AcDbEntity
  8
치수문자_일반주서
 62
     0
370
    -2
100
AcDbLine
 10
76.39625148254144
 20
7.937500000000053
 30
0.0
 11
76.3962514825415
 21
-7.937499999999943
 31
0.0
  0
LINE
  5
CF
330
C8
100
AcDbEntity
  8
치수문자_일반주서
 62
     0
370
    -2
100
AcDbLine
 10
76.39625148254143
 20
11.23950000000005
 30
0.0
 11
76.39625148254142
 21
14.54150000000005
 31
0.0
  0
LINE
  5
D0
330
C8
100
AcDbEntity
  8
치수문자_일반주서
 62
     0
370
    -2
100
AcDbLine
 10
76.39625148254152
 20
-11.23949999999994
 30
0.0
 11
76.39625148254153
 21
-14.54149999999994
 31
0.0
  0
SOLID
  5
D1
330
C8
100
AcDbEntity
  8
치수문자_일반주서
 62
     0
100
AcDbTrace
 10
75.8459181492081
 20
11.23950000000005
 30
0.0
 11
76.94658481587476
 21
11.23950000000005
 31
0.0
 12
76.39625148254144
 22
7.937500000000053
 32
0.0
 13
76.39625148254144
 23
7.937500000000053
 33
0.0
  0
SOLID
  5
D2
330
C8
100
AcDbEntity
  8
치수문자_일반주서
 62
     0
100
AcDbTrace
 10
76.94658481587484
 20
-11.23949999999994
 30
0.0
 11
75.84591814920819
 21
-11.23949999999994
 31
0.0
 12
76.3962514825415
 22
-7.937499999999943
 32
0.0
 13
76.3962514825415
 23
-7.937499999999943
 33
0.0
  0
MTEXT
  5
D3
330
C8
100
AcDbEntity
  8
치수문자_일반주서
 62
     0
100
AcDbMText
 10
72.02125148254137
 20
28.54150000000007
 30
0.0
 40
3.5
 41
0.0
 71
     2
 72
     1
  1
\A1;%%c15.88 [5/8]
  7
SLDTEXTSTYLE0
 11
-3.580687802255623E-15
 21
1.0
 31
0.0
 73
     1
 44
1.0
  0
POINT
  5
D4
330
C8
100
AcDbEntity
  8
Defpoints
 62
     0
100
AcDbPoint
 10
63.5
 20
7.937500000000008
 30
0.0
  0
POINT
  5
253
330
C8
100
AcDbEntity
  8
Defpoints
 62
     0
100
AcDbPoint
 10
63.5
 20
-7.937499999999992
 30
0.0
  0
POINT
  5
254
330
C8
100
AcDbEntity
  8
Defpoints
 62
     0
100
AcDbPoint
 10
76.3962514825415
 20
-7.937499999999944
 30
0.0
  0
ENDBLK
  5
CA
330
C8
100
AcDbEntity
  8
0
100
AcDbBlockEnd
  0
BLOCK
  5
DC
330
DB
100
AcDbEntity
  8
0
100
AcDbBlockBegin
  2
_D_1
 70
     0
 10
0.0
 20
0.0
 30
0.0
  3
_D_1
  1
_D_1
  0
LINE
  5
DE
330
DB
100
AcDbEntity
  8
치수문자_일반주서
 62
     0
370
    -2
100
AcDbLine
 10
63.5
 20
8.000000000000007
 30
0.0
 11
63.5
 21
23.08779445861233
 31
0.0
  0
LINE
  5
DF
330
DB
100
AcDbEntity
  8
치수문자_일반주서
 62
     0
370
    -2
100
AcDbLine
 10
28.57499999999998
 20
7.894179314199626
 30
0.0
 11
28.57499999999998
 21
23.08779445861233
 31
0.0
  0
LINE
  5
E0
330
DB
100
AcDbEntity
  8
치수문자_일반주서
 62
     0
370
    -2
100
AcDbLine
 10
28.57499999999998
 20
23.08779445861233
 30
0.0
 11
-19.96277537578766
 21
23.08779445861233
 31
0.0
  0
LINE
  5
E1
330
DB
100
AcDbEntity
  8
치수문자_일반주서
 62
     0
370
    -2
100
AcDbLine
 10
63.5
 20
23.08779445861233
 30
0.0
 11
28.57499999999998
 21
23.08779445861233
 31
0.0
  0
LINE
  5
E2
330
DB
100
AcDbEntity
  8
치수문자_일반주서
 62
     0
370
    -2
100
AcDbLine
 10
66.80199999999999
 20
23.08779445861233
 30
0.0
 11
70.10399999999998
 21
23.08779445861233
 31
0.0
  0
LINE
  5
E3
330
DB
100
AcDbEntity
  8
치수문자_일반주서
 62
     0
370
    -2
100
AcDbLine
 10
25.27299999999998
 20
23.08779445861233
 30
0.0
 11
21.97099999999998
 21
23.08779445861233
 31
0.0
  0
SOLID
  5
E4
330
DB
100
AcDbEntity
  8
치수문자_일반주서
 62
     0
100
AcDbTrace
 10
66.80199999999999
 20
23.63812779194566
 30
0.0
 11
66.80199999999999
 21
22.53746112527899
 31
0.0
 12
63.5
 22
23.08779445861233
 32
0.0
 13
63.5
 23
23.08779445861233
 33
0.0
  0
SOLID
  5
E5
330
DB
100
AcDbEntity
  8
치수문자_일반주서
 62
     0
100
AcDbTrace
 10
25.27299999999998
 20
22.53746112527899
 30
0.0
 11
25.27299999999998
 21
23.63812779194566
 31
0.0
 12
28.57499999999998
 22
23.08779445861233
 32
0.0
 13
28.57499999999998
 23
23.08779445861233
 33
0.0
  0
MTEXT
  5
E6
330
DB
100
AcDbEntity
  8
치수문자_일반주서
 62
     0
100
AcDbMText
 10
-4.650275375787658
 20
27.46279445861233
 30
0.0
 40
3.5
 41
0.0
 71
     2
 72
     1
  1
\A1;34.93 [1 3/8]
  7
SLDTEXTSTYLE0
 73
     1
 44
1.0
  0
POINT
  5
E7
330
DB
100
AcDbEntity
  8
Defpoints
 62
     0
100
AcDbPoint
 10
63.5
 20
7.937500000000008
 30
0.0
  0
POINT
  5
255
330
DB
100
AcDbEntity
  8
Defpoints
 62
     0
100
AcDbPoint
 10
28.57499999999998
 20
7.831679314199626
 30
0.0
  0
POINT
  5
256
330
DB
100
AcDbEntity
  8
Defpoints
 62
     0
100
AcDbPoint
 10
28.57499999999998
 20
23.08779445861233
 30
0.0
  0
ENDBLK
  5
DD
330
DB
100
AcDbEntity
  8
0
100
AcDbBlockEnd
  0
BLOCK
  5
F0
330
EF
100
AcDbEntity
  8
0
100
AcDbBlockBegin
  2
_D_2
 70
     0
 10
0.0
 20
0.0
 30
0.0
  3
_D_2
  1
_D_2
  0
LINE
  5
F2
330
EF
100
AcDbEntity
  8
치수문자_일반주서
 62
     0
370
    -2
100
AcDbLine
 10
63.5
 20
8.000000000000007
 30
0.0
 11
63.50000000000001
 21
37.16395781729394
 31
0.0
  0
LINE
  5
F3
330
EF
100
AcDbEntity
  8
치수문자_일반주서
 62
     0
370
    -2
100
AcDbLine
 10
-63.49999999999999
 20
6.412500000000001
 30
0.0
 11
-63.49999999999999
 21
37.16395781729394
 31
0.0
  0
LINE
  5
F4
330
EF
100
AcDbEntity
  8
치수문자_일반주서
 62
     0
370
    -2
100
AcDbLine
 10
60.19800000000001
 20
37.16395781729394
 30
0.0
 11
-60.19799999999999
 21
37.16395781729394
 31
0.0
  0
SOLID
  5
F5
330
EF
100
AcDbEntity
  8
치수문자_일반주서
 62
     0
100
AcDbTrace
 10
60.19800000000001
 20
36.61362448396061
 30
0.0
 11
60.19800000000001
 21
37.71429115062728
 31
0.0
 12
63.50000000000001
 22
37.16395781729394
 32
0.0
 13
63.50000000000001
 23
37.16395781729394
 33
0.0
  0
SOLID
  5
F6
330
EF
100
AcDbEntity
  8
치수문자_일반주서
 62
     0
100
AcDbTrace
 10
-60.19799999999999
 20
37.71429115062728
 30
0.0
 11
-60.19799999999999
 21
36.61362448396061
 31
0.0
 12
-63.49999999999999
 22
37.16395781729394
 32
0.0
 13
-63.49999999999999
 23
37.16395781729394
 33
0.0
  0
MTEXT
  5
F7
330
EF
100
AcDbEntity
  8
치수문자_일반주서
 62
     0
100
AcDbMText
 10
-4.248099279825325
 20
41.53895781729394
 30
0.0
 40
3.5
 41
0.0
 71
     2
 72
     1
  1
\A1;127.00 [5]
  7
SLDTEXTSTYLE0
 73
     1
 44
1.0
  0
POINT
  5
F8
330
EF
100
AcDbEntity
  8
Defpoints
 62
     0
100
AcDbPoint
 10
63.5
 20
7.937500000000008
 30
0.0
  0
POINT
  5
F9
330
EF
100
AcDbEntity
  8
Defpoints
 62
     0
100
AcDbPoint
 10
-63.49999999999999
 20
6.350000000000001
 30
0.0
  0
POINT
  5
FA
330
EF
100
AcDbEntity
  8
Defpoints
 62
     0
100
AcDbPoint
 10
-63.49999999999999
 20
37.16395781729394
 30
0.0
  0
ENDBLK
  5
F1
330
EF
100
AcDbEntity
  8
0
100
AcDbBlockEnd
  0
BLOCK
  5
104
330
103
100
AcDbEntity
  8
0
100
AcDbBlockBegin
  2
_D_3
 70
     0
 10
0.0
 20
0.0
 30
0.0
  3
_D_3
  1
_D_3
  0
LINE
  5
106
330
103
100
AcDbEntity
  8
치수문자_일반주서
 62
     0
370
    -2
100
AcDbLine
 10
-28.13764300435389
 20
7.87354416783816
 30
0.0
 11
-75.38875000000004
 21
7.873544167837983
 31
0.0
  0
LINE
  5
107
330
103
100
AcDbEntity
  8
치수문자_일반주서
 62
     0
370
    -2
100
AcDbLine
 10
-28.13764300435389
 20
-7.937499999999995
 30
0.0
 11
-75.38874999999999
 21
-7.937500000000171
 31
0.0
  0
LINE
  5
108
330
103
100
AcDbEntity
  8
치수문자_일반주서
 62
     0
370
    -2
100
AcDbLine
 10
-75.38875000000003
 20
4.571544167837984
 30
0.0
 11
-75.38875
 21
-4.635500000000172
 31
0.0
  0
SOLID
  5
109
330
103
100
AcDbEntity
  8
치수문자_일반주서
 62
     0
100
AcDbTrace
 10
-74.8384166666667
 20
4.571544167837986
 30
0.0
 11
-75.93908333333336
 21
4.571544167837982
 31
0.0
 12
-75.38875000000004
 22
7.873544167837983
 32
0.0
 13
-75.38875000000004
 23
7.873544167837983
 33
0.0
  0
SOLID
  5
10A
330
103
100
AcDbEntity
  8
치수문자_일반주서
 62
     0
100
AcDbTrace
 10
-75.93908333333333
 20
-4.635500000000174
 30
0.0
 11
-74.83841666666667
 21
-4.63550000000017
 31
0.0
 12
-75.38874999999999
 22
-7.937500000000171
 32
0.0
 13
-75.38874999999999
 23
-7.937500000000171
 33
0.0
  0
MTEXT
  5
10B
330
103
100
AcDbEntity
  8
치수문자_일반주서
 62
     0
100
AcDbMText
 10
-79.76375000000002
 20
-0.0000000000000343
 30
0.0
 40
3.5
 41
0.0
 71
     2
 72
     1
  1
\A1;%%c15.81 [5/8]
  7
SLDTEXTSTYLE0
 11
-3.595171720311513E-15
 21
1.0
 31
0.0
 73
     1
 44
1.0
  0
POINT
  5
10C
330
103
100
AcDbEntity
  8
Defpoints
 62
     0
100
AcDbPoint
 10
-28.07514300435389
 20
7.87354416783816
 30
0.0
  0
POINT
  5
10D
330
103
100
AcDbEntity
  8
Defpoints
 62
     0
100
AcDbPoint
 10
-28.07514300435389
 20
-7.937499999999995
 30
0.0
  0
POINT
  5
10E
330
103
100
AcDbEntity
  8
Defpoints
 62
     0
100
AcDbPoint
 10
-75.38874999999999
 20
-7.937500000000171
 30
0.0
  0
ENDBLK
  5
105
330
103
100
AcDbEntity
  8
0
100
AcDbBlockEnd
  0
BLOCK
  5
11E
330
11D
100
AcDbEntity
  8
0
100
AcDbBlockBegin
  2
SW_DOWELSYMBOL_0
 70
     0
 10
0.0
 20
0.0
 30
0.0
  3
SW_DOWELSYMBOL_0
  1
SW_DOWELSYMBOL_0
  0
CIRCLE
  5
120
330
11D
100
AcDbEntity
  8
해칭선
 62
     0
100
AcDbCircle
 10
0.0
 20
0.0
 30
0.0
 40
3.000000000000008
  0
HATCH
  5
121
330
11D
100
AcDbEntity
  8
0
  6
Continuous
 62
     0
370
     0
100
AcDbHatch
 10
0.0
 20
0.0
 30
0.0
210
0.0
220
0.0
230
1.0
  2
SOLID
 70
     1
 71
     0
 91
        1
 92
        0
 93
        3
 72
     2
 10
0.0
 20
0.0
 40
3.000000000000008
 50
0.0
 51
90.0
 73
     1
 72
     1
 10
0.0
 20
3.000000000000008
 11
0.0
 21
0.0
 72
     1
 10
0.0
 20
0.0
 11
3.00000000000001
 21
0.0
 97
        0
 75
     0
 76
     1
 98
        1
 10
0.0
 20
0.0
  0
HATCH
  5
122
330
11D
100
AcDbEntity
  8
0
  6
Continuous
 62
     0
370
     0
100
AcDbHatch
 10
0.0
 20
0.0
 30
0.0
210
0.0
220
0.0
230
1.0
  2
SOLID
 70
     1
 71
     0
 91
        1
 92
        0
 93
        3
 72
     2
 10
0.0
 20
0.0
 40
3.000000000000008
 50
180.0
 51
270.0000000000007
 73
     1
 72
     1
 10
0.0
 20
-3.000000000000008
 11
0.0
 21
0.0
 72
     1
 10
0.0
 20
0.0
 11
-3.00000000000001
 21
0.0
 97
        0
 75
     0
 76
     1
 98
        1
 10
0.0
 20
0.0
  0
ENDBLK
  5
11F
330
11D
100
AcDbEntity
  8
0
100
AcDbBlockEnd
  0
BLOCK
  5
1D3
330
1D2
100
AcDbEntity
  8
0
100
AcDbBlockBegin
  2
*D7
 70
     1
 10
0.0
 20
0.0
 30
0.0
  3
*D7
  1
*D8
  0
LINE
  5
1D5
330
1D2
100
AcDbEntity
  8
치수문자_일반주서
 62
     0
370
    -2
100
AcDbLine
 10
130.0625
 20
20.89149999999992
 30
0.0
 11
151.4789523935443
 21
20.8915
 31
0.0
  0
LINE
  5
1D6
330
1D2
100
AcDbEntity
  8
치수문자_일반주서
 62
     0
370
    -2
100
AcDbLine
 10
130.0625
 20
6.603999999999921
 30
0.0
 11
151.4789523935444
 21
6.603999999999999
 31
0.0
  0
LINE
  5
1D7
330
1D2
100
AcDbEntity
  8
치수문자_일반주서
 62
     0
370
    -2
100
AcDbLine
 10
151.4789523935443
 20
20.8915
 30
0.0
 11
151.4789523935442
 21
57.24550000000004
 31
0.0
  0
LINE
  5
1D8
330
1D2
100
AcDbEntity
  8
치수문자_일반주서
 62
     0
370
    -2
100
AcDbLine
 10
151.4789523935443
 20
20.8915
 30
0.0
 11
151.4789523935444
 21
6.603999999999999
 31
0.0
  0
LINE
  5
1D9
330
1D2
100
AcDbEntity
  8
치수문자_일반주서
 62
     0
370
    -2
100
AcDbLine
 10
151.4789523935443
 20
24.1935
 30
0.0
 11
151.4789523935443
 21
27.4955
 31
0.0
  0
LINE
  5
1DA
330
1D2
100
AcDbEntity
  8
치수문자_일반주서
 62
     0
370
    -2
100
AcDbLine
 10
151.4789523935444
 20
3.302
 30
0.0
 11
151.4789523935444
 21
0.0
 31
0.0
  0
SOLID
  5
1DB
330
1D2
100
AcDbEntity
  8
치수문자_일반주서
 62
     0
100
AcDbTrace
 10
150.928619060211
 20
24.1935
 30
0.0
 11
152.0292857268777
 21
24.1935
 31
0.0
 12
151.4789523935443
 22
20.8915
 32
0.0
 13
151.4789523935443
 23
20.8915
 33
0.0
  0
SOLID
  5
1DC
330
1D2
100
AcDbEntity
  8
치수문자_일반주서
 62
     0
100
AcDbTrace
 10
152.0292857268777
 20
3.302000000000002
 30
0.0
 11
150.9286190602111
 21
3.301999999999997
 31
0.0
 12
151.4789523935444
 22
6.603999999999999
 32
0.0
 13
151.4789523935444
 23
6.603999999999999
 33
0.0
  0
MTEXT
  5
1DD
330
1D2
100
AcDbEntity
  8
치수문자_일반주서
 62
     0
100
AcDbMText
 10
147.1039523935443
 20
42.37050000000002
 30
0.0
 40
3.5
 41
0.0
 71
     2
 72
     1
  1
\A1;%%c14.29 [9/16]
  7
SLDTEXTSTYLE0
 11
-3.978542002506248E-15
 21
1.0
 31
0.0
 73
     1
 44
1.0
  0
POINT
  5
1DE
330
1D2
100
AcDbEntity
  8
Defpoints
 62
     0
100
AcDbPoint
 10
130.0
 20
20.89149999999992
 30
0.0
  0
POINT
  5
1DF
330
1D2
100
AcDbEntity
  8
Defpoints
 62
     0
100
AcDbPoint
 10
130.0
 20
6.603999999999921
 30
0.0
  0
POINT
  5
1E0
330
1D2
100
AcDbEntity
  8
Defpoints
 62
     0
100
AcDbPoint
 10
151.4789523935444
 20
6.604000000000001
 30
0.0
  0
ENDBLK
  5
1D4
330
1D2
100
AcDbEntity
  8
0
100
AcDbBlockEnd
  0
BLOCK
  5
1E2
330
1E1
100
AcDbEntity
  8
0
100
AcDbBlockBegin
  2
*D8
 70
     1
 10
0.0
 20
0.0
 30
0.0
  3
*D8
  1
*D9
  0
LINE
  5
1E4
330
1E1
100
AcDbEntity
  8
치수문자_일반주서
 62
     0
370
    -2
100
AcDbLine
 10
130.0
 20
20.95399999999992
 30
0.0
 11
130.0
 21
32.67421324814497
 31
0.0
  0
LINE
  5
1E5
330
1E1
100
AcDbEntity
  8
치수문자_일반주서
 62
     0
370
    -2
100
AcDbLine
 10
95.07500000000002
 20
20.95399999999991
 30
0.0
 11
95.07500000000002
 21
32.67421324814497
 31
0.0
  0
LINE
  5
1E6
330
1E1
100
AcDbEntity
  8
치수문자_일반주서
 62
     0
370
    -2
100
AcDbLine
 10
95.07500000000002
 20
32.67421324814497
 30
0.0
 11
57.846
 21
32.67421324814497
 31
0.0
  0
LINE
  5
1E7
330
1E1
100
AcDbEntity
  8
치수문자_일반주서
 62
     0
370
    -2
100
AcDbLine
 10
130.0
 20
32.67421324814497
 30
0.0
 11
95.07500000000002
 21
32.67421324814497
 31
0.0
  0
LINE
  5
1E8
330
1E1
100
AcDbEntity
  8
치수문자_일반주서
 62
     0
370
    -2
100
AcDbLine
 10
133.302
 20
32.67421324814497
 30
0.0
 11
136.604
 21
32.67421324814497
 31
0.0
  0
LINE
  5
1E9
330
1E1
100
AcDbEntity
  8
치수문자_일반주서
 62
     0
370
    -2
100
AcDbLine
 10
91.77300000000002
 20
32.67421324814497
 30
0.0
 11
88.47100000000003
 21
32.67421324814497
 31
0.0
  0
SOLID
  5
1EA
330
1E1
100
AcDbEntity
  8
치수문자_일반주서
 62
     0
100
AcDbTrace
 10
133.302
 20
33.2245465814783
 30
0.0
 11
133.302
 21
32.12387991481163
 31
0.0
 12
130.0
 22
32.67421324814497
 32
0.0
 13
130.0
 23
32.67421324814497
 33
0.0
  0
SOLID
  5
1EB
330
1E1
100
AcDbEntity
  8
치수문자_일반주서
 62
     0
100
AcDbTrace
 10
91.77300000000002
 20
32.12387991481163
 30
0.0
 11
91.77300000000002
 21
33.2245465814783
 31
0.0
 12
95.07500000000002
 22
32.67421324814497
 32
0.0
 13
95.07500000000002
 23
32.67421324814497
 33
0.0
  0
MTEXT
  5
1EC
330
1E1
100
AcDbEntity
  8
치수문자_일반주서
 62
     0
100
AcDbMText
 10
73.1585
 20
37.04921324814497
 30
0.0
 40
3.5
 41
0.0
 71
     2
 72
     1
  1
\A1;34.93 [1 3/8]
  7
SLDTEXTSTYLE0
 73
     1
 44
1.0
  0
POINT
  5
1ED
330
1E1
100
AcDbEntity
  8
Defpoints
 62
     0
100
AcDbPoint
 10
130.0
 20
20.89149999999992
 30
0.0
  0
POINT
  5
1EE
330
1E1
100
AcDbEntity
  8
Defpoints
 62
     0
100
AcDbPoint
 10
95.07500000000002
 20
20.89149999999991
 30
0.0
  0
POINT
  5
1EF
330
1E1
100
AcDbEntity
  8
Defpoints
 62
     0
100
AcDbPoint
 10
95.07500000000002
 20
32.67421324814497
 30
0.0
  0
ENDBLK
  5
1E3
330
1E1
100
AcDbEntity
  8
0
100
AcDbBlockEnd
  0
BLOCK
  5
1F1
330
1F0
100
AcDbEntity
  8
0
100
AcDbBlockBegin
  2
*D9
 70
     1
 10
0.0
 20
0.0
 30
0.0
  3
*D9
  1
*D10
  0
LINE
  5
1F3
330
1F0
100
AcDbEntity
  8
치수문자_일반주서
 62
     0
370
    -2
100
AcDbLine
 10
130.0
 20
20.95399999999992
 30
0.0
 11
130.0
 21
47.75581684673242
 31
0.0
  0
LINE
  5
1F4
330
1F0
100
AcDbEntity
  8
치수문자_일반주서
 62
     0
370
    -2
100
AcDbLine
 10
3.000000000000007
 20
20.16024999999991
 30
0.0
 11
3.000000000000007
 21
47.75581684673242
 31
0.0
  0
LINE
  5
1F5
330
1F0
100
AcDbEntity
  8
치수문자_일반주서
 62
     0
370
    -2
100
AcDbLine
 10
126.698
 20
47.75581684673242
 30
0.0
 11
6.302000000000007
 21
47.75581684673242
 31
0.0
  0
SOLID
  5
1F6
330
1F0
100
AcDbEntity
  8
치수문자_일반주서
 62
     0
100
AcDbTrace
 10
126.698
 20
47.20548351339908
 30
0.0
 11
126.698
 21
48.30615018006575
 31
0.0
 12
130.0
 22
47.75581684673242
 32
0.0
 13
130.0
 23
47.75581684673242
 33
0.0
  0
SOLID
  5
1F7
330
1F0
100
AcDbEntity
  8
치수문자_일반주서
 62
     0
100
AcDbTrace
 10
6.302000000000007
 20
48.30615018006575
 30
0.0
 11
6.302000000000007
 21
47.20548351339908
 31
0.0
 12
3.000000000000007
 22
47.75581684673242
 32
0.0
 13
3.000000000000007
 23
47.75581684673242
 33
0.0
  0
MTEXT
  5
1F8
330
1F0
100
AcDbEntity
  8
치수문자_일반주서
 62
     0
100
AcDbMText
 10
66.57957853589602
 20
52.13081684673242
 30
0.0
 40
3.5
 41
0.0
 71
     2
 72
     1
  1
\A1;127.00 [5]
  7
SLDTEXTSTYLE0
 73
     1
 44
1.0
  0
POINT
  5
1F9
330
1F0
100
AcDbEntity
  8
Defpoints
 62
     0
100
AcDbPoint
 10
130.0
 20
20.89149999999992
 30
0.0
  0
POINT
  5
1FA
330
1F0
100
AcDbEntity
  8
Defpoints
 62
     0
100
AcDbPoint
 10
3.000000000000007
 20
20.09774999999991
 30
0.0
  0
POINT
  5
1FB
330
1F0
100
AcDbEntity
  8
Defpoints
 62
     0
100
AcDbPoint
 10
3.000000000000007
 20
47.75581684673242
 30
0.0
  0
ENDBLK
  5
1F2
330
1F0
100
AcDbEntity
  8
0
100
AcDbBlockEnd
  0
BLOCK
  5
22A
330
229
100
AcDbEntity
  8
0
100
AcDbBlockBegin
  2
*D10
 70
     1
 10
0.0
 20
0.0
 30
0.0
  3
*D10
  1
*D11
  0
LINE
  5
22C
330
229
100
AcDbEntity
  8
치수문자_일반주서
 62
     0
370
    -2
100
AcDbLine
 10
243.5667306242832
 20
-32.28995718818651
 30
0.0
 11
264.9831830178275
 21
-32.28995718818643
 31
0.0
  0
LINE
  5
22D
330
229
100
AcDbEntity
  8
치수문자_일반주서
 62
     0
370
    -2
100
AcDbLine
 10
243.5667306242831
 20
-46.57745718818651
 30
0.0
 11
264.9831830178276
 21
-46.57745718818643
 31
0.0
  0
LINE
  5
22E
330
229
100
AcDbEntity
  8
치수문자_일반주서
 62
     0
370
    -2
100
AcDbLine
 10
264.9831830178275
 20
-32.28995718818643
 30
0.0
 11
264.9831830178273
 21
4.064042811813607
 31
0.0
  0
LINE
  5
22F
330
229
100
AcDbEntity
  8
치수문자_일반주서
 62
     0
370
    -2
100
AcDbLine
 10
264.9831830178275
 20
-32.28995718818643
 30
0.0
 11
264.9831830178276
 21
-46.57745718818643
 31
0.0
  0
LINE
  5
230
330
229
100
AcDbEntity
  8
치수문자_일반주서
 62
     0
370
    -2
100
AcDbLine
 10
264.9831830178275
 20
-28.98795718818643
 30
0.0
 11
264.9831830178275
 21
-25.68595718818643
 31
0.0
  0
LINE
  5
231
330
229
100
AcDbEntity
  8
치수문자_일반주서
 62
     0
370
    -2
100
AcDbLine
 10
264.9831830178276
 20
-49.87945718818643
 30
0.0
 11
264.9831830178276
 21
-53.18145718818643
 31
0.0
  0
SOLID
  5
232
330
229
100
AcDbEntity
  8
치수문자_일반주서
 62
     0
100
AcDbTrace
 10
264.4328496844942
 20
-28.98795718818643
 30
0.0
 11
265.5335163511609
 21
-28.98795718818642
 31
0.0
 12
264.9831830178275
 22
-32.28995718818643
 32
0.0
 13
264.9831830178275
 23
-32.28995718818643
 33
0.0
  0
SOLID
  5
233
330
229
100
AcDbEntity
  8
치수문자_일반주서
 62
     0
100
AcDbTrace
 10
265.5335163511609
 20
-49.87945718818643
 30
0.0
 11
264.4328496844942
 21
-49.87945718818643
 31
0.0
 12
264.9831830178276
 22
-46.57745718818643
 32
0.0
 13
264.9831830178276
 23
-46.57745718818643
 33
0.0
  0
MTEXT
  5
234
330
229
100
AcDbEntity
  8
치수문자_일반주서
 62
     0
100
AcDbMText
 10
260.6081830178274
 20
-10.81095718818641
 30
0.0
 40
3.5
 41
0.0
 71
     2
 72
     1
  1
\A1;%%c14.29 [9/16]
  7
SLDTEXTSTYLE0
 11
-3.978542002506247E-15
 21
1.0
 31
0.0
 73
     1
 44
1.0
  0
POINT
  5
235
330
229
100
AcDbEntity
  8
Defpoints
 62
     0
100
AcDbPoint
 10
243.5042306242832
 20
-32.28995718818651
 30
0.0
  0
POINT
  5
236
330
229
100
AcDbEntity
  8
Defpoints
 62
     0
100
AcDbPoint
 10
243.5042306242831
 20
-46.57745718818651
 30
0.0
  0
POINT
  5
237
330
229
100
AcDbEntity
  8
Defpoints
 62
     0
100
AcDbPoint
 10
264.9831830178275
 20
-46.57745718818643
 30
0.0
  0
ENDBLK
  5
22B
330
229
100
AcDbEntity
  8
0
100
AcDbBlockEnd
  0
BLOCK
  5
239
330
238
100
AcDbEntity
  8
0
100
AcDbBlockBegin
  2
*D11
 70
     1
 10
0.0
 20
0.0
 30
0.0
  3
*D11
  1
*D12
  0
LINE
  5
23B
330
238
100
AcDbEntity
  8
치수문자_일반주서
 62
     0
370
    -2
100
AcDbLine
 10
243.5042306242831
 20
-32.22745718818651
 30
0.0
 11
243.5042306242831
 21
-20.50724394004146
 31
0.0
  0
LINE
  5
23C
330
238
100
AcDbEntity
  8
치수문자_일반주서
 62
     0
370
    -2
100
AcDbLine
 10
208.5792306242832
 20
-32.22745718818652
 30
0.0
 11
208.5792306242832
 21
-20.50724394004146
 31
0.0
  0
LINE
  5
23D
330
238
100
AcDbEntity
  8
치수문자_일반주서
 62
     0
370
    -2
100
AcDbLine
 10
208.5792306242832
 20
-20.50724394004146
 30
0.0
 11
171.3502306242831
 21
-20.50724394004146
 31
0.0
  0
LINE
  5
23E
330
238
100
AcDbEntity
  8
치수문자_일반주서
 62
     0
370
    -2
100
AcDbLine
 10
243.5042306242831
 20
-20.50724394004146
 30
0.0
 11
208.5792306242832
 21
-20.50724394004146
 31
0.0
  0
LINE
  5
23F
330
238
100
AcDbEntity
  8
치수문자_일반주서
 62
     0
370
    -2
100
AcDbLine
 10
246.8062306242831
 20
-20.50724394004146
 30
0.0
 11
250.1082306242831
 21
-20.50724394004146
 31
0.0
  0
LINE
  5
240
330
238
100
AcDbEntity
  8
치수문자_일반주서
 62
     0
370
    -2
100
AcDbLine
 10
205.2772306242832
 20
-20.50724394004146
 30
0.0
 11
201.9752306242832
 21
-20.50724394004146
 31
0.0
  0
SOLID
  5
241
330
238
100
AcDbEntity
  8
치수문자_일반주서
 62
     0
100
AcDbTrace
 10
246.8062306242831
 20
-19.95691060670813
 30
0.0
 11
246.8062306242831
 21
-21.0575772733748
 31
0.0
 12
243.5042306242831
 22
-20.50724394004146
 32
0.0
 13
243.5042306242831
 23
-20.50724394004146
 33
0.0
  0
SOLID
  5
242
330
238
100
AcDbEntity
  8
치수문자_일반주서
 62
     0
100
AcDbTrace
 10
205.2772306242832
 20
-21.0575772733748
 30
0.0
 11
205.2772306242832
 21
-19.95691060670813
 31
0.0
 12
208.5792306242832
 22
-20.50724394004146
 32
0.0
 13
208.5792306242832
 23
-20.50724394004146
 33
0.0
  0
MTEXT
  5
243
330
238
100
AcDbEntity
  8
치수문자_일반주서
 62
     0
100
AcDbMText
 10
186.6627306242831
 20
-16.13224394004146
 30
0.0
 40
3.5
 41
0.0
 71
     2
 72
     1
  1
\A1;34.93 [1 3/8]
  7
SLDTEXTSTYLE0
 73
     1
 44
1.0
  0
POINT
  5
244
330
238
100
AcDbEntity
  8
Defpoints
 62
     0
100
AcDbPoint
 10
243.5042306242831
 20
-32.28995718818651
 30
0.0
  0
POINT
  5
245
330
238
100
AcDbEntity
  8
Defpoints
 62
     0
100
AcDbPoint
 10
208.5792306242832
 20
-32.28995718818652
 30
0.0
  0
POINT
  5
246
330
238
100
AcDbEntity
  8
Defpoints
 62
     0
100
AcDbPoint
 10
208.5792306242832
 20
-20.50724394004146
 30
0.0
  0
ENDBLK
  5
23A
330
238
100
AcDbEntity
  8
0
100
AcDbBlockEnd
  0
BLOCK
  5
248
330
247
100
AcDbEntity
  8
0
100
AcDbBlockBegin
  2
*D12
 70
     1
 10
0.0
 20
0.0
 30
0.0
  3
*D12
  1
*D13
  0
LINE
  5
24A
330
247
100
AcDbEntity
  8
치수문자_일반주서
 62
     0
370
    -2
100
AcDbLine
 10
243.5042306242831
 20
-32.22745718818651
 30
0.0
 11
243.5042306242831
 21
-5.425640341454013
 31
0.0
  0
LINE
  5
24B
330
247
100
AcDbEntity
  8
치수문자_일반주서
 62
     0
370
    -2
100
AcDbLine
 10
116.5042306242831
 20
-33.02120718818652
 30
0.0
 11
116.5042306242831
 21
-5.425640341454013
 31
0.0
  0
LINE
  5
24C
330
247
100
AcDbEntity
  8
치수문자_일반주서
 62
     0
370
    -2
100
AcDbLine
 10
240.2022306242831
 20
-5.425640341454013
 30
0.0
 11
119.8062306242831
 21
-5.425640341454013
 31
0.0
  0
SOLID
  5
24D
330
247
100
AcDbEntity
  8
치수문자_일반주서
 62
     0
100
AcDbTrace
 10
240.2022306242831
 20
-5.975973674787347
 30
0.0
 11
240.2022306242831
 21
-4.87530700812068
 31
0.0
 12
243.5042306242831
 22
-5.425640341454013
 32
0.0
 13
243.5042306242831
 23
-5.425640341454013
 33
0.0
  0
SOLID
  5
24E
330
247
100
AcDbEntity
  8
치수문자_일반주서
 62
     0
100
AcDbTrace
 10
119.8062306242831
 20
-4.87530700812068
 30
0.0
 11
119.8062306242831
 21
-5.975973674787347
 31
0.0
 12
116.5042306242831
 22
-5.425640341454013
 32
0.0
 13
116.5042306242831
 23
-5.425640341454013
 33
0.0
  0
MTEXT
  5
24F
330
247
100
AcDbEntity
  8
치수문자_일반주서
 62
     0
100
AcDbMText
 10
180.0838091601792
 20
-1.050640341454013
 30
0.0
 40
3.5
 41
0.0
 71
     2
 72
     1
  1
\A1;127.00 [5]
  7
SLDTEXTSTYLE0
 73
     1
 44
1.0
  0
POINT
  5
250
330
247
100
AcDbEntity
  8
Defpoints
 62
     0
100
AcDbPoint
 10
243.5042306242831
 20
-32.28995718818651
 30
0.0
  0
POINT
  5
251
330
247
100
AcDbEntity
  8
Defpoints
 62
     0
100
AcDbPoint
 10
116.5042306242831
 20
-33.08370718818652
 30
0.0
  0
POINT
  5
252
330
247
100
AcDbEntity
  8
Defpoints
 62
     0
100
AcDbPoint
 10
116.5042306242831
 20
-5.425640341454013
 30
0.0
  0
ENDBLK
  5
249
330
247
100
AcDbEntity
  8
0
100
AcDbBlockEnd
  0
BLOCK
  5
2DB
330
2DA
100
AcDbEntity
  8
0
100
AcDbBlockBegin
  2
*D13
 70
     1
 10
0.0
 20
0.0
 30
0.0
  3
*D13
  1
*D15
  0
LINE
  5
2DD
330
2DA
100
AcDbEntity
  8
치수문자_일반주서
 62
     0
370
    -2
100
AcDbLine
 10
130.0625
 20
22.47899999999995
 30
0.0
 11
142.8962514825415
 21
22.479
 31
0.0
  0
LINE
  5
2DE
330
2DA
100
AcDbEntity
  8
치수문자_일반주서
 62
     0
370
    -2
100
AcDbLine
 10
130.0625
 20
6.603999999999949
 30
0.0
 11
142.8962514825415
 21
6.603999999999999
 31
0.0
  0
LINE
  5
2DF
330
2DA
100
AcDbEntity
  8
치수문자_일반주서
 62
     0
370
    -2
100
AcDbLine
 10
142.8962514825415
 20
22.479
 30
0.0
 11
142.8962514825413
 21
57.08300000000003
 31
0.0
  0
LINE
  5
2E0
330
2DA
100
AcDbEntity
  8
치수문자_일반주서
 62
     0
370
    -2
100
AcDbLine
 10
142.8962514825415
 20
22.479
 30
0.0
 11
142.8962514825415
 21
6.603999999999999
 31
0.0
  0
LINE
  5
2E1
330
2DA
100
AcDbEntity
  8
치수문자_일반주서
 62
     0
370
    -2
100
AcDbLine
 10
142.8962514825415
 20
25.781
 30
0.0
 11
142.8962514825415
 21
29.083
 31
0.0
  0
LINE
  5
2E2
330
2DA
100
AcDbEntity
  8
치수문자_일반주서
 62
     0
370
    -2
100
AcDbLine
 10
142.8962514825415
 20
3.302
 30
0.0
 11
142.8962514825415
 21
0.0
 31
0.0
  0
SOLID
  5
2E3
330
2DA
100
AcDbEntity
  8
치수문자_일반주서
 62
     0
100
AcDbTrace
 10
142.3459181492081
 20
25.781
 30
0.0
 11
143.4465848158748
 21
25.781
 31
0.0
 12
142.8962514825415
 22
22.479
 32
0.0
 13
142.8962514825415
 23
22.479
 33
0.0
  0
SOLID
  5
2E4
330
2DA
100
AcDbEntity
  8
치수문자_일반주서
 62
     0
100
AcDbTrace
 10
143.4465848158748
 20
3.302000000000001
 30
0.0
 11
142.3459181492082
 21
3.301999999999998
 31
0.0
 12
142.8962514825415
 22
6.603999999999999
 32
0.0
 13
142.8962514825415
 23
6.603999999999999
 33
0.0
  0
MTEXT
  5
2E5
330
2DA
100
AcDbEntity
  8
치수문자_일반주서
 62
     0
100
AcDbMText
 10
138.5212514825414
 20
43.08300000000002
 30
0.0
 40
3.5
 41
0.0
 71
     2
 72
     1
  1
\A1;%%c15.88 [5/8]
  7
SLDTEXTSTYLE0
 11
-3.580687802255622E-15
 21
1.0
 31
0.0
 73
     1
 44
1.0
  0
POINT
  5
2E6
330
2DA
100
AcDbEntity
  8
Defpoints
 62
     0
100
AcDbPoint
 10
130.0
 20
22.47899999999995
 30
0.0
  0
POINT
  5
2E7
330
2DA
100
AcDbEntity
  8
Defpoints
 62
     0
100
AcDbPoint
 10
130.0
 20
6.603999999999949
 30
0.0
  0
POINT
  5
2E8
330
2DA
100
AcDbEntity
  8
Defpoints
 62
     0
100
AcDbPoint
 10
142.8962514825415
 20
6.603999999999997
 30
0.0
  0
ENDBLK
  5
2DC
330
2DA
100
AcDbEntity
  8
0
100
AcDbBlockEnd
  0
BLOCK
  5
2EA
330
2E9
100
AcDbEntity
  8
0
100
AcDbBlockBegin
  2
*D14
 70
     1
 10
0.0
 20
0.0
 30
0.0
  3
*D14
  1
*D16
  0
LINE
  5
2EC
330
2E9
100
AcDbEntity
  8
치수문자_일반주서
 62
     0
370
    -2
100
AcDbLine
 10
130.0
 20
22.54149999999995
 30
0.0
 11
130.0
 21
37.62929445861226
 31
0.0
  0
LINE
  5
2ED
330
2E9
100
AcDbEntity
  8
치수문자_일반주서
 62
     0
370
    -2
100
AcDbLine
 10
95.07499999999999
 20
22.43567931419957
 30
0.0
 11
95.07499999999999
 21
37.62929445861226
 31
0.0
  0
LINE
  5
2EE
330
2E9
100
AcDbEntity
  8
치수문자_일반주서
 62
     0
370
    -2
100
AcDbLine
 10
95.07499999999999
 20
37.62929445861226
 30
0.0
 11
46.53722462421234
 21
37.62929445861226
 31
0.0
  0
LINE
  5
2EF
330
2E9
100
AcDbEntity
  8
치수문자_일반주서
 62
     0
370
    -2
100
AcDbLine
 10
130.0
 20
37.62929445861226
 30
0.0
 11
95.07499999999999
 21
37.62929445861226
 31
0.0
  0
LINE
  5
2F0
330
2E9
100
AcDbEntity
  8
치수문자_일반주서
 62
     0
370
    -2
100
AcDbLine
 10
133.302
 20
37.62929445861226
 30
0.0
 11
136.604
 21
37.62929445861226
 31
0.0
  0
LINE
  5
2F1
330
2E9
100
AcDbEntity
  8
치수문자_일반주서
 62
     0
370
    -2
100
AcDbLine
 10
91.773
 20
37.62929445861226
 30
0.0
 11
88.471
 21
37.62929445861226
 31
0.0
  0
SOLID
  5
2F2
330
2E9
100
AcDbEntity
  8
치수문자_일반주서
 62
     0
100
AcDbTrace
 10
133.302
 20
38.1796277919456
 30
0.0
 11
133.302
 21
37.07896112527893
 31
0.0
 12
130.0
 22
37.62929445861226
 32
0.0
 13
130.0
 23
37.62929445861226
 33
0.0
  0
SOLID
  5
2F3
330
2E9
100
AcDbEntity
  8
치수문자_일반주서
 62
     0
100
AcDbTrace
 10
91.773
 20
37.07896112527893
 30
0.0
 11
91.773
 21
38.1796277919456
 31
0.0
 12
95.07499999999999
 22
37.62929445861226
 32
0.0
 13
95.07499999999999
 23
37.62929445861226
 33
0.0
  0
MTEXT
  5
2F4
330
2E9
100
AcDbEntity
  8
치수문자_일반주서
 62
     0
100
AcDbMText
 10
61.84972462421234
 20
42.00429445861226
 30
0.0
 40
3.5
 41
0.0
 71
     2
 72
     1
  1
\A1;34.93 [1 3/8]
  7
SLDTEXTSTYLE0
 73
     1
 44
1.0
  0
POINT
  5
2F5
330
2E9
100
AcDbEntity
  8
Defpoints
 62
     0
100
AcDbPoint
 10
130.0
 20
22.47899999999995
 30
0.0
  0
POINT
  5
2F6
330
2E9
100
AcDbEntity
  8
Defpoints
 62
     0
100
AcDbPoint
 10
95.07499999999999
 20
22.37317931419957
 30
0.0
  0
POINT
  5
2F7
330
2E9
100
AcDbEntity
  8
Defpoints
 62
     0
100
AcDbPoint
 10
95.07499999999999
 20
37.62929445861226
 30
0.0
  0
ENDBLK
  5
2EB
330
2E9
100
AcDbEntity
  8
0
100
AcDbBlockEnd
  0
BLOCK
  5
2F9
330
2F8
100
AcDbEntity
  8
0
100
AcDbBlockBegin
  2
*D15
 70
     1
 10
0.0
 20
0.0
 30
0.0
  3
*D15
  1
*D17
  0
LINE
  5
2FB
330
2F8
100
AcDbEntity
  8
치수문자_일반주서
 62
     0
370
    -2
100
AcDbLine
 10
130.0
 20
22.54149999999995
 30
0.0
 11
130.0
 21
51.70545781729388
 31
0.0
  0
LINE
  5
2FC
330
2F8
100
AcDbEntity
  8
치수문자_일반주서
 62
     0
370
    -2
100
AcDbLine
 10
3.000000000000007
 20
20.95399999999994
 30
0.0
 11
3.000000000000007
 21
51.70545781729388
 31
0.0
  0
LINE
  5
2FD
330
2F8
100
AcDbEntity
  8
치수문자_일반주서
 62
     0
370
    -2
100
AcDbLine
 10
126.698
 20
51.70545781729388
 30
0.0
 11
6.302000000000007
 21
51.70545781729388
 31
0.0
  0
SOLID
  5
2FE
330
2F8
100
AcDbEntity
  8
치수문자_일반주서
 62
     0
100
AcDbTrace
 10
126.698
 20
51.15512448396054
 30
0.0
 11
126.698
 21
52.25579115062721
 31
0.0
 12
130.0
 22
51.70545781729388
 32
0.0
 13
130.0
 23
51.70545781729388
 33
0.0
  0
SOLID
  5
2FF
330
2F8
100
AcDbEntity
  8
치수문자_일반주서
 62
     0
100
AcDbTrace
 10
6.302000000000007
 20
52.25579115062721
 30
0.0
 11
6.302000000000007
 21
51.15512448396054
 31
0.0
 12
3.000000000000007
 22
51.70545781729388
 32
0.0
 13
3.000000000000007
 23
51.70545781729388
 33
0.0
  0
MTEXT
  5
300
330
2F8
100
AcDbEntity
  8
치수문자_일반주서
 62
     0
100
AcDbMText
 10
62.25190072017467
 20
56.08045781729388
 30
0.0
 40
3.5
 41
0.0
 71
     2
 72
     1
  1
\A1;127.00 [5]
  7
SLDTEXTSTYLE0
 73
     1
 44
1.0
  0
POINT
  5
301
330
2F8
100
AcDbEntity
  8
Defpoints
 62
     0
100
AcDbPoint
 10
130.0
 20
22.47899999999995
 30
0.0
  0
POINT
  5
302
330
2F8
100
AcDbEntity
  8
Defpoints
 62
     0
100
AcDbPoint
 10
3.000000000000007
 20
20.89149999999994
 30
0.0
  0
POINT
  5
303
330
2F8
100
AcDbEntity
  8
Defpoints
 62
     0
100
AcDbPoint
 10
3.000000000000007
 20
51.70545781729388
 30
0.0
  0
ENDBLK
  5
2FA
330
2F8
100
AcDbEntity
  8
0
100
AcDbBlockEnd
  0
BLOCK
  5
32B
330
32A
100
AcDbEntity
  8
0
100
AcDbBlockBegin
  2
*D16
 70
     1
 10
0.0
 20
0.0
 30
0.0
  3
*D16
  1
*D18
  0
LINE
  5
32D
330
32A
100
AcDbEntity
  8
치수문자_일반주서
 62
     0
370
    -2
100
AcDbLine
 10
294.2123367825786
 20
-38.98262397646897
 30
0.0
 11
307.0460882651201
 21
-38.98262397646892
 31
0.0
  0
LINE
  5
32E
330
32A
100
AcDbEntity
  8
치수문자_일반주서
 62
     0
370
    -2
100
AcDbLine
 10
294.2123367825786
 20
-54.85762397646897
 30
0.0
 11
307.0460882651201
 21
-54.85762397646892
 31
0.0
  0
LINE
  5
32F
330
32A
100
AcDbEntity
  8
치수문자_일반주서
 62
     0
370
    -2
100
AcDbLine
 10
307.0460882651201
 20
-38.98262397646892
 30
0.0
 11
307.04608826512
 21
-4.378623976468887
 31
0.0
  0
LINE
  5
330
330
32A
100
AcDbEntity
  8
치수문자_일반주서
 62
     0
370
    -2
100
AcDbLine
 10
307.0460882651201
 20
-38.98262397646892
 30
0.0
 11
307.0460882651201
 21
-54.85762397646892
 31
0.0
  0
LINE
  5
331
330
32A
100
AcDbEntity
  8
치수문자_일반주서
 62
     0
370
    -2
100
AcDbLine
 10
307.0460882651201
 20
-35.68062397646892
 30
0.0
 11
307.0460882651201
 21
-32.37862397646892
 31
0.0
  0
LINE
  5
332
330
32A
100
AcDbEntity
  8
치수문자_일반주서
 62
     0
370
    -2
100
AcDbLine
 10
307.0460882651201
 20
-58.15962397646892
 30
0.0
 11
307.0460882651201
 21
-61.46162397646892
 31
0.0
  0
SOLID
  5
333
330
32A
100
AcDbEntity
  8
치수문자_일반주서
 62
     0
100
AcDbTrace
 10
306.4957549317867
 20
-35.68062397646892
 30
0.0
 11
307.5964215984534
 21
-35.68062397646892
 31
0.0
 12
307.0460882651201
 22
-38.98262397646892
 32
0.0
 13
307.0460882651201
 23
-38.98262397646892
 33
0.0
  0
SOLID
  5
334
330
32A
100
AcDbEntity
  8
치수문자_일반주서
 62
     0
100
AcDbTrace
 10
307.5964215984535
 20
-58.15962397646892
 30
0.0
 11
306.4957549317868
 21
-58.15962397646892
 31
0.0
 12
307.0460882651201
 22
-54.85762397646892
 32
0.0
 13
307.0460882651201
 23
-54.85762397646892
 33
0.0
  0
MTEXT
  5
335
330
32A
100
AcDbEntity
  8
치수문자_일반주서
 62
     0
100
AcDbMText
 10
302.67108826512
 20
-18.3786239764689
 30
0.0
 40
3.5
 41
0.0
 71
     2
 72
     1
  1
\A1;%%c15.88 [5/8]
  7
SLDTEXTSTYLE0
 11
-3.580687802255623E-15
 21
1.0
 31
0.0
 73
     1
 44
1.0
  0
POINT
  5
336
330
32A
100
AcDbEntity
  8
Defpoints
 62
     0
100
AcDbPoint
 10
294.1498367825786
 20
-38.98262397646897
 30
0.0
  0
POINT
  5
337
330
32A
100
AcDbEntity
  8
Defpoints
 62
     0
100
AcDbPoint
 10
294.1498367825786
 20
-54.85762397646897
 30
0.0
  0
POINT
  5
338
330
32A
100
AcDbEntity
  8
Defpoints
 62
     0
100
AcDbPoint
 10
307.0460882651201
 20
-54.85762397646892
 30
0.0
  0
ENDBLK
  5
32C
330
32A
100
AcDbEntity
  8
0
100
AcDbBlockEnd
  0
BLOCK
  5
33A
330
339
100
AcDbEntity
  8
0
100
AcDbBlockBegin
  2
*D17
 70
     1
 10
0.0
 20
0.0
 30
0.0
  3
*D17
  1
*D19
  0
LINE
  5
33C
330
339
100
AcDbEntity
  8
치수문자_일반주서
 62
     0
370
    -2
100
AcDbLine
 10
294.1498367825786
 20
-38.92012397646897
 30
0.0
 11
294.1498367825786
 21
-23.83232951785666
 31
0.0
  0
LINE
  5
33D
330
339
100
AcDbEntity
  8
치수문자_일반주서
 62
     0
370
    -2
100
AcDbLine
 10
259.2248367825786
 20
-39.02594466226935
 30
0.0
 11
259.2248367825786
 21
-23.83232951785666
 31
0.0
  0
LINE
  5
33E
330
339
100
AcDbEntity
  8
치수문자_일반주서
 62
     0
370
    -2
100
AcDbLine
 10
259.2248367825786
 20
-23.83232951785666
 30
0.0
 11
210.687061406791
 21
-23.83232951785666
 31
0.0
  0
LINE
  5
33F
330
339
100
AcDbEntity
  8
치수문자_일반주서
 62
     0
370
    -2
100
AcDbLine
 10
294.1498367825786
 20
-23.83232951785666
 30
0.0
 11
259.2248367825786
 21
-23.83232951785666
 31
0.0
  0
LINE
  5
340
330
339
100
AcDbEntity
  8
치수문자_일반주서
 62
     0
370
    -2
100
AcDbLine
 10
297.4518367825787
 20
-23.83232951785666
 30
0.0
 11
300.7538367825787
 21
-23.83232951785666
 31
0.0
  0
LINE
  5
341
330
339
100
AcDbEntity
  8
치수문자_일반주서
 62
     0
370
    -2
100
AcDbLine
 10
255.9228367825786
 20
-23.83232951785666
 30
0.0
 11
252.6208367825786
 21
-23.83232951785666
 31
0.0
  0
SOLID
  5
342
330
339
100
AcDbEntity
  8
치수문자_일반주서
 62
     0
100
AcDbTrace
 10
297.4518367825787
 20
-23.28199618452332
 30
0.0
 11
297.4518367825787
 21
-24.38266285118999
 31
0.0
 12
294.1498367825786
 22
-23.83232951785666
 32
0.0
 13
294.1498367825786
 23
-23.83232951785666
 33
0.0
  0
SOLID
  5
343
330
339
100
AcDbEntity
  8
치수문자_일반주서
 62
     0
100
AcDbTrace
 10
255.9228367825786
 20
-24.38266285118999
 30
0.0
 11
255.9228367825786
 21
-23.28199618452332
 31
0.0
 12
259.2248367825786
 22
-23.83232951785666
 32
0.0
 13
259.2248367825786
 23
-23.83232951785666
 33
0.0
  0
MTEXT
  5
344
330
339
100
AcDbEntity
  8
치수문자_일반주서
 62
     0
100
AcDbMText
 10
225.999561406791
 20
-19.45732951785666
 30
0.0
 40
3.5
 41
0.0
 71
     2
 72
     1
  1
\A1;34.93 [1 3/8]
  7
SLDTEXTSTYLE0
 73
     1
 44
1.0
  0
POINT
  5
345
330
339
100
AcDbEntity
  8
Defpoints
 62
     0
100
AcDbPoint
 10
294.1498367825786
 20
-38.98262397646897
 30
0.0
  0
POINT
  5
346
330
339
100
AcDbEntity
  8
Defpoints
 62
     0
100
AcDbPoint
 10
259.2248367825786
 20
-39.08844466226935
 30
0.0
  0
POINT
  5
347
330
339
100
AcDbEntity
  8
Defpoints
 62
     0
100
AcDbPoint
 10
259.2248367825786
 20
-23.83232951785666
 30
0.0
  0
ENDBLK
  5
33B
330
339
100
AcDbEntity
  8
0
100
AcDbBlockEnd
  0
BLOCK
  5
349
330
348
100
AcDbEntity
  8
0
100
AcDbBlockBegin
  2
*D18
 70
     1
 10
0.0
 20
0.0
 30
0.0
  3
*D18
  1
*D20
  0
LINE
  5
34B
330
348
100
AcDbEntity
  8
치수문자_일반주서
 62
     0
370
    -2
100
AcDbLine
 10
294.1498367825786
 20
-38.92012397646897
 30
0.0
 11
294.1498367825786
 21
-9.756166159175045
 31
0.0
  0
LINE
  5
34C
330
348
100
AcDbEntity
  8
치수문자_일반주서
 62
     0
370
    -2
100
AcDbLine
 10
167.1498367825786
 20
-40.50762397646898
 30
0.0
 11
167.1498367825786
 21
-9.756166159175045
 31
0.0
  0
LINE
  5
34D
330
348
100
AcDbEntity
  8
치수문자_일반주서
 62
     0
370
    -2
100
AcDbLine
 10
290.8478367825786
 20
-9.756166159175045
 30
0.0
 11
170.4518367825786
 21
-9.756166159175045
 31
0.0
  0
SOLID
  5
34E
330
348
100
AcDbEntity
  8
치수문자_일반주서
 62
     0
100
AcDbTrace
 10
290.8478367825786
 20
-10.30649949250838
 30
0.0
 11
290.8478367825786
 21
-9.205832825841712
 31
0.0
 12
294.1498367825786
 22
-9.756166159175045
 32
0.0
 13
294.1498367825786
 23
-9.756166159175045
 33
0.0
  0
SOLID
  5
34F
330
348
100
AcDbEntity
  8
치수문자_일반주서
 62
     0
100
AcDbTrace
 10
170.4518367825786
 20
-9.205832825841712
 30
0.0
 11
170.4518367825786
 21
-10.30649949250838
 31
0.0
 12
167.1498367825786
 22
-9.756166159175045
 32
0.0
 13
167.1498367825786
 23
-9.756166159175045
 33
0.0
  0
MTEXT
  5
350
330
348
100
AcDbEntity
  8
치수문자_일반주서
 62
     0
100
AcDbMText
 10
226.4017375027533
 20
-5.381166159175045
 30
0.0
 40
3.5
 41
0.0
 71
     2
 72
     1
  1
\A1;127.00 [5]
  7
SLDTEXTSTYLE0
 73
     1
 44
1.0
  0
POINT
  5
351
330
348
100
AcDbEntity
  8
Defpoints
 62
     0
100
AcDbPoint
 10
294.1498367825786
 20
-38.98262397646897
 30
0.0
  0
POINT
  5
352
330
348
100
AcDbEntity
  8
Defpoints
 62
     0
100
AcDbPoint
 10
167.1498367825786
 20
-40.57012397646898
 30
0.0
  0
POINT
  5
353
330
348
100
AcDbEntity
  8
Defpoints
 62
     0
100
AcDbPoint
 10
167.1498367825786
 20
-9.756166159175045
 30
0.0
  0
ENDBLK
  5
34A
330
348
100
AcDbEntity
  8
0
100
AcDbBlockEnd
  0
ENDSEC
  0
SECTION
  2
ENTITIES
  0
LINE
  5
96
330
1F
100
AcDbEntity
  8
0
  6
Continuous
 62
     1
370
    15
100
AcDbLine
 10
30.4574853993721
 20
-2.348162911993482
 30
0.0
 11
30.51793225381746
 21
-2.381318228675874
 31
0.0
  0
LINE
  5
97
330
1F
100
AcDbEntity
  8
0
  6
Continuous
 62
     1
370
    15
100
AcDbLine
 10
47.92341081049405
 20
7.937499999999995
 30
0.0
 11
43.08522471831908
 21
7.937499999999995
 31
0.0
  0
LINE
  5
98
330
1F
100
AcDbEntity
  8
0
  6
Continuous
 62
     1
370
    15
100
AcDbLine
 10
43.08522471831897
 20
-7.937500000000002
 30
0.0
 11
47.92341081049406
 21
-7.937500000000002
 31
0.0
  0
LINE
  5
9A
330
1F
100
AcDbEntity
  8
외형선
  6
Continuous
370
    15
100
AcDbLine
 10
28.07514300435387
 20
7.937499999999993
 30
0.0
 11
6.743700000000107
 21
7.937499999999993
 31
0.0
  0
SPLINE
  5
9D
330
1F
100
AcDbEntity
  8
0
  6
Continuous
 62
     1
370
    15
100
AcDbSpline
210
0.0
220
0.0
230
1.0
 70
     8
 71
     3
 72
    18
 73
    14
 74
     0
 42
0.000000001
 43
0.00000001
 40
0.0
 40
0.0
 40
0.0
 40
0.0
 40
0.1006721901284499
 40
0.2013466909782755
 40
0.302023303378983
 40
0.4027018276810853
 40
0.5033820638010035
 40
0.6040638112661885
 40
0.7047468692604395
 40
0.7970387973365455
 40
0.8893337328100791
 40
0.981632304725317
 40
1.0
 40
1.0
 40
1.0
 40
1.0
 10
28.57500000000001
 20
-1.291783793650437
 30
0.0
 10
29.50622965892318
 20
-1.817139802247729
 30
0.0
 10
31.36871035121536
 20
-2.867863877900138
 30
0.0
 10
34.16247799432761
 20
-4.311666238881135
 30
0.0
 10
36.95631554527164
 20
-5.581838445717379
 30
0.0
 10
39.75021474441853
 20
-6.621294965550931
 30
0.0
 10
42.54417935762694
 20
-7.388401289283507
 30
0.0
 10
45.33816262109683
 20
-7.851770558930911
 30
0.0
 10
48.05467423418879
 20
-7.986553626157514
 30
0.0
 10
50.69320856600118
 20
-7.825185115271035
 30
0.0
 10
53.25431320110795
 20
-7.378715300028688
 30
0.0
 10
55.13162954096943
 20
-6.916695228517551
 30
0.0
 10
56.15526754466651
 20
-6.544892319667549
 30
0.0
 10
56.32516458195637
 20
-6.483182796924927
 30
0.0
  0
SPLINE
  5
9E
330
1F
100
AcDbEntity
  8
외형선
  6
Continuous
370
    15
100
AcDbSpline
210
0.0
220
0.0
230
1.0
 70
    24
 71
     3
 72
    21
 73
    17
 74
     0
 42
0.000000001
 43
0.00000001
 40
0.0
 40
0.0
 40
0.0
 40
0.0
 40
0.0920316746056303
 40
0.1643648128765403
 40
0.2387956170575013
 40
0.3111287553284116
 40
0.385559559509373
 40
0.4578926977802834
 40
0.5323235019612451
 40
0.6046566402321563
 40
0.6790874444131183
 40
0.7514205826840284
 40
0.8258513868649903
 40
0.8981845251358803
 40
0.9726153293168601
 40
1.0
 40
1.0
 40
1.0
 40
1.0
 10
28.57499999999997
 20
6.906003724118657
 30
0.0
 10
28.57500000000001
 20
6.661888815554498
 30
0.0
 10
28.57500000000002
 20
6.225909556908396
 30
0.0
 10
28.57500000000005
 20
5.462898870050364
 30
0.0
 10
28.57499999999995
 20
4.712515928281117
 30
0.0
 10
28.57500000000004
 20
3.916445397366271
 30
0.0
 10
28.57499999999994
 20
3.1141701862864
 30
0.0
 10
28.57499999999997
 20
2.313258261755682
 30
0.0
 10
28.57500000000014
 20
1.550970034695071
 30
0.0
 10
28.57499999999987
 20
0.8351588216555836
 30
0.0
 10
28.57500000000019
 20
0.1988066483744049
 30
0.0
 10
28.57499999999998
 20
-0.3508740262034376
 30
0.0
 10
28.57499999999997
 20
-0.7908790920034255
 30
0.0
 10
28.57500000000005
 20
-1.107515862437491
 30
0.0
 10
28.575
 20
-1.276596007435519
 30
0.0
 10
28.57500000000005
 20
-1.300176306006324
 30
0.0
 10
28.57500000000005
 20
-1.306518551247859
 30
0.0
  0
SPLINE
  5
9F
330
1F
100
AcDbEntity
  8
0
  6
Continuous
 62
     1
370
    15
100
AcDbSpline
210
0.0
220
0.0
230
1.0
 70
     8
 71
     3
 72
    56
 73
    52
 74
     0
 42
0.000000001
 43
0.00000001
 40
0.0
 40
0.0
 40
0.0
 40
0.0
 40
0.0625000000000003
 40
0.0625000000000003
 40
0.0937500000000005
 40
0.0937500000000005
 40
0.1250000000000006
 40
0.1250000000000006
 40
0.1875000000000018
 40
0.1875000000000018
 40
0.2187500000000024
 40
0.2187500000000024
 40
0.2500000000000029
 40
0.2500000000000029
 40
0.3125000000000032
 40
0.3125000000000032
 40
0.3750000000000034
 40
0.3750000000000034
 40
0.4062500000000036
 40
0.4062500000000036
 40
0.4375000000000038
 40
0.4375000000000038
 40
0.5000000000000031
 40
0.5000000000000031
 40
0.5312500000000032
 40
0.5312500000000032
 40
0.5625000000000034
 40
0.5625000000000034
 40
0.5937500000000036
 40
0.5937500000000036
 40
0.6250000000000038
 40
0.6250000000000038
 40
0.687500000000003
 40
0.687500000000003
 40
0.7187500000000028
 40
0.7187500000000028
 40
0.7500000000000024
 40
0.7500000000000024
 40
0.7812500000000021
 40
0.7812500000000021
 40
0.8125000000000019
 40
0.8125000000000019
 40
0.8437500000000016
 40
0.8437500000000016
 40
0.8750000000000012
 40
0.8750000000000012
 40
0.906250000000001
 40
0.906250000000001
 40
0.9375000000000007
 40
0.9375000000000007
 40
1.0
 40
1.0
 40
1.0
 40
1.0
 10
63.5
 20
-7.937499999999992
 30
0.0
 10
62.77591325284394
 20
-7.872375814329606
 30
0.0
 10
62.04332337835878
 20
-7.802974247543061
 30
0.0
 10
60.95231674663809
 20
-7.650407986308249
 30
0.0
 10
60.59090019499477
 20
-7.591589304801094
 30
0.0
 10
59.86329267106937
 20
-7.457889283926709
 30
0.0
 10
59.49826483856442
 20
-7.38304850962662
 30
0.0
 10
58.4046805160076
 20
-7.135568028610103
 30
0.0
 10
57.68139010669887
 20
-6.940348785393443
 30
0.0
 10
56.58754508818213
 20
-6.6042803382002
 30
0.0
 10
56.22261428966745
 20
-6.485149589863612
 30
0.0
 10
55.4955656549493
 20
-6.233838518279086
 30
0.0
 10
55.13408670249588
 20
-6.10175704178914
 30
0.0
 10
54.04229982391989
 20
-5.685827085026054
 30
0.0
 10
53.31158432604062
 20
-5.383008489657737
 30
0.0
 10
51.86168509582383
 20
-4.736461704507476
 30
0.0
 10
51.12895834517317
 20
-4.390701824995544
 30
0.0
 10
50.03884805964745
 20
-3.848005314270175
 30
0.0
 10
49.67724431111471
 20
-3.663179377541421
 30
0.0
 10
48.94915539354695
 20
-3.28539637076669
 30
0.0
 10
48.58406971110468
 20
-3.092668599445192
 30
0.0
 10
47.49086310230911
 20
-2.505698209208777
 30
0.0
 10
46.76736115514971
 20
-2.103164821430416
 30
0.0
 10
45.67337255151101
 20
-1.487053741108007
 30
0.0
 10
45.30857793626399
 20
-1.279876086430991
 30
0.0
 10
44.58216548746985
 20
-0.863873835445026
 30
0.0
 10
44.22037455866966
 20
-0.6550195660654826
 30
0.0
 10
43.49207405976296
 20
-0.2354700152452914
 30
0.0
 10
43.12697415340139
 20
-0.0250445691261044
 30
0.0
 10
42.39832487958689
 20
0.3951194396151458
 30
0.0
 10
42.03600582794553
 20
0.6046209814666206
 30
0.0
 10
40.94740193071112
 20
1.230883360952854
 30
0.0
 10
40.2146176207976
 20
1.646298067946225
 30
0.0
 10
39.12551946204878
 20
2.254568732582039
 30
0.0
 10
38.76347898541233
 20
2.454992681933051
 30
0.0
 10
38.03498634119302
 20
2.851071445063465
 30
0.0
 10
37.66988201360432
 20
3.046472752134166
 30
0.0
 10
36.94140733894933
 20
3.430152958262812
 30
0.0
 10
36.57939407223155
 20
3.618203159184453
 30
0.0
 10
35.85329377757486
 20
3.986688147712309
 30
0.0
 10
35.48857337865682
 20
4.167218303745998
 30
0.0
 10
34.75923002754436
 20
4.51911175217384
 30
0.0
 10
34.3946106960557
 20
4.690473302921234
 30
0.0
 10
33.66891150377956
 20
5.022457276446018
 30
0.0
 10
33.30655913389174
 20
5.183287088021902
 30
0.0
 10
32.57789379750842
 20
5.494296472098097
 30
0.0
 10
32.21279485178123
 20
5.644288129611397
 30
0.0
 10
31.48451422783297
 20
5.931834245841346
 30
0.0
 10
31.12274439820835
 20
6.069223020925808
 30
0.0
 10
30.03307627200559
 20
6.462431417512178
 30
0.0
 10
29.30031374062424
 20
6.699136606660964
 30
0.0
 10
28.575
 20
6.90600372411866
 30
0.0
  0
LINE
  5
A0
330
1F
100
AcDbEntity
  8
0
  6
Continuous
 62
     1
370
    15
100
AcDbLine
 10
63.50000000000001
 20
-7.188845709717482
 30
0.0
 11
63.50000000000001
 21
0.680095709717577
 31
0.0
  0
SPLINE
  5
A1
330
1F
100
AcDbEntity
  8
0
  6
Continuous
 62
     1
370
    15
100
AcDbSpline
210
0.0
220
0.0
230
1.0
 70
     8
 71
     3
 72
    56
 73
    52
 74
     0
 42
0.000000001
 43
0.00000001
 40
0.0
 40
0.0
 40
0.0
 40
0.0
 40
0.0624999999999982
 40
0.0624999999999982
 40
0.0937499999999977
 40
0.0937499999999977
 40
0.1249999999999972
 40
0.1249999999999972
 40
0.1874999999999972
 40
0.1874999999999972
 40
0.2187499999999967
 40
0.2187499999999967
 40
0.2499999999999962
 40
0.2499999999999962
 40
0.3124999999999953
 40
0.3124999999999953
 40
0.3749999999999943
 40
0.3749999999999943
 40
0.4062499999999943
 40
0.4062499999999943
 40
0.4374999999999943
 40
0.4374999999999943
 40
0.4999999999999942
 40
0.4999999999999942
 40
0.5312499999999947
 40
0.5312499999999947
 40
0.562499999999995
 40
0.562499999999995
 40
0.5937499999999954
 40
0.5937499999999954
 40
0.6249999999999959
 40
0.6249999999999959
 40
0.6874999999999967
 40
0.6874999999999967
 40
0.7187499999999971
 40
0.7187499999999971
 40
0.7499999999999976
 40
0.7499999999999976
 40
0.781249999999998
 40
0.781249999999998
 40
0.8124999999999983
 40
0.8124999999999983
 40
0.8437499999999988
 40
0.8437499999999988
 40
0.8749999999999992
 40
0.8749999999999992
 40
0.9062499999999997
 40
0.9062499999999997
 40
0.9375
 40
0.9375
 40
1.0
 40
1.0
 40
1.0
 40
1.0
 10
63.49999999999999
 20
-7.188845709717482
 30
0.0
 10
62.77591325284382
 20
-7.011037285130751
 30
0.0
 10
62.04332337835875
 20
-6.80224242455303
 30
0.0
 10
60.95231674663809
 20
-6.448260094713445
 30
0.0
 10
60.59090019499482
 20
-6.323630289562146
 30
0.0
 10
59.86329267106942
 20
-6.060818426163361
 30
0.0
 10
59.49826483856445
 20
-5.922751210676158
 30
0.0
 10
58.40468051600762
 20
-5.490484771956665
 30
0.0
 10
57.68139010669891
 20
-5.178792762786661
 30
0.0
 10
56.5875450881822
 20
-4.679358970076538
 30
0.0
 10
56.22261428966745
 20
-4.507728144807442
 30
0.0
 10
55.4955656549493
 20
-4.155810594079639
 30
0.0
 10
55.13408670249588
 20
-3.975644045260137
 30
0.0
 10
54.04229982391989
 20
-3.421980161015581
 30
0.0
 10
53.31158432604057
 20
-3.036391796718081
 30
0.0
 10
51.86168509582384
 20
-2.245059366573938
 30
0.0
 10
51.1289583451732
 20
-1.836852008957239
 30
0.0
 10
50.03884805964746
 20
-1.217200851679505
 30
0.0
 10
49.67724431111472
 20
-1.009493341375721
 30
0.0
 10
48.949155393547
 20
-0.5914649350765137
 30
0.0
 10
48.58406971110466
 20
-0.3814093514539421
 30
0.0
 10
47.49086310230916
 20
0.248905868342829
 30
0.0
 10
46.76736115514973
 20
0.668816493818876
 30
0.0
 10
45.67337255151101
 20
1.293506540731386
 30
0.0
 10
45.30857793626404
 20
1.500617516181308
 30
0.0
 10
44.58216548746981
 20
1.910657699073269
 30
0.0
 10
44.22037455866966
 20
2.113625889112027
 30
0.0
 10
43.49207405976297
 20
2.515574425043627
 30
0.0
 10
43.12697415340138
 20
2.714286580701249
 30
0.0
 10
42.39832487958689
 20
3.105306366591218
 30
0.0
 10
42.03600582794547
 20
3.297400938400426
 30
0.0
 10
40.94740193071117
 20
3.86301399720046
 30
0.0
 10
40.21461762079767
 20
4.226586475125654
 30
0.0
 10
39.12551946204882
 20
4.741433382455094
 30
0.0
 10
38.76347898541238
 20
4.90810712335576
 30
0.0
 10
38.03498634119303
 20
5.231464889872603
 30
0.0
 10
37.66988201360435
 20
5.387932776566144
 30
0.0
 10
36.94140733894935
 20
5.688968314751396
 30
0.0
 10
36.57939407223156
 20
5.833366123540729
 30
0.0
 10
35.8532937775749
 20
6.109915387272168
 30
0.0
 10
35.48857337865686
 20
6.24212845773167
 30
0.0
 10
34.75923002754435
 20
6.493125768961706
 30
0.0
 10
34.39461069605573
 20
6.611908771438808
 30
0.0
 10
33.66891150377955
 20
6.834991308780038
 30
0.0
 10
33.30655913389175
 20
6.939439511797072
 30
0.0
 10
32.57789379750841
 20
7.133907595152387
 30
0.0
 10
32.21279485178123
 20
7.223799996890768
 30
0.0
 10
31.48451422783297
 20
7.388060063435042
 30
0.0
 10
31.12274439820838
 20
7.462347323195458
 30
0.0
 10
30.03307627200565
 20
7.661819353804415
 30
0.0
 10
29.30031374062425
 20
7.76338583323409
 30
0.0
 10
28.575
 20
7.831679314199622
 30
0.0
  0
SPLINE
  5
A2
330
1F
100
AcDbEntity
  8
0
  6
Continuous
 62
     1
370
    15
100
AcDbSpline
210
0.0
220
0.0
230
1.0
 70
     8
 71
     3
 72
    18
 73
    14
 74
     0
 42
0.000000001
 43
0.00000001
 40
0.0
 40
0.0
 40
0.0
 40
0.0
 40
0.0970507696540147
 40
0.1941041079566097
 40
0.2911598238228169
 40
0.3882177256292874
 40
0.4852776212571702
 40
0.5823393181352273
 40
0.6794026232831856
 40
0.7683822747450871
 40
0.8573655637767135
 40
0.9463530947223479
 40
1.0
 40
1.0
 40
1.0
 40
1.0
 10
63.50000000000001
 20
0.6800957097175766
 30
0.0
 10
62.56882164508019
 20
1.213072332364832
 30
0.0
 10
60.7064402896868
 20
2.279039683983794
 30
0.0
 10
57.91281423741643
 20
3.776687036147303
 30
0.0
 10
55.11910670043964
 20
5.120926186274062
 30
0.0
 10
52.32532532803616
 20
6.253897809075298
 30
0.0
 10
49.53146787759705
 20
7.129573912498458
 30
0.0
 10
46.7375754634264
 20
7.712006830584081
 30
0.0
 10
44.02110433189901
 20
7.968876385027003
 30
0.0
 10
41.38248423270396
 20
7.924075433124419
 30
0.0
 10
38.82123307520943
 20
7.596549742319622
 30
0.0
 10
36.59898511197461
 20
7.116335851097999
 30
0.0
 10
35.23046121744078
 20
6.657245810564253
 30
0.0
 10
34.71573929134624
 20
6.484575307069063
 30
0.0
  0
LINE
  5
A3
330
1F
100
AcDbEntity
  8
0
  6
Continuous
 62
     1
370
    15
100
AcDbLine
 10
63.5
 20
-7.937499999999992
 30
0.0
 11
63.50000000000001
 21
-7.188845709717482
 31
0.0
  0
LINE
  5
A4
330
1F
100
AcDbEntity
  8
외형선
  6
Continuous
370
    15
100
AcDbLine
 10
28.57499999999997
 20
6.906003724118657
 30
0.0
 11
28.57499999999998
 21
7.831679314199626
 31
0.0
  0
SPLINE
  5
A5
330
1F
100
AcDbEntity
  8
0
  6
Continuous
 62
     1
370
    15
100
AcDbSpline
210
0.0
220
0.0
230
1.0
 70
     8
 71
     3
 72
    14
 73
    10
 74
     0
 42
0.000000001
 43
0.00000001
 40
0.0
 40
0.0
 40
0.0
 40
0.0
 40
0.0134048034159961
 40
0.1778202151402979
 40
0.3422409844565
 40
0.5066682319888631
 40
0.6711030752338357
 40
0.8355466280246955
 40
1.0
 40
1.0
 40
1.0
 40
1.0
 10
47.92341081049405
 20
7.926196315295002
 30
0.0
 10
47.99301579107305
 20
7.929925810218544
 30
0.0
 10
48.91635440614151
 20
7.979399089989089
 30
0.0
 10
50.69319431544356
 20
7.801886445556744
 30
0.0
 10
53.25431559329556
 20
7.395990430650529
 30
0.0
 10
55.81550702953517
 20
6.702586152431373
 30
0.0
 10
58.37685464749977
 20
5.783606272568051
 30
0.0
 10
60.93835894824892
 20
4.670515826197684
 30
0.0
 10
62.64610265457772
 20
3.800297351165999
 30
0.0
 10
63.49999999999999
 20
3.365175123507849
 30
0.0
  0
LINE
  5
A6
330
1F
100
AcDbEntity
  8
0
  6
Continuous
 62
     1
370
    15
100
AcDbLine
 10
63.50000000000001
 20
0.6800957097175766
 30
0.0
 11
63.50000000000001
 21
3.365175123507849
 31
0.0
  0
SPLINE
  5
A7
330
1F
100
AcDbEntity
  8
0
  6
Continuous
 62
     1
370
    15
100
AcDbSpline
210
0.0
220
0.0
230
1.0
 70
     8
 71
     3
 72
    13
 73
     9
 74
     0
 42
0.000000001
 43
0.00000001
 40
0.0
 40
0.0
 40
0.0
 40
0.0
 40
0.117349185749062
 40
0.2938636120017982
 40
0.4703864528571571
 40
0.6469189030842047
 40
0.8234615972717758
 40
1.0
 40
1.0
 40
1.0
 40
1.0
 10
43.08522471831897
 20
-7.906839793668953
 30
0.0
 10
42.5176508053395
 20
-7.907228079366265
 30
0.0
 10
41.09634294468847
 20
-7.908200417067396
 30
0.0
 10
38.82123759895305
 20
-7.595917024617944
 30
0.0
 10
36.25985945459941
 20
-7.02218245078295
 30
0.0
 10
33.69831996347
 20
-6.192099414277589
 30
0.0
 10
31.13665931951186
 20
-5.160332628426917
 30
0.0
 10
29.42887952087197
 20
-4.328727304841546
 30
0.0
 10
28.57499999999998
 20
-3.91292969684595
 30
0.0
  0
LINE
  5
A8
330
1F
100
AcDbEntity
  8
외형선
  6
Continuous
370
    15
100
AcDbLine
 10
28.57499999999997
 20
-3.912929696845959
 30
0.0
 11
28.57500000000001
 21
-1.291783793650437
 31
0.0
  0
SPLINE
  5
A9
330
1F
100
AcDbEntity
  8
0
  6
Continuous
 62
     1
370
    15
100
AcDbSpline
210
0.0
220
0.0
230
1.0
 70
     8
 71
     3
 72
    10
 73
     6
 74
     0
 42
0.000000001
 43
0.00000001
 40
0.0
 40
0.0
 40
0.0
 40
0.0
 40
0.3893539140284151
 40
0.7787181331103733
 40
1.0
 40
1.0
 40
1.0
 40
1.0
 10
63.5
 20
7.937500000000008
 30
0.0
 10
62.56882153832819
 20
7.828357017231965
 30
0.0
 10
60.70643996942803
 20
7.668447795048258
 30
0.0
 10
58.31482637009633
 20
7.154258114902396
 30
0.0
 10
56.85438838486424
 20
6.661679983700396
 30
0.0
 10
56.32516458195637
 20
6.483182796924921
 30
0.0
  0
LINE
  5
AA
330
1F
100
AcDbEntity
  8
0
  6
Continuous
 62
     1
370
    15
100
AcDbLine
 10
63.50000000000001
 20
3.365175123507849
 30
0.0
 11
63.5
 21
7.937500000000008
 31
0.0
  0
SPLINE
  5
AB
330
1F
100
AcDbEntity
  8
0
  6
Continuous
 62
     1
370
    15
100
AcDbSpline
210
0.0
220
0.0
230
1.0
 70
     8
 71
     3
 72
    10
 73
     6
 74
     0
 42
0.000000001
 43
0.00000001
 40
0.0
 40
0.0
 40
0.0
 40
0.0
 40
0.4549451802942223
 40
0.9099008029117074
 40
1.0
 40
1.0
 40
1.0
 40
1.0
 10
28.57500000000002
 20
-7.831679314199622
 30
0.0
 10
29.50622983200203
 20
-7.708749589180223
 30
0.0
 10
31.36871087045589
 20
-7.462887317544482
 30
0.0
 10
33.41562618139126
 20
-6.959338516584415
 30
0.0
 10
34.5313129250891
 20
-6.551922411634838
 30
0.0
 10
34.71573929134616
 20
-6.484575307069077
 30
0.0
  0
SPLINE
  5
AC
330
1F
100
AcDbEntity
  8
외형선
  6
Continuous
370
    15
100
AcDbSpline
210
0.0
220
0.0
230
1.0
 70
    24
 71
     3
 72
    13
 73
     9
 74
     0
 42
0.000000001
 43
0.00000001
 40
0.0
 40
0.0
 40
0.0
 40
0.0
 40
0.0747714749032492
 40
0.2714597994391719
 40
0.4626049030220478
 40
0.6592932275580183
 40
0.8277705072378174
 40
0.9999999999999999
 40
0.9999999999999999
 40
0.9999999999999999
 40
0.9999999999999999
 10
28.57500000000005
 20
-4.000984421771653
 30
0.0
 10
28.57500000000004
 20
-4.075334534904433
 30
0.0
 10
28.57499999999997
 20
-4.345264569391786
 30
0.0
 10
28.57499999999994
 20
-4.89581253044483
 30
0.0
 10
28.57500000000008
 20
-5.634391832747293
 30
0.0
 10
28.57500000000002
 20
-6.384292750527765
 30
0.0
 10
28.57500000000008
 20
-7.126186731952415
 30
0.0
 10
28.57500000000002
 20
-7.594794855387655
 30
0.0
 10
28.57500000000001
 20
-7.831679314199621
 30
0.0
  0
LINE
  5
AD
330
1F
100
AcDbEntity
  8
외형선
  6
Continuous
370
    15
100
AcDbLine
 10
28.07514300435387
 20
7.873544301211857
 30
0.0
 11
28.07514300435387
 21
7.937499999999993
 31
0.0
  0
SPLINE
  5
AE
330
1F
100
AcDbEntity
  8
외형선
  6
Continuous
370
    15
100
AcDbSpline
210
0.0
220
0.0
230
1.0
 70
     8
 71
     3
 72
     8
 73
     4
 74
     0
 42
0.000000001
 43
0.00000001
 40
0.0
 40
0.0
 40
0.0
 40
0.0
 40
1.0
 40
1.0
 40
1.0
 40
1.0
 10
28.57500000000001
 20
7.83167931419962
 30
0.0
 10
28.40832874924461
 20
7.847372605603652
 30
0.0
 10
28.24205411253062
 20
7.861321879669379
 30
0.0
 10
28.07514300435388
 20
7.873544167838161
 30
0.0
  0
SPLINE
  5
AF
330
1F
100
AcDbEntity
  8
외형선
  6
Continuous
370
    15
100
AcDbSpline
210
0.0
220
0.0
230
1.0
 70
     8
 71
     3
 72
     8
 73
     4
 74
     0
 42
0.000000001
 43
0.00000001
 40
0.0
 40
0.0
 40
0.0
 40
0.0
 40
1.0
 40
1.0
 40
1.0
 40
1.0
 10
28.575
 20
6.90600372411866
 30
0.0
 10
28.4083287492446
 20
6.953540120130078
 30
0.0
 10
28.24205411253059
 20
6.999511949544194
 30
0.0
 10
28.0751430043539
 20
7.043981358166342
 30
0.0
  0
LINE
  5
B0
330
1F
100
AcDbEntity
  8
외형선
  6
Continuous
370
    15
100
AcDbLine
 10
28.07514300435387
 20
-1.005587582885924
 30
0.0
 11
28.07514300435388
 21
7.043981815437904
 31
0.0
  0
SPLINE
  5
B1
330
1F
100
AcDbEntity
  8
외형선
  6
Continuous
370
    15
100
AcDbSpline
210
0.0
220
0.0
230
1.0
 70
     8
 71
     3
 72
     8
 73
     4
 74
     0
 42
0.000000001
 43
0.00000001
 40
0.0
 40
0.0
 40
0.0
 40
0.0
 40
1.0
 40
1.0
 40
1.0
 40
1.0
 10
28.57500000000001
 20
-1.291783793650437
 30
0.0
 10
28.40832874924461
 20
-1.196640298071074
 30
0.0
 10
28.24205411253062
 20
-1.101286532986064
 30
0.0
 10
28.07514300435388
 20
-1.005588627174056
 30
0.0
  0
SPLINE
  5
B2
330
1F
100
AcDbEntity
  8
외형선
  6
Continuous
370
    15
100
AcDbSpline
210
0.0
220
0.0
230
1.0
 70
     8
 71
     3
 72
     8
 73
     4
 74
     0
 42
0.000000001
 43
0.00000001
 40
0.0
 40
0.0
 40
0.0
 40
0.0
 40
1.0
 40
1.0
 40
1.0
 40
1.0
 10
28.575
 20
-3.912929696845955
 30
0.0
 10
28.4083287492446
 20
-3.829031811292161
 30
0.0
 10
28.24205411253059
 20
-3.744335213585008
 30
0.0
 10
28.0751430043539
 20
-3.658720114439585
 30
0.0
  0
LINE
  5
B3
330
1F
100
AcDbEntity
  8
외형선
  6
Continuous
370
    15
100
AcDbLine
 10
28.07514300435387
 20
-7.9375
 30
0.0
 11
28.07514300435388
 21
-3.658719234073565
 31
0.0
  0
SPLINE
  5
B4
330
1F
100
AcDbEntity
  8
외형선
  6
Continuous
370
    15
100
AcDbSpline
210
0.0
220
0.0
230
1.0
 70
     8
 71
     3
 72
     8
 73
     4
 74
     0
 42
0.000000001
 43
0.00000001
 40
0.0
 40
0.0
 40
0.0
 40
0.0
 40
1.0
 40
1.0
 40
1.0
 40
1.0
 10
28.57500000000001
 20
-7.831679314199621
 30
0.0
 10
28.40832874924461
 20
-7.847372605603654
 30
0.0
 10
28.24205411253062
 20
-7.86132187966938
 30
0.0
 10
28.07514300435388
 20
-7.873544167838162
 30
0.0
  0
SPLINE
  5
B9
330
1F
100
AcDbEntity
  8
외형선
  6
Continuous
370
    15
100
AcDbSpline
210
0.0
220
0.0
230
1.0
 70
    24
 71
     3
 72
    21
 73
    17
 74
     0
 42
0.000000001
 43
0.00000001
 40
0.0
 40
0.0
 40
0.0
 40
0.0
 40
0.0387861723537145
 40
0.1112939823474393
 40
0.1859045237430099
 40
0.2584123337367344
 40
0.3330228751323049
 40
0.4055306851260293
 40
0.4801412265215995
 40
0.5526490365153242
 40
0.6272595779108947
 40
0.6997673879046146
 40
0.7743779293001805
 40
0.8468857392939095
 40
0.9214962806894849
 40
1.0
 40
1.0
 40
1.0
 40
1.0
 10
28.57500000000001
 20
-1.300180474927176
 30
0.0
 10
28.57500000000002
 20
-1.289083419466174
 30
0.0
 10
28.57500000000005
 20
-1.257241259757237
 30
0.0
 10
28.57499999999995
 20
-1.060011489396212
 30
0.0
 10
28.57499999999995
 20
-0.7244788418857094
 30
0.0
 10
28.575
 20
-0.2609709142617753
 30
0.0
 10
28.57500000000014
 20
0.300724662298068
 30
0.0
 10
28.57499999999994
 20
0.9570529187021203
 30
0.0
 10
28.57500000000005
 20
1.677029540221282
 30
0.0
 10
28.57499999999994
 20
2.453381652827141
 30
0.0
 10
28.57500000000007
 20
3.250166278305437
 30
0.0
 10
28.57500000000004
 20
4.059005258083345
 30
0.0
 10
28.57500000000002
 20
4.843104756664689
 30
0.0
 10
28.5750000000001
 20
5.591912076463926
 30
0.0
 10
28.57499999999992
 20
6.298747382930267
 30
0.0
 10
28.575
 20
6.700182563970576
 30
0.0
 10
28.57500000000001
 20
6.906003724118728
 30
0.0
  0
SPLINE
  5
BA
330
1F
100
AcDbEntity
  8
외형선
  6
Continuous
370
    15
100
AcDbSpline
210
0.0
220
0.0
230
1.0
 70
    24
 71
     3
 72
    13
 73
     9
 74
     0
 42
0.000000001
 43
0.00000001
 40
0.0
 40
0.0
 40
0.0
 40
0.0
 40
0.1861159836213242
 40
0.3773265251360047
 40
0.5686275801891896
 40
0.7654763787985703
 40
0.9567774338517538
 40
1.0
 40
1.0
 40
1.0
 40
1.0
 10
28.57500000000001
 20
-7.831679314199621
 30
0.0
 10
28.57500000000002
 20
-7.575738468534407
 30
0.0
 10
28.57500000000004
 20
-7.05685090145841
 30
0.0
 10
28.57500000000004
 20
-6.273172254548473
 30
0.0
 10
28.57499999999992
 20
-5.498695187289115
 30
0.0
 10
28.57500000000001
 20
-4.778361552857264
 30
0.0
 10
28.57499999999997
 20
-4.270687965911526
 30
0.0
 10
28.57500000000001
 20
-4.042946956530471
 30
0.0
 10
28.57500000000001
 20
-4.000974421771652
 30
0.0
  0
LINE
  5
BB
330
1F
100
AcDbEntity
  8
중심선
 48
0.8
100
AcDbLine
 10
-66.5
 20
-0.0000000000000079
 30
0.0
 11
66.50000000000001
 21
0.0000000000000079
 31
0.0
  0
LINE
  5
BC
330
1F
100
AcDbEntity
  8
참조1
100
AcDbLine
 10
24.00588065701562
 20
0.0010749287238892
 30
0.0
 11
24.00588065701562
 21
-39.99892507127611
 31
0.0
  0
LINE
  5
BD
330
1F
100
AcDbEntity
  8
참조1
100
AcDbLine
 10
24.00588065701562
 20
-39.99892507127611
 30
0.0
 11
-29.25297615729306
 21
-39.9989250712761
 31
0.0
  0
CIRCLE
  5
BE
330
1F
100
AcDbEntity
  8
해칭선
100
AcDbCircle
 10
0.0
 20
0.0
 30
0.0
 40
3.000000000000004
  0
INSERT
  5
BF
330
1F
100
AcDbEntity
  8
0
  6
Continuous
 62
     7
100
AcDbBlockReference
 66
     1
  2
블럭10
 10
-13.9402729321252
 20
-52.04717430164393
 30
0.0
  0
ATTRIB
  5
C0
330
BF
100
AcDbEntity
  8
FORMAT
 62
     2
100
AcDbText
 10
-23.12156822086648
 20
-49.97180738881174
 30
0.0
 40
4.233333333333333
  1
E2051040 [ 4 FLUTE ]
 41
0.75
  7
SLDTEXTSTYLE0
 11
-23.12156822086648
 21
-52.08847405547841
 31
0.0
100
AcDbAttribute
  2
AUTOATTR0
 70
     0
 74
     1
  0
SEQEND
  5
C1
330
BF
100
AcDbEntity
  8
0
  6
Continuous
 62
     7
  0
HATCH
  5
C2
330
1F
100
AcDbEntity
  8
중심선
100
AcDbHatch
 10
0.0
 20
0.0
 30
0.0
210
0.0
220
0.0
230
1.0
  2
SOLID
 70
     1
 71
     0
 91
        1
 92
        0
 93
        4
 72
     1
 10
-8.225363627744363
 20
-35.8
 11
-11.67163887158165
 21
-35.8
 72
     1
 10
-11.67163887158165
 20
-35.8
 11
-13.79986873078567
 21
-38.3363255805726
 72
     1
 10
-13.79986873078567
 20
-38.3363255805726
 11
-10.35356040183524
 21
-38.33628615127011
 72
     1
 10
-10.35356040183524
 20
-38.33628615127011
 11
-8.225363627744363
 21
-35.8
 97
        0
 75
     0
 76
     1
 98
        1
 10
-24.00588065701561
 20
-0.0010749287238972
  0
HATCH
  5
C3
330
1F
100
AcDbEntity
  8
중심선
100
AcDbHatch
 10
0.0
 20
0.0
 30
0.0
210
0.0
220
0.0
230
1.0
  2
SOLID
 70
     1
 71
     0
 91
        1
 92
        0
 93
        4
 72
     1
 10
-3.212599636708411
 20
-35.8
 11
-6.658874880545639
 21
-35.79999999999998
 72
     1
 10
-6.658874880545639
 20
-35.79999999999998
 11
-11.19001288890308
 21
-41.20000000000002
 72
     1
 10
-11.19001288890308
 20
-41.20000000000002
 11
-7.743737645065799
 21
-41.20000000000002
 72
     1
 10
-7.743737645065799
 20
-41.20000000000002
 11
-3.212599636708411
 21
-35.8
 97
        0
 75
     0
 76
     1
 98
        1
 10
-24.00588065701561
 20
-0.0010749287238972
  0
HATCH
  5
C4
330
1F
100
AcDbEntity
  8
중심선
100
AcDbHatch
 10
0.0
 20
0.0
 30
0.0
210
0.0
220
0.0
230
1.0
  2
SOLID
 70
     1
 71
     0
 91
        1
 92
        0
 93
        4
 72
     1
 10
1.800164354327485
 20
-35.79999999999998
 11
-1.646110889509632
 21
-35.79999999999998
 72
     1
 10
-1.646110889509632
 20
-35.79999999999998
 11
-8.69454779139888
 21
-44.20000000000002
 72
     1
 10
-8.69454779139888
 20
-44.20000000000002
 11
-5.248272547561598
 21
-44.20000000000002
 72
     1
 10
-5.248272547561598
 20
-44.20000000000002
 11
1.800164354327485
 21
-35.79999999999998
 97
        0
 75
     0
 76
     1
 98
        1
 10
-24.00588065701561
 20
-0.0010749287238972
  0
HATCH
  5
C5
330
1F
100
AcDbEntity
  8
중심선
100
AcDbHatch
 10
0.0
 20
0.0
 30
0.0
210
0.0
220
0.0
230
1.0
  2
SOLID
 70
     1
 71
     0
 91
        1
 92
        0
 93
        6
 72
     3
 10
6.600054785339683
 20
-40.00000000005127
 11
3.960054785062287
 21
1.540882976769353E-10
 40
0.3939339440162625
 50
17.09539180608457
 51
320.0019657685068
 73
     0
 72
     1
 10
8.28305444104025
 20
-38.58789400463827
 11
10.58835631474129
 21
-36.65356729459038
 72
     3
 10
6.600054785286837
 20
-40.00000000000015
 11
6.600054785286829
 21
-1.278976924368180E-13
 40
0.636358354079598
 50
39.99873849337429
 51
368.4976242363724
 73
     1
 72
     1
 10
13.02538727718742
 20
-39.03999999993002
 11
5.280122092122788
 21
-39.03999999993002
 72
     1
 10
5.280122092122788
 20
-39.03999999993002
 11
5.280097047676826
 21
-40.95999999992991
 72
     1
 10
5.280097047676826
 20
-40.95999999992991
 11
9.721476817148833
 21
-40.95999999992988
 97
        0
 75
     0
 76
     1
 98
        1
 10
-24.00588065701561
 20
-0.0010749287238972
  0
DIMENSION
  5
C6
330
1F
100
AcDbEntity
  8
치수문자_일반주서
100
AcDbDimension
  2
_D
 10
76.3962514825415
 20
-7.937499999999943
 30
0.0
 11
76.39625148254137
 21
28.54150000000009
 31
0.0
 70
   160
  1
%%c<>
 71
     2
 42
15.875
 52
-270.0
  3
SLDDIMSTYLE2
100
AcDbAlignedDimension
 13
63.5
 23
7.937500000000008
 33
0.0
 14
63.5
 24
-7.937499999999992
 34
0.0
 50
90.0000000000002
100
AcDbRotatedDimension
1001
ACAD
1000
DSTYLE
1002
{
1070
   171
1070
     6
1070
   273
1070
     5
1002
}
  0
DIMENSION
  5
DA
330
1F
100
AcDbEntity
  8
치수문자_일반주서
100
AcDbDimension
  2
_D_1
 10
28.57499999999998
 20
23.08779445861233
 30
0.0
 11
-4.650275375787658
 21
23.08779445861233
 31
0.0
 70
   160
  1
<>
 71
     2
 42
34.92500000000002
  3
SLDDIMSTYLE2
100
AcDbAlignedDimension
 13
63.5
 23
7.937500000000008
 33
0.0
 14
28.57499999999998
 24
7.831679314199626
 34
0.0
 50
0.0000000000000117
100
AcDbRotatedDimension
1001
ACAD
1000
DSTYLE
1002
{
1070
   171
1070
     6
1070
   273
1070
     5
1002
}
  0
DIMENSION
  5
EE
330
1F
100
AcDbEntity
  8
치수문자_일반주서
100
AcDbDimension
  2
_D_2
 10
-63.49999999999999
 20
37.16395781729394
 30
0.0
 11
-4.248099279825325
 21
37.16395781729394
 31
0.0
 70
   160
  1
<>
 71
     2
 42
127.0
  3
SLDDIMSTYLE2
100
AcDbAlignedDimension
 13
63.5
 23
7.937500000000008
 33
0.0
 14
-63.49999999999999
 24
6.350000000000001
 34
0.0
 50
0.0000000000000064
100
AcDbRotatedDimension
1001
ACAD
1000
DSTYLE
1002
{
1070
   171
1070
     6
1070
   273
1070
     5
1002
}
  0
DIMENSION
  5
101
330
1F
100
AcDbEntity
  8
치수문자_일반주서
100
AcDbDimension
  2
_D_3
 10
-75.38874999999999
 20
-7.937500000000171
 30
0.0
 11
-75.38875000000002
 21
-0.0000000000000187
 31
0.0
 70
   160
  1
%%c<>
 71
     2
 42
15.81104416783815
 52
-270.0
  3
SLDDIMSTYLE2
100
AcDbAlignedDimension
 13
-28.07514300435389
 23
7.87354416783816
 33
0.0
 14
-28.07514300435389
 24
-7.937499999999995
 34
0.0
 50
90.0000000000002
100
AcDbRotatedDimension
1001
ACAD
1000
DSTYLE
1002
{
1070
   171
1070
     6
1070
   273
1070
     5
1002
}
  0
LINE
  5
116
330
1F
100
AcDbEntity
  8
참조1
100
AcDbLine
 10
68.7193644723612
 20
7.441074928723896
 30
0.0
 11
68.7193644723612
 21
-7.438925071276109
 31
0.0
  0
LINE
  5
117
330
1F
100
AcDbEntity
  8
참조1
100
AcDbLine
 10
81.41936447236121
 20
5.441074928723896
 30
0.0
 11
68.7193644723612
 21
5.441074928723896
 31
0.0
  0
SOLID
  5
118
330
1F
100
AcDbEntity
  8
참조1
100
AcDbTrace
 10
68.7193644723612
 20
5.441074928723896
 30
0.0
 11
75.0693644723612
 21
4.425074928723896
 31
0.0
 12
75.0693644723612
 22
6.457074928723896
 32
0.0
 13
75.0693644723612
 23
6.457074928723896
 33
0.0
  0
LINE
  5
119
330
1F
100
AcDbEntity
  8
참조1
100
AcDbLine
 10
81.41936447236121
 20
-5.438925071276109
 30
0.0
 11
68.7193644723612
 21
-5.438925071276109
 31
0.0
  0
SOLID
  5
11A
330
1F
100
AcDbEntity
  8
참조1
100
AcDbTrace
 10
68.7193644723612
 20
-5.438925071276109
 30
0.0
 11
75.0693644723612
 21
-6.454925071276109
 31
0.0
 12
75.0693644723612
 22
-4.422925071276109
 32
0.0
 13
75.0693644723612
 23
-4.422925071276109
 33
0.0
  0
MTEXT
  5
11B
330
1F
100
AcDbEntity
  8
참조1
100
AcDbMText
 10
78.1037146049872
 20
11.01136670591223
 30
0.0
 40
3.5
 41
0.0
 71
     1
 72
     1
  1
A
  7
SLDTEXTSTYLE0
 73
     1
 44
1.0
  0
MTEXT
  5
11C
330
1F
100
AcDbEntity
  8
참조1
100
AcDbMText
 10
78.1037146049872
 20
0.1313667059122219
 30
0.0
 40
3.5
 41
0.0
 71
     1
 72
     1
  1
A
  7
SLDTEXTSTYLE0
 73
     1
 44
1.0
  0
INSERT
  5
123
330
1F
100
AcDbEntity
  8
해칭선
100
AcDbBlockReference
  2
SW_DOWELSYMBOL_0
 10
0.0
 20
0.0
 30
0.0
  0
LINE
  5
305
330
1F
100
AcDbEntity
  8
0
  6
Continuous
 62
     1
370
    15
100
AcDbLine
 10
-30.4574853993721
 20
2.348162911993489
 30
0.0
 11
-30.51793225381743
 21
2.381318228675878
 31
0.0
  0
LINE
  5
306
330
1F
100
AcDbEntity
  8
0
  6
Continuous
 62
     1
370
    15
100
AcDbLine
 10
-47.92341081049403
 20
-7.937499999999988
 30
0.0
 11
-43.08522471831907
 21
-7.937499999999988
 31
0.0
  0
LINE
  5
307
330
1F
100
AcDbEntity
  8
0
  6
Continuous
 62
     1
370
    15
100
AcDbLine
 10
-43.08522471831895
 20
7.937500000000012
 30
0.0
 11
-47.92341081049403
 21
7.937500000000012
 31
0.0
  0
SPLINE
  5
30A
330
1F
100
AcDbEntity
  8
0
  6
Continuous
 62
     1
370
    15
100
AcDbSpline
210
0.0
220
0.0
230
1.0
 70
     8
 71
     3
 72
    18
 73
    14
 74
     0
 42
0.000000001
 43
0.00000001
 40
0.0
 40
0.0
 40
0.0
 40
0.0
 40
0.1006721901284499
 40
0.2013466909782755
 40
0.302023303378983
 40
0.4027018276810853
 40
0.5033820638010035
 40
0.6040638112661885
 40
0.7047468692604395
 40
0.7970387973365455
 40
0.8893337328100791
 40
0.981632304725317
 40
1.0
 40
1.0
 40
1.0
 40
1.0
 10
-28.57500000000005
 20
1.291783793650436
 30
0.0
 10
-29.50622965892319
 20
1.817139802247729
 30
0.0
 10
-31.36871035121533
 20
2.867863877900147
 30
0.0
 10
-34.16247799432762
 20
4.311666238881143
 30
0.0
 10
-36.95631554527165
 20
5.581838445717386
 30
0.0
 10
-39.75021474441854
 20
6.621294965550936
 30
0.0
 10
-42.54417935762694
 20
7.388401289283513
 30
0.0
 10
-45.33816262109684
 20
7.851770558930921
 30
0.0
 10
-48.05467423418878
 20
7.986553626157521
 30
0.0
 10
-50.6932085660012
 20
7.825185115271038
 30
0.0
 10
-53.25431320110795
 20
7.378715300028693
 30
0.0
 10
-55.13162954096941
 20
6.916695228517559
 30
0.0
 10
-56.15526754466651
 20
6.544892319667559
 30
0.0
 10
-56.32516458195636
 20
6.483182796924934
 30
0.0
  0
SPLINE
  5
30B
330
1F
100
AcDbEntity
  8
외형선
  6
Continuous
370
    15
100
AcDbSpline
210
0.0
220
0.0
230
1.0
 70
    24
 71
     3
 72
    21
 73
    17
 74
     0
 42
0.000000001
 43
0.00000001
 40
0.0
 40
0.0
 40
0.0
 40
0.0
 40
0.0920316746056303
 40
0.1643648128765403
 40
0.2387956170575013
 40
0.3111287553284116
 40
0.385559559509373
 40
0.4578926977802834
 40
0.5323235019612451
 40
0.6046566402321563
 40
0.6790874444131183
 40
0.7514205826840284
 40
0.8258513868649903
 40
0.8981845251358803
 40
0.9726153293168601
 40
1.0
 40
1.0
 40
1.0
 40
1.0
 10
-28.57499999999993
 20
-6.906003724118657
 30
0.0
 10
-28.57500000000005
 20
-6.6618888155545
 30
0.0
 10
-28.57500000000005
 20
-6.2259095569084
 30
0.0
 10
-28.57500000000005
 20
-5.462898870050362
 30
0.0
 10
-28.57499999999993
 20
-4.712515928281116
 30
0.0
 10
-28.57500000000005
 20
-3.91644539736627
 30
0.0
 10
-28.57499999999993
 20
-3.114170186286396
 30
0.0
 10
-28.57499999999993
 20
-2.313258261755687
 30
0.0
 10
-28.57500000000016
 20
-1.550970034695071
 30
0.0
 10
-28.57499999999987
 20
-0.8351588216555845
 30
0.0
 10
-28.57500000000016
 20
-0.1988066483744098
 30
0.0
 10
-28.57499999999999
 20
0.3508740262034331
 30
0.0
 10
-28.57499999999993
 20
0.7908790920034272
 30
0.0
 10
-28.57500000000005
 20
1.107515862437486
 30
0.0
 10
-28.57499999999999
 20
1.27659600743552
 30
0.0
 10
-28.57500000000005
 20
1.300176306006326
 30
0.0
 10
-28.57500000000005
 20
1.30651855124786
 30
0.0
  0
SPLINE
  5
30C
330
1F
100
AcDbEntity
  8
0
  6
Continuous
 62
     1
370
    15
100
AcDbSpline
210
0.0
220
0.0
230
1.0
 70
     8
 71
     3
 72
    56
 73
    52
 74
     0
 42
0.000000001
 43
0.00000001
 40
0.0
 40
0.0
 40
0.0
 40
0.0
 40
0.0625000000000003
 40
0.0625000000000003
 40
0.0937500000000005
 40
0.0937500000000005
 40
0.1250000000000006
 40
0.1250000000000006
 40
0.1875000000000018
 40
0.1875000000000018
 40
0.2187500000000024
 40
0.2187500000000024
 40
0.2500000000000029
 40
0.2500000000000029
 40
0.3125000000000032
 40
0.3125000000000032
 40
0.3750000000000034
 40
0.3750000000000034
 40
0.4062500000000036
 40
0.4062500000000036
 40
0.4375000000000038
 40
0.4375000000000038
 40
0.5000000000000031
 40
0.5000000000000031
 40
0.5312500000000032
 40
0.5312500000000032
 40
0.5625000000000034
 40
0.5625000000000034
 40
0.5937500000000036
 40
0.5937500000000036
 40
0.6250000000000038
 40
0.6250000000000038
 40
0.687500000000003
 40
0.687500000000003
 40
0.7187500000000028
 40
0.7187500000000028
 40
0.7500000000000024
 40
0.7500000000000024
 40
0.7812500000000021
 40
0.7812500000000021
 40
0.8125000000000019
 40
0.8125000000000019
 40
0.8437500000000016
 40
0.8437500000000016
 40
0.8750000000000012
 40
0.8750000000000012
 40
0.906250000000001
 40
0.906250000000001
 40
0.9375000000000007
 40
0.9375000000000007
 40
1.0
 40
1.0
 40
1.0
 40
1.0
 10
-63.5
 20
7.937499999999998
 30
0.0
 10
-62.77591325284391
 20
7.872375814329613
 30
0.0
 10
-62.04332337835876
 20
7.802974247543068
 30
0.0
 10
-60.95231674663808
 20
7.650407986308258
 30
0.0
 10
-60.59090019499479
 20
7.591589304801103
 30
0.0
 10
-59.86329267106936
 20
7.457889283926717
 30
0.0
 10
-59.49826483856441
 20
7.383048509626624
 30
0.0
 10
-58.4046805160076
 20
7.135568028610107
 30
0.0
 10
-57.68139010669887
 20
6.940348785393452
 30
0.0
 10
-56.58754508818214
 20
6.60428033820021
 30
0.0
 10
-56.22261428966743
 20
6.485149589863623
 30
0.0
 10
-55.4955656549493
 20
6.233838518279091
 30
0.0
 10
-55.13408670249589
 20
6.101757041789147
 30
0.0
 10
-54.0422998239199
 20
5.685827085026061
 30
0.0
 10
-53.31158432604059
 20
5.383008489657746
 30
0.0
 10
-51.86168509582382
 20
4.736461704507482
 30
0.0
 10
-51.12895834517315
 20
4.390701824995551
 30
0.0
 10
-50.03884805964742
 20
3.84800531427018
 30
0.0
 10
-49.67724431111469
 20
3.663179377541423
 30
0.0
 10
-48.94915539354696
 20
3.285396370766696
 30
0.0
 10
-48.58406971110469
 20
3.092668599445202
 30
0.0
 10
-47.49086310230911
 20
2.505698209208786
 30
0.0
 10
-46.76736115514973
 20
2.103164821430423
 30
0.0
 10
-45.67337255151102
 20
1.487053741108012
 30
0.0
 10
-45.30857793626399
 20
1.279876086431001
 30
0.0
 10
-44.58216548746987
 20
0.8638738354450319
 30
0.0
 10
-44.22037455866968
 20
0.6550195660654887
 30
0.0
 10
-43.49207405976296
 20
0.2354700152452957
 30
0.0
 10
-43.12697415340142
 20
0.0250445691261072
 30
0.0
 10
-42.39832487958688
 20
-0.3951194396151385
 30
0.0
 10
-42.03600582794553
 20
-0.6046209814666119
 30
0.0
 10
-40.94740193071112
 20
-1.230883360952847
 30
0.0
 10
-40.21461762079758
 20
-1.646298067946221
 30
0.0
 10
-39.12551946204877
 20
-2.254568732582032
 30
0.0
 10
-38.76347898541235
 20
-2.454992681933045
 30
0.0
 10
-38.03498634119302
 20
-2.851071445063456
 30
0.0
 10
-37.66988201360431
 20
-3.046472752134159
 30
0.0
 10
-36.94140733894932
 20
-3.430152958262804
 30
0.0
 10
-36.57939407223154
 20
-3.618203159184449
 30
0.0
 10
-35.85329377757489
 20
-3.986688147712302
 30
0.0
 10
-35.48857337865684
 20
-4.167218303745992
 30
0.0
 10
-34.75923002754439
 20
-4.51911175217383
 30
0.0
 10
-34.39461069605568
 20
-4.690473302921228
 30
0.0
 10
-33.66891150377955
 20
-5.022457276446007
 30
0.0
 10
-33.30655913389171
 20
-5.183287088021894
 30
0.0
 10
-32.57789379750841
 20
-5.494296472098087
 30
0.0
 10
-32.21279485178121
 20
-5.644288129611391
 30
0.0
 10
-31.48451422783296
 20
-5.931834245841339
 30
0.0
 10
-31.12274439820834
 20
-6.069223020925799
 30
0.0
 10
-30.03307627200559
 20
-6.46243141751218
 30
0.0
 10
-29.30031374062423
 20
-6.699136606660966
 30
0.0
 10
-28.57499999999999
 20
-6.906003724118657
 30
0.0
  0
LINE
  5
30D
330
1F
100
AcDbEntity
  8
0
  6
Continuous
 62
     1
370
    15
100
AcDbLine
 10
-63.5
 20
7.188845709717489
 30
0.0
 11
-63.5
 21
-0.6800957097175717
 31
0.0
  0
SPLINE
  5
30E
330
1F
100
AcDbEntity
  8
0
  6
Continuous
 62
     1
370
    15
100
AcDbSpline
210
0.0
220
0.0
230
1.0
 70
     8
 71
     3
 72
    56
 73
    52
 74
     0
 42
0.000000001
 43
0.00000001
 40
0.0
 40
0.0
 40
0.0
 40
0.0
 40
0.0624999999999982
 40
0.0624999999999982
 40
0.0937499999999977
 40
0.0937499999999977
 40
0.1249999999999972
 40
0.1249999999999972
 40
0.1874999999999972
 40
0.1874999999999972
 40
0.2187499999999967
 40
0.2187499999999967
 40
0.2499999999999962
 40
0.2499999999999962
 40
0.3124999999999953
 40
0.3124999999999953
 40
0.3749999999999943
 40
0.3749999999999943
 40
0.4062499999999943
 40
0.4062499999999943
 40
0.4374999999999943
 40
0.4374999999999943
 40
0.4999999999999942
 40
0.4999999999999942
 40
0.5312499999999947
 40
0.5312499999999947
 40
0.562499999999995
 40
0.562499999999995
 40
0.5937499999999954
 40
0.5937499999999954
 40
0.6249999999999959
 40
0.6249999999999959
 40
0.6874999999999967
 40
0.6874999999999967
 40
0.7187499999999971
 40
0.7187499999999971
 40
0.7499999999999976
 40
0.7499999999999976
 40
0.781249999999998
 40
0.781249999999998
 40
0.8124999999999983
 40
0.8124999999999983
 40
0.8437499999999988
 40
0.8437499999999988
 40
0.8749999999999992
 40
0.8749999999999992
 40
0.9062499999999997
 40
0.9062499999999997
 40
0.9375
 40
0.9375
 40
1.0
 40
1.0
 40
1.0
 40
1.0
 10
-63.5
 20
7.188845709717489
 30
0.0
 10
-62.77591325284379
 20
7.01103728513076
 30
0.0
 10
-62.04332337835876
 20
6.802242424553034
 30
0.0
 10
-60.95231674663808
 20
6.448260094713453
 30
0.0
 10
-60.59090019499479
 20
6.323630289562152
 30
0.0
 10
-59.86329267106942
 20
6.060818426163364
 30
0.0
 10
-59.49826483856447
 20
5.922751210676166
 30
0.0
 10
-58.4046805160076
 20
5.490484771956671
 30
0.0
 10
-57.68139010669893
 20
5.178792762786669
 30
0.0
 10
-56.5875450881822
 20
4.679358970076548
 30
0.0
 10
-56.22261428966743
 20
4.50772814480745
 30
0.0
 10
-55.4955656549493
 20
4.155810594079645
 30
0.0
 10
-55.13408670249589
 20
3.975644045260144
 30
0.0
 10
-54.0422998239199
 20
3.421980161015588
 30
0.0
 10
-53.31158432604059
 20
3.03639179671809
 30
0.0
 10
-51.86168509582387
 20
2.245059366573945
 30
0.0
 10
-51.1289583451732
 20
1.836852008957249
 30
0.0
 10
-50.03884805964748
 20
1.217200851679513
 30
0.0
 10
-49.67724431111469
 20
1.009493341375728
 30
0.0
 10
-48.94915539354702
 20
0.5914649350765211
 30
0.0
 10
-48.58406971110469
 20
0.3814093514539516
 30
0.0
 10
-47.49086310230916
 20
-0.2489058683428189
 30
0.0
 10
-46.76736115514973
 20
-0.6688164938188683
 30
0.0
 10
-45.67337255151102
 20
-1.293506540731381
 30
0.0
 10
-45.30857793626404
 20
-1.500617516181302
 30
0.0
 10
-44.58216548746981
 20
-1.910657699073264
 30
0.0
 10
-44.22037455866968
 20
-2.113625889112017
 30
0.0
 10
-43.49207405976296
 20
-2.515574425043619
 30
0.0
 10
-43.12697415340136
 20
-2.714286580701244
 30
0.0
 10
-42.39832487958688
 20
-3.10530636659121
 30
0.0
 10
-42.03600582794547
 20
-3.297400938400417
 30
0.0
 10
-40.94740193071118
 20
-3.863013997200456
 30
0.0
 10
-40.21461762079764
 20
-4.226586475125645
 30
0.0
 10
-39.12551946204883
 20
-4.741433382455087
 30
0.0
 10
-38.76347898541235
 20
-4.90810712335575
 30
0.0
 10
-38.03498634119302
 20
-5.231464889872599
 30
0.0
 10
-37.66988201360437
 20
-5.387932776566133
 30
0.0
 10
-36.94140733894938
 20
-5.688968314751387
 30
0.0
 10
-36.57939407223159
 20
-5.833366123540722
 30
0.0
 10
-35.85329377757489
 20
-6.109915387272162
 30
0.0
 10
-35.48857337865684
 20
-6.242128457731662
 30
0.0
 10
-34.75923002754433
 20
-6.493125768961699
 30
0.0
 10
-34.39461069605574
 20
-6.611908771438801
 30
0.0
 10
-33.66891150377955
 20
-6.834991308780035
 30
0.0
 10
-33.30655913389177
 20
-6.939439511797064
 30
0.0
 10
-32.57789379750841
 20
-7.133907595152381
 30
0.0
 10
-32.21279485178121
 20
-7.223799996890763
 30
0.0
 10
-31.48451422783296
 20
-7.388060063435036
 30
0.0
 10
-31.1227443982084
 20
-7.462347323195447
 30
0.0
 10
-30.03307627200564
 20
-7.661819353804413
 30
0.0
 10
-29.30031374062423
 20
-7.763385833234091
 30
0.0
 10
-28.57499999999999
 20
-7.83167931419962
 30
0.0
  0
SPLINE
  5
30F
330
1F
100
AcDbEntity
  8
0
  6
Continuous
 62
     1
370
    15
100
AcDbSpline
210
0.0
220
0.0
230
1.0
 70
     8
 71
     3
 72
    18
 73
    14
 74
     0
 42
0.000000001
 43
0.00000001
 40
0.0
 40
0.0
 40
0.0
 40
0.0
 40
0.0970507696540147
 40
0.1941041079566097
 40
0.2911598238228169
 40
0.3882177256292874
 40
0.4852776212571702
 40
0.5823393181352273
 40
0.6794026232831856
 40
0.7683822747450871
 40
0.8573655637767135
 40
0.9463530947223479
 40
1.0
 40
1.0
 40
1.0
 40
1.0
 10
-63.5
 20
-0.6800957097175717
 30
0.0
 10
-62.56882164508022
 20
-1.213072332364826
 30
0.0
 10
-60.70644028968678
 20
-2.279039683983785
 30
0.0
 10
-57.91281423741646
 20
-3.776687036147296
 30
0.0
 10
-55.11910670043966
 20
-5.120926186274056
 30
0.0
 10
-52.32532532803617
 20
-6.253897809075292
 30
0.0
 10
-49.53146787759704
 20
-7.129573912498453
 30
0.0
 10
-46.73757546342642
 20
-7.712006830584075
 30
0.0
 10
-44.02110433189898
 20
-7.968876385026997
 30
0.0
 10
-41.38248423270397
 20
-7.924075433124417
 30
0.0
 10
-38.82123307520942
 20
-7.596549742319612
 30
0.0
 10
-36.59898511197457
 20
-7.116335851097988
 30
0.0
 10
-35.23046121744079
 20
-6.65724581056425
 30
0.0
 10
-34.71573929134627
 20
-6.484575307069052
 30
0.0
  0
LINE
  5
310
330
1F
100
AcDbEntity
  8
0
  6
Continuous
 62
     1
370
    15
100
AcDbLine
 10
-63.5
 20
7.937499999999998
 30
0.0
 11
-63.5
 21
7.188845709717489
 31
0.0
  0
LINE
  5
311
330
1F
100
AcDbEntity
  8
외형선
  6
Continuous
370
    15
100
AcDbLine
 10
-28.57499999999993
 20
-6.906003724118657
 30
0.0
 11
-28.57499999999999
 21
-7.831679314199627
 31
0.0
  0
SPLINE
  5
312
330
1F
100
AcDbEntity
  8
0
  6
Continuous
 62
     1
370
    15
100
AcDbSpline
210
0.0
220
0.0
230
1.0
 70
     8
 71
     3
 72
    14
 73
    10
 74
     0
 42
0.000000001
 43
0.00000001
 40
0.0
 40
0.0
 40
0.0
 40
0.0
 40
0.0134048034159961
 40
0.1778202151402979
 40
0.3422409844565
 40
0.5066682319888631
 40
0.6711030752338357
 40
0.8355466280246955
 40
1.0
 40
1.0
 40
1.0
 40
1.0
 10
-47.92341081049403
 20
-7.926196315294996
 30
0.0
 10
-47.99301579107305
 20
-7.929925810218537
 30
0.0
 10
-48.91635440614152
 20
-7.979399089989082
 30
0.0
 10
-50.69319431544358
 20
-7.801886445556734
 30
0.0
 10
-53.25431559329559
 20
-7.395990430650523
 30
0.0
 10
-55.81550702953518
 20
-6.702586152431367
 30
0.0
 10
-58.37685464749978
 20
-5.783606272568045
 30
0.0
 10
-60.93835894824895
 20
-4.670515826197674
 30
0.0
 10
-62.6461026545777
 20
-3.800297351165997
 30
0.0
 10
-63.5
 20
-3.365175123507842
 30
0.0
  0
LINE
  5
313
330
1F
100
AcDbEntity
  8
0
  6
Continuous
 62
     1
370
    15
100
AcDbLine
 10
-63.5
 20
-0.6800957097175717
 30
0.0
 11
-63.5
 21
-3.365175123507842
 31
0.0
  0
SPLINE
  5
314
330
1F
100
AcDbEntity
  8
0
  6
Continuous
 62
     1
370
    15
100
AcDbSpline
210
0.0
220
0.0
230
1.0
 70
     8
 71
     3
 72
    13
 73
     9
 74
     0
 42
0.000000001
 43
0.00000001
 40
0.0
 40
0.0
 40
0.0
 40
0.0
 40
0.117349185749062
 40
0.2938636120017982
 40
0.4703864528571571
 40
0.6469189030842047
 40
0.8234615972717758
 40
1.0
 40
1.0
 40
1.0
 40
1.0
 10
-43.08522471831895
 20
7.906839793668963
 30
0.0
 10
-42.51765080533949
 20
7.907228079366275
 30
0.0
 10
-41.09634294468844
 20
7.908200417067404
 30
0.0
 10
-38.82123759895308
 20
7.595917024617952
 30
0.0
 10
-36.25985945459945
 20
7.022182450782955
 30
0.0
 10
-33.69831996347
 20
6.192099414277598
 30
0.0
 10
-31.13665931951186
 20
5.160332628426927
 30
0.0
 10
-29.42887952087199
 20
4.328727304841548
 30
0.0
 10
-28.57499999999999
 20
3.912929696845948
 30
0.0
  0
LINE
  5
315
330
1F
100
AcDbEntity
  8
외형선
  6
Continuous
370
    15
100
AcDbLine
 10
-28.57499999999993
 20
3.912929696845955
 30
0.0
 11
-28.57500000000005
 21
1.291783793650436
 31
0.0
  0
SPLINE
  5
316
330
1F
100
AcDbEntity
  8
0
  6
Continuous
 62
     1
370
    15
100
AcDbSpline
210
0.0
220
0.0
230
1.0
 70
     8
 71
     3
 72
    10
 73
     6
 74
     0
 42
0.000000001
 43
0.00000001
 40
0.0
 40
0.0
 40
0.0
 40
0.0
 40
0.3893539140284151
 40
0.7787181331103733
 40
1.0
 40
1.0
 40
1.0
 40
1.0
 10
-63.5
 20
-7.937500000000002
 30
0.0
 10
-62.56882153832817
 20
-7.828357017231953
 30
0.0
 10
-60.70643996942806
 20
-7.668447795048253
 30
0.0
 10
-58.31482637009634
 20
-7.154258114902392
 30
0.0
 10
-56.85438838486425
 20
-6.66167998370039
 30
0.0
 10
-56.32516458195636
 20
-6.483182796924909
 30
0.0
  0
LINE
  5
317
330
1F
100
AcDbEntity
  8
0
  6
Continuous
 62
     1
370
    15
100
AcDbLine
 10
-63.5
 20
-3.365175123507842
 30
0.0
 11
-63.5
 21
-7.937500000000002
 31
0.0
  0
SPLINE
  5
318
330
1F
100
AcDbEntity
  8
0
  6
Continuous
 62
     1
370
    15
100
AcDbSpline
210
0.0
220
0.0
230
1.0
 70
     8
 71
     3
 72
    10
 73
     6
 74
     0
 42
0.000000001
 43
0.00000001
 40
0.0
 40
0.0
 40
0.0
 40
0.0
 40
0.4549451802942223
 40
0.9099008029117074
 40
1.0
 40
1.0
 40
1.0
 40
1.0
 10
-28.57500000000005
 20
7.831679314199624
 30
0.0
 10
-29.50622983200202
 20
7.70874958918022
 30
0.0
 10
-31.36871087045586
 20
7.462887317544491
 30
0.0
 10
-33.41562618139125
 20
6.959338516584422
 30
0.0
 10
-34.53131292508908
 20
6.551922411634846
 30
0.0
 10
-34.71573929134615
 20
6.484575307069084
 30
0.0
  0
SPLINE
  5
319
330
1F
100
AcDbEntity
  8
외형선
  6
Continuous
370
    15
100
AcDbSpline
210
0.0
220
0.0
230
1.0
 70
    24
 71
     3
 72
    13
 73
     9
 74
     0
 42
0.000000001
 43
0.00000001
 40
0.0
 40
0.0
 40
0.0
 40
0.0
 40
0.0747714749032492
 40
0.2714597994391719
 40
0.4626049030220478
 40
0.6592932275580183
 40
0.8277705072378174
 40
0.9999999999999999
 40
0.9999999999999999
 40
0.9999999999999999
 40
0.9999999999999999
 10
-28.57500000000005
 20
4.000984421771653
 30
0.0
 10
-28.57500000000005
 20
4.075334534904433
 30
0.0
 10
-28.57499999999993
 20
4.345264569391786
 30
0.0
 10
-28.57499999999993
 20
4.895812530444834
 30
0.0
 10
-28.57500000000005
 20
5.634391832747289
 30
0.0
 10
-28.57500000000005
 20
6.384292750527768
 30
0.0
 10
-28.57500000000005
 20
7.126186731952414
 30
0.0
 10
-28.57500000000005
 20
7.594794855387653
 30
0.0
 10
-28.57500000000005
 20
7.831679314199624
 30
0.0
  0
LINE
  5
31A
330
1F
100
AcDbEntity
  8
외형선
  6
Continuous
370
    15
100
AcDbLine
 10
-28.07514300435389
 20
-7.87354430121186
 30
0.0
 11
-28.07514300435389
 21
-7.937499999999995
 31
0.0
  0
SPLINE
  5
31B
330
1F
100
AcDbEntity
  8
외형선
  6
Continuous
370
    15
100
AcDbSpline
210
0.0
220
0.0
230
1.0
 70
     8
 71
     3
 72
     8
 73
     4
 74
     0
 42
0.000000001
 43
0.00000001
 40
0.0
 40
0.0
 40
0.0
 40
0.0
 40
1.0
 40
1.0
 40
1.0
 40
1.0
 10
-28.57500000000005
 20
-7.83167931419962
 30
0.0
 10
-28.40832874924462
 20
-7.847372605603647
 30
0.0
 10
-28.24205411253058
 20
-7.861321879669378
 30
0.0
 10
-28.07514300435389
 20
-7.873544167838157
 30
0.0
  0
SPLINE
  5
31C
330
1F
100
AcDbEntity
  8
외형선
  6
Continuous
370
    15
100
AcDbSpline
210
0.0
220
0.0
230
1.0
 70
     8
 71
     3
 72
     8
 73
     4
 74
     0
 42
0.000000001
 43
0.00000001
 40
0.0
 40
0.0
 40
0.0
 40
0.0
 40
1.0
 40
1.0
 40
1.0
 40
1.0
 10
-28.57499999999999
 20
-6.906003724118657
 30
0.0
 10
-28.40832874924462
 20
-6.95354012013008
 30
0.0
 10
-28.24205411253058
 20
-6.999511949544194
 30
0.0
 10
-28.07514300435389
 20
-7.043981358166343
 30
0.0
  0
LINE
  5
31D
330
1F
100
AcDbEntity
  8
외형선
  6
Continuous
370
    15
100
AcDbLine
 10
-28.07514300435389
 20
1.005587582885928
 30
0.0
 11
-28.07514300435389
 21
-7.043981815437904
 31
0.0
  0
SPLINE
  5
31E
330
1F
100
AcDbEntity
  8
외형선
  6
Continuous
370
    15
100
AcDbSpline
210
0.0
220
0.0
230
1.0
 70
     8
 71
     3
 72
     8
 73
     4
 74
     0
 42
0.000000001
 43
0.00000001
 40
0.0
 40
0.0
 40
0.0
 40
0.0
 40
1.0
 40
1.0
 40
1.0
 40
1.0
 10
-28.57500000000005
 20
1.291783793650436
 30
0.0
 10
-28.40832874924462
 20
1.196640298071072
 30
0.0
 10
-28.24205411253058
 20
1.101286532986064
 30
0.0
 10
-28.07514300435389
 20
1.005588627174054
 30
0.0
  0
SPLINE
  5
31F
330
1F
100
AcDbEntity
  8
외형선
  6
Continuous
370
    15
100
AcDbSpline
210
0.0
220
0.0
230
1.0
 70
     8
 71
     3
 72
     8
 73
     4
 74
     0
 42
0.000000001
 43
0.00000001
 40
0.0
 40
0.0
 40
0.0
 40
0.0
 40
1.0
 40
1.0
 40
1.0
 40
1.0
 10
-28.57499999999999
 20
3.912929696845955
 30
0.0
 10
-28.40832874924462
 20
3.829031811292159
 30
0.0
 10
-28.24205411253058
 20
3.744335213585008
 30
0.0
 10
-28.07514300435389
 20
3.65872011443958
 30
0.0
  0
LINE
  5
320
330
1F
100
AcDbEntity
  8
외형선
  6
Continuous
370
    15
100
AcDbLine
 10
-28.07514300435389
 20
7.937499999999998
 30
0.0
 11
-28.07514300435389
 21
3.658719234073563
 31
0.0
  0
SPLINE
  5
321
330
1F
100
AcDbEntity
  8
외형선
  6
Continuous
370
    15
100
AcDbSpline
210
0.0
220
0.0
230
1.0
 70
     8
 71
     3
 72
     8
 73
     4
 74
     0
 42
0.000000001
 43
0.00000001
 40
0.0
 40
0.0
 40
0.0
 40
0.0
 40
1.0
 40
1.0
 40
1.0
 40
1.0
 10
-28.57500000000005
 20
7.831679314199624
 30
0.0
 10
-28.40832874924462
 20
7.847372605603658
 30
0.0
 10
-28.24205411253058
 20
7.861321879669381
 30
0.0
 10
-28.07514300435389
 20
7.87354416783816
 30
0.0
  0
SPLINE
  5
322
330
1F
100
AcDbEntity
  8
외형선
  6
Continuous
370
    15
100
AcDbSpline
210
0.0
220
0.0
230
1.0
 70
    24
 71
     3
 72
    21
 73
    17
 74
     0
 42
0.000000001
 43
0.00000001
 40
0.0
 40
0.0
 40
0.0
 40
0.0
 40
0.0387861723537145
 40
0.1112939823474393
 40
0.1859045237430099
 40
0.2584123337367344
 40
0.3330228751323049
 40
0.4055306851260293
 40
0.4801412265215995
 40
0.5526490365153242
 40
0.6272595779108947
 40
0.6997673879046146
 40
0.7743779293001805
 40
0.8468857392939095
 40
0.9214962806894849
 40
1.0
 40
1.0
 40
1.0
 40
1.0
 10
-28.57500000000005
 20
1.300180474927179
 30
0.0
 10
-28.57500000000005
 20
1.289083419466172
 30
0.0
 10
-28.57500000000005
 20
1.257241259757235
 30
0.0
 10
-28.57499999999993
 20
1.060011489396208
 30
0.0
 10
-28.57499999999993
 20
0.7244788418857107
 30
0.0
 10
-28.57499999999999
 20
0.260970914261774
 30
0.0
 10
-28.57500000000016
 20
-0.3007246622980679
 30
0.0
 10
-28.57499999999993
 20
-0.95705291870212
 30
0.0
 10
-28.57500000000005
 20
-1.677029540221279
 30
0.0
 10
-28.57499999999993
 20
-2.453381652827142
 30
0.0
 10
-28.57500000000005
 20
-3.250166278305438
 30
0.0
 10
-28.57500000000005
 20
-4.05900525808334
 30
0.0
 10
-28.57500000000005
 20
-4.843104756664689
 30
0.0
 10
-28.5750000000001
 20
-5.591912076463922
 30
0.0
 10
-28.57499999999993
 20
-6.298747382930268
 30
0.0
 10
-28.57499999999999
 20
-6.70018256397058
 30
0.0
 10
-28.57500000000005
 20
-6.906003724118728
 30
0.0
  0
SPLINE
  5
323
330
1F
100
AcDbEntity
  8
외형선
  6
Continuous
370
    15
100
AcDbSpline
210
0.0
220
0.0
230
1.0
 70
    24
 71
     3
 72
    13
 73
     9
 74
     0
 42
0.000000001
 43
0.00000001
 40
0.0
 40
0.0
 40
0.0
 40
0.0
 40
0.1861159836213242
 40
0.3773265251360047
 40
0.5686275801891896
 40
0.7654763787985703
 40
0.9567774338517538
 40
1.0
 40
1.0
 40
1.0
 40
1.0
 10
-28.57500000000005
 20
7.831679314199624
 30
0.0
 10
-28.57500000000005
 20
7.575738468534409
 30
0.0
 10
-28.57500000000005
 20
7.056850901458409
 30
0.0
 10
-28.57500000000005
 20
6.273172254548475
 30
0.0
 10
-28.57499999999993
 20
5.498695187289114
 30
0.0
 10
-28.57500000000005
 20
4.778361552857268
 30
0.0
 10
-28.57499999999993
 20
4.270687965911526
 30
0.0
 10
-28.57500000000005
 20
4.04294695653047
 30
0.0
 10
-28.57500000000005
 20
4.00097442177165
 30
0.0
  0
LINE
  5
354
330
1F
100
AcDbEntity
  8
외형선
  6
Continuous
370
    15
100
AcDbLine
 10
-28.07514300435389
 20
-7.9375
 30
0.0
 11
28.07514300435387
 21
-7.9375
 31
0.0
  0
LINE
  5
3A2
330
1F
100
AcDbEntity
  8
외형선
  6
Continuous
370
    15
100
AcDbLine
 10
-5.092699999999919
 20
6.286499999999997
 30
0.0
 11
5.09270000000004
 21
6.286499999999997
 31
0.0
  0
LINE
  5
3A3
330
1F
100
AcDbEntity
  8
외형선
  6
Continuous
370
    15
100
AcDbLine
 10
5.09270000000004
 20
6.286499999999997
 30
0.0
 11
6.743700000000107
 21
7.937499999999993
 31
0.0
  0
LINE
  5
3A4
330
1F
100
AcDbEntity
  8
외형선
  6
Continuous
370
    15
100
AcDbLine
 10
-5.092699999999919
 20
6.286499999999997
 30
0.0
 11
-6.743699999999873
 21
7.937499999999993
 31
0.0
  0
LINE
  5
3A6
330
1F
100
AcDbEntity
  8
외형선
  6
Continuous
370
    15
100
AcDbLine
 10
-6.743699999999869
 20
7.937499999999993
 30
0.0
 11
-28.07514300435389
 21
7.937499999999993
 31
0.0
  0
ENDSEC
  0
SECTION
  2
OBJECTS
  0
DICTIONARY
  5
C
330
0
100
AcDbDictionary
281
     1
  3
ACAD_GROUP
350
D
  3
ACAD_IMAGE_VARS
350
147
  3
ACAD_LAYOUT
350
1A
  3
ACAD_MLINESTYLE
350
17
  3
ACAD_PLOTSETTINGS
350
19
  3
ACAD_PLOTSTYLENAME
350
E
  3
ACAD_SCALELIST
350
47
  3
APPDATA
350
145
  3
DWGPROPS
350
3ED
  0
DICTIONARY
  5
1CE
330
2
100
AcDbDictionary
280
     1
281
     1
  3
ACAD_LAYERSTATES
360
1CF
  0
DICTIONARY
  5
D
102
{ACAD_REACTORS
330
C
102
}
330
C
100
AcDbDictionary
281
     1
  0
RASTERVARIABLES
  5
147
102
{ACAD_REACTORS
330
C
102
}
330
C
100
AcDbRasterVariables
 90
        0
 70
     1
 71
     1
 72
     1
  0
DICTIONARY
  5
1A
102
{ACAD_REACTORS
330
C
102
}
330
C
100
AcDbDictionary
281
     1
  3
Layout1
350
1E
  3
Layout2
350
26
  3
Model
350
22
  0
DICTIONARY
  5
17
102
{ACAD_REACTORS
330
C
102
}
330
C
100
AcDbDictionary
281
     1
  3
Standard
350
18
  0
DICTIONARY
  5
19
102
{ACAD_REACTORS
330
C
102
}
330
C
100
AcDbDictionary
281
     1
  0
ACDBDICTIONARYWDFLT
  5
E
102
{ACAD_REACTORS
330
C
102
}
330
C
100
AcDbDictionary
281
     1
  3
Normal
350
F
100
AcDbDictionaryWithDefault
340
F
  0
DICTIONARY
  5
47
102
{ACAD_REACTORS
330
C
102
}
330
C
100
AcDbDictionary
281
     1
  3
A0
350
48
  3
A1
350
49
  3
A2
350
4A
  3
A3
350
4B
  3
A4
350
4C
  3
A5
350
4D
  3
A6
350
4E
  3
A7
350
4F
  3
A8
350
50
  3
A9
350
51
  3
B0
350
52
  3
B1
350
53
  3
B2
350
54
  3
B3
350
55
  3
B4
350
56
  3
B5
350
57
  3
B6
350
58
  3
B7
350
59
  3
B8
350
5A
  3
B9
350
5B
  3
C0
350
5C
  3
C1
350
5D
  3
C2
350
5E
  3
C3
350
5F
  3
C4
350
60
  3
C5
350
61
  3
C6
350
62
  3
C7
350
63
  3
C8
350
64
  3
C9
350
65
  3
D0
350
66
  3
D1
350
67
  3
D2
350
68
  0
DICTIONARY
  5
145
102
{ACAD_REACTORS
330
C
102
}
330
C
100
AcDbDictionary
281
     1
  0
XRECORD
  5
3ED
102
{ACAD_REACTORS
330
C
102
}
330
C
100
AcDbXrecord
280
     1
  1
DWGPROPS COOKIE
  2

  3

  4

  6

  7

  8
12016016
  9

300
=
301
=
302
=
303
=
304
=
305
=
306
=
307
=
308
=
309
=
 40
0.0
 41
2458313.099624908
 42
2458319.111295127
  1

 90
        0
  0
DICTIONARY
  5
1CF
102
{ACAD_REACTORS
330
1CE
102
}
330
1CE
100
AcDbDictionary
281
     1
  0
LAYOUT
  5
1E
102
{ACAD_REACTORS
330
1A
102
}
330
1A
100
AcDbPlotSettings
  1

  2
none_device
  4

  6

 40
0.0
 41
0.0
 42
0.0
 43
0.0
 44
0.0
 45
0.0
 46
0.0
 47
0.0
 48
0.0
 49
0.0
140
0.0
141
0.0
142
1.0
143
1.0
 70
   688
 72
     1
 73
     0
 74
     5
  7

 75
    16
147
1.0
148
0.0
149
0.0
100
AcDbLayout
  1
Layout1
 70
     1
 71
     1
 10
0.0
 20
0.0
 11
420.0
 21
297.0
 12
0.0
 22
0.0
 32
0.0
 14
1.000000000000000E+20
 24
1.000000000000000E+20
 34
1.000000000000000E+20
 15
-1.000000000000000E+20
 25
-1.000000000000000E+20
 35
-1.000000000000000E+20
146
0.0
 13
0.0
 23
0.0
 33
0.0
 16
1.0
 26
0.0
 36
0.0
 17
0.0
 27
1.0
 37
0.0
 76
     0
330
1B
  0
LAYOUT
  5
26
102
{ACAD_REACTORS
330
1A
102
}
330
1A
100
AcDbPlotSettings
  1

  2
none_device
  4

  6

 40
0.0
 41
0.0
 42
0.0
 43
0.0
 44
0.0
 45
0.0
 46
0.0
 47
0.0
 48
0.0
 49
0.0
140
0.0
141
0.0
142
1.0
143
1.0
 70
   688
 72
     1
 73
     0
 74
     5
  7

 75
    16
147
1.0
148
0.0
149
0.0
100
AcDbLayout
  1
Layout2
 70
     1
 71
     2
 10
0.0
 20
0.0
 11
0.0
 21
0.0
 12
0.0
 22
0.0
 32
0.0
 14
0.0
 24
0.0
 34
0.0
 15
0.0
 25
0.0
 35
0.0
146
0.0
 13
0.0
 23
0.0
 33
0.0
 16
1.0
 26
0.0
 36
0.0
 17
0.0
 27
1.0
 37
0.0
 76
     0
330
23
  0
LAYOUT
  5
22
102
{ACAD_REACTORS
330
1A
102
}
330
1A
100
AcDbPlotSettings
  1

  2
none_device
  4
ANSI_A_(11.00_x_8.50_Inches)
  6

 40
6.35
 41
19.05
 42
6.35000508
 43
19.05000254
 44
279.4
 45
215.9
 46
47.34685472475667
 47
71.99460226764512
 48
0.0
 49
0.0
140
0.0
141
0.0
142
0.0331166003392172
143
1.0
 70
  1696
 72
     0
 73
     0
 74
     0
  7

 75
     0
147
0.0235690232323232
148
0.0
149
0.0
100
AcDbLayout
  1
Model
 70
     1
 71
     0
 10
0.0
 20
0.0
 11
420.0
 21
297.0
 12
0.0
 22
0.0
 32
0.0
 14
-79.76375000000006
 24
-49.97180738881174
 34
0.0
 15
81.41936447236121
 25
42.54150000000009
 35
0.0
146
0.0
 13
0.0
 23
0.0
 33
0.0
 16
1.0
 26
0.0
 36
0.0
 17
0.0
 27
1.0
 37
0.0
 76
     0
330
1F
331
29
  0
MLINESTYLE
  5
18
102
{ACAD_REACTORS
330
17
102
}
330
17
100
AcDbMlineStyle
  2
Standard
 70
     0
  3

 62
   256
 51
90.0
 52
90.0
 71
     2
 49
0.5
 62
   256
  6
BYLAYER
 49
-0.5
 62
   256
  6
BYLAYER
  0
ACDBPLACEHOLDER
  5
F
102
{ACAD_REACTORS
330
E
102
}
330
E
  0
SCALE
  5
48
102
{ACAD_REACTORS
330
47
102
}
330
47
100
AcDbScale
 70
     0
300
1:1
140
1.0
141
1.0
290
     1
  0
SCALE
  5
49
102
{ACAD_REACTORS
330
47
102
}
330
47
100
AcDbScale
 70
     0
300
1:2
140
1.0
141
2.0
290
     0
  0
SCALE
  5
4A
102
{ACAD_REACTORS
330
47
102
}
330
47
100
AcDbScale
 70
     0
300
1:4
140
1.0
141
4.0
290
     0
  0
SCALE
  5
4B
102
{ACAD_REACTORS
330
47
102
}
330
47
100
AcDbScale
 70
     0
300
1:5
140
1.0
141
5.0
290
     0
  0
SCALE
  5
4C
102
{ACAD_REACTORS
330
47
102
}
330
47
100
AcDbScale
 70
     0
300
1:8
140
1.0
141
8.0
290
     0
  0
SCALE
  5
4D
102
{ACAD_REACTORS
330
47
102
}
330
47
100
AcDbScale
 70
     0
300
1:10
140
1.0
141
10.0
290
     0
  0
SCALE
  5
4E
102
{ACAD_REACTORS
330
47
102
}
330
47
100
AcDbScale
 70
     0
300
1:16
140
1.0
141
16.0
290
     0
  0
SCALE
  5
4F
102
{ACAD_REACTORS
330
47
102
}
330
47
100
AcDbScale
 70
     0
300
1:20
140
1.0
141
20.0
290
     0
  0
SCALE
  5
50
102
{ACAD_REACTORS
330
47
102
}
330
47
100
AcDbScale
 70
     0
300
1:30
140
1.0
141
30.0
290
     0
  0
SCALE
  5
51
102
{ACAD_REACTORS
330
47
102
}
330
47
100
AcDbScale
 70
     0
300
1:40
140
1.0
141
40.0
290
     0
  0
SCALE
  5
52
102
{ACAD_REACTORS
330
47
102
}
330
47
100
AcDbScale
 70
     0
300
1:50
140
1.0
141
50.0
290
     0
  0
SCALE
  5
53
102
{ACAD_REACTORS
330
47
102
}
330
47
100
AcDbScale
 70
     0
300
1:100
140
1.0
141
100.0
290
     0
  0
SCALE
  5
54
102
{ACAD_REACTORS
330
47
102
}
330
47
100
AcDbScale
 70
     0
300
2:1
140
2.0
141
1.0
290
     0
  0
SCALE
  5
55
102
{ACAD_REACTORS
330
47
102
}
330
47
100
AcDbScale
 70
     0
300
4:1
140
4.0
141
1.0
290
     0
  0
SCALE
  5
56
102
{ACAD_REACTORS
330
47
102
}
330
47
100
AcDbScale
 70
     0
300
8:1
140
8.0
141
1.0
290
     0
  0
SCALE
  5
57
102
{ACAD_REACTORS
330
47
102
}
330
47
100
AcDbScale
 70
     0
300
10:1
140
10.0
141
1.0
290
     0
  0
SCALE
  5
58
102
{ACAD_REACTORS
330
47
102
}
330
47
100
AcDbScale
 70
     0
300
100:1
140
100.0
141
1.0
290
     0
  0
SCALE
  5
59
102
{ACAD_REACTORS
330
47
102
}
330
47
100
AcDbScale
 70
     0
300
1/128" = 1'-0"
140
0.0078125
141
12.0
290
     0
  0
SCALE
  5
5A
102
{ACAD_REACTORS
330
47
102
}
330
47
100
AcDbScale
 70
     0
300
1/64" = 1'-0"
140
0.015625
141
12.0
290
     0
  0
SCALE
  5
5B
102
{ACAD_REACTORS
330
47
102
}
330
47
100
AcDbScale
 70
     0
300
1/32" = 1'-0"
140
0.03125
141
12.0
290
     0
  0
SCALE
  5
5C
102
{ACAD_REACTORS
330
47
102
}
330
47
100
AcDbScale
 70
     0
300
1/16" = 1'-0"
140
0.0625
141
12.0
290
     0
  0
SCALE
  5
5D
102
{ACAD_REACTORS
330
47
102
}
330
47
100
AcDbScale
 70
     0
300
3/32" = 1'-0"
140
0.09375
141
12.0
290
     0
  0
SCALE
  5
5E
102
{ACAD_REACTORS
330
47
102
}
330
47
100
AcDbScale
 70
     0
300
1/8" = 1'-0"
140
0.125
141
12.0
290
     0
  0
SCALE
  5
5F
102
{ACAD_REACTORS
330
47
102
}
330
47
100
AcDbScale
 70
     0
300
3/16" = 1'-0"
140
0.1875
141
12.0
290
     0
  0
SCALE
  5
60
102
{ACAD_REACTORS
330
47
102
}
330
47
100
AcDbScale
 70
     0
300
1/4" = 1'-0"
140
0.25
141
12.0
290
     0
  0
SCALE
  5
61
102
{ACAD_REACTORS
330
47
102
}
330
47
100
AcDbScale
 70
     0
300
3/8" = 1'-0"
140
0.375
141
12.0
290
     0
  0
SCALE
  5
62
102
{ACAD_REACTORS
330
47
102
}
330
47
100
AcDbScale
 70
     0
300
1/2" = 1'-0"
140
0.5
141
12.0
290
     0
  0
SCALE
  5
63
102
{ACAD_REACTORS
330
47
102
}
330
47
100
AcDbScale
 70
     0
300
3/4" = 1'-0"
140
0.75
141
12.0
290
     0
  0
SCALE
  5
64
102
{ACAD_REACTORS
330
47
102
}
330
47
100
AcDbScale
 70
     0
300
1" = 1'-0"
140
1.0
141
12.0
290
     0
  0
SCALE
  5
65
102
{ACAD_REACTORS
330
47
102
}
330
47
100
AcDbScale
 70
     0
300
1-1/2" = 1'-0"
140
1.5
141
12.0
290
     0
  0
SCALE
  5
66
102
{ACAD_REACTORS
330
47
102
}
330
47
100
AcDbScale
 70
     0
300
3" = 1'-0"
140
3.0
141
12.0
290
     0
  0
SCALE
  5
67
102
{ACAD_REACTORS
330
47
102
}
330
47
100
AcDbScale
 70
     0
300
6" = 1'-0"
140
6.0
141
12.0
290
     0
  0
SCALE
  5
68
102
{ACAD_REACTORS
330
47
102
}
330
47
100
AcDbScale
 70
     0
300
1'-0" = 1'-0"
140
12.0
141
12.0
290
     0
  0
ENDSEC
  0
EOF
