  0
SECTION
  2
HEADER
  9
$ACADVER
  1
AC1015
  9
$ACADMAINTVER
 70
     6
  9
$DWGCODEPAGE
  3
ANSI_949
  9
$INSBASE
 10
0.0
 20
0.0
 30
0.0
  9
$EXTMIN
 10
-93.41625000000006
 20
-49.97180738881175
 30
0.0
  9
$EXTMAX
 10
97.4595873133927
 20
52.81564959311525
 30
0.0
  9
$LIMMIN
 10
0.0
 20
0.0
  9
$LIMMAX
 10
420.0
 20
297.0
  9
$ORTHOMODE
 70
     1
  9
$REGENMODE
 70
     1
  9
$FILLMODE
 70
     1
  9
$QTEXTMODE
 70
     0
  9
$MIRRTEXT
 70
     1
  9
$LTSCALE
 40
1.0
  9
$ATTMODE
 70
     1
  9
$TEXTSIZE
 40
3.5
  9
$TRACEWID
 40
1.0
  9
$TEXTSTYLE
  7
Standard
  9
$CLAYER
  8
0
  9
$CELTYPE
  6
ByLayer
  9
$CECOLOR
 62
   256
  9
$CELTSCALE
 40
1.0
  9
$DISPSILH
 70
     0
  9
$DIMSCALE
 40
1.0
  9
$DIMASZ
 40
3.302
  9
$DIMEXO
 40
1.0
  9
$DIMDLI
 40
3.75
  9
$DIMRND
 40
0.0
  9
$DIMDLE
 40
0.0
  9
$DIMEXE
 40
1.0
  9
$DIMTP
 40
0.0
  9
$DIMTM
 40
0.0
  9
$DIMTXT
 40
3.5
  9
$DIMCEN
 40
2.5
  9
$DIMTSZ
 40
0.0
  9
$DIMTOL
 70
     0
  9
$DIMLIM
 70
     0
  9
$DIMTIH
 70
     1
  9
$DIMTOH
 70
     1
  9
$DIMSE1
 70
     0
  9
$DIMSE2
 70
     0
  9
$DIMTAD
 70
     1
  9
$DIMZIN
 70
     0
  9
$DIMBLK
  1

  9
$DIMASO
 70
     1
  9
$DIMSHO
 70
     1
  9
$DIMPOST
  1

  9
$DIMAPOST
  1

  9
$DIMALT
 70
     0
  9
$DIMALTD
 70
     3
  9
$DIMALTF
 40
0.0393700787401575
  9
$DIMLFAC
 40
1.0
  9
$DIMTOFL
 70
     1
  9
$DIMTVP
 40
0.0
  9
$DIMTIX
 70
     0
  9
$DIMSOXD
 70
     0
  9
$DIMSAH
 70
     0
  9
$DIMBLK1
  1

  9
$DIMBLK2
  1

  9
$DIMSTYLE
  2
ISO-25
  9
$DIMCLRD
 70
     0
  9
$DIMCLRE
 70
     0
  9
$DIMCLRT
 70
     0
  9
$DIMTFAC
 40
1.0
  9
$DIMGAP
 40
1.524
  9
$DIMJUST
 70
     0
  9
$DIMSD1
 70
     0
  9
$DIMSD2
 70
     0
  9
$DIMTOLJ
 70
     0
  9
$DIMTZIN
 70
     0
  9
$DIMALTZ
 70
     0
  9
$DIMALTTZ
 70
     0
  9
$DIMUPT
 70
     0
  9
$DIMDEC
 70
     2
  9
$DIMTDEC
 70
     2
  9
$DIMALTU
 70
     2
  9
$DIMALTTD
 70
     3
  9
$DIMTXSTY
  7
Standard
  9
$DIMAUNIT
 70
     0
  9
$DIMADEC
 70
     2
  9
$DIMALTRND
 40
0.0
  9
$DIMAZIN
 70
     0
  9
$DIMDSEP
 70
    44
  9
$DIMATFIT
 70
     3
  9
$DIMFRAC
 70
     0
  9
$DIMLDRBLK
  1

  9
$DIMLUNIT
 70
     2
  9
$DIMLWD
 70
    -2
  9
$DIMLWE
 70
    -2
  9
$DIMTMOVE
 70
     0
  9
$LUNITS
 70
     2
  9
$LUPREC
 70
     2
  9
$SKETCHINC
 40
1.0
  9
$FILLETRAD
 40
10.0
  9
$AUNITS
 70
     0
  9
$AUPREC
 70
     2
  9
$MENU
  1
.
  9
$ELEVATION
 40
0.0
  9
$PELEVATION
 40
0.0
  9
$THICKNESS
 40
0.0
  9
$LIMCHECK
 70
     0
  9
$CHAMFERA
 40
0.0
  9
$CHAMFERB
 40
0.0
  9
$CHAMFERC
 40
0.0
  9
$CHAMFERD
 40
0.0
  9
$SKPOLY
 70
     0
  9
$TDCREATE
 40
2458313.475260475
  9
$TDUCREATE
 40
2458313.100260475
  9
$TDUPDATE
 40
2458319.485958322
  9
$TDUUPDATE
 40
2458319.110958322
  9
$TDINDWG
 40
0.0023129977
  9
$TDUSRTIMER
 40
2458319.110921771
  9
$USRTIMER
 70
     1
  9
$ANGBASE
 50
0.0
  9
$ANGDIR
 70
     0
  9
$PDMODE
 70
     0
  9
$PDSIZE
 40
-1.0
  9
$PLINEWID
 40
0.0
  9
$SPLFRAME
 70
     0
  9
$SPLINETYPE
 70
     6
  9
$SPLINESEGS
 70
     8
  9
$HANDSEED
  5
3F1
  9
$SURFTAB1
 70
     6
  9
$SURFTAB2
 70
     6
  9
$SURFTYPE
 70
     6
  9
$SURFU
 70
     6
  9
$SURFV
 70
     6
  9
$UCSBASE
  2

  9
$UCSNAME
  2

  9
$UCSORG
 10
0.0
 20
0.0
 30
0.0
  9
$UCSXDIR
 10
1.0
 20
0.0
 30
0.0
  9
$UCSYDIR
 10
0.0
 20
1.0
 30
0.0
  9
$UCSORTHOREF
  2

  9
$UCSORTHOVIEW
 70
     0
  9
$UCSORGTOP
 10
0.0
 20
0.0
 30
0.0
  9
$UCSORGBOTTOM
 10
0.0
 20
0.0
 30
0.0
  9
$UCSORGLEFT
 10
0.0
 20
0.0
 30
0.0
  9
$UCSORGRIGHT
 10
0.0
 20
0.0
 30
0.0
  9
$UCSORGFRONT
 10
0.0
 20
0.0
 30
0.0
  9
$UCSORGBACK
 10
0.0
 20
0.0
 30
0.0
  9
$PUCSBASE
  2

  9
$PUCSNAME
  2

  9
$PUCSORG
 10
0.0
 20
0.0
 30
0.0
  9
$PUCSXDIR
 10
1.0
 20
0.0
 30
0.0
  9
$PUCSYDIR
 10
0.0
 20
1.0
 30
0.0
  9
$PUCSORTHOREF
  2

  9
$PUCSORTHOVIEW
 70
     0
  9
$PUCSORGTOP
 10
0.0
 20
0.0
 30
0.0
  9
$PUCSORGBOTTOM
 10
0.0
 20
0.0
 30
0.0
  9
$PUCSORGLEFT
 10
0.0
 20
0.0
 30
0.0
  9
$PUCSORGRIGHT
 10
0.0
 20
0.0
 30
0.0
  9
$PUCSORGFRONT
 10
0.0
 20
0.0
 30
0.0
  9
$PUCSORGBACK
 10
0.0
 20
0.0
 30
0.0
  9
$USERI1
 70
     0
  9
$USERI2
 70
     0
  9
$USERI3
 70
     0
  9
$USERI4
 70
     0
  9
$USERI5
 70
     0
  9
$USERR1
 40
0.0
  9
$USERR2
 40
0.0
  9
$USERR3
 40
0.0
  9
$USERR4
 40
0.0
  9
$USERR5
 40
0.0
  9
$WORLDVIEW
 70
     1
  9
$SHADEDGE
 70
     3
  9
$SHADEDIF
 70
    70
  9
$TILEMODE
 70
     1
  9
$MAXACTVP
 70
    64
  9
$PINSBASE
 10
0.0
 20
0.0
 30
0.0
  9
$PLIMCHECK
 70
     0
  9
$PEXTMIN
 10
1.000000000000000E+20
 20
1.000000000000000E+20
 30
1.000000000000000E+20
  9
$PEXTMAX
 10
-1.000000000000000E+20
 20
-1.000000000000000E+20
 30
-1.000000000000000E+20
  9
$PLIMMIN
 10
0.0
 20
0.0
  9
$PLIMMAX
 10
0.0
 20
0.0
  9
$UNITMODE
 70
     0
  9
$VISRETAIN
 70
     1
  9
$PLINEGEN
 70
     0
  9
$PSLTSCALE
 70
     1
  9
$TREEDEPTH
 70
  3020
  9
$CMLSTYLE
  2
Standard
  9
$CMLJUST
 70
     0
  9
$CMLSCALE
 40
20.0
  9
$PROXYGRAPHICS
 70
     1
  9
$MEASUREMENT
 70
     1
  9
$CELWEIGHT
370
    -1
  9
$ENDCAPS
280
     0
  9
$JOINSTYLE
280
     0
  9
$LWDISPLAY
290
     1
  9
$INSUNITS
 70
     4
  9
$HYPERLINKBASE
  1

  9
$STYLESHEET
  1

  9
$XEDIT
290
     1
  9
$CEPSNTYPE
380
     0
  9
$PSTYLEMODE
290
     1
  9
$FINGERPRINTGUID
  2
{59619A69-11C8-46D0-B7B8-8E8AA53067BC}
  9
$VERSIONGUID
  2
{FAEB1C32-E019-11D5-929B-00C0DF256EC4}
  9
$EXTNAMES
290
     1
  9
$PSVPSCALE
 40
0.0
  9
$OLESTARTUP
290
     0
  0
ENDSEC
  0
SECTION
  2
CLASSES
  0
CLASS
  1
ACDBDICTIONARYWDFLT
  2
AcDbDictionaryWithDefault
  3
ObjectDBX Classes
 90
        0
280
     0
281
     0
  0
CLASS
  1
VISUALSTYLE
  2
AcDbVisualStyle
  3
ObjectDBX Classes
 90
     4095
280
     0
281
     0
  0
CLASS
  1
MATERIAL
  2
AcDbMaterial
  3
ObjectDBX Classes
 90
     1153
280
     0
281
     0
  0
CLASS
  1
SCALE
  2
AcDbScale
  3
ObjectDBX Classes
 90
     1153
280
     0
281
     0
  0
CLASS
  1
SUN
  2
AcDbSun
  3
SCENEOE
 90
     1153
280
     0
281
     0
  0
CLASS
  1
ACDBPLACEHOLDER
  2
AcDbPlaceHolder
  3
ObjectDBX Classes
 90
        0
280
     0
281
     0
  0
CLASS
  1
LAYOUT
  2
AcDbLayout
  3
ObjectDBX Classes
 90
        0
280
     0
281
     0
  0
CLASS
  1
TABLESTYLE
  2
AcDbTableStyle
  3
ObjectDBX Classes
 90
     4095
280
     0
281
     0
  0
CLASS
  1
MLEADERSTYLE
  2
AcDbMLeaderStyle
  3
ACDB_MLEADERSTYLE_CLASS
 90
     4095
280
     0
281
     0
  0
CLASS
  1
RASTERVARIABLES
  2
AcDbRasterVariables
  3
ISM
 90
        0
280
     0
281
     0
  0
ENDSEC
  0
SECTION
  2
TABLES
  0
TABLE
  2
VPORT
  5
8
330
0
100
AcDbSymbolTable
 70
     1
  0
VPORT
  5
29
330
8
100
AcDbSymbolTableRecord
100
AcDbViewportTableRecord
  2
*Active
 70
     0
 10
0.0
 20
0.0
 11
1.0
 21
1.0
 12
4.907733359701496
 22
-4.338843911836996
 13
0.0
 23
0.0
 14
10.0
 24
10.0
 15
10.0
 25
10.0
 16
0.0
 26
0.0
 36
1.0
 17
0.0
 27
0.0
 37
0.0
 40
134.083300825293
 41
1.632093933463797
 42
50.0
 43
0.0
 44
0.0
 50
0.0
 51
0.0
 71
    16
 72
  2000
 73
     1
 74
     3
 75
     0
 76
     0
 77
     0
 78
     0
281
     0
 65
     1
110
0.0
120
0.0
130
0.0
111
1.0
121
0.0
131
0.0
112
0.0
122
1.0
132
0.0
 79
     0
146
0.0
  0
ENDTAB
  0
TABLE
  2
LTYPE
  5
5
330
0
100
AcDbSymbolTable
 70
     6
  0
LTYPE
  5
14
330
5
100
AcDbSymbolTableRecord
100
AcDbLinetypeTableRecord
  2
ByBlock
 70
     0
  3

 72
    65
 73
     0
 40
0.0
  0
LTYPE
  5
15
330
5
100
AcDbSymbolTableRecord
100
AcDbLinetypeTableRecord
  2
ByLayer
 70
     0
  3

 72
    65
 73
     0
 40
0.0
  0
LTYPE
  5
16
330
5
100
AcDbSymbolTableRecord
100
AcDbLinetypeTableRecord
  2
Continuous
 70
     0
  3
Solid line
 72
    65
 73
     0
 40
0.0
  0
LTYPE
  5
6A
330
5
100
AcDbSymbolTableRecord
100
AcDbLinetypeTableRecord
  2
HIDDEN
 70
     0
  3
Hidden __ __ __ __ __ __ __ __ __ __ __ __ __ __
 72
    65
 73
     2
 40
1.905
 49
1.27
 74
     0
 49
-0.635
 74
     0
  0
LTYPE
  5
6B
330
5
100
AcDbSymbolTableRecord
100
AcDbLinetypeTableRecord
  2
PHANTOM
 70
     0
  3
Phantom ______  __  __  ______  __  __  ______
 72
    65
 73
     6
 40
12.7
 49
6.35
 74
     0
 49
-1.27
 74
     0
 49
1.27
 74
     0
 49
-1.27
 74
     0
 49
1.27
 74
     0
 49
-1.27
 74
     0
  0
LTYPE
  5
6C
330
5
100
AcDbSymbolTableRecord
100
AcDbLinetypeTableRecord
  2
CENTER
 70
     0
  3
Center ____ _ ____ _ ____ _ ____ _ ____ _ ____
 72
    65
 73
     4
 40
10.16
 49
6.35
 74
     0
 49
-1.27
 74
     0
 49
1.27
 74
     0
 49
-1.27
 74
     0
  0
LTYPE
  5
6D
330
5
100
AcDbSymbolTableRecord
100
AcDbLinetypeTableRecord
  2
CENTERX2
 70
     0
  3
Center (2x) ________  __  ________  __  _____
 72
    65
 73
     4
 40
20.32
 49
12.7
 74
     0
 49
-2.54
 74
     0
 49
2.54
 74
     0
 49
-2.54
 74
     0
  0
LTYPE
  5
6E
330
5
100
AcDbSymbolTableRecord
100
AcDbLinetypeTableRecord
  2
DOT2
 70
     0
  3
Dot (.5x) ........................................
 72
    65
 73
     2
 40
0.635
 49
0.0
 74
     0
 49
-0.635
 74
     0
  0
ENDTAB
  0
TABLE
  2
LAYER
  5
2
102
{ACAD_XDICTIONARY
360
1D0
102
}
330
0
100
AcDbSymbolTable
 70
    18
  0
LAYER
  5
10
330
2
100
AcDbSymbolTableRecord
100
AcDbLayerTableRecord
  2
0
 70
     0
 62
     7
  6
Continuous
370
    -3
390
F
  0
LAYER
  5
6F
330
2
100
AcDbSymbolTableRecord
100
AcDbLayerTableRecord
  2
FORMAT
 70
     0
 62
     2
  6
Continuous
370
    -3
390
F
  0
LAYER
  5
70
330
2
100
AcDbSymbolTableRecord
100
AcDbLayerTableRecord
  2
외형선
 70
     0
 62
     4
  6
Continuous
370
    30
390
F
  0
LAYER
  5
71
330
2
100
AcDbSymbolTableRecord
100
AcDbLayerTableRecord
  2
숨은선
 70
     0
 62
     2
  6
HIDDEN
370
    15
390
F
  0
LAYER
  5
72
330
2
100
AcDbSymbolTableRecord
100
AcDbLayerTableRecord
  2
중심선
 70
     0
 62
     1
  6
CENTERX2
370
    -3
390
F
  0
LAYER
  5
73
330
2
100
AcDbSymbolTableRecord
100
AcDbLayerTableRecord
  2
파단선
 70
     0
 62
     4
  6
Continuous
370
    -3
390
F
  0
LAYER
  5
74
330
2
100
AcDbSymbolTableRecord
100
AcDbLayerTableRecord
  2
해칭선
 70
     0
 62
   100
  6
Continuous
370
    -3
390
F
  0
LAYER
  5
75
330
2
100
AcDbSymbolTableRecord
100
AcDbLayerTableRecord
  2
가는실선
 70
     0
 62
     4
  6
Continuous
370
    -3
390
F
  0
LAYER
  5
76
330
2
100
AcDbSymbolTableRecord
100
AcDbLayerTableRecord
  2
치수_보조선
 70
     0
 62
     4
  6
Continuous
370
    -3
390
F
  0
LAYER
  5
77
330
2
100
AcDbSymbolTableRecord
100
AcDbLayerTableRecord
  2
치수문자_일반주서
 70
     0
 62
     7
  6
Continuous
370
    15
390
F
  0
LAYER
  5
78
330
2
100
AcDbSymbolTableRecord
100
AcDbLayerTableRecord
  2
개별주서
 70
     0
 62
   100
  6
Continuous
370
    30
390
F
  0
LAYER
  5
79
330
2
100
AcDbSymbolTableRecord
100
AcDbLayerTableRecord
  2
중간선
 70
     0
 62
     2
  6
Continuous
370
    15
390
F
  0
LAYER
  5
7A
330
2
100
AcDbSymbolTableRecord
100
AcDbLayerTableRecord
  2
윤곽선
 70
     0
 62
     3
  6
Continuous
370
    40
390
F
  0
LAYER
  5
7B
330
2
100
AcDbSymbolTableRecord
100
AcDbLayerTableRecord
  2
중심마크
 70
     0
 62
   100
  6
Continuous
370
    30
390
F
  0
LAYER
  5
7C
330
2
100
AcDbSymbolTableRecord
100
AcDbLayerTableRecord
  2
가상선
 70
     0
 62
     4
  6
PHANTOM
370
    -3
390
F
  0
LAYER
  5
7D
330
2
100
AcDbSymbolTableRecord
100
AcDbLayerTableRecord
  2
특수지정선
 70
     0
 62
     5
  6
CENTERX2
370
    60
390
F
  0
LAYER
  5
7E
330
2
100
AcDbSymbolTableRecord
100
AcDbLayerTableRecord
  2
참조1
 70
     0
 62
    -4
  6
Continuous
370
    -3
390
F
  0
LAYER
  5
152
330
2
100
AcDbSymbolTableRecord
100
AcDbLayerTableRecord
  2
Defpoints
 70
     0
 62
     7
  6
Continuous
290
     0
370
    -3
390
F
  0
ENDTAB
  0
TABLE
  2
STYLE
  5
3
330
0
100
AcDbSymbolTable
 70
     2
  0
STYLE
  5
11
330
3
100
AcDbSymbolTableRecord
100
AcDbTextStyleTableRecord
  2
Standard
 70
     0
 40
0.0
 41
1.0
 50
0.0
 71
     0
 42
3.5
  3
txt
  4

  0
STYLE
  5
94
330
3
100
AcDbSymbolTableRecord
100
AcDbTextStyleTableRecord
  2
SLDTEXTSTYLE0
 70
     0
 40
0.0
 41
0.75
 50
0.0
 71
     0
 42
3.5
  3
TXT
  4

  0
ENDTAB
  0
TABLE
  2
VIEW
  5
6
330
0
100
AcDbSymbolTable
 70
     0
  0
ENDTAB
  0
TABLE
  2
UCS
  5
7
330
0
100
AcDbSymbolTable
 70
     0
  0
ENDTAB
  0
TABLE
  2
APPID
  5
9
330
0
100
AcDbSymbolTable
 70
     1
  0
APPID
  5
12
330
9
100
AcDbSymbolTableRecord
100
AcDbRegAppTableRecord
  2
ACAD
 70
     0
  0
ENDTAB
  0
TABLE
  2
DIMSTYLE
  5
A
330
0
100
AcDbSymbolTable
 70
     3
100
AcDbDimStyleTable
  0
DIMSTYLE
105
27
330
A
100
AcDbSymbolTableRecord
100
AcDbDimStyleTableRecord
  2
ISO-25
 70
     0
 41
2.5
 42
0.625
 43
3.75
 44
1.25
 73
     0
 74
     0
 77
     1
 78
     8
140
2.5
141
2.5
143
0.03937007874016
147
0.625
171
     3
172
     1
178
     0
271
     2
272
     2
274
     3
278
    44
283
     0
284
     8
340
11
  0
DIMSTYLE
105
D0
330
A
100
AcDbSymbolTableRecord
100
AcDbDimStyleTableRecord
  2
SLDDIMSTYLE0
 70
     0
 41
3.302
 44
0.0
 45
0.000000001
 73
     0
 74
     0
 77
     1
 78
    12
 79
     3
140
3.5
143
0.0393700787401575
147
0.875
148
0.000000001
170
     1
173
     1
178
     0
271
     2
272
     2
276
     2
284
    12
340
94
  0
DIMSTYLE
105
10B
102
{ACAD_REACTORS
330
10A
330
CF
330
E3
330
F7
102
}
330
A
100
AcDbSymbolTableRecord
100
AcDbDimStyleTableRecord
  2
SLDDIMSTYLE1
 70
     0
 41
3.302
 44
0.0
 45
0.000000001
 73
     0
 74
     0
 77
     1
 78
    12
 79
     3
140
3.5
143
0.0393700787401575
147
0.875
148
0.000000001
170
     1
172
     1
173
     1
178
     0
271
     2
272
     2
276
     2
284
    12
289
     0
340
94
  0
ENDTAB
  0
TABLE
  2
BLOCK_RECORD
  5
1
330
0
100
AcDbSymbolTable
 70
    19
  0
BLOCK_RECORD
  5
1F
330
1
100
AcDbSymbolTableRecord
100
AcDbBlockTableRecord
  2
*Model_Space
340
22
  0
BLOCK_RECORD
  5
1B
330
1
100
AcDbSymbolTableRecord
100
AcDbBlockTableRecord
  2
*Paper_Space
340
1E
  0
BLOCK_RECORD
  5
23
330
1
100
AcDbSymbolTableRecord
100
AcDbBlockTableRecord
  2
*Paper_Space0
340
26
  0
BLOCK_RECORD
  5
7F
330
1
100
AcDbSymbolTableRecord
100
AcDbBlockTableRecord
  2
블럭10
340
0
102
{BLKREFS
331
C8
102
}
  0
BLOCK_RECORD
  5
D1
330
1
100
AcDbSymbolTableRecord
100
AcDbBlockTableRecord
  2
_D
340
0
  0
BLOCK_RECORD
  5
E4
330
1
100
AcDbSymbolTableRecord
100
AcDbBlockTableRecord
  2
_D_1
340
0
  0
BLOCK_RECORD
  5
F8
330
1
100
AcDbSymbolTableRecord
100
AcDbBlockTableRecord
  2
_D_2
340
0
  0
BLOCK_RECORD
  5
10C
330
1
100
AcDbSymbolTableRecord
100
AcDbBlockTableRecord
  2
_D_3
340
0
  0
BLOCK_RECORD
  5
126
330
1
100
AcDbSymbolTableRecord
100
AcDbBlockTableRecord
  2
SW_DOWELSYMBOL_0
340
0
102
{BLKREFS
331
12C
102
}
  0
BLOCK_RECORD
  5
1D4
330
1
100
AcDbSymbolTableRecord
100
AcDbBlockTableRecord
  2
*D7
340
0
  0
BLOCK_RECORD
  5
1E3
330
1
100
AcDbSymbolTableRecord
100
AcDbBlockTableRecord
  2
*D8
340
0
  0
BLOCK_RECORD
  5
1F2
330
1
100
AcDbSymbolTableRecord
100
AcDbBlockTableRecord
  2
*D9
340
0
  0
BLOCK_RECORD
  5
224
330
1
100
AcDbSymbolTableRecord
100
AcDbBlockTableRecord
  2
*D10
340
0
  0
BLOCK_RECORD
  5
233
330
1
100
AcDbSymbolTableRecord
100
AcDbBlockTableRecord
  2
*D11
340
0
  0
BLOCK_RECORD
  5
242
330
1
100
AcDbSymbolTableRecord
100
AcDbBlockTableRecord
  2
*D12
340
0
  0
BLOCK_RECORD
  5
2DB
330
1
100
AcDbSymbolTableRecord
100
AcDbBlockTableRecord
  2
*D13
340
0
  0
BLOCK_RECORD
  5
2EA
330
1
100
AcDbSymbolTableRecord
100
AcDbBlockTableRecord
  2
*D14
340
0
  0
BLOCK_RECORD
  5
2F6
330
1
100
AcDbSymbolTableRecord
100
AcDbBlockTableRecord
  2
*D15
340
0
  0
BLOCK_RECORD
  5
331
330
1
100
AcDbSymbolTableRecord
100
AcDbBlockTableRecord
  2
*D16
340
0
  0
BLOCK_RECORD
  5
340
330
1
100
AcDbSymbolTableRecord
100
AcDbBlockTableRecord
  2
*D17
340
0
  0
BLOCK_RECORD
  5
34C
330
1
100
AcDbSymbolTableRecord
100
AcDbBlockTableRecord
  2
*D18
340
0
  0
ENDTAB
  0
ENDSEC
  0
SECTION
  2
BLOCKS
  0
BLOCK
  5
20
330
1F
100
AcDbEntity
  8
0
100
AcDbBlockBegin
  2
*Model_Space
 70
     0
 10
0.0
 20
0.0
 30
0.0
  3
*Model_Space
  1
*Model_Space
  0
ENDBLK
  5
21
330
1F
100
AcDbEntity
  8
0
100
AcDbBlockEnd
  0
BLOCK
  5
1C
330
1B
100
AcDbEntity
 67
     1
  8
0
100
AcDbBlockBegin
  2
*Paper_Space
 70
     0
 10
0.0
 20
0.0
 30
0.0
  3
*Paper_Space
  1
*Paper_Space
  0
ENDBLK
  5
1D
330
1B
100
AcDbEntity
 67
     1
  8
0
100
AcDbBlockEnd
  0
BLOCK
  5
24
330
23
100
AcDbEntity
  8
0
100
AcDbBlockBegin
  2
*Paper_Space0
 70
     0
 10
0.0
 20
0.0
 30
0.0
  3
*Paper_Space0
  1
*Paper_Space0
  0
ENDBLK
  5
25
330
23
100
AcDbEntity
  8
0
100
AcDbBlockEnd
  0
BLOCK
  5
80
330
7F
100
AcDbEntity
  8
0
100
AcDbBlockBegin
  2
블럭10
 70
     2
 10
0.0
 20
0.0
 30
0.0
  3
블럭10
  1
블럭10
  0
ELLIPSE
  5
82
330
7F
100
AcDbEntity
  8
중심선
100
AcDbEllipse
 10
20.54032771741204
 20
12.0471743016438
 30
0.0
 11
6.600054785286829
 21
-1.261213355974178E-13
 31
0.0
210
0.0
220
0.0
230
1.0
 40
0.636358354079598
 41
0.9219305317359503
 42
6.513795318482858
  0
ELLIPSE
  5
83
330
7F
100
AcDbEntity
  8
중심선
100
AcDbEllipse
 10
20.54032771746488
 20
12.04717430159265
 30
0.0
 11
3.960054785062283
 21
1.540847449632565E-10
 31
0.0
210
0.0
220
0.0
230
1.0
 40
0.3939339440162632
 41
1.131841032648279
 42
5.62031148352944
  0
LINE
  5
84
330
7F
100
AcDbEntity
  8
중심선
100
AcDbLine
 10
2.268634060543552
 20
16.24717430164393
 30
0.0
 11
5.714909304380834
 21
16.24717430164393
 31
0.0
  0
LINE
  5
85
330
7F
100
AcDbEntity
  8
중심선
100
AcDbLine
 10
5.245725140726316
 20
7.84717430164391
 30
0.0
 11
8.692000384563599
 21
7.84717430164391
 31
0.0
  0
LINE
  5
86
330
7F
100
AcDbEntity
  8
중심선
100
AcDbLine
 10
15.74043728645272
 20
16.24717430164393
 30
0.0
 11
8.692000384563599
 21
7.84717430164391
 31
0.0
  0
LINE
  5
87
330
7F
100
AcDbEntity
  8
중심선
100
AcDbLine
 10
0.1404042013395286
 20
13.71084872107135
 30
0.0
 11
3.58671253028996
 21
13.71088815037384
 31
0.0
  0
LINE
  5
88
330
7F
100
AcDbEntity
  8
중심선
100
AcDbLine
 10
2.750260043222114
 20
10.84717430164391
 30
0.0
 11
6.196535287059397
 21
10.84717430164391
 31
0.0
  0
LINE
  5
89
330
7F
100
AcDbEntity
  8
중심선
100
AcDbLine
 10
12.29416204261559
 20
16.24717430164393
 30
0.0
 11
5.245725140726316
 21
7.84717430164391
 31
0.0
  0
LINE
  5
8A
330
7F
100
AcDbEntity
  8
중심선
100
AcDbLine
 10
10.72767329541681
 20
16.24717430164393
 30
0.0
 11
6.196535287059397
 21
10.84717430164391
 31
0.0
  0
LINE
  5
8B
330
7F
100
AcDbEntity
  8
중심선
100
AcDbLine
 10
7.28139805157953
 20
16.24717430164393
 30
0.0
 11
2.750260043222114
 21
10.84717430164391
 31
0.0
  0
LINE
  5
8C
330
7F
100
AcDbEntity
  8
중심선
100
AcDbLine
 10
5.714909304380834
 20
16.24717430164393
 30
0.0
 11
3.58671253028996
 21
13.71088815037384
 31
0.0
  0
LINE
  5
8D
330
7F
100
AcDbEntity
  8
중심선
100
AcDbLine
 10
2.268634060543552
 20
16.24717430164393
 30
0.0
 11
0.1404042013395286
 21
13.71084872107135
 31
0.0
  0
LINE
  5
8E
330
7F
100
AcDbEntity
  8
중심선
100
AcDbLine
 10
7.28139805157953
 20
16.24717430164393
 30
0.0
 11
10.72767329541681
 21
16.24717430164393
 31
0.0
  0
LINE
  5
8F
330
7F
100
AcDbEntity
  8
중심선
100
AcDbLine
 10
12.29416204261559
 20
16.24717430164393
 30
0.0
 11
15.74043728645272
 21
16.24717430164393
 31
0.0
  0
LINE
  5
90
330
7F
100
AcDbEntity
  8
중심선
100
AcDbLine
 10
19.22036997980202
 20
11.08717430171403
 30
0.0
 11
23.66174974927406
 21
11.08717430171406
 31
0.0
  0
LINE
  5
91
330
7F
100
AcDbEntity
  8
중심선
100
AcDbLine
 10
19.22039502424796
 20
13.00717430171391
 30
0.0
 11
19.22036997980202
 21
11.08717430171403
 31
0.0
  0
LINE
  5
92
330
7F
100
AcDbEntity
  8
중심선
100
AcDbLine
 10
19.22039502424796
 20
13.00717430171391
 30
0.0
 11
26.96566020931264
 21
13.00717430171391
 31
0.0
  0
LINE
  5
93
330
7F
100
AcDbEntity
  8
중심선
100
AcDbLine
 10
22.22332737316547
 20
13.45928029700563
 30
0.0
 11
24.52862924686651
 21
15.39360700705356
 31
0.0
  0
ATTDEF
  5
95
330
7F
100
AcDbEntity
  8
FORMAT
 62
     2
100
AcDbText
 10
4.408487351596664
 20
2.075366912832191
 30
0.0
 40
4.233333333333333
  1
E1053052
 41
0.75
  7
SLDTEXTSTYLE0
 11
4.408487351596664
 21
-0.0412997538344756
 31
0.0
100
AcDbAttributeDefinition
  3

  2
AUTOATTR0
 70
     0
 74
     1
  0
ENDBLK
  5
81
330
7F
100
AcDbEntity
  8
0
100
AcDbBlockEnd
  0
BLOCK
  5
D2
330
D1
100
AcDbEntity
  8
0
100
AcDbBlockBegin
  2
_D
 70
     0
 10
0.0
 20
0.0
 30
0.0
  3
_D
  1
_D
  0
LINE
  5
D4
330
D1
100
AcDbEntity
  8
치수문자_일반주서
 62
     0
370
    -2
100
AcDbLine
 10
77.85
 20
10.31875000000001
 30
0.0
 11
96.90925398005929
 21
10.31875000000008
 31
0.0
  0
LINE
  5
D5
330
D1
100
AcDbEntity
  8
치수문자_일반주서
 62
     0
370
    -2
100
AcDbLine
 10
77.85
 20
-10.31874999999999
 30
0.0
 11
96.90925398005936
 21
-10.31874999999992
 31
0.0
  0
LINE
  5
D6
330
D1
100
AcDbEntity
  8
치수문자_일반주서
 62
     0
370
    -2
100
AcDbLine
 10
96.90925398005929
 20
10.31875000000008
 30
0.0
 11
96.90925398005916
 21
48.86025000000013
 31
0.0
  0
LINE
  5
D7
330
D1
100
AcDbEntity
  8
치수문자_일반주서
 62
     0
370
    -2
100
AcDbLine
 10
96.90925398005929
 20
10.31875000000008
 30
0.0
 11
96.90925398005936
 21
-10.31874999999992
 31
0.0
  0
LINE
  5
D8
330
D1
100
AcDbEntity
  8
치수문자_일반주서
 62
     0
370
    -2
100
AcDbLine
 10
96.90925398005928
 20
13.62075000000008
 30
0.0
 11
96.90925398005926
 21
16.92275000000008
 31
0.0
  0
LINE
  5
D9
330
D1
100
AcDbEntity
  8
치수문자_일반주서
 62
     0
370
    -2
100
AcDbLine
 10
96.90925398005938
 20
-13.62074999999992
 30
0.0
 11
96.90925398005939
 21
-16.92274999999992
 31
0.0
  0
SOLID
  5
DA
330
D1
100
AcDbEntity
  8
치수문자_일반주서
 62
     0
100
AcDbTrace
 10
96.35892064672595
 20
13.62075000000008
 30
0.0
 11
97.4595873133926
 21
13.62075000000008
 31
0.0
 12
96.90925398005929
 22
10.31875000000008
 32
0.0
 13
96.90925398005929
 23
10.31875000000008
 33
0.0
  0
SOLID
  5
DB
330
D1
100
AcDbEntity
  8
치수문자_일반주서
 62
     0
100
AcDbTrace
 10
97.4595873133927
 20
-13.62074999999991
 30
0.0
 11
96.35892064672605
 21
-13.62074999999992
 31
0.0
 12
96.90925398005936
 22
-10.31874999999992
 32
0.0
 13
96.90925398005936
 23
-10.31874999999992
 33
0.0
  0
MTEXT
  5
DC
330
D1
100
AcDbEntity
  8
치수문자_일반주서
 62
     0
100
AcDbMText
 10
92.53425398005922
 20
32.89150000000011
 30
0.0
 40
3.5
 41
0.0
 71
     2
 72
     1
  1
\A1;%%c20.64 [13/16]
  7
SLDTEXTSTYLE0
 11
-3.442969040630407E-15
 21
1.0
 31
0.0
 73
     1
 44
1.0
  0
POINT
  5
DD
330
D1
100
AcDbEntity
  8
Defpoints
 62
     0
100
AcDbPoint
 10
77.7875
 20
10.31875000000001
 30
0.0
  0
POINT
  5
24E
330
D1
100
AcDbEntity
  8
Defpoints
 62
     0
100
AcDbPoint
 10
77.7875
 20
-10.31874999999999
 30
0.0
  0
POINT
  5
24F
330
D1
100
AcDbEntity
  8
Defpoints
 62
     0
100
AcDbPoint
 10
96.90925398005939
 20
-10.31874999999992
 30
0.0
  0
ENDBLK
  5
D3
330
D1
100
AcDbEntity
  8
0
100
AcDbBlockEnd
  0
BLOCK
  5
E5
330
E4
100
AcDbEntity
  8
0
100
AcDbBlockBegin
  2
_D_1
 70
     0
 10
0.0
 20
0.0
 30
0.0
  3
_D_1
  1
_D_1
  0
LINE
  5
E7
330
E4
100
AcDbEntity
  8
치수문자_일반주서
 62
     0
370
    -2
100
AcDbLine
 10
77.7875
 20
10.38125000000001
 30
0.0
 11
77.7875
 21
23.34681675324956
 31
0.0
  0
LINE
  5
E8
330
E4
100
AcDbEntity
  8
치수문자_일반주서
 62
     0
370
    -2
100
AcDbLine
 10
30.16249999999999
 20
10.37338487245903
 30
0.0
 11
30.16249999999999
 21
23.34681675324956
 31
0.0
  0
LINE
  5
E9
330
E4
100
AcDbEntity
  8
치수문자_일반주서
 62
     0
370
    -2
100
AcDbLine
 10
74.4855
 20
23.34681675324956
 30
0.0
 11
33.46449999999999
 21
23.34681675324956
 31
0.0
  0
SOLID
  5
EA
330
E4
100
AcDbEntity
  8
치수문자_일반주서
 62
     0
100
AcDbTrace
 10
74.4855
 20
22.79648341991622
 30
0.0
 11
74.4855
 21
23.89715008658289
 31
0.0
 12
77.7875
 22
23.34681675324956
 32
0.0
 13
77.7875
 23
23.34681675324956
 33
0.0
  0
SOLID
  5
EB
330
E4
100
AcDbEntity
  8
치수문자_일반주서
 62
     0
100
AcDbTrace
 10
33.46449999999999
 20
23.89715008658289
 30
0.0
 11
33.46449999999999
 21
22.79648341991622
 31
0.0
 12
30.16249999999999
 22
23.34681675324956
 32
0.0
 13
30.16249999999999
 23
23.34681675324956
 33
0.0
  0
MTEXT
  5
EC
330
E4
100
AcDbEntity
  8
치수문자_일반주서
 62
     0
100
AcDbMText
 10
50.66256972887494
 20
27.72181675324956
 30
0.0
 40
3.5
 41
0.0
 71
     2
 72
     1
  1
\A1;47.63 [1 7/8]
  7
SLDTEXTSTYLE0
 73
     1
 44
1.0
  0
POINT
  5
ED
330
E4
100
AcDbEntity
  8
Defpoints
 62
     0
100
AcDbPoint
 10
77.7875
 20
10.31875000000001
 30
0.0
  0
POINT
  5
EE
330
E4
100
AcDbEntity
  8
Defpoints
 62
     0
100
AcDbPoint
 10
30.16249999999999
 20
10.31088487245903
 30
0.0
  0
POINT
  5
EF
330
E4
100
AcDbEntity
  8
Defpoints
 62
     0
100
AcDbPoint
 10
30.16249999999999
 20
23.34681675324956
 30
0.0
  0
ENDBLK
  5
E6
330
E4
100
AcDbEntity
  8
0
100
AcDbBlockEnd
  0
BLOCK
  5
F9
330
F8
100
AcDbEntity
  8
0
100
AcDbBlockBegin
  2
_D_2
 70
     0
 10
0.0
 20
0.0
 30
0.0
  3
_D_2
  1
_D_2
  0
LINE
  5
FB
330
F8
100
AcDbEntity
  8
치수문자_일반주서
 62
     0
370
    -2
100
AcDbLine
 10
77.7875
 20
10.38125000000001
 30
0.0
 11
77.7875
 21
48.44064959311525
 31
0.0
  0
LINE
  5
FC
330
F8
100
AcDbEntity
  8
치수문자_일반주서
 62
     0
370
    -2
100
AcDbLine
 10
-77.78750000000005
 20
10.38124999999998
 30
0.0
 11
-77.78750000000005
 21
48.44064959311525
 31
0.0
  0
LINE
  5
FD
330
F8
100
AcDbEntity
  8
치수문자_일반주서
 62
     0
370
    -2
100
AcDbLine
 10
74.4855
 20
48.44064959311525
 30
0.0
 11
-74.48550000000006
 21
48.44064959311525
 31
0.0
  0
SOLID
  5
FE
330
F8
100
AcDbEntity
  8
치수문자_일반주서
 62
     0
100
AcDbTrace
 10
74.4855
 20
47.89031625978192
 30
0.0
 11
74.4855
 21
48.99098292644859
 31
0.0
 12
77.7875
 22
48.44064959311525
 32
0.0
 13
77.7875
 23
48.44064959311525
 33
0.0
  0
SOLID
  5
FF
330
F8
100
AcDbEntity
  8
치수문자_일반주서
 62
     0
100
AcDbTrace
 10
-74.48550000000006
 20
48.99098292644859
 30
0.0
 11
-74.48550000000006
 21
47.89031625978192
 31
0.0
 12
-77.78750000000005
 22
48.44064959311525
 32
0.0
 13
-77.78750000000005
 23
48.44064959311525
 33
0.0
  0
MTEXT
  5
100
330
F8
100
AcDbEntity
  8
치수문자_일반주서
 62
     0
100
AcDbMText
 10
-2.718443245192134
 20
52.81564959311525
 30
0.0
 40
3.5
 41
0.0
 71
     2
 72
     1
  1
\A1;155.58 [6 1/8]
  7
SLDTEXTSTYLE0
 73
     1
 44
1.0
  0
POINT
  5
101
330
F8
100
AcDbEntity
  8
Defpoints
 62
     0
100
AcDbPoint
 10
77.7875
 20
10.31875000000001
 30
0.0
  0
POINT
  5
102
330
F8
100
AcDbEntity
  8
Defpoints
 62
     0
100
AcDbPoint
 10
-77.78750000000005
 20
10.31874999999998
 30
0.0
  0
POINT
  5
103
330
F8
100
AcDbEntity
  8
Defpoints
 62
     0
100
AcDbPoint
 10
-77.78750000000005
 20
48.44064959311525
 30
0.0
  0
ENDBLK
  5
FA
330
F8
100
AcDbEntity
  8
0
100
AcDbBlockEnd
  0
BLOCK
  5
10D
330
10C
100
AcDbEntity
  8
0
100
AcDbBlockBegin
  2
_D_3
 70
     0
 10
0.0
 20
0.0
 30
0.0
  3
_D_3
  1
_D_3
  0
LINE
  5
10F
330
10C
100
AcDbEntity
  8
치수문자_일반주서
 62
     0
370
    -2
100
AcDbLine
 10
-26.26268467149217
 20
11.11250000000001
 30
0.0
 11
-89.04125000000005
 21
11.11249999999977
 31
0.0
  0
LINE
  5
110
330
10C
100
AcDbEntity
  8
치수문자_일반주서
 62
     0
370
    -2
100
AcDbLine
 10
-26.26268467149217
 20
-11.11250000000003
 30
0.0
 11
-89.04124999999998
 21
-11.11250000000026
 31
0.0
  0
LINE
  5
111
330
10C
100
AcDbEntity
  8
치수문자_일반주서
 62
     0
370
    -2
100
AcDbLine
 10
-89.04125000000003
 20
7.810499999999774
 30
0.0
 11
-89.04124999999999
 21
-7.810500000000264
 31
0.0
  0
SOLID
  5
112
330
10C
100
AcDbEntity
  8
치수문자_일반주서
 62
     0
100
AcDbTrace
 10
-88.4909166666667
 20
7.810499999999776
 30
0.0
 11
-89.59158333333336
 21
7.810499999999772
 31
0.0
 12
-89.04125000000005
 22
11.11249999999977
 32
0.0
 13
-89.04125000000005
 23
11.11249999999977
 33
0.0
  0
SOLID
  5
113
330
10C
100
AcDbEntity
  8
치수문자_일반주서
 62
     0
100
AcDbTrace
 10
-89.59158333333332
 20
-7.810500000000266
 30
0.0
 11
-88.49091666666666
 21
-7.810500000000262
 31
0.0
 12
-89.04124999999998
 22
-11.11250000000026
 32
0.0
 13
-89.04124999999998
 23
-11.11250000000026
 33
0.0
  0
MTEXT
  5
114
330
10C
100
AcDbEntity
  8
치수문자_일반주서
 62
     0
100
AcDbMText
 10
-93.41625000000002
 20
-0.0000000000000246
 30
0.0
 40
3.5
 41
0.0
 71
     2
 72
     1
  1
\A1;%%c22.23 [7/8]
  7
SLDTEXTSTYLE0
 11
-3.197042680585372E-15
 21
1.0
 31
0.0
 73
     1
 44
1.0
  0
POINT
  5
115
330
10C
100
AcDbEntity
  8
Defpoints
 62
     0
100
AcDbPoint
 10
-26.20018467149217
 20
11.11250000000001
 30
0.0
  0
POINT
  5
116
330
10C
100
AcDbEntity
  8
Defpoints
 62
     0
100
AcDbPoint
 10
-26.20018467149217
 20
-11.11250000000003
 30
0.0
  0
POINT
  5
117
330
10C
100
AcDbEntity
  8
Defpoints
 62
     0
100
AcDbPoint
 10
-89.04124999999996
 20
-11.11250000000026
 30
0.0
  0
ENDBLK
  5
10E
330
10C
100
AcDbEntity
  8
0
100
AcDbBlockEnd
  0
BLOCK
  5
127
330
126
100
AcDbEntity
  8
0
100
AcDbBlockBegin
  2
SW_DOWELSYMBOL_0
 70
     0
 10
0.0
 20
0.0
 30
0.0
  3
SW_DOWELSYMBOL_0
  1
SW_DOWELSYMBOL_0
  0
CIRCLE
  5
129
330
126
100
AcDbEntity
  8
해칭선
 62
     0
100
AcDbCircle
 10
0.0
 20
0.0
 30
0.0
 40
3.000000000000008
  0
HATCH
  5
12A
330
126
100
AcDbEntity
  8
0
  6
Continuous
 62
     0
370
     0
100
AcDbHatch
 10
0.0
 20
0.0
 30
0.0
210
0.0
220
0.0
230
1.0
  2
SOLID
 70
     1
 71
     0
 91
        1
 92
        0
 93
        3
 72
     2
 10
0.0
 20
0.0
 40
3.000000000000008
 50
0.0
 51
90.0
 73
     1
 72
     1
 10
0.0
 20
3.000000000000008
 11
0.0
 21
0.0
 72
     1
 10
0.0
 20
0.0
 11
3.000000000000003
 21
0.0
 97
        0
 75
     0
 76
     1
 98
        1
 10
0.0
 20
0.0
  0
HATCH
  5
12B
330
126
100
AcDbEntity
  8
0
  6
Continuous
 62
     0
370
     0
100
AcDbHatch
 10
0.0
 20
0.0
 30
0.0
210
0.0
220
0.0
230
1.0
  2
SOLID
 70
     1
 71
     0
 91
        1
 92
        0
 93
        3
 72
     2
 10
0.0
 20
0.0
 40
3.000000000000008
 50
180.0
 51
270.0000000000007
 73
     1
 72
     1
 10
0.0
 20
-3.000000000000008
 11
0.0
 21
0.0
 72
     1
 10
0.0
 20
0.0
 11
-3.00000000000001
 21
0.0
 97
        0
 75
     0
 76
     1
 98
        1
 10
0.0
 20
0.0
  0
ENDBLK
  5
128
330
126
100
AcDbEntity
  8
0
100
AcDbBlockEnd
  0
BLOCK
  5
1D5
330
1D4
100
AcDbEntity
  8
0
100
AcDbBlockBegin
  2
*D7
 70
     1
 10
0.0
 20
0.0
 30
0.0
  3
*D7
  1
*D8
  0
LINE
  5
1D7
330
1D4
100
AcDbEntity
  8
치수문자_일반주서
 62
     0
370
    -2
100
AcDbLine
 10
145.9375
 20
25.65399999999992
 30
0.0
 11
166.346222871547
 21
25.654
 31
0.0
  0
LINE
  5
1D8
330
1D4
100
AcDbEntity
  8
치수문자_일반주서
 62
     0
370
    -2
100
AcDbLine
 10
145.9375
 20
6.603999999999921
 30
0.0
 11
166.346222871547
 21
6.603999999999999
 31
0.0
  0
LINE
  5
1D9
330
1D4
100
AcDbEntity
  8
치수문자_일반주서
 62
     0
370
    -2
100
AcDbLine
 10
166.346222871547
 20
25.654
 30
0.0
 11
166.3462228715469
 21
60.00422268430727
 31
0.0
  0
LINE
  5
1DA
330
1D4
100
AcDbEntity
  8
치수문자_일반주서
 62
     0
370
    -2
100
AcDbLine
 10
166.346222871547
 20
25.654
 30
0.0
 11
166.346222871547
 21
6.603999999999999
 31
0.0
  0
LINE
  5
1DB
330
1D4
100
AcDbEntity
  8
치수문자_일반주서
 62
     0
370
    -2
100
AcDbLine
 10
166.346222871547
 20
28.956
 30
0.0
 11
166.346222871547
 21
32.258
 31
0.0
  0
LINE
  5
1DC
330
1D4
100
AcDbEntity
  8
치수문자_일반주서
 62
     0
370
    -2
100
AcDbLine
 10
166.346222871547
 20
3.302
 30
0.0
 11
166.346222871547
 21
0.0
 31
0.0
  0
SOLID
  5
1DD
330
1D4
100
AcDbEntity
  8
치수문자_일반주서
 62
     0
100
AcDbTrace
 10
165.7958895382136
 20
28.956
 30
0.0
 11
166.8965562048803
 21
28.956
 31
0.0
 12
166.346222871547
 22
25.654
 32
0.0
 13
166.346222871547
 23
25.654
 33
0.0
  0
SOLID
  5
1DE
330
1D4
100
AcDbEntity
  8
치수문자_일반주서
 62
     0
100
AcDbTrace
 10
166.8965562048803
 20
3.302000000000001
 30
0.0
 11
165.7958895382137
 21
3.301999999999998
 31
0.0
 12
166.346222871547
 22
6.603999999999999
 32
0.0
 13
166.346222871547
 23
6.603999999999999
 33
0.0
  0
MTEXT
  5
1DF
330
1D4
100
AcDbEntity
  8
치수문자_일반주서
 62
     0
100
AcDbMText
 10
161.9712228715469
 20
46.22297268430725
 30
0.0
 40
3.5
 41
0.0
 71
     2
 72
     1
  1
\A1;%%c19.05 [3/4]
  7
SLDTEXTSTYLE0
 11
-2.983906501879685E-15
 21
1.0
 31
0.0
 73
     1
 44
1.0
  0
POINT
  5
1E0
330
1D4
100
AcDbEntity
  8
Defpoints
 62
     0
100
AcDbPoint
 10
145.875
 20
25.65399999999992
 30
0.0
  0
POINT
  5
1E1
330
1D4
100
AcDbEntity
  8
Defpoints
 62
     0
100
AcDbPoint
 10
145.875
 20
6.603999999999921
 30
0.0
  0
POINT
  5
1E2
330
1D4
100
AcDbEntity
  8
Defpoints
 62
     0
100
AcDbPoint
 10
166.346222871547
 20
6.603999999999997
 30
0.0
  0
ENDBLK
  5
1D6
330
1D4
100
AcDbEntity
  8
0
100
AcDbBlockEnd
  0
BLOCK
  5
1E4
330
1E3
100
AcDbEntity
  8
0
100
AcDbBlockBegin
  2
*D8
 70
     1
 10
0.0
 20
0.0
 30
0.0
  3
*D8
  1
*D9
  0
LINE
  5
1E6
330
1E3
100
AcDbEntity
  8
치수문자_일반주서
 62
     0
370
    -2
100
AcDbLine
 10
145.875
 20
25.71649999999992
 30
0.0
 11
145.875
 21
41.92049174219254
 31
0.0
  0
LINE
  5
1E7
330
1E3
100
AcDbEntity
  8
치수문자_일반주서
 62
     0
370
    -2
100
AcDbLine
 10
104.6
 20
25.52294696236215
 30
0.0
 11
104.6
 21
41.92049174219254
 31
0.0
  0
LINE
  5
1E8
330
1E3
100
AcDbEntity
  8
치수문자_일반주서
 62
     0
370
    -2
100
AcDbLine
 10
104.6
 20
41.92049174219254
 30
0.0
 11
63.77934504043634
 21
41.92049174219254
 31
0.0
  0
LINE
  5
1E9
330
1E3
100
AcDbEntity
  8
치수문자_일반주서
 62
     0
370
    -2
100
AcDbLine
 10
145.875
 20
41.92049174219254
 30
0.0
 11
104.6
 21
41.92049174219254
 31
0.0
  0
LINE
  5
1EA
330
1E3
100
AcDbEntity
  8
치수문자_일반주서
 62
     0
370
    -2
100
AcDbLine
 10
149.177
 20
41.92049174219254
 30
0.0
 11
152.479
 21
41.92049174219254
 31
0.0
  0
LINE
  5
1EB
330
1E3
100
AcDbEntity
  8
치수문자_일반주서
 62
     0
370
    -2
100
AcDbLine
 10
101.298
 20
41.92049174219254
 30
0.0
 11
97.99600000000004
 21
41.92049174219254
 31
0.0
  0
SOLID
  5
1EC
330
1E3
100
AcDbEntity
  8
치수문자_일반주서
 62
     0
100
AcDbTrace
 10
149.177
 20
42.47082507552587
 30
0.0
 11
149.177
 21
41.3701584088592
 31
0.0
 12
145.875
 22
41.92049174219254
 32
0.0
 13
145.875
 23
41.92049174219254
 33
0.0
  0
SOLID
  5
1ED
330
1E3
100
AcDbEntity
  8
치수문자_일반주서
 62
     0
100
AcDbTrace
 10
101.298
 20
41.3701584088592
 30
0.0
 11
101.298
 21
42.47082507552587
 31
0.0
 12
104.6
 22
41.92049174219254
 32
0.0
 13
104.6
 23
41.92049174219254
 33
0.0
  0
MTEXT
  5
1EE
330
1E3
100
AcDbEntity
  8
치수문자_일반주서
 62
     0
100
AcDbMText
 10
78.65434504043634
 20
46.29549174219254
 30
0.0
 40
3.5
 41
0.0
 71
     2
 72
     1
  1
\A1;41.28 [1 5/8]
  7
SLDTEXTSTYLE0
 73
     1
 44
1.0
  0
POINT
  5
1EF
330
1E3
100
AcDbEntity
  8
Defpoints
 62
     0
100
AcDbPoint
 10
145.875
 20
25.65399999999992
 30
0.0
  0
POINT
  5
1F0
330
1E3
100
AcDbEntity
  8
Defpoints
 62
     0
100
AcDbPoint
 10
104.6
 20
25.46044696236215
 30
0.0
  0
POINT
  5
1F1
330
1E3
100
AcDbEntity
  8
Defpoints
 62
     0
100
AcDbPoint
 10
104.6
 20
41.92049174219254
 30
0.0
  0
ENDBLK
  5
1E5
330
1E3
100
AcDbEntity
  8
0
100
AcDbBlockEnd
  0
BLOCK
  5
1F3
330
1F2
100
AcDbEntity
  8
0
100
AcDbBlockBegin
  2
*D9
 70
     1
 10
0.0
 20
0.0
 30
0.0
  3
*D9
  1
*D10
  0
LINE
  5
1F5
330
1F2
100
AcDbEntity
  8
치수문자_일반주서
 62
     0
370
    -2
100
AcDbLine
 10
145.875
 20
25.68147268430719
 30
0.0
 11
145.875
 21
57.91056390547209
 31
0.0
  0
LINE
  5
1F6
330
1F2
100
AcDbEntity
  8
치수문자_일반주서
 62
     0
370
    -2
100
AcDbLine
 10
3.000000000000007
 20
23.81149999999991
 30
0.0
 11
3.0
 21
57.91056390547209
 31
0.0
  0
LINE
  5
1F7
330
1F2
100
AcDbEntity
  8
치수문자_일반주서
 62
     0
370
    -2
100
AcDbLine
 10
142.573
 20
57.91056390547209
 30
0.0
 11
6.302
 21
57.91056390547209
 31
0.0
  0
SOLID
  5
1F8
330
1F2
100
AcDbEntity
  8
치수문자_일반주서
 62
     0
100
AcDbTrace
 10
142.573
 20
57.36023057213875
 30
0.0
 11
142.573
 21
58.46089723880542
 31
0.0
 12
145.875
 22
57.91056390547209
 32
0.0
 13
145.875
 23
57.91056390547209
 33
0.0
  0
SOLID
  5
1F9
330
1F2
100
AcDbEntity
  8
치수문자_일반주서
 62
     0
100
AcDbTrace
 10
6.302
 20
58.46089723880542
 30
0.0
 11
6.302
 21
57.36023057213875
 31
0.0
 12
3.0
 22
57.91056390547209
 32
0.0
 13
3.0
 23
57.91056390547209
 33
0.0
  0
MTEXT
  5
1FA
330
1F2
100
AcDbEntity
  8
치수문자_일반주서
 62
     0
100
AcDbMText
 10
72.7756420392306
 20
62.28556390547209
 30
0.0
 40
3.5
 41
0.0
 71
     2
 72
     1
  1
\A1;142.88 [5 5/8]
  7
SLDTEXTSTYLE0
 73
     1
 44
1.0
  0
POINT
  5
1FB
330
1F2
100
AcDbEntity
  8
Defpoints
 62
     0
100
AcDbPoint
 10
145.875
 20
25.61897268430719
 30
0.0
  0
POINT
  5
1FC
330
1F2
100
AcDbEntity
  8
Defpoints
 62
     0
100
AcDbPoint
 10
3.000000000000007
 20
23.74899999999991
 30
0.0
  0
POINT
  5
1FD
330
1F2
100
AcDbEntity
  8
Defpoints
 62
     0
100
AcDbPoint
 10
3.000000000000007
 20
57.91056390547209
 30
0.0
  0
ENDBLK
  5
1F4
330
1F2
100
AcDbEntity
  8
0
100
AcDbBlockEnd
  0
BLOCK
  5
225
330
224
100
AcDbEntity
  8
0
100
AcDbBlockBegin
  2
*D10
 70
     1
 10
0.0
 20
0.0
 30
0.0
  3
*D10
  1
*D11
  0
LINE
  5
227
330
224
100
AcDbEntity
  8
치수문자_일반주서
 62
     0
370
    -2
100
AcDbLine
 10
295.4514294886565
 20
-52.495729268514
 30
0.0
 11
315.8601523602034
 21
-52.49572926851392
 31
0.0
  0
LINE
  5
228
330
224
100
AcDbEntity
  8
치수문자_일반주서
 62
     0
370
    -2
100
AcDbLine
 10
295.4514294886565
 20
-71.54572926851401
 30
0.0
 11
315.8601523602034
 21
-71.54572926851392
 31
0.0
  0
LINE
  5
229
330
224
100
AcDbEntity
  8
치수문자_일반주서
 62
     0
370
    -2
100
AcDbLine
 10
315.8601523602034
 20
-52.49572926851392
 30
0.0
 11
315.8601523602032
 21
-18.14550658420666
 31
0.0
  0
LINE
  5
22A
330
224
100
AcDbEntity
  8
치수문자_일반주서
 62
     0
370
    -2
100
AcDbLine
 10
315.8601523602034
 20
-52.49572926851392
 30
0.0
 11
315.8601523602034
 21
-71.54572926851392
 31
0.0
  0
LINE
  5
22B
330
224
100
AcDbEntity
  8
치수문자_일반주서
 62
     0
370
    -2
100
AcDbLine
 10
315.8601523602034
 20
-49.19372926851392
 30
0.0
 11
315.8601523602034
 21
-45.89172926851392
 31
0.0
  0
LINE
  5
22C
330
224
100
AcDbEntity
  8
치수문자_일반주서
 62
     0
370
    -2
100
AcDbLine
 10
315.8601523602034
 20
-74.84772926851392
 30
0.0
 11
315.8601523602034
 21
-78.14972926851391
 31
0.0
  0
SOLID
  5
22D
330
224
100
AcDbEntity
  8
치수문자_일반주서
 62
     0
100
AcDbTrace
 10
315.30981902687
 20
-49.19372926851392
 30
0.0
 11
316.4104856935367
 21
-49.19372926851392
 31
0.0
 12
315.8601523602034
 22
-52.49572926851392
 32
0.0
 13
315.8601523602034
 23
-52.49572926851392
 33
0.0
  0
SOLID
  5
22E
330
224
100
AcDbEntity
  8
치수문자_일반주서
 62
     0
100
AcDbTrace
 10
316.4104856935368
 20
-74.84772926851392
 30
0.0
 11
315.3098190268701
 21
-74.84772926851392
 31
0.0
 12
315.8601523602034
 22
-71.54572926851392
 32
0.0
 13
315.8601523602034
 23
-71.54572926851392
 33
0.0
  0
MTEXT
  5
22F
330
224
100
AcDbEntity
  8
치수문자_일반주서
 62
     0
100
AcDbMText
 10
311.4851523602033
 20
-31.92675658420667
 30
0.0
 40
3.5
 41
0.0
 71
     2
 72
     1
  1
\A1;%%c19.05 [3/4]
  7
SLDTEXTSTYLE0
 11
-2.983906501879683E-15
 21
1.0
 31
0.0
 73
     1
 44
1.0
  0
POINT
  5
230
330
224
100
AcDbEntity
  8
Defpoints
 62
     0
100
AcDbPoint
 10
295.3889294886565
 20
-52.495729268514
 30
0.0
  0
POINT
  5
231
330
224
100
AcDbEntity
  8
Defpoints
 62
     0
100
AcDbPoint
 10
295.3889294886565
 20
-71.54572926851401
 30
0.0
  0
POINT
  5
232
330
224
100
AcDbEntity
  8
Defpoints
 62
     0
100
AcDbPoint
 10
315.8601523602034
 20
-71.54572926851394
 30
0.0
  0
ENDBLK
  5
226
330
224
100
AcDbEntity
  8
0
100
AcDbBlockEnd
  0
BLOCK
  5
234
330
233
100
AcDbEntity
  8
0
100
AcDbBlockBegin
  2
*D11
 70
     1
 10
0.0
 20
0.0
 30
0.0
  3
*D11
  1
*D12
  0
LINE
  5
236
330
233
100
AcDbEntity
  8
치수문자_일반주서
 62
     0
370
    -2
100
AcDbLine
 10
295.3889294886565
 20
-52.433229268514
 30
0.0
 11
295.3889294886565
 21
-36.22923752632138
 31
0.0
  0
LINE
  5
237
330
233
100
AcDbEntity
  8
치수문자_일반주서
 62
     0
370
    -2
100
AcDbLine
 10
254.1139294886565
 20
-52.62678230615177
 30
0.0
 11
254.1139294886565
 21
-36.22923752632138
 31
0.0
  0
LINE
  5
238
330
233
100
AcDbEntity
  8
치수문자_일반주서
 62
     0
370
    -2
100
AcDbLine
 10
254.1139294886565
 20
-36.22923752632138
 30
0.0
 11
213.2932745290928
 21
-36.22923752632138
 31
0.0
  0
LINE
  5
239
330
233
100
AcDbEntity
  8
치수문자_일반주서
 62
     0
370
    -2
100
AcDbLine
 10
295.3889294886565
 20
-36.22923752632138
 30
0.0
 11
254.1139294886565
 21
-36.22923752632138
 31
0.0
  0
LINE
  5
23A
330
233
100
AcDbEntity
  8
치수문자_일반주서
 62
     0
370
    -2
100
AcDbLine
 10
298.6909294886565
 20
-36.22923752632138
 30
0.0
 11
301.9929294886565
 21
-36.22923752632138
 31
0.0
  0
LINE
  5
23B
330
233
100
AcDbEntity
  8
치수문자_일반주서
 62
     0
370
    -2
100
AcDbLine
 10
250.8119294886565
 20
-36.22923752632138
 30
0.0
 11
247.5099294886565
 21
-36.22923752632138
 31
0.0
  0
SOLID
  5
23C
330
233
100
AcDbEntity
  8
치수문자_일반주서
 62
     0
100
AcDbTrace
 10
298.6909294886565
 20
-35.67890419298805
 30
0.0
 11
298.6909294886565
 21
-36.77957085965472
 31
0.0
 12
295.3889294886565
 22
-36.22923752632138
 32
0.0
 13
295.3889294886565
 23
-36.22923752632138
 33
0.0
  0
SOLID
  5
23D
330
233
100
AcDbEntity
  8
치수문자_일반주서
 62
     0
100
AcDbTrace
 10
250.8119294886565
 20
-36.77957085965472
 30
0.0
 11
250.8119294886565
 21
-35.67890419298805
 31
0.0
 12
254.1139294886565
 22
-36.22923752632138
 32
0.0
 13
254.1139294886565
 23
-36.22923752632138
 33
0.0
  0
MTEXT
  5
23E
330
233
100
AcDbEntity
  8
치수문자_일반주서
 62
     0
100
AcDbMText
 10
228.1682745290928
 20
-31.85423752632138
 30
0.0
 40
3.5
 41
0.0
 71
     2
 72
     1
  1
\A1;41.28 [1 5/8]
  7
SLDTEXTSTYLE0
 73
     1
 44
1.0
  0
POINT
  5
23F
330
233
100
AcDbEntity
  8
Defpoints
 62
     0
100
AcDbPoint
 10
295.3889294886565
 20
-52.495729268514
 30
0.0
  0
POINT
  5
240
330
233
100
AcDbEntity
  8
Defpoints
 62
     0
100
AcDbPoint
 10
254.1139294886565
 20
-52.68928230615177
 30
0.0
  0
POINT
  5
241
330
233
100
AcDbEntity
  8
Defpoints
 62
     0
100
AcDbPoint
 10
254.1139294886565
 20
-36.22923752632138
 30
0.0
  0
ENDBLK
  5
235
330
233
100
AcDbEntity
  8
0
100
AcDbBlockEnd
  0
BLOCK
  5
243
330
242
100
AcDbEntity
  8
0
100
AcDbBlockBegin
  2
*D12
 70
     1
 10
0.0
 20
0.0
 30
0.0
  3
*D12
  1
*D13
  0
LINE
  5
245
330
242
100
AcDbEntity
  8
치수문자_일반주서
 62
     0
370
    -2
100
AcDbLine
 10
295.3889294886565
 20
-52.46825658420673
 30
0.0
 11
295.3889294886565
 21
-20.23916536304183
 31
0.0
  0
LINE
  5
246
330
242
100
AcDbEntity
  8
치수문자_일반주서
 62
     0
370
    -2
100
AcDbLine
 10
152.5139294886564
 20
-54.33822926851401
 30
0.0
 11
152.5139294886564
 21
-20.23916536304183
 31
0.0
  0
LINE
  5
247
330
242
100
AcDbEntity
  8
치수문자_일반주서
 62
     0
370
    -2
100
AcDbLine
 10
292.0869294886564
 20
-20.23916536304183
 30
0.0
 11
155.8159294886564
 21
-20.23916536304183
 31
0.0
  0
SOLID
  5
248
330
242
100
AcDbEntity
  8
치수문자_일반주서
 62
     0
100
AcDbTrace
 10
292.0869294886564
 20
-20.78949869637517
 30
0.0
 11
292.0869294886564
 21
-19.6888320297085
 31
0.0
 12
295.3889294886565
 22
-20.23916536304183
 32
0.0
 13
295.3889294886565
 23
-20.23916536304183
 33
0.0
  0
SOLID
  5
249
330
242
100
AcDbEntity
  8
치수문자_일반주서
 62
     0
100
AcDbTrace
 10
155.8159294886564
 20
-19.6888320297085
 30
0.0
 11
155.8159294886564
 21
-20.78949869637517
 31
0.0
 12
152.5139294886564
 22
-20.23916536304183
 32
0.0
 13
152.5139294886564
 23
-20.23916536304183
 33
0.0
  0
MTEXT
  5
24A
330
242
100
AcDbEntity
  8
치수문자_일반주서
 62
     0
100
AcDbMText
 10
222.289571527887
 20
-15.86416536304183
 30
0.0
 40
3.5
 41
0.0
 71
     2
 72
     1
  1
\A1;142.88 [5 5/8]
  7
SLDTEXTSTYLE0
 73
     1
 44
1.0
  0
POINT
  5
24B
330
242
100
AcDbEntity
  8
Defpoints
 62
     0
100
AcDbPoint
 10
295.3889294886565
 20
-52.53075658420673
 30
0.0
  0
POINT
  5
24C
330
242
100
AcDbEntity
  8
Defpoints
 62
     0
100
AcDbPoint
 10
152.5139294886564
 20
-54.40072926851401
 30
0.0
  0
POINT
  5
24D
330
242
100
AcDbEntity
  8
Defpoints
 62
     0
100
AcDbPoint
 10
152.5139294886564
 20
-20.23916536304183
 30
0.0
  0
ENDBLK
  5
244
330
242
100
AcDbEntity
  8
0
100
AcDbBlockEnd
  0
BLOCK
  5
2DC
330
2DB
100
AcDbEntity
  8
0
100
AcDbBlockBegin
  2
*D13
 70
     1
 10
0.0
 20
0.0
 30
0.0
  3
*D13
  1
*D15
  0
LINE
  5
2DE
330
2DB
100
AcDbEntity
  8
치수문자_일반주서
 62
     0
370
    -2
100
AcDbLine
 10
158.6375
 20
27.24149999999993
 30
0.0
 11
177.6967539800593
 21
27.2415
 31
0.0
  0
LINE
  5
2DF
330
2DB
100
AcDbEntity
  8
치수문자_일반주서
 62
     0
370
    -2
100
AcDbLine
 10
158.6375
 20
6.60399999999993
 30
0.0
 11
177.6967539800594
 21
6.603999999999999
 31
0.0
  0
LINE
  5
2E0
330
2DB
100
AcDbEntity
  8
치수문자_일반주서
 62
     0
370
    -2
100
AcDbLine
 10
177.6967539800593
 20
27.2415
 30
0.0
 11
177.6967539800592
 21
65.78300000000004
 31
0.0
  0
LINE
  5
2E1
330
2DB
100
AcDbEntity
  8
치수문자_일반주서
 62
     0
370
    -2
100
AcDbLine
 10
177.6967539800593
 20
27.2415
 30
0.0
 11
177.6967539800594
 21
6.603999999999999
 31
0.0
  0
LINE
  5
2E2
330
2DB
100
AcDbEntity
  8
치수문자_일반주서
 62
     0
370
    -2
100
AcDbLine
 10
177.6967539800593
 20
30.5435
 30
0.0
 11
177.6967539800593
 21
33.8455
 31
0.0
  0
LINE
  5
2E3
330
2DB
100
AcDbEntity
  8
치수문자_일반주서
 62
     0
370
    -2
100
AcDbLine
 10
177.6967539800594
 20
3.302
 30
0.0
 11
177.6967539800594
 21
0.0
 31
0.0
  0
SOLID
  5
2E4
330
2DB
100
AcDbEntity
  8
치수문자_일반주서
 62
     0
100
AcDbTrace
 10
177.146420646726
 20
30.5435
 30
0.0
 11
178.2470873133926
 21
30.54350000000001
 31
0.0
 12
177.6967539800593
 22
27.2415
 32
0.0
 13
177.6967539800593
 23
27.2415
 33
0.0
  0
SOLID
  5
2E5
330
2DB
100
AcDbEntity
  8
치수문자_일반주서
 62
     0
100
AcDbTrace
 10
178.2470873133927
 20
3.302000000000002
 30
0.0
 11
177.1464206467261
 21
3.301999999999997
 31
0.0
 12
177.6967539800594
 22
6.603999999999999
 32
0.0
 13
177.6967539800594
 23
6.603999999999999
 33
0.0
  0
MTEXT
  5
2E6
330
2DB
100
AcDbEntity
  8
치수문자_일반주서
 62
     0
100
AcDbMText
 10
173.3217539800592
 20
49.81425000000003
 30
0.0
 40
3.5
 41
0.0
 71
     2
 72
     1
  1
\A1;%%c20.64 [13/16]
  7
SLDTEXTSTYLE0
 11
-4.131562848756488E-15
 21
1.0
 31
0.0
 73
     1
 44
1.0
  0
POINT
  5
2E7
330
2DB
100
AcDbEntity
  8
Defpoints
 62
     0
100
AcDbPoint
 10
158.575
 20
27.24149999999993
 30
0.0
  0
POINT
  5
2E8
330
2DB
100
AcDbEntity
  8
Defpoints
 62
     0
100
AcDbPoint
 10
158.575
 20
6.60399999999993
 30
0.0
  0
POINT
  5
2E9
330
2DB
100
AcDbEntity
  8
Defpoints
 62
     0
100
AcDbPoint
 10
177.6967539800594
 20
6.604000000000001
 30
0.0
  0
ENDBLK
  5
2DD
330
2DB
100
AcDbEntity
  8
0
100
AcDbBlockEnd
  0
BLOCK
  5
2EB
330
2EA
100
AcDbEntity
  8
0
100
AcDbBlockBegin
  2
*D14
 70
     1
 10
0.0
 20
0.0
 30
0.0
  3
*D14
  1
*D16
  0
LINE
  5
2ED
330
2EA
100
AcDbEntity
  8
치수문자_일반주서
 62
     0
370
    -2
100
AcDbLine
 10
158.575
 20
27.30399999999993
 30
0.0
 11
158.575
 21
40.26956675324948
 31
0.0
  0
LINE
  5
2EE
330
2EA
100
AcDbEntity
  8
치수문자_일반주서
 62
     0
370
    -2
100
AcDbLine
 10
110.95
 20
27.29613487245895
 30
0.0
 11
110.95
 21
40.26956675324948
 31
0.0
  0
LINE
  5
2EF
330
2EA
100
AcDbEntity
  8
치수문자_일반주서
 62
     0
370
    -2
100
AcDbLine
 10
155.273
 20
40.26956675324948
 30
0.0
 11
114.252
 21
40.26956675324948
 31
0.0
  0
SOLID
  5
2F0
330
2EA
100
AcDbEntity
  8
치수문자_일반주서
 62
     0
100
AcDbTrace
 10
155.273
 20
39.71923341991614
 30
0.0
 11
155.273
 21
40.81990008658281
 31
0.0
 12
158.575
 22
40.26956675324948
 32
0.0
 13
158.575
 23
40.26956675324948
 33
0.0
  0
SOLID
  5
2F1
330
2EA
100
AcDbEntity
  8
치수문자_일반주서
 62
     0
100
AcDbTrace
 10
114.252
 20
40.81990008658281
 30
0.0
 11
114.252
 21
39.71923341991614
 31
0.0
 12
110.95
 22
40.26956675324948
 32
0.0
 13
110.95
 23
40.26956675324948
 33
0.0
  0
MTEXT
  5
2F2
330
2EA
100
AcDbEntity
  8
치수문자_일반주서
 62
     0
100
AcDbMText
 10
131.450069728875
 20
44.64456675324948
 30
0.0
 40
3.5
 41
0.0
 71
     2
 72
     1
  1
\A1;47.63 [1 7/8]
  7
SLDTEXTSTYLE0
 73
     1
 44
1.0
  0
POINT
  5
2F3
330
2EA
100
AcDbEntity
  8
Defpoints
 62
     0
100
AcDbPoint
 10
158.575
 20
27.24149999999993
 30
0.0
  0
POINT
  5
2F4
330
2EA
100
AcDbEntity
  8
Defpoints
 62
     0
100
AcDbPoint
 10
110.95
 20
27.23363487245895
 30
0.0
  0
POINT
  5
2F5
330
2EA
100
AcDbEntity
  8
Defpoints
 62
     0
100
AcDbPoint
 10
110.95
 20
40.26956675324948
 30
0.0
  0
ENDBLK
  5
2EC
330
2EA
100
AcDbEntity
  8
0
100
AcDbBlockEnd
  0
BLOCK
  5
2F7
330
2F6
100
AcDbEntity
  8
0
100
AcDbBlockBegin
  2
*D15
 70
     1
 10
0.0
 20
0.0
 30
0.0
  3
*D15
  1
*D17
  0
LINE
  5
2F9
330
2F6
100
AcDbEntity
  8
치수문자_일반주서
 62
     0
370
    -2
100
AcDbLine
 10
158.575
 20
27.30399999999993
 30
0.0
 11
158.575
 21
65.36339959311518
 31
0.0
  0
LINE
  5
2FA
330
2F6
100
AcDbEntity
  8
치수문자_일반주서
 62
     0
370
    -2
100
AcDbLine
 10
3.000000000000007
 20
25.87524999999992
 30
0.0
 11
3.0
 21
65.36339959311518
 31
0.0
  0
LINE
  5
2FB
330
2F6
100
AcDbEntity
  8
치수문자_일반주서
 62
     0
370
    -2
100
AcDbLine
 10
155.273
 20
65.36339959311518
 30
0.0
 11
6.302
 21
65.36339959311518
 31
0.0
  0
SOLID
  5
2FC
330
2F6
100
AcDbEntity
  8
치수문자_일반주서
 62
     0
100
AcDbTrace
 10
155.273
 20
64.81306625978185
 30
0.0
 11
155.273
 21
65.9137329264485
 31
0.0
 12
158.575
 22
65.36339959311518
 32
0.0
 13
158.575
 23
65.36339959311518
 33
0.0
  0
SOLID
  5
2FD
330
2F6
100
AcDbEntity
  8
치수문자_일반주서
 62
     0
100
AcDbTrace
 10
6.302
 20
65.9137329264485
 30
0.0
 11
6.302
 21
64.81306625978185
 31
0.0
 12
3.0
 22
65.36339959311518
 32
0.0
 13
3.0
 23
65.36339959311518
 33
0.0
  0
MTEXT
  5
2FE
330
2F6
100
AcDbEntity
  8
치수문자_일반주서
 62
     0
100
AcDbMText
 10
78.06905675480786
 20
69.73839959311518
 30
0.0
 40
3.5
 41
0.0
 71
     2
 72
     1
  1
\A1;155.58 [6 1/8]
  7
SLDTEXTSTYLE0
 73
     1
 44
1.0
  0
POINT
  5
2FF
330
2F6
100
AcDbEntity
  8
Defpoints
 62
     0
100
AcDbPoint
 10
158.575
 20
27.24149999999993
 30
0.0
  0
POINT
  5
300
330
2F6
100
AcDbEntity
  8
Defpoints
 62
     0
100
AcDbPoint
 10
3.000000000000007
 20
25.81274999999992
 30
0.0
  0
POINT
  5
301
330
2F6
100
AcDbEntity
  8
Defpoints
 62
     0
100
AcDbPoint
 10
3.000000000000007
 20
65.36339959311518
 30
0.0
  0
ENDBLK
  5
2F8
330
2F6
100
AcDbEntity
  8
0
100
AcDbBlockEnd
  0
BLOCK
  5
332
330
331
100
AcDbEntity
  8
0
100
AcDbBlockBegin
  2
*D16
 70
     1
 10
0.0
 20
0.0
 30
0.0
  3
*D16
  1
*D18
  0
LINE
  5
334
330
331
100
AcDbEntity
  8
치수문자_일반주서
 62
     0
370
    -2
100
AcDbLine
 10
372.2143837469723
 20
-78.54120241727632
 30
0.0
 11
391.2736377270316
 21
-78.54120241727625
 31
0.0
  0
LINE
  5
335
330
331
100
AcDbEntity
  8
치수문자_일반주서
 62
     0
370
    -2
100
AcDbLine
 10
372.2143837469723
 20
-99.17870241727633
 30
0.0
 11
391.2736377270317
 21
-99.17870241727626
 31
0.0
  0
LINE
  5
336
330
331
100
AcDbEntity
  8
치수문자_일반주서
 62
     0
370
    -2
100
AcDbLine
 10
391.2736377270316
 20
-78.54120241727625
 30
0.0
 11
391.2736377270315
 21
-39.9997024172762
 31
0.0
  0
LINE
  5
337
330
331
100
AcDbEntity
  8
치수문자_일반주서
 62
     0
370
    -2
100
AcDbLine
 10
391.2736377270316
 20
-78.54120241727625
 30
0.0
 11
391.2736377270317
 21
-99.17870241727626
 31
0.0
  0
LINE
  5
338
330
331
100
AcDbEntity
  8
치수문자_일반주서
 62
     0
370
    -2
100
AcDbLine
 10
391.2736377270316
 20
-75.23920241727626
 30
0.0
 11
391.2736377270316
 21
-71.93720241727627
 31
0.0
  0
LINE
  5
339
330
331
100
AcDbEntity
  8
치수문자_일반주서
 62
     0
370
    -2
100
AcDbLine
 10
391.2736377270317
 20
-102.4807024172763
 30
0.0
 11
391.2736377270317
 21
-105.7827024172763
 31
0.0
  0
SOLID
  5
33A
330
331
100
AcDbEntity
  8
치수문자_일반주서
 62
     0
100
AcDbTrace
 10
390.7233043936982
 20
-75.23920241727626
 30
0.0
 11
391.823971060365
 21
-75.23920241727626
 31
0.0
 12
391.2736377270316
 22
-78.54120241727625
 32
0.0
 13
391.2736377270316
 23
-78.54120241727625
 33
0.0
  0
SOLID
  5
33B
330
331
100
AcDbEntity
  8
치수문자_일반주서
 62
     0
100
AcDbTrace
 10
391.823971060365
 20
-102.4807024172763
 30
0.0
 11
390.7233043936983
 21
-102.4807024172763
 31
0.0
 12
391.2736377270317
 22
-99.17870241727626
 32
0.0
 13
391.2736377270317
 23
-99.17870241727626
 33
0.0
  0
MTEXT
  5
33C
330
331
100
AcDbEntity
  8
치수문자_일반주서
 62
     0
100
AcDbMText
 10
386.8986377270315
 20
-55.96845241727622
 30
0.0
 40
3.5
 41
0.0
 71
     2
 72
     1
  1
\A1;%%c20.64 [13/16]
  7
SLDTEXTSTYLE0
 11
-2.754375232504325E-15
 21
1.0
 31
0.0
 73
     1
 44
1.0
  0
POINT
  5
33D
330
331
100
AcDbEntity
  8
Defpoints
 62
     0
100
AcDbPoint
 10
372.1518837469723
 20
-78.54120241727632
 30
0.0
  0
POINT
  5
33E
330
331
100
AcDbEntity
  8
Defpoints
 62
     0
100
AcDbPoint
 10
372.1518837469723
 20
-99.17870241727633
 30
0.0
  0
POINT
  5
33F
330
331
100
AcDbEntity
  8
Defpoints
 62
     0
100
AcDbPoint
 10
391.2736377270318
 20
-99.17870241727626
 30
0.0
  0
ENDBLK
  5
333
330
331
100
AcDbEntity
  8
0
100
AcDbBlockEnd
  0
BLOCK
  5
341
330
340
100
AcDbEntity
  8
0
100
AcDbBlockBegin
  2
*D17
 70
     1
 10
0.0
 20
0.0
 30
0.0
  3
*D17
  1
*D19
  0
LINE
  5
343
330
340
100
AcDbEntity
  8
치수문자_일반주서
 62
     0
370
    -2
100
AcDbLine
 10
372.1518837469723
 20
-78.47870241727632
 30
0.0
 11
372.1518837469723
 21
-65.51313566402678
 31
0.0
  0
LINE
  5
344
330
340
100
AcDbEntity
  8
치수문자_일반주서
 62
     0
370
    -2
100
AcDbLine
 10
324.5268837469723
 20
-78.4865675448173
 30
0.0
 11
324.5268837469723
 21
-65.51313566402678
 31
0.0
  0
LINE
  5
345
330
340
100
AcDbEntity
  8
치수문자_일반주서
 62
     0
370
    -2
100
AcDbLine
 10
368.8498837469723
 20
-65.51313566402678
 30
0.0
 11
327.8288837469723
 21
-65.51313566402678
 31
0.0
  0
SOLID
  5
346
330
340
100
AcDbEntity
  8
치수문자_일반주서
 62
     0
100
AcDbTrace
 10
368.8498837469723
 20
-66.0634689973601
 30
0.0
 11
368.8498837469723
 21
-64.96280233069345
 31
0.0
 12
372.1518837469723
 22
-65.51313566402678
 32
0.0
 13
372.1518837469723
 23
-65.51313566402678
 33
0.0
  0
SOLID
  5
347
330
340
100
AcDbEntity
  8
치수문자_일반주서
 62
     0
100
AcDbTrace
 10
327.8288837469723
 20
-64.96280233069345
 30
0.0
 11
327.8288837469723
 21
-66.0634689973601
 31
0.0
 12
324.5268837469723
 22
-65.51313566402678
 32
0.0
 13
324.5268837469723
 23
-65.51313566402678
 33
0.0
  0
MTEXT
  5
348
330
340
100
AcDbEntity
  8
치수문자_일반주서
 62
     0
100
AcDbMText
 10
345.0269534758473
 20
-61.13813566402678
 30
0.0
 40
3.5
 41
0.0
 71
     2
 72
     1
  1
\A1;47.63 [1 7/8]
  7
SLDTEXTSTYLE0
 73
     1
 44
1.0
  0
POINT
  5
349
330
340
100
AcDbEntity
  8
Defpoints
 62
     0
100
AcDbPoint
 10
372.1518837469723
 20
-78.54120241727632
 30
0.0
  0
POINT
  5
34A
330
340
100
AcDbEntity
  8
Defpoints
 62
     0
100
AcDbPoint
 10
324.5268837469723
 20
-78.5490675448173
 30
0.0
  0
POINT
  5
34B
330
340
100
AcDbEntity
  8
Defpoints
 62
     0
100
AcDbPoint
 10
324.5268837469723
 20
-65.51313566402678
 30
0.0
  0
ENDBLK
  5
342
330
340
100
AcDbEntity
  8
0
100
AcDbBlockEnd
  0
BLOCK
  5
34D
330
34C
100
AcDbEntity
  8
0
100
AcDbBlockBegin
  2
*D18
 70
     1
 10
0.0
 20
0.0
 30
0.0
  3
*D18
  1
*D20
  0
LINE
  5
34F
330
34C
100
AcDbEntity
  8
치수문자_일반주서
 62
     0
370
    -2
100
AcDbLine
 10
372.1518837469723
 20
-78.47870241727632
 30
0.0
 11
372.1518837469723
 21
-40.41930282416108
 31
0.0
  0
LINE
  5
350
330
34C
100
AcDbEntity
  8
치수문자_일반주서
 62
     0
370
    -2
100
AcDbLine
 10
216.5768837469724
 20
-79.90745241727633
 30
0.0
 11
216.5768837469724
 21
-40.41930282416108
 31
0.0
  0
LINE
  5
351
330
34C
100
AcDbEntity
  8
치수문자_일반주서
 62
     0
370
    -2
100
AcDbLine
 10
368.8498837469723
 20
-40.41930282416108
 30
0.0
 11
219.8788837469723
 21
-40.41930282416108
 31
0.0
  0
SOLID
  5
352
330
34C
100
AcDbEntity
  8
치수문자_일반주서
 62
     0
100
AcDbTrace
 10
368.8498837469723
 20
-40.96963615749441
 30
0.0
 11
368.8498837469723
 21
-39.86896949082774
 31
0.0
 12
372.1518837469723
 22
-40.41930282416108
 32
0.0
 13
372.1518837469723
 23
-40.41930282416108
 33
0.0
  0
SOLID
  5
353
330
34C
100
AcDbEntity
  8
치수문자_일반주서
 62
     0
100
AcDbTrace
 10
219.8788837469723
 20
-39.86896949082774
 30
0.0
 11
219.8788837469723
 21
-40.96963615749441
 31
0.0
 12
216.5768837469724
 22
-40.41930282416108
 32
0.0
 13
216.5768837469724
 23
-40.41930282416108
 33
0.0
  0
MTEXT
  5
354
330
34C
100
AcDbEntity
  8
치수문자_일반주서
 62
     0
100
AcDbMText
 10
291.6459405017802
 20
-36.04430282416108
 30
0.0
 40
3.5
 41
0.0
 71
     2
 72
     1
  1
\A1;155.58 [6 1/8]
  7
SLDTEXTSTYLE0
 73
     1
 44
1.0
  0
POINT
  5
355
330
34C
100
AcDbEntity
  8
Defpoints
 62
     0
100
AcDbPoint
 10
372.1518837469723
 20
-78.54120241727632
 30
0.0
  0
POINT
  5
356
330
34C
100
AcDbEntity
  8
Defpoints
 62
     0
100
AcDbPoint
 10
216.5768837469724
 20
-79.96995241727633
 30
0.0
  0
POINT
  5
357
330
34C
100
AcDbEntity
  8
Defpoints
 62
     0
100
AcDbPoint
 10
216.5768837469724
 20
-40.41930282416108
 30
0.0
  0
ENDBLK
  5
34E
330
34C
100
AcDbEntity
  8
0
100
AcDbBlockEnd
  0
ENDSEC
  0
SECTION
  2
ENTITIES
  0
LINE
  5
96
330
1F
100
AcDbEntity
  8
0
  6
Continuous
 62
     1
370
    15
100
AcDbLine
 10
34.80913698370428
 20
-3.041985875935565
 30
0.0
 11
34.9087266255701
 21
-3.095569526300513
 31
0.0
  0
LINE
  5
97
330
1F
100
AcDbEntity
  8
0
  6
Continuous
 62
     1
370
    15
100
AcDbLine
 10
51.24599552479857
 20
-10.31875000000001
 30
0.0
 11
57.53642652380397
 21
-10.31875000000001
 31
0.0
  0
LINE
  5
98
330
1F
100
AcDbEntity
  8
0
  6
Continuous
 62
     1
370
    15
100
AcDbLine
 10
57.53642652380391
 20
10.31875
 30
0.0
 11
51.24599552479869
 21
10.31875
 31
0.0
  0
LINE
  5
99
330
1F
100
AcDbEntity
  8
외형선
  6
Continuous
370
    15
100
AcDbLine
 10
26.20018467149215
 20
-11.11250000000002
 30
0.0
 11
29.16249999999999
 21
-10.31875
 31
0.0
  0
LINE
  5
9A
330
1F
100
AcDbEntity
  8
외형선
  6
Continuous
370
    15
100
AcDbLine
 10
29.16249999999999
 20
10.31874999999999
 30
0.0
 11
26.20018467149215
 21
11.11250000000001
 31
0.0
  0
LINE
  5
9B
330
1F
100
AcDbEntity
  8
외형선
  6
Continuous
370
    15
100
AcDbLine
 10
-26.20018467149217
 20
-11.11250000000001
 30
0.0
 11
26.20018467149215
 21
-11.11250000000001
 31
0.0
  0
LINE
  5
9C
330
1F
100
AcDbEntity
  8
외형선
  6
Continuous
370
    15
100
AcDbLine
 10
26.20018467149215
 20
11.1125
 30
0.0
 11
7.442199999999957
 21
11.1125
 31
0.0
  0
LINE
  5
9F
330
1F
100
AcDbEntity
  8
외형선
  6
Continuous
370
    15
100
AcDbLine
 10
29.16249999999999
 20
-10.31875
 30
0.0
 11
29.6625564726794
 21
-10.31875
 31
0.0
  0
LINE
  5
A0
330
1F
100
AcDbEntity
  8
외형선
  6
Continuous
370
    15
100
AcDbLine
 10
29.6625564726794
 20
10.31874999999999
 30
0.0
 11
29.16249999999999
 21
10.31874999999999
 31
0.0
  0
LINE
  5
A1
330
1F
100
AcDbEntity
  8
0
  6
Continuous
 62
     1
370
    15
100
AcDbLine
 10
77.78749999999998
 20
-9.345499422632733
 30
0.0
 11
77.78749999999998
 21
0.8841244226328462
 31
0.0
  0
SPLINE
  5
A2
330
1F
100
AcDbEntity
  8
0
  6
Continuous
 62
     1
370
    15
100
AcDbSpline
210
0.0
220
0.0
230
1.0
 70
     8
 71
     3
 72
    62
 73
    58
 74
     0
 42
0.000000001
 43
0.00000001
 40
0.0
 40
0.0
 40
0.0
 40
0.0
 40
0.0625000000000017
 40
0.0625000000000017
 40
0.1250000000000033
 40
0.1250000000000033
 40
0.1562500000000035
 40
0.1562500000000035
 40
0.1875000000000037
 40
0.1875000000000037
 40
0.2187500000000039
 40
0.2187500000000039
 40
0.250000000000004
 40
0.250000000000004
 40
0.2812500000000042
 40
0.2812500000000042
 40
0.3125000000000043
 40
0.3125000000000043
 40
0.3437500000000045
 40
0.3437500000000045
 40
0.3750000000000047
 40
0.3750000000000047
 40
0.4062500000000048
 40
0.4062500000000048
 40
0.437500000000005
 40
0.437500000000005
 40
0.4687500000000052
 40
0.4687500000000052
 40
0.5000000000000053
 40
0.5000000000000053
 40
0.5312500000000054
 40
0.5312500000000054
 40
0.5625000000000057
 40
0.5625000000000057
 40
0.5937500000000058
 40
0.5937500000000058
 40
0.625000000000006
 40
0.625000000000006
 40
0.687500000000005
 40
0.687500000000005
 40
0.750000000000004
 40
0.750000000000004
 40
0.7812500000000034
 40
0.7812500000000034
 40
0.812500000000003
 40
0.812500000000003
 40
0.8437500000000024
 40
0.8437500000000024
 40
0.875000000000002
 40
0.875000000000002
 40
0.9062500000000014
 40
0.9062500000000014
 40
0.937500000000001
 40
0.937500000000001
 40
0.9687500000000004
 40
0.9687500000000004
 40
1.0
 40
1.0
 40
1.0
 40
1.0
 10
77.78749999999998
 20
-9.34549942263273
 30
0.0
 10
76.79906561140139
 20
-9.102941446066867
 30
0.0
 10
75.79982039586119
 20
-8.816114242715559
 30
0.0
 10
73.82097732400658
 20
-8.165685835449985
 30
0.0
 10
72.82374794076476
 20
-7.800225600616066
 30
0.0
 10
71.338275501304
 20
-7.201863960773674
 30
0.0
 10
70.843471160419
 20
-6.993918270000727
 30
0.0
 10
69.84966718522169
 20
-6.561741934685571
 30
0.0
 10
69.35214604890399
 20
-6.33770925143225
 30
0.0
 10
68.36103167290838
 20
-5.876122585201377
 30
0.0
 10
67.86690815209134
 20
-5.638507096416641
 30
0.0
 10
66.87338968413022
 20
-5.149946947320739
 30
0.0
 10
66.37576272334533
 20
-4.899274646673408
 30
0.0
 10
65.38394319250511
 20
-4.387770151632592
 30
0.0
 10
64.89024972461215
 20
-4.127042135137433
 30
0.0
 10
63.89711179122406
 20
-3.595644171132418
 30
0.0
 10
63.39942679629669
 20
-3.325273520630469
 30
0.0
 10
62.40699659651536
 20
-2.778004304748535
 30
0.0
 10
61.91348227759346
 20
-2.501345048972204
 30
0.0
 10
60.92081978474455
 20
-1.941841359782917
 30
0.0
 10
60.42312456461262
 20
-1.659261025693297
 30
0.0
 10
59.43017837627673
 20
-1.091378867178882
 30
0.0
 10
58.93659224537362
 20
-0.8064007665715817
 30
0.0
 10
57.94449994746897
 20
-0.2342993589916662
 30
0.0
 10
57.44684231435012
 20
0.0526629230708859
 30
0.0
 10
56.4534749822906
 20
0.6254289221489254
 30
0.0
 10
55.95956610130258
 20
0.9108866331421815
 30
0.0
 10
54.96813857109713
 20
1.479733529269294
 30
0.0
 10
54.47056632515334
 20
1.763128738767041
 30
0.0
 10
53.47687282849591
 20
2.324909721323577
 30
0.0
 10
52.98239036200097
 20
2.602991261278521
 30
0.0
 10
51.9917219606325
 20
3.152828343459742
 30
0.0
 10
51.49428287464229
 20
3.424807331202627
 30
0.0
 10
50.5003582965679
 20
3.960036255515907
 30
0.0
 10
50.0050515915899
 20
4.223080133797321
 30
0.0
 10
49.01523643875262
 20
4.738687308773508
 30
0.0
 10
48.51797824280212
 20
4.991719147720202
 30
0.0
 10
47.02688748895686
 20
5.732486461766008
 30
0.0
 10
46.03868932974027
 20
6.201117568817373
 30
0.0
 10
44.05048687626727
 20
7.078670943261506
 30
0.0
 10
43.0622739620254
 20
7.485853403236147
 30
0.0
 10
41.57120385563661
 20
8.043182952568309
 30
0.0
 10
41.07391655837777
 20
8.219883577615516
 30
0.0
 10
40.0839722384076
 20
8.553375730895096
 30
0.0
 10
39.58880018676444
 20
8.710467737299705
 30
0.0
 10
38.59490313423775
 20
9.004508538594909
 30
0.0
 10
38.0974418442236
 20
9.141312666442893
 30
0.0
 10
37.10665786687662
 20
9.3931329614829
 30
0.0
 10
36.61227383024924
 20
9.508268089515632
 30
0.0
 10
35.61862161093056
 20
9.716661123707638
 30
0.0
 10
35.12103406536519
 20
9.809770955028728
 30
0.0
 10
34.12950458708028
 20
9.97289798490307
 30
0.0
 10
33.63565788118738
 20
10.04294743851937
 30
0.0
 10
32.642345565087
 20
10.15993631514466
 30
0.0
 10
32.14467954165504
 20
10.2067666252717
 30
0.0
 10
31.15249895601195
 20
10.27663912174336
 30
0.0
 10
30.65893872565199
 20
10.29970126373534
 30
0.0
 10
30.16250000000001
 20
10.31088487245903
 30
0.0
  0
SPLINE
  5
A3
330
1F
100
AcDbEntity
  8
0
  6
Continuous
 62
     1
370
    15
100
AcDbSpline
210
0.0
220
0.0
230
1.0
 70
     8
 71
     3
 72
    19
 73
    15
 74
     0
 42
0.000000001
 43
0.00000001
 40
0.0
 40
0.0
 40
0.0
 40
0.0
 40
0.0890619252888725
 40
0.1781303109601162
 40
0.2672041342984174
 40
0.3562823688163684
 40
0.4453639849626154
 40
0.5344479508345814
 40
0.6235332328947255
 40
0.7126187966892558
 40
0.805947091049632
 40
0.8992676588016588
 40
0.9925750694740246
 40
1.0
 40
1.0
 40
1.0
 40
1.0
 10
77.78750000000001
 20
0.8841244226328469
 30
0.0
 10
76.67644686819746
 20
1.520351318585847
 30
0.0
 10
74.45426001091515
 20
2.79285126117868
 30
0.0
 10
71.12080831794708
 20
4.596450080647272
 30
0.0
 10
67.78711640264089
 20
6.242845062483408
 30
0.0
 10
64.45322572744007
 20
7.672082690549016
 30
0.0
 10
61.11918210419914
 20
8.835362632547024
 30
0.0
 10
57.78503811922356
 20
9.691905606753625
 30
0.0
 10
54.4508155656348
 20
10.21278830287288
 30
0.0
 10
51.06371328323708
 20
10.37971630784479
 30
0.0
 10
47.62349268118143
 20
10.17767000993598
 30
0.0
 10
44.13075204791515
 20
9.551738877562851
 30
0.0
 10
41.70975887063165
 20
8.951898253382574
 30
0.0
 10
40.45309557400681
 20
8.486236921183421
 30
0.0
 10
40.36046755046459
 20
8.451913257114063
 30
0.0
  0
SPLINE
  5
A4
330
1F
100
AcDbEntity
  8
0
  6
Continuous
 62
     1
370
    15
100
AcDbSpline
210
0.0
220
0.0
230
1.0
 70
     8
 71
     3
 72
    19
 73
    15
 74
     0
 42
0.000000001
 43
0.00000001
 40
0.0
 40
0.0
 40
0.0
 40
0.0
 40
0.0871598153049319
 40
0.1743152105379534
 40
0.261465181663002
 40
0.3486088064502479
 40
0.4357537618357291
 40
0.5229049353492473
 40
0.6100613258833665
 40
0.697221928711096
 40
0.788538285875099
 40
0.8798590220853517
 40
0.9711788036366755
 40
1.0
 40
1.0
 40
1.0
 40
1.0
 10
30.16249999999999
 20
-0.4028085269647457
 30
0.0
 10
31.273796999759
 20
-1.042557539890673
 30
0.0
 10
33.49633464288573
 20
-2.322023122619147
 30
0.0
 10
36.83000169205779
 20
-4.156934891020501
 30
0.0
 10
40.16342789116891
 20
-5.848588215881259
 30
0.0
 10
43.49665200299989
 20
-7.337105664307057
 30
0.0
 10
46.82991080123978
 20
-8.571172851791511
 30
0.0
 10
50.16338492180604
 20
-9.50776941852473
 30
0.0
 10
53.49711406972453
 20
-10.11495460296067
 30
0.0
 10
56.88391351122398
 20
-10.37376079149046
 30
0.0
 10
60.32410298902334
 20
-10.26252003033425
 30
0.0
 10
63.8172928836504
 20
-9.73607633861362
 30
0.0
 10
66.51363591248878
 20
-9.109189550696094
 30
0.0
 10
68.04551589875584
 20
-8.563581237858545
 30
0.0
 10
68.41300594799296
 20
-8.432692638525475
 30
0.0
  0
SPLINE
  5
A5
330
1F
100
AcDbEntity
  8
외형선
  6
Continuous
370
    15
100
AcDbSpline
210
0.0
220
0.0
230
1.0
 70
    24
 71
     3
 72
    19
 73
    15
 74
     0
 42
0.000000001
 43
0.00000001
 40
0.0
 40
0.0
 40
0.0
 40
0.0
 40
0.0803845184184783
 40
0.1633606945845669
 40
0.2487431854806774
 40
0.3317193616467655
 40
0.4171018525428761
 40
0.5000780287089646
 40
0.5854605196050755
 40
0.6684366957711643
 40
0.7538191866672723
 40
0.8367953628333477
 40
0.9221778537294436
 40
1.0
 40
1.0
 40
1.0
 40
1.0
 10
30.16250000000001
 20
9.539693584540021
 30
0.0
 10
30.16250000000004
 20
9.274613146939435
 30
0.0
 10
30.16250000000009
 20
8.73590587768921
 30
0.0
 10
30.16249999999991
 20
7.801078358988687
 30
0.0
 10
30.16249999999998
 20
6.800940179090364
 30
0.0
 10
30.16249999999995
 20
5.754475974406755
 30
0.0
 10
30.16250000000012
 20
4.712836737304245
 30
0.0
 10
30.16249999999998
 20
3.686057264969806
 30
0.0
 10
30.16250000000001
 20
2.721783158036301
 30
0.0
 10
30.16250000000004
 20
1.830243097896356
 30
0.0
 10
30.16250000000005
 20
1.051457095987266
 30
0.0
 10
30.16249999999999
 20
0.3982163652051769
 30
0.0
 10
30.16249999999997
 20
-0.1064274572851125
 30
0.0
 10
30.16250000000001
 20
-0.3071137223147884
 30
0.0
 10
30.16250000000001
 20
-0.4028085269647526
 30
0.0
  0
LINE
  5
A6
330
1F
100
AcDbEntity
  8
외형선
  6
Continuous
370
    15
100
AcDbLine
 10
30.16250000000002
 20
-0.5995369509144532
 30
0.0
 11
30.16250000000002
 21
-0.5982557654416327
 31
0.0
  0
SPLINE
  5
A7
330
1F
100
AcDbEntity
  8
0
  6
Continuous
 62
     1
370
    15
100
AcDbSpline
210
0.0
220
0.0
230
1.0
 70
     8
 71
     3
 72
    62
 73
    58
 74
     0
 42
0.000000001
 43
0.00000001
 40
0.0
 40
0.0
 40
0.0
 40
0.0
 40
0.0624999999999991
 40
0.0624999999999991
 40
0.1249999999999982
 40
0.1249999999999982
 40
0.1562499999999984
 40
0.1562499999999984
 40
0.1874999999999986
 40
0.1874999999999986
 40
0.2187499999999988
 40
0.2187499999999988
 40
0.249999999999999
 40
0.249999999999999
 40
0.2812499999999992
 40
0.2812499999999992
 40
0.3124999999999994
 40
0.3124999999999994
 40
0.3437499999999996
 40
0.3437499999999996
 40
0.3749999999999998
 40
0.3749999999999998
 40
0.4062500000000001
 40
0.4062500000000001
 40
0.4375000000000002
 40
0.4375000000000002
 40
0.4687500000000004
 40
0.4687500000000004
 40
0.5000000000000007
 40
0.5000000000000007
 40
0.5312500000000009
 40
0.5312500000000009
 40
0.5625000000000011
 40
0.5625000000000011
 40
0.5937500000000013
 40
0.5937500000000013
 40
0.6250000000000014
 40
0.6250000000000014
 40
0.6875000000000012
 40
0.6875000000000012
 40
0.750000000000001
 40
0.750000000000001
 40
0.7812500000000009
 40
0.7812500000000009
 40
0.8125000000000008
 40
0.8125000000000008
 40
0.8437500000000007
 40
0.8437500000000007
 40
0.8750000000000004
 40
0.8750000000000004
 40
0.9062500000000003
 40
0.9062500000000003
 40
0.9375000000000002
 40
0.9375000000000002
 40
0.9687500000000001
 40
0.9687500000000001
 40
1.0
 40
1.0
 40
1.0
 40
1.0
 10
77.78750000000002
 20
-10.31874999999999
 30
0.0
 10
76.79906561140139
 20
-10.23178321991401
 30
0.0
 10
75.79982039586119
 20
-10.13484941419897
 30
0.0
 10
73.82097732400663
 20
-9.849065763898205
 30
0.0
 10
72.82374794076485
 20
-9.659437297202512
 30
0.0
 10
71.33827550130394
 20
-9.31014623826575
 30
0.0
 10
70.84347116041909
 20
-9.182868045622117
 30
0.0
 10
69.84966718522172
 20
-8.907003846980134
 30
0.0
 10
69.35214604890402
 20
-8.758531902270942
 30
0.0
 10
68.36103167290835
 20
-8.442105967071573
 30
0.0
 10
67.86690815209131
 20
-8.274125008330707
 30
0.0
 10
66.87338968413019
 20
-7.91882592021911
 30
0.0
 10
66.37576272334528
 20
-7.731691482653456
 30
0.0
 10
65.38394319250509
 20
-7.340428217876958
 30
0.0
 10
64.8902497246122
 20
-7.136394906668461
 30
0.0
 10
63.89711179122406
 20
-6.711520464631376
 30
0.0
 10
63.39942679629667
 20
-6.490903386471959
 30
0.0
 10
62.40699659651521
 20
-6.035613057058865
 30
0.0
 10
61.91348227759346
 20
-5.801154515137425
 30
0.0
 10
60.92081978474452
 20
-5.318493532830506
 30
0.0
 10
60.42312456461265
 20
-5.070503639313894
 30
0.0
 10
59.43017837627676
 20
-4.563778822542682
 30
0.0
 10
58.93659224537367
 20
-4.305347500724321
 30
0.0
 10
57.94449994746886
 20
-3.778289594159818
 30
0.0
 10
57.44684231435015
 20
-3.509796732069369
 30
0.0
 10
56.45347498229066
 20
-2.965662457439937
 30
0.0
 10
55.95956610130261
 20
-2.690362958718973
 30
0.0
 10
54.96813857109719
 20
-2.133525532292155
 30
0.0
 10
54.47056632515343
 20
-1.851968428552477
 30
0.0
 10
53.47687282849597
 20
-1.285492270237312
 30
0.0
 10
52.98239036200103
 20
-1.000890892389853
 30
0.0
 10
51.99172196063253
 20
-0.4297120180562332
 30
0.0
 10
51.49428287464229
 20
-0.1428912875407971
 30
0.0
 10
50.50035829656798
 20
0.4302357073075534
 30
0.0
 10
50.00505159159002
 20
0.7163137485400726
 30
0.0
 10
49.01523643875262
 20
1.286005176261437
 30
0.0
 10
48.51797824280207
 20
1.570144091179322
 30
0.0
 10
47.02688748895687
 20
2.415993858892534
 30
0.0
 10
46.03868932974032
 20
2.970212249437421
 30
0.0
 10
44.0504868762673
 20
4.048311396531779
 30
0.0
 10
43.06227396202546
 20
4.570054957525978
 30
0.0
 10
41.57120385563667
 20
5.318953621224789
 30
0.0
 10
41.07391655837776
 20
5.562753569472147
 30
0.0
 10
40.08397223840763
 20
6.036207867214033
 30
0.0
 10
39.58880018676449
 20
6.266275668384895
 30
0.0
 10
38.59490313423788
 20
6.711929230807886
 30
0.0
 10
38.0974418442237
 20
6.927310669820179
 30
0.0
 10
37.10665786687655
 20
7.340994924727951
 30
0.0
 10
36.61227383024929
 20
7.539467914248431
 30
0.0
 10
35.61862161093062
 20
7.919170649376081
 30
0.0
 10
35.12103406536527
 20
8.100161167077184
 30
0.0
 10
34.12950458708022
 20
8.442579500217736
 30
0.0
 10
33.63565788118736
 20
8.604027757706746
 30
0.0
 10
32.64234556508701
 20
8.907273976828876
 30
0.0
 10
32.14467954165502
 20
9.048855085668652
 30
0.0
 10
31.15249895601193
 20
9.310485637948995
 30
0.0
 10
30.65893872565198
 20
9.430489126823526
 30
0.0
 10
30.16250000000004
 20
9.539693584540005
 30
0.0
  0
LINE
  5
A8
330
1F
100
AcDbEntity
  8
0
  6
Continuous
 62
     1
370
    15
100
AcDbLine
 10
77.7875
 20
-10.31874999999999
 30
0.0
 11
77.78749999999998
 21
-9.345499422632733
 31
0.0
  0
LINE
  5
A9
330
1F
100
AcDbEntity
  8
외형선
  6
Continuous
370
    15
100
AcDbLine
 10
30.16250000000001
 20
9.539693584540021
 30
0.0
 11
30.16249999999999
 21
10.31088487245903
 31
0.0
  0
SPLINE
  5
AA
330
1F
100
AcDbEntity
  8
0
  6
Continuous
 62
     1
370
    15
100
AcDbSpline
210
0.0
220
0.0
230
1.0
 70
     8
 71
     3
 72
    14
 73
    10
 74
     0
 42
0.000000001
 43
0.00000001
 40
0.0
 40
0.0
 40
0.0
 40
0.0
 40
0.0061373433954218
 40
0.1718138312196289
 40
0.3374766027604421
 40
0.5031160178393893
 40
0.6687247863831663
 40
0.8343482101359954
 40
0.9999999999999999
 40
0.9999999999999999
 40
0.9999999999999999
 40
0.9999999999999999
 10
51.24599552479857
 20
-10.31207025168422
 30
0.0
 10
51.20286352308425
 20
-10.31428264847201
 30
0.0
 10
49.99539084553463
 20
-10.3762183010496
 30
0.0
 10
47.62348310744123
 20
-10.1450058024321
 30
0.0
 10
44.13074865716329
 20
-9.579703264210849
 30
0.0
 10
40.63853238939413
 20
-8.607297906050198
 30
0.0
 10
37.14680248661575
 20
-7.315877427752601
 30
0.0
 10
33.65487868047882
 20
-5.753715507105496
 30
0.0
 10
31.32669267870703
 20
-4.540139721362061
 30
0.0
 10
30.16250000000002
 20
-3.933299871047946
 30
0.0
  0
LINE
  5
AB
330
1F
100
AcDbEntity
  8
외형선
  6
Continuous
370
    15
100
AcDbLine
 10
30.16250000000001
 20
-3.933299871047939
 30
0.0
 11
30.16249999999999
 21
-0.4028085269647493
 31
0.0
  0
SPLINE
  5
AC
330
1F
100
AcDbEntity
  8
0
  6
Continuous
 62
     1
370
    15
100
AcDbSpline
210
0.0
220
0.0
230
1.0
 70
     8
 71
     3
 72
    13
 73
     9
 74
     0
 42
0.000000001
 43
0.00000001
 40
0.0
 40
0.0
 40
0.0
 40
0.0
 40
0.1376505827720433
 40
0.3101441851231044
 40
0.482635984241247
 40
0.655115909231483
 40
0.8275739143125684
 40
1.0
 40
1.0
 40
1.0
 40
1.0
 10
57.53642652380391
 20
10.28704495229336
 30
0.0
 10
58.46562944307964
 20
10.27560229757848
 30
0.0
 10
60.55924122741936
 20
10.24982054823371
 30
0.0
 10
63.8172996932941
 20
9.74276062398383
 30
0.0
 10
67.31046189371894
 20
8.873295326727765
 30
0.0
 10
70.80333434606148
 20
7.651016506149093
 30
0.0
 10
74.29568612535563
 20
6.152709944468411
 30
0.0
 10
76.62363385980768
 20
4.967351853140723
 30
0.0
 10
77.78749999999998
 20
4.374727660560207
 30
0.0
  0
LINE
  5
AD
330
1F
100
AcDbEntity
  8
0
  6
Continuous
 62
     1
370
    15
100
AcDbLine
 10
77.78749999999998
 20
0.8841244226328462
 30
0.0
 11
77.78749999999998
 21
4.374727660560207
 31
0.0
  0
SPLINE
  5
AE
330
1F
100
AcDbEntity
  8
0
  6
Continuous
 62
     1
370
    15
100
AcDbSpline
210
0.0
220
0.0
230
1.0
 70
     8
 71
     3
 72
    11
 73
     7
 74
     0
 42
0.000000001
 43
0.00000001
 40
0.0
 40
0.0
 40
0.0
 40
0.0
 40
0.3269127826521974
 40
0.6538089868157564
 40
0.9806848466242403
 40
1.0
 40
1.0
 40
1.0
 40
1.0
 10
30.16249999999999
 20
-10.31088487245904
 30
0.0
 10
31.27379722074255
 20
-10.25286996934412
 30
0.0
 10
33.49633530582516
 20
-10.13684310518158
 30
0.0
 10
36.82999904052586
 20
-9.485718490880144
 30
0.0
 10
39.11802662893633
 20
-8.911718563738832
 30
0.0
 10
40.29481082793774
 20
-8.476211643387641
 30
0.0
 10
40.36046755046448
 20
-8.451913257114077
 30
0.0
  0
SPLINE
  5
AF
330
1F
100
AcDbEntity
  8
외형선
  6
Continuous
370
    15
100
AcDbSpline
210
0.0
220
0.0
230
1.0
 70
    24
 71
     3
 72
    14
 73
    10
 74
     0
 42
0.000000001
 43
0.00000001
 40
0.0
 40
0.0
 40
0.0
 40
0.0
 40
0.0860731303625206
 40
0.2348155710350429
 40
0.3878715525635948
 40
0.5366139932361487
 40
0.689669974764765
 40
0.8424891676038042
 40
1.0
 40
1.0
 40
1.0
 40
1.0
 10
30.16250000000002
 20
-4.041635074505568
 30
0.0
 10
30.16250000000002
 20
-4.170005979906003
 30
0.0
 10
30.16250000000005
 20
-4.520213847668349
 30
0.0
 10
30.16249999999995
 20
-5.238005958765638
 30
0.0
 10
30.16249999999998
 20
-6.146449570635197
 30
0.0
 10
30.16250000000004
 20
-7.142130019128293
 30
0.0
 10
30.16250000000001
 20
-8.179143747608327
 30
0.0
 10
30.16250000000014
 20
-9.254919552094218
 30
0.0
 10
30.16250000000002
 20
-9.955366593371044
 30
0.0
 10
30.16249999999999
 20
-10.31088487245904
 30
0.0
  0
SPLINE
  5
B0
330
1F
100
AcDbEntity
  8
0
  6
Continuous
 62
     1
370
    15
100
AcDbSpline
210
0.0
220
0.0
230
1.0
 70
     8
 71
     3
 72
    10
 73
     6
 74
     0
 42
0.000000001
 43
0.00000001
 40
0.0
 40
0.0
 40
0.0
 40
0.0
 40
0.3555618893155493
 40
0.7111495704130997
 40
1.0
 40
1.0
 40
1.0
 40
1.0
 10
77.78750000000002
 20
10.31875000000001
 30
0.0
 10
76.6764466727196
 20
10.18964532772543
 30
0.0
 10
74.45425942446731
 20
10.00732188805289
 30
0.0
 10
71.32942158901835
 20
9.363970571601417
 30
0.0
 10
69.31562917158806
 20
8.720920790298953
 30
0.0
 10
68.41300594799293
 20
8.432692638525463
 30
0.0
  0
LINE
  5
B1
330
1F
100
AcDbEntity
  8
0
  6
Continuous
 62
     1
370
    15
100
AcDbLine
 10
77.78749999999998
 20
4.374727660560207
 30
0.0
 11
77.7875
 21
10.31875000000001
 31
0.0
  0
LINE
  5
B2
330
1F
100
AcDbEntity
  8
외형선
  6
Continuous
370
    15
100
AcDbLine
 10
29.16249999999999
 20
-0.0000000000000062
 30
0.0
 11
29.16249999999999
 21
10.31874999999999
 31
0.0
  0
LINE
  5
B3
330
1F
100
AcDbEntity
  8
외형선
  6
Continuous
370
    15
100
AcDbLine
 10
29.16249999999999
 20
-10.31875
 30
0.0
 11
29.16249999999999
 21
-0.0000000000000062
 31
0.0
  0
LINE
  5
B4
330
1F
100
AcDbEntity
  8
외형선
  6
Continuous
370
    15
100
AcDbLine
 10
26.20018467149215
 20
-0.0000000000000062
 30
0.0
 11
26.20018467149215
 21
11.11250000000001
 31
0.0
  0
LINE
  5
B5
330
1F
100
AcDbEntity
  8
외형선
  6
Continuous
370
    15
100
AcDbLine
 10
26.20018467149215
 20
-11.11250000000002
 30
0.0
 11
26.20018467149215
 21
-0.0000000000000062
 31
0.0
  0
LINE
  5
BA
330
1F
100
AcDbEntity
  8
외형선
  6
Continuous
370
    15
100
AcDbLine
 10
29.6625564726794
 20
10.3181144874141
 30
0.0
 11
29.6625564726794
 21
10.31874999999999
 31
0.0
  0
SPLINE
  5
BB
330
1F
100
AcDbEntity
  8
외형선
  6
Continuous
370
    15
100
AcDbSpline
210
0.0
220
0.0
230
1.0
 70
     8
 71
     3
 72
     8
 73
     4
 74
     0
 42
0.000000001
 43
0.00000001
 40
0.0
 40
0.0
 40
0.0
 40
0.0
 40
1.0
 40
1.0
 40
1.0
 40
1.0
 10
30.16249999999999
 20
10.31088487245903
 30
0.0
 10
29.99596117575761
 20
10.31463660444808
 30
0.0
 10
29.82928082100449
 20
10.31704744295479
 30
0.0
 10
29.66255647267941
 20
10.31811448170252
 30
0.0
  0
SPLINE
  5
BC
330
1F
100
AcDbEntity
  8
외형선
  6
Continuous
370
    15
100
AcDbSpline
210
0.0
220
0.0
230
1.0
 70
     8
 71
     3
 72
     8
 73
     4
 74
     0
 42
0.000000001
 43
0.00000001
 40
0.0
 40
0.0
 40
0.0
 40
0.0
 40
1.0
 40
1.0
 40
1.0
 40
1.0
 10
30.16250000000002
 20
9.539693584540009
 30
0.0
 10
29.99596117575766
 20
9.57632807949454
 30
0.0
 10
29.8292808210045
 20
9.611731364269286
 30
0.0
 10
29.66255647267941
 20
9.645881317227685
 30
0.0
  0
LINE
  5
BD
330
1F
100
AcDbEntity
  8
외형선
  6
Continuous
370
    15
100
AcDbLine
 10
29.6625564726794
 20
-0.1145206842243218
 30
0.0
 11
29.66255647267941
 21
9.64588391713685
 31
0.0
  0
SPLINE
  5
BE
330
1F
100
AcDbEntity
  8
외형선
  6
Continuous
370
    15
100
AcDbSpline
210
0.0
220
0.0
230
1.0
 70
     8
 71
     3
 72
     8
 73
     4
 74
     0
 42
0.000000001
 43
0.00000001
 40
0.0
 40
0.0
 40
0.0
 40
0.0
 40
1.0
 40
1.0
 40
1.0
 40
1.0
 10
30.16249999999999
 20
-0.4028085269647457
 30
0.0
 10
29.99596117575761
 20
-0.306773626951853
 30
0.0
 10
29.82928082100449
 20
-0.2106591022747345
 30
0.0
 10
29.66255647267941
 20
-0.1145211988264901
 30
0.0
  0
SPLINE
  5
BF
330
1F
100
AcDbEntity
  8
외형선
  6
Continuous
370
    15
100
AcDbSpline
210
0.0
220
0.0
230
1.0
 70
     8
 71
     3
 72
     8
 73
     4
 74
     0
 42
0.000000001
 43
0.00000001
 40
0.0
 40
0.0
 40
0.0
 40
0.0
 40
1.0
 40
1.0
 40
1.0
 40
1.0
 10
30.16250000000002
 20
-3.933299871047958
 30
0.0
 10
29.99596117575766
 20
-3.844447795704544
 30
0.0
 10
29.8292808210045
 20
-3.755058638513233
 30
0.0
 10
29.66255647267941
 20
-3.66518419406959
 30
0.0
  0
LINE
  5
C0
330
1F
100
AcDbEntity
  8
외형선
  6
Continuous
370
    15
100
AcDbLine
 10
29.6625564726794
 20
-10.31875
 30
0.0
 11
29.66255647267941
 21
-3.665177351728063
 31
0.0
  0
SPLINE
  5
C1
330
1F
100
AcDbEntity
  8
외형선
  6
Continuous
370
    15
100
AcDbSpline
210
0.0
220
0.0
230
1.0
 70
     8
 71
     3
 72
     8
 73
     4
 74
     0
 42
0.000000001
 43
0.00000001
 40
0.0
 40
0.0
 40
0.0
 40
0.0
 40
1.0
 40
1.0
 40
1.0
 40
1.0
 10
30.16249999999999
 20
-10.31088487245904
 30
0.0
 10
29.99596117575761
 20
-10.31463660444809
 30
0.0
 10
29.82928082100449
 20
-10.3170474429548
 30
0.0
 10
29.66255647267941
 20
-10.31811448170253
 30
0.0
  0
SPLINE
  5
C2
330
1F
100
AcDbEntity
  8
외형선
  6
Continuous
370
    15
100
AcDbSpline
210
0.0
220
0.0
230
1.0
 70
    24
 71
     3
 72
    21
 73
    17
 74
     0
 42
0.000000001
 43
0.00000001
 40
0.0
 40
0.0
 40
0.0
 40
0.0
 40
0.0205306005071447
 40
0.0951196923007205
 40
0.1718718728093339
 40
0.2464609646029229
 40
0.3232131451115504
 40
0.3978022369051326
 40
0.4745544174137528
 40
0.5491435092073349
 40
0.6258956897159548
 40
0.7004847815095313
 40
0.7772369620181455
 40
0.8518260538117344
 40
0.9285782343203619
 40
0.9999999999999999
 40
0.9999999999999999
 40
0.9999999999999999
 40
0.9999999999999999
 10
30.16250000000001
 20
-0.5970625504436335
 30
0.0
 10
30.16250000000001
 20
-0.5991221132973004
 30
0.0
 10
30.16250000000004
 20
-0.608664210463266
 30
0.0
 10
30.16249999999994
 20
-0.4453335771138577
 30
0.0
 10
30.16250000000001
 20
-0.1138720613197761
 30
0.0
 10
30.16249999999999
 20
0.3973279400420102
 30
0.0
 10
30.16250000000005
 20
1.046292916303444
 30
0.0
 10
30.16250000000004
 20
1.83124691766563
 30
0.0
 10
30.16250000000007
 20
2.714533914483557
 30
0.0
 10
30.16249999999989
 20
3.687389027996413
 30
0.0
 10
30.16250000000011
 20
4.704723227237174
 30
0.0
 10
30.16249999999999
 20
5.755883820896488
 30
0.0
 10
30.16250000000002
 20
6.792909641500051
 30
0.0
 10
30.16250000000005
 20
7.802430453533657
 30
0.0
 10
30.16250000000001
 20
8.734446953554922
 30
0.0
 10
30.16250000000001
 20
9.277793496859223
 30
0.0
 10
30.16250000000002
 20
9.539693584540053
 30
0.0
  0
SPLINE
  5
C3
330
1F
100
AcDbEntity
  8
외형선
  6
Continuous
370
    15
100
AcDbSpline
210
0.0
220
0.0
230
1.0
 70
    24
 71
     3
 72
    14
 73
    10
 74
     0
 42
0.000000001
 43
0.00000001
 40
0.0
 40
0.0
 40
0.0
 40
0.0
 40
0.1536476117288066
 40
0.3120643493044106
 40
0.4608377473071041
 40
0.6139255839305018
 40
0.7626989819332214
 40
0.915786818556647
 40
1.0
 40
1.0
 40
1.0
 40
1.0
 10
30.16250000000001
 20
-10.31088487245904
 30
0.0
 10
30.16250000000001
 20
-9.964298942197862
 30
0.0
 10
30.16249999999998
 20
-9.26036927099724
 30
0.0
 10
30.16250000000005
 20
-8.190178798882389
 30
0.0
 10
30.16250000000001
 20
-7.140756801059033
 30
0.0
 10
30.16249999999999
 20
-6.153941269707765
 30
0.0
 10
30.16250000000001
 20
-5.236654707465254
 30
0.0
 10
30.16250000000001
 20
-4.521831964136432
 30
0.0
 10
30.16250000000004
 20
-4.167404122486801
 30
0.0
 10
30.16250000000005
 20
-4.04162507450557
 30
0.0
  0
LINE
  5
C4
330
1F
100
AcDbEntity
  8
중심선
100
AcDbLine
 10
-80.7875
 20
-0.0000000000000101
 30
0.0
 11
80.78749999999998
 21
0.0000000000000101
 31
0.0
  0
LINE
  5
C5
330
1F
100
AcDbEntity
  8
참조1
100
AcDbLine
 10
38.2933806570156
 20
0.0010749287238892
 30
0.0
 11
38.2933806570156
 21
-39.99892507127611
 31
0.0
  0
LINE
  5
C6
330
1F
100
AcDbEntity
  8
참조1
100
AcDbLine
 10
38.2933806570156
 20
-39.99892507127611
 30
0.0
 11
-29.25297615729306
 21
-39.9989250712761
 31
0.0
  0
CIRCLE
  5
C7
330
1F
100
AcDbEntity
  8
해칭선
100
AcDbCircle
 10
0.0
 20
0.0
 30
0.0
 40
3.000000000000011
  0
INSERT
  5
C8
330
1F
100
AcDbEntity
  8
0
  6
Continuous
 62
     7
100
AcDbBlockReference
 66
     1
  2
블럭10
 10
-13.94027293212521
 20
-52.04717430164394
 30
0.0
  0
ATTRIB
  5
C9
330
C8
100
AcDbEntity
  8
FORMAT
 62
     2
100
AcDbText
 10
-23.12156822086649
 20
-49.97180738881175
 30
0.0
 40
4.233333333333333
  1
E2051052 [ 4 FLUTE ]
 41
0.75
  7
SLDTEXTSTYLE0
 11
-23.12156822086649
 21
-52.08847405547842
 31
0.0
100
AcDbAttribute
  2
AUTOATTR0
 70
     0
 74
     1
  0
SEQEND
  5
CA
330
C8
100
AcDbEntity
  8
0
  6
Continuous
 62
     7
  0
HATCH
  5
CB
330
1F
100
AcDbEntity
  8
중심선
100
AcDbHatch
 10
0.0
 20
0.0
 30
0.0
210
0.0
220
0.0
230
1.0
  2
SOLID
 70
     1
 71
     0
 91
        1
 92
        0
 93
        4
 72
     1
 10
-8.225363627744404
 20
-35.8
 11
-11.67163887158166
 21
-35.8
 72
     1
 10
-11.67163887158166
 20
-35.8
 11
-13.79986873078568
 21
-38.33632558057263
 72
     1
 10
-13.79986873078568
 20
-38.33632558057263
 11
-10.35356040183533
 21
-38.33628615127014
 72
     1
 10
-10.35356040183533
 20
-38.33628615127014
 11
-8.225363627744404
 21
-35.8
 97
        0
 75
     0
 76
     1
 98
        1
 10
-38.2933806570156
 20
-0.0010749287238993
  0
HATCH
  5
CC
330
1F
100
AcDbEntity
  8
중심선
100
AcDbHatch
 10
0.0
 20
0.0
 30
0.0
210
0.0
220
0.0
230
1.0
  2
SOLID
 70
     1
 71
     0
 91
        1
 92
        0
 93
        4
 72
     1
 10
-3.212599636708397
 20
-35.79999999999998
 11
-6.658874880545682
 21
-35.79999999999998
 72
     1
 10
-6.658874880545682
 20
-35.79999999999998
 11
-11.1900128889031
 21
-41.20000000000002
 72
     1
 10
-11.1900128889031
 20
-41.20000000000002
 11
-7.743737645065814
 21
-41.20000000000002
 72
     1
 10
-7.743737645065814
 20
-41.20000000000002
 11
-3.212599636708397
 21
-35.79999999999998
 97
        0
 75
     0
 76
     1
 98
        1
 10
-38.2933806570156
 20
-0.0010749287238993
  0
HATCH
  5
CD
330
1F
100
AcDbEntity
  8
중심선
100
AcDbHatch
 10
0.0
 20
0.0
 30
0.0
210
0.0
220
0.0
230
1.0
  2
SOLID
 70
     1
 71
     0
 91
        1
 92
        0
 93
        4
 72
     1
 10
1.800164354327499
 20
-35.8
 11
-1.646110889509615
 21
-35.79999999999998
 72
     1
 10
-1.646110889509615
 20
-35.79999999999998
 11
-8.694547791398897
 21
-44.20000000000002
 72
     1
 10
-8.694547791398897
 20
-44.20000000000002
 11
-5.248272547561612
 21
-44.20000000000002
 72
     1
 10
-5.248272547561612
 20
-44.20000000000002
 11
1.800164354327499
 21
-35.8
 97
        0
 75
     0
 76
     1
 98
        1
 10
-38.2933806570156
 20
-0.0010749287238993
  0
HATCH
  5
CE
330
1F
100
AcDbEntity
  8
중심선
100
AcDbHatch
 10
0.0
 20
0.0
 30
0.0
210
0.0
220
0.0
230
1.0
  2
SOLID
 70
     1
 71
     0
 91
        1
 92
        0
 93
        6
 72
     3
 10
6.600054785339644
 20
-40.00000000005128
 11
3.960054785062283
 21
1.540882976769353E-10
 40
0.3939339440162628
 50
17.09539180608432
 51
320.0019657685087
 73
     0
 72
     1
 10
8.28305444104032
 20
-38.58789400463828
 11
10.5883563147413
 21
-36.65356729459039
 72
     3
 10
6.600054785286794
 20
-40.00000000000016
 11
6.600054785286829
 21
-1.278976924368180E-13
 40
0.636358354079598
 50
39.99873849337385
 51
368.4976242363724
 73
     1
 72
     1
 10
13.02538727718743
 20
-39.03999999993003
 11
5.280122092122802
 21
-39.03999999993003
 72
     1
 10
5.280122092122802
 20
-39.03999999993003
 11
5.280097047676783
 21
-40.95999999992992
 72
     1
 10
5.280097047676783
 20
-40.95999999992992
 11
9.721476817148847
 21
-40.95999999992989
 97
        0
 75
     0
 76
     1
 98
        1
 10
-38.2933806570156
 20
-0.0010749287238993
  0
DIMENSION
  5
CF
330
1F
100
AcDbEntity
  8
치수문자_일반주서
100
AcDbDimension
  2
_D
 10
96.90925398005936
 20
-10.31874999999992
 30
0.0
 11
96.90925398005922
 21
32.89150000000013
 31
0.0
 70
   160
  1
%%c<>
 71
     2
 42
20.6375
 52
-270.0
  3
SLDDIMSTYLE1
100
AcDbAlignedDimension
 13
77.7875
 23
10.31875000000001
 33
0.0
 14
77.7875
 24
-10.31874999999999
 34
0.0
 50
90.0000000000002
100
AcDbRotatedDimension
1001
ACAD
1000
DSTYLE
1002
{
1070
   171
1070
     6
1070
   273
1070
     7
1002
}
  0
DIMENSION
  5
E3
330
1F
100
AcDbEntity
  8
치수문자_일반주서
100
AcDbDimension
  2
_D_1
 10
30.16249999999999
 20
23.34681675324956
 30
0.0
 11
50.66256972887494
 21
23.34681675324956
 31
0.0
 70
   160
  1
<>
 71
     2
 42
47.625
  3
SLDDIMSTYLE1
100
AcDbAlignedDimension
 13
77.7875
 23
10.31875000000001
 33
0.0
 14
30.16249999999999
 24
10.31088487245903
 34
0.0
100
AcDbRotatedDimension
1001
ACAD
1000
DSTYLE
1002
{
1070
   171
1070
     6
1070
   273
1070
     7
1002
}
  0
DIMENSION
  5
F7
330
1F
100
AcDbEntity
  8
치수문자_일반주서
100
AcDbDimension
  2
_D_2
 10
-77.78750000000005
 20
48.44064959311525
 30
0.0
 11
-2.718443245192134
 21
48.44064959311525
 31
0.0
 70
   160
  1
<>
 71
     2
 42
155.575
  3
SLDDIMSTYLE1
100
AcDbAlignedDimension
 13
77.7875
 23
10.31875000000001
 33
0.0
 14
-77.78750000000005
 24
10.31874999999998
 34
0.0
 50
0.0000000000000026
100
AcDbRotatedDimension
1001
ACAD
1000
DSTYLE
1002
{
1070
   171
1070
     6
1070
   273
1070
     7
1002
}
  0
DIMENSION
  5
10A
330
1F
100
AcDbEntity
  8
치수문자_일반주서
100
AcDbDimension
  2
_D_3
 10
-89.04124999999998
 20
-11.11250000000026
 30
0.0
 11
-89.04125000000002
 21
-0.0000000000000105
 31
0.0
 70
   160
  1
%%c<>
 71
     2
 42
22.22500000000004
 52
-270.0
  3
SLDDIMSTYLE1
100
AcDbAlignedDimension
 13
-26.20018467149217
 23
11.11250000000001
 33
0.0
 14
-26.20018467149217
 24
-11.11250000000003
 34
0.0
 50
90.0000000000002
100
AcDbRotatedDimension
1001
ACAD
1000
DSTYLE
1002
{
1070
   171
1070
     6
1070
   273
1070
     7
1002
}
  0
LINE
  5
11F
330
1F
100
AcDbEntity
  8
참조1
100
AcDbLine
 10
68.7193644723612
 20
7.441074928723896
 30
0.0
 11
68.7193644723612
 21
-7.438925071276109
 31
0.0
  0
LINE
  5
120
330
1F
100
AcDbEntity
  8
참조1
100
AcDbLine
 10
81.41936447236121
 20
5.441074928723896
 30
0.0
 11
68.7193644723612
 21
5.441074928723896
 31
0.0
  0
SOLID
  5
121
330
1F
100
AcDbEntity
  8
참조1
100
AcDbTrace
 10
68.7193644723612
 20
5.441074928723896
 30
0.0
 11
75.0693644723612
 21
4.425074928723896
 31
0.0
 12
75.0693644723612
 22
6.457074928723896
 32
0.0
 13
75.0693644723612
 23
6.457074928723896
 33
0.0
  0
LINE
  5
122
330
1F
100
AcDbEntity
  8
참조1
100
AcDbLine
 10
81.41936447236121
 20
-5.438925071276109
 30
0.0
 11
68.7193644723612
 21
-5.438925071276109
 31
0.0
  0
SOLID
  5
123
330
1F
100
AcDbEntity
  8
참조1
100
AcDbTrace
 10
68.7193644723612
 20
-5.438925071276109
 30
0.0
 11
75.0693644723612
 21
-6.454925071276109
 31
0.0
 12
75.0693644723612
 22
-4.422925071276109
 32
0.0
 13
75.0693644723612
 23
-4.422925071276109
 33
0.0
  0
MTEXT
  5
124
330
1F
100
AcDbEntity
  8
참조1
100
AcDbMText
 10
78.1037146049872
 20
11.01136670591223
 30
0.0
 40
3.5
 41
0.0
 71
     1
 72
     1
  1
A
  7
SLDTEXTSTYLE0
 73
     1
 44
1.0
  0
MTEXT
  5
125
330
1F
100
AcDbEntity
  8
참조1
100
AcDbMText
 10
78.1037146049872
 20
0.1313667059122219
 30
0.0
 40
3.5
 41
0.0
 71
     1
 72
     1
  1
A
  7
SLDTEXTSTYLE0
 73
     1
 44
1.0
  0
INSERT
  5
12C
330
1F
100
AcDbEntity
  8
해칭선
100
AcDbBlockReference
  2
SW_DOWELSYMBOL_0
 10
0.0
 20
0.0
 30
0.0
  0
LINE
  5
303
330
1F
100
AcDbEntity
  8
0
  6
Continuous
 62
     1
370
    15
100
AcDbLine
 10
-34.80913698370429
 20
3.041985875935548
 30
0.0
 11
-34.9087266255701
 21
3.095569526300504
 31
0.0
  0
LINE
  5
304
330
1F
100
AcDbEntity
  8
0
  6
Continuous
 62
     1
370
    15
100
AcDbLine
 10
-51.24599552479864
 20
10.31874999999999
 30
0.0
 11
-57.53642652380401
 21
10.31874999999999
 31
0.0
  0
LINE
  5
305
330
1F
100
AcDbEntity
  8
0
  6
Continuous
 62
     1
370
    15
100
AcDbLine
 10
-57.5364265238039
 20
-10.31875000000001
 30
0.0
 11
-51.24599552479876
 21
-10.31875000000001
 31
0.0
  0
LINE
  5
306
330
1F
100
AcDbEntity
  8
외형선
  6
Continuous
370
    15
100
AcDbLine
 10
-26.20018467149217
 20
11.11250000000001
 30
0.0
 11
-29.16249999999999
 21
10.31874999999999
 31
0.0
  0
LINE
  5
307
330
1F
100
AcDbEntity
  8
외형선
  6
Continuous
370
    15
100
AcDbLine
 10
-29.16249999999999
 20
-10.31875000000001
 30
0.0
 11
-26.20018467149217
 21
-11.11250000000003
 31
0.0
  0
LINE
  5
30A
330
1F
100
AcDbEntity
  8
외형선
  6
Continuous
370
    15
100
AcDbLine
 10
-29.16249999999999
 20
10.31874999999999
 30
0.0
 11
-29.66255647267943
 21
10.31874999999999
 31
0.0
  0
LINE
  5
30B
330
1F
100
AcDbEntity
  8
외형선
  6
Continuous
370
    15
100
AcDbLine
 10
-29.66255647267943
 20
-10.31875000000001
 30
0.0
 11
-29.16249999999999
 21
-10.31875000000001
 31
0.0
  0
SPLINE
  5
30D
330
1F
100
AcDbEntity
  8
0
  6
Continuous
 62
     1
370
    15
100
AcDbSpline
210
0.0
220
0.0
230
1.0
 70
     8
 71
     3
 72
    62
 73
    58
 74
     0
 42
0.000000001
 43
0.00000001
 40
0.0
 40
0.0
 40
0.0
 40
0.0
 40
0.0625000000000017
 40
0.0625000000000017
 40
0.1250000000000033
 40
0.1250000000000033
 40
0.1562500000000035
 40
0.1562500000000035
 40
0.1875000000000037
 40
0.1875000000000037
 40
0.2187500000000039
 40
0.2187500000000039
 40
0.250000000000004
 40
0.250000000000004
 40
0.2812500000000042
 40
0.2812500000000042
 40
0.3125000000000043
 40
0.3125000000000043
 40
0.3437500000000045
 40
0.3437500000000045
 40
0.3750000000000047
 40
0.3750000000000047
 40
0.4062500000000048
 40
0.4062500000000048
 40
0.437500000000005
 40
0.437500000000005
 40
0.4687500000000052
 40
0.4687500000000052
 40
0.5000000000000053
 40
0.5000000000000053
 40
0.5312500000000054
 40
0.5312500000000054
 40
0.5625000000000057
 40
0.5625000000000057
 40
0.5937500000000058
 40
0.5937500000000058
 40
0.625000000000006
 40
0.625000000000006
 40
0.687500000000005
 40
0.687500000000005
 40
0.750000000000004
 40
0.750000000000004
 40
0.7812500000000034
 40
0.7812500000000034
 40
0.812500000000003
 40
0.812500000000003
 40
0.8437500000000024
 40
0.8437500000000024
 40
0.875000000000002
 40
0.875000000000002
 40
0.9062500000000014
 40
0.9062500000000014
 40
0.937500000000001
 40
0.937500000000001
 40
0.9687500000000004
 40
0.9687500000000004
 40
1.0
 40
1.0
 40
1.0
 40
1.0
 10
-77.7875
 20
9.345499422632724
 30
0.0
 10
-76.79906561140146
 20
9.102941446066847
 30
0.0
 10
-75.79982039586125
 20
8.816114242715539
 30
0.0
 10
-73.82097732400663
 20
8.165685835449974
 30
0.0
 10
-72.82374794076483
 20
7.800225600616055
 30
0.0
 10
-71.33827550130403
 20
7.20186396077366
 30
0.0
 10
-70.84347116041906
 20
6.993918270000715
 30
0.0
 10
-69.8496671852217
 20
6.561741934685553
 30
0.0
 10
-69.35214604890402
 20
6.33770925143224
 30
0.0
 10
-68.36103167290841
 20
5.876122585201368
 30
0.0
 10
-67.86690815209133
 20
5.638507096416627
 30
0.0
 10
-66.87338968413027
 20
5.149946947320724
 30
0.0
 10
-66.37576272334533
 20
4.899274646673386
 30
0.0
 10
-65.38394319250514
 20
4.387770151632576
 30
0.0
 10
-64.89024972461218
 20
4.127042135137411
 30
0.0
 10
-63.89711179122409
 20
3.595644171132402
 30
0.0
 10
-63.39942679629675
 20
3.325273520630457
 30
0.0
 10
-62.40699659651543
 20
2.778004304748517
 30
0.0
 10
-61.91348227759349
 20
2.501345048972194
 30
0.0
 10
-60.92081978474457
 20
1.941841359782909
 30
0.0
 10
-60.42312456461261
 20
1.659261025693279
 30
0.0
 10
-59.43017837627676
 20
1.091378867178871
 30
0.0
 10
-58.93659224537365
 20
0.8064007665715665
 30
0.0
 10
-57.94449994746898
 20
0.2342993589916589
 30
0.0
 10
-57.44684231435016
 20
-0.0526629230709019
 30
0.0
 10
-56.45347498229066
 20
-0.6254289221489457
 30
0.0
 10
-55.95956610130261
 20
-0.9108866331422021
 30
0.0
 10
-54.96813857109711
 20
-1.479733529269315
 30
0.0
 10
-54.47056632515338
 20
-1.763128738767055
 30
0.0
 10
-53.47687282849594
 20
-2.324909721323597
 30
0.0
 10
-52.98239036200104
 20
-2.602991261278536
 30
0.0
 10
-51.99172196063253
 20
-3.152828343459749
 30
0.0
 10
-51.49428287464232
 20
-3.424807331202647
 30
0.0
 10
-50.5003582965679
 20
-3.960036255515921
 30
0.0
 10
-50.00505159158993
 20
-4.223080133797329
 30
0.0
 10
-49.01523643875268
 20
-4.738687308773526
 30
0.0
 10
-48.51797824280217
 20
-4.991719147720223
 30
0.0
 10
-47.02688748895687
 20
-5.73248646176602
 30
0.0
 10
-46.03868932974032
 20
-6.201117568817385
 30
0.0
 10
-44.05048687626729
 20
-7.078670943261518
 30
0.0
 10
-43.06227396202544
 20
-7.485853403236168
 30
0.0
 10
-41.57120385563664
 20
-8.04318295256832
 30
0.0
 10
-41.07391655837782
 20
-8.219883577615537
 30
0.0
 10
-40.08397223840765
 20
-8.553375730895102
 30
0.0
 10
-39.58880018676447
 20
-8.710467737299712
 30
0.0
 10
-38.5949031342378
 20
-9.004508538594923
 30
0.0
 10
-38.09744184422365
 20
-9.141312666442904
 30
0.0
 10
-37.10665786687665
 20
-9.393132961482923
 30
0.0
 10
-36.61227383024928
 20
-9.508268089515642
 30
0.0
 10
-35.6186216109306
 20
-9.716661123707656
 30
0.0
 10
-35.12103406536525
 20
-9.809770955028743
 30
0.0
 10
-34.12950458708028
 20
-9.972897984903089
 30
0.0
 10
-33.63565788118743
 20
-10.04294743851938
 30
0.0
 10
-32.64234556508703
 20
-10.15993631514467
 30
0.0
 10
-32.14467954165505
 20
-10.20676662527172
 30
0.0
 10
-31.15249895601195
 20
-10.27663912174338
 30
0.0
 10
-30.65893872565201
 20
-10.29970126373535
 30
0.0
 10
-30.16250000000005
 20
-10.31088487245905
 30
0.0
  0
SPLINE
  5
30E
330
1F
100
AcDbEntity
  8
0
  6
Continuous
 62
     1
370
    15
100
AcDbSpline
210
0.0
220
0.0
230
1.0
 70
     8
 71
     3
 72
    19
 73
    15
 74
     0
 42
0.000000001
 43
0.00000001
 40
0.0
 40
0.0
 40
0.0
 40
0.0
 40
0.0890619252888725
 40
0.1781303109601162
 40
0.2672041342984174
 40
0.3562823688163684
 40
0.4453639849626154
 40
0.5344479508345814
 40
0.6235332328947255
 40
0.7126187966892558
 40
0.805947091049632
 40
0.8992676588016588
 40
0.9925750694740246
 40
1.0
 40
1.0
 40
1.0
 40
1.0
 10
-77.7875
 20
-0.8841244226328697
 30
0.0
 10
-76.67644686819753
 20
-1.520351318585871
 30
0.0
 10
-74.45426001091514
 20
-2.792851261178687
 30
0.0
 10
-71.12080831794711
 20
-4.596450080647291
 30
0.0
 10
-67.78711640264092
 20
-6.24284506248343
 30
0.0
 10
-64.45322572744007
 20
-7.672082690549037
 30
0.0
 10
-61.11918210419921
 20
-8.835362632547035
 30
0.0
 10
-57.78503811922357
 20
-9.69190560675364
 30
0.0
 10
-54.45081556563483
 20
-10.2127883028729
 30
0.0
 10
-51.06371328323709
 20
-10.37971630784481
 30
0.0
 10
-47.62349268118143
 20
-10.177670009936
 30
0.0
 10
-44.13075204791519
 20
-9.551738877562872
 30
0.0
 10
-41.7097588706317
 20
-8.951898253382584
 30
0.0
 10
-40.45309557400682
 20
-8.486236921183437
 30
0.0
 10
-40.36046755046462
 20
-8.451913257114075
 30
0.0
  0
SPLINE
  5
30F
330
1F
100
AcDbEntity
  8
0
  6
Continuous
 62
     1
370
    15
100
AcDbSpline
210
0.0
220
0.0
230
1.0
 70
     8
 71
     3
 72
    19
 73
    15
 74
     0
 42
0.000000001
 43
0.00000001
 40
0.0
 40
0.0
 40
0.0
 40
0.0
 40
0.0871598153049319
 40
0.1743152105379534
 40
0.261465181663002
 40
0.3486088064502479
 40
0.4357537618357291
 40
0.5229049353492473
 40
0.6100613258833665
 40
0.697221928711096
 40
0.788538285875099
 40
0.8798590220853517
 40
0.9711788036366755
 40
1.0
 40
1.0
 40
1.0
 40
1.0
 10
-30.16249999999999
 20
0.4028085269647292
 30
0.0
 10
-31.27379699975901
 20
1.042557539890662
 30
0.0
 10
-33.49633464288578
 20
2.322023122619139
 30
0.0
 10
-36.83000169205783
 20
4.156934891020479
 30
0.0
 10
-40.16342789116894
 20
5.848588215881246
 30
0.0
 10
-43.49665200299992
 20
7.337105664307042
 30
0.0
 10
-46.82991080123983
 20
8.571172851791498
 30
0.0
 10
-50.16338492180611
 20
9.507769418524713
 30
0.0
 10
-53.49711406972457
 20
10.11495460296066
 30
0.0
 10
-56.88391351122399
 20
10.37376079149044
 30
0.0
 10
-60.32410298902337
 20
10.26252003033424
 30
0.0
 10
-63.81729288365042
 20
9.73607633861361
 30
0.0
 10
-66.51363591248881
 20
9.109189550696083
 30
0.0
 10
-68.04551589875584
 20
8.563581237858525
 30
0.0
 10
-68.41300594799301
 20
8.432692638525463
 30
0.0
  0
SPLINE
  5
310
330
1F
100
AcDbEntity
  8
외형선
  6
Continuous
370
    15
100
AcDbSpline
210
0.0
220
0.0
230
1.0
 70
    24
 71
     3
 72
    19
 73
    15
 74
     0
 42
0.000000001
 43
0.00000001
 40
0.0
 40
0.0
 40
0.0
 40
0.0
 40
0.0803845184184783
 40
0.1633606945845669
 40
0.2487431854806774
 40
0.3317193616467655
 40
0.4171018525428761
 40
0.5000780287089646
 40
0.5854605196050755
 40
0.6684366957711643
 40
0.7538191866672723
 40
0.8367953628333477
 40
0.9221778537294436
 40
1.0
 40
1.0
 40
1.0
 40
1.0
 10
-30.16250000000005
 20
-9.539693584540036
 30
0.0
 10
-30.16250000000005
 20
-9.274613146939448
 30
0.0
 10
-30.16250000000011
 20
-8.735905877689223
 30
0.0
 10
-30.16249999999994
 20
-7.801078358988708
 30
0.0
 10
-30.16249999999999
 20
-6.80094017909038
 30
0.0
 10
-30.16249999999999
 20
-5.754475974406764
 30
0.0
 10
-30.16250000000016
 20
-4.712836737304262
 30
0.0
 10
-30.16249999999999
 20
-3.686057264969822
 30
0.0
 10
-30.16250000000005
 20
-2.721783158036321
 30
0.0
 10
-30.16250000000005
 20
-1.830243097896376
 30
0.0
 10
-30.16250000000011
 20
-1.051457095987278
 30
0.0
 10
-30.16249999999999
 20
-0.3982163652051909
 30
0.0
 10
-30.16249999999999
 20
0.1064274572851034
 30
0.0
 10
-30.16250000000005
 20
0.3071137223147773
 30
0.0
 10
-30.16250000000005
 20
0.4028085269647292
 30
0.0
  0
LINE
  5
311
330
1F
100
AcDbEntity
  8
외형선
  6
Continuous
370
    15
100
AcDbLine
 10
-30.16250000000005
 20
0.5995369509144368
 30
0.0
 11
-30.16250000000005
 21
0.598255765441617
 31
0.0
  0
SPLINE
  5
312
330
1F
100
AcDbEntity
  8
0
  6
Continuous
 62
     1
370
    15
100
AcDbSpline
210
0.0
220
0.0
230
1.0
 70
     8
 71
     3
 72
    62
 73
    58
 74
     0
 42
0.000000001
 43
0.00000001
 40
0.0
 40
0.0
 40
0.0
 40
0.0
 40
0.0624999999999991
 40
0.0624999999999991
 40
0.1249999999999982
 40
0.1249999999999982
 40
0.1562499999999984
 40
0.1562499999999984
 40
0.1874999999999986
 40
0.1874999999999986
 40
0.2187499999999988
 40
0.2187499999999988
 40
0.249999999999999
 40
0.249999999999999
 40
0.2812499999999992
 40
0.2812499999999992
 40
0.3124999999999994
 40
0.3124999999999994
 40
0.3437499999999996
 40
0.3437499999999996
 40
0.3749999999999998
 40
0.3749999999999998
 40
0.4062500000000001
 40
0.4062500000000001
 40
0.4375000000000002
 40
0.4375000000000002
 40
0.4687500000000004
 40
0.4687500000000004
 40
0.5000000000000007
 40
0.5000000000000007
 40
0.5312500000000009
 40
0.5312500000000009
 40
0.5625000000000011
 40
0.5625000000000011
 40
0.5937500000000013
 40
0.5937500000000013
 40
0.6250000000000014
 40
0.6250000000000014
 40
0.6875000000000012
 40
0.6875000000000012
 40
0.750000000000001
 40
0.750000000000001
 40
0.7812500000000009
 40
0.7812500000000009
 40
0.8125000000000008
 40
0.8125000000000008
 40
0.8437500000000007
 40
0.8437500000000007
 40
0.8750000000000004
 40
0.8750000000000004
 40
0.9062500000000003
 40
0.9062500000000003
 40
0.9375000000000002
 40
0.9375000000000002
 40
0.9687500000000001
 40
0.9687500000000001
 40
1.0
 40
1.0
 40
1.0
 40
1.0
 10
-77.78750000000005
 20
10.31874999999998
 30
0.0
 10
-76.79906561140146
 20
10.23178321991399
 30
0.0
 10
-75.79982039586125
 20
10.13484941419895
 30
0.0
 10
-73.82097732400663
 20
9.849065763898192
 30
0.0
 10
-72.82374794076483
 20
9.659437297202498
 30
0.0
 10
-71.33827550130397
 20
9.310146238265741
 30
0.0
 10
-70.84347116041911
 20
9.182868045622097
 30
0.0
 10
-69.8496671852217
 20
8.907003846980114
 30
0.0
 10
-69.35214604890402
 20
8.758531902270928
 30
0.0
 10
-68.36103167290841
 20
8.442105967071551
 30
0.0
 10
-67.86690815209133
 20
8.274125008330696
 30
0.0
 10
-66.87338968413022
 20
7.918825920219102
 30
0.0
 10
-66.37576272334533
 20
7.731691482653441
 30
0.0
 10
-65.38394319250514
 20
7.340428217876943
 30
0.0
 10
-64.89024972461223
 20
7.136394906668452
 30
0.0
 10
-63.89711179122409
 20
6.711520464631358
 30
0.0
 10
-63.39942679629669
 20
6.490903386471937
 30
0.0
 10
-62.4069965965152
 20
6.035613057058849
 30
0.0
 10
-61.91348227759349
 20
5.801154515137408
 30
0.0
 10
-60.92081978474457
 20
5.318493532830483
 30
0.0
 10
-60.42312456461272
 20
5.07050363931388
 30
0.0
 10
-59.43017837627676
 20
4.563778822542669
 30
0.0
 10
-58.9365922453737
 20
4.305347500724305
 30
0.0
 10
-57.94449994746887
 20
3.778289594159797
 30
0.0
 10
-57.44684231435016
 20
3.509796732069357
 30
0.0
 10
-56.45347498229066
 20
2.965662457439929
 30
0.0
 10
-55.95956610130267
 20
2.69036295871896
 30
0.0
 10
-54.96813857109723
 20
2.133525532292136
 30
0.0
 10
-54.4705663251535
 20
1.851968428552463
 30
0.0
 10
-53.476872828496
 20
1.285492270237295
 30
0.0
 10
-52.98239036200104
 20
1.000890892389843
 30
0.0
 10
-51.99172196063259
 20
0.4297120180562175
 30
0.0
 10
-51.49428287464232
 20
0.1428912875407875
 30
0.0
 10
-50.50035829656801
 20
-0.430235707307564
 30
0.0
 10
-50.00505159159005
 20
-0.7163137485400923
 30
0.0
 10
-49.01523643875268
 20
-1.286005176261445
 30
0.0
 10
-48.51797824280206
 20
-1.570144091179334
 30
0.0
 10
-47.02688748895693
 20
-2.415993858892552
 30
0.0
 10
-46.03868932974032
 20
-2.970212249437442
 30
0.0
 10
-44.05048687626734
 20
-4.048311396531791
 30
0.0
 10
-43.0622739620255
 20
-4.570054957525987
 30
0.0
 10
-41.5712038556367
 20
-5.318953621224797
 30
0.0
 10
-41.07391655837782
 20
-5.562753569472155
 30
0.0
 10
-40.08397223840765
 20
-6.03620786721405
 30
0.0
 10
-39.58880018676453
 20
-6.266275668384911
 30
0.0
 10
-38.59490313423791
 20
-6.711929230807901
 30
0.0
 10
-38.09744184422371
 20
-6.927310669820192
 30
0.0
 10
-37.10665786687659
 20
-7.34099492472797
 30
0.0
 10
-36.61227383024934
 20
-7.539467914248452
 30
0.0
 10
-35.61862161093066
 20
-7.919170649376089
 30
0.0
 10
-35.12103406536531
 20
-8.100161167077193
 30
0.0
 10
-34.12950458708028
 20
-8.44257950021775
 30
0.0
 10
-33.63565788118737
 20
-8.604027757706763
 30
0.0
 10
-32.64234556508703
 20
-8.907273976828893
 30
0.0
 10
-32.14467954165505
 20
-9.048855085668666
 30
0.0
 10
-31.15249895601195
 20
-9.310485637949018
 30
0.0
 10
-30.65893872565201
 20
-9.430489126823534
 30
0.0
 10
-30.16250000000005
 20
-9.539693584540021
 30
0.0
  0
LINE
  5
313
330
1F
100
AcDbEntity
  8
0
  6
Continuous
 62
     1
370
    15
100
AcDbLine
 10
-77.7875
 20
10.31874999999998
 30
0.0
 11
-77.7875
 21
9.345499422632724
 31
0.0
  0
LINE
  5
314
330
1F
100
AcDbEntity
  8
외형선
  6
Continuous
370
    15
100
AcDbLine
 10
-30.16250000000005
 20
-9.539693584540036
 30
0.0
 11
-30.16249999999999
 21
-10.31088487245905
 31
0.0
  0
SPLINE
  5
315
330
1F
100
AcDbEntity
  8
0
  6
Continuous
 62
     1
370
    15
100
AcDbSpline
210
0.0
220
0.0
230
1.0
 70
     8
 71
     3
 72
    14
 73
    10
 74
     0
 42
0.000000001
 43
0.00000001
 40
0.0
 40
0.0
 40
0.0
 40
0.0
 40
0.0061373433954218
 40
0.1718138312196289
 40
0.3374766027604421
 40
0.5031160178393893
 40
0.6687247863831663
 40
0.8343482101359954
 40
0.9999999999999999
 40
0.9999999999999999
 40
0.9999999999999999
 40
0.9999999999999999
 10
-51.24599552479864
 20
10.3120702516842
 30
0.0
 10
-51.20286352308423
 20
10.314282648472
 30
0.0
 10
-49.99539084553462
 20
10.37621830104959
 30
0.0
 10
-47.62348310744127
 20
10.14500580243209
 30
0.0
 10
-44.13074865716331
 20
9.579703264210831
 30
0.0
 10
-40.63853238939416
 20
8.607297906050189
 30
0.0
 10
-37.14680248661577
 20
7.315877427752592
 30
0.0
 10
-33.65487868047884
 20
5.753715507105478
 30
0.0
 10
-31.32669267870708
 20
4.540139721362048
 30
0.0
 10
-30.16250000000005
 20
3.933299871047932
 30
0.0
  0
LINE
  5
316
330
1F
100
AcDbEntity
  8
외형선
  6
Continuous
370
    15
100
AcDbLine
 10
-30.16250000000005
 20
3.933299871047932
 30
0.0
 11
-30.16249999999999
 21
0.4028085269647292
 31
0.0
  0
SPLINE
  5
317
330
1F
100
AcDbEntity
  8
0
  6
Continuous
 62
     1
370
    15
100
AcDbSpline
210
0.0
220
0.0
230
1.0
 70
     8
 71
     3
 72
    13
 73
     9
 74
     0
 42
0.000000001
 43
0.00000001
 40
0.0
 40
0.0
 40
0.0
 40
0.0
 40
0.1376505827720433
 40
0.3101441851231044
 40
0.482635984241247
 40
0.655115909231483
 40
0.8275739143125684
 40
1.0
 40
1.0
 40
1.0
 40
1.0
 10
-57.5364265238039
 20
-10.28704495229337
 30
0.0
 10
-58.46562944307968
 20
-10.27560229757849
 30
0.0
 10
-60.55924122741939
 20
-10.24982054823373
 30
0.0
 10
-63.81729969329413
 20
-9.742760623983845
 30
0.0
 10
-67.31046189371895
 20
-8.873295326727789
 30
0.0
 10
-70.80333434606152
 20
-7.65101650614911
 30
0.0
 10
-74.29568612535567
 20
-6.152709944468431
 30
0.0
 10
-76.62363385980771
 20
-4.967351853140731
 30
0.0
 10
-77.7875
 20
-4.37472766056023
 30
0.0
  0
LINE
  5
318
330
1F
100
AcDbEntity
  8
0
  6
Continuous
 62
     1
370
    15
100
AcDbLine
 10
-77.7875
 20
9.345499422632724
 30
0.0
 11
-77.7875
 21
-10.31875000000003
 31
0.0
  0
SPLINE
  5
319
330
1F
100
AcDbEntity
  8
0
  6
Continuous
 62
     1
370
    15
100
AcDbSpline
210
0.0
220
0.0
230
1.0
 70
     8
 71
     3
 72
    11
 73
     7
 74
     0
 42
0.000000001
 43
0.00000001
 40
0.0
 40
0.0
 40
0.0
 40
0.0
 40
0.3269127826521974
 40
0.6538089868157564
 40
0.9806848466242403
 40
1.0
 40
1.0
 40
1.0
 40
1.0
 10
-30.16249999999999
 20
10.31088487245902
 30
0.0
 10
-31.27379722074258
 20
10.2528699693441
 30
0.0
 10
-33.49633530582517
 20
10.13684310518157
 30
0.0
 10
-36.82999904052591
 20
9.485718490880128
 30
0.0
 10
-39.11802662893635
 20
8.911718563738813
 30
0.0
 10
-40.29481082793777
 20
8.476211643387625
 30
0.0
 10
-40.36046755046451
 20
8.451913257114068
 30
0.0
  0
SPLINE
  5
31A
330
1F
100
AcDbEntity
  8
외형선
  6
Continuous
370
    15
100
AcDbSpline
210
0.0
220
0.0
230
1.0
 70
    24
 71
     3
 72
    14
 73
    10
 74
     0
 42
0.000000001
 43
0.00000001
 40
0.0
 40
0.0
 40
0.0
 40
0.0
 40
0.0860731303625206
 40
0.2348155710350429
 40
0.3878715525635948
 40
0.5366139932361487
 40
0.689669974764765
 40
0.8424891676038042
 40
1.0
 40
1.0
 40
1.0
 40
1.0
 10
-30.16250000000005
 20
4.041635074505545
 30
0.0
 10
-30.16250000000005
 20
4.17000597990599
 30
0.0
 10
-30.16250000000011
 20
4.520213847668326
 30
0.0
 10
-30.16249999999999
 20
5.238005958765622
 30
0.0
 10
-30.16249999999999
 20
6.14644957063518
 30
0.0
 10
-30.16250000000005
 20
7.142130019128284
 30
0.0
 10
-30.16250000000005
 20
8.179143747608318
 30
0.0
 10
-30.16250000000016
 20
9.254919552094204
 30
0.0
 10
-30.16250000000005
 20
9.955366593371036
 30
0.0
 10
-30.16249999999999
 20
10.31088487245902
 30
0.0
  0
SPLINE
  5
31B
330
1F
100
AcDbEntity
  8
0
  6
Continuous
 62
     1
370
    15
100
AcDbSpline
210
0.0
220
0.0
230
1.0
 70
     8
 71
     3
 72
    10
 73
     6
 74
     0
 42
0.000000001
 43
0.00000001
 40
0.0
 40
0.0
 40
0.0
 40
0.0
 40
0.3555618893155493
 40
0.7111495704130997
 40
1.0
 40
1.0
 40
1.0
 40
1.0
 10
-77.78750000000005
 20
-10.31875000000003
 30
0.0
 10
-76.6764466727196
 20
-10.18964532772545
 30
0.0
 10
-74.45425942446738
 20
-10.00732188805292
 30
0.0
 10
-71.32942158901838
 20
-9.363970571601431
 30
0.0
 10
-69.31562917158809
 20
-8.720920790298965
 30
0.0
 10
-68.41300594799296
 20
-8.43269263852547
 30
0.0
  0
LINE
  5
31C
330
1F
100
AcDbEntity
  8
0
  6
Continuous
 62
     1
370
    15
100
AcDbLine
 10
-77.7875
 20
-4.37472766056023
 30
0.0
 11
-77.7875
 21
-10.31875000000003
 31
0.0
  0
LINE
  5
31D
330
1F
100
AcDbEntity
  8
외형선
  6
Continuous
370
    15
100
AcDbLine
 10
-29.16249999999999
 20
-0.0000000000000042
 30
0.0
 11
-29.16249999999999
 21
-10.31875000000001
 31
0.0
  0
LINE
  5
31E
330
1F
100
AcDbEntity
  8
외형선
  6
Continuous
370
    15
100
AcDbLine
 10
-29.16249999999999
 20
10.31874999999999
 30
0.0
 11
-29.16249999999999
 21
-0.0000000000000042
 31
0.0
  0
LINE
  5
31F
330
1F
100
AcDbEntity
  8
외형선
  6
Continuous
370
    15
100
AcDbLine
 10
-26.20018467149217
 20
-0.0000000000000042
 30
0.0
 11
-26.20018467149217
 21
-11.11250000000003
 31
0.0
  0
LINE
  5
320
330
1F
100
AcDbEntity
  8
외형선
  6
Continuous
370
    15
100
AcDbLine
 10
-26.20018467149217
 20
11.11250000000001
 30
0.0
 11
-26.20018467149217
 21
-0.0000000000000042
 31
0.0
  0
LINE
  5
321
330
1F
100
AcDbEntity
  8
외형선
  6
Continuous
370
    15
100
AcDbLine
 10
-29.66255647267943
 20
-10.31811448741411
 30
0.0
 11
-29.66255647267943
 21
-10.31875000000001
 31
0.0
  0
SPLINE
  5
322
330
1F
100
AcDbEntity
  8
외형선
  6
Continuous
370
    15
100
AcDbSpline
210
0.0
220
0.0
230
1.0
 70
     8
 71
     3
 72
     8
 73
     4
 74
     0
 42
0.000000001
 43
0.00000001
 40
0.0
 40
0.0
 40
0.0
 40
0.0
 40
1.0
 40
1.0
 40
1.0
 40
1.0
 10
-30.16249999999999
 20
-10.31088487245905
 30
0.0
 10
-29.99596117575763
 20
-10.3146366044481
 30
0.0
 10
-29.82928082100452
 20
-10.31704744295481
 30
0.0
 10
-29.66255647267943
 20
-10.31811448170254
 30
0.0
  0
SPLINE
  5
323
330
1F
100
AcDbEntity
  8
외형선
  6
Continuous
370
    15
100
AcDbSpline
210
0.0
220
0.0
230
1.0
 70
     8
 71
     3
 72
     8
 73
     4
 74
     0
 42
0.000000001
 43
0.00000001
 40
0.0
 40
0.0
 40
0.0
 40
0.0
 40
1.0
 40
1.0
 40
1.0
 40
1.0
 10
-30.16250000000005
 20
-9.539693584540021
 30
0.0
 10
-29.99596117575769
 20
-9.576328079494562
 30
0.0
 10
-29.82928082100452
 20
-9.611731364269293
 30
0.0
 10
-29.66255647267943
 20
-9.645881317227708
 30
0.0
  0
LINE
  5
324
330
1F
100
AcDbEntity
  8
외형선
  6
Continuous
370
    15
100
AcDbLine
 10
-29.66255647267943
 20
0.1145206842242985
 30
0.0
 11
-29.66255647267943
 21
-9.64588391713686
 31
0.0
  0
SPLINE
  5
325
330
1F
100
AcDbEntity
  8
외형선
  6
Continuous
370
    15
100
AcDbSpline
210
0.0
220
0.0
230
1.0
 70
     8
 71
     3
 72
     8
 73
     4
 74
     0
 42
0.000000001
 43
0.00000001
 40
0.0
 40
0.0
 40
0.0
 40
0.0
 40
1.0
 40
1.0
 40
1.0
 40
1.0
 10
-30.16249999999999
 20
0.4028085269647292
 30
0.0
 10
-29.99596117575763
 20
0.3067736269518335
 30
0.0
 10
-29.82928082100452
 20
0.210659102274714
 30
0.0
 10
-29.66255647267943
 20
0.1145211988264763
 30
0.0
  0
SPLINE
  5
326
330
1F
100
AcDbEntity
  8
외형선
  6
Continuous
370
    15
100
AcDbSpline
210
0.0
220
0.0
230
1.0
 70
     8
 71
     3
 72
     8
 73
     4
 74
     0
 42
0.000000001
 43
0.00000001
 40
0.0
 40
0.0
 40
0.0
 40
0.0
 40
1.0
 40
1.0
 40
1.0
 40
1.0
 10
-30.16250000000005
 20
3.933299871047946
 30
0.0
 10
-29.99596117575769
 20
3.844447795704535
 30
0.0
 10
-29.82928082100452
 20
3.755058638513215
 30
0.0
 10
-29.66255647267943
 20
3.665184194069578
 30
0.0
  0
LINE
  5
327
330
1F
100
AcDbEntity
  8
외형선
  6
Continuous
370
    15
100
AcDbLine
 10
-29.66255647267943
 20
10.31874999999999
 30
0.0
 11
-29.66255647267943
 21
3.665177351728043
 31
0.0
  0
SPLINE
  5
328
330
1F
100
AcDbEntity
  8
외형선
  6
Continuous
370
    15
100
AcDbSpline
210
0.0
220
0.0
230
1.0
 70
     8
 71
     3
 72
     8
 73
     4
 74
     0
 42
0.000000001
 43
0.00000001
 40
0.0
 40
0.0
 40
0.0
 40
0.0
 40
1.0
 40
1.0
 40
1.0
 40
1.0
 10
-30.16249999999999
 20
10.31088487245902
 30
0.0
 10
-29.99596117575763
 20
10.31463660444808
 30
0.0
 10
-29.82928082100452
 20
10.31704744295478
 30
0.0
 10
-29.66255647267943
 20
10.31811448170252
 30
0.0
  0
SPLINE
  5
329
330
1F
100
AcDbEntity
  8
외형선
  6
Continuous
370
    15
100
AcDbSpline
210
0.0
220
0.0
230
1.0
 70
    24
 71
     3
 72
    21
 73
    17
 74
     0
 42
0.000000001
 43
0.00000001
 40
0.0
 40
0.0
 40
0.0
 40
0.0
 40
0.0205306005071447
 40
0.0951196923007205
 40
0.1718718728093339
 40
0.2464609646029229
 40
0.3232131451115504
 40
0.3978022369051326
 40
0.4745544174137528
 40
0.5491435092073349
 40
0.6258956897159548
 40
0.7004847815095313
 40
0.7772369620181455
 40
0.8518260538117344
 40
0.9285782343203619
 40
0.9999999999999999
 40
0.9999999999999999
 40
0.9999999999999999
 40
0.9999999999999999
 10
-30.16250000000005
 20
0.59706255044362
 30
0.0
 10
-30.16250000000005
 20
0.5991221132972797
 30
0.0
 10
-30.16250000000005
 20
0.608664210463256
 30
0.0
 10
-30.16249999999999
 20
0.4453335771138385
 30
0.0
 10
-30.16250000000005
 20
0.1138720613197635
 30
0.0
 10
-30.16249999999999
 20
-0.3973279400420224
 30
0.0
 10
-30.16250000000011
 20
-1.046292916303462
 30
0.0
 10
-30.16250000000005
 20
-1.831246917665642
 30
0.0
 10
-30.16250000000011
 20
-2.714533914483571
 30
0.0
 10
-30.16249999999994
 20
-3.687389027996421
 30
0.0
 10
-30.16250000000011
 20
-4.704723227237186
 30
0.0
 10
-30.16249999999999
 20
-5.755883820896504
 30
0.0
 10
-30.16250000000005
 20
-6.792909641500064
 30
0.0
 10
-30.16250000000011
 20
-7.802430453533664
 30
0.0
 10
-30.16250000000005
 20
-8.73444695355494
 30
0.0
 10
-30.16250000000005
 20
-9.277793496859235
 30
0.0
 10
-30.16250000000005
 20
-9.539693584540064
 30
0.0
  0
SPLINE
  5
32A
330
1F
100
AcDbEntity
  8
외형선
  6
Continuous
370
    15
100
AcDbSpline
210
0.0
220
0.0
230
1.0
 70
    24
 71
     3
 72
    14
 73
    10
 74
     0
 42
0.000000001
 43
0.00000001
 40
0.0
 40
0.0
 40
0.0
 40
0.0
 40
0.1536476117288066
 40
0.3120643493044106
 40
0.4608377473071041
 40
0.6139255839305018
 40
0.7626989819332214
 40
0.915786818556647
 40
1.0
 40
1.0
 40
1.0
 40
1.0
 10
-30.16250000000005
 20
10.31088487245902
 30
0.0
 10
-30.16250000000005
 20
9.964298942197853
 30
0.0
 10
-30.16249999999999
 20
9.260369270997227
 30
0.0
 10
-30.16250000000011
 20
8.190178798882368
 30
0.0
 10
-30.16250000000005
 20
7.140756801059022
 30
0.0
 10
-30.16249999999999
 20
6.153941269707754
 30
0.0
 10
-30.16250000000005
 20
5.23665470746523
 30
0.0
 10
-30.16250000000005
 20
4.52183196413642
 30
0.0
 10
-30.16250000000005
 20
4.167404122486782
 30
0.0
 10
-30.16250000000011
 20
4.041625074505556
 30
0.0
  0
LINE
  5
3A5
330
1F
100
AcDbEntity
  8
외형선
  6
Continuous
370
    15
100
AcDbLine
 10
-5.791200000000003
 20
9.461500000000004
 30
0.0
 11
5.791200000000003
 21
9.461500000000004
 31
0.0
  0
LINE
  5
3A6
330
1F
100
AcDbEntity
  8
외형선
  6
Continuous
370
    15
100
AcDbLine
 10
5.791200000000003
 20
9.461500000000004
 30
0.0
 11
7.442199999999957
 21
11.1125
 31
0.0
  0
LINE
  5
3A7
330
1F
100
AcDbEntity
  8
외형선
  6
Continuous
370
    15
100
AcDbLine
 10
-5.791200000000003
 20
9.461500000000004
 30
0.0
 11
-7.442200000000071
 21
11.1125
 31
0.0
  0
LINE
  5
3A9
330
1F
100
AcDbEntity
  8
외형선
  6
Continuous
370
    15
100
AcDbLine
 10
-7.442200000000067
 20
11.1125
 30
0.0
 11
-26.20018467149216
 21
11.1125
 31
0.0
  0
ENDSEC
  0
SECTION
  2
OBJECTS
  0
DICTIONARY
  5
C
330
0
100
AcDbDictionary
281
     1
  3
ACAD_GROUP
350
D
  3
ACAD_IMAGE_VARS
350
150
  3
ACAD_LAYOUT
350
1A
  3
ACAD_MLINESTYLE
350
17
  3
ACAD_PLOTSETTINGS
350
19
  3
ACAD_PLOTSTYLENAME
350
E
  3
ACAD_SCALELIST
350
47
  3
APPDATA
350
14E
  3
DWGPROPS
350
3F0
  0
DICTIONARY
  5
1D0
330
2
100
AcDbDictionary
280
     1
281
     1
  3
ACAD_LAYERSTATES
360
1D1
  0
DICTIONARY
  5
D
102
{ACAD_REACTORS
330
C
102
}
330
C
100
AcDbDictionary
281
     1
  0
RASTERVARIABLES
  5
150
102
{ACAD_REACTORS
330
C
102
}
330
C
100
AcDbRasterVariables
 90
        0
 70
     1
 71
     1
 72
     1
  0
DICTIONARY
  5
1A
102
{ACAD_REACTORS
330
C
102
}
330
C
100
AcDbDictionary
281
     1
  3
Layout1
350
1E
  3
Layout2
350
26
  3
Model
350
22
  0
DICTIONARY
  5
17
102
{ACAD_REACTORS
330
C
102
}
330
C
100
AcDbDictionary
281
     1
  3
Standard
350
18
  0
DICTIONARY
  5
19
102
{ACAD_REACTORS
330
C
102
}
330
C
100
AcDbDictionary
281
     1
  0
ACDBDICTIONARYWDFLT
  5
E
102
{ACAD_REACTORS
330
C
102
}
330
C
100
AcDbDictionary
281
     1
  3
Normal
350
F
100
AcDbDictionaryWithDefault
340
F
  0
DICTIONARY
  5
47
102
{ACAD_REACTORS
330
C
102
}
330
C
100
AcDbDictionary
281
     1
  3
A0
350
48
  3
A1
350
49
  3
A2
350
4A
  3
A3
350
4B
  3
A4
350
4C
  3
A5
350
4D
  3
A6
350
4E
  3
A7
350
4F
  3
A8
350
50
  3
A9
350
51
  3
B0
350
52
  3
B1
350
53
  3
B2
350
54
  3
B3
350
55
  3
B4
350
56
  3
B5
350
57
  3
B6
350
58
  3
B7
350
59
  3
B8
350
5A
  3
B9
350
5B
  3
C0
350
5C
  3
C1
350
5D
  3
C2
350
5E
  3
C3
350
5F
  3
C4
350
60
  3
C5
350
61
  3
C6
350
62
  3
C7
350
63
  3
C8
350
64
  3
C9
350
65
  3
D0
350
66
  3
D1
350
67
  3
D2
350
68
  0
DICTIONARY
  5
14E
102
{ACAD_REACTORS
330
C
102
}
330
C
100
AcDbDictionary
281
     1
  0
XRECORD
  5
3F0
102
{ACAD_REACTORS
330
C
102
}
330
C
100
AcDbXrecord
280
     1
  1
DWGPROPS COOKIE
  2

  3

  4

  6

  7

  8
12016016
  9

300
=
301
=
302
=
303
=
304
=
305
=
306
=
307
=
308
=
309
=
 40
0.0
 41
2458313.100260475
 42
2458319.110958322
  1

 90
        0
  0
DICTIONARY
  5
1D1
102
{ACAD_REACTORS
330
1D0
102
}
330
1D0
100
AcDbDictionary
281
     1
  0
LAYOUT
  5
1E
102
{ACAD_REACTORS
330
1A
102
}
330
1A
100
AcDbPlotSettings
  1

  2
none_device
  4

  6

 40
0.0
 41
0.0
 42
0.0
 43
0.0
 44
0.0
 45
0.0
 46
0.0
 47
0.0
 48
0.0
 49
0.0
140
0.0
141
0.0
142
1.0
143
1.0
 70
   688
 72
     1
 73
     0
 74
     5
  7

 75
    16
147
1.0
148
0.0
149
0.0
100
AcDbLayout
  1
Layout1
 70
     1
 71
     1
 10
0.0
 20
0.0
 11
420.0
 21
297.0
 12
0.0
 22
0.0
 32
0.0
 14
1.000000000000000E+20
 24
1.000000000000000E+20
 34
1.000000000000000E+20
 15
-1.000000000000000E+20
 25
-1.000000000000000E+20
 35
-1.000000000000000E+20
146
0.0
 13
0.0
 23
0.0
 33
0.0
 16
1.0
 26
0.0
 36
0.0
 17
0.0
 27
1.0
 37
0.0
 76
     0
330
1B
  0
LAYOUT
  5
26
102
{ACAD_REACTORS
330
1A
102
}
330
1A
100
AcDbPlotSettings
  1

  2
none_device
  4

  6

 40
0.0
 41
0.0
 42
0.0
 43
0.0
 44
0.0
 45
0.0
 46
0.0
 47
0.0
 48
0.0
 49
0.0
140
0.0
141
0.0
142
1.0
143
1.0
 70
   688
 72
     1
 73
     0
 74
     5
  7

 75
    16
147
1.0
148
0.0
149
0.0
100
AcDbLayout
  1
Layout2
 70
     1
 71
     2
 10
0.0
 20
0.0
 11
0.0
 21
0.0
 12
0.0
 22
0.0
 32
0.0
 14
0.0
 24
0.0
 34
0.0
 15
0.0
 25
0.0
 35
0.0
146
0.0
 13
0.0
 23
0.0
 33
0.0
 16
1.0
 26
0.0
 36
0.0
 17
0.0
 27
1.0
 37
0.0
 76
     0
330
23
  0
LAYOUT
  5
22
102
{ACAD_REACTORS
330
1A
102
}
330
1A
100
AcDbPlotSettings
  1

  2
none_device
  4
ANSI_A_(11.00_x_8.50_Inches)
  6

 40
6.35
 41
19.05
 42
6.35000508
 43
19.05000254
 44
279.4
 45
215.9
 46
35.67024863135408
 47
67.46952793654634
 48
0.0
 49
0.0
140
0.0
141
0.0
142
0.025988317818276
143
1.0
 70
  1696
 72
     0
 73
     0
 74
     0
  7

 75
     0
147
0.0235690232323232
148
0.0
149
0.0
100
AcDbLayout
  1
Model
 70
     1
 71
     0
 10
0.0
 20
0.0
 11
420.0
 21
297.0
 12
0.0
 22
0.0
 32
0.0
 14
-93.41625000000006
 24
-49.97180738881175
 34
0.0
 15
97.4595873133927
 25
52.81564959311525
 35
0.0
146
0.0
 13
0.0
 23
0.0
 33
0.0
 16
1.0
 26
0.0
 36
0.0
 17
0.0
 27
1.0
 37
0.0
 76
     0
330
1F
331
29
  0
MLINESTYLE
  5
18
102
{ACAD_REACTORS
330
17
102
}
330
17
100
AcDbMlineStyle
  2
Standard
 70
     0
  3

 62
   256
 51
90.0
 52
90.0
 71
     2
 49
0.5
 62
   256
  6
BYLAYER
 49
-0.5
 62
   256
  6
BYLAYER
  0
ACDBPLACEHOLDER
  5
F
102
{ACAD_REACTORS
330
E
102
}
330
E
  0
SCALE
  5
48
102
{ACAD_REACTORS
330
47
102
}
330
47
100
AcDbScale
 70
     0
300
1:1
140
1.0
141
1.0
290
     1
  0
SCALE
  5
49
102
{ACAD_REACTORS
330
47
102
}
330
47
100
AcDbScale
 70
     0
300
1:2
140
1.0
141
2.0
290
     0
  0
SCALE
  5
4A
102
{ACAD_REACTORS
330
47
102
}
330
47
100
AcDbScale
 70
     0
300
1:4
140
1.0
141
4.0
290
     0
  0
SCALE
  5
4B
102
{ACAD_REACTORS
330
47
102
}
330
47
100
AcDbScale
 70
     0
300
1:5
140
1.0
141
5.0
290
     0
  0
SCALE
  5
4C
102
{ACAD_REACTORS
330
47
102
}
330
47
100
AcDbScale
 70
     0
300
1:8
140
1.0
141
8.0
290
     0
  0
SCALE
  5
4D
102
{ACAD_REACTORS
330
47
102
}
330
47
100
AcDbScale
 70
     0
300
1:10
140
1.0
141
10.0
290
     0
  0
SCALE
  5
4E
102
{ACAD_REACTORS
330
47
102
}
330
47
100
AcDbScale
 70
     0
300
1:16
140
1.0
141
16.0
290
     0
  0
SCALE
  5
4F
102
{ACAD_REACTORS
330
47
102
}
330
47
100
AcDbScale
 70
     0
300
1:20
140
1.0
141
20.0
290
     0
  0
SCALE
  5
50
102
{ACAD_REACTORS
330
47
102
}
330
47
100
AcDbScale
 70
     0
300
1:30
140
1.0
141
30.0
290
     0
  0
SCALE
  5
51
102
{ACAD_REACTORS
330
47
102
}
330
47
100
AcDbScale
 70
     0
300
1:40
140
1.0
141
40.0
290
     0
  0
SCALE
  5
52
102
{ACAD_REACTORS
330
47
102
}
330
47
100
AcDbScale
 70
     0
300
1:50
140
1.0
141
50.0
290
     0
  0
SCALE
  5
53
102
{ACAD_REACTORS
330
47
102
}
330
47
100
AcDbScale
 70
     0
300
1:100
140
1.0
141
100.0
290
     0
  0
SCALE
  5
54
102
{ACAD_REACTORS
330
47
102
}
330
47
100
AcDbScale
 70
     0
300
2:1
140
2.0
141
1.0
290
     0
  0
SCALE
  5
55
102
{ACAD_REACTORS
330
47
102
}
330
47
100
AcDbScale
 70
     0
300
4:1
140
4.0
141
1.0
290
     0
  0
SCALE
  5
56
102
{ACAD_REACTORS
330
47
102
}
330
47
100
AcDbScale
 70
     0
300
8:1
140
8.0
141
1.0
290
     0
  0
SCALE
  5
57
102
{ACAD_REACTORS
330
47
102
}
330
47
100
AcDbScale
 70
     0
300
10:1
140
10.0
141
1.0
290
     0
  0
SCALE
  5
58
102
{ACAD_REACTORS
330
47
102
}
330
47
100
AcDbScale
 70
     0
300
100:1
140
100.0
141
1.0
290
     0
  0
SCALE
  5
59
102
{ACAD_REACTORS
330
47
102
}
330
47
100
AcDbScale
 70
     0
300
1/128" = 1'-0"
140
0.0078125
141
12.0
290
     0
  0
SCALE
  5
5A
102
{ACAD_REACTORS
330
47
102
}
330
47
100
AcDbScale
 70
     0
300
1/64" = 1'-0"
140
0.015625
141
12.0
290
     0
  0
SCALE
  5
5B
102
{ACAD_REACTORS
330
47
102
}
330
47
100
AcDbScale
 70
     0
300
1/32" = 1'-0"
140
0.03125
141
12.0
290
     0
  0
SCALE
  5
5C
102
{ACAD_REACTORS
330
47
102
}
330
47
100
AcDbScale
 70
     0
300
1/16" = 1'-0"
140
0.0625
141
12.0
290
     0
  0
SCALE
  5
5D
102
{ACAD_REACTORS
330
47
102
}
330
47
100
AcDbScale
 70
     0
300
3/32" = 1'-0"
140
0.09375
141
12.0
290
     0
  0
SCALE
  5
5E
102
{ACAD_REACTORS
330
47
102
}
330
47
100
AcDbScale
 70
     0
300
1/8" = 1'-0"
140
0.125
141
12.0
290
     0
  0
SCALE
  5
5F
102
{ACAD_REACTORS
330
47
102
}
330
47
100
AcDbScale
 70
     0
300
3/16" = 1'-0"
140
0.1875
141
12.0
290
     0
  0
SCALE
  5
60
102
{ACAD_REACTORS
330
47
102
}
330
47
100
AcDbScale
 70
     0
300
1/4" = 1'-0"
140
0.25
141
12.0
290
     0
  0
SCALE
  5
61
102
{ACAD_REACTORS
330
47
102
}
330
47
100
AcDbScale
 70
     0
300
3/8" = 1'-0"
140
0.375
141
12.0
290
     0
  0
SCALE
  5
62
102
{ACAD_REACTORS
330
47
102
}
330
47
100
AcDbScale
 70
     0
300
1/2" = 1'-0"
140
0.5
141
12.0
290
     0
  0
SCALE
  5
63
102
{ACAD_REACTORS
330
47
102
}
330
47
100
AcDbScale
 70
     0
300
3/4" = 1'-0"
140
0.75
141
12.0
290
     0
  0
SCALE
  5
64
102
{ACAD_REACTORS
330
47
102
}
330
47
100
AcDbScale
 70
     0
300
1" = 1'-0"
140
1.0
141
12.0
290
     0
  0
SCALE
  5
65
102
{ACAD_REACTORS
330
47
102
}
330
47
100
AcDbScale
 70
     0
300
1-1/2" = 1'-0"
140
1.5
141
12.0
290
     0
  0
SCALE
  5
66
102
{ACAD_REACTORS
330
47
102
}
330
47
100
AcDbScale
 70
     0
300
3" = 1'-0"
140
3.0
141
12.0
290
     0
  0
SCALE
  5
67
102
{ACAD_REACTORS
330
47
102
}
330
47
100
AcDbScale
 70
     0
300
6" = 1'-0"
140
6.0
141
12.0
290
     0
  0
SCALE
  5
68
102
{ACAD_REACTORS
330
47
102
}
330
47
100
AcDbScale
 70
     0
300
1'-0" = 1'-0"
140
12.0
141
12.0
290
     0
  0
ENDSEC
  0
EOF
