  0
SECTION
  2
HEADER
  9
$ACADVER
  1
AC1015
  9
$ACADMAINTVER
 70
     6
  9
$DWGCODEPAGE
  3
ANSI_949
  9
$INSBASE
 10
0.0
 20
0.0
 30
0.0
  9
$EXTMIN
 10
-56.58625000000006
 20
-49.97180738881174
 30
0.0
  9
$EXTMAX
 10
81.41936447236121
 20
37.26493750000007
 30
0.0
  9
$LIMMIN
 10
0.0
 20
0.0
  9
$LIMMAX
 10
420.0
 20
297.0
  9
$ORTHOMODE
 70
     1
  9
$REGENMODE
 70
     1
  9
$FILLMODE
 70
     1
  9
$QTEXTMODE
 70
     0
  9
$MIRRTEXT
 70
     1
  9
$LTSCALE
 40
1.0
  9
$ATTMODE
 70
     1
  9
$TEXTSIZE
 40
3.5
  9
$TRACEWID
 40
1.0
  9
$TEXTSTYLE
  7
Standard
  9
$CLAYER
  8
0
  9
$CELTYPE
  6
ByLayer
  9
$CECOLOR
 62
   256
  9
$CELTSCALE
 40
1.0
  9
$DISPSILH
 70
     0
  9
$DIMSCALE
 40
1.0
  9
$DIMASZ
 40
3.302
  9
$DIMEXO
 40
1.0
  9
$DIMDLI
 40
3.75
  9
$DIMRND
 40
0.0
  9
$DIMDLE
 40
0.0
  9
$DIMEXE
 40
1.0
  9
$DIMTP
 40
0.0
  9
$DIMTM
 40
0.0
  9
$DIMTXT
 40
3.5
  9
$DIMCEN
 40
2.5
  9
$DIMTSZ
 40
0.0
  9
$DIMTOL
 70
     0
  9
$DIMLIM
 70
     0
  9
$DIMTIH
 70
     1
  9
$DIMTOH
 70
     1
  9
$DIMSE1
 70
     0
  9
$DIMSE2
 70
     0
  9
$DIMTAD
 70
     1
  9
$DIMZIN
 70
     0
  9
$DIMBLK
  1

  9
$DIMASO
 70
     1
  9
$DIMSHO
 70
     1
  9
$DIMPOST
  1

  9
$DIMAPOST
  1

  9
$DIMALT
 70
     0
  9
$DIMALTD
 70
     3
  9
$DIMALTF
 40
0.0393700787401575
  9
$DIMLFAC
 40
1.0
  9
$DIMTOFL
 70
     1
  9
$DIMTVP
 40
0.0
  9
$DIMTIX
 70
     0
  9
$DIMSOXD
 70
     0
  9
$DIMSAH
 70
     0
  9
$DIMBLK1
  1

  9
$DIMBLK2
  1

  9
$DIMSTYLE
  2
ISO-25
  9
$DIMCLRD
 70
     0
  9
$DIMCLRE
 70
     0
  9
$DIMCLRT
 70
     0
  9
$DIMTFAC
 40
1.0
  9
$DIMGAP
 40
1.524
  9
$DIMJUST
 70
     0
  9
$DIMSD1
 70
     0
  9
$DIMSD2
 70
     0
  9
$DIMTOLJ
 70
     0
  9
$DIMTZIN
 70
     0
  9
$DIMALTZ
 70
     0
  9
$DIMALTTZ
 70
     0
  9
$DIMUPT
 70
     0
  9
$DIMDEC
 70
     2
  9
$DIMTDEC
 70
     2
  9
$DIMALTU
 70
     2
  9
$DIMALTTD
 70
     3
  9
$DIMTXSTY
  7
Standard
  9
$DIMAUNIT
 70
     0
  9
$DIMADEC
 70
     2
  9
$DIMALTRND
 40
0.0
  9
$DIMAZIN
 70
     0
  9
$DIMDSEP
 70
    44
  9
$DIMATFIT
 70
     3
  9
$DIMFRAC
 70
     0
  9
$DIMLDRBLK
  1

  9
$DIMLUNIT
 70
     2
  9
$DIMLWD
 70
    -2
  9
$DIMLWE
 70
    -2
  9
$DIMTMOVE
 70
     0
  9
$LUNITS
 70
     2
  9
$LUPREC
 70
     2
  9
$SKETCHINC
 40
1.0
  9
$FILLETRAD
 40
10.0
  9
$AUNITS
 70
     0
  9
$AUPREC
 70
     2
  9
$MENU
  1
.
  9
$ELEVATION
 40
0.0
  9
$PELEVATION
 40
0.0
  9
$THICKNESS
 40
0.0
  9
$LIMCHECK
 70
     0
  9
$CHAMFERA
 40
0.0
  9
$CHAMFERB
 40
0.0
  9
$CHAMFERC
 40
0.0
  9
$CHAMFERD
 40
0.0
  9
$SKPOLY
 70
     0
  9
$TDCREATE
 40
2458313.469330313
  9
$TDUCREATE
 40
2458313.094330313
  9
$TDUPDATE
 40
2458319.496141586
  9
$TDUUPDATE
 40
2458319.121141586
  9
$TDINDWG
 40
0.0053935648
  9
$TDUSRTIMER
 40
2458319.121098553
  9
$USRTIMER
 70
     1
  9
$ANGBASE
 50
0.0
  9
$ANGDIR
 70
     0
  9
$PDMODE
 70
     0
  9
$PDSIZE
 40
-1.0
  9
$PLINEWID
 40
0.0
  9
$SPLFRAME
 70
     0
  9
$SPLINETYPE
 70
     6
  9
$SPLINESEGS
 70
     8
  9
$HANDSEED
  5
56C
  9
$SURFTAB1
 70
     6
  9
$SURFTAB2
 70
     6
  9
$SURFTYPE
 70
     6
  9
$SURFU
 70
     6
  9
$SURFV
 70
     6
  9
$UCSBASE
  2

  9
$UCSNAME
  2

  9
$UCSORG
 10
0.0
 20
0.0
 30
0.0
  9
$UCSXDIR
 10
1.0
 20
0.0
 30
0.0
  9
$UCSYDIR
 10
0.0
 20
1.0
 30
0.0
  9
$UCSORTHOREF
  2

  9
$UCSORTHOVIEW
 70
     0
  9
$UCSORGTOP
 10
0.0
 20
0.0
 30
0.0
  9
$UCSORGBOTTOM
 10
0.0
 20
0.0
 30
0.0
  9
$UCSORGLEFT
 10
0.0
 20
0.0
 30
0.0
  9
$UCSORGRIGHT
 10
0.0
 20
0.0
 30
0.0
  9
$UCSORGFRONT
 10
0.0
 20
0.0
 30
0.0
  9
$UCSORGBACK
 10
0.0
 20
0.0
 30
0.0
  9
$PUCSBASE
  2

  9
$PUCSNAME
  2

  9
$PUCSORG
 10
0.0
 20
0.0
 30
0.0
  9
$PUCSXDIR
 10
1.0
 20
0.0
 30
0.0
  9
$PUCSYDIR
 10
0.0
 20
1.0
 30
0.0
  9
$PUCSORTHOREF
  2

  9
$PUCSORTHOVIEW
 70
     0
  9
$PUCSORGTOP
 10
0.0
 20
0.0
 30
0.0
  9
$PUCSORGBOTTOM
 10
0.0
 20
0.0
 30
0.0
  9
$PUCSORGLEFT
 10
0.0
 20
0.0
 30
0.0
  9
$PUCSORGRIGHT
 10
0.0
 20
0.0
 30
0.0
  9
$PUCSORGFRONT
 10
0.0
 20
0.0
 30
0.0
  9
$PUCSORGBACK
 10
0.0
 20
0.0
 30
0.0
  9
$USERI1
 70
     0
  9
$USERI2
 70
     0
  9
$USERI3
 70
     0
  9
$USERI4
 70
     0
  9
$USERI5
 70
     0
  9
$USERR1
 40
0.0
  9
$USERR2
 40
0.0
  9
$USERR3
 40
0.0
  9
$USERR4
 40
0.0
  9
$USERR5
 40
0.0
  9
$WORLDVIEW
 70
     1
  9
$SHADEDGE
 70
     3
  9
$SHADEDIF
 70
    70
  9
$TILEMODE
 70
     1
  9
$MAXACTVP
 70
    64
  9
$PINSBASE
 10
0.0
 20
0.0
 30
0.0
  9
$PLIMCHECK
 70
     0
  9
$PEXTMIN
 10
1.000000000000000E+20
 20
1.000000000000000E+20
 30
1.000000000000000E+20
  9
$PEXTMAX
 10
-1.000000000000000E+20
 20
-1.000000000000000E+20
 30
-1.000000000000000E+20
  9
$PLIMMIN
 10
0.0
 20
0.0
  9
$PLIMMAX
 10
0.0
 20
0.0
  9
$UNITMODE
 70
     0
  9
$VISRETAIN
 70
     1
  9
$PLINEGEN
 70
     0
  9
$PSLTSCALE
 70
     1
  9
$TREEDEPTH
 70
  3020
  9
$CMLSTYLE
  2
Standard
  9
$CMLJUST
 70
     0
  9
$CMLSCALE
 40
20.0
  9
$PROXYGRAPHICS
 70
     1
  9
$MEASUREMENT
 70
     1
  9
$CELWEIGHT
370
    -1
  9
$ENDCAPS
280
     0
  9
$JOINSTYLE
280
     0
  9
$LWDISPLAY
290
     1
  9
$INSUNITS
 70
     4
  9
$HYPERLINKBASE
  1

  9
$STYLESHEET
  1

  9
$XEDIT
290
     1
  9
$CEPSNTYPE
380
     0
  9
$PSTYLEMODE
290
     1
  9
$FINGERPRINTGUID
  2
{66B2A6B9-8B4F-4DFE-8D14-16A8C2998012}
  9
$VERSIONGUID
  2
{FAEB1C32-E019-11D5-929B-00C0DF256EC4}
  9
$EXTNAMES
290
     1
  9
$PSVPSCALE
 40
0.0
  9
$OLESTARTUP
290
     0
  0
ENDSEC
  0
SECTION
  2
CLASSES
  0
CLASS
  1
ACDBDICTIONARYWDFLT
  2
AcDbDictionaryWithDefault
  3
ObjectDBX Classes
 90
        0
280
     0
281
     0
  0
CLASS
  1
VISUALSTYLE
  2
AcDbVisualStyle
  3
ObjectDBX Classes
 90
     4095
280
     0
281
     0
  0
CLASS
  1
MATERIAL
  2
AcDbMaterial
  3
ObjectDBX Classes
 90
     1153
280
     0
281
     0
  0
CLASS
  1
SCALE
  2
AcDbScale
  3
ObjectDBX Classes
 90
     1153
280
     0
281
     0
  0
CLASS
  1
SUN
  2
AcDbSun
  3
SCENEOE
 90
     1153
280
     0
281
     0
  0
CLASS
  1
ACDBPLACEHOLDER
  2
AcDbPlaceHolder
  3
ObjectDBX Classes
 90
        0
280
     0
281
     0
  0
CLASS
  1
LAYOUT
  2
AcDbLayout
  3
ObjectDBX Classes
 90
        0
280
     0
281
     0
  0
CLASS
  1
TABLESTYLE
  2
AcDbTableStyle
  3
ObjectDBX Classes
 90
     4095
280
     0
281
     0
  0
CLASS
  1
MLEADERSTYLE
  2
AcDbMLeaderStyle
  3
ACDB_MLEADERSTYLE_CLASS
 90
     4095
280
     0
281
     0
  0
CLASS
  1
RASTERVARIABLES
  2
AcDbRasterVariables
  3
ISM
 90
        0
280
     0
281
     0
  0
ENDSEC
  0
SECTION
  2
TABLES
  0
TABLE
  2
VPORT
  5
8
330
0
100
AcDbSymbolTable
 70
     1
  0
VPORT
  5
29
330
8
100
AcDbSymbolTableRecord
100
AcDbViewportTableRecord
  2
*Active
 70
     0
 10
0.0
 20
0.0
 11
1.0
 21
1.0
 12
-17.8097478161238
 22
-13.65794015019995
 13
0.0
 23
0.0
 14
10.0
 24
10.0
 15
10.0
 25
10.0
 16
0.0
 26
0.0
 36
1.0
 17
0.0
 27
0.0
 37
0.0
 40
114.4961674846591
 41
1.632093933463796
 42
50.0
 43
0.0
 44
0.0
 50
0.0
 51
0.0
 71
    16
 72
  2000
 73
     1
 74
     3
 75
     0
 76
     0
 77
     0
 78
     0
281
     0
 65
     1
110
0.0
120
0.0
130
0.0
111
1.0
121
0.0
131
0.0
112
0.0
122
1.0
132
0.0
 79
     0
146
0.0
  0
ENDTAB
  0
TABLE
  2
LTYPE
  5
5
330
0
100
AcDbSymbolTable
 70
     6
  0
LTYPE
  5
14
330
5
100
AcDbSymbolTableRecord
100
AcDbLinetypeTableRecord
  2
ByBlock
 70
     0
  3

 72
    65
 73
     0
 40
0.0
  0
LTYPE
  5
15
330
5
100
AcDbSymbolTableRecord
100
AcDbLinetypeTableRecord
  2
ByLayer
 70
     0
  3

 72
    65
 73
     0
 40
0.0
  0
LTYPE
  5
16
330
5
100
AcDbSymbolTableRecord
100
AcDbLinetypeTableRecord
  2
Continuous
 70
     0
  3
Solid line
 72
    65
 73
     0
 40
0.0
  0
LTYPE
  5
6A
330
5
100
AcDbSymbolTableRecord
100
AcDbLinetypeTableRecord
  2
HIDDEN
 70
     0
  3
Hidden __ __ __ __ __ __ __ __ __ __ __ __ __ __
 72
    65
 73
     2
 40
1.905
 49
1.27
 74
     0
 49
-0.635
 74
     0
  0
LTYPE
  5
6B
330
5
100
AcDbSymbolTableRecord
100
AcDbLinetypeTableRecord
  2
PHANTOM
 70
     0
  3
Phantom ______  __  __  ______  __  __  ______
 72
    65
 73
     6
 40
12.7
 49
6.35
 74
     0
 49
-1.27
 74
     0
 49
1.27
 74
     0
 49
-1.27
 74
     0
 49
1.27
 74
     0
 49
-1.27
 74
     0
  0
LTYPE
  5
6C
330
5
100
AcDbSymbolTableRecord
100
AcDbLinetypeTableRecord
  2
CENTER
 70
     0
  3
Center ____ _ ____ _ ____ _ ____ _ ____ _ ____
 72
    65
 73
     4
 40
10.16
 49
6.35
 74
     0
 49
-1.27
 74
     0
 49
1.27
 74
     0
 49
-1.27
 74
     0
  0
LTYPE
  5
6D
330
5
100
AcDbSymbolTableRecord
100
AcDbLinetypeTableRecord
  2
CENTERX2
 70
     0
  3
Center (2x) ________  __  ________  __  _____
 72
    65
 73
     4
 40
20.32
 49
12.7
 74
     0
 49
-2.54
 74
     0
 49
2.54
 74
     0
 49
-2.54
 74
     0
  0
LTYPE
  5
6E
330
5
100
AcDbSymbolTableRecord
100
AcDbLinetypeTableRecord
  2
DOT2
 70
     0
  3
Dot (.5x) ........................................
 72
    65
 73
     2
 40
0.635
 49
0.0
 74
     0
 49
-0.635
 74
     0
  0
ENDTAB
  0
TABLE
  2
LAYER
  5
2
102
{ACAD_XDICTIONARY
360
17B
102
}
330
0
100
AcDbSymbolTable
 70
    18
  0
LAYER
  5
10
330
2
100
AcDbSymbolTableRecord
100
AcDbLayerTableRecord
  2
0
 70
     0
 62
     7
  6
Continuous
370
    -3
390
F
  0
LAYER
  5
6F
330
2
100
AcDbSymbolTableRecord
100
AcDbLayerTableRecord
  2
FORMAT
 70
     0
 62
     2
  6
Continuous
370
    -3
390
F
  0
LAYER
  5
70
330
2
100
AcDbSymbolTableRecord
100
AcDbLayerTableRecord
  2
외형선
 70
     0
 62
     4
  6
Continuous
370
    30
390
F
  0
LAYER
  5
71
330
2
100
AcDbSymbolTableRecord
100
AcDbLayerTableRecord
  2
숨은선
 70
     0
 62
     2
  6
HIDDEN
370
    15
390
F
  0
LAYER
  5
72
330
2
100
AcDbSymbolTableRecord
100
AcDbLayerTableRecord
  2
중심선
 70
     0
 62
     1
  6
CENTERX2
370
    -3
390
F
  0
LAYER
  5
73
330
2
100
AcDbSymbolTableRecord
100
AcDbLayerTableRecord
  2
파단선
 70
     0
 62
     4
  6
Continuous
370
    -3
390
F
  0
LAYER
  5
74
330
2
100
AcDbSymbolTableRecord
100
AcDbLayerTableRecord
  2
해칭선
 70
     0
 62
   100
  6
Continuous
370
    -3
390
F
  0
LAYER
  5
75
330
2
100
AcDbSymbolTableRecord
100
AcDbLayerTableRecord
  2
가는실선
 70
     0
 62
     4
  6
Continuous
370
    -3
390
F
  0
LAYER
  5
76
330
2
100
AcDbSymbolTableRecord
100
AcDbLayerTableRecord
  2
치수_보조선
 70
     0
 62
     4
  6
Continuous
370
    -3
390
F
  0
LAYER
  5
77
330
2
100
AcDbSymbolTableRecord
100
AcDbLayerTableRecord
  2
치수문자_일반주서
 70
     0
 62
     7
  6
Continuous
370
    15
390
F
  0
LAYER
  5
78
330
2
100
AcDbSymbolTableRecord
100
AcDbLayerTableRecord
  2
개별주서
 70
     0
 62
   100
  6
Continuous
370
    30
390
F
  0
LAYER
  5
79
330
2
100
AcDbSymbolTableRecord
100
AcDbLayerTableRecord
  2
중간선
 70
     0
 62
     2
  6
Continuous
370
    15
390
F
  0
LAYER
  5
7A
330
2
100
AcDbSymbolTableRecord
100
AcDbLayerTableRecord
  2
윤곽선
 70
     0
 62
     3
  6
Continuous
370
    40
390
F
  0
LAYER
  5
7B
330
2
100
AcDbSymbolTableRecord
100
AcDbLayerTableRecord
  2
중심마크
 70
     0
 62
   100
  6
Continuous
370
    30
390
F
  0
LAYER
  5
7C
330
2
100
AcDbSymbolTableRecord
100
AcDbLayerTableRecord
  2
가상선
 70
     0
 62
     4
  6
PHANTOM
370
    -3
390
F
  0
LAYER
  5
7D
330
2
100
AcDbSymbolTableRecord
100
AcDbLayerTableRecord
  2
특수지정선
 70
     0
 62
     5
  6
CENTERX2
370
    60
390
F
  0
LAYER
  5
7E
330
2
100
AcDbSymbolTableRecord
100
AcDbLayerTableRecord
  2
참조1
 70
     0
 62
    -4
  6
Continuous
370
    -3
390
F
  0
LAYER
  5
182
330
2
100
AcDbSymbolTableRecord
100
AcDbLayerTableRecord
  2
Defpoints
 70
     0
 62
     7
  6
Continuous
290
     0
370
    -3
390
F
  0
ENDTAB
  0
TABLE
  2
STYLE
  5
3
330
0
100
AcDbSymbolTable
 70
     2
  0
STYLE
  5
11
330
3
100
AcDbSymbolTableRecord
100
AcDbTextStyleTableRecord
  2
Standard
 70
     0
 40
0.0
 41
1.0
 50
0.0
 71
     0
 42
3.5
  3
txt
  4

  0
STYLE
  5
94
330
3
100
AcDbSymbolTableRecord
100
AcDbTextStyleTableRecord
  2
SLDTEXTSTYLE0
 70
     0
 40
0.0
 41
0.75
 50
0.0
 71
     0
 42
3.5
  3
TXT
  4

  0
ENDTAB
  0
TABLE
  2
VIEW
  5
6
330
0
100
AcDbSymbolTable
 70
     0
  0
ENDTAB
  0
TABLE
  2
UCS
  5
7
330
0
100
AcDbSymbolTable
 70
     0
  0
ENDTAB
  0
TABLE
  2
APPID
  5
9
330
0
100
AcDbSymbolTable
 70
     1
  0
APPID
  5
12
330
9
100
AcDbSymbolTableRecord
100
AcDbRegAppTableRecord
  2
ACAD
 70
     0
  0
ENDTAB
  0
TABLE
  2
DIMSTYLE
  5
A
330
0
100
AcDbSymbolTable
 70
     3
100
AcDbDimStyleTable
  0
DIMSTYLE
105
27
330
A
100
AcDbSymbolTableRecord
100
AcDbDimStyleTableRecord
  2
ISO-25
 70
     0
 41
2.5
 42
0.625
 43
3.75
 44
1.25
 73
     0
 74
     0
 77
     1
 78
     8
140
2.5
141
2.5
143
0.03937007874016
147
0.625
171
     3
172
     1
178
     0
271
     2
272
     2
274
     3
278
    44
283
     0
284
     8
340
11
  0
DIMSTYLE
105
D3
102
{ACAD_REACTORS
330
D2
330
10F
330
E7
330
FC
102
}
330
A
100
AcDbSymbolTableRecord
100
AcDbDimStyleTableRecord
  2
SLDDIMSTYLE0
 70
     0
 41
3.302
 44
0.0
 45
0.000000001
 73
     0
 74
     0
 77
     1
 78
    12
 79
     3
140
3.5
143
0.0393700787401575
147
0.875
148
0.000000001
170
     1
172
     1
173
     1
178
     0
271
     2
272
     2
276
     2
284
    12
289
     0
340
94
  0
DIMSTYLE
105
E8
330
A
100
AcDbSymbolTableRecord
100
AcDbDimStyleTableRecord
  2
SLDDIMSTYLE1
 70
     0
 41
3.302
 44
0.0
 45
0.000000001
 73
     0
 74
     0
 77
     1
 78
    12
 79
     3
140
3.5
143
0.0393700787401575
147
0.875
148
0.000000001
170
     1
173
     1
178
     0
271
     2
272
     2
276
     2
284
    12
340
94
  0
ENDTAB
  0
TABLE
  2
BLOCK_RECORD
  5
1
330
0
100
AcDbSymbolTable
 70
    13
  0
BLOCK_RECORD
  5
1F
330
1
100
AcDbSymbolTableRecord
100
AcDbBlockTableRecord
  2
*Model_Space
340
22
  0
BLOCK_RECORD
  5
1B
330
1
100
AcDbSymbolTableRecord
100
AcDbBlockTableRecord
  2
*Paper_Space
340
1E
  0
BLOCK_RECORD
  5
23
330
1
100
AcDbSymbolTableRecord
100
AcDbBlockTableRecord
  2
*Paper_Space0
340
26
  0
BLOCK_RECORD
  5
7F
330
1
100
AcDbSymbolTableRecord
100
AcDbBlockTableRecord
  2
블럭10
340
0
102
{BLKREFS
331
CB
102
}
  0
BLOCK_RECORD
  5
D4
330
1
100
AcDbSymbolTableRecord
100
AcDbBlockTableRecord
  2
_D
340
0
  0
BLOCK_RECORD
  5
E9
330
1
100
AcDbSymbolTableRecord
100
AcDbBlockTableRecord
  2
_D_1
340
0
  0
BLOCK_RECORD
  5
FD
330
1
100
AcDbSymbolTableRecord
100
AcDbBlockTableRecord
  2
_D_2
340
0
  0
BLOCK_RECORD
  5
110
330
1
100
AcDbSymbolTableRecord
100
AcDbBlockTableRecord
  2
_D_3
340
0
  0
BLOCK_RECORD
  5
12A
330
1
100
AcDbSymbolTableRecord
100
AcDbBlockTableRecord
  2
SW_DOWELSYMBOL_0
340
0
102
{BLKREFS
331
130
102
}
  0
BLOCK_RECORD
  5
424
330
1
100
AcDbSymbolTableRecord
100
AcDbBlockTableRecord
  2
*D7
340
0
  0
BLOCK_RECORD
  5
433
330
1
100
AcDbSymbolTableRecord
100
AcDbBlockTableRecord
  2
*D8
340
0
  0
BLOCK_RECORD
  5
442
330
1
100
AcDbSymbolTableRecord
100
AcDbBlockTableRecord
  2
*D9
340
0
  0
BLOCK_RECORD
  5
480
330
1
100
AcDbSymbolTableRecord
100
AcDbBlockTableRecord
  2
*D10
340
0
  0
BLOCK_RECORD
  5
48F
330
1
100
AcDbSymbolTableRecord
100
AcDbBlockTableRecord
  2
*D11
340
0
  0
BLOCK_RECORD
  5
49E
330
1
100
AcDbSymbolTableRecord
100
AcDbBlockTableRecord
  2
*D12
340
0
  0
ENDTAB
  0
ENDSEC
  0
SECTION
  2
BLOCKS
  0
BLOCK
  5
20
330
1F
100
AcDbEntity
  8
0
100
AcDbBlockBegin
  2
*Model_Space
 70
     0
 10
0.0
 20
0.0
 30
0.0
  3
*Model_Space
  1
*Model_Space
  0
ENDBLK
  5
21
330
1F
100
AcDbEntity
  8
0
100
AcDbBlockEnd
  0
BLOCK
  5
1C
330
1B
100
AcDbEntity
 67
     1
  8
0
100
AcDbBlockBegin
  2
*Paper_Space
 70
     0
 10
0.0
 20
0.0
 30
0.0
  3
*Paper_Space
  1
*Paper_Space
  0
ENDBLK
  5
1D
330
1B
100
AcDbEntity
 67
     1
  8
0
100
AcDbBlockEnd
  0
BLOCK
  5
24
330
23
100
AcDbEntity
  8
0
100
AcDbBlockBegin
  2
*Paper_Space0
 70
     0
 10
0.0
 20
0.0
 30
0.0
  3
*Paper_Space0
  1
*Paper_Space0
  0
ENDBLK
  5
25
330
23
100
AcDbEntity
  8
0
100
AcDbBlockEnd
  0
BLOCK
  5
80
330
7F
100
AcDbEntity
  8
0
100
AcDbBlockBegin
  2
블럭10
 70
     2
 10
0.0
 20
0.0
 30
0.0
  3
블럭10
  1
블럭10
  0
ELLIPSE
  5
82
330
7F
100
AcDbEntity
  8
중심선
100
AcDbEllipse
 10
20.54032771741204
 20
12.0471743016438
 30
0.0
 11
6.600054785286829
 21
-1.261213355974178E-13
 31
0.0
210
0.0
220
0.0
230
1.0
 40
0.636358354079598
 41
0.9219305317359503
 42
6.513795318482858
  0
ELLIPSE
  5
83
330
7F
100
AcDbEntity
  8
중심선
100
AcDbEllipse
 10
20.54032771746488
 20
12.04717430159265
 30
0.0
 11
3.960054785062283
 21
1.540847449632565E-10
 31
0.0
210
0.0
220
0.0
230
1.0
 40
0.3939339440162632
 41
1.131841032648279
 42
5.62031148352944
  0
LINE
  5
84
330
7F
100
AcDbEntity
  8
중심선
100
AcDbLine
 10
2.268634060543552
 20
16.24717430164393
 30
0.0
 11
5.714909304380834
 21
16.24717430164393
 31
0.0
  0
LINE
  5
85
330
7F
100
AcDbEntity
  8
중심선
100
AcDbLine
 10
5.245725140726316
 20
7.84717430164391
 30
0.0
 11
8.692000384563599
 21
7.84717430164391
 31
0.0
  0
LINE
  5
86
330
7F
100
AcDbEntity
  8
중심선
100
AcDbLine
 10
15.74043728645272
 20
16.24717430164393
 30
0.0
 11
8.692000384563599
 21
7.84717430164391
 31
0.0
  0
LINE
  5
87
330
7F
100
AcDbEntity
  8
중심선
100
AcDbLine
 10
0.1404042013395286
 20
13.71084872107135
 30
0.0
 11
3.58671253028996
 21
13.71088815037384
 31
0.0
  0
LINE
  5
88
330
7F
100
AcDbEntity
  8
중심선
100
AcDbLine
 10
2.750260043222114
 20
10.84717430164391
 30
0.0
 11
6.196535287059397
 21
10.84717430164391
 31
0.0
  0
LINE
  5
89
330
7F
100
AcDbEntity
  8
중심선
100
AcDbLine
 10
12.29416204261559
 20
16.24717430164393
 30
0.0
 11
5.245725140726316
 21
7.84717430164391
 31
0.0
  0
LINE
  5
8A
330
7F
100
AcDbEntity
  8
중심선
100
AcDbLine
 10
10.72767329541681
 20
16.24717430164393
 30
0.0
 11
6.196535287059397
 21
10.84717430164391
 31
0.0
  0
LINE
  5
8B
330
7F
100
AcDbEntity
  8
중심선
100
AcDbLine
 10
7.28139805157953
 20
16.24717430164393
 30
0.0
 11
2.750260043222114
 21
10.84717430164391
 31
0.0
  0
LINE
  5
8C
330
7F
100
AcDbEntity
  8
중심선
100
AcDbLine
 10
5.714909304380834
 20
16.24717430164393
 30
0.0
 11
3.58671253028996
 21
13.71088815037384
 31
0.0
  0
LINE
  5
8D
330
7F
100
AcDbEntity
  8
중심선
100
AcDbLine
 10
2.268634060543552
 20
16.24717430164393
 30
0.0
 11
0.1404042013395286
 21
13.71084872107135
 31
0.0
  0
LINE
  5
8E
330
7F
100
AcDbEntity
  8
중심선
100
AcDbLine
 10
7.28139805157953
 20
16.24717430164393
 30
0.0
 11
10.72767329541681
 21
16.24717430164393
 31
0.0
  0
LINE
  5
8F
330
7F
100
AcDbEntity
  8
중심선
100
AcDbLine
 10
12.29416204261559
 20
16.24717430164393
 30
0.0
 11
15.74043728645272
 21
16.24717430164393
 31
0.0
  0
LINE
  5
90
330
7F
100
AcDbEntity
  8
중심선
100
AcDbLine
 10
19.22036997980202
 20
11.08717430171403
 30
0.0
 11
23.66174974927406
 21
11.08717430171406
 31
0.0
  0
LINE
  5
91
330
7F
100
AcDbEntity
  8
중심선
100
AcDbLine
 10
19.22039502424796
 20
13.00717430171391
 30
0.0
 11
19.22036997980202
 21
11.08717430171403
 31
0.0
  0
LINE
  5
92
330
7F
100
AcDbEntity
  8
중심선
100
AcDbLine
 10
19.22039502424796
 20
13.00717430171391
 30
0.0
 11
26.96566020931264
 21
13.00717430171391
 31
0.0
  0
LINE
  5
93
330
7F
100
AcDbEntity
  8
중심선
100
AcDbLine
 10
22.22332737316547
 20
13.45928029700563
 30
0.0
 11
24.52862924686651
 21
15.39360700705356
 31
0.0
  0
ATTDEF
  5
95
330
7F
100
AcDbEntity
  8
FORMAT
 62
     2
100
AcDbText
 10
4.408487351596664
 20
2.075366912832191
 30
0.0
 40
4.233333333333333
  1
E1053009
 41
0.75
  7
SLDTEXTSTYLE0
 11
4.408487351596664
 21
-0.0412997538344756
 31
0.0
100
AcDbAttributeDefinition
  3

  2
AUTOATTR0
 70
     0
 74
     1
  0
ENDBLK
  5
81
330
7F
100
AcDbEntity
  8
0
100
AcDbBlockEnd
  0
BLOCK
  5
D5
330
D4
100
AcDbEntity
  8
0
100
AcDbBlockBegin
  2
_D
 70
     0
 10
0.0
 20
0.0
 30
0.0
  3
_D
  1
_D
  0
LINE
  5
D7
330
D4
100
AcDbEntity
  8
치수문자_일반주서
 62
     0
370
    -2
100
AcDbLine
 10
39.75
 20
1.785937500000005
 30
0.0
 11
56.03491984972072
 21
1.785937500000067
 31
0.0
  0
LINE
  5
D8
330
D4
100
AcDbEntity
  8
치수문자_일반주서
 62
     0
370
    -2
100
AcDbLine
 10
39.75000000000003
 20
-1.785937499999995
 30
0.0
 11
56.03491984972074
 21
-1.785937499999935
 31
0.0
  0
LINE
  5
D9
330
D4
100
AcDbEntity
  8
치수문자_일반주서
 62
     0
370
    -2
100
AcDbLine
 10
56.03491984972072
 20
1.785937500000067
 30
0.0
 11
56.03491984972058
 21
37.26493750000007
 31
0.0
  0
LINE
  5
DA
330
D4
100
AcDbEntity
  8
치수문자_일반주서
 62
     0
370
    -2
100
AcDbLine
 10
56.03491984972072
 20
1.785937500000067
 30
0.0
 11
56.03491984972074
 21
-1.785937499999935
 31
0.0
  0
LINE
  5
DB
330
D4
100
AcDbEntity
  8
치수문자_일반주서
 62
     0
370
    -2
100
AcDbLine
 10
56.03491984972071
 20
5.087937500000066
 30
0.0
 11
56.03491984972069
 21
8.389937500000066
 31
0.0
  0
LINE
  5
DC
330
D4
100
AcDbEntity
  8
치수문자_일반주서
 62
     0
370
    -2
100
AcDbLine
 10
56.03491984972075
 20
-5.087937499999935
 30
0.0
 11
56.03491984972077
 21
-8.389937499999935
 31
0.0
  0
SOLID
  5
DD
330
D4
100
AcDbEntity
  8
치수문자_일반주서
 62
     0
100
AcDbTrace
 10
55.48458651638737
 20
5.087937500000065
 30
0.0
 11
56.58525318305404
 21
5.087937500000068
 31
0.0
 12
56.03491984972072
 22
1.785937500000067
 32
0.0
 13
56.03491984972072
 23
1.785937500000067
 33
0.0
  0
SOLID
  5
DE
330
D4
100
AcDbEntity
  8
치수문자_일반주서
 62
     0
100
AcDbTrace
 10
56.58525318305409
 20
-5.087937499999933
 30
0.0
 11
55.48458651638742
 21
-5.087937499999937
 31
0.0
 12
56.03491984972074
 22
-1.785937499999935
 32
0.0
 13
56.03491984972074
 23
-1.785937499999935
 33
0.0
  0
MTEXT
  5
DF
330
D4
100
AcDbEntity
  8
치수문자_일반주서
 62
     0
100
AcDbMText
 10
51.65991984972064
 20
22.82743750000005
 30
0.0
 40
3.5
 41
0.0
 71
     2
 72
     1
  1
\A1;%%c3.57 [9/64]
  7
SLDTEXTSTYLE0
 11
-3.978542002506247E-15
 21
1.0
 31
0.0
 73
     1
 44
1.0
  0
POINT
  5
E0
330
D4
100
AcDbEntity
  8
Defpoints
 62
     0
100
AcDbPoint
 10
39.6875
 20
1.785937500000005
 30
0.0
  0
POINT
  5
E1
330
D4
100
AcDbEntity
  8
Defpoints
 62
     0
100
AcDbPoint
 10
39.68750000000003
 20
-1.785937499999995
 30
0.0
  0
POINT
  5
E2
330
D4
100
AcDbEntity
  8
Defpoints
 62
     0
100
AcDbPoint
 10
56.03491984972074
 20
-1.785937499999934
 30
0.0
  0
ENDBLK
  5
D6
330
D4
100
AcDbEntity
  8
0
100
AcDbBlockEnd
  0
BLOCK
  5
EA
330
E9
100
AcDbEntity
  8
0
100
AcDbBlockBegin
  2
_D_1
 70
     0
 10
0.0
 20
0.0
 30
0.0
  3
_D_1
  1
_D_1
  0
LINE
  5
EC
330
E9
100
AcDbEntity
  8
치수문자_일반주서
 62
     0
370
    -2
100
AcDbLine
 10
39.6875
 20
1.848437500000005
 30
0.0
 11
39.6875
 21
18.08012021000376
 31
0.0
  0
LINE
  5
ED
330
E9
100
AcDbEntity
  8
치수문자_일반주서
 62
     0
370
    -2
100
AcDbLine
 10
28.57499999999998
 20
1.597355894158489
 30
0.0
 11
28.57499999999998
 21
18.08012021000376
 31
0.0
  0
LINE
  5
EE
330
E9
100
AcDbEntity
  8
치수문자_일반주서
 62
     0
370
    -2
100
AcDbLine
 10
28.57499999999998
 20
18.08012021000376
 30
0.0
 11
-2.529000000000018
 21
18.08012021000376
 31
0.0
  0
LINE
  5
EF
330
E9
100
AcDbEntity
  8
치수문자_일반주서
 62
     0
370
    -2
100
AcDbLine
 10
39.6875
 20
18.08012021000376
 30
0.0
 11
28.57499999999998
 21
18.08012021000376
 31
0.0
  0
LINE
  5
F0
330
E9
100
AcDbEntity
  8
치수문자_일반주서
 62
     0
370
    -2
100
AcDbLine
 10
42.9895
 20
18.08012021000376
 30
0.0
 11
46.2915
 21
18.08012021000376
 31
0.0
  0
LINE
  5
F1
330
E9
100
AcDbEntity
  8
치수문자_일반주서
 62
     0
370
    -2
100
AcDbLine
 10
25.27299999999998
 20
18.08012021000376
 30
0.0
 11
21.97099999999998
 21
18.08012021000376
 31
0.0
  0
SOLID
  5
F2
330
E9
100
AcDbEntity
  8
치수문자_일반주서
 62
     0
100
AcDbTrace
 10
42.9895
 20
18.63045354333709
 30
0.0
 11
42.9895
 21
17.52978687667042
 31
0.0
 12
39.6875
 22
18.08012021000376
 32
0.0
 13
39.6875
 23
18.08012021000376
 33
0.0
  0
SOLID
  5
F3
330
E9
100
AcDbEntity
  8
치수문자_일반주서
 62
     0
100
AcDbTrace
 10
25.27299999999998
 20
17.52978687667042
 30
0.0
 11
25.27299999999998
 21
18.63045354333709
 31
0.0
 12
28.57499999999998
 22
18.08012021000376
 32
0.0
 13
28.57499999999998
 23
18.08012021000376
 33
0.0
  0
MTEXT
  5
F4
330
E9
100
AcDbEntity
  8
치수문자_일반주서
 62
     0
100
AcDbMText
 10
9.720999999999982
 20
22.45512021000376
 30
0.0
 40
3.5
 41
0.0
 71
     2
 72
     1
  1
\A1;11.11 [7/16]
  7
SLDTEXTSTYLE0
 73
     1
 44
1.0
  0
POINT
  5
F5
330
E9
100
AcDbEntity
  8
Defpoints
 62
     0
100
AcDbPoint
 10
39.6875
 20
1.785937500000005
 30
0.0
  0
POINT
  5
183
330
E9
100
AcDbEntity
  8
Defpoints
 62
     0
100
AcDbPoint
 10
28.57499999999998
 20
1.534855894158489
 30
0.0
  0
POINT
  5
184
330
E9
100
AcDbEntity
  8
Defpoints
 62
     0
100
AcDbPoint
 10
28.57499999999998
 20
18.08012021000376
 30
0.0
  0
ENDBLK
  5
EB
330
E9
100
AcDbEntity
  8
0
100
AcDbBlockEnd
  0
BLOCK
  5
FE
330
FD
100
AcDbEntity
  8
0
100
AcDbBlockBegin
  2
_D_2
 70
     0
 10
0.0
 20
0.0
 30
0.0
  3
_D_2
  1
_D_2
  0
LINE
  5
100
330
FD
100
AcDbEntity
  8
치수문자_일반주서
 62
     0
370
    -2
100
AcDbLine
 10
39.6875
 20
1.848437500000005
 30
0.0
 11
39.6875
 21
31.82431543062833
 31
0.0
  0
LINE
  5
101
330
FD
100
AcDbEntity
  8
치수문자_일반주서
 62
     0
370
    -2
100
AcDbLine
 10
-39.68750000000006
 20
1.848437500000004
 30
0.0
 11
-39.68750000000006
 21
31.82431543062833
 31
0.0
  0
LINE
  5
102
330
FD
100
AcDbEntity
  8
치수문자_일반주서
 62
     0
370
    -2
100
AcDbLine
 10
36.3855
 20
31.82431543062833
 30
0.0
 11
-36.38550000000006
 21
31.82431543062833
 31
0.0
  0
SOLID
  5
103
330
FD
100
AcDbEntity
  8
치수문자_일반주서
 62
     0
100
AcDbTrace
 10
36.3855
 20
31.273982097295
 30
0.0
 11
36.3855
 21
32.37464876396167
 31
0.0
 12
39.6875
 22
31.82431543062833
 32
0.0
 13
39.6875
 23
31.82431543062833
 33
0.0
  0
SOLID
  5
104
330
FD
100
AcDbEntity
  8
치수문자_일반주서
 62
     0
100
AcDbTrace
 10
-36.38550000000006
 20
32.37464876396167
 30
0.0
 11
-36.38550000000006
 21
31.273982097295
 31
0.0
 12
-39.68750000000006
 22
31.82431543062833
 32
0.0
 13
-39.68750000000006
 23
31.82431543062833
 33
0.0
  0
MTEXT
  5
105
330
FD
100
AcDbEntity
  8
치수문자_일반주서
 62
     0
100
AcDbMText
 10
-2.025249286279307
 20
36.19931543062833
 30
0.0
 40
3.5
 41
0.0
 71
     2
 72
     1
  1
\A1;79.38 [3 1/8]
  7
SLDTEXTSTYLE0
 73
     1
 44
1.0
  0
POINT
  5
106
330
FD
100
AcDbEntity
  8
Defpoints
 62
     0
100
AcDbPoint
 10
39.6875
 20
1.785937500000005
 30
0.0
  0
POINT
  5
107
330
FD
100
AcDbEntity
  8
Defpoints
 62
     0
100
AcDbPoint
 10
-39.68750000000006
 20
1.785937500000004
 30
0.0
  0
POINT
  5
108
330
FD
100
AcDbEntity
  8
Defpoints
 62
     0
100
AcDbPoint
 10
-39.68750000000006
 20
31.82431543062833
 30
0.0
  0
ENDBLK
  5
FF
330
FD
100
AcDbEntity
  8
0
100
AcDbBlockEnd
  0
BLOCK
  5
111
330
110
100
AcDbEntity
  8
0
100
AcDbBlockBegin
  2
_D_3
 70
     0
 10
0.0
 20
0.0
 30
0.0
  3
_D_3
  1
_D_3
  0
LINE
  5
113
330
110
100
AcDbEntity
  8
치수문자_일반주서
 62
     0
370
    -2
100
AcDbLine
 10
-16.52881751809579
 20
4.762500000000018
 30
0.0
 11
-52.21125000000002
 21
4.762499999999885
 31
0.0
  0
LINE
  5
114
330
110
100
AcDbEntity
  8
치수문자_일반주서
 62
     0
370
    -2
100
AcDbLine
 10
-16.52881751809573
 20
-4.762500000000004
 30
0.0
 11
-52.21124999999999
 21
-4.762500000000137
 31
0.0
  0
LINE
  5
115
330
110
100
AcDbEntity
  8
치수문자_일반주서
 62
     0
370
    -2
100
AcDbLine
 10
-52.21125000000001
 20
1.460499999999885
 30
0.0
 11
-52.21125
 21
-1.460500000000137
 31
0.0
  0
SOLID
  5
116
330
110
100
AcDbEntity
  8
치수문자_일반주서
 62
     0
100
AcDbTrace
 10
-51.66091666666667
 20
1.460499999999887
 30
0.0
 11
-52.76158333333334
 21
1.460499999999883
 31
0.0
 12
-52.21125000000002
 22
4.762499999999885
 32
0.0
 13
-52.21125000000002
 23
4.762499999999885
 33
0.0
  0
SOLID
  5
117
330
110
100
AcDbEntity
  8
치수문자_일반주서
 62
     0
100
AcDbTrace
 10
-52.76158333333333
 20
-1.460500000000139
 30
0.0
 11
-51.66091666666667
 21
-1.460500000000135
 31
0.0
 12
-52.21124999999999
 22
-4.762500000000137
 32
0.0
 13
-52.21124999999999
 23
-4.762500000000137
 33
0.0
  0
MTEXT
  5
118
330
110
100
AcDbEntity
  8
치수문자_일반주서
 62
     0
100
AcDbMText
 10
-56.58625000000001
 20
-0.000000000000015
 30
0.0
 40
3.5
 41
0.0
 71
     2
 72
     1
  1
\A1;%%c9.53 [3/8]
  7
SLDTEXTSTYLE0
 11
-3.729883127349599E-15
 21
1.0
 31
0.0
 73
     1
 44
1.0
  0
POINT
  5
119
330
110
100
AcDbEntity
  8
Defpoints
 62
     0
100
AcDbPoint
 10
-16.46631751809579
 20
4.762500000000018
 30
0.0
  0
POINT
  5
11A
330
110
100
AcDbEntity
  8
Defpoints
 62
     0
100
AcDbPoint
 10
-16.46631751809573
 20
-4.762500000000004
 30
0.0
  0
POINT
  5
11B
330
110
100
AcDbEntity
  8
Defpoints
 62
     0
100
AcDbPoint
 10
-52.21124999999999
 20
-4.762500000000137
 30
0.0
  0
ENDBLK
  5
112
330
110
100
AcDbEntity
  8
0
100
AcDbBlockEnd
  0
BLOCK
  5
12B
330
12A
100
AcDbEntity
  8
0
100
AcDbBlockBegin
  2
SW_DOWELSYMBOL_0
 70
     0
 10
0.0
 20
0.0
 30
0.0
  3
SW_DOWELSYMBOL_0
  1
SW_DOWELSYMBOL_0
  0
CIRCLE
  5
12D
330
12A
100
AcDbEntity
  8
해칭선
 62
     0
100
AcDbCircle
 10
0.0
 20
0.0
 30
0.0
 40
3.000000000000008
  0
HATCH
  5
12E
330
12A
100
AcDbEntity
  8
0
  6
Continuous
 62
     0
370
     0
100
AcDbHatch
 10
0.0
 20
0.0
 30
0.0
210
0.0
220
0.0
230
1.0
  2
SOLID
 70
     1
 71
     0
 91
        1
 92
        0
 93
        3
 72
     2
 10
0.0
 20
0.0
 40
3.000000000000008
 50
0.0
 51
90.0
 73
     1
 72
     1
 10
0.0
 20
3.000000000000008
 11
0.0
 21
0.0
 72
     1
 10
0.0
 20
0.0
 11
3.00000000000001
 21
0.0
 97
        0
 75
     0
 76
     1
 98
        1
 10
0.0
 20
0.0
  0
HATCH
  5
12F
330
12A
100
AcDbEntity
  8
0
  6
Continuous
 62
     0
370
     0
100
AcDbHatch
 10
0.0
 20
0.0
 30
0.0
210
0.0
220
0.0
230
1.0
  2
SOLID
 70
     1
 71
     0
 91
        1
 92
        0
 93
        3
 72
     2
 10
0.0
 20
0.0
 40
3.000000000000008
 50
180.0
 51
270.0000000000007
 73
     1
 72
     1
 10
0.0
 20
-3.000000000000008
 11
0.0
 21
0.0
 72
     1
 10
0.0
 20
0.0
 11
-3.000000000000008
 21
0.0
 97
        0
 75
     0
 76
     1
 98
        1
 10
0.0
 20
0.0
  0
ENDBLK
  5
12C
330
12A
100
AcDbEntity
  8
0
100
AcDbBlockEnd
  0
BLOCK
  5
425
330
424
100
AcDbEntity
  8
0
100
AcDbBlockBegin
  2
*D7
 70
     1
 10
0.0
 20
0.0
 30
0.0
  3
*D7
  1
*D9
  0
LINE
  5
427
330
424
100
AcDbEntity
  8
치수문자_일반주서
 62
     0
370
    -2
100
AcDbLine
 10
82.4375
 20
10.61262913279318
 30
0.0
 11
98.72241984972071
 21
10.61262913279324
 31
0.0
  0
LINE
  5
428
330
424
100
AcDbEntity
  8
치수문자_일반주서
 62
     0
370
    -2
100
AcDbLine
 10
82.43750000000003
 20
7.040754132793179
 30
0.0
 11
98.72241984972072
 21
7.040754132793239
 31
0.0
  0
LINE
  5
429
330
424
100
AcDbEntity
  8
치수문자_일반주서
 62
     0
370
    -2
100
AcDbLine
 10
98.72241984972071
 20
10.61262913279324
 30
0.0
 11
98.72241984972058
 21
43.08506151110084
 31
0.0
  0
LINE
  5
42A
330
424
100
AcDbEntity
  8
치수문자_일반주서
 62
     0
370
    -2
100
AcDbLine
 10
98.72241984972071
 20
10.61262913279324
 30
0.0
 11
98.72241984972072
 21
7.040754132793239
 31
0.0
  0
LINE
  5
42B
330
424
100
AcDbEntity
  8
치수문자_일반주서
 62
     0
370
    -2
100
AcDbLine
 10
98.7224198497207
 20
13.91462913279324
 30
0.0
 11
98.72241984972068
 21
17.21662913279324
 31
0.0
  0
LINE
  5
42C
330
424
100
AcDbEntity
  8
치수문자_일반주서
 62
     0
370
    -2
100
AcDbLine
 10
98.72241984972074
 20
3.73875413279324
 30
0.0
 11
98.72241984972075
 21
0.43675413279324
 31
0.0
  0
SOLID
  5
42D
330
424
100
AcDbEntity
  8
치수문자_일반주서
 62
     0
100
AcDbTrace
 10
98.17208651638737
 20
13.91462913279324
 30
0.0
 11
99.27275318305402
 21
13.91462913279324
 31
0.0
 12
98.72241984972071
 22
10.61262913279324
 32
0.0
 13
98.72241984972071
 23
10.61262913279324
 33
0.0
  0
SOLID
  5
42E
330
424
100
AcDbEntity
  8
치수문자_일반주서
 62
     0
100
AcDbTrace
 10
99.27275318305406
 20
3.738754132793242
 30
0.0
 11
98.17208651638741
 21
3.738754132793237
 31
0.0
 12
98.72241984972072
 22
7.040754132793239
 32
0.0
 13
98.72241984972072
 23
7.040754132793239
 33
0.0
  0
MTEXT
  5
42F
330
424
100
AcDbEntity
  8
치수문자_일반주서
 62
     0
100
AcDbMText
 10
94.34741984972064
 20
30.17881151110082
 30
0.0
 40
3.5
 41
0.0
 71
     2
 72
     1
  1
\A1;%%c3.57 [0.14]
  7
SLDTEXTSTYLE0
 11
-3.978542002506246E-15
 21
1.0
 31
0.0
 73
     1
 44
1.0
  0
POINT
  5
430
330
424
100
AcDbEntity
  8
Defpoints
 62
     0
100
AcDbPoint
 10
82.375
 20
10.61262913279318
 30
0.0
  0
POINT
  5
431
330
424
100
AcDbEntity
  8
Defpoints
 62
     0
100
AcDbPoint
 10
82.37500000000003
 20
7.040754132793179
 30
0.0
  0
POINT
  5
432
330
424
100
AcDbEntity
  8
Defpoints
 62
     0
100
AcDbPoint
 10
98.72241984972074
 20
7.04075413279324
 30
0.0
  0
ENDBLK
  5
426
330
424
100
AcDbEntity
  8
0
100
AcDbBlockEnd
  0
BLOCK
  5
434
330
433
100
AcDbEntity
  8
0
100
AcDbBlockBegin
  2
*D8
 70
     1
 10
0.0
 20
0.0
 30
0.0
  3
*D8
  1
*D10
  0
LINE
  5
436
330
433
100
AcDbEntity
  8
치수문자_일반주서
 62
     0
370
    -2
100
AcDbLine
 10
82.375
 20
10.67512913279318
 30
0.0
 11
82.375
 21
26.90681184279693
 31
0.0
  0
LINE
  5
437
330
433
100
AcDbEntity
  8
치수문자_일반주서
 62
     0
370
    -2
100
AcDbLine
 10
71.26249999999999
 20
10.42404752695166
 30
0.0
 11
71.26249999999999
 21
26.90681184279693
 31
0.0
  0
LINE
  5
438
330
433
100
AcDbEntity
  8
치수문자_일반주서
 62
     0
370
    -2
100
AcDbLine
 10
71.26249999999999
 20
26.90681184279693
 30
0.0
 11
41.47099999999999
 21
26.90681184279693
 31
0.0
  0
LINE
  5
439
330
433
100
AcDbEntity
  8
치수문자_일반주서
 62
     0
370
    -2
100
AcDbLine
 10
82.375
 20
26.90681184279693
 30
0.0
 11
71.26249999999999
 21
26.90681184279693
 31
0.0
  0
LINE
  5
43A
330
433
100
AcDbEntity
  8
치수문자_일반주서
 62
     0
370
    -2
100
AcDbLine
 10
85.67699999999999
 20
26.90681184279693
 30
0.0
 11
88.97899999999998
 21
26.90681184279693
 31
0.0
  0
LINE
  5
43B
330
433
100
AcDbEntity
  8
치수문자_일반주서
 62
     0
370
    -2
100
AcDbLine
 10
67.9605
 20
26.90681184279693
 30
0.0
 11
64.6585
 21
26.90681184279693
 31
0.0
  0
SOLID
  5
43C
330
433
100
AcDbEntity
  8
치수문자_일반주서
 62
     0
100
AcDbTrace
 10
85.67699999999999
 20
27.45714517613027
 30
0.0
 11
85.67699999999999
 21
26.3564785094636
 31
0.0
 12
82.375
 22
26.90681184279693
 32
0.0
 13
82.375
 23
26.90681184279693
 33
0.0
  0
SOLID
  5
43D
330
433
100
AcDbEntity
  8
치수문자_일반주서
 62
     0
100
AcDbTrace
 10
67.9605
 20
26.3564785094636
 30
0.0
 11
67.9605
 21
27.45714517613027
 31
0.0
 12
71.26249999999999
 22
26.90681184279693
 32
0.0
 13
71.26249999999999
 23
26.90681184279693
 33
0.0
  0
MTEXT
  5
43E
330
433
100
AcDbEntity
  8
치수문자_일반주서
 62
     0
100
AcDbMText
 10
53.06474999999998
 20
31.28181184279693
 30
0.0
 40
3.5
 41
0.0
 71
     2
 72
     1
  1
\A1;11.11 [0.44]
  7
SLDTEXTSTYLE0
 73
     1
 44
1.0
  0
POINT
  5
43F
330
433
100
AcDbEntity
  8
Defpoints
 62
     0
100
AcDbPoint
 10
82.375
 20
10.61262913279318
 30
0.0
  0
POINT
  5
440
330
433
100
AcDbEntity
  8
Defpoints
 62
     0
100
AcDbPoint
 10
71.26249999999999
 20
10.36154752695166
 30
0.0
  0
POINT
  5
441
330
433
100
AcDbEntity
  8
Defpoints
 62
     0
100
AcDbPoint
 10
71.26249999999999
 20
26.90681184279693
 30
0.0
  0
ENDBLK
  5
435
330
433
100
AcDbEntity
  8
0
100
AcDbBlockEnd
  0
BLOCK
  5
443
330
442
100
AcDbEntity
  8
0
100
AcDbBlockBegin
  2
*D9
 70
     1
 10
0.0
 20
0.0
 30
0.0
  3
*D9
  1
*D11
  0
LINE
  5
445
330
442
100
AcDbEntity
  8
치수문자_일반주서
 62
     0
370
    -2
100
AcDbLine
 10
82.375
 20
10.67512913279318
 30
0.0
 11
82.375
 21
58.1964804540752
 31
0.0
  0
LINE
  5
446
330
442
100
AcDbEntity
  8
치수문자_일반주서
 62
     0
370
    -2
100
AcDbLine
 10
3.000000000000007
 20
12.69919163279317
 30
0.0
 11
3.000000000000007
 21
58.1964804540752
 31
0.0
  0
LINE
  5
447
330
442
100
AcDbEntity
  8
치수문자_일반주서
 62
     0
370
    -2
100
AcDbLine
 10
79.07300000000001
 20
58.1964804540752
 30
0.0
 11
6.302000000000007
 21
58.1964804540752
 31
0.0
  0
SOLID
  5
448
330
442
100
AcDbEntity
  8
치수문자_일반주서
 62
     0
100
AcDbTrace
 10
79.07300000000001
 20
57.64614712074187
 30
0.0
 11
79.07300000000001
 21
58.74681378740853
 31
0.0
 12
82.375
 22
58.1964804540752
 32
0.0
 13
82.375
 23
58.1964804540752
 33
0.0
  0
SOLID
  5
449
330
442
100
AcDbEntity
  8
치수문자_일반주서
 62
     0
100
AcDbTrace
 10
6.302000000000007
 20
58.74681378740853
 30
0.0
 11
6.302000000000007
 21
57.64614712074187
 31
0.0
 12
3.000000000000007
 22
58.1964804540752
 32
0.0
 13
3.000000000000007
 23
58.1964804540752
 33
0.0
  0
MTEXT
  5
44A
330
442
100
AcDbEntity
  8
치수문자_일반주서
 62
     0
100
AcDbMText
 10
40.6622507137207
 20
62.5714804540752
 30
0.0
 40
3.5
 41
0.0
 71
     2
 72
     1
  1
\A1;79.38 [3.13]
  7
SLDTEXTSTYLE0
 73
     1
 44
1.0
  0
POINT
  5
44B
330
442
100
AcDbEntity
  8
Defpoints
 62
     0
100
AcDbPoint
 10
82.375
 20
10.61262913279318
 30
0.0
  0
POINT
  5
44C
330
442
100
AcDbEntity
  8
Defpoints
 62
     0
100
AcDbPoint
 10
3.000000000000007
 20
12.63669163279317
 30
0.0
  0
POINT
  5
44D
330
442
100
AcDbEntity
  8
Defpoints
 62
     0
100
AcDbPoint
 10
3.000000000000007
 20
58.1964804540752
 30
0.0
  0
ENDBLK
  5
444
330
442
100
AcDbEntity
  8
0
100
AcDbBlockEnd
  0
BLOCK
  5
481
330
480
100
AcDbEntity
  8
0
100
AcDbBlockBegin
  2
*D10
 70
     1
 10
0.0
 20
0.0
 30
0.0
  3
*D10
  1
*D12
  0
LINE
  5
483
330
480
100
AcDbEntity
  8
치수문자_일반주서
 62
     0
370
    -2
100
AcDbLine
 10
122.0873565704582
 20
-95.20282094701084
 30
0.0
 11
105.8024367207375
 21
-95.20282094701089
 31
0.0
  0
LINE
  5
484
330
480
100
AcDbEntity
  8
치수문자_일반주서
 62
     0
370
    -2
100
AcDbLine
 10
122.0873565704582
 20
-91.63094594701084
 30
0.0
 11
105.8024367207375
 21
-91.6309459470109
 31
0.0
  0
LINE
  5
485
330
480
100
AcDbEntity
  8
치수문자_일반주서
 62
     0
370
    -2
100
AcDbLine
 10
105.8024367207375
 20
-95.20282094701089
 30
0.0
 11
105.8024367207376
 21
-127.6752533253185
 31
0.0
  0
LINE
  5
486
330
480
100
AcDbEntity
  8
치수문자_일반주서
 62
     0
370
    -2
100
AcDbLine
 10
105.8024367207375
 20
-95.20282094701089
 30
0.0
 11
105.8024367207375
 21
-91.6309459470109
 31
0.0
  0
LINE
  5
487
330
480
100
AcDbEntity
  8
치수문자_일반주서
 62
     0
370
    -2
100
AcDbLine
 10
105.8024367207375
 20
-98.5048209470109
 30
0.0
 11
105.8024367207375
 21
-101.8068209470109
 31
0.0
  0
LINE
  5
488
330
480
100
AcDbEntity
  8
치수문자_일반주서
 62
     0
370
    -2
100
AcDbLine
 10
105.8024367207374
 20
-88.32894594701091
 30
0.0
 11
105.8024367207374
 21
-85.02694594701092
 31
0.0
  0
SOLID
  5
489
330
480
100
AcDbEntity
  8
치수문자_일반주서
 62
     0
100
AcDbTrace
 10
106.3527700540708
 20
-98.5048209470109
 30
0.0
 11
105.2521033874042
 21
-98.5048209470109
 31
0.0
 12
105.8024367207375
 22
-95.20282094701089
 32
0.0
 13
105.8024367207375
 23
-95.20282094701089
 33
0.0
  0
SOLID
  5
48A
330
480
100
AcDbEntity
  8
치수문자_일반주서
 62
     0
100
AcDbTrace
 10
105.2521033874041
 20
-88.32894594701091
 30
0.0
 11
106.3527700540708
 21
-88.32894594701091
 31
0.0
 12
105.8024367207375
 22
-91.6309459470109
 32
0.0
 13
105.8024367207375
 23
-91.6309459470109
 33
0.0
  0
MTEXT
  5
48B
330
480
100
AcDbEntity
  8
치수문자_일반주서
 62
     0
100
AcDbMText
 10
101.4274367207375
 20
-114.7690033253185
 30
0.0
 40
3.5
 41
0.0
 71
     2
 72
     1
  1
\A1;%%c3.57 [0.14]
  7
SLDTEXTSTYLE0
 11
-3.978542002506257E-15
 21
1.0
 31
0.0
 73
     1
 44
1.0
  0
POINT
  5
48C
330
480
100
AcDbEntity
  8
Defpoints
 62
     0
100
AcDbPoint
 10
122.1498565704582
 20
-95.20282094701084
 30
0.0
  0
POINT
  5
48D
330
480
100
AcDbEntity
  8
Defpoints
 62
     0
100
AcDbPoint
 10
122.1498565704582
 20
-91.63094594701084
 30
0.0
  0
POINT
  5
48E
330
480
100
AcDbEntity
  8
Defpoints
 62
     0
100
AcDbPoint
 10
105.8024367207375
 20
-91.6309459470109
 30
0.0
  0
ENDBLK
  5
482
330
480
100
AcDbEntity
  8
0
100
AcDbBlockEnd
  0
BLOCK
  5
490
330
48F
100
AcDbEntity
  8
0
100
AcDbBlockBegin
  2
*D11
 70
     1
 10
0.0
 20
0.0
 30
0.0
  3
*D11
  1
*D13
  0
LINE
  5
492
330
48F
100
AcDbEntity
  8
치수문자_일반주서
 62
     0
370
    -2
100
AcDbLine
 10
122.1498565704582
 20
-95.26532094701084
 30
0.0
 11
122.1498565704582
 21
-111.4970036570146
 31
0.0
  0
LINE
  5
493
330
48F
100
AcDbEntity
  8
치수문자_일반주서
 62
     0
370
    -2
100
AcDbLine
 10
133.2623565704582
 20
-95.01423934116933
 30
0.0
 11
133.2623565704582
 21
-111.4970036570146
 31
0.0
  0
LINE
  5
494
330
48F
100
AcDbEntity
  8
치수문자_일반주서
 62
     0
370
    -2
100
AcDbLine
 10
133.2623565704582
 20
-111.4970036570146
 30
0.0
 11
163.0538565704582
 21
-111.4970036570146
 31
0.0
  0
LINE
  5
495
330
48F
100
AcDbEntity
  8
치수문자_일반주서
 62
     0
370
    -2
100
AcDbLine
 10
122.1498565704582
 20
-111.4970036570146
 30
0.0
 11
133.2623565704582
 21
-111.4970036570146
 31
0.0
  0
LINE
  5
496
330
48F
100
AcDbEntity
  8
치수문자_일반주서
 62
     0
370
    -2
100
AcDbLine
 10
118.8478565704582
 20
-111.4970036570146
 30
0.0
 11
115.5458565704582
 21
-111.4970036570146
 31
0.0
  0
LINE
  5
497
330
48F
100
AcDbEntity
  8
치수문자_일반주서
 62
     0
370
    -2
100
AcDbLine
 10
136.5643565704582
 20
-111.4970036570146
 30
0.0
 11
139.8663565704582
 21
-111.4970036570146
 31
0.0
  0
SOLID
  5
498
330
48F
100
AcDbEntity
  8
치수문자_일반주서
 62
     0
100
AcDbTrace
 10
118.8478565704582
 20
-112.0473369903479
 30
0.0
 11
118.8478565704582
 21
-110.9466703236813
 31
0.0
 12
122.1498565704582
 22
-111.4970036570146
 32
0.0
 13
122.1498565704582
 23
-111.4970036570146
 33
0.0
  0
SOLID
  5
499
330
48F
100
AcDbEntity
  8
치수문자_일반주서
 62
     0
100
AcDbTrace
 10
136.5643565704582
 20
-110.9466703236813
 30
0.0
 11
136.5643565704582
 21
-112.0473369903479
 31
0.0
 12
133.2623565704582
 22
-111.4970036570146
 32
0.0
 13
133.2623565704582
 23
-111.4970036570146
 33
0.0
  0
MTEXT
  5
49A
330
48F
100
AcDbEntity
  8
치수문자_일반주서
 62
     0
100
AcDbMText
 10
151.4601065704582
 20
-107.1220036570146
 30
0.0
 40
3.5
 41
0.0
 71
     2
 72
     1
  1
\A1;11.11 [0.44]
  7
SLDTEXTSTYLE0
 73
     1
 44
1.0
  0
POINT
  5
49B
330
48F
100
AcDbEntity
  8
Defpoints
 62
     0
100
AcDbPoint
 10
122.1498565704582
 20
-95.20282094701084
 30
0.0
  0
POINT
  5
49C
330
48F
100
AcDbEntity
  8
Defpoints
 62
     0
100
AcDbPoint
 10
133.2623565704582
 20
-94.95173934116933
 30
0.0
  0
POINT
  5
49D
330
48F
100
AcDbEntity
  8
Defpoints
 62
     0
100
AcDbPoint
 10
133.2623565704582
 20
-111.4970036570146
 30
0.0
  0
ENDBLK
  5
491
330
48F
100
AcDbEntity
  8
0
100
AcDbBlockEnd
  0
BLOCK
  5
49F
330
49E
100
AcDbEntity
  8
0
100
AcDbBlockBegin
  2
*D12
 70
     1
 10
0.0
 20
0.0
 30
0.0
  3
*D12
  1
*D14
  0
LINE
  5
4A1
330
49E
100
AcDbEntity
  8
치수문자_일반주서
 62
     0
370
    -2
100
AcDbLine
 10
122.1498565704582
 20
-95.26532094701084
 30
0.0
 11
122.1498565704582
 21
-142.7866722682929
 31
0.0
  0
LINE
  5
4A2
330
49E
100
AcDbEntity
  8
치수문자_일반주서
 62
     0
370
    -2
100
AcDbLine
 10
201.5248565704582
 20
-97.28938344701085
 30
0.0
 11
201.5248565704582
 21
-142.7866722682929
 31
0.0
  0
LINE
  5
4A3
330
49E
100
AcDbEntity
  8
치수문자_일반주서
 62
     0
370
    -2
100
AcDbLine
 10
125.4518565704582
 20
-142.7866722682929
 30
0.0
 11
198.2228565704582
 21
-142.7866722682929
 31
0.0
  0
SOLID
  5
4A4
330
49E
100
AcDbEntity
  8
치수문자_일반주서
 62
     0
100
AcDbTrace
 10
125.4518565704582
 20
-142.2363389349595
 30
0.0
 11
125.4518565704582
 21
-143.3370056016262
 31
0.0
 12
122.1498565704582
 22
-142.7866722682929
 32
0.0
 13
122.1498565704582
 23
-142.7866722682929
 33
0.0
  0
SOLID
  5
4A5
330
49E
100
AcDbEntity
  8
치수문자_일반주서
 62
     0
100
AcDbTrace
 10
198.2228565704582
 20
-143.3370056016262
 30
0.0
 11
198.2228565704582
 21
-142.2363389349595
 31
0.0
 12
201.5248565704582
 22
-142.7866722682929
 32
0.0
 13
201.5248565704582
 23
-142.7866722682929
 33
0.0
  0
MTEXT
  5
4A6
330
49E
100
AcDbEntity
  8
치수문자_일반주서
 62
     0
100
AcDbMText
 10
163.8626058567375
 20
-138.4116722682929
 30
0.0
 40
3.5
 41
0.0
 71
     2
 72
     1
  1
\A1;79.38 [3.13]
  7
SLDTEXTSTYLE0
 73
     1
 44
1.0
  0
POINT
  5
4A7
330
49E
100
AcDbEntity
  8
Defpoints
 62
     0
100
AcDbPoint
 10
122.1498565704582
 20
-95.20282094701084
 30
0.0
  0
POINT
  5
4A8
330
49E
100
AcDbEntity
  8
Defpoints
 62
     0
100
AcDbPoint
 10
201.5248565704582
 20
-97.22688344701085
 30
0.0
  0
POINT
  5
4A9
330
49E
100
AcDbEntity
  8
Defpoints
 62
     0
100
AcDbPoint
 10
201.5248565704582
 20
-142.7866722682929
 30
0.0
  0
ENDBLK
  5
4A0
330
49E
100
AcDbEntity
  8
0
100
AcDbBlockEnd
  0
ENDSEC
  0
SECTION
  2
ENTITIES
  0
LINE
  5
96
330
1F
100
AcDbEntity
  8
0
  6
Continuous
 62
     1
370
    15
100
AcDbLine
 10
37.07534693144952
 20
-0.5094262538644793
 30
0.0
 11
37.12450207619722
 21
-0.5356115430331344
 31
0.0
  0
LINE
  5
97
330
1F
100
AcDbEntity
  8
0
  6
Continuous
 62
     1
370
    15
100
AcDbLine
 10
35.09420019083325
 20
-1.785937500000002
 30
0.0
 11
36.18263659671857
 21
-1.785937500000002
 31
0.0
  0
LINE
  5
98
330
1F
100
AcDbEntity
  8
0
  6
Continuous
 62
     1
370
    15
100
AcDbLine
 10
31.3227181013959
 20
1.785937499999999
 30
0.0
 11
30.23584606302653
 21
1.785937499999999
 31
0.0
  0
LINE
  5
99
330
1F
100
AcDbEntity
  8
0
  6
Continuous
 62
     1
370
    15
100
AcDbLine
 10
36.18263659671857
 20
1.785937499999999
 30
0.0
 11
35.09420019083326
 21
1.785937499999999
 31
0.0
  0
LINE
  5
9A
330
1F
100
AcDbEntity
  8
0
  6
Continuous
 62
     1
370
    15
100
AcDbLine
 10
30.23584606302653
 20
-1.785937500000002
 30
0.0
 11
31.32271810139588
 21
-1.785937500000002
 31
0.0
  0
LINE
  5
9B
330
1F
100
AcDbEntity
  8
외형선
  6
Continuous
370
    15
100
AcDbLine
 10
16.46631751809577
 20
-4.762500000000007
 30
0.0
 11
27.57500000000001
 21
-1.785937500000001
 31
0.0
  0
LINE
  5
9C
330
1F
100
AcDbEntity
  8
외형선
  6
Continuous
370
    15
100
AcDbLine
 10
27.57500000000001
 20
1.785937499999998
 30
0.0
 11
16.46631751809577
 21
4.762500000000006
 31
0.0
  0
LINE
  5
9D
330
1F
100
AcDbEntity
  8
외형선
  6
Continuous
370
    15
100
AcDbLine
 10
-16.46631751809573
 20
-4.762500000000004
 30
0.0
 11
16.46631751809577
 21
-4.762500000000004
 31
0.0
  0
LINE
  5
9E
330
1F
100
AcDbEntity
  8
외형선
  6
Continuous
370
    15
100
AcDbLine
 10
16.46631751809577
 20
4.762500000000002
 30
0.0
 11
4.838700000000017
 21
4.762500000000002
 31
0.0
  0
LINE
  5
A1
330
1F
100
AcDbEntity
  8
외형선
  6
Continuous
370
    15
100
AcDbLine
 10
27.57500000000001
 20
-1.785937500000001
 30
0.0
 11
28.07492954573595
 21
-1.785937500000001
 31
0.0
  0
LINE
  5
A2
330
1F
100
AcDbEntity
  8
외형선
  6
Continuous
370
    15
100
AcDbLine
 10
28.07492954573595
 20
1.785937499999998
 30
0.0
 11
27.57500000000001
 21
1.785937499999998
 31
0.0
  0
LINE
  5
A3
330
1F
100
AcDbEntity
  8
0
  6
Continuous
 62
     1
370
    15
100
AcDbLine
 10
39.68750000000001
 20
-1.617490284686434
 30
0.0
 11
39.68750000000001
 21
0.1530215346864542
 31
0.0
  0
SPLINE
  5
A4
330
1F
100
AcDbEntity
  8
0
  6
Continuous
 62
     1
370
    15
100
AcDbSpline
210
0.0
220
0.0
230
1.0
 70
     8
 71
     3
 72
    16
 73
    12
 74
     0
 42
0.000000001
 43
0.00000001
 40
0.0
 40
0.0
 40
0.0
 40
0.0
 40
0.0964754031045515
 40
0.2027829064045936
 40
0.3091279575455107
 40
0.4155120890704053
 40
0.5324102162432867
 40
0.6493080743673648
 40
0.7662056599954256
 40
0.8831029696853125
 40
1.0
 40
1.0
 40
1.0
 40
1.0
 10
31.3227181013959
 20
1.779793907312877
 30
0.0
 10
31.59167159163783
 20
1.770544205807014
 30
0.0
 10
32.15698843597192
 20
1.751102137731888
 30
0.0
 10
33.01882955893392
 20
1.543172344865944
 30
0.0
 10
33.90835280472395
 20
1.214990375192892
 30
0.0
 10
34.82749494814512
 20
0.7695452949757849
 30
0.0
 10
35.77604351518593
 20
0.2383708528312693
 30
0.0
 10
36.75391252304608
 20
-0.333814461082054
 30
0.0
 10
37.73177732336143
 20
-0.8697921595691372
 30
0.0
 10
38.70963978041628
 20
-1.331082958216444
 30
0.0
 10
39.36154685314001
 20
-1.522021251917731
 30
0.0
 10
39.68749999999999
 20
-1.617490284686434
 30
0.0
  0
SPLINE
  5
A5
330
1F
100
AcDbEntity
  8
0
  6
Continuous
 62
     1
370
    15
100
AcDbSpline
210
0.0
220
0.0
230
1.0
 70
     8
 71
     3
 72
    15
 73
    11
 74
     0
 42
0.000000001
 43
0.00000001
 40
0.0
 40
0.0
 40
0.0
 40
0.0
 40
0.1374325958928821
 40
0.2748096618808119
 40
0.4121423792840031
 40
0.5494420796175193
 40
0.68672020670032
 40
0.8239882779541364
 40
0.9612578451691993
 40
1.0
 40
1.0
 40
1.0
 40
1.0
 10
39.68750000000002
 20
0.1530215346864542
 30
0.0
 10
39.39089291256915
 20
0.3222984734227561
 30
0.0
 10
38.79779858237211
 20
0.660783954222376
 30
0.0
 10
37.90840709828317
 20
1.110946601928344
 30
0.0
 10
37.01935445518693
 20
1.470982947437629
 30
0.0
 10
36.13055648063123
 20
1.709380489301312
 30
0.0
 10
35.2419375464405
 20
1.810268869852772
 30
0.0
 10
34.35335190406116
 20
1.752842098757529
 30
0.0
 10
33.67750583893429
 20
1.627738709356233
 30
0.0
 10
33.29761555735149
 20
1.484217463054401
 30
0.0
 10
33.21399744409899
 20
1.452626826470059
 30
0.0
  0
SPLINE
  5
A6
330
1F
100
AcDbEntity
  8
0
  6
Continuous
 62
     1
370
    15
100
AcDbSpline
210
0.0
220
0.0
230
1.0
 70
     8
 71
     3
 72
    18
 73
    14
 74
     0
 42
0.000000001
 43
0.00000001
 40
0.0
 40
0.0
 40
0.0
 40
0.0
 40
0.0937229542999583
 40
0.1874478108334453
 40
0.2811824513199246
 40
0.3749347240563557
 40
0.4687124172414904
 40
0.5625232327349482
 40
0.6563685224484227
 40
0.7594885879530651
 40
0.8626084161200283
 40
0.9657280039083999
 40
0.9999999999999999
 40
0.9999999999999999
 40
0.9999999999999999
 40
0.9999999999999999
 10
28.57499999999944
 20
1.386343330361594
 30
0.0
 10
28.87117486419367
 20
1.267416280736362
 30
0.0
 10
29.4635306038497
 20
1.029559767701327
 30
0.0
 10
30.35209869184114
 20
0.5578669857217979
 30
0.0
 10
31.24077888122071
 20
0.0485685119844453
 30
0.0
 10
32.12965910190778
 20
-0.4669528357391973
 30
0.0
 10
33.01882902873859
 20
-0.9435906714180844
 30
0.0
 10
33.90835294663645
 20
-1.343180774000057
 30
0.0
 10
34.82749490508083
 20
-1.64137169976471
 30
0.0
 10
35.77604353064451
 20
-1.801942127278971
 30
0.0
 10
36.75391250608477
 20
-1.778855166318702
 30
0.0
 10
37.51415495192322
 20
-1.6524298802704
 30
0.0
 10
37.94844157483143
 20
-1.49225886914899
 30
0.0
 10
38.05677331555834
 20
-1.45230460039308
 30
0.0
  0
LINE
  5
A7
330
1F
100
AcDbEntity
  8
외형선
  6
Continuous
370
    15
100
AcDbLine
 10
28.57500000000001
 20
1.534855894158375
 30
0.0
 11
28.57500000000001
 21
1.441291328112778
 31
0.0
  0
SPLINE
  5
A8
330
1F
100
AcDbEntity
  8
0
  6
Continuous
 62
     1
370
    15
100
AcDbSpline
210
0.0
220
0.0
230
1.0
 70
     8
 71
     3
 72
    46
 73
    42
 74
     0
 42
0.000000001
 43
0.00000001
 40
0.0
 40
0.0
 40
0.0
 40
0.0
 40
0.0624999999999993
 40
0.0624999999999993
 40
0.1249999999999986
 40
0.1249999999999986
 40
0.1562499999999983
 40
0.1562499999999983
 40
0.1874999999999979
 40
0.1874999999999979
 40
0.2499999999999944
 40
0.2499999999999944
 40
0.2812499999999941
 40
0.2812499999999941
 40
0.3124999999999937
 40
0.3124999999999937
 40
0.3749999999999931
 40
0.3749999999999931
 40
0.4374999999999923
 40
0.4374999999999923
 40
0.4999999999999917
 40
0.4999999999999917
 40
0.562499999999991
 40
0.562499999999991
 40
0.593749999999992
 40
0.593749999999992
 40
0.624999999999993
 40
0.624999999999993
 40
0.6874999999999923
 40
0.6874999999999923
 40
0.718749999999992
 40
0.718749999999992
 40
0.7499999999999917
 40
0.7499999999999917
 40
0.8124999999999937
 40
0.8124999999999937
 40
0.8749999999999958
 40
0.8749999999999958
 40
0.9374999999999979
 40
0.9374999999999979
 40
1.0
 40
1.0
 40
1.0
 40
1.0
 10
39.68750000000003
 20
-1.785937499999995
 30
0.0
 10
39.45883198957047
 20
-1.767964131676099
 30
0.0
 10
39.22404766304128
 20
-1.741441235132881
 30
0.0
 10
38.75973626457559
 20
-1.659703446432626
 30
0.0
 10
38.53167217229664
 20
-1.604820219809884
 30
0.0
 10
38.18237292352964
 20
-1.502431899188689
 30
0.0
 10
38.06572275009654
 20
-1.465031154555029
 30
0.0
 10
37.83418949701025
 20
-1.384429347457974
 30
0.0
 10
37.72027369432453
 20
-1.341366178967668
 30
0.0
 10
37.37411715906461
 20
-1.20349088803563
 30
0.0
 10
37.13896989780561
 20
-1.100005695371229
 30
0.0
 10
36.79286794234739
 20
-0.9332294481996743
 30
0.0
 10
36.67893861047818
 20
-0.8758058882374797
 30
0.0
 10
36.44737619760851
 20
-0.7569127178638705
 30
0.0
 10
36.33072050099544
 20
-0.6955963102496747
 30
0.0
 10
35.98143237072257
 20
-0.5077498470429641
 30
0.0
 10
35.75339140356578
 20
-0.3780691321727928
 30
0.0
 10
35.28903628794379
 20
-0.1130220984282515
 30
0.0
 10
35.05436740137338
 20
0.0220480822201106
 30
0.0
 10
34.59693086513311
 20
0.2873034415615699
 30
0.0
 10
34.36213158626335
 20
0.4197875546519552
 30
0.0
 10
33.89786450951998
 20
0.6744928801305338
 30
0.0
 10
33.66977631938452
 20
0.7965221705648136
 30
0.0
 10
33.32046641019974
 20
0.9692665650916229
 30
0.0
 10
33.20382191358244
 20
1.024953044218527
 30
0.0
 10
32.97231811985502
 20
1.131508668876231
 30
0.0
 10
32.85841473087069
 20
1.182250237642884
 30
0.0
 10
32.51220406021739
 20
1.327403881336291
 30
0.0
 10
32.27705711424502
 20
1.414318378377504
 30
0.0
 10
31.93101018276062
 20
1.525043478003491
 30
0.0
 10
31.81706620628417
 20
1.558700198122525
 30
0.0
 10
31.58547493333328
 20
1.619695532833997
 30
0.0
 10
31.46881386720044
 20
1.646919397233861
 30
0.0
 10
31.11953731344936
 20
1.717942312151065
 30
0.0
 10
30.89151849857975
 20
1.750933944532895
 30
0.0
 10
30.4271202705579
 20
1.787477661018188
 30
0.0
 10
30.19256587981998
 20
1.790736304059954
 30
0.0
 10
29.73502940308296
 20
1.767428218611498
 30
0.0
 10
29.50021548558857
 20
1.740654166589207
 30
0.0
 10
29.03599333494047
 20
1.658445666439733
 30
0.0
 10
28.80788007431919
 20
1.603331565235502
 30
0.0
 10
28.57499999999944
 20
1.534855894158205
 30
0.0
  0
SPLINE
  5
A9
330
1F
100
AcDbEntity
  8
0
  6
Continuous
 62
     1
370
    15
100
AcDbSpline
210
0.0
220
0.0
230
1.0
 70
     8
 71
     3
 72
    13
 73
     9
 74
     0
 42
0.000000001
 43
0.00000001
 40
0.0
 40
0.0
 40
0.0
 40
0.0
 40
0.1915429292612874
 40
0.383089746144182
 40
0.5746565586303938
 40
0.766259406395588
 40
0.957914206291871
 40
1.0
 40
1.0
 40
1.0
 40
1.0
 10
28.57499999999944
 20
-1.125888504368067
 30
0.0
 10
28.87117484211918
 20
-1.249700287919977
 30
0.0
 10
29.46353053762583
 20
-1.497326367950622
 30
0.0
 10
30.35209895675451
 20
-1.72060116932791
 30
0.0
 10
31.24077788760163
 20
-1.811986051889317
 30
0.0
 10
32.12966281260806
 20
-1.743278164795879
 30
0.0
 10
32.78741618321634
 20
-1.613788036801432
 30
0.0
 10
33.14890936053966
 20
-1.477216922863098
 30
0.0
 10
33.21399744409898
 20
-1.452626826470062
 30
0.0
  0
SPLINE
  5
AA
330
1F
100
AcDbEntity
  8
외형선
  6
Continuous
370
    15
100
AcDbSpline
210
0.0
220
0.0
230
1.0
 70
    24
 71
     3
 72
    22
 73
    18
 74
     0
 42
0.000000001
 43
0.00000001
 40
0.0
 40
0.0
 40
0.0
 40
0.0
 40
0.1249999999999999
 40
0.1249999999999999
 40
0.25
 40
0.25
 40
0.375
 40
0.375
 40
0.5
 40
0.5
 40
0.625
 40
0.625
 40
0.75
 40
0.75
 40
0.875
 40
0.875
 40
1.0
 40
1.0
 40
1.0
 40
1.0
 10
28.575
 20
0.913121097157187
 30
0.0
 10
28.57500000000001
 20
0.8932885017222719
 30
0.0
 10
28.57500000000002
 20
0.8654705403570218
 30
0.0
 10
28.57500000000001
 20
0.8036288797362788
 30
0.0
 10
28.57500000000001
 20
0.7633354865871241
 30
0.0
 10
28.57500000000001
 20
0.6560158762307662
 30
0.0
 10
28.57500000000002
 20
0.5888098673439655
 30
0.0
 10
28.57500000000001
 20
0.4212862625053165
 30
0.0
 10
28.575
 20
0.3206563587412627
 30
0.0
 10
28.57500000000002
 20
0.0891950481588622
 30
0.0
 10
28.57500000000002
 20
-0.0417616269705509
 30
0.0
 10
28.57500000000002
 20
-0.3134428040904933
 30
0.0
 10
28.57500000000002
 20
-0.4536317446170307
 30
0.0
 10
28.575
 20
-0.7106028115510783
 30
0.0
 10
28.57500000000001
 20
-0.8266380131453842
 30
0.0
 10
28.57500000000001
 20
-1.011607143176136
 30
0.0
 10
28.57500000000001
 20
-1.080529870230962
 30
0.0
 10
28.57500000000001
 20
-1.125888504368303
 30
0.0
  0
SPLINE
  5
AB
330
1F
100
AcDbEntity
  8
0
  6
Continuous
 62
     1
370
    15
100
AcDbSpline
210
0.0
220
0.0
230
1.0
 70
     8
 71
     3
 72
    14
 73
    10
 74
     0
 42
0.000000001
 43
0.00000001
 40
0.0
 40
0.0
 40
0.0
 40
0.0
 40
0.1136601618733704
 40
0.249984321223361
 40
0.399987333321065
 40
0.5499904119121567
 40
0.699993552332636
 40
0.8499967499173374
 40
1.0
 40
1.0
 40
1.0
 40
1.0
 10
35.09420019083325
 20
-1.775758783090223
 30
0.0
 10
34.84725687397599
 20
-1.769967651490473
 30
0.0
 10
34.30412939265156
 20
-1.75723062843668
 30
0.0
 10
33.43519504647304
 20
-1.555888518658006
 30
0.0
 10
32.48685345720858
 20
-1.209039326132421
 30
0.0
 10
31.50891313925249
 20
-0.7262688729538354
 30
0.0
 10
30.53093699885757
 20
-0.1745231739579438
 30
0.0
 10
29.55296983908029
 20
0.4013580165835899
 30
0.0
 10
28.90098998438959
 20
0.7425333837321508
 30
0.0
 10
28.57499999999944
 20
0.913121097157475
 30
0.0
  0
LINE
  5
AC
330
1F
100
AcDbEntity
  8
외형선
  6
Continuous
370
    15
100
AcDbLine
 10
28.57500000000001
 20
0.9131210971571848
 30
0.0
 11
28.57500000000001
 21
1.386343330361388
 31
0.0
  0
LINE
  5
AD
330
1F
100
AcDbEntity
  8
0
  6
Continuous
 62
     1
370
    15
100
AcDbLine
 10
39.68750000000001
 20
-1.785937499999995
 30
0.0
 11
39.68750000000001
 21
-1.617490284686434
 31
0.0
  0
SPLINE
  5
AE
330
1F
100
AcDbEntity
  8
0
  6
Continuous
 62
     1
370
    15
100
AcDbSpline
210
0.0
220
0.0
230
1.0
 70
     8
 71
     3
 72
    11
 73
     7
 74
     0
 42
0.000000001
 43
0.00000001
 40
0.0
 40
0.0
 40
0.0
 40
0.0
 40
0.1629952016716713
 40
0.4419974624370906
 40
0.7209990646142774
 40
1.0
 40
1.0
 40
1.0
 40
1.0
 10
36.18263659671857
 20
1.764308038796909
 30
0.0
 10
36.373062065858
 20
1.766920632465675
 30
0.0
 10
36.88944275240464
 20
1.774005256798973
 30
0.0
 10
37.73177737575706
 20
1.58709725754706
 30
0.0
 10
38.70963976731744
 20
1.247702924120174
 30
0.0
 10
39.36154684877376
 20
0.920677112971834
 30
0.0
 10
39.68750000000001
 20
0.7571644027892657
 30
0.0
  0
LINE
  5
AF
330
1F
100
AcDbEntity
  8
0
  6
Continuous
 62
     1
370
    15
100
AcDbLine
 10
39.68750000000001
 20
0.1530215346864543
 30
0.0
 11
39.68750000000001
 21
0.7571644027892653
 31
0.0
  0
SPLINE
  5
B0
330
1F
100
AcDbEntity
  8
0
  6
Continuous
 62
     1
370
    15
100
AcDbSpline
210
0.0
220
0.0
230
1.0
 70
     8
 71
     3
 72
     9
 73
     5
 74
     0
 42
0.000000001
 43
0.00000001
 40
0.0
 40
0.0
 40
0.0
 40
0.0
 40
0.5456297418755525
 40
0.9999999999999999
 40
0.9999999999999999
 40
0.9999999999999999
 40
0.9999999999999999
 10
39.68750000000001
 20
1.785937500000005
 30
0.0
 10
39.39089164530355
 20
1.752982707965366
 30
0.0
 10
38.84728426481703
 20
1.70462176222303
 30
0.0
 10
38.30374251893579
 20
1.531132817148383
 30
0.0
 10
38.05677331555832
 20
1.452304600393077
 30
0.0
  0
SPLINE
  5
B1
330
1F
100
AcDbEntity
  8
0
  6
Continuous
 62
     1
370
    15
100
AcDbSpline
210
0.0
220
0.0
230
1.0
 70
     8
 71
     3
 72
     9
 73
     5
 74
     0
 42
0.000000001
 43
0.00000001
 40
0.0
 40
0.0
 40
0.0
 40
0.0
 40
0.4111618530025804
 40
1.0
 40
1.0
 40
1.0
 40
1.0
 10
30.23584606302655
 20
-1.767190312852904
 30
0.0
 10
30.00822056073878
 20
-1.767286815381098
 30
0.0
 10
29.45460523717334
 20
-1.767521522291499
 30
0.0
 10
28.90098985549575
 20
-1.62108393292912
 30
0.0
 10
28.57499999999946
 20
-1.534855894158208
 30
0.0
  0
LINE
  5
B2
330
1F
100
AcDbEntity
  8
0
  6
Continuous
 62
     1
370
    15
100
AcDbLine
 10
39.68750000000001
 20
0.7571644027892653
 30
0.0
 11
39.6875
 21
1.785937500000005
 31
0.0
  0
LINE
  5
B3
330
1F
100
AcDbEntity
  8
외형선
  6
Continuous
370
    15
100
AcDbLine
 10
28.57500000000001
 20
-1.534855894158378
 30
0.0
 11
28.57500000000002
 21
-1.125888504368318
 31
0.0
  0
LINE
  5
B4
330
1F
100
AcDbEntity
  8
외형선
  6
Continuous
370
    15
100
AcDbLine
 10
27.57500000000001
 20
-0.0000000000000013
 30
0.0
 11
27.57500000000001
 21
1.785937499999998
 31
0.0
  0
LINE
  5
B5
330
1F
100
AcDbEntity
  8
외형선
  6
Continuous
370
    15
100
AcDbLine
 10
27.57500000000001
 20
-1.785937500000001
 30
0.0
 11
27.57500000000001
 21
-0.0000000000000013
 31
0.0
  0
LINE
  5
B6
330
1F
100
AcDbEntity
  8
외형선
  6
Continuous
370
    15
100
AcDbLine
 10
16.46631751809577
 20
-0.0000000000000013
 30
0.0
 11
16.46631751809577
 21
4.762500000000006
 31
0.0
  0
LINE
  5
B7
330
1F
100
AcDbEntity
  8
외형선
  6
Continuous
370
    15
100
AcDbLine
 10
16.46631751809577
 20
-4.762500000000007
 30
0.0
 11
16.46631751809577
 21
-0.0000000000000013
 31
0.0
  0
LINE
  5
BC
330
1F
100
AcDbEntity
  8
외형선
  6
Continuous
370
    15
100
AcDbLine
 10
28.57499999999943
 20
1.534855894158206
 30
0.0
 11
28.35065477518569
 21
1.463933049548328
 31
0.0
  0
LINE
  5
BD
330
1F
100
AcDbEntity
  8
외형선
  6
Continuous
370
    15
100
AcDbLine
 10
28.07492954573596
 20
1.54931773265143
 30
0.0
 11
28.07492954573595
 21
1.785937499999998
 31
0.0
  0
SPLINE
  5
BE
330
1F
100
AcDbEntity
  8
외형선
  6
Continuous
370
    15
100
AcDbSpline
210
0.0
220
0.0
230
1.0
 70
     8
 71
     3
 72
     8
 73
     4
 74
     0
 42
0.000000001
 43
0.00000001
 40
0.0
 40
0.0
 40
0.0
 40
0.0
 40
1.0
 40
1.0
 40
1.0
 40
1.0
 10
28.57499999999944
 20
1.386343330361594
 30
0.0
 10
28.40763222599334
 20
1.447022944997777
 30
0.0
 10
28.23986116322943
 20
1.501669070306626
 30
0.0
 10
28.07492954573593
 20
1.549314495572133
 30
0.0
  0
SPLINE
  5
BF
330
1F
100
AcDbEntity
  8
외형선
  6
Continuous
370
    15
100
AcDbSpline
210
0.0
220
0.0
230
1.0
 70
     8
 71
     3
 72
     8
 73
     4
 74
     0
 42
0.000000001
 43
0.00000001
 40
0.0
 40
0.0
 40
0.0
 40
0.0
 40
1.0
 40
1.0
 40
1.0
 40
1.0
 10
28.57499999999943
 20
0.9131210971574714
 30
0.0
 10
28.40763222599334
 20
0.9958419561219786
 30
0.0
 10
28.23986116322946
 20
1.074621060234314
 30
0.0
 10
28.07492954573595
 20
1.147995385957352
 30
0.0
  0
LINE
  5
C0
330
1F
100
AcDbEntity
  8
외형선
  6
Continuous
370
    15
100
AcDbLine
 10
28.07492954573596
 20
-0.8883621543031146
 30
0.0
 11
28.07492954573595
 21
1.147995716804085
 31
0.0
  0
SPLINE
  5
C1
330
1F
100
AcDbEntity
  8
외형선
  6
Continuous
370
    15
100
AcDbSpline
210
0.0
220
0.0
230
1.0
 70
     8
 71
     3
 72
     8
 73
     4
 74
     0
 42
0.000000001
 43
0.00000001
 40
0.0
 40
0.0
 40
0.0
 40
0.0
 40
1.0
 40
1.0
 40
1.0
 40
1.0
 10
28.57499999999944
 20
-1.125888504368067
 30
0.0
 10
28.40763222599334
 20
-1.051171710730495
 30
0.0
 10
28.23986116322943
 20
-0.9714614779204991
 30
0.0
 10
28.07492954573593
 20
-0.8883677997970805
 30
0.0
  0
SPLINE
  5
C2
330
1F
100
AcDbEntity
  8
외형선
  6
Continuous
370
    15
100
AcDbSpline
210
0.0
220
0.0
230
1.0
 70
     8
 71
     3
 72
     8
 73
     4
 74
     0
 42
0.000000001
 43
0.00000001
 40
0.0
 40
0.0
 40
0.0
 40
0.0
 40
1.0
 40
1.0
 40
1.0
 40
1.0
 10
28.57499999999943
 20
-1.534855894158209
 30
0.0
 10
28.40763222599334
 20
-1.485643351284987
 30
0.0
 10
28.23986116322946
 20
-1.429663238913258
 30
0.0
 10
28.07492954573595
 20
-1.368093325664186
 30
0.0
  0
LINE
  5
C3
330
1F
100
AcDbEntity
  8
외형선
  6
Continuous
370
    15
100
AcDbLine
 10
28.07492954573595
 20
-1.785937500000001
 30
0.0
 11
28.07492954573595
 21
-1.368093048043786
 31
0.0
  0
LINE
  5
C4
330
1F
100
AcDbEntity
  8
외형선
  6
Continuous
370
    15
100
AcDbLine
 10
28.07492954573593
 20
-1.549314495572135
 30
0.0
 11
28.35065477518569
 21
-1.463933049548332
 31
0.0
  0
SPLINE
  5
C5
330
1F
100
AcDbEntity
  8
외형선
  6
Continuous
370
    15
100
AcDbSpline
210
0.0
220
0.0
230
1.0
 70
    24
 71
     3
 72
    22
 73
    18
 74
     0
 42
0.000000001
 43
0.00000001
 40
0.0
 40
0.0
 40
0.0
 40
0.0
 40
0.1249999999999999
 40
0.1249999999999999
 40
0.2499999999999999
 40
0.2499999999999999
 40
0.3749999999999998
 40
0.3749999999999998
 40
0.4999999999999999
 40
0.4999999999999999
 40
0.6249999999999999
 40
0.6249999999999999
 40
0.7499999999999999
 40
0.7499999999999999
 40
0.875
 40
0.875
 40
1.0
 40
1.0
 40
1.0
 40
1.0
 10
28.57500000000002
 20
-1.125888504368316
 30
0.0
 10
28.575
 20
-1.080529870230977
 30
0.0
 10
28.575
 20
-1.011607143176149
 30
0.0
 10
28.575
 20
-0.8266380131453869
 30
0.0
 10
28.57500000000001
 20
-0.7106028115510727
 30
0.0
 10
28.57499999999998
 20
-0.4536317446170053
 30
0.0
 10
28.575
 20
-0.3134428040904562
 30
0.0
 10
28.57500000000002
 20
-0.0417616269704967
 30
0.0
 10
28.57500000000002
 20
0.0891950481589231
 30
0.0
 10
28.57500000000001
 20
0.3206563587413292
 30
0.0
 10
28.57500000000001
 20
0.4212862625053825
 30
0.0
 10
28.575
 20
0.5888098673440267
 30
0.0
 10
28.57500000000001
 20
0.6560158762308227
 30
0.0
 10
28.57500000000001
 20
0.7633354865871713
 30
0.0
 10
28.57499999999998
 20
0.8036288797363198
 30
0.0
 10
28.57500000000001
 20
0.8654705403570527
 30
0.0
 10
28.575
 20
0.8932885017223058
 30
0.0
 10
28.57500000000001
 20
0.9131210971572147
 30
0.0
  0
LINE
  5
C6
330
1F
100
AcDbEntity
  8
외형선
  6
Continuous
370
    15
100
AcDbLine
 10
28.57500000000001
 20
1.441291328112778
 30
0.0
 11
28.57499999999998
 21
1.534855894158489
 31
0.0
  0
LINE
  5
C7
330
1F
100
AcDbEntity
  8
중심선
 48
0.8
100
AcDbLine
 10
-42.6875
 20
-0.0000000000000052
 30
0.0
 11
42.68750000000001
 21
0.0000000000000052
 31
0.0
  0
LINE
  5
C8
330
1F
100
AcDbEntity
  8
참조1
100
AcDbLine
 10
0.1933806570156155
 20
0.0010749287238892
 30
0.0
 11
0.1933806570156224
 21
-39.99892507127611
 31
0.0
  0
LINE
  5
C9
330
1F
100
AcDbEntity
  8
참조1
100
AcDbLine
 10
0.1933806570156224
 20
-39.99892507127611
 30
0.0
 11
-29.25297615729306
 21
-39.9989250712761
 31
0.0
  0
CIRCLE
  5
CA
330
1F
100
AcDbEntity
  8
해칭선
100
AcDbCircle
 10
0.0
 20
0.0
 30
0.0
 40
3.00000000000001
  0
INSERT
  5
CB
330
1F
100
AcDbEntity
  8
0
  6
Continuous
 62
     7
100
AcDbBlockReference
 66
     1
  2
블럭10
 10
-13.9402729321252
 20
-52.04717430164393
 30
0.0
  0
ATTRIB
  5
CC
330
CB
100
AcDbEntity
  8
FORMAT
 62
     2
100
AcDbText
 10
-23.12156822086648
 20
-49.97180738881174
 30
0.0
 40
4.233333333333333
  1
E2053009 [ 4 FLUTE ]
 41
0.75
  7
SLDTEXTSTYLE0
 11
-23.12156822086648
 21
-52.08847405547841
 31
0.0
100
AcDbAttribute
  2
AUTOATTR0
 70
     0
 74
     1
  0
SEQEND
  5
CD
330
CB
100
AcDbEntity
  8
0
  6
Continuous
 62
     7
  0
HATCH
  5
CE
330
1F
100
AcDbEntity
  8
중심선
100
AcDbHatch
 10
0.0
 20
0.0
 30
0.0
210
0.0
220
0.0
230
1.0
  2
SOLID
 70
     1
 71
     0
 91
        1
 92
        0
 93
        4
 72
     1
 10
-8.22536362774435
 20
-35.8
 11
-11.67163887158163
 21
-35.8
 72
     1
 10
-11.67163887158163
 20
-35.8
 11
-13.79986873078565
 21
-38.33632558057263
 72
     1
 10
-13.79986873078565
 20
-38.33632558057263
 11
-10.35356040183522
 21
-38.33628615127014
 72
     1
 10
-10.35356040183522
 20
-38.33628615127014
 11
-8.22536362774435
 21
-35.8
 97
        0
 75
     0
 76
     1
 98
        1
 10
-0.1933806570156094
 20
-0.0010749287238945
  0
HATCH
  5
CF
330
1F
100
AcDbEntity
  8
중심선
100
AcDbHatch
 10
0.0
 20
0.0
 30
0.0
210
0.0
220
0.0
230
1.0
  2
SOLID
 70
     1
 71
     0
 91
        1
 92
        0
 93
        4
 72
     1
 10
-3.212599636708371
 20
-35.8
 11
-6.658874880545653
 21
-35.8
 72
     1
 10
-6.658874880545653
 20
-35.8
 11
-11.19001288890307
 21
-41.20000000000002
 72
     1
 10
-11.19001288890307
 20
-41.20000000000002
 11
-7.743737645065787
 21
-41.20000000000002
 72
     1
 10
-7.743737645065787
 20
-41.20000000000002
 11
-3.21259963670837
 21
-35.8
 97
        0
 75
     0
 76
     1
 98
        1
 10
-0.1933806570156094
 20
-0.0010749287238945
  0
HATCH
  5
D0
330
1F
100
AcDbEntity
  8
중심선
100
AcDbHatch
 10
0.0
 20
0.0
 30
0.0
210
0.0
220
0.0
230
1.0
  2
SOLID
 70
     1
 71
     0
 91
        1
 92
        0
 93
        4
 72
     1
 10
1.800164354327525
 20
-35.8
 11
-1.646110889509564
 21
-35.79999999999998
 72
     1
 10
-1.646110889509563
 20
-35.79999999999998
 11
-8.694547791398868
 21
-44.20000000000002
 72
     1
 10
-8.694547791398868
 20
-44.20000000000002
 11
-5.248272547561585
 21
-44.20000000000002
 72
     1
 10
-5.248272547561585
 20
-44.20000000000002
 11
1.800164354327524
 21
-35.8
 97
        0
 75
     0
 76
     1
 98
        1
 10
-0.1933806570156094
 20
-0.0010749287238945
  0
HATCH
  5
D1
330
1F
100
AcDbEntity
  8
중심선
100
AcDbHatch
 10
0.0
 20
0.0
 30
0.0
210
0.0
220
0.0
230
1.0
  2
SOLID
 70
     1
 71
     0
 91
        1
 92
        0
 93
        6
 72
     3
 10
6.600054785339696
 20
-40.00000000005127
 11
3.960054785062284
 21
1.540882976769353E-10
 40
0.3939339440162627
 50
17.09539180608436
 51
320.0019657685081
 73
     0
 72
     1
 10
8.283054441040292
 20
-38.5878940046383
 11
10.58835631474136
 21
-36.65356729459035
 72
     3
 10
6.60005478528685
 20
-40.00000000000015
 11
6.60005478528683
 21
-1.278976924368180E-13
 40
0.636358354079598
 50
39.99873849337413
 51
368.4976242363724
 73
     1
 72
     1
 10
13.02538727718746
 20
-39.03999999993002
 11
5.280122092122772
 21
-39.03999999993002
 72
     1
 10
5.280122092122772
 20
-39.03999999993002
 11
5.280097047676838
 21
-40.95999999992991
 72
     1
 10
5.280097047676838
 20
-40.95999999992991
 11
9.721476817148876
 21
-40.95999999992988
 97
        0
 75
     0
 76
     1
 98
        1
 10
-0.1933806570156094
 20
-0.0010749287238945
  0
DIMENSION
  5
D2
330
1F
100
AcDbEntity
  8
치수문자_일반주서
100
AcDbDimension
  2
_D
 10
56.03491984972074
 20
-1.785937499999935
 30
0.0
 11
56.03491984972064
 21
22.82743750000007
 31
0.0
 70
   160
  1
%%c<>
 71
     2
 42
3.571875
 52
-270.0
  3
SLDDIMSTYLE0
100
AcDbAlignedDimension
 13
39.6875
 23
1.785937500000005
 33
0.0
 14
39.68750000000003
 24
-1.785937499999995
 34
0.0
 50
90.0000000000002
100
AcDbRotatedDimension
1001
ACAD
1000
DSTYLE
1002
{
1070
   171
1070
     6
1070
   273
1070
     7
1002
}
  0
DIMENSION
  5
E7
330
1F
100
AcDbEntity
  8
치수문자_일반주서
100
AcDbDimension
  2
_D_1
 10
28.57499999999998
 20
18.08012021000376
 30
0.0
 11
9.720999999999982
 21
18.08012021000376
 31
0.0
 70
   160
  1
<>
 71
     2
 42
11.11250000000002
  3
SLDDIMSTYLE0
100
AcDbAlignedDimension
 13
39.6875
 23
1.785937500000005
 33
0.0
 14
28.57499999999998
 24
1.534855894158489
 34
0.0
 50
0.0000000000000366
100
AcDbRotatedDimension
1001
ACAD
1000
DSTYLE
1002
{
1070
   171
1070
     6
1070
   273
1070
     7
1002
}
  0
DIMENSION
  5
FC
330
1F
100
AcDbEntity
  8
치수문자_일반주서
100
AcDbDimension
  2
_D_2
 10
-39.68750000000006
 20
31.82431543062833
 30
0.0
 11
-2.025249286279307
 21
31.82431543062833
 31
0.0
 70
   160
  1
<>
 71
     2
 42
79.37500000000006
  3
SLDDIMSTYLE0
100
AcDbAlignedDimension
 13
39.6875
 23
1.785937500000005
 33
0.0
 14
-39.68750000000006
 24
1.785937500000004
 34
0.0
100
AcDbRotatedDimension
1001
ACAD
1000
DSTYLE
1002
{
1070
   171
1070
     6
1070
   273
1070
     7
1002
}
  0
DIMENSION
  5
10F
330
1F
100
AcDbEntity
  8
치수문자_일반주서
100
AcDbDimension
  2
_D_3
 10
-52.21124999999999
 20
-4.762500000000137
 30
0.0
 11
-52.21125000000001
 21
0.0000000000000013
 31
0.0
 70
   160
  1
%%c<>
 71
     2
 42
9.525000000000022
 52
-270.0
  3
SLDDIMSTYLE0
100
AcDbAlignedDimension
 13
-16.46631751809579
 23
4.762500000000018
 33
0.0
 14
-16.46631751809573
 24
-4.762500000000004
 34
0.0
 50
90.0000000000002
100
AcDbRotatedDimension
1001
ACAD
1000
DSTYLE
1002
{
1070
   171
1070
     6
1070
   273
1070
     7
1002
}
  0
LINE
  5
123
330
1F
100
AcDbEntity
  8
참조1
100
AcDbLine
 10
68.7193644723612
 20
7.441074928723896
 30
0.0
 11
68.7193644723612
 21
-7.438925071276109
 31
0.0
  0
LINE
  5
124
330
1F
100
AcDbEntity
  8
참조1
100
AcDbLine
 10
81.41936447236121
 20
5.441074928723896
 30
0.0
 11
68.7193644723612
 21
5.441074928723896
 31
0.0
  0
SOLID
  5
125
330
1F
100
AcDbEntity
  8
참조1
100
AcDbTrace
 10
68.7193644723612
 20
5.441074928723896
 30
0.0
 11
75.0693644723612
 21
4.425074928723896
 31
0.0
 12
75.0693644723612
 22
6.457074928723896
 32
0.0
 13
75.0693644723612
 23
6.457074928723896
 33
0.0
  0
LINE
  5
126
330
1F
100
AcDbEntity
  8
참조1
100
AcDbLine
 10
81.41936447236121
 20
-5.438925071276109
 30
0.0
 11
68.7193644723612
 21
-5.438925071276109
 31
0.0
  0
SOLID
  5
127
330
1F
100
AcDbEntity
  8
참조1
100
AcDbTrace
 10
68.7193644723612
 20
-5.438925071276109
 30
0.0
 11
75.0693644723612
 21
-6.454925071276109
 31
0.0
 12
75.0693644723612
 22
-4.422925071276109
 32
0.0
 13
75.0693644723612
 23
-4.422925071276109
 33
0.0
  0
MTEXT
  5
128
330
1F
100
AcDbEntity
  8
참조1
100
AcDbMText
 10
78.1037146049872
 20
11.01136670591223
 30
0.0
 40
3.5
 41
0.0
 71
     1
 72
     1
  1
A
  7
SLDTEXTSTYLE0
 73
     1
 44
1.0
  0
MTEXT
  5
129
330
1F
100
AcDbEntity
  8
참조1
100
AcDbMText
 10
78.1037146049872
 20
0.1313667059122219
 30
0.0
 40
3.5
 41
0.0
 71
     1
 72
     1
  1
A
  7
SLDTEXTSTYLE0
 73
     1
 44
1.0
  0
INSERT
  5
130
330
1F
100
AcDbEntity
  8
해칭선
100
AcDbBlockReference
  2
SW_DOWELSYMBOL_0
 10
0.0
 20
0.0
 30
0.0
  0
LINE
  5
4AA
330
1F
100
AcDbEntity
  8
0
  6
Continuous
 62
     1
370
    15
100
AcDbLine
 10
-37.07534693144953
 20
0.5094262538644905
 30
0.0
 11
-37.12450207619725
 21
0.5356115430331421
 31
0.0
  0
LINE
  5
4AB
330
1F
100
AcDbEntity
  8
0
  6
Continuous
 62
     1
370
    15
100
AcDbLine
 10
-35.09420019083328
 20
1.785937500000018
 30
0.0
 11
-36.1826365967186
 21
1.785937500000018
 31
0.0
  0
LINE
  5
4AC
330
1F
100
AcDbEntity
  8
0
  6
Continuous
 62
     1
370
    15
100
AcDbLine
 10
-31.32271810139594
 20
-1.785937499999988
 30
0.0
 11
-30.23584606302654
 21
-1.785937499999988
 31
0.0
  0
LINE
  5
4AD
330
1F
100
AcDbEntity
  8
0
  6
Continuous
 62
     1
370
    15
100
AcDbLine
 10
-36.1826365967186
 20
-1.785937499999988
 30
0.0
 11
-35.09420019083331
 21
-1.785937499999988
 31
0.0
  0
LINE
  5
4AE
330
1F
100
AcDbEntity
  8
0
  6
Continuous
 62
     1
370
    15
100
AcDbLine
 10
-30.23584606302654
 20
1.785937500000018
 30
0.0
 11
-31.32271810139591
 21
1.785937500000018
 31
0.0
  0
LINE
  5
4AF
330
1F
100
AcDbEntity
  8
외형선
  6
Continuous
370
    15
100
AcDbLine
 10
-16.46631751809579
 20
4.762500000000018
 30
0.0
 11
-27.57500000000005
 21
1.785937500000018
 31
0.0
  0
LINE
  5
4B0
330
1F
100
AcDbEntity
  8
외형선
  6
Continuous
370
    15
100
AcDbLine
 10
-27.57500000000005
 20
-1.785937499999988
 30
0.0
 11
-16.46631751809579
 21
-4.762499999999988
 31
0.0
  0
LINE
  5
4B1
330
1F
100
AcDbEntity
  8
외형선
  6
Continuous
370
    15
100
AcDbLine
 10
-27.57500000000005
 20
1.785937500000018
 30
0.0
 11
-28.07492954573598
 21
1.785937500000018
 31
0.0
  0
LINE
  5
4B2
330
1F
100
AcDbEntity
  8
외형선
  6
Continuous
370
    15
100
AcDbLine
 10
-28.07492954573598
 20
-1.785937499999988
 30
0.0
 11
-27.57500000000005
 21
-1.785937499999988
 31
0.0
  0
LINE
  5
4B3
330
1F
100
AcDbEntity
  8
0
  6
Continuous
 62
     1
370
    15
100
AcDbLine
 10
-39.68750000000003
 20
1.617490284686441
 30
0.0
 11
-39.68750000000003
 21
-0.1530215346864445
 31
0.0
  0
SPLINE
  5
4B4
330
1F
100
AcDbEntity
  8
0
  6
Continuous
 62
     1
370
    15
100
AcDbSpline
210
0.0
220
0.0
230
1.0
 70
     8
 71
     3
 72
    16
 73
    12
 74
     0
 42
0.000000001
 43
0.00000001
 40
0.0
 40
0.0
 40
0.0
 40
0.0
 40
0.0964754031045515
 40
0.2027829064045936
 40
0.3091279575455107
 40
0.4155120890704053
 40
0.5324102162432867
 40
0.6493080743673648
 40
0.7662056599954256
 40
0.8831029696853125
 40
1.0
 40
1.0
 40
1.0
 40
1.0
 10
-31.32271810139594
 20
-1.779793907312864
 30
0.0
 10
-31.59167159163786
 20
-1.770544205806998
 30
0.0
 10
-32.15698843597195
 20
-1.751102137731876
 30
0.0
 10
-33.01882955893393
 20
-1.543172344865936
 30
0.0
 10
-33.90835280472396
 20
-1.214990375192883
 30
0.0
 10
-34.82749494814516
 20
-0.7695452949757702
 30
0.0
 10
-35.77604351518596
 20
-0.2383708528312518
 30
0.0
 10
-36.7539125230461
 20
0.3338144610820712
 30
0.0
 10
-37.73177732336146
 20
0.8697921595691447
 30
0.0
 10
-38.7096397804163
 20
1.331082958216457
 30
0.0
 10
-39.36154685314003
 20
1.522021251917736
 30
0.0
 10
-39.68750000000003
 20
1.617490284686441
 30
0.0
  0
SPLINE
  5
4B5
330
1F
100
AcDbEntity
  8
0
  6
Continuous
 62
     1
370
    15
100
AcDbSpline
210
0.0
220
0.0
230
1.0
 70
     8
 71
     3
 72
    15
 73
    11
 74
     0
 42
0.000000001
 43
0.00000001
 40
0.0
 40
0.0
 40
0.0
 40
0.0
 40
0.1374325958928821
 40
0.2748096618808119
 40
0.4121423792840031
 40
0.5494420796175193
 40
0.68672020670032
 40
0.8239882779541364
 40
0.9612578451691993
 40
1.0
 40
1.0
 40
1.0
 40
1.0
 10
-39.68750000000006
 20
-0.1530215346864445
 30
0.0
 10
-39.39089291256917
 20
-0.3222984734227474
 30
0.0
 10
-38.79779858237214
 20
-0.6607839542223666
 30
0.0
 10
-37.90840709828319
 20
-1.110946601928333
 30
0.0
 10
-37.01935445518694
 20
-1.470982947437619
 30
0.0
 10
-36.13055648063124
 20
-1.709380489301295
 30
0.0
 10
-35.24193754644051
 20
-1.810268869852762
 30
0.0
 10
-34.35335190406118
 20
-1.752842098757511
 30
0.0
 10
-33.67750583893431
 20
-1.627738709356222
 30
0.0
 10
-33.29761555735152
 20
-1.484217463054392
 30
0.0
 10
-33.21399744409902
 20
-1.452626826470051
 30
0.0
  0
SPLINE
  5
4B6
330
1F
100
AcDbEntity
  8
0
  6
Continuous
 62
     1
370
    15
100
AcDbSpline
210
0.0
220
0.0
230
1.0
 70
     8
 71
     3
 72
    18
 73
    14
 74
     0
 42
0.000000001
 43
0.00000001
 40
0.0
 40
0.0
 40
0.0
 40
0.0
 40
0.0937229542999583
 40
0.1874478108334453
 40
0.2811824513199246
 40
0.3749347240563557
 40
0.4687124172414904
 40
0.5625232327349482
 40
0.6563685224484227
 40
0.7594885879530651
 40
0.8626084161200283
 40
0.9657280039083999
 40
0.9999999999999999
 40
0.9999999999999999
 40
0.9999999999999999
 40
0.9999999999999999
 10
-28.57499999999948
 20
-1.386343330361583
 30
0.0
 10
-28.87117486419368
 20
-1.267416280736355
 30
0.0
 10
-29.46353060384973
 20
-1.029559767701314
 30
0.0
 10
-30.35209869184115
 20
-0.5578669857217868
 30
0.0
 10
-31.24077888122073
 20
-0.0485685119844412
 30
0.0
 10
-32.12965910190781
 20
0.4669528357392074
 30
0.0
 10
-33.01882902873862
 20
0.9435906714180937
 30
0.0
 10
-33.90835294663648
 20
1.343180774000076
 30
0.0
 10
-34.82749490508087
 20
1.641371699764719
 30
0.0
 10
-35.77604353064453
 20
1.801942127278978
 30
0.0
 10
-36.75391250608479
 20
1.778855166318707
 30
0.0
 10
-37.51415495192325
 20
1.652429880270419
 30
0.0
 10
-37.94844157483146
 20
1.492258869148998
 30
0.0
 10
-38.05677331555836
 20
1.452304600393092
 30
0.0
  0
LINE
  5
4B7
330
1F
100
AcDbEntity
  8
외형선
  6
Continuous
370
    15
100
AcDbLine
 10
-28.57500000000005
 20
-1.534855894158368
 30
0.0
 11
-28.57500000000005
 21
-1.441291328112768
 31
0.0
  0
SPLINE
  5
4B8
330
1F
100
AcDbEntity
  8
0
  6
Continuous
 62
     1
370
    15
100
AcDbSpline
210
0.0
220
0.0
230
1.0
 70
     8
 71
     3
 72
    46
 73
    42
 74
     0
 42
0.000000001
 43
0.00000001
 40
0.0
 40
0.0
 40
0.0
 40
0.0
 40
0.0624999999999993
 40
0.0624999999999993
 40
0.1249999999999986
 40
0.1249999999999986
 40
0.1562499999999983
 40
0.1562499999999983
 40
0.1874999999999979
 40
0.1874999999999979
 40
0.2499999999999944
 40
0.2499999999999944
 40
0.2812499999999941
 40
0.2812499999999941
 40
0.3124999999999937
 40
0.3124999999999937
 40
0.3749999999999931
 40
0.3749999999999931
 40
0.4374999999999923
 40
0.4374999999999923
 40
0.4999999999999917
 40
0.4999999999999917
 40
0.562499999999991
 40
0.562499999999991
 40
0.593749999999992
 40
0.593749999999992
 40
0.624999999999993
 40
0.624999999999993
 40
0.6874999999999923
 40
0.6874999999999923
 40
0.718749999999992
 40
0.718749999999992
 40
0.7499999999999917
 40
0.7499999999999917
 40
0.8124999999999937
 40
0.8124999999999937
 40
0.8749999999999958
 40
0.8749999999999958
 40
0.9374999999999979
 40
0.9374999999999979
 40
1.0
 40
1.0
 40
1.0
 40
1.0
 10
-39.68750000000006
 20
1.785937500000004
 30
0.0
 10
-39.45883198957051
 20
1.76796413167611
 30
0.0
 10
-39.22404766304129
 20
1.741441235132897
 30
0.0
 10
-38.75973626457562
 20
1.659703446432631
 30
0.0
 10
-38.53167217229668
 20
1.604820219809896
 30
0.0
 10
-38.18237292352967
 20
1.502431899188708
 30
0.0
 10
-38.06572275009657
 20
1.465031154555036
 30
0.0
 10
-37.83418949701027
 20
1.384429347457982
 30
0.0
 10
-37.72027369432456
 20
1.341366178967676
 30
0.0
 10
-37.37411715906464
 20
1.203490888035646
 30
0.0
 10
-37.13896989780562
 20
1.100005695371238
 30
0.0
 10
-36.79286794234741
 20
0.9332294481996832
 30
0.0
 10
-36.67893861047821
 20
0.8758058882374946
 30
0.0
 10
-36.44737619760855
 20
0.7569127178638844
 30
0.0
 10
-36.33072050099548
 20
0.6955963102496845
 30
0.0
 10
-35.98143237072259
 20
0.5077498470429738
 30
0.0
 10
-35.75339140356581
 20
0.3780691321727978
 30
0.0
 10
-35.28903628794382
 20
0.1130220984282608
 30
0.0
 10
-35.05436740137341
 20
-0.0220480822200948
 30
0.0
 10
-34.59693086513315
 20
-0.2873034415615614
 30
0.0
 10
-34.36213158626339
 20
-0.4197875546519463
 30
0.0
 10
-33.89786450951999
 20
-0.6744928801305285
 30
0.0
 10
-33.66977631938454
 20
-0.7965221705647985
 30
0.0
 10
-33.32046641019977
 20
-0.9692665650916148
 30
0.0
 10
-33.20382191358249
 20
-1.02495304421852
 30
0.0
 10
-32.97231811985506
 20
-1.131508668876221
 30
0.0
 10
-32.85841473087072
 20
-1.182250237642875
 30
0.0
 10
-32.51220406021741
 20
-1.32740388133628
 30
0.0
 10
-32.27705711424505
 20
-1.414318378377487
 30
0.0
 10
-31.93101018276064
 20
-1.525043478003482
 30
0.0
 10
-31.81706620628421
 20
-1.558700198122508
 30
0.0
 10
-31.5854749333333
 20
-1.619695532833986
 30
0.0
 10
-31.46881386720048
 20
-1.646919397233844
 30
0.0
 10
-31.11953731344937
 20
-1.717942312151052
 30
0.0
 10
-30.89151849857979
 20
-1.750933944532888
 30
0.0
 10
-30.42712027055794
 20
-1.787477661018172
 30
0.0
 10
-30.19256587981999
 20
-1.790736304059947
 30
0.0
 10
-29.73502940308299
 20
-1.767428218611484
 30
0.0
 10
-29.5002154855886
 20
-1.740654166589194
 30
0.0
 10
-29.03599333494049
 20
-1.658445666439717
 30
0.0
 10
-28.8078800743192
 20
-1.603331565235492
 30
0.0
 10
-28.57499999999948
 20
-1.534855894158198
 30
0.0
  0
SPLINE
  5
4B9
330
1F
100
AcDbEntity
  8
0
  6
Continuous
 62
     1
370
    15
100
AcDbSpline
210
0.0
220
0.0
230
1.0
 70
     8
 71
     3
 72
    13
 73
     9
 74
     0
 42
0.000000001
 43
0.00000001
 40
0.0
 40
0.0
 40
0.0
 40
0.0
 40
0.1915429292612874
 40
0.383089746144182
 40
0.5746565586303938
 40
0.766259406395588
 40
0.957914206291871
 40
1.0
 40
1.0
 40
1.0
 40
1.0
 10
-28.57499999999948
 20
1.125888504368078
 30
0.0
 10
-28.87117484211922
 20
1.249700287919993
 30
0.0
 10
-29.46353053762584
 20
1.497326367950635
 30
0.0
 10
-30.35209895675453
 20
1.720601169327922
 30
0.0
 10
-31.24077788760167
 20
1.811986051889335
 30
0.0
 10
-32.1296628126081
 20
1.743278164795897
 30
0.0
 10
-32.78741618321635
 20
1.613788036801439
 30
0.0
 10
-33.14890936053968
 20
1.477216922863108
 30
0.0
 10
-33.21399744409899
 20
1.452626826470081
 30
0.0
  0
SPLINE
  5
4BA
330
1F
100
AcDbEntity
  8
외형선
  6
Continuous
370
    15
100
AcDbSpline
210
0.0
220
0.0
230
1.0
 70
    24
 71
     3
 72
    22
 73
    18
 74
     0
 42
0.000000001
 43
0.00000001
 40
0.0
 40
0.0
 40
0.0
 40
0.0
 40
0.1249999999999999
 40
0.1249999999999999
 40
0.25
 40
0.25
 40
0.375
 40
0.375
 40
0.5
 40
0.5
 40
0.625
 40
0.625
 40
0.75
 40
0.75
 40
0.875
 40
0.875
 40
1.0
 40
1.0
 40
1.0
 40
1.0
 10
-28.57500000000002
 20
-0.9131210971571726
 30
0.0
 10
-28.57500000000005
 20
-0.8932885017222667
 30
0.0
 10
-28.57500000000005
 20
-0.8654705403570084
 30
0.0
 10
-28.57500000000005
 20
-0.8036288797362652
 30
0.0
 10
-28.57500000000005
 20
-0.7633354865871091
 30
0.0
 10
-28.57500000000005
 20
-0.6560158762307531
 30
0.0
 10
-28.57500000000005
 20
-0.5888098673439537
 30
0.0
 10
-28.57500000000005
 20
-0.4212862625053042
 30
0.0
 10
-28.57500000000002
 20
-0.3206563587412454
 30
0.0
 10
-28.57500000000005
 20
-0.0891950481588559
 30
0.0
 10
-28.57500000000005
 20
0.0417616269705696
 30
0.0
 10
-28.57500000000005
 20
0.3134428040905
 30
0.0
 10
-28.57500000000005
 20
0.4536317446170421
 30
0.0
 10
-28.57500000000002
 20
0.7106028115510845
 30
0.0
 10
-28.57500000000005
 20
0.8266380131453992
 30
0.0
 10
-28.57500000000005
 20
1.01160714317615
 30
0.0
 10
-28.57500000000005
 20
1.080529870230976
 30
0.0
 10
-28.57500000000005
 20
1.12588850436832
 30
0.0
  0
SPLINE
  5
4BB
330
1F
100
AcDbEntity
  8
0
  6
Continuous
 62
     1
370
    15
100
AcDbSpline
210
0.0
220
0.0
230
1.0
 70
     8
 71
     3
 72
    14
 73
    10
 74
     0
 42
0.000000001
 43
0.00000001
 40
0.0
 40
0.0
 40
0.0
 40
0.0
 40
0.1136601618733704
 40
0.249984321223361
 40
0.399987333321065
 40
0.5499904119121567
 40
0.699993552332636
 40
0.8499967499173374
 40
1.0
 40
1.0
 40
1.0
 40
1.0
 10
-35.09420019083328
 20
1.77575878309024
 30
0.0
 10
-34.84725687397602
 20
1.76996765149049
 30
0.0
 10
-34.30412939265159
 20
1.757230628436688
 30
0.0
 10
-33.43519504647307
 20
1.555888518658023
 30
0.0
 10
-32.48685345720861
 20
1.209039326132427
 30
0.0
 10
-31.50891313925251
 20
0.7262688729538531
 30
0.0
 10
-30.53093699885761
 20
0.1745231739579516
 30
0.0
 10
-29.55296983908033
 20
-0.4013580165835855
 30
0.0
 10
-28.90098998438964
 20
-0.7425333837321368
 30
0.0
 10
-28.57499999999948
 20
-0.9131210971574568
 30
0.0
  0
LINE
  5
4BC
330
1F
100
AcDbEntity
  8
외형선
  6
Continuous
370
    15
100
AcDbLine
 10
-28.57500000000005
 20
-0.9131210971571726
 30
0.0
 11
-28.57500000000005
 21
-1.386343330361384
 31
0.0
  0
LINE
  5
4BD
330
1F
100
AcDbEntity
  8
0
  6
Continuous
 62
     1
370
    15
100
AcDbLine
 10
-39.68750000000006
 20
1.785937500000004
 30
0.0
 11
-39.68750000000003
 21
1.617490284686441
 31
0.0
  0
SPLINE
  5
4BE
330
1F
100
AcDbEntity
  8
0
  6
Continuous
 62
     1
370
    15
100
AcDbSpline
210
0.0
220
0.0
230
1.0
 70
     8
 71
     3
 72
    11
 73
     7
 74
     0
 42
0.000000001
 43
0.00000001
 40
0.0
 40
0.0
 40
0.0
 40
0.0
 40
0.1629952016716713
 40
0.4419974624370906
 40
0.7209990646142774
 40
1.0
 40
1.0
 40
1.0
 40
1.0
 10
-36.1826365967186
 20
-1.764308038796897
 30
0.0
 10
-36.37306206585802
 20
-1.766920632465669
 30
0.0
 10
-36.88944275240468
 20
-1.774005256798957
 30
0.0
 10
-37.73177737575708
 20
-1.587097257547043
 30
0.0
 10
-38.70963976731747
 20
-1.247702924120161
 30
0.0
 10
-39.3615468487738
 20
-0.9206771129718299
 30
0.0
 10
-39.68750000000003
 20
-0.7571644027892568
 30
0.0
  0
LINE
  5
4BF
330
1F
100
AcDbEntity
  8
0
  6
Continuous
 62
     1
370
    15
100
AcDbLine
 10
-39.68750000000003
 20
-0.1530215346864445
 30
0.0
 11
-39.68750000000003
 21
-0.7571644027892568
 31
0.0
  0
SPLINE
  5
4C0
330
1F
100
AcDbEntity
  8
0
  6
Continuous
 62
     1
370
    15
100
AcDbSpline
210
0.0
220
0.0
230
1.0
 70
     8
 71
     3
 72
     9
 73
     5
 74
     0
 42
0.000000001
 43
0.00000001
 40
0.0
 40
0.0
 40
0.0
 40
0.0
 40
0.5456297418755525
 40
0.9999999999999999
 40
0.9999999999999999
 40
0.9999999999999999
 40
0.9999999999999999
 10
-39.68750000000006
 20
-1.785937499999988
 30
0.0
 10
-39.39089164530358
 20
-1.752982707965358
 30
0.0
 10
-38.84728426481706
 20
-1.704621762223012
 30
0.0
 10
-38.30374251893582
 20
-1.531132817148374
 30
0.0
 10
-38.05677331555836
 20
-1.452304600393062
 30
0.0
  0
SPLINE
  5
4C1
330
1F
100
AcDbEntity
  8
0
  6
Continuous
 62
     1
370
    15
100
AcDbSpline
210
0.0
220
0.0
230
1.0
 70
     8
 71
     3
 72
     9
 73
     5
 74
     0
 42
0.000000001
 43
0.00000001
 40
0.0
 40
0.0
 40
0.0
 40
0.0
 40
0.4111618530025804
 40
1.0
 40
1.0
 40
1.0
 40
1.0
 10
-30.23584606302657
 20
1.767190312852919
 30
0.0
 10
-30.00822056073881
 20
1.767286815381113
 30
0.0
 10
-29.45460523717338
 20
1.767521522291518
 30
0.0
 10
-28.90098985549577
 20
1.621083932929125
 30
0.0
 10
-28.57499999999948
 20
1.534855894158213
 30
0.0
  0
LINE
  5
4C2
330
1F
100
AcDbEntity
  8
0
  6
Continuous
 62
     1
370
    15
100
AcDbLine
 10
-39.68750000000003
 20
-0.7571644027892568
 30
0.0
 11
-39.68750000000003
 21
-1.785937499999988
 31
0.0
  0
LINE
  5
4C3
330
1F
100
AcDbEntity
  8
외형선
  6
Continuous
370
    15
100
AcDbLine
 10
-28.57500000000005
 20
1.534855894158384
 30
0.0
 11
-28.57500000000005
 21
1.125888504368334
 31
0.0
  0
LINE
  5
4C4
330
1F
100
AcDbEntity
  8
외형선
  6
Continuous
370
    15
100
AcDbLine
 10
-27.57500000000005
 20
0.0000000000000149
 30
0.0
 11
-27.57500000000005
 21
-1.785937499999988
 31
0.0
  0
LINE
  5
4C5
330
1F
100
AcDbEntity
  8
외형선
  6
Continuous
370
    15
100
AcDbLine
 10
-27.57500000000005
 20
1.785937500000018
 30
0.0
 11
-27.57500000000005
 21
0.0000000000000149
 31
0.0
  0
LINE
  5
4C6
330
1F
100
AcDbEntity
  8
외형선
  6
Continuous
370
    15
100
AcDbLine
 10
-28.57499999999945
 20
-1.534855894158198
 30
0.0
 11
-28.35065477518572
 21
-1.463933049548316
 31
0.0
  0
LINE
  5
4C7
330
1F
100
AcDbEntity
  8
외형선
  6
Continuous
370
    15
100
AcDbLine
 10
-28.07492954573598
 20
-1.549317732651416
 30
0.0
 11
-28.07492954573598
 21
-1.785937499999988
 31
0.0
  0
SPLINE
  5
4C8
330
1F
100
AcDbEntity
  8
외형선
  6
Continuous
370
    15
100
AcDbSpline
210
0.0
220
0.0
230
1.0
 70
     8
 71
     3
 72
     8
 73
     4
 74
     0
 42
0.000000001
 43
0.00000001
 40
0.0
 40
0.0
 40
0.0
 40
0.0
 40
1.0
 40
1.0
 40
1.0
 40
1.0
 10
-28.57499999999948
 20
-1.386343330361583
 30
0.0
 10
-28.40763222599338
 20
-1.447022944997769
 30
0.0
 10
-28.23986116322945
 20
-1.501669070306618
 30
0.0
 10
-28.07492954573596
 20
-1.549314495572119
 30
0.0
  0
SPLINE
  5
4C9
330
1F
100
AcDbEntity
  8
외형선
  6
Continuous
370
    15
100
AcDbSpline
210
0.0
220
0.0
230
1.0
 70
     8
 71
     3
 72
     8
 73
     4
 74
     0
 42
0.000000001
 43
0.00000001
 40
0.0
 40
0.0
 40
0.0
 40
0.0
 40
1.0
 40
1.0
 40
1.0
 40
1.0
 10
-28.57499999999945
 20
-0.9131210971574568
 30
0.0
 10
-28.40763222599338
 20
-0.9958419561219636
 30
0.0
 10
-28.23986116322948
 20
-1.074621060234306
 30
0.0
 10
-28.07492954573598
 20
-1.147995385957344
 30
0.0
  0
LINE
  5
4CA
330
1F
100
AcDbEntity
  8
외형선
  6
Continuous
370
    15
100
AcDbLine
 10
-28.07492954573598
 20
0.8883621543031246
 30
0.0
 11
-28.07492954573598
 21
-1.147995716804075
 31
0.0
  0
SPLINE
  5
4CB
330
1F
100
AcDbEntity
  8
외형선
  6
Continuous
370
    15
100
AcDbSpline
210
0.0
220
0.0
230
1.0
 70
     8
 71
     3
 72
     8
 73
     4
 74
     0
 42
0.000000001
 43
0.00000001
 40
0.0
 40
0.0
 40
0.0
 40
0.0
 40
1.0
 40
1.0
 40
1.0
 40
1.0
 10
-28.57499999999948
 20
1.125888504368078
 30
0.0
 10
-28.40763222599338
 20
1.051171710730501
 30
0.0
 10
-28.23986116322945
 20
0.9714614779205142
 30
0.0
 10
-28.07492954573596
 20
0.8883677997970956
 30
0.0
  0
SPLINE
  5
4CC
330
1F
100
AcDbEntity
  8
외형선
  6
Continuous
370
    15
100
AcDbSpline
210
0.0
220
0.0
230
1.0
 70
     8
 71
     3
 72
     8
 73
     4
 74
     0
 42
0.000000001
 43
0.00000001
 40
0.0
 40
0.0
 40
0.0
 40
0.0
 40
1.0
 40
1.0
 40
1.0
 40
1.0
 10
-28.57499999999945
 20
1.534855894158228
 30
0.0
 10
-28.40763222599338
 20
1.485643351284992
 30
0.0
 10
-28.23986116322948
 20
1.429663238913265
 30
0.0
 10
-28.07492954573598
 20
1.368093325664191
 30
0.0
  0
LINE
  5
4CD
330
1F
100
AcDbEntity
  8
외형선
  6
Continuous
370
    15
100
AcDbLine
 10
-28.07492954573598
 20
1.785937500000018
 30
0.0
 11
-28.07492954573598
 21
1.368093048043804
 31
0.0
  0
LINE
  5
4CE
330
1F
100
AcDbEntity
  8
외형선
  6
Continuous
370
    15
100
AcDbLine
 10
-28.07492954573596
 20
1.549314495572148
 30
0.0
 11
-28.35065477518572
 21
1.463933049548346
 31
0.0
  0
SPLINE
  5
4CF
330
1F
100
AcDbEntity
  8
외형선
  6
Continuous
370
    15
100
AcDbSpline
210
0.0
220
0.0
230
1.0
 70
    24
 71
     3
 72
    22
 73
    18
 74
     0
 42
0.000000001
 43
0.00000001
 40
0.0
 40
0.0
 40
0.0
 40
0.0
 40
0.1249999999999999
 40
0.1249999999999999
 40
0.2499999999999999
 40
0.2499999999999999
 40
0.3749999999999998
 40
0.3749999999999998
 40
0.4999999999999999
 40
0.4999999999999999
 40
0.6249999999999999
 40
0.6249999999999999
 40
0.7499999999999999
 40
0.7499999999999999
 40
0.875
 40
0.875
 40
1.0
 40
1.0
 40
1.0
 40
1.0
 10
-28.57500000000005
 20
1.125888504368334
 30
0.0
 10
-28.57500000000002
 20
1.08052987023099
 30
0.0
 10
-28.57500000000002
 20
1.011607143176165
 30
0.0
 10
-28.57500000000002
 20
0.8266380131453992
 30
0.0
 10
-28.57500000000005
 20
0.7106028115510845
 30
0.0
 10
-28.57500000000002
 20
0.4536317446170137
 30
0.0
 10
-28.57500000000002
 20
0.3134428040904715
 30
0.0
 10
-28.57500000000005
 20
0.0417616269705128
 30
0.0
 10
-28.57500000000005
 20
-0.0891950481589128
 30
0.0
 10
-28.57500000000005
 20
-0.3206563587413165
 30
0.0
 10
-28.57500000000005
 20
-0.4212862625053753
 30
0.0
 10
-28.57500000000002
 20
-0.5888098673440105
 30
0.0
 10
-28.57500000000005
 20
-0.6560158762308099
 30
0.0
 10
-28.57500000000005
 20
-0.763335486587166
 30
0.0
 10
-28.57500000000002
 20
-0.8036288797363078
 30
0.0
 10
-28.57500000000005
 20
-0.8654705403570369
 30
0.0
 10
-28.57500000000002
 20
-0.8932885017222951
 30
0.0
 10
-28.57500000000005
 20
-0.913121097157201
 30
0.0
  0
LINE
  5
4D0
330
1F
100
AcDbEntity
  8
외형선
  6
Continuous
370
    15
100
AcDbLine
 10
-28.57500000000005
 20
-1.441291328112768
 30
0.0
 11
-28.57500000000002
 21
-1.534855894158482
 31
0.0
  0
LINE
  5
4D1
330
1F
100
AcDbEntity
  8
외형선
  6
Continuous
370
    15
100
AcDbLine
 10
-16.46631751809579
 20
0.0000000000000149
 30
0.0
 11
-16.46631751809579
 21
-4.762499999999988
 31
0.0
  0
LINE
  5
4D2
330
1F
100
AcDbEntity
  8
외형선
  6
Continuous
370
    15
100
AcDbLine
 10
-16.46631751809579
 20
4.762500000000018
 30
0.0
 11
-16.46631751809579
 21
0.0000000000000149
 31
0.0
  0
LINE
  5
543
330
1F
100
AcDbEntity
  8
외형선
  6
Continuous
370
    15
100
AcDbLine
 10
-3.568700000000035
 20
3.49250000000002
 30
0.0
 11
3.568700000000035
 21
3.49250000000002
 31
0.0
  0
LINE
  5
544
330
1F
100
AcDbEntity
  8
외형선
  6
Continuous
370
    15
100
AcDbLine
 10
-3.568700000000035
 20
3.49250000000002
 30
0.0
 11
-4.838700000000017
 21
4.762500000000002
 31
0.0
  0
LINE
  5
545
330
1F
100
AcDbEntity
  8
외형선
  6
Continuous
370
    15
100
AcDbLine
 10
3.568700000000035
 20
3.49250000000002
 30
0.0
 11
4.838700000000017
 21
4.762500000000002
 31
0.0
  0
LINE
  5
547
330
1F
100
AcDbEntity
  8
외형선
  6
Continuous
370
    15
100
AcDbLine
 10
-4.83870000000001
 20
4.762500000000002
 30
0.0
 11
-16.46631751809579
 21
4.762500000000002
 31
0.0
  0
ENDSEC
  0
SECTION
  2
OBJECTS
  0
DICTIONARY
  5
C
330
0
100
AcDbDictionary
281
     1
  3
ACAD_GROUP
350
D
  3
ACAD_IMAGE_VARS
350
154
  3
ACAD_LAYOUT
350
1A
  3
ACAD_MLINESTYLE
350
17
  3
ACAD_PLOTSETTINGS
350
19
  3
ACAD_PLOTSTYLENAME
350
E
  3
ACAD_SCALELIST
350
47
  3
APPDATA
350
152
  3
DWGPROPS
350
56B
  0
DICTIONARY
  5
17B
330
2
100
AcDbDictionary
280
     1
281
     1
  3
ACAD_LAYERSTATES
360
17C
  0
DICTIONARY
  5
D
102
{ACAD_REACTORS
330
C
102
}
330
C
100
AcDbDictionary
281
     1
  0
RASTERVARIABLES
  5
154
102
{ACAD_REACTORS
330
C
102
}
330
C
100
AcDbRasterVariables
 90
        0
 70
     1
 71
     1
 72
     1
  0
DICTIONARY
  5
1A
102
{ACAD_REACTORS
330
C
102
}
330
C
100
AcDbDictionary
281
     1
  3
Layout1
350
1E
  3
Layout2
350
26
  3
Model
350
22
  0
DICTIONARY
  5
17
102
{ACAD_REACTORS
330
C
102
}
330
C
100
AcDbDictionary
281
     1
  3
Standard
350
18
  0
DICTIONARY
  5
19
102
{ACAD_REACTORS
330
C
102
}
330
C
100
AcDbDictionary
281
     1
  0
ACDBDICTIONARYWDFLT
  5
E
102
{ACAD_REACTORS
330
C
102
}
330
C
100
AcDbDictionary
281
     1
  3
Normal
350
F
100
AcDbDictionaryWithDefault
340
F
  0
DICTIONARY
  5
47
102
{ACAD_REACTORS
330
C
102
}
330
C
100
AcDbDictionary
281
     1
  3
A0
350
48
  3
A1
350
49
  3
A2
350
4A
  3
A3
350
4B
  3
A4
350
4C
  3
A5
350
4D
  3
A6
350
4E
  3
A7
350
4F
  3
A8
350
50
  3
A9
350
51
  3
B0
350
52
  3
B1
350
53
  3
B2
350
54
  3
B3
350
55
  3
B4
350
56
  3
B5
350
57
  3
B6
350
58
  3
B7
350
59
  3
B8
350
5A
  3
B9
350
5B
  3
C0
350
5C
  3
C1
350
5D
  3
C2
350
5E
  3
C3
350
5F
  3
C4
350
60
  3
C5
350
61
  3
C6
350
62
  3
C7
350
63
  3
C8
350
64
  3
C9
350
65
  3
D0
350
66
  3
D1
350
67
  3
D2
350
68
  0
DICTIONARY
  5
152
102
{ACAD_REACTORS
330
C
102
}
330
C
100
AcDbDictionary
281
     1
  0
XRECORD
  5
56B
102
{ACAD_REACTORS
330
C
102
}
330
C
100
AcDbXrecord
280
     1
  1
DWGPROPS COOKIE
  2

  3

  4

  6

  7

  8
12016016
  9

300
=
301
=
302
=
303
=
304
=
305
=
306
=
307
=
308
=
309
=
 40
0.0
 41
2458313.094330313
 42
2458319.121141586
  1

 90
        0
  0
DICTIONARY
  5
17C
102
{ACAD_REACTORS
330
17B
102
}
330
17B
100
AcDbDictionary
281
     1
  0
LAYOUT
  5
1E
102
{ACAD_REACTORS
330
1A
102
}
330
1A
100
AcDbPlotSettings
  1

  2
none_device
  4

  6

 40
0.0
 41
0.0
 42
0.0
 43
0.0
 44
0.0
 45
0.0
 46
0.0
 47
0.0
 48
0.0
 49
0.0
140
0.0
141
0.0
142
1.0
143
1.0
 70
   688
 72
     1
 73
     0
 74
     5
  7

 75
    16
147
1.0
148
0.0
149
0.0
100
AcDbLayout
  1
Layout1
 70
     1
 71
     1
 10
0.0
 20
0.0
 11
420.0
 21
297.0
 12
0.0
 22
0.0
 32
0.0
 14
1.000000000000000E+20
 24
1.000000000000000E+20
 34
1.000000000000000E+20
 15
-1.000000000000000E+20
 25
-1.000000000000000E+20
 35
-1.000000000000000E+20
146
0.0
 13
0.0
 23
0.0
 33
0.0
 16
1.0
 26
0.0
 36
0.0
 17
0.0
 27
1.0
 37
0.0
 76
     0
330
1B
  0
LAYOUT
  5
26
102
{ACAD_REACTORS
330
1A
102
}
330
1A
100
AcDbPlotSettings
  1

  2
none_device
  4

  6

 40
0.0
 41
0.0
 42
0.0
 43
0.0
 44
0.0
 45
0.0
 46
0.0
 47
0.0
 48
0.0
 49
0.0
140
0.0
141
0.0
142
1.0
143
1.0
 70
   688
 72
     1
 73
     0
 74
     5
  7

 75
    16
147
1.0
148
0.0
149
0.0
100
AcDbLayout
  1
Layout2
 70
     1
 71
     2
 10
0.0
 20
0.0
 11
0.0
 21
0.0
 12
0.0
 22
0.0
 32
0.0
 14
0.0
 24
0.0
 34
0.0
 15
0.0
 25
0.0
 35
0.0
146
0.0
 13
0.0
 23
0.0
 33
0.0
 16
1.0
 26
0.0
 36
0.0
 17
0.0
 27
1.0
 37
0.0
 76
     0
330
23
  0
LAYOUT
  5
22
102
{ACAD_REACTORS
330
1A
102
}
330
1A
100
AcDbPlotSettings
  1

  2
none_device
  4
ANSI_A_(11.00_x_8.50_Inches)
  6

 40
6.35
 41
19.05
 42
6.35000508
 43
19.05000254
 44
279.4
 45
215.9
 46
100.2680213088344
 47
80.98544261356565
 48
0.0
 49
0.0
140
0.0
141
0.0
142
0.0659530402710131
143
1.0
 70
  1696
 72
     0
 73
     0
 74
     0
  7

 75
     0
147
0.0235690232323232
148
0.0
149
0.0
100
AcDbLayout
  1
Model
 70
     1
 71
     0
 10
0.0
 20
0.0
 11
420.0
 21
297.0
 12
0.0
 22
0.0
 32
0.0
 14
-56.58625000000006
 24
-49.97180738881174
 34
0.0
 15
81.41936447236121
 25
37.26493750000007
 35
0.0
146
0.0
 13
0.0
 23
0.0
 33
0.0
 16
1.0
 26
0.0
 36
0.0
 17
0.0
 27
1.0
 37
0.0
 76
     0
330
1F
331
29
  0
MLINESTYLE
  5
18
102
{ACAD_REACTORS
330
17
102
}
330
17
100
AcDbMlineStyle
  2
Standard
 70
     0
  3

 62
   256
 51
90.0
 52
90.0
 71
     2
 49
0.5
 62
   256
  6
BYLAYER
 49
-0.5
 62
   256
  6
BYLAYER
  0
ACDBPLACEHOLDER
  5
F
102
{ACAD_REACTORS
330
E
102
}
330
E
  0
SCALE
  5
48
102
{ACAD_REACTORS
330
47
102
}
330
47
100
AcDbScale
 70
     0
300
1:1
140
1.0
141
1.0
290
     1
  0
SCALE
  5
49
102
{ACAD_REACTORS
330
47
102
}
330
47
100
AcDbScale
 70
     0
300
1:2
140
1.0
141
2.0
290
     0
  0
SCALE
  5
4A
102
{ACAD_REACTORS
330
47
102
}
330
47
100
AcDbScale
 70
     0
300
1:4
140
1.0
141
4.0
290
     0
  0
SCALE
  5
4B
102
{ACAD_REACTORS
330
47
102
}
330
47
100
AcDbScale
 70
     0
300
1:5
140
1.0
141
5.0
290
     0
  0
SCALE
  5
4C
102
{ACAD_REACTORS
330
47
102
}
330
47
100
AcDbScale
 70
     0
300
1:8
140
1.0
141
8.0
290
     0
  0
SCALE
  5
4D
102
{ACAD_REACTORS
330
47
102
}
330
47
100
AcDbScale
 70
     0
300
1:10
140
1.0
141
10.0
290
     0
  0
SCALE
  5
4E
102
{ACAD_REACTORS
330
47
102
}
330
47
100
AcDbScale
 70
     0
300
1:16
140
1.0
141
16.0
290
     0
  0
SCALE
  5
4F
102
{ACAD_REACTORS
330
47
102
}
330
47
100
AcDbScale
 70
     0
300
1:20
140
1.0
141
20.0
290
     0
  0
SCALE
  5
50
102
{ACAD_REACTORS
330
47
102
}
330
47
100
AcDbScale
 70
     0
300
1:30
140
1.0
141
30.0
290
     0
  0
SCALE
  5
51
102
{ACAD_REACTORS
330
47
102
}
330
47
100
AcDbScale
 70
     0
300
1:40
140
1.0
141
40.0
290
     0
  0
SCALE
  5
52
102
{ACAD_REACTORS
330
47
102
}
330
47
100
AcDbScale
 70
     0
300
1:50
140
1.0
141
50.0
290
     0
  0
SCALE
  5
53
102
{ACAD_REACTORS
330
47
102
}
330
47
100
AcDbScale
 70
     0
300
1:100
140
1.0
141
100.0
290
     0
  0
SCALE
  5
54
102
{ACAD_REACTORS
330
47
102
}
330
47
100
AcDbScale
 70
     0
300
2:1
140
2.0
141
1.0
290
     0
  0
SCALE
  5
55
102
{ACAD_REACTORS
330
47
102
}
330
47
100
AcDbScale
 70
     0
300
4:1
140
4.0
141
1.0
290
     0
  0
SCALE
  5
56
102
{ACAD_REACTORS
330
47
102
}
330
47
100
AcDbScale
 70
     0
300
8:1
140
8.0
141
1.0
290
     0
  0
SCALE
  5
57
102
{ACAD_REACTORS
330
47
102
}
330
47
100
AcDbScale
 70
     0
300
10:1
140
10.0
141
1.0
290
     0
  0
SCALE
  5
58
102
{ACAD_REACTORS
330
47
102
}
330
47
100
AcDbScale
 70
     0
300
100:1
140
100.0
141
1.0
290
     0
  0
SCALE
  5
59
102
{ACAD_REACTORS
330
47
102
}
330
47
100
AcDbScale
 70
     0
300
1/128" = 1'-0"
140
0.0078125
141
12.0
290
     0
  0
SCALE
  5
5A
102
{ACAD_REACTORS
330
47
102
}
330
47
100
AcDbScale
 70
     0
300
1/64" = 1'-0"
140
0.015625
141
12.0
290
     0
  0
SCALE
  5
5B
102
{ACAD_REACTORS
330
47
102
}
330
47
100
AcDbScale
 70
     0
300
1/32" = 1'-0"
140
0.03125
141
12.0
290
     0
  0
SCALE
  5
5C
102
{ACAD_REACTORS
330
47
102
}
330
47
100
AcDbScale
 70
     0
300
1/16" = 1'-0"
140
0.0625
141
12.0
290
     0
  0
SCALE
  5
5D
102
{ACAD_REACTORS
330
47
102
}
330
47
100
AcDbScale
 70
     0
300
3/32" = 1'-0"
140
0.09375
141
12.0
290
     0
  0
SCALE
  5
5E
102
{ACAD_REACTORS
330
47
102
}
330
47
100
AcDbScale
 70
     0
300
1/8" = 1'-0"
140
0.125
141
12.0
290
     0
  0
SCALE
  5
5F
102
{ACAD_REACTORS
330
47
102
}
330
47
100
AcDbScale
 70
     0
300
3/16" = 1'-0"
140
0.1875
141
12.0
290
     0
  0
SCALE
  5
60
102
{ACAD_REACTORS
330
47
102
}
330
47
100
AcDbScale
 70
     0
300
1/4" = 1'-0"
140
0.25
141
12.0
290
     0
  0
SCALE
  5
61
102
{ACAD_REACTORS
330
47
102
}
330
47
100
AcDbScale
 70
     0
300
3/8" = 1'-0"
140
0.375
141
12.0
290
     0
  0
SCALE
  5
62
102
{ACAD_REACTORS
330
47
102
}
330
47
100
AcDbScale
 70
     0
300
1/2" = 1'-0"
140
0.5
141
12.0
290
     0
  0
SCALE
  5
63
102
{ACAD_REACTORS
330
47
102
}
330
47
100
AcDbScale
 70
     0
300
3/4" = 1'-0"
140
0.75
141
12.0
290
     0
  0
SCALE
  5
64
102
{ACAD_REACTORS
330
47
102
}
330
47
100
AcDbScale
 70
     0
300
1" = 1'-0"
140
1.0
141
12.0
290
     0
  0
SCALE
  5
65
102
{ACAD_REACTORS
330
47
102
}
330
47
100
AcDbScale
 70
     0
300
1-1/2" = 1'-0"
140
1.5
141
12.0
290
     0
  0
SCALE
  5
66
102
{ACAD_REACTORS
330
47
102
}
330
47
100
AcDbScale
 70
     0
300
3" = 1'-0"
140
3.0
141
12.0
290
     0
  0
SCALE
  5
67
102
{ACAD_REACTORS
330
47
102
}
330
47
100
AcDbScale
 70
     0
300
6" = 1'-0"
140
6.0
141
12.0
290
     0
  0
SCALE
  5
68
102
{ACAD_REACTORS
330
47
102
}
330
47
100
AcDbScale
 70
     0
300
1'-0" = 1'-0"
140
12.0
141
12.0
290
     0
  0
ENDSEC
  0
EOF
