  0
SECTION
  2
HEADER
  9
$ACADVER
  1
AC1015
  9
$ACADMAINTVER
 70
     6
  9
$DWGCODEPAGE
  3
ANSI_949
  9
$INSBASE
 10
0.0
 20
0.0
 30
0.0
  9
$EXTMIN
 10
-58.17375000000006
 20
-66.94091727465377
 30
0.0
  9
$EXTMAX
 10
133.9045131268236
 20
38.53681250000005
 30
0.0
  9
$LIMMIN
 10
0.0
 20
0.0
  9
$LIMMAX
 10
420.0
 20
297.0
  9
$ORTHOMODE
 70
     1
  9
$REGENMODE
 70
     1
  9
$FILLMODE
 70
     1
  9
$QTEXTMODE
 70
     0
  9
$MIRRTEXT
 70
     1
  9
$LTSCALE
 40
1.0
  9
$ATTMODE
 70
     1
  9
$TEXTSIZE
 40
3.5
  9
$TRACEWID
 40
1.0
  9
$TEXTSTYLE
  7
Standard
  9
$CLAYER
  8
0
  9
$CELTYPE
  6
ByLayer
  9
$CECOLOR
 62
   256
  9
$CELTSCALE
 40
1.0
  9
$DISPSILH
 70
     0
  9
$DIMSCALE
 40
1.0
  9
$DIMASZ
 40
3.302
  9
$DIMEXO
 40
1.0
  9
$DIMDLI
 40
3.75
  9
$DIMRND
 40
0.0
  9
$DIMDLE
 40
0.0
  9
$DIMEXE
 40
1.0
  9
$DIMTP
 40
0.0
  9
$DIMTM
 40
0.0
  9
$DIMTXT
 40
3.5
  9
$DIMCEN
 40
2.5
  9
$DIMTSZ
 40
0.0
  9
$DIMTOL
 70
     0
  9
$DIMLIM
 70
     0
  9
$DIMTIH
 70
     1
  9
$DIMTOH
 70
     1
  9
$DIMSE1
 70
     0
  9
$DIMSE2
 70
     0
  9
$DIMTAD
 70
     1
  9
$DIMZIN
 70
     0
  9
$DIMBLK
  1

  9
$DIMASO
 70
     1
  9
$DIMSHO
 70
     1
  9
$DIMPOST
  1

  9
$DIMAPOST
  1

  9
$DIMALT
 70
     0
  9
$DIMALTD
 70
     3
  9
$DIMALTF
 40
0.0393700787401575
  9
$DIMLFAC
 40
1.0
  9
$DIMTOFL
 70
     1
  9
$DIMTVP
 40
0.0
  9
$DIMTIX
 70
     0
  9
$DIMSOXD
 70
     0
  9
$DIMSAH
 70
     0
  9
$DIMBLK1
  1

  9
$DIMBLK2
  1

  9
$DIMSTYLE
  2
ISO-25
  9
$DIMCLRD
 70
     0
  9
$DIMCLRE
 70
     0
  9
$DIMCLRT
 70
     0
  9
$DIMTFAC
 40
1.0
  9
$DIMGAP
 40
1.524
  9
$DIMJUST
 70
     0
  9
$DIMSD1
 70
     0
  9
$DIMSD2
 70
     0
  9
$DIMTOLJ
 70
     0
  9
$DIMTZIN
 70
     0
  9
$DIMALTZ
 70
     0
  9
$DIMALTTZ
 70
     0
  9
$DIMUPT
 70
     0
  9
$DIMDEC
 70
     2
  9
$DIMTDEC
 70
     2
  9
$DIMALTU
 70
     2
  9
$DIMALTTD
 70
     3
  9
$DIMTXSTY
  7
Standard
  9
$DIMAUNIT
 70
     0
  9
$DIMADEC
 70
     2
  9
$DIMALTRND
 40
0.0
  9
$DIMAZIN
 70
     0
  9
$DIMDSEP
 70
    44
  9
$DIMATFIT
 70
     3
  9
$DIMFRAC
 70
     0
  9
$DIMLDRBLK
  1

  9
$DIMLUNIT
 70
     2
  9
$DIMLWD
 70
    -2
  9
$DIMLWE
 70
    -2
  9
$DIMTMOVE
 70
     0
  9
$LUNITS
 70
     2
  9
$LUPREC
 70
     2
  9
$SKETCHINC
 40
1.0
  9
$FILLETRAD
 40
10.0
  9
$AUNITS
 70
     0
  9
$AUPREC
 70
     2
  9
$MENU
  1
.
  9
$ELEVATION
 40
0.0
  9
$PELEVATION
 40
0.0
  9
$THICKNESS
 40
0.0
  9
$LIMCHECK
 70
     0
  9
$CHAMFERA
 40
0.0
  9
$CHAMFERB
 40
0.0
  9
$CHAMFERC
 40
0.0
  9
$CHAMFERD
 40
0.0
  9
$SKPOLY
 70
     0
  9
$TDCREATE
 40
2458313.469753704
  9
$TDUCREATE
 40
2458313.094753704
  9
$TDUPDATE
 40
2458319.496040127
  9
$TDUUPDATE
 40
2458319.121040127
  9
$TDINDWG
 40
0.0026404167
  9
$TDUSRTIMER
 40
2458319.120993345
  9
$USRTIMER
 70
     1
  9
$ANGBASE
 50
0.0
  9
$ANGDIR
 70
     0
  9
$PDMODE
 70
     0
  9
$PDSIZE
 40
-1.0
  9
$PLINEWID
 40
0.0
  9
$SPLFRAME
 70
     0
  9
$SPLINETYPE
 70
     6
  9
$SPLINESEGS
 70
     8
  9
$HANDSEED
  5
3FE
  9
$SURFTAB1
 70
     6
  9
$SURFTAB2
 70
     6
  9
$SURFTYPE
 70
     6
  9
$SURFU
 70
     6
  9
$SURFV
 70
     6
  9
$UCSBASE
  2

  9
$UCSNAME
  2

  9
$UCSORG
 10
0.0
 20
0.0
 30
0.0
  9
$UCSXDIR
 10
1.0
 20
0.0
 30
0.0
  9
$UCSYDIR
 10
0.0
 20
1.0
 30
0.0
  9
$UCSORTHOREF
  2

  9
$UCSORTHOVIEW
 70
     0
  9
$UCSORGTOP
 10
0.0
 20
0.0
 30
0.0
  9
$UCSORGBOTTOM
 10
0.0
 20
0.0
 30
0.0
  9
$UCSORGLEFT
 10
0.0
 20
0.0
 30
0.0
  9
$UCSORGRIGHT
 10
0.0
 20
0.0
 30
0.0
  9
$UCSORGFRONT
 10
0.0
 20
0.0
 30
0.0
  9
$UCSORGBACK
 10
0.0
 20
0.0
 30
0.0
  9
$PUCSBASE
  2

  9
$PUCSNAME
  2

  9
$PUCSORG
 10
0.0
 20
0.0
 30
0.0
  9
$PUCSXDIR
 10
1.0
 20
0.0
 30
0.0
  9
$PUCSYDIR
 10
0.0
 20
1.0
 30
0.0
  9
$PUCSORTHOREF
  2

  9
$PUCSORTHOVIEW
 70
     0
  9
$PUCSORGTOP
 10
0.0
 20
0.0
 30
0.0
  9
$PUCSORGBOTTOM
 10
0.0
 20
0.0
 30
0.0
  9
$PUCSORGLEFT
 10
0.0
 20
0.0
 30
0.0
  9
$PUCSORGRIGHT
 10
0.0
 20
0.0
 30
0.0
  9
$PUCSORGFRONT
 10
0.0
 20
0.0
 30
0.0
  9
$PUCSORGBACK
 10
0.0
 20
0.0
 30
0.0
  9
$USERI1
 70
     0
  9
$USERI2
 70
     0
  9
$USERI3
 70
     0
  9
$USERI4
 70
     0
  9
$USERI5
 70
     0
  9
$USERR1
 40
0.0
  9
$USERR2
 40
0.0
  9
$USERR3
 40
0.0
  9
$USERR4
 40
0.0
  9
$USERR5
 40
0.0
  9
$WORLDVIEW
 70
     1
  9
$SHADEDGE
 70
     3
  9
$SHADEDIF
 70
    70
  9
$TILEMODE
 70
     1
  9
$MAXACTVP
 70
    64
  9
$PINSBASE
 10
0.0
 20
0.0
 30
0.0
  9
$PLIMCHECK
 70
     0
  9
$PEXTMIN
 10
1.000000000000000E+20
 20
1.000000000000000E+20
 30
1.000000000000000E+20
  9
$PEXTMAX
 10
-1.000000000000000E+20
 20
-1.000000000000000E+20
 30
-1.000000000000000E+20
  9
$PLIMMIN
 10
0.0
 20
0.0
  9
$PLIMMAX
 10
0.0
 20
0.0
  9
$UNITMODE
 70
     0
  9
$VISRETAIN
 70
     1
  9
$PLINEGEN
 70
     0
  9
$PSLTSCALE
 70
     1
  9
$TREEDEPTH
 70
  3020
  9
$CMLSTYLE
  2
Standard
  9
$CMLJUST
 70
     0
  9
$CMLSCALE
 40
20.0
  9
$PROXYGRAPHICS
 70
     1
  9
$MEASUREMENT
 70
     1
  9
$CELWEIGHT
370
    -1
  9
$ENDCAPS
280
     0
  9
$JOINSTYLE
280
     0
  9
$LWDISPLAY
290
     1
  9
$INSUNITS
 70
     4
  9
$HYPERLINKBASE
  1

  9
$STYLESHEET
  1

  9
$XEDIT
290
     1
  9
$CEPSNTYPE
380
     0
  9
$PSTYLEMODE
290
     1
  9
$FINGERPRINTGUID
  2
{01A12338-7B2F-49F8-AD23-05466DE20D25}
  9
$VERSIONGUID
  2
{FAEB1C32-E019-11D5-929B-00C0DF256EC4}
  9
$EXTNAMES
290
     1
  9
$PSVPSCALE
 40
0.0
  9
$OLESTARTUP
290
     0
  0
ENDSEC
  0
SECTION
  2
CLASSES
  0
CLASS
  1
ACDBDICTIONARYWDFLT
  2
AcDbDictionaryWithDefault
  3
ObjectDBX Classes
 90
        0
280
     0
281
     0
  0
CLASS
  1
VISUALSTYLE
  2
AcDbVisualStyle
  3
ObjectDBX Classes
 90
     4095
280
     0
281
     0
  0
CLASS
  1
MATERIAL
  2
AcDbMaterial
  3
ObjectDBX Classes
 90
     1153
280
     0
281
     0
  0
CLASS
  1
SCALE
  2
AcDbScale
  3
ObjectDBX Classes
 90
     1153
280
     0
281
     0
  0
CLASS
  1
SUN
  2
AcDbSun
  3
SCENEOE
 90
     1153
280
     0
281
     0
  0
CLASS
  1
ACDBPLACEHOLDER
  2
AcDbPlaceHolder
  3
ObjectDBX Classes
 90
        0
280
     0
281
     0
  0
CLASS
  1
LAYOUT
  2
AcDbLayout
  3
ObjectDBX Classes
 90
        0
280
     0
281
     0
  0
CLASS
  1
TABLESTYLE
  2
AcDbTableStyle
  3
ObjectDBX Classes
 90
     4095
280
     0
281
     0
  0
CLASS
  1
MLEADERSTYLE
  2
AcDbMLeaderStyle
  3
ACDB_MLEADERSTYLE_CLASS
 90
     4095
280
     0
281
     0
  0
CLASS
  1
RASTERVARIABLES
  2
AcDbRasterVariables
  3
ISM
 90
        0
280
     0
281
     0
  0
ENDSEC
  0
SECTION
  2
TABLES
  0
TABLE
  2
VPORT
  5
8
330
0
100
AcDbSymbolTable
 70
     1
  0
VPORT
  5
29
330
8
100
AcDbSymbolTableRecord
100
AcDbViewportTableRecord
  2
*Active
 70
     0
 10
0.0
 20
0.0
 11
1.0
 21
1.0
 12
-0.4773656984535588
 22
-15.78624789493762
 13
0.0
 23
0.0
 14
10.0
 24
10.0
 15
10.0
 25
10.0
 16
0.0
 26
0.0
 36
1.0
 17
0.0
 27
0.0
 37
0.0
 40
91.91959305899383
 41
1.673114119922631
 42
50.0
 43
0.0
 44
0.0
 50
0.0
 51
0.0
 71
    16
 72
  2000
 73
     1
 74
     3
 75
     0
 76
     0
 77
     0
 78
     0
281
     0
 65
     1
110
0.0
120
0.0
130
0.0
111
1.0
121
0.0
131
0.0
112
0.0
122
1.0
132
0.0
 79
     0
146
0.0
  0
ENDTAB
  0
TABLE
  2
LTYPE
  5
5
330
0
100
AcDbSymbolTable
 70
     6
  0
LTYPE
  5
14
330
5
100
AcDbSymbolTableRecord
100
AcDbLinetypeTableRecord
  2
ByBlock
 70
     0
  3

 72
    65
 73
     0
 40
0.0
  0
LTYPE
  5
15
330
5
100
AcDbSymbolTableRecord
100
AcDbLinetypeTableRecord
  2
ByLayer
 70
     0
  3

 72
    65
 73
     0
 40
0.0
  0
LTYPE
  5
16
330
5
100
AcDbSymbolTableRecord
100
AcDbLinetypeTableRecord
  2
Continuous
 70
     0
  3
Solid line
 72
    65
 73
     0
 40
0.0
  0
LTYPE
  5
6A
330
5
100
AcDbSymbolTableRecord
100
AcDbLinetypeTableRecord
  2
HIDDEN
 70
     0
  3
Hidden __ __ __ __ __ __ __ __ __ __ __ __ __ __
 72
    65
 73
     2
 40
1.905
 49
1.27
 74
     0
 49
-0.635
 74
     0
  0
LTYPE
  5
6B
330
5
100
AcDbSymbolTableRecord
100
AcDbLinetypeTableRecord
  2
PHANTOM
 70
     0
  3
Phantom ______  __  __  ______  __  __  ______
 72
    65
 73
     6
 40
12.7
 49
6.35
 74
     0
 49
-1.27
 74
     0
 49
1.27
 74
     0
 49
-1.27
 74
     0
 49
1.27
 74
     0
 49
-1.27
 74
     0
  0
LTYPE
  5
6C
330
5
100
AcDbSymbolTableRecord
100
AcDbLinetypeTableRecord
  2
CENTER
 70
     0
  3
Center ____ _ ____ _ ____ _ ____ _ ____ _ ____
 72
    65
 73
     4
 40
10.16
 49
6.35
 74
     0
 49
-1.27
 74
     0
 49
1.27
 74
     0
 49
-1.27
 74
     0
  0
LTYPE
  5
6D
330
5
100
AcDbSymbolTableRecord
100
AcDbLinetypeTableRecord
  2
CENTERX2
 70
     0
  3
Center (2x) ________  __  ________  __  _____
 72
    65
 73
     4
 40
20.32
 49
12.7
 74
     0
 49
-2.54
 74
     0
 49
2.54
 74
     0
 49
-2.54
 74
     0
  0
LTYPE
  5
6E
330
5
100
AcDbSymbolTableRecord
100
AcDbLinetypeTableRecord
  2
DOT2
 70
     0
  3
Dot (.5x) ........................................
 72
    65
 73
     2
 40
0.635
 49
0.0
 74
     0
 49
-0.635
 74
     0
  0
ENDTAB
  0
TABLE
  2
LAYER
  5
2
102
{ACAD_XDICTIONARY
360
1E3
102
}
330
0
100
AcDbSymbolTable
 70
    18
  0
LAYER
  5
10
330
2
100
AcDbSymbolTableRecord
100
AcDbLayerTableRecord
  2
0
 70
     0
 62
     7
  6
Continuous
370
    -3
390
F
  0
LAYER
  5
6F
330
2
100
AcDbSymbolTableRecord
100
AcDbLayerTableRecord
  2
FORMAT
 70
     0
 62
     2
  6
Continuous
370
    -3
390
F
  0
LAYER
  5
70
330
2
100
AcDbSymbolTableRecord
100
AcDbLayerTableRecord
  2
외형선
 70
     0
 62
     4
  6
Continuous
370
    30
390
F
  0
LAYER
  5
71
330
2
100
AcDbSymbolTableRecord
100
AcDbLayerTableRecord
  2
숨은선
 70
     0
 62
     2
  6
HIDDEN
370
    15
390
F
  0
LAYER
  5
72
330
2
100
AcDbSymbolTableRecord
100
AcDbLayerTableRecord
  2
중심선
 70
     0
 62
     1
  6
CENTERX2
370
    -3
390
F
  0
LAYER
  5
73
330
2
100
AcDbSymbolTableRecord
100
AcDbLayerTableRecord
  2
파단선
 70
     0
 62
     4
  6
Continuous
370
    -3
390
F
  0
LAYER
  5
74
330
2
100
AcDbSymbolTableRecord
100
AcDbLayerTableRecord
  2
해칭선
 70
     0
 62
   100
  6
Continuous
370
    -3
390
F
  0
LAYER
  5
75
330
2
100
AcDbSymbolTableRecord
100
AcDbLayerTableRecord
  2
가는실선
 70
     0
 62
     4
  6
Continuous
370
    -3
390
F
  0
LAYER
  5
76
330
2
100
AcDbSymbolTableRecord
100
AcDbLayerTableRecord
  2
치수_보조선
 70
     0
 62
     4
  6
Continuous
370
    -3
390
F
  0
LAYER
  5
77
330
2
100
AcDbSymbolTableRecord
100
AcDbLayerTableRecord
  2
치수문자_일반주서
 70
     0
 62
     7
  6
Continuous
370
    15
390
F
  0
LAYER
  5
78
330
2
100
AcDbSymbolTableRecord
100
AcDbLayerTableRecord
  2
개별주서
 70
     0
 62
   100
  6
Continuous
370
    30
390
F
  0
LAYER
  5
79
330
2
100
AcDbSymbolTableRecord
100
AcDbLayerTableRecord
  2
중간선
 70
     0
 62
     2
  6
Continuous
370
    15
390
F
  0
LAYER
  5
7A
330
2
100
AcDbSymbolTableRecord
100
AcDbLayerTableRecord
  2
윤곽선
 70
     0
 62
     3
  6
Continuous
370
    40
390
F
  0
LAYER
  5
7B
330
2
100
AcDbSymbolTableRecord
100
AcDbLayerTableRecord
  2
중심마크
 70
     0
 62
   100
  6
Continuous
370
    30
390
F
  0
LAYER
  5
7C
330
2
100
AcDbSymbolTableRecord
100
AcDbLayerTableRecord
  2
가상선
 70
     0
 62
     4
  6
PHANTOM
370
    -3
390
F
  0
LAYER
  5
7D
330
2
100
AcDbSymbolTableRecord
100
AcDbLayerTableRecord
  2
특수지정선
 70
     0
 62
     5
  6
CENTERX2
370
    60
390
F
  0
LAYER
  5
7E
330
2
100
AcDbSymbolTableRecord
100
AcDbLayerTableRecord
  2
참조1
 70
     0
 62
    -4
  6
Continuous
370
    -3
390
F
  0
LAYER
  5
156
330
2
100
AcDbSymbolTableRecord
100
AcDbLayerTableRecord
  2
Defpoints
 70
     0
 62
     7
  6
Continuous
290
     0
370
    -3
390
F
  0
ENDTAB
  0
TABLE
  2
STYLE
  5
3
330
0
100
AcDbSymbolTable
 70
     2
  0
STYLE
  5
11
330
3
100
AcDbSymbolTableRecord
100
AcDbTextStyleTableRecord
  2
Standard
 70
     0
 40
0.0
 41
1.0
 50
0.0
 71
     0
 42
3.5
  3
txt
  4

  0
STYLE
  5
94
330
3
100
AcDbSymbolTableRecord
100
AcDbTextStyleTableRecord
  2
SLDTEXTSTYLE0
 70
     0
 40
0.0
 41
0.75
 50
0.0
 71
     0
 42
3.5
  3
TXT
  4

  0
ENDTAB
  0
TABLE
  2
VIEW
  5
6
330
0
100
AcDbSymbolTable
 70
     0
  0
ENDTAB
  0
TABLE
  2
UCS
  5
7
330
0
100
AcDbSymbolTable
 70
     0
  0
ENDTAB
  0
TABLE
  2
APPID
  5
9
330
0
100
AcDbSymbolTable
 70
     1
  0
APPID
  5
12
330
9
100
AcDbSymbolTableRecord
100
AcDbRegAppTableRecord
  2
ACAD
 70
     0
  0
ENDTAB
  0
TABLE
  2
DIMSTYLE
  5
A
330
0
100
AcDbSymbolTable
 70
     4
100
AcDbDimStyleTable
  0
DIMSTYLE
105
27
330
A
100
AcDbSymbolTableRecord
100
AcDbDimStyleTableRecord
  2
ISO-25
 70
     0
 41
2.5
 42
0.625
 43
3.75
 44
1.25
 73
     0
 74
     0
 77
     1
 78
     8
140
2.5
141
2.5
143
0.03937007874016
147
0.625
171
     3
172
     1
178
     0
271
     2
272
     2
274
     3
278
    44
283
     0
284
     8
340
11
  0
DIMSTYLE
105
D2
102
{ACAD_REACTORS
330
D1
330
10F
330
E6
330
FB
102
}
330
A
100
AcDbSymbolTableRecord
100
AcDbDimStyleTableRecord
  2
SLDDIMSTYLE0
 70
     0
 41
3.302
 44
0.0
 45
0.000000001
 73
     0
 74
     0
 77
     1
 78
    12
 79
     3
140
3.5
143
0.0393700787401575
147
0.875
148
0.000000001
170
     1
172
     1
173
     1
178
     0
271
     2
272
     2
276
     2
284
    12
289
     0
340
94
  0
DIMSTYLE
105
E7
330
A
100
AcDbSymbolTableRecord
100
AcDbDimStyleTableRecord
  2
SLDDIMSTYLE1
 70
     0
 41
3.302
 44
0.0
 45
0.000000001
 73
     0
 74
     0
 77
     1
 78
     4
 79
     1
140
3.5
143
0.0393700787401575
147
0.875
148
0.000000001
170
     1
173
     1
178
     0
271
     2
272
     2
276
     2
284
    12
340
94
  0
DIMSTYLE
105
FC
330
A
100
AcDbSymbolTableRecord
100
AcDbDimStyleTableRecord
  2
SLDDIMSTYLE2
 70
     0
 41
3.302
 44
0.0
 45
0.000000001
 73
     0
 74
     0
 77
     1
 78
    12
 79
     3
140
3.5
143
0.0393700787401575
147
0.875
148
0.000000001
170
     1
173
     1
178
     0
271
     2
272
     2
276
     2
284
    12
340
94
  0
ENDTAB
  0
TABLE
  2
BLOCK_RECORD
  5
1
330
0
100
AcDbSymbolTable
 70
    19
  0
BLOCK_RECORD
  5
1F
330
1
100
AcDbSymbolTableRecord
100
AcDbBlockTableRecord
  2
*Model_Space
340
22
  0
BLOCK_RECORD
  5
1B
330
1
100
AcDbSymbolTableRecord
100
AcDbBlockTableRecord
  2
*Paper_Space
340
1E
  0
BLOCK_RECORD
  5
23
330
1
100
AcDbSymbolTableRecord
100
AcDbBlockTableRecord
  2
*Paper_Space0
340
26
  0
BLOCK_RECORD
  5
7F
330
1
100
AcDbSymbolTableRecord
100
AcDbBlockTableRecord
  2
블럭10
340
0
102
{BLKREFS
331
CA
102
}
  0
BLOCK_RECORD
  5
D3
330
1
100
AcDbSymbolTableRecord
100
AcDbBlockTableRecord
  2
_D
340
0
  0
BLOCK_RECORD
  5
E8
330
1
100
AcDbSymbolTableRecord
100
AcDbBlockTableRecord
  2
_D_1
340
0
  0
BLOCK_RECORD
  5
FD
330
1
100
AcDbSymbolTableRecord
100
AcDbBlockTableRecord
  2
_D_2
340
0
  0
BLOCK_RECORD
  5
110
330
1
100
AcDbSymbolTableRecord
100
AcDbBlockTableRecord
  2
_D_3
340
0
  0
BLOCK_RECORD
  5
12A
330
1
100
AcDbSymbolTableRecord
100
AcDbBlockTableRecord
  2
SW_DOWELSYMBOL_0
340
0
102
{BLKREFS
331
130
331
35D
102
}
  0
BLOCK_RECORD
  5
1E7
330
1
100
AcDbSymbolTableRecord
100
AcDbBlockTableRecord
  2
*D7
340
0
  0
BLOCK_RECORD
  5
1F6
330
1
100
AcDbSymbolTableRecord
100
AcDbBlockTableRecord
  2
*D8
340
0
  0
BLOCK_RECORD
  5
205
330
1
100
AcDbSymbolTableRecord
100
AcDbBlockTableRecord
  2
*D9
340
0
  0
BLOCK_RECORD
  5
246
330
1
100
AcDbSymbolTableRecord
100
AcDbBlockTableRecord
  2
*D10
340
0
  0
BLOCK_RECORD
  5
255
330
1
100
AcDbSymbolTableRecord
100
AcDbBlockTableRecord
  2
*D11
340
0
  0
BLOCK_RECORD
  5
264
330
1
100
AcDbSymbolTableRecord
100
AcDbBlockTableRecord
  2
*D12
340
0
  0
BLOCK_RECORD
  5
303
330
1
100
AcDbSymbolTableRecord
100
AcDbBlockTableRecord
  2
*D13
340
0
  0
BLOCK_RECORD
  5
312
330
1
100
AcDbSymbolTableRecord
100
AcDbBlockTableRecord
  2
*D14
340
0
  0
BLOCK_RECORD
  5
321
330
1
100
AcDbSymbolTableRecord
100
AcDbBlockTableRecord
  2
*D15
340
0
  0
BLOCK_RECORD
  5
35E
330
1
100
AcDbSymbolTableRecord
100
AcDbBlockTableRecord
  2
*D16
340
0
  0
BLOCK_RECORD
  5
36D
330
1
100
AcDbSymbolTableRecord
100
AcDbBlockTableRecord
  2
*D17
340
0
  0
BLOCK_RECORD
  5
37C
330
1
100
AcDbSymbolTableRecord
100
AcDbBlockTableRecord
  2
*D18
340
0
  0
ENDTAB
  0
ENDSEC
  0
SECTION
  2
BLOCKS
  0
BLOCK
  5
20
330
1F
100
AcDbEntity
  8
0
100
AcDbBlockBegin
  2
*Model_Space
 70
     0
 10
0.0
 20
0.0
 30
0.0
  3
*Model_Space
  1
*Model_Space
  0
ENDBLK
  5
21
330
1F
100
AcDbEntity
  8
0
100
AcDbBlockEnd
  0
BLOCK
  5
1C
330
1B
100
AcDbEntity
 67
     1
  8
0
100
AcDbBlockBegin
  2
*Paper_Space
 70
     0
 10
0.0
 20
0.0
 30
0.0
  3
*Paper_Space
  1
*Paper_Space
  0
ENDBLK
  5
1D
330
1B
100
AcDbEntity
 67
     1
  8
0
100
AcDbBlockEnd
  0
BLOCK
  5
24
330
23
100
AcDbEntity
  8
0
100
AcDbBlockBegin
  2
*Paper_Space0
 70
     0
 10
0.0
 20
0.0
 30
0.0
  3
*Paper_Space0
  1
*Paper_Space0
  0
ENDBLK
  5
25
330
23
100
AcDbEntity
  8
0
100
AcDbBlockEnd
  0
BLOCK
  5
80
330
7F
100
AcDbEntity
  8
0
100
AcDbBlockBegin
  2
블럭10
 70
     2
 10
0.0
 20
0.0
 30
0.0
  3
블럭10
  1
블럭10
  0
ELLIPSE
  5
82
330
7F
100
AcDbEntity
  8
중심선
100
AcDbEllipse
 10
20.54032771741204
 20
12.0471743016438
 30
0.0
 11
6.600054785286829
 21
-1.261213355974178E-13
 31
0.0
210
0.0
220
0.0
230
1.0
 40
0.636358354079598
 41
0.9219305317359503
 42
6.513795318482858
  0
ELLIPSE
  5
83
330
7F
100
AcDbEntity
  8
중심선
100
AcDbEllipse
 10
20.54032771746488
 20
12.04717430159265
 30
0.0
 11
3.960054785062283
 21
1.540847449632565E-10
 31
0.0
210
0.0
220
0.0
230
1.0
 40
0.3939339440162632
 41
1.131841032648279
 42
5.62031148352944
  0
LINE
  5
84
330
7F
100
AcDbEntity
  8
중심선
100
AcDbLine
 10
2.268634060543552
 20
16.24717430164393
 30
0.0
 11
5.714909304380834
 21
16.24717430164393
 31
0.0
  0
LINE
  5
85
330
7F
100
AcDbEntity
  8
중심선
100
AcDbLine
 10
5.245725140726316
 20
7.84717430164391
 30
0.0
 11
8.692000384563599
 21
7.84717430164391
 31
0.0
  0
LINE
  5
86
330
7F
100
AcDbEntity
  8
중심선
100
AcDbLine
 10
15.74043728645272
 20
16.24717430164393
 30
0.0
 11
8.692000384563599
 21
7.84717430164391
 31
0.0
  0
LINE
  5
87
330
7F
100
AcDbEntity
  8
중심선
100
AcDbLine
 10
0.1404042013395286
 20
13.71084872107135
 30
0.0
 11
3.58671253028996
 21
13.71088815037384
 31
0.0
  0
LINE
  5
88
330
7F
100
AcDbEntity
  8
중심선
100
AcDbLine
 10
2.750260043222114
 20
10.84717430164391
 30
0.0
 11
6.196535287059397
 21
10.84717430164391
 31
0.0
  0
LINE
  5
89
330
7F
100
AcDbEntity
  8
중심선
100
AcDbLine
 10
12.29416204261559
 20
16.24717430164393
 30
0.0
 11
5.245725140726316
 21
7.84717430164391
 31
0.0
  0
LINE
  5
8A
330
7F
100
AcDbEntity
  8
중심선
100
AcDbLine
 10
10.72767329541681
 20
16.24717430164393
 30
0.0
 11
6.196535287059397
 21
10.84717430164391
 31
0.0
  0
LINE
  5
8B
330
7F
100
AcDbEntity
  8
중심선
100
AcDbLine
 10
7.28139805157953
 20
16.24717430164393
 30
0.0
 11
2.750260043222114
 21
10.84717430164391
 31
0.0
  0
LINE
  5
8C
330
7F
100
AcDbEntity
  8
중심선
100
AcDbLine
 10
5.714909304380834
 20
16.24717430164393
 30
0.0
 11
3.58671253028996
 21
13.71088815037384
 31
0.0
  0
LINE
  5
8D
330
7F
100
AcDbEntity
  8
중심선
100
AcDbLine
 10
2.268634060543552
 20
16.24717430164393
 30
0.0
 11
0.1404042013395286
 21
13.71084872107135
 31
0.0
  0
LINE
  5
8E
330
7F
100
AcDbEntity
  8
중심선
100
AcDbLine
 10
7.28139805157953
 20
16.24717430164393
 30
0.0
 11
10.72767329541681
 21
16.24717430164393
 31
0.0
  0
LINE
  5
8F
330
7F
100
AcDbEntity
  8
중심선
100
AcDbLine
 10
12.29416204261559
 20
16.24717430164393
 30
0.0
 11
15.74043728645272
 21
16.24717430164393
 31
0.0
  0
LINE
  5
90
330
7F
100
AcDbEntity
  8
중심선
100
AcDbLine
 10
19.22036997980202
 20
11.08717430171403
 30
0.0
 11
23.66174974927406
 21
11.08717430171406
 31
0.0
  0
LINE
  5
91
330
7F
100
AcDbEntity
  8
중심선
100
AcDbLine
 10
19.22039502424796
 20
13.00717430171391
 30
0.0
 11
19.22036997980202
 21
11.08717430171403
 31
0.0
  0
LINE
  5
92
330
7F
100
AcDbEntity
  8
중심선
100
AcDbLine
 10
19.22039502424796
 20
13.00717430171391
 30
0.0
 11
26.96566020931264
 21
13.00717430171391
 31
0.0
  0
LINE
  5
93
330
7F
100
AcDbEntity
  8
중심선
100
AcDbLine
 10
22.22332737316547
 20
13.45928029700563
 30
0.0
 11
24.52862924686651
 21
15.39360700705356
 31
0.0
  0
ATTDEF
  5
95
330
7F
100
AcDbEntity
  8
FORMAT
 62
     2
100
AcDbText
 10
4.408487351596664
 20
2.075366912832191
 30
0.0
 40
4.233333333333333
  1
E1053011
 41
0.75
  7
SLDTEXTSTYLE0
 11
4.408487351596664
 21
-0.0412997538344756
 31
0.0
100
AcDbAttributeDefinition
  3

  2
AUTOATTR0
 70
     0
 74
     1
  0
ENDBLK
  5
81
330
7F
100
AcDbEntity
  8
0
100
AcDbBlockEnd
  0
BLOCK
  5
D4
330
D3
100
AcDbEntity
  8
0
100
AcDbBlockBegin
  2
_D
 70
     0
 10
0.0
 20
0.0
 30
0.0
  3
_D
  1
_D
  0
LINE
  5
D6
330
D3
100
AcDbEntity
  8
치수문자_일반주서
 62
     0
370
    -2
100
AcDbLine
 10
41.33750000000001
 20
2.182812500000005
 30
0.0
 11
53.39358645480961
 21
2.18281250000005
 31
0.0
  0
LINE
  5
D7
330
D3
100
AcDbEntity
  8
치수문자_일반주서
 62
     0
370
    -2
100
AcDbLine
 10
41.33750000000001
 20
-2.182812499999994
 30
0.0
 11
53.39358645480963
 21
-2.182812499999947
 31
0.0
  0
LINE
  5
D8
330
D3
100
AcDbEntity
  8
치수문자_일반주서
 62
     0
370
    -2
100
AcDbLine
 10
53.39358645480961
 20
2.18281250000005
 30
0.0
 11
53.39358645480949
 21
38.53681250000005
 31
0.0
  0
LINE
  5
D9
330
D3
100
AcDbEntity
  8
치수문자_일반주서
 62
     0
370
    -2
100
AcDbLine
 10
53.39358645480961
 20
2.18281250000005
 30
0.0
 11
53.39358645480963
 21
-2.182812499999947
 31
0.0
  0
LINE
  5
DA
330
D3
100
AcDbEntity
  8
치수문자_일반주서
 62
     0
370
    -2
100
AcDbLine
 10
53.3935864548096
 20
5.48481250000005
 30
0.0
 11
53.39358645480959
 21
8.78681250000005
 31
0.0
  0
LINE
  5
DB
330
D3
100
AcDbEntity
  8
치수문자_일반주서
 62
     0
370
    -2
100
AcDbLine
 10
53.39358645480964
 20
-5.484812499999947
 30
0.0
 11
53.39358645480966
 21
-8.786812499999947
 31
0.0
  0
SOLID
  5
DC
330
D3
100
AcDbEntity
  8
치수문자_일반주서
 62
     0
100
AcDbTrace
 10
52.84325312147627
 20
5.484812500000048
 30
0.0
 11
53.94391978814294
 21
5.484812500000052
 31
0.0
 12
53.39358645480961
 22
2.18281250000005
 32
0.0
 13
53.39358645480961
 23
2.18281250000005
 33
0.0
  0
SOLID
  5
DD
330
D3
100
AcDbEntity
  8
치수문자_일반주서
 62
     0
100
AcDbTrace
 10
53.94391978814298
 20
-5.484812499999945
 30
0.0
 11
52.84325312147631
 21
-5.484812499999949
 31
0.0
 12
53.39358645480963
 22
-2.182812499999947
 32
0.0
 13
53.39358645480963
 23
-2.182812499999947
 33
0.0
  0
MTEXT
  5
DE
330
D3
100
AcDbEntity
  8
치수문자_일반주서
 62
     0
100
AcDbMText
 10
49.01858645480954
 20
23.66181250000004
 30
0.0
 40
3.5
 41
0.0
 71
     2
 72
     1
  1
\A1;%%c4.37 [11/64]
  7
SLDTEXTSTYLE0
 11
-3.255170729323294E-15
 21
1.0
 31
0.0
 73
     1
 44
1.0
  0
POINT
  5
DF
330
D3
100
AcDbEntity
  8
Defpoints
 62
     0
100
AcDbPoint
 10
41.27500000000001
 20
2.182812500000005
 30
0.0
  0
POINT
  5
E0
330
D3
100
AcDbEntity
  8
Defpoints
 62
     0
100
AcDbPoint
 10
41.27500000000001
 20
-2.182812499999995
 30
0.0
  0
POINT
  5
E1
330
D3
100
AcDbEntity
  8
Defpoints
 62
     0
100
AcDbPoint
 10
53.39358645480963
 20
-2.18281249999995
 30
0.0
  0
ENDBLK
  5
D5
330
D3
100
AcDbEntity
  8
0
100
AcDbBlockEnd
  0
BLOCK
  5
E9
330
E8
100
AcDbEntity
  8
0
100
AcDbBlockBegin
  2
_D_1
 70
     0
 10
0.0
 20
0.0
 30
0.0
  3
_D_1
  1
_D_1
  0
LINE
  5
EB
330
E8
100
AcDbEntity
  8
치수문자_일반주서
 62
     0
370
    -2
100
AcDbLine
 10
41.27500000000001
 20
2.245312500000005
 30
0.0
 11
41.27500000000001
 21
17.63029749933538
 31
0.0
  0
LINE
  5
EC
330
E8
100
AcDbEntity
  8
치수문자_일반주서
 62
     0
370
    -2
100
AcDbLine
 10
28.57499999999997
 20
2.145785941617349
 30
0.0
 11
28.57499999999997
 21
17.63029749933538
 31
0.0
  0
LINE
  5
ED
330
E8
100
AcDbEntity
  8
치수문자_일반주서
 62
     0
370
    -2
100
AcDbLine
 10
28.57499999999997
 20
17.63029749933538
 30
0.0
 11
0.0959999999999681
 21
17.63029749933538
 31
0.0
  0
LINE
  5
EE
330
E8
100
AcDbEntity
  8
치수문자_일반주서
 62
     0
370
    -2
100
AcDbLine
 10
41.27500000000001
 20
17.63029749933538
 30
0.0
 11
28.57499999999997
 21
17.63029749933538
 31
0.0
  0
LINE
  5
EF
330
E8
100
AcDbEntity
  8
치수문자_일반주서
 62
     0
370
    -2
100
AcDbLine
 10
44.57700000000001
 20
17.63029749933538
 30
0.0
 11
47.879
 21
17.63029749933538
 31
0.0
  0
LINE
  5
F0
330
E8
100
AcDbEntity
  8
치수문자_일반주서
 62
     0
370
    -2
100
AcDbLine
 10
25.27299999999997
 20
17.63029749933538
 30
0.0
 11
21.97099999999997
 21
17.63029749933538
 31
0.0
  0
SOLID
  5
F1
330
E8
100
AcDbEntity
  8
치수문자_일반주서
 62
     0
100
AcDbTrace
 10
44.57700000000001
 20
18.18063083266871
 30
0.0
 11
44.57700000000001
 21
17.07996416600204
 31
0.0
 12
41.27500000000001
 22
17.63029749933538
 32
0.0
 13
41.27500000000001
 23
17.63029749933538
 33
0.0
  0
SOLID
  5
F2
330
E8
100
AcDbEntity
  8
치수문자_일반주서
 62
     0
100
AcDbTrace
 10
25.27299999999997
 20
17.07996416600204
 30
0.0
 11
25.27299999999997
 21
18.18063083266871
 31
0.0
 12
28.57499999999997
 22
17.63029749933538
 32
0.0
 13
28.57499999999997
 23
17.63029749933538
 33
0.0
  0
MTEXT
  5
F3
330
E8
100
AcDbEntity
  8
치수문자_일반주서
 62
     0
100
AcDbMText
 10
11.03349999999997
 20
22.00529749933538
 30
0.0
 40
3.5
 41
0.0
 71
     2
 72
     1
  1
\A1;12.7 [1/2]
  7
SLDTEXTSTYLE0
 73
     1
 44
1.0
  0
POINT
  5
F4
330
E8
100
AcDbEntity
  8
Defpoints
 62
     0
100
AcDbPoint
 10
41.27500000000001
 20
2.182812500000005
 30
0.0
  0
POINT
  5
270
330
E8
100
AcDbEntity
  8
Defpoints
 62
     0
100
AcDbPoint
 10
28.57499999999997
 20
2.083285941617349
 30
0.0
  0
POINT
  5
271
330
E8
100
AcDbEntity
  8
Defpoints
 62
     0
100
AcDbPoint
 10
28.57499999999997
 20
17.63029749933538
 30
0.0
  0
ENDBLK
  5
EA
330
E8
100
AcDbEntity
  8
0
100
AcDbBlockEnd
  0
BLOCK
  5
FE
330
FD
100
AcDbEntity
  8
0
100
AcDbBlockBegin
  2
_D_2
 70
     0
 10
0.0
 20
0.0
 30
0.0
  3
_D_2
  1
_D_2
  0
LINE
  5
100
330
FD
100
AcDbEntity
  8
치수문자_일반주서
 62
     0
370
    -2
100
AcDbLine
 10
41.27500000000001
 20
2.245312500000005
 30
0.0
 11
41.27500000000001
 21
26.69465316271769
 31
0.0
  0
LINE
  5
101
330
FD
100
AcDbEntity
  8
치수문자_일반주서
 62
     0
370
    -2
100
AcDbLine
 10
-41.27500000000003
 20
2.245312499999998
 30
0.0
 11
-41.27500000000003
 21
26.69465316271769
 31
0.0
  0
LINE
  5
102
330
FD
100
AcDbEntity
  8
치수문자_일반주서
 62
     0
370
    -2
100
AcDbLine
 10
37.97300000000001
 20
26.69465316271769
 30
0.0
 11
-37.97300000000003
 21
26.69465316271769
 31
0.0
  0
SOLID
  5
103
330
FD
100
AcDbEntity
  8
치수문자_일반주서
 62
     0
100
AcDbTrace
 10
37.97300000000001
 20
26.14431982938435
 30
0.0
 11
37.97300000000001
 21
27.24498649605102
 31
0.0
 12
41.27500000000001
 22
26.69465316271769
 32
0.0
 13
41.27500000000001
 23
26.69465316271769
 33
0.0
  0
SOLID
  5
104
330
FD
100
AcDbEntity
  8
치수문자_일반주서
 62
     0
100
AcDbTrace
 10
-37.97300000000003
 20
27.24498649605102
 30
0.0
 11
-37.97300000000003
 21
26.14431982938435
 31
0.0
 12
-41.27500000000003
 22
26.69465316271769
 32
0.0
 13
-41.27500000000003
 23
26.69465316271769
 33
0.0
  0
MTEXT
  5
105
330
FD
100
AcDbEntity
  8
치수문자_일반주서
 62
     0
100
AcDbMText
 10
-1.43269577258063
 20
31.06965316271769
 30
0.0
 40
3.5
 41
0.0
 71
     2
 72
     1
  1
\A1;82.55 [3 1/4]
  7
SLDTEXTSTYLE0
 73
     1
 44
1.0
  0
POINT
  5
106
330
FD
100
AcDbEntity
  8
Defpoints
 62
     0
100
AcDbPoint
 10
41.27500000000001
 20
2.182812500000005
 30
0.0
  0
POINT
  5
107
330
FD
100
AcDbEntity
  8
Defpoints
 62
     0
100
AcDbPoint
 10
-41.27500000000003
 20
2.182812499999998
 30
0.0
  0
POINT
  5
108
330
FD
100
AcDbEntity
  8
Defpoints
 62
     0
100
AcDbPoint
 10
-41.27500000000003
 20
26.69465316271769
 30
0.0
  0
ENDBLK
  5
FF
330
FD
100
AcDbEntity
  8
0
100
AcDbBlockEnd
  0
BLOCK
  5
111
330
110
100
AcDbEntity
  8
0
100
AcDbBlockBegin
  2
_D_3
 70
     0
 10
0.0
 20
0.0
 30
0.0
  3
_D_3
  1
_D_3
  0
LINE
  5
113
330
110
100
AcDbEntity
  8
치수문자_일반주서
 62
     0
370
    -2
100
AcDbLine
 10
-18.00997518234971
 20
4.762500000000018
 30
0.0
 11
-53.79875000000003
 21
4.762499999999885
 31
0.0
  0
LINE
  5
114
330
110
100
AcDbEntity
  8
치수문자_일반주서
 62
     0
370
    -2
100
AcDbLine
 10
-18.0099751823497
 20
-4.762500000000005
 30
0.0
 11
-53.79874999999999
 21
-4.762500000000138
 31
0.0
  0
LINE
  5
115
330
110
100
AcDbEntity
  8
치수문자_일반주서
 62
     0
370
    -2
100
AcDbLine
 10
-53.79875000000001
 20
1.460499999999885
 30
0.0
 11
-53.79875000000001
 21
-1.460500000000138
 31
0.0
  0
SOLID
  5
116
330
110
100
AcDbEntity
  8
치수문자_일반주서
 62
     0
100
AcDbTrace
 10
-53.24841666666668
 20
1.460499999999887
 30
0.0
 11
-54.34908333333335
 21
1.460499999999883
 31
0.0
 12
-53.79875000000003
 22
4.762499999999885
 32
0.0
 13
-53.79875000000003
 23
4.762499999999885
 33
0.0
  0
SOLID
  5
117
330
110
100
AcDbEntity
  8
치수문자_일반주서
 62
     0
100
AcDbTrace
 10
-54.34908333333334
 20
-1.46050000000014
 30
0.0
 11
-53.24841666666667
 21
-1.460500000000136
 31
0.0
 12
-53.79874999999999
 22
-4.762500000000138
 32
0.0
 13
-53.79874999999999
 23
-4.762500000000138
 33
0.0
  0
MTEXT
  5
118
330
110
100
AcDbEntity
  8
치수문자_일반주서
 62
     0
100
AcDbMText
 10
-58.17375000000001
 20
-0.0000000000000152
 30
0.0
 40
3.5
 41
0.0
 71
     2
 72
     1
  1
\A1;%%c9.53 [3/8]
  7
SLDTEXTSTYLE0
 11
-3.729883127349598E-15
 21
1.0
 31
0.0
 73
     1
 44
1.0
  0
POINT
  5
119
330
110
100
AcDbEntity
  8
Defpoints
 62
     0
100
AcDbPoint
 10
-17.94747518234971
 20
4.762500000000018
 30
0.0
  0
POINT
  5
11A
330
110
100
AcDbEntity
  8
Defpoints
 62
     0
100
AcDbPoint
 10
-17.9474751823497
 20
-4.762500000000005
 30
0.0
  0
POINT
  5
11B
330
110
100
AcDbEntity
  8
Defpoints
 62
     0
100
AcDbPoint
 10
-53.79874999999999
 20
-4.762500000000139
 30
0.0
  0
ENDBLK
  5
112
330
110
100
AcDbEntity
  8
0
100
AcDbBlockEnd
  0
BLOCK
  5
12B
330
12A
100
AcDbEntity
  8
0
100
AcDbBlockBegin
  2
SW_DOWELSYMBOL_0
 70
     0
 10
0.0
 20
0.0
 30
0.0
  3
SW_DOWELSYMBOL_0
  1
SW_DOWELSYMBOL_0
  0
CIRCLE
  5
12D
330
12A
100
AcDbEntity
  8
해칭선
 62
     0
100
AcDbCircle
 10
0.0
 20
0.0
 30
0.0
 40
3.000000000000008
  0
HATCH
  5
12E
330
12A
100
AcDbEntity
  8
0
  6
Continuous
 62
     0
370
     0
100
AcDbHatch
 10
0.0
 20
0.0
 30
0.0
210
0.0
220
0.0
230
1.0
  2
SOLID
 70
     1
 71
     0
 91
        1
 92
        0
 93
        3
 72
     2
 10
0.0
 20
0.0
 40
3.000000000000008
 50
0.0
 51
90.0
 73
     1
 72
     1
 10
0.0
 20
3.000000000000008
 11
0.0
 21
0.0
 72
     1
 10
0.0
 20
0.0
 11
3.00000000000001
 21
0.0
 97
        0
 75
     0
 76
     1
 98
        1
 10
0.0
 20
0.0
  0
HATCH
  5
12F
330
12A
100
AcDbEntity
  8
0
  6
Continuous
 62
     0
370
     0
100
AcDbHatch
 10
0.0
 20
0.0
 30
0.0
210
0.0
220
0.0
230
1.0
  2
SOLID
 70
     1
 71
     0
 91
        1
 92
        0
 93
        3
 72
     2
 10
0.0
 20
0.0
 40
3.000000000000008
 50
180.0
 51
270.0000000000007
 73
     1
 72
     1
 10
0.0
 20
-3.000000000000008
 11
0.0
 21
0.0
 72
     1
 10
0.0
 20
0.0
 11
-3.000000000000008
 21
0.0
 97
        0
 75
     0
 76
     1
 98
        1
 10
0.0
 20
0.0
  0
ENDBLK
  5
12C
330
12A
100
AcDbEntity
  8
0
100
AcDbBlockEnd
  0
BLOCK
  5
1E8
330
1E7
100
AcDbEntity
  8
0
100
AcDbBlockBegin
  2
*D7
 70
     1
 10
0.0
 20
0.0
 30
0.0
  3
*D7
  1
*D8
  0
LINE
  5
1EA
330
1E7
100
AcDbEntity
  8
치수문자_일반주서
 62
     0
370
    -2
100
AcDbLine
 10
82.4375
 20
15.17875433823003
 30
0.0
 11
98.33296364419972
 21
15.17875433823009
 31
0.0
  0
LINE
  5
1EB
330
1E7
100
AcDbEntity
  8
치수문자_일반주서
 62
     0
370
    -2
100
AcDbLine
 10
82.4375
 20
11.21000433823003
 30
0.0
 11
98.33296364419974
 21
11.21000433823009
 31
0.0
  0
LINE
  5
1EC
330
1E7
100
AcDbEntity
  8
치수문자_일반주서
 62
     0
370
    -2
100
AcDbLine
 10
98.33296364419972
 20
15.17875433823009
 30
0.0
 11
98.3329636441996
 21
50.65775433823009
 31
0.0
  0
LINE
  5
1ED
330
1E7
100
AcDbEntity
  8
치수문자_일반주서
 62
     0
370
    -2
100
AcDbLine
 10
98.33296364419972
 20
15.17875433823009
 30
0.0
 11
98.33296364419974
 21
11.21000433823009
 31
0.0
  0
LINE
  5
1EE
330
1E7
100
AcDbEntity
  8
치수문자_일반주서
 62
     0
370
    -2
100
AcDbLine
 10
98.33296364419971
 20
18.48075433823008
 30
0.0
 11
98.3329636441997
 21
21.78275433823008
 31
0.0
  0
LINE
  5
1EF
330
1E7
100
AcDbEntity
  8
치수문자_일반주서
 62
     0
370
    -2
100
AcDbLine
 10
98.33296364419975
 20
7.908004338230086
 30
0.0
 11
98.33296364419976
 21
4.606004338230086
 31
0.0
  0
SOLID
  5
1F0
330
1E7
100
AcDbEntity
  8
치수문자_일반주서
 62
     0
100
AcDbTrace
 10
97.78263031086638
 20
18.48075433823008
 30
0.0
 11
98.88329697753304
 21
18.48075433823009
 31
0.0
 12
98.33296364419972
 22
15.17875433823009
 32
0.0
 13
98.33296364419972
 23
15.17875433823009
 33
0.0
  0
SOLID
  5
1F1
330
1E7
100
AcDbEntity
  8
치수문자_일반주서
 62
     0
100
AcDbTrace
 10
98.88329697753308
 20
7.908004338230088
 30
0.0
 11
97.78263031086642
 21
7.908004338230084
 31
0.0
 12
98.33296364419974
 22
11.21000433823009
 32
0.0
 13
98.33296364419974
 23
11.21000433823009
 33
0.0
  0
MTEXT
  5
1F2
330
1E7
100
AcDbEntity
  8
치수문자_일반주서
 62
     0
100
AcDbMText
 10
93.95796364419965
 20
36.22025433823008
 30
0.0
 40
3.5
 41
0.0
 71
     2
 72
     1
  1
\A1;%%c3.97 [5/32]
  7
SLDTEXTSTYLE0
 11
-3.580687802255625E-15
 21
1.0
 31
0.0
 73
     1
 44
1.0
  0
POINT
  5
1F3
330
1E7
100
AcDbEntity
  8
Defpoints
 62
     0
100
AcDbPoint
 10
82.375
 20
15.17875433823003
 30
0.0
  0
POINT
  5
1F4
330
1E7
100
AcDbEntity
  8
Defpoints
 62
     0
100
AcDbPoint
 10
82.375
 20
11.21000433823003
 30
0.0
  0
POINT
  5
1F5
330
1E7
100
AcDbEntity
  8
Defpoints
 62
     0
100
AcDbPoint
 10
98.33296364419974
 20
11.21000433823009
 30
0.0
  0
ENDBLK
  5
1E9
330
1E7
100
AcDbEntity
  8
0
100
AcDbBlockEnd
  0
BLOCK
  5
1F7
330
1F6
100
AcDbEntity
  8
0
100
AcDbBlockBegin
  2
*D8
 70
     1
 10
0.0
 20
0.0
 30
0.0
  3
*D8
  1
*D9
  0
LINE
  5
1F9
330
1F6
100
AcDbEntity
  8
치수문자_일반주서
 62
     0
370
    -2
100
AcDbLine
 10
82.375
 20
15.24125433823003
 30
0.0
 11
82.375
 21
25.51770690235628
 31
0.0
  0
LINE
  5
1FA
330
1F6
100
AcDbEntity
  8
치수문자_일반주서
 62
     0
370
    -2
100
AcDbLine
 10
71.26250000000005
 20
15.21004885363911
 30
0.0
 11
71.26250000000005
 21
25.51770690235628
 31
0.0
  0
LINE
  5
1FB
330
1F6
100
AcDbEntity
  8
치수문자_일반주서
 62
     0
370
    -2
100
AcDbLine
 10
71.26250000000005
 20
25.51770690235628
 30
0.0
 11
40.15850000000005
 21
25.51770690235628
 31
0.0
  0
LINE
  5
1FC
330
1F6
100
AcDbEntity
  8
치수문자_일반주서
 62
     0
370
    -2
100
AcDbLine
 10
82.375
 20
25.51770690235628
 30
0.0
 11
71.26250000000005
 21
25.51770690235628
 31
0.0
  0
LINE
  5
1FD
330
1F6
100
AcDbEntity
  8
치수문자_일반주서
 62
     0
370
    -2
100
AcDbLine
 10
85.67699999999999
 20
25.51770690235628
 30
0.0
 11
88.97899999999998
 21
25.51770690235628
 31
0.0
  0
LINE
  5
1FE
330
1F6
100
AcDbEntity
  8
치수문자_일반주서
 62
     0
370
    -2
100
AcDbLine
 10
67.96050000000005
 20
25.51770690235628
 30
0.0
 11
64.65850000000006
 21
25.51770690235628
 31
0.0
  0
SOLID
  5
1FF
330
1F6
100
AcDbEntity
  8
치수문자_일반주서
 62
     0
100
AcDbTrace
 10
85.67699999999999
 20
26.06804023568962
 30
0.0
 11
85.67699999999999
 21
24.96737356902295
 31
0.0
 12
82.375
 22
25.51770690235628
 32
0.0
 13
82.375
 23
25.51770690235628
 33
0.0
  0
SOLID
  5
200
330
1F6
100
AcDbEntity
  8
치수문자_일반주서
 62
     0
100
AcDbTrace
 10
67.96050000000005
 20
24.96737356902295
 30
0.0
 11
67.96050000000005
 21
26.06804023568962
 31
0.0
 12
71.26250000000005
 22
25.51770690235628
 32
0.0
 13
71.26250000000005
 23
25.51770690235628
 33
0.0
  0
MTEXT
  5
201
330
1F6
100
AcDbEntity
  8
치수문자_일반주서
 62
     0
100
AcDbMText
 10
52.40850000000004
 20
29.89270690235628
 30
0.0
 40
3.5
 41
0.0
 71
     2
 72
     1
  1
\A1;11.11 [7/16]
  7
SLDTEXTSTYLE0
 73
     1
 44
1.0
  0
POINT
  5
202
330
1F6
100
AcDbEntity
  8
Defpoints
 62
     0
100
AcDbPoint
 10
82.375
 20
15.17875433823003
 30
0.0
  0
POINT
  5
203
330
1F6
100
AcDbEntity
  8
Defpoints
 62
     0
100
AcDbPoint
 10
71.26250000000005
 20
15.14754885363911
 30
0.0
  0
POINT
  5
204
330
1F6
100
AcDbEntity
  8
Defpoints
 62
     0
100
AcDbPoint
 10
71.26250000000005
 20
25.51770690235628
 30
0.0
  0
ENDBLK
  5
1F8
330
1F6
100
AcDbEntity
  8
0
100
AcDbBlockEnd
  0
BLOCK
  5
206
330
205
100
AcDbEntity
  8
0
100
AcDbBlockBegin
  2
*D9
 70
     1
 10
0.0
 20
0.0
 30
0.0
  3
*D9
  1
*D10
  0
LINE
  5
208
330
205
100
AcDbEntity
  8
치수문자_일반주서
 62
     0
370
    -2
100
AcDbLine
 10
82.375
 20
15.24125433823003
 30
0.0
 11
82.375
 21
40.86148759106035
 31
0.0
  0
LINE
  5
209
330
205
100
AcDbEntity
  8
치수문자_일반주서
 62
     0
370
    -2
100
AcDbLine
 10
3.000000000000007
 20
17.06687933823002
 30
0.0
 11
3.000000000000007
 21
40.86148759106035
 31
0.0
  0
LINE
  5
20A
330
205
100
AcDbEntity
  8
치수문자_일반주서
 62
     0
370
    -2
100
AcDbLine
 10
79.07300000000001
 20
40.86148759106035
 30
0.0
 11
6.302000000000007
 21
40.86148759106035
 31
0.0
  0
SOLID
  5
20B
330
205
100
AcDbEntity
  8
치수문자_일반주서
 62
     0
100
AcDbTrace
 10
79.07300000000001
 20
40.31115425772702
 30
0.0
 11
79.07300000000001
 21
41.41182092439369
 31
0.0
 12
82.375
 22
40.86148759106035
 32
0.0
 13
82.375
 23
40.86148759106035
 33
0.0
  0
SOLID
  5
20C
330
205
100
AcDbEntity
  8
치수문자_일반주서
 62
     0
100
AcDbTrace
 10
6.302000000000007
 20
41.41182092439369
 30
0.0
 11
6.302000000000007
 21
40.31115425772702
 31
0.0
 12
3.000000000000007
 22
40.86148759106035
 32
0.0
 13
3.000000000000007
 23
40.86148759106035
 33
0.0
  0
MTEXT
  5
20D
330
205
100
AcDbEntity
  8
치수문자_일반주서
 62
     0
100
AcDbMText
 10
43.45174625540224
 20
45.23648759106035
 30
0.0
 40
3.5
 41
0.0
 71
     2
 72
     1
  1
\A1;79.38 [3 1/8]
  7
SLDTEXTSTYLE0
 73
     1
 44
1.0
  0
POINT
  5
20E
330
205
100
AcDbEntity
  8
Defpoints
 62
     0
100
AcDbPoint
 10
82.375
 20
15.17875433823003
 30
0.0
  0
POINT
  5
20F
330
205
100
AcDbEntity
  8
Defpoints
 62
     0
100
AcDbPoint
 10
3.000000000000007
 20
17.00437933823002
 30
0.0
  0
POINT
  5
210
330
205
100
AcDbEntity
  8
Defpoints
 62
     0
100
AcDbPoint
 10
3.000000000000007
 20
40.86148759106035
 30
0.0
  0
ENDBLK
  5
207
330
205
100
AcDbEntity
  8
0
100
AcDbBlockEnd
  0
BLOCK
  5
247
330
246
100
AcDbEntity
  8
0
100
AcDbBlockBegin
  2
*D10
 70
     1
 10
0.0
 20
0.0
 30
0.0
  3
*D10
  1
*D11
  0
LINE
  5
249
330
246
100
AcDbEntity
  8
치수문자_일반주서
 62
     0
370
    -2
100
AcDbLine
 10
174.402964592161
 20
-66.15569284311441
 30
0.0
 11
190.2984282363607
 21
-66.15569284311435
 31
0.0
  0
LINE
  5
24A
330
246
100
AcDbEntity
  8
치수문자_일반주서
 62
     0
370
    -2
100
AcDbLine
 10
174.402964592161
 20
-70.12444284311441
 30
0.0
 11
190.2984282363607
 21
-70.12444284311435
 31
0.0
  0
LINE
  5
24B
330
246
100
AcDbEntity
  8
치수문자_일반주서
 62
     0
370
    -2
100
AcDbLine
 10
190.2984282363607
 20
-66.15569284311435
 30
0.0
 11
190.2984282363607
 21
-30.67669284311434
 31
0.0
  0
LINE
  5
24C
330
246
100
AcDbEntity
  8
치수문자_일반주서
 62
     0
370
    -2
100
AcDbLine
 10
190.2984282363607
 20
-66.15569284311435
 30
0.0
 11
190.2984282363607
 21
-70.12444284311435
 31
0.0
  0
LINE
  5
24D
330
246
100
AcDbEntity
  8
치수문자_일반주서
 62
     0
370
    -2
100
AcDbLine
 10
190.2984282363607
 20
-62.85369284311435
 30
0.0
 11
190.2984282363607
 21
-59.55169284311435
 31
0.0
  0
LINE
  5
24E
330
246
100
AcDbEntity
  8
치수문자_일반주서
 62
     0
370
    -2
100
AcDbLine
 10
190.2984282363607
 20
-73.42644284311436
 30
0.0
 11
190.2984282363607
 21
-76.72844284311435
 31
0.0
  0
SOLID
  5
24F
330
246
100
AcDbEntity
  8
치수문자_일반주서
 62
     0
100
AcDbTrace
 10
189.7480949030274
 20
-62.85369284311435
 30
0.0
 11
190.848761569694
 21
-62.85369284311435
 31
0.0
 12
190.2984282363607
 22
-66.15569284311435
 32
0.0
 13
190.2984282363607
 23
-66.15569284311435
 33
0.0
  0
SOLID
  5
250
330
246
100
AcDbEntity
  8
치수문자_일반주서
 62
     0
100
AcDbTrace
 10
190.848761569694
 20
-73.42644284311436
 30
0.0
 11
189.7480949030274
 21
-73.42644284311436
 31
0.0
 12
190.2984282363607
 22
-70.12444284311435
 32
0.0
 13
190.2984282363607
 23
-70.12444284311435
 33
0.0
  0
MTEXT
  5
251
330
246
100
AcDbEntity
  8
치수문자_일반주서
 62
     0
100
AcDbMText
 10
185.9234282363607
 20
-45.11419284311434
 30
0.0
 40
3.5
 41
0.0
 71
     2
 72
     1
  1
\A1;%%c3.97 [5/32]
  7
SLDTEXTSTYLE0
 11
0.0
 21
1.0
 31
0.0
 73
     1
 44
1.0
  0
POINT
  5
252
330
246
100
AcDbEntity
  8
Defpoints
 62
     0
100
AcDbPoint
 10
174.340464592161
 20
-66.15569284311441
 30
0.0
  0
POINT
  5
253
330
246
100
AcDbEntity
  8
Defpoints
 62
     0
100
AcDbPoint
 10
174.340464592161
 20
-70.12444284311441
 30
0.0
  0
POINT
  5
254
330
246
100
AcDbEntity
  8
Defpoints
 62
     0
100
AcDbPoint
 10
190.2984282363607
 20
-70.12444284311435
 30
0.0
  0
ENDBLK
  5
248
330
246
100
AcDbEntity
  8
0
100
AcDbBlockEnd
  0
BLOCK
  5
256
330
255
100
AcDbEntity
  8
0
100
AcDbBlockBegin
  2
*D11
 70
     1
 10
0.0
 20
0.0
 30
0.0
  3
*D11
  1
*D12
  0
LINE
  5
258
330
255
100
AcDbEntity
  8
치수문자_일반주서
 62
     0
370
    -2
100
AcDbLine
 10
174.340464592161
 20
-66.09319284311441
 30
0.0
 11
174.340464592161
 21
-55.81674027898815
 31
0.0
  0
LINE
  5
259
330
255
100
AcDbEntity
  8
치수문자_일반주서
 62
     0
370
    -2
100
AcDbLine
 10
163.2279645921611
 20
-66.12439832770532
 30
0.0
 11
163.2279645921611
 21
-55.81674027898815
 31
0.0
  0
LINE
  5
25A
330
255
100
AcDbEntity
  8
치수문자_일반주서
 62
     0
370
    -2
100
AcDbLine
 10
163.2279645921611
 20
-55.81674027898815
 30
0.0
 11
132.1239645921611
 21
-55.81674027898815
 31
0.0
  0
LINE
  5
25B
330
255
100
AcDbEntity
  8
치수문자_일반주서
 62
     0
370
    -2
100
AcDbLine
 10
174.340464592161
 20
-55.81674027898815
 30
0.0
 11
163.2279645921611
 21
-55.81674027898815
 31
0.0
  0
LINE
  5
25C
330
255
100
AcDbEntity
  8
치수문자_일반주서
 62
     0
370
    -2
100
AcDbLine
 10
177.642464592161
 20
-55.81674027898815
 30
0.0
 11
180.944464592161
 21
-55.81674027898815
 31
0.0
  0
LINE
  5
25D
330
255
100
AcDbEntity
  8
치수문자_일반주서
 62
     0
370
    -2
100
AcDbLine
 10
159.9259645921611
 20
-55.81674027898815
 30
0.0
 11
156.6239645921611
 21
-55.81674027898815
 31
0.0
  0
SOLID
  5
25E
330
255
100
AcDbEntity
  8
치수문자_일반주서
 62
     0
100
AcDbTrace
 10
177.642464592161
 20
-55.26640694565481
 30
0.0
 11
177.642464592161
 21
-56.36707361232148
 31
0.0
 12
174.340464592161
 22
-55.81674027898815
 32
0.0
 13
174.340464592161
 23
-55.81674027898815
 33
0.0
  0
SOLID
  5
25F
330
255
100
AcDbEntity
  8
치수문자_일반주서
 62
     0
100
AcDbTrace
 10
159.9259645921611
 20
-56.36707361232148
 30
0.0
 11
159.9259645921611
 21
-55.26640694565481
 31
0.0
 12
163.2279645921611
 22
-55.81674027898815
 32
0.0
 13
163.2279645921611
 23
-55.81674027898815
 33
0.0
  0
MTEXT
  5
260
330
255
100
AcDbEntity
  8
치수문자_일반주서
 62
     0
100
AcDbMText
 10
144.3739645921611
 20
-51.44174027898815
 30
0.0
 40
3.5
 41
0.0
 71
     2
 72
     1
  1
\A1;11.11 [7/16]
  7
SLDTEXTSTYLE0
 73
     1
 44
1.0
  0
POINT
  5
261
330
255
100
AcDbEntity
  8
Defpoints
 62
     0
100
AcDbPoint
 10
174.340464592161
 20
-66.15569284311441
 30
0.0
  0
POINT
  5
262
330
255
100
AcDbEntity
  8
Defpoints
 62
     0
100
AcDbPoint
 10
163.2279645921611
 20
-66.18689832770532
 30
0.0
  0
POINT
  5
263
330
255
100
AcDbEntity
  8
Defpoints
 62
     0
100
AcDbPoint
 10
163.2279645921611
 20
-55.81674027898815
 30
0.0
  0
ENDBLK
  5
257
330
255
100
AcDbEntity
  8
0
100
AcDbBlockEnd
  0
BLOCK
  5
265
330
264
100
AcDbEntity
  8
0
100
AcDbBlockBegin
  2
*D12
 70
     1
 10
0.0
 20
0.0
 30
0.0
  3
*D12
  1
*D13
  0
LINE
  5
267
330
264
100
AcDbEntity
  8
치수문자_일반주서
 62
     0
370
    -2
100
AcDbLine
 10
174.340464592161
 20
-66.09319284311441
 30
0.0
 11
174.340464592161
 21
-40.47295959028408
 31
0.0
  0
LINE
  5
268
330
264
100
AcDbEntity
  8
치수문자_일반주서
 62
     0
370
    -2
100
AcDbLine
 10
94.96546459216103
 20
-64.2675678431144
 30
0.0
 11
94.96546459216103
 21
-40.47295959028408
 31
0.0
  0
LINE
  5
269
330
264
100
AcDbEntity
  8
치수문자_일반주서
 62
     0
370
    -2
100
AcDbLine
 10
171.038464592161
 20
-40.47295959028408
 30
0.0
 11
98.26746459216102
 21
-40.47295959028408
 31
0.0
  0
SOLID
  5
26A
330
264
100
AcDbEntity
  8
치수문자_일반주서
 62
     0
100
AcDbTrace
 10
171.038464592161
 20
-41.02329292361741
 30
0.0
 11
171.038464592161
 21
-39.92262625695074
 31
0.0
 12
174.340464592161
 22
-40.47295959028408
 32
0.0
 13
174.340464592161
 23
-40.47295959028408
 33
0.0
  0
SOLID
  5
26B
330
264
100
AcDbEntity
  8
치수문자_일반주서
 62
     0
100
AcDbTrace
 10
98.26746459216102
 20
-39.92262625695074
 30
0.0
 11
98.26746459216102
 21
-41.02329292361741
 31
0.0
 12
94.96546459216103
 22
-40.47295959028408
 32
0.0
 13
94.96546459216103
 23
-40.47295959028408
 33
0.0
  0
MTEXT
  5
26C
330
264
100
AcDbEntity
  8
치수문자_일반주서
 62
     0
100
AcDbMText
 10
135.4172108475632
 20
-36.09795959028408
 30
0.0
 40
3.5
 41
0.0
 71
     2
 72
     1
  1
\A1;79.38 [3 1/8]
  7
SLDTEXTSTYLE0
 73
     1
 44
1.0
  0
POINT
  5
26D
330
264
100
AcDbEntity
  8
Defpoints
 62
     0
100
AcDbPoint
 10
174.340464592161
 20
-66.15569284311441
 30
0.0
  0
POINT
  5
26E
330
264
100
AcDbEntity
  8
Defpoints
 62
     0
100
AcDbPoint
 10
94.96546459216103
 20
-64.3300678431144
 30
0.0
  0
POINT
  5
26F
330
264
100
AcDbEntity
  8
Defpoints
 62
     0
100
AcDbPoint
 10
94.96546459216103
 20
-40.47295959028408
 30
0.0
  0
ENDBLK
  5
266
330
264
100
AcDbEntity
  8
0
100
AcDbBlockEnd
  0
BLOCK
  5
304
330
303
100
AcDbEntity
  8
0
100
AcDbBlockBegin
  2
*D13
 70
     1
 10
0.0
 20
0.0
 30
0.0
  3
*D13
  1
*D15
  0
LINE
  5
306
330
303
100
AcDbEntity
  8
치수문자_일반주서
 62
     0
370
    -2
100
AcDbLine
 10
85.61250000000001
 20
10.96962499999995
 30
0.0
 11
97.66858645480961
 21
10.969625
 31
0.0
  0
LINE
  5
307
330
303
100
AcDbEntity
  8
치수문자_일반주서
 62
     0
370
    -2
100
AcDbLine
 10
85.61250000000001
 20
6.603999999999955
 30
0.0
 11
97.66858645480963
 21
6.604000000000003
 31
0.0
  0
LINE
  5
308
330
303
100
AcDbEntity
  8
치수문자_일반주서
 62
     0
370
    -2
100
AcDbLine
 10
97.66858645480961
 20
10.969625
 30
0.0
 11
97.6685864548095
 21
47.32362500000001
 31
0.0
  0
LINE
  5
309
330
303
100
AcDbEntity
  8
치수문자_일반주서
 62
     0
370
    -2
100
AcDbLine
 10
97.66858645480961
 20
10.969625
 30
0.0
 11
97.66858645480963
 21
6.604000000000003
 31
0.0
  0
LINE
  5
30A
330
303
100
AcDbEntity
  8
치수문자_일반주서
 62
     0
370
    -2
100
AcDbLine
 10
97.6685864548096
 20
14.271625
 30
0.0
 11
97.66858645480959
 21
17.573625
 31
0.0
  0
LINE
  5
30B
330
303
100
AcDbEntity
  8
치수문자_일반주서
 62
     0
370
    -2
100
AcDbLine
 10
97.66858645480964
 20
3.302000000000003
 30
0.0
 11
97.66858645480966
 21
0.0000000000000036
 31
0.0
  0
SOLID
  5
30C
330
303
100
AcDbEntity
  8
치수문자_일반주서
 62
     0
100
AcDbTrace
 10
97.11825312147627
 20
14.271625
 30
0.0
 11
98.21891978814293
 21
14.271625
 31
0.0
 12
97.66858645480961
 22
10.969625
 32
0.0
 13
97.66858645480961
 23
10.969625
 33
0.0
  0
SOLID
  5
30D
330
303
100
AcDbEntity
  8
치수문자_일반주서
 62
     0
100
AcDbTrace
 10
98.21891978814297
 20
3.302000000000005
 30
0.0
 11
97.11825312147631
 21
3.302000000000001
 31
0.0
 12
97.66858645480963
 22
6.604000000000003
 32
0.0
 13
97.66858645480963
 23
6.604000000000003
 33
0.0
  0
MTEXT
  5
30E
330
303
100
AcDbEntity
  8
치수문자_일반주서
 62
     0
100
AcDbMText
 10
93.29358645480954
 20
32.44862499999999
 30
0.0
 40
3.5
 41
0.0
 71
     2
 72
     1
  1
\A1;%%c4.37 [11/64]
  7
SLDTEXTSTYLE0
 11
-3.255170729323293E-15
 21
1.0
 31
0.0
 73
     1
 44
1.0
  0
POINT
  5
30F
330
303
100
AcDbEntity
  8
Defpoints
 62
     0
100
AcDbPoint
 10
85.55000000000001
 20
10.96962499999995
 30
0.0
  0
POINT
  5
310
330
303
100
AcDbEntity
  8
Defpoints
 62
     0
100
AcDbPoint
 10
85.55000000000001
 20
6.603999999999955
 30
0.0
  0
POINT
  5
311
330
303
100
AcDbEntity
  8
Defpoints
 62
     0
100
AcDbPoint
 10
97.66858645480963
 20
6.604
 30
0.0
  0
ENDBLK
  5
305
330
303
100
AcDbEntity
  8
0
100
AcDbBlockEnd
  0
BLOCK
  5
313
330
312
100
AcDbEntity
  8
0
100
AcDbBlockBegin
  2
*D14
 70
     1
 10
0.0
 20
0.0
 30
0.0
  3
*D14
  1
*D16
  0
LINE
  5
315
330
312
100
AcDbEntity
  8
치수문자_일반주서
 62
     0
370
    -2
100
AcDbLine
 10
85.55000000000001
 20
11.03212499999995
 30
0.0
 11
85.55000000000001
 21
26.41710999933533
 31
0.0
  0
LINE
  5
316
330
312
100
AcDbEntity
  8
치수문자_일반주서
 62
     0
370
    -2
100
AcDbLine
 10
72.84999999999997
 20
10.9325984416173
 30
0.0
 11
72.84999999999997
 21
26.41710999933533
 31
0.0
  0
LINE
  5
317
330
312
100
AcDbEntity
  8
치수문자_일반주서
 62
     0
370
    -2
100
AcDbLine
 10
72.84999999999997
 20
26.41710999933533
 30
0.0
 11
44.37099999999997
 21
26.41710999933533
 31
0.0
  0
LINE
  5
318
330
312
100
AcDbEntity
  8
치수문자_일반주서
 62
     0
370
    -2
100
AcDbLine
 10
85.55000000000001
 20
26.41710999933533
 30
0.0
 11
72.84999999999997
 21
26.41710999933533
 31
0.0
  0
LINE
  5
319
330
312
100
AcDbEntity
  8
치수문자_일반주서
 62
     0
370
    -2
100
AcDbLine
 10
88.852
 20
26.41710999933533
 30
0.0
 11
92.154
 21
26.41710999933533
 31
0.0
  0
LINE
  5
31A
330
312
100
AcDbEntity
  8
치수문자_일반주서
 62
     0
370
    -2
100
AcDbLine
 10
69.54799999999997
 20
26.41710999933533
 30
0.0
 11
66.24599999999998
 21
26.41710999933533
 31
0.0
  0
SOLID
  5
31B
330
312
100
AcDbEntity
  8
치수문자_일반주서
 62
     0
100
AcDbTrace
 10
88.852
 20
26.96744333266866
 30
0.0
 11
88.852
 21
25.86677666600199
 31
0.0
 12
85.55000000000001
 22
26.41710999933533
 32
0.0
 13
85.55000000000001
 23
26.41710999933533
 33
0.0
  0
SOLID
  5
31C
330
312
100
AcDbEntity
  8
치수문자_일반주서
 62
     0
100
AcDbTrace
 10
69.54799999999997
 20
25.86677666600199
 30
0.0
 11
69.54799999999997
 21
26.96744333266866
 31
0.0
 12
72.84999999999997
 22
26.41710999933533
 32
0.0
 13
72.84999999999997
 23
26.41710999933533
 33
0.0
  0
MTEXT
  5
31D
330
312
100
AcDbEntity
  8
치수문자_일반주서
 62
     0
100
AcDbMText
 10
55.30849999999997
 20
30.79210999933533
 30
0.0
 40
3.5
 41
0.0
 71
     2
 72
     1
  1
\A1;12.7 [1/2]
  7
SLDTEXTSTYLE0
 73
     1
 44
1.0
  0
POINT
  5
31E
330
312
100
AcDbEntity
  8
Defpoints
 62
     0
100
AcDbPoint
 10
85.55000000000001
 20
10.96962499999995
 30
0.0
  0
POINT
  5
31F
330
312
100
AcDbEntity
  8
Defpoints
 62
     0
100
AcDbPoint
 10
72.84999999999997
 20
10.8700984416173
 30
0.0
  0
POINT
  5
320
330
312
100
AcDbEntity
  8
Defpoints
 62
     0
100
AcDbPoint
 10
72.84999999999997
 20
26.41710999933533
 30
0.0
  0
ENDBLK
  5
314
330
312
100
AcDbEntity
  8
0
100
AcDbBlockEnd
  0
BLOCK
  5
322
330
321
100
AcDbEntity
  8
0
100
AcDbBlockBegin
  2
*D15
 70
     1
 10
0.0
 20
0.0
 30
0.0
  3
*D15
  1
*D17
  0
LINE
  5
324
330
321
100
AcDbEntity
  8
치수문자_일반주서
 62
     0
370
    -2
100
AcDbLine
 10
85.55000000000001
 20
11.03212499999995
 30
0.0
 11
85.55000000000001
 21
35.48146566271764
 31
0.0
  0
LINE
  5
325
330
321
100
AcDbEntity
  8
치수문자_일반주서
 62
     0
370
    -2
100
AcDbLine
 10
3.000000000000007
 20
12.65931249999995
 30
0.0
 11
3.000000000000007
 21
35.48146566271764
 31
0.0
  0
LINE
  5
326
330
321
100
AcDbEntity
  8
치수문자_일반주서
 62
     0
370
    -2
100
AcDbLine
 10
82.24800000000002
 20
35.48146566271764
 30
0.0
 11
6.302000000000007
 21
35.48146566271764
 31
0.0
  0
SOLID
  5
327
330
321
100
AcDbEntity
  8
치수문자_일반주서
 62
     0
100
AcDbTrace
 10
82.24800000000002
 20
34.9311323293843
 30
0.0
 11
82.24800000000002
 21
36.03179899605097
 31
0.0
 12
85.55000000000001
 22
35.48146566271764
 32
0.0
 13
85.55000000000001
 23
35.48146566271764
 33
0.0
  0
SOLID
  5
328
330
321
100
AcDbEntity
  8
치수문자_일반주서
 62
     0
100
AcDbTrace
 10
6.302000000000007
 20
36.03179899605097
 30
0.0
 11
6.302000000000007
 21
34.9311323293843
 31
0.0
 12
3.000000000000007
 22
35.48146566271764
 32
0.0
 13
3.000000000000007
 23
35.48146566271764
 33
0.0
  0
MTEXT
  5
329
330
321
100
AcDbEntity
  8
치수문자_일반주서
 62
     0
100
AcDbMText
 10
42.84230422741938
 20
39.85646566271764
 30
0.0
 40
3.5
 41
0.0
 71
     2
 72
     1
  1
\A1;82.55 [3 1/4]
  7
SLDTEXTSTYLE0
 73
     1
 44
1.0
  0
POINT
  5
32A
330
321
100
AcDbEntity
  8
Defpoints
 62
     0
100
AcDbPoint
 10
85.55000000000001
 20
10.96962499999995
 30
0.0
  0
POINT
  5
32B
330
321
100
AcDbEntity
  8
Defpoints
 62
     0
100
AcDbPoint
 10
3.000000000000007
 20
12.59681249999995
 30
0.0
  0
POINT
  5
32C
330
321
100
AcDbEntity
  8
Defpoints
 62
     0
100
AcDbPoint
 10
3.000000000000007
 20
35.48146566271764
 30
0.0
  0
ENDBLK
  5
323
330
321
100
AcDbEntity
  8
0
100
AcDbBlockEnd
  0
BLOCK
  5
35F
330
35E
100
AcDbEntity
  8
0
100
AcDbBlockBegin
  2
*D16
 70
     1
 10
0.0
 20
0.0
 30
0.0
  3
*D16
  1
*D18
  0
LINE
  5
361
330
35E
100
AcDbEntity
  8
치수문자_일반주서
 62
     0
370
    -2
100
AcDbLine
 10
172.2420131268236
 20
-61.75810477465376
 30
0.0
 11
184.2980995816332
 21
-61.75810477465372
 31
0.0
  0
LINE
  5
362
330
35E
100
AcDbEntity
  8
치수문자_일반주서
 62
     0
370
    -2
100
AcDbLine
 10
172.2420131268236
 20
-66.12372977465375
 30
0.0
 11
184.2980995816333
 21
-66.12372977465371
 31
0.0
  0
LINE
  5
363
330
35E
100
AcDbEntity
  8
치수문자_일반주서
 62
     0
370
    -2
100
AcDbLine
 10
184.2980995816332
 20
-61.75810477465372
 30
0.0
 11
184.298099581633
 21
-25.4041047746537
 31
0.0
  0
LINE
  5
364
330
35E
100
AcDbEntity
  8
치수문자_일반주서
 62
     0
370
    -2
100
AcDbLine
 10
184.2980995816332
 20
-61.75810477465372
 30
0.0
 11
184.2980995816333
 21
-66.12372977465371
 31
0.0
  0
LINE
  5
365
330
35E
100
AcDbEntity
  8
치수문자_일반주서
 62
     0
370
    -2
100
AcDbLine
 10
184.2980995816332
 20
-58.45610477465372
 30
0.0
 11
184.2980995816332
 21
-55.15410477465372
 31
0.0
  0
LINE
  5
366
330
35E
100
AcDbEntity
  8
치수문자_일반주서
 62
     0
370
    -2
100
AcDbLine
 10
184.2980995816333
 20
-69.42572977465372
 30
0.0
 11
184.2980995816333
 21
-72.72772977465371
 31
0.0
  0
SOLID
  5
367
330
35E
100
AcDbEntity
  8
치수문자_일반주서
 62
     0
100
AcDbTrace
 10
183.7477662482999
 20
-58.45610477465372
 30
0.0
 11
184.8484329149665
 21
-58.45610477465371
 31
0.0
 12
184.2980995816332
 22
-61.75810477465372
 32
0.0
 13
184.2980995816332
 23
-61.75810477465372
 33
0.0
  0
SOLID
  5
368
330
35E
100
AcDbEntity
  8
치수문자_일반주서
 62
     0
100
AcDbTrace
 10
184.8484329149666
 20
-69.42572977465372
 30
0.0
 11
183.7477662483
 21
-69.42572977465372
 31
0.0
 12
184.2980995816333
 22
-66.12372977465371
 32
0.0
 13
184.2980995816333
 23
-66.12372977465371
 33
0.0
  0
MTEXT
  5
369
330
35E
100
AcDbEntity
  8
치수문자_일반주서
 62
     0
100
AcDbMText
 10
179.9230995816331
 20
-40.27910477465373
 30
0.0
 40
3.5
 41
0.0
 71
     2
 72
     1
  1
\A1;%%c4.37 [11/64]
  7
SLDTEXTSTYLE0
 11
-6.510341458646596E-15
 21
1.0
 31
0.0
 73
     1
 44
1.0
  0
POINT
  5
36A
330
35E
100
AcDbEntity
  8
Defpoints
 62
     0
100
AcDbPoint
 10
172.1795131268236
 20
-61.75810477465376
 30
0.0
  0
POINT
  5
36B
330
35E
100
AcDbEntity
  8
Defpoints
 62
     0
100
AcDbPoint
 10
172.1795131268236
 20
-66.12372977465375
 30
0.0
  0
POINT
  5
36C
330
35E
100
AcDbEntity
  8
Defpoints
 62
     0
100
AcDbPoint
 10
184.2980995816332
 20
-66.12372977465371
 30
0.0
  0
ENDBLK
  5
360
330
35E
100
AcDbEntity
  8
0
100
AcDbBlockEnd
  0
BLOCK
  5
36E
330
36D
100
AcDbEntity
  8
0
100
AcDbBlockBegin
  2
*D17
 70
     1
 10
0.0
 20
0.0
 30
0.0
  3
*D17
  1
*D19
  0
LINE
  5
370
330
36D
100
AcDbEntity
  8
치수문자_일반주서
 62
     0
370
    -2
100
AcDbLine
 10
172.1795131268236
 20
-61.69560477465376
 30
0.0
 11
172.1795131268236
 21
-46.31061977531839
 31
0.0
  0
LINE
  5
371
330
36D
100
AcDbEntity
  8
치수문자_일반주서
 62
     0
370
    -2
100
AcDbLine
 10
159.4795131268235
 20
-61.79513133303641
 30
0.0
 11
159.4795131268235
 21
-46.31061977531839
 31
0.0
  0
LINE
  5
372
330
36D
100
AcDbEntity
  8
치수문자_일반주서
 62
     0
370
    -2
100
AcDbLine
 10
159.4795131268235
 20
-46.31061977531839
 30
0.0
 11
131.0005131268235
 21
-46.31061977531839
 31
0.0
  0
LINE
  5
373
330
36D
100
AcDbEntity
  8
치수문자_일반주서
 62
     0
370
    -2
100
AcDbLine
 10
172.1795131268236
 20
-46.31061977531839
 30
0.0
 11
159.4795131268235
 21
-46.31061977531839
 31
0.0
  0
LINE
  5
374
330
36D
100
AcDbEntity
  8
치수문자_일반주서
 62
     0
370
    -2
100
AcDbLine
 10
175.4815131268236
 20
-46.31061977531839
 30
0.0
 11
178.7835131268236
 21
-46.31061977531839
 31
0.0
  0
LINE
  5
375
330
36D
100
AcDbEntity
  8
치수문자_일반주서
 62
     0
370
    -2
100
AcDbLine
 10
156.1775131268235
 20
-46.31061977531839
 30
0.0
 11
152.8755131268235
 21
-46.31061977531839
 31
0.0
  0
SOLID
  5
376
330
36D
100
AcDbEntity
  8
치수문자_일반주서
 62
     0
100
AcDbTrace
 10
175.4815131268236
 20
-45.76028644198505
 30
0.0
 11
175.4815131268236
 21
-46.86095310865172
 31
0.0
 12
172.1795131268236
 22
-46.31061977531839
 32
0.0
 13
172.1795131268236
 23
-46.31061977531839
 33
0.0
  0
SOLID
  5
377
330
36D
100
AcDbEntity
  8
치수문자_일반주서
 62
     0
100
AcDbTrace
 10
156.1775131268235
 20
-46.86095310865172
 30
0.0
 11
156.1775131268235
 21
-45.76028644198505
 31
0.0
 12
159.4795131268235
 22
-46.31061977531839
 32
0.0
 13
159.4795131268235
 23
-46.31061977531839
 33
0.0
  0
MTEXT
  5
378
330
36D
100
AcDbEntity
  8
치수문자_일반주서
 62
     0
100
AcDbMText
 10
141.9380131268235
 20
-41.93561977531839
 30
0.0
 40
3.5
 41
0.0
 71
     2
 72
     1
  1
\A1;12.7 [1/2]
  7
SLDTEXTSTYLE0
 73
     1
 44
1.0
  0
POINT
  5
379
330
36D
100
AcDbEntity
  8
Defpoints
 62
     0
100
AcDbPoint
 10
172.1795131268236
 20
-61.75810477465376
 30
0.0
  0
POINT
  5
37A
330
36D
100
AcDbEntity
  8
Defpoints
 62
     0
100
AcDbPoint
 10
159.4795131268235
 20
-61.85763133303641
 30
0.0
  0
POINT
  5
37B
330
36D
100
AcDbEntity
  8
Defpoints
 62
     0
100
AcDbPoint
 10
159.4795131268235
 20
-46.31061977531839
 30
0.0
  0
ENDBLK
  5
36F
330
36D
100
AcDbEntity
  8
0
100
AcDbBlockEnd
  0
BLOCK
  5
37D
330
37C
100
AcDbEntity
  8
0
100
AcDbBlockBegin
  2
*D18
 70
     1
 10
0.0
 20
0.0
 30
0.0
  3
*D18
  1
*D20
  0
LINE
  5
37F
330
37C
100
AcDbEntity
  8
치수문자_일반주서
 62
     0
370
    -2
100
AcDbLine
 10
172.1795131268236
 20
-61.69560477465376
 30
0.0
 11
172.1795131268236
 21
-37.24626411193607
 31
0.0
  0
LINE
  5
380
330
37C
100
AcDbEntity
  8
치수문자_일반주서
 62
     0
370
    -2
100
AcDbLine
 10
89.62951312682358
 20
-60.06841727465376
 30
0.0
 11
89.62951312682358
 21
-37.24626411193607
 31
0.0
  0
LINE
  5
381
330
37C
100
AcDbEntity
  8
치수문자_일반주서
 62
     0
370
    -2
100
AcDbLine
 10
168.8775131268236
 20
-37.24626411193607
 30
0.0
 11
92.93151312682357
 21
-37.24626411193607
 31
0.0
  0
SOLID
  5
382
330
37C
100
AcDbEntity
  8
치수문자_일반주서
 62
     0
100
AcDbTrace
 10
168.8775131268236
 20
-37.79659744526941
 30
0.0
 11
168.8775131268236
 21
-36.69593077860274
 31
0.0
 12
172.1795131268236
 22
-37.24626411193607
 32
0.0
 13
172.1795131268236
 23
-37.24626411193607
 33
0.0
  0
SOLID
  5
383
330
37C
100
AcDbEntity
  8
치수문자_일반주서
 62
     0
100
AcDbTrace
 10
92.93151312682357
 20
-36.69593077860274
 30
0.0
 11
92.93151312682357
 21
-37.79659744526941
 31
0.0
 12
89.62951312682358
 22
-37.24626411193607
 32
0.0
 13
89.62951312682358
 23
-37.24626411193607
 33
0.0
  0
MTEXT
  5
384
330
37C
100
AcDbEntity
  8
치수문자_일반주서
 62
     0
100
AcDbMText
 10
129.4718173542429
 20
-32.87126411193607
 30
0.0
 40
3.5
 41
0.0
 71
     2
 72
     1
  1
\A1;82.55 [3 1/4]
  7
SLDTEXTSTYLE0
 73
     1
 44
1.0
  0
POINT
  5
385
330
37C
100
AcDbEntity
  8
Defpoints
 62
     0
100
AcDbPoint
 10
172.1795131268236
 20
-61.75810477465376
 30
0.0
  0
POINT
  5
386
330
37C
100
AcDbEntity
  8
Defpoints
 62
     0
100
AcDbPoint
 10
89.62951312682358
 20
-60.13091727465376
 30
0.0
  0
POINT
  5
387
330
37C
100
AcDbEntity
  8
Defpoints
 62
     0
100
AcDbPoint
 10
89.62951312682358
 20
-37.24626411193607
 30
0.0
  0
ENDBLK
  5
37E
330
37C
100
AcDbEntity
  8
0
100
AcDbBlockEnd
  0
ENDSEC
  0
SECTION
  2
ENTITIES
  0
LINE
  5
96
330
1F
100
AcDbEntity
  8
0
  6
Continuous
 62
     1
370
    15
100
AcDbLine
 10
32.15321708784576
 20
-0.6271526517238405
 30
0.0
 11
32.2051889430457
 21
-0.6549363492164784
 31
0.0
  0
LINE
  5
97
330
1F
100
AcDbEntity
  8
0
  6
Continuous
 62
     1
370
    15
100
AcDbLine
 10
35.6599264721314
 20
-2.182812500000002
 30
0.0
 11
36.99134567797577
 21
-2.182812500000002
 31
0.0
  0
LINE
  5
98
330
1F
100
AcDbEntity
  8
0
  6
Continuous
 62
     1
370
    15
100
AcDbLine
 10
31.05202056262699
 20
2.182812499999999
 30
0.0
 11
29.72093249636805
 21
2.182812499999999
 31
0.0
  0
LINE
  5
99
330
1F
100
AcDbEntity
  8
0
  6
Continuous
 62
     1
370
    15
100
AcDbLine
 10
36.99134567797577
 20
2.182812499999999
 30
0.0
 11
35.65992647213142
 21
2.182812499999999
 31
0.0
  0
LINE
  5
9A
330
1F
100
AcDbEntity
  8
0
  6
Continuous
 62
     1
370
    15
100
AcDbLine
 10
29.72093249636807
 20
-2.182812500000002
 30
0.0
 11
31.05202056262699
 21
-2.182812500000002
 31
0.0
  0
LINE
  5
9B
330
1F
100
AcDbEntity
  8
외형선
  6
Continuous
370
    15
100
AcDbLine
 10
17.94747518234966
 20
-4.762500000000008
 30
0.0
 11
27.575
 21
-2.182812500000002
 31
0.0
  0
LINE
  5
9C
330
1F
100
AcDbEntity
  8
외형선
  6
Continuous
370
    15
100
AcDbLine
 10
27.575
 20
2.182812499999999
 30
0.0
 11
17.94747518234966
 21
4.762500000000006
 31
0.0
  0
LINE
  5
9D
330
1F
100
AcDbEntity
  8
외형선
  6
Continuous
370
    15
100
AcDbLine
 10
-17.9474751823497
 20
-4.762500000000005
 30
0.0
 11
17.94747518234966
 21
-4.762500000000005
 31
0.0
  0
LINE
  5
9E
330
1F
100
AcDbEntity
  8
외형선
  6
Continuous
370
    15
100
AcDbLine
 10
17.94747518234966
 20
4.762500000000003
 30
0.0
 11
4.838700000000017
 21
4.762500000000003
 31
0.0
  0
LINE
  5
A1
330
1F
100
AcDbEntity
  8
외형선
  6
Continuous
370
    15
100
AcDbLine
 10
27.575
 20
-2.182812500000002
 30
0.0
 11
28.07514251862155
 21
-2.182812500000002
 31
0.0
  0
LINE
  5
A2
330
1F
100
AcDbEntity
  8
외형선
  6
Continuous
370
    15
100
AcDbLine
 10
28.07514251862155
 20
2.182812499999998
 30
0.0
 11
27.575
 21
2.182812499999998
 31
0.0
  0
SPLINE
  5
A3
330
1F
100
AcDbEntity
  8
0
  6
Continuous
 62
     1
370
    15
100
AcDbSpline
210
0.0
220
0.0
230
1.0
 70
     8
 71
     3
 72
    18
 73
    14
 74
     0
 42
0.000000001
 43
0.00000001
 40
0.0
 40
0.0
 40
0.0
 40
0.0
 40
0.0949103206502004
 40
0.1898321678059083
 40
0.2847676361444313
 40
0.3797188019291263
 40
0.4746714745863519
 40
0.5696082978086819
 40
0.6645313084224796
 40
0.7689095643000684
 40
0.8732832970911161
 40
0.9776520766261294
 40
1.0
 40
1.0
 40
1.0
 40
1.0
 10
28.57500000000016
 20
1.329963815546019
 30
0.0
 10
28.91363888019437
 20
1.165637217464656
 30
0.0
 10
29.59095776701554
 20
0.8369640644476595
 30
0.0
 10
30.60703596176394
 20
0.2583086888647791
 30
0.0
 10
31.62328492749297
 20
-0.3320697997900827
 30
0.0
 10
32.6396875994626
 20
-0.9004525549802791
 30
0.0
 10
33.6560961349339
 20
-1.403642779237951
 30
0.0
 10
34.67237564854373
 20
-1.806422925782671
 30
0.0
 10
35.72219531129065
 20
-2.087749834985991
 30
0.0
 10
36.80592034155882
 20
-2.214304519624432
 30
0.0
 10
37.92327328216392
 20
-2.139966910247267
 30
0.0
 10
38.74791531884981
 20
-1.983090454173678
 30
0.0
 10
39.20009330467019
 20
-1.812592651802064
 30
0.0
 10
39.27984000535359
 20
-1.782523436494639
 30
0.0
  0
SPLINE
  5
A4
330
1F
100
AcDbEntity
  8
외형선
  6
Continuous
370
    15
100
AcDbSpline
210
0.0
220
0.0
230
1.0
 70
    24
 71
     3
 72
    11
 73
     7
 74
     0
 42
0.000000001
 43
0.00000001
 40
0.0
 40
0.0
 40
0.0
 40
0.0
 40
0.2411904593184412
 40
0.4869519526523149
 40
0.7827446018811408
 40
1.0
 40
1.0
 40
1.0
 40
1.0
 10
28.57499999999997
 20
2.083285941617302
 30
0.0
 10
28.57499999999998
 20
2.024091649045221
 30
0.0
 10
28.57500000000002
 20
1.904581215525997
 30
0.0
 10
28.57500000000005
 20
1.716501885083845
 30
0.0
 10
28.57499999999995
 20
1.539530094455741
 30
0.0
 10
28.57499999999995
 20
1.432410313805185
 30
0.0
 10
28.57499999999998
 20
1.387049356460249
 30
0.0
  0
SPLINE
  5
A5
330
1F
100
AcDbEntity
  8
0
  6
Continuous
 62
     1
370
    15
100
AcDbSpline
210
0.0
220
0.0
230
1.0
 70
     8
 71
     3
 72
    46
 73
    42
 74
     0
 42
0.000000001
 43
0.00000001
 40
0.0
 40
0.0
 40
0.0
 40
0.0
 40
0.0625
 40
0.0625
 40
0.125
 40
0.125
 40
0.1562499999999988
 40
0.1562499999999988
 40
0.1874999999999976
 40
0.1874999999999976
 40
0.2499999999999976
 40
0.2499999999999976
 40
0.3124999999999976
 40
0.3124999999999976
 40
0.3749999999999976
 40
0.3749999999999976
 40
0.4062499999999976
 40
0.4062499999999976
 40
0.4374999999999976
 40
0.4374999999999976
 40
0.5
 40
0.5
 40
0.53125
 40
0.53125
 40
0.5625
 40
0.5625
 40
0.625
 40
0.625
 40
0.6875
 40
0.6875
 40
0.75
 40
0.75
 40
0.78125
 40
0.78125
 40
0.8125
 40
0.8125
 40
0.875
 40
0.875
 40
0.9375
 40
0.9375
 40
1.0
 40
1.0
 40
1.0
 40
1.0
 10
41.27499999999999
 20
-2.182812499999995
 30
0.0
 10
41.01313133492354
 20
-2.161742471574847
 30
0.0
 10
40.74531998794615
 20
-2.132560780905944
 30
0.0
 10
40.21529046896593
 20
-2.043457039245768
 30
0.0
 10
39.95369572764262
 20
-1.983785275087754
 30
0.0
 10
39.55484537998569
 20
-1.872623828009591
 30
0.0
 10
39.42180716264864
 20
-1.832034053859724
 30
0.0
 10
39.15774562263876
 20
-1.744499449020005
 30
0.0
 10
39.0272565867388
 20
-1.697637718997951
 30
0.0
 10
38.63050685039924
 20
-1.547353412820139
 30
0.0
 10
38.36248990173913
 20
-1.434497818106191
 30
0.0
 10
37.8369440004482
 20
-1.190976904958632
 30
0.0
 10
37.57114296677415
 20
-1.059090922546006
 30
0.0
 10
37.04031457233078
 20
-0.7817921755110482
 30
0.0
 10
36.779155668837
 20
-0.6371331686163392
 30
0.0
 10
36.38048050800752
 20
-0.413472550887018
 30
0.0
 10
36.24732057139087
 20
-0.337968063402603
 30
0.0
 10
35.98266201768698
 20
-0.186310103371485
 30
0.0
 10
35.85211389920892
 20
-0.1103420373125551
 30
0.0
 10
35.45630868721111
 20
0.1185479941234736
 30
0.0
 10
35.18820600080709
 20
0.272195402430246
 30
0.0
 10
34.79285851519266
 20
0.4967107171216985
 30
0.0
 10
34.66215814428996
 20
0.5705755747141473
 30
0.0
 10
34.39727862643964
 20
0.7165888090567443
 30
0.0
 10
34.26408445200909
 20
0.7885477011521858
 30
0.0
 10
33.86553812027319
 20
0.9994852233397484
 30
0.0
 10
33.60445623263141
 20
1.1329940236232
 30
0.0
 10
33.07335617452784
 20
1.382960100485223
 30
0.0
 10
32.80830995078491
 20
1.498547463281391
 30
0.0
 10
32.28205670000396
 20
1.705657915832037
 30
0.0
 10
32.01398826889131
 20
1.797998139395513
 30
0.0
 10
31.61762280981514
 20
1.915075087762823
 30
0.0
 10
31.48715912686376
 20
1.950511875568968
 30
0.0
 10
31.22282738332565
 20
2.014417476803987
 30
0.0
 10
31.08972975699504
 20
2.042796960464393
 30
0.0
 10
30.69093313131387
 20
2.116448245886883
 30
0.0
 10
30.42956932513844
 20
2.150087372762731
 30
0.0
 10
29.89916864791164
 20
2.185744849658121
 30
0.0
 10
29.6322628532931
 20
2.18751871990954
 30
0.0
 10
29.10772214751671
 20
2.159202398744684
 30
0.0
 10
28.83980791314594
 20
2.128896967329966
 30
0.0
 10
28.57500000000016
 20
2.083285941617332
 30
0.0
  0
SPLINE
  5
A6
330
1F
100
AcDbEntity
  8
0
  6
Continuous
 62
     1
370
    15
100
AcDbSpline
210
0.0
220
0.0
230
1.0
 70
     8
 71
     3
 72
    12
 73
     8
 74
     0
 42
0.000000001
 43
0.00000001
 40
0.0
 40
0.0
 40
0.0
 40
0.0
 40
0.2123002297482103
 40
0.4246262425698595
 40
0.6369827239456269
 40
0.8493743181669303
 40
1.0
 40
1.0
 40
1.0
 40
1.0
 10
28.57500000000016
 20
-1.730857203669475
 30
0.0
 10
28.9136388713949
 20
-1.83781539560975
 30
0.0
 10
29.59095774061601
 20
-2.051744769164973
 30
0.0
 10
30.60703606738347
 20
-2.193229172638608
 30
0.0
 10
31.62328453133019
 20
-2.181576172112334
 30
0.0
 10
32.54115142521663
 20
-2.043135665564554
 30
0.0
 10
33.12025211773467
 20
-1.853668389447776
 30
0.0
 10
33.36053665077014
 20
-1.775053294429902
 30
0.0
  0
SPLINE
  5
A7
330
1F
100
AcDbEntity
  8
외형선
  6
Continuous
370
    15
100
AcDbSpline
210
0.0
220
0.0
230
1.0
 70
    24
 71
     3
 72
    22
 73
    18
 74
     0
 42
0.000000001
 43
0.00000001
 40
0.0
 40
0.0
 40
0.0
 40
0.0
 40
0.0231967462046723
 40
0.0951027881635452
 40
0.1690941102104865
 40
0.2410001521693608
 40
0.3149914742163035
 40
0.3868975161751796
 40
0.4608888382221242
 40
0.5327948801809983
 40
0.6067862022279412
 40
0.6786922441866144
 40
0.7526835662337591
 40
0.8245896081925798
 40
0.8985809302395833
 40
0.9489414853184001
 40
1.0
 40
1.0
 40
1.0
 40
1.0
 10
28.575
 20
0.6175824269338933
 30
0.0
 10
28.57500000000001
 20
0.6132275014143999
 30
0.0
 10
28.57500000000002
 20
0.5953730335724834
 30
0.0
 10
28.57499999999995
 20
0.5312687405025
 30
0.0
 10
28.57500000000001
 20
0.422465473299875
 30
0.0
 10
28.57500000000004
 20
0.2798297437602877
 30
0.0
 10
28.575
 20
0.1125093284156509
 30
0.0
 10
28.57499999999994
 20
-0.0784540670098039
 30
0.0
 10
28.57499999999998
 20
-0.2840354712193353
 30
0.0
 10
28.57500000000001
 20
-0.5021657887771928
 30
0.0
 10
28.57500000000001
 20
-0.722728969943189
 30
0.0
 10
28.57499999999992
 20
-0.9434658376220816
 30
0.0
 10
28.57500000000012
 20
-1.154115220071434
 30
0.0
 10
28.57499999999997
 20
-1.352653711416936
 30
0.0
 10
28.57499999999997
 20
-1.511861051765981
 30
0.0
 10
28.57500000000006
 20
-1.638306428456485
 30
0.0
 10
28.57500000000001
 20
-1.699865729530474
 30
0.0
 10
28.575
 20
-1.730857203669414
 30
0.0
  0
SPLINE
  5
A8
330
1F
100
AcDbEntity
  8
0
  6
Continuous
 62
     1
370
    15
100
AcDbSpline
210
0.0
220
0.0
230
1.0
 70
     8
 71
     3
 72
    14
 73
    10
 74
     0
 42
0.000000001
 43
0.00000001
 40
0.0
 40
0.0
 40
0.0
 40
0.0
 40
0.0679239313372725
 40
0.2113015629978412
 40
0.3690472050316551
 40
0.5267905350874028
 40
0.6845308870790866
 40
0.8422675963518923
 40
1.0
 40
1.0
 40
1.0
 40
1.0
 10
35.6599264721314
 20
-2.163198367614893
 30
0.0
 10
35.49953861336367
 20
-2.167302992374891
 30
0.0
 10
35.00059509557428
 20
-2.180071888553774
 30
0.0
 10
34.12926825671286
 20
-2.027209738442813
 30
0.0
 10
33.04543318187803
 20
-1.707664374189527
 30
0.0
 10
31.92780575029396
 20
-1.219859005217114
 30
0.0
 10
30.81016924037166
 20
-0.6299709798710905
 30
0.0
 10
29.69257239586454
 20
0.0193135956711271
 30
0.0
 10
28.94752074238615
 20
0.4408436378621396
 30
0.0
 10
28.57500000000016
 20
0.6516057823683281
 30
0.0
  0
LINE
  5
A9
330
1F
100
AcDbEntity
  8
0
  6
Continuous
 62
     1
370
    15
100
AcDbLine
 10
41.27500000000001
 20
-1.976932570172309
 30
0.0
 11
41.27500000000001
 21
0.1870263201723327
 31
0.0
  0
SPLINE
  5
AA
330
1F
100
AcDbEntity
  8
0
  6
Continuous
 62
     1
370
    15
100
AcDbSpline
210
0.0
220
0.0
230
1.0
 70
     8
 71
     3
 72
    17
 73
    13
 74
     0
 42
0.000000001
 43
0.00000001
 40
0.0
 40
0.0
 40
0.0
 40
0.0
 40
0.0558781275807208
 40
0.1553068458848432
 40
0.2547371421201374
 40
0.354150841518687
 40
0.4535500769561925
 40
0.5628504327228716
 40
0.6721460521106614
 40
0.7814364846648311
 40
0.8907212823985173
 40
0.9999999999999999
 40
0.9999999999999999
 40
0.9999999999999999
 40
0.9999999999999999
 10
31.05202056262699
 20
2.163441588020937
 30
0.0
 10
31.24242461912114
 20
2.166181832352204
 30
0.0
 10
31.77163085308215
 20
2.17379802714019
 30
0.0
 10
32.63968858863386
 20
2.012842656598756
 30
0.0
 10
33.65609587334901
 20
1.707222833911837
 30
0.0
 10
34.67237570587125
 20
1.271710427674328
 30
0.0
 10
35.72219534266367
 20
0.7294530452117676
 30
0.0
 10
36.8059201298098
 20
0.1091569763022149
 30
0.0
 10
37.92327409016193
 20
-0.5405892443228457
 30
0.0
 10
39.04058303706802
 20
-1.140199427778674
 30
0.0
 10
40.1578188278698
 20
-1.653213258116679
 30
0.0
 10
40.90261318233671
 20
-1.869028134043396
 30
0.0
 10
41.27500000000001
 20
-1.976932570172309
 30
0.0
  0
SPLINE
  5
AB
330
1F
100
AcDbEntity
  8
0
  6
Continuous
 62
     1
370
    15
100
AcDbSpline
210
0.0
220
0.0
230
1.0
 70
     8
 71
     3
 72
    15
 73
    11
 74
     0
 42
0.000000001
 43
0.00000001
 40
0.0
 40
0.0
 40
0.0
 40
0.0
 40
0.1284224673378319
 40
0.2568235756384447
 40
0.3852061318149776
 40
0.5135729678566417
 40
0.6419269370663744
 40
0.7702709102370137
 40
0.8986077717768113
 40
1.0
 40
1.0
 40
1.0
 40
1.0
 10
41.275
 20
0.1870263201723327
 30
0.0
 10
40.93617887672303
 20
0.3805390451513828
 30
0.0
 10
40.25859298240351
 20
0.7675323103556708
 30
0.0
 10
39.24233499939876
 20
1.289331706097784
 30
0.0
 10
38.22625094222185
 20
1.71960161834691
 30
0.0
 10
37.21031461593905
 20
2.025823640315919
 30
0.0
 10
36.19450847837003
 20
2.188006796710559
 30
0.0
 10
35.17876652019643
 20
2.188318048448809
 30
0.0
 10
34.23426829290705
 20
2.059328936008613
 30
0.0
 10
33.62808088079483
 20
1.862100968993833
 30
0.0
 10
33.36053665077015
 20
1.775053294429896
 30
0.0
  0
LINE
  5
AC
330
1F
100
AcDbEntity
  8
외형선
  6
Continuous
370
    15
100
AcDbLine
 10
28.57499999999997
 20
0.6516057823684184
 30
0.0
 11
28.57499999999998
 21
1.3299638155461
 31
0.0
  0
LINE
  5
AD
330
1F
100
AcDbEntity
  8
0
  6
Continuous
 62
     1
370
    15
100
AcDbLine
 10
41.27500000000001
 20
-2.182812499999995
 30
0.0
 11
41.27500000000001
 21
-1.976932570172309
 31
0.0
  0
SPLINE
  5
AE
330
1F
100
AcDbEntity
  8
0
  6
Continuous
 62
     1
370
    15
100
AcDbSpline
210
0.0
220
0.0
230
1.0
 70
     8
 71
     3
 72
    11
 73
     7
 74
     0
 42
0.000000001
 43
0.00000001
 40
0.0
 40
0.0
 40
0.0
 40
0.0
 40
0.2175555619882075
 40
0.4783841767736431
 40
0.7391993436992137
 40
1.0
 40
1.0
 40
1.0
 40
1.0
 10
36.99134567797579
 20
2.169671870217798
 30
0.0
 10
37.30199538725108
 20
2.162234161634826
 30
0.0
 10
37.98508482003094
 20
2.145879341445305
 30
0.0
 10
39.04058202744868
 20
1.893246637001411
 30
0.0
 10
40.15781908025285
 20
1.487014574476427
 30
0.0
 10
40.90261326646281
 20
1.112616825727497
 30
0.0
 10
41.27500000000001
 20
0.9254231589646595
 30
0.0
  0
LINE
  5
AF
330
1F
100
AcDbEntity
  8
0
  6
Continuous
 62
     1
370
    15
100
AcDbLine
 10
41.27500000000001
 20
0.1870263201723327
 30
0.0
 11
41.27500000000001
 21
0.9254231589646593
 31
0.0
  0
SPLINE
  5
B0
330
1F
100
AcDbEntity
  8
0
  6
Continuous
 62
     1
370
    15
100
AcDbSpline
210
0.0
220
0.0
230
1.0
 70
     8
 71
     3
 72
     9
 73
     5
 74
     0
 42
0.000000001
 43
0.00000001
 40
0.0
 40
0.0
 40
0.0
 40
0.0
 40
0.5094526529418171
 40
1.0
 40
1.0
 40
1.0
 40
1.0
 10
41.27500000000001
 20
2.182812500000005
 30
0.0
 10
40.93617844650829
 20
2.144689113555608
 30
0.0
 10
40.2711086867667
 20
2.085613371990578
 30
0.0
 10
39.60607199177709
 20
1.882272004744421
 30
0.0
 10
39.27984000535359
 20
1.782523436494636
 30
0.0
  0
SPLINE
  5
B1
330
1F
100
AcDbEntity
  8
0
  6
Continuous
 62
     1
370
    15
100
AcDbSpline
210
0.0
220
0.0
230
1.0
 70
     8
 71
     3
 72
     9
 73
     5
 74
     0
 42
0.000000001
 43
0.00000001
 40
0.0
 40
0.0
 40
0.0
 40
0.0
 40
0.0247564078380208
 40
1.0
 40
1.0
 40
1.0
 40
1.0
 10
29.72093249636807
 20
-2.180469205488857
 30
0.0
 10
29.71147605469351
 20
-2.181249372714886
 30
0.0
 10
29.32949649867576
 20
-2.212763121847383
 30
0.0
 10
28.94752006717662
 20
-2.147213140698815
 30
0.0
 10
28.57500000000016
 20
-2.083285941617335
 30
0.0
  0
LINE
  5
B2
330
1F
100
AcDbEntity
  8
0
  6
Continuous
 62
     1
370
    15
100
AcDbLine
 10
41.27500000000001
 20
0.9254231589646593
 30
0.0
 11
41.27500000000001
 21
2.182812500000005
 31
0.0
  0
LINE
  5
B3
330
1F
100
AcDbEntity
  8
외형선
  6
Continuous
370
    15
100
AcDbLine
 10
28.57499999999997
 20
-2.083285941617305
 30
0.0
 11
28.57499999999998
 21
-1.730857203669414
 31
0.0
  0
LINE
  5
B4
330
1F
100
AcDbEntity
  8
외형선
  6
Continuous
370
    15
100
AcDbLine
 10
27.575
 20
-0.0000000000000015
 30
0.0
 11
27.575
 21
2.182812499999999
 31
0.0
  0
LINE
  5
B5
330
1F
100
AcDbEntity
  8
외형선
  6
Continuous
370
    15
100
AcDbLine
 10
27.575
 20
-2.182812500000002
 30
0.0
 11
27.575
 21
-0.0000000000000015
 31
0.0
  0
LINE
  5
B6
330
1F
100
AcDbEntity
  8
외형선
  6
Continuous
370
    15
100
AcDbLine
 10
17.94747518234966
 20
-0.0000000000000015
 30
0.0
 11
17.94747518234966
 21
4.762500000000006
 31
0.0
  0
LINE
  5
B7
330
1F
100
AcDbEntity
  8
외형선
  6
Continuous
370
    15
100
AcDbLine
 10
17.94747518234966
 20
-4.762500000000008
 30
0.0
 11
17.94747518234966
 21
-0.0000000000000015
 31
0.0
  0
SPLINE
  5
BC
330
1F
100
AcDbEntity
  8
외형선
  6
Continuous
370
    15
100
AcDbSpline
210
0.0
220
0.0
230
1.0
 70
     8
 71
     3
 72
     8
 73
     4
 74
     0
 42
0.000000001
 43
0.00000001
 40
0.0
 40
0.0
 40
0.0
 40
0.0
 40
1.0
 40
1.0
 40
1.0
 40
1.0
 10
28.57500000000018
 20
2.083285941617333
 30
0.0
 10
28.4075234872905
 20
2.054439464045272
 30
0.0
 10
28.24254373034776
 20
2.019642860309254
 30
0.0
 10
28.07514251862155
 20
1.978863776676907
 30
0.0
  0
LINE
  5
BD
330
1F
100
AcDbEntity
  8
외형선
  6
Continuous
370
    15
100
AcDbLine
 10
28.07514251862155
 20
1.547093502497071
 30
0.0
 11
28.07514251862155
 21
2.182812499999998
 31
0.0
  0
SPLINE
  5
BE
330
1F
100
AcDbEntity
  8
외형선
  6
Continuous
370
    15
100
AcDbSpline
210
0.0
220
0.0
230
1.0
 70
     8
 71
     3
 72
     8
 73
     4
 74
     0
 42
0.000000001
 43
0.00000001
 40
0.0
 40
0.0
 40
0.0
 40
0.0
 40
1.0
 40
1.0
 40
1.0
 40
1.0
 10
28.57500000000018
 20
1.329963815546008
 30
0.0
 10
28.40752348729048
 20
1.406588570661933
 30
0.0
 10
28.24254373034783
 20
1.478942977562952
 30
0.0
 10
28.07514251862154
 20
1.547101789195777
 30
0.0
  0
SPLINE
  5
BF
330
1F
100
AcDbEntity
  8
외형선
  6
Continuous
370
    15
100
AcDbSpline
210
0.0
220
0.0
230
1.0
 70
     8
 71
     3
 72
     8
 73
     4
 74
     0
 42
0.000000001
 43
0.00000001
 40
0.0
 40
0.0
 40
0.0
 40
0.0
 40
1.0
 40
1.0
 40
1.0
 40
1.0
 10
28.57500000000018
 20
0.6516057823683238
 30
0.0
 10
28.4075234872905
 20
0.7438324979948043
 30
0.0
 10
28.24254373034776
 20
0.833695518052387
 30
0.0
 10
28.07514251862155
 20
0.9212863634680916
 30
0.0
  0
LINE
  5
C0
330
1F
100
AcDbEntity
  8
외형선
  6
Continuous
370
    15
100
AcDbLine
 10
28.07514251862155
 20
-1.539861066683478
 30
0.0
 11
28.07514251862155
 21
0.9212824437324275
 31
0.0
  0
SPLINE
  5
C1
330
1F
100
AcDbEntity
  8
외형선
  6
Continuous
370
    15
100
AcDbSpline
210
0.0
220
0.0
230
1.0
 70
     8
 71
     3
 72
     8
 73
     4
 74
     0
 42
0.000000001
 43
0.00000001
 40
0.0
 40
0.0
 40
0.0
 40
0.0
 40
1.0
 40
1.0
 40
1.0
 40
1.0
 10
28.57500000000018
 20
-1.730857203669483
 30
0.0
 10
28.40752348729048
 20
-1.671979930915148
 30
0.0
 10
28.24254373034783
 20
-1.608332418729412
 30
0.0
 10
28.07514251862154
 20
-1.539852741018914
 30
0.0
  0
SPLINE
  5
C2
330
1F
100
AcDbEntity
  8
외형선
  6
Continuous
370
    15
100
AcDbSpline
210
0.0
220
0.0
230
1.0
 70
     8
 71
     3
 72
     8
 73
     4
 74
     0
 42
0.000000001
 43
0.00000001
 40
0.0
 40
0.0
 40
0.0
 40
0.0
 40
1.0
 40
1.0
 40
1.0
 40
1.0
 10
28.57500000000018
 20
-2.083285941617336
 30
0.0
 10
28.4075234872905
 20
-2.054439464045275
 30
0.0
 10
28.24254373034776
 20
-2.019642860309257
 30
0.0
 10
28.07514251862155
 20
-1.97886377667691
 30
0.0
  0
LINE
  5
C3
330
1F
100
AcDbEntity
  8
외형선
  6
Continuous
370
    15
100
AcDbLine
 10
28.07514251862155
 20
-2.182812500000002
 30
0.0
 11
28.07514251862155
 21
-1.978865601557284
 31
0.0
  0
SPLINE
  5
C4
330
1F
100
AcDbEntity
  8
외형선
  6
Continuous
370
    15
100
AcDbSpline
210
0.0
220
0.0
230
1.0
 70
    24
 71
     3
 72
    14
 73
    10
 74
     0
 42
0.000000001
 43
0.00000001
 40
0.0
 40
0.0
 40
0.0
 40
0.0
 40
0.1449121694686421
 40
0.2904684263304151
 40
0.436024683192246
 40
0.5815809400540518
 40
0.7271371969158584
 40
0.8726934537776491
 40
1.0
 40
1.0
 40
1.0
 40
1.0
 10
28.57500000000001
 20
-1.730857203669421
 30
0.0
 10
28.57500000000001
 20
-1.635001068640255
 30
0.0
 10
28.57500000000001
 20
-1.442862749283558
 30
0.0
 10
28.57500000000004
 20
-1.033924781966063
 30
0.0
 10
28.575
 20
-0.5909396003009817
 30
0.0
 10
28.57499999999998
 20
-0.1522187583460925
 30
0.0
 10
28.57500000000005
 20
0.2251795596549099
 30
0.0
 10
28.575
 20
0.504663816800834
 30
0.0
 10
28.57499999999995
 20
0.5793879682333727
 30
0.0
 10
28.57499999999994
 20
0.614251179820842
 30
0.0
  0
SPLINE
  5
C5
330
1F
100
AcDbEntity
  8
외형선
  6
Continuous
370
    15
100
AcDbSpline
210
0.0
220
0.0
230
1.0
 70
    24
 71
     3
 72
    12
 73
     8
 74
     0
 42
0.000000001
 43
0.00000001
 40
0.0
 40
0.0
 40
0.0
 40
0.0
 40
0.0937745398575709
 40
0.3894302141789022
 40
0.6936599230846875
 40
0.8462619793821117
 40
1.0
 40
1.0
 40
1.0
 40
1.0
 10
28.57500000000001
 20
1.387049356460249
 30
0.0
 10
28.575
 20
1.405899817878855
 30
0.0
 10
28.57499999999995
 20
1.484182678437475
 30
0.0
 10
28.57500000000002
 20
1.64325394601603
 30
0.0
 10
28.57499999999989
 20
1.821637297784672
 30
0.0
 10
28.57500000000005
 20
1.970439744640798
 30
0.0
 10
28.57499999999998
 20
2.045577667629845
 30
0.0
 10
28.57499999999997
 20
2.083285941617349
 30
0.0
  0
LINE
  5
C6
330
1F
100
AcDbEntity
  8
중심선
 48
0.8
100
AcDbLine
 10
-44.27500000000001
 20
-0.0000000000000054
 30
0.0
 11
44.27500000000001
 21
0.0000000000000054
 31
0.0
  0
LINE
  5
C7
330
1F
100
AcDbEntity
  8
참조1
100
AcDbLine
 10
1.780880657015621
 20
0.0010749287238892
 30
0.0
 11
1.780880657015621
 21
-39.99892507127611
 31
0.0
  0
LINE
  5
C8
330
1F
100
AcDbEntity
  8
참조1
100
AcDbLine
 10
1.780880657015621
 20
-39.99892507127611
 30
0.0
 11
-29.25297615729306
 21
-39.9989250712761
 31
0.0
  0
CIRCLE
  5
C9
330
1F
100
AcDbEntity
  8
해칭선
100
AcDbCircle
 10
0.0
 20
0.0
 30
0.0
 40
3.000000000000008
  0
INSERT
  5
CA
330
1F
100
AcDbEntity
  8
0
  6
Continuous
 62
     7
100
AcDbBlockReference
 66
     1
  2
블럭10
 10
-13.9402729321252
 20
-52.04717430164393
 30
0.0
  0
ATTRIB
  5
CB
330
CA
100
AcDbEntity
  8
FORMAT
 62
     2
100
AcDbText
 10
-23.12156822086649
 20
-49.97180738881174
 30
0.0
 40
4.233333333333333
  1
E2053011 [ 4 FLUTE ]
 41
0.75
  7
SLDTEXTSTYLE0
 11
-23.12156822086649
 21
-52.08847405547841
 31
0.0
100
AcDbAttribute
  2
AUTOATTR0
 70
     0
 74
     1
  0
SEQEND
  5
CC
330
CA
100
AcDbEntity
  8
0
  6
Continuous
 62
     7
  0
HATCH
  5
CD
330
1F
100
AcDbEntity
  8
중심선
100
AcDbHatch
 10
0.0
 20
0.0
 30
0.0
210
0.0
220
0.0
230
1.0
  2
SOLID
 70
     1
 71
     0
 91
        1
 92
        0
 93
        4
 72
     1
 10
-8.225363627744365
 20
-35.8
 11
-11.67163887158165
 21
-35.8
 72
     1
 10
-11.67163887158165
 20
-35.8
 11
-13.79986873078567
 21
-38.3363255805726
 72
     1
 10
-13.79986873078567
 20
-38.3363255805726
 11
-10.35356040183524
 21
-38.33628615127011
 72
     1
 10
-10.35356040183524
 20
-38.33628615127011
 11
-8.225363627744365
 21
-35.8
 97
        0
 75
     0
 76
     1
 98
        1
 10
-1.780880657015615
 20
-0.0010749287238947
  0
HATCH
  5
CE
330
1F
100
AcDbEntity
  8
중심선
100
AcDbHatch
 10
0.0
 20
0.0
 30
0.0
210
0.0
220
0.0
230
1.0
  2
SOLID
 70
     1
 71
     0
 91
        1
 92
        0
 93
        4
 72
     1
 10
-3.212599636708357
 20
-35.8
 11
-6.658874880545667
 21
-35.8
 72
     1
 10
-6.658874880545667
 20
-35.8
 11
-11.19001288890308
 21
-41.20000000000002
 72
     1
 10
-11.19001288890308
 20
-41.20000000000002
 11
-7.743737645065801
 21
-41.20000000000002
 72
     1
 10
-7.743737645065801
 20
-41.20000000000002
 11
-3.212599636708357
 21
-35.8
 97
        0
 75
     0
 76
     1
 98
        1
 10
-1.780880657015615
 20
-0.0010749287238947
  0
HATCH
  5
CF
330
1F
100
AcDbEntity
  8
중심선
100
AcDbHatch
 10
0.0
 20
0.0
 30
0.0
210
0.0
220
0.0
230
1.0
  2
SOLID
 70
     1
 71
     0
 91
        1
 92
        0
 93
        4
 72
     1
 10
1.800164354327483
 20
-35.79999999999998
 11
-1.646110889509605
 21
-35.79999999999998
 72
     1
 10
-1.646110889509605
 20
-35.79999999999998
 11
-8.694547791398882
 21
-44.20000000000002
 72
     1
 10
-8.694547791398882
 20
-44.20000000000002
 11
-5.248272547561601
 21
-44.20000000000002
 72
     1
 10
-5.2482725475616
 20
-44.20000000000002
 11
1.800164354327483
 21
-35.79999999999998
 97
        0
 75
     0
 76
     1
 98
        1
 10
-1.780880657015615
 20
-0.0010749287238947
  0
HATCH
  5
D0
330
1F
100
AcDbEntity
  8
중심선
100
AcDbHatch
 10
0.0
 20
0.0
 30
0.0
210
0.0
220
0.0
230
1.0
  2
SOLID
 70
     1
 71
     0
 91
        1
 92
        0
 93
        6
 72
     3
 10
6.600054785339683
 20
-40.00000000005127
 11
3.960054785062283
 21
1.540882976769353E-10
 40
0.3939339440162628
 50
17.09539180608436
 51
320.0019657685078
 73
     0
 72
     1
 10
8.283054441040278
 20
-38.5878940046383
 11
10.58835631474131
 21
-36.65356729459035
 72
     3
 10
6.600054785286837
 20
-40.00000000000015
 11
6.600054785286829
 21
-1.278976924368180E-13
 40
0.636358354079598
 50
39.99873849337431
 51
368.4976242363724
 73
     1
 72
     1
 10
13.02538727718744
 20
-39.03999999993002
 11
5.280122092122758
 21
-39.03999999993002
 72
     1
 10
5.280122092122758
 20
-39.03999999993002
 11
5.280097047676824
 21
-40.95999999992991
 72
     1
 10
5.280097047676824
 20
-40.95999999992991
 11
9.721476817148861
 21
-40.95999999992988
 97
        0
 75
     0
 76
     1
 98
        1
 10
-1.780880657015615
 20
-0.0010749287238947
  0
DIMENSION
  5
D1
330
1F
100
AcDbEntity
  8
치수문자_일반주서
100
AcDbDimension
  2
_D
 10
53.39358645480963
 20
-2.182812499999947
 30
0.0
 11
53.39358645480954
 21
23.66181250000005
 31
0.0
 70
   160
  1
%%c<>
 71
     2
 42
4.365625
 52
-270.0
  3
SLDDIMSTYLE0
100
AcDbAlignedDimension
 13
41.27500000000001
 23
2.182812500000005
 33
0.0
 14
41.27500000000001
 24
-2.182812499999995
 34
0.0
 50
90.0000000000002
100
AcDbRotatedDimension
1001
ACAD
1000
DSTYLE
1002
{
1070
   171
1070
     6
1070
   273
1070
     7
1002
}
  0
DIMENSION
  5
E6
330
1F
100
AcDbEntity
  8
치수문자_일반주서
100
AcDbDimension
  2
_D_1
 10
28.57499999999997
 20
17.63029749933538
 30
0.0
 11
11.03349999999997
 21
17.63029749933538
 31
0.0
 70
   160
  1
<>
 71
     2
 42
12.70000000000004
  3
SLDDIMSTYLE0
100
AcDbAlignedDimension
 13
41.27500000000001
 23
2.182812500000005
 33
0.0
 14
28.57499999999997
 24
2.083285941617349
 34
0.0
 50
-0.0000000000000321
100
AcDbRotatedDimension
1001
ACAD
1000
DSTYLE
1002
{
1070
   171
1070
     6
1070
   273
1070
     7
1002
}
  0
DIMENSION
  5
FB
330
1F
100
AcDbEntity
  8
치수문자_일반주서
100
AcDbDimension
  2
_D_2
 10
-41.27500000000003
 20
26.69465316271769
 30
0.0
 11
-1.43269577258063
 21
26.69465316271769
 31
0.0
 70
   160
  1
<>
 71
     2
 42
82.55000000000004
  3
SLDDIMSTYLE0
100
AcDbAlignedDimension
 13
41.27500000000001
 23
2.182812500000005
 33
0.0
 14
-41.27500000000003
 24
2.182812499999998
 34
0.0
100
AcDbRotatedDimension
1001
ACAD
1000
DSTYLE
1002
{
1070
   171
1070
     6
1070
   273
1070
     7
1002
}
  0
DIMENSION
  5
10F
330
1F
100
AcDbEntity
  8
치수문자_일반주서
100
AcDbDimension
  2
_D_3
 10
-53.79874999999999
 20
-4.762500000000138
 30
0.0
 11
-53.79875000000001
 21
0.0000000000000011
 31
0.0
 70
   160
  1
%%c<>
 71
     2
 42
9.525000000000023
 52
-270.0
  3
SLDDIMSTYLE0
100
AcDbAlignedDimension
 13
-17.94747518234971
 23
4.762500000000018
 33
0.0
 14
-17.9474751823497
 24
-4.762500000000005
 34
0.0
 50
90.0000000000002
100
AcDbRotatedDimension
1001
ACAD
1000
DSTYLE
1002
{
1070
   171
1070
     6
1070
   273
1070
     7
1002
}
  0
LINE
  5
123
330
1F
100
AcDbEntity
  8
참조1
100
AcDbLine
 10
68.7193644723612
 20
7.441074928723896
 30
0.0
 11
68.7193644723612
 21
-7.438925071276109
 31
0.0
  0
LINE
  5
124
330
1F
100
AcDbEntity
  8
참조1
100
AcDbLine
 10
81.41936447236121
 20
5.441074928723896
 30
0.0
 11
68.7193644723612
 21
5.441074928723896
 31
0.0
  0
SOLID
  5
125
330
1F
100
AcDbEntity
  8
참조1
100
AcDbTrace
 10
68.7193644723612
 20
5.441074928723896
 30
0.0
 11
75.0693644723612
 21
4.425074928723896
 31
0.0
 12
75.0693644723612
 22
6.457074928723896
 32
0.0
 13
75.0693644723612
 23
6.457074928723896
 33
0.0
  0
LINE
  5
126
330
1F
100
AcDbEntity
  8
참조1
100
AcDbLine
 10
81.41936447236121
 20
-5.438925071276109
 30
0.0
 11
68.7193644723612
 21
-5.438925071276109
 31
0.0
  0
SOLID
  5
127
330
1F
100
AcDbEntity
  8
참조1
100
AcDbTrace
 10
68.7193644723612
 20
-5.438925071276109
 30
0.0
 11
75.0693644723612
 21
-6.454925071276109
 31
0.0
 12
75.0693644723612
 22
-4.422925071276109
 32
0.0
 13
75.0693644723612
 23
-4.422925071276109
 33
0.0
  0
MTEXT
  5
128
330
1F
100
AcDbEntity
  8
참조1
100
AcDbMText
 10
78.1037146049872
 20
11.01136670591223
 30
0.0
 40
3.5
 41
0.0
 71
     1
 72
     1
  1
A
  7
SLDTEXTSTYLE0
 73
     1
 44
1.0
  0
MTEXT
  5
129
330
1F
100
AcDbEntity
  8
참조1
100
AcDbMText
 10
78.1037146049872
 20
0.1313667059122219
 30
0.0
 40
3.5
 41
0.0
 71
     1
 72
     1
  1
A
  7
SLDTEXTSTYLE0
 73
     1
 44
1.0
  0
INSERT
  5
130
330
1F
100
AcDbEntity
  8
해칭선
100
AcDbBlockReference
  2
SW_DOWELSYMBOL_0
 10
0.0
 20
0.0
 30
0.0
  0
LINE
  5
32E
330
1F
100
AcDbEntity
  8
0
  6
Continuous
 62
     1
370
    15
100
AcDbLine
 10
-32.1532170878458
 20
0.6271526517238475
 30
0.0
 11
-32.20518894304575
 21
0.6549363492164848
 31
0.0
  0
LINE
  5
32F
330
1F
100
AcDbEntity
  8
0
  6
Continuous
 62
     1
370
    15
100
AcDbLine
 10
-35.65992647213145
 20
2.182812500000012
 30
0.0
 11
-36.9913456779758
 21
2.182812500000012
 31
0.0
  0
LINE
  5
330
330
1F
100
AcDbEntity
  8
0
  6
Continuous
 62
     1
370
    15
100
AcDbLine
 10
-31.05202056262704
 20
-2.182812499999997
 30
0.0
 11
-29.72093249636811
 21
-2.182812499999997
 31
0.0
  0
LINE
  5
331
330
1F
100
AcDbEntity
  8
0
  6
Continuous
 62
     1
370
    15
100
AcDbLine
 10
-36.9913456779758
 20
-2.182812499999997
 30
0.0
 11
-35.65992647213147
 21
-2.182812499999997
 31
0.0
  0
LINE
  5
332
330
1F
100
AcDbEntity
  8
0
  6
Continuous
 62
     1
370
    15
100
AcDbLine
 10
-29.72093249636811
 20
2.182812500000012
 30
0.0
 11
-31.05202056262704
 21
2.182812500000012
 31
0.0
  0
LINE
  5
333
330
1F
100
AcDbEntity
  8
외형선
  6
Continuous
370
    15
100
AcDbLine
 10
-17.94747518234971
 20
4.762500000000018
 30
0.0
 11
-27.57500000000005
 21
2.182812500000012
 31
0.0
  0
LINE
  5
334
330
1F
100
AcDbEntity
  8
외형선
  6
Continuous
370
    15
100
AcDbLine
 10
-27.57500000000005
 20
-2.182812499999997
 30
0.0
 11
-17.94747518234971
 21
-4.762500000000002
 31
0.0
  0
LINE
  5
337
330
1F
100
AcDbEntity
  8
외형선
  6
Continuous
370
    15
100
AcDbLine
 10
-27.57500000000005
 20
2.182812500000012
 30
0.0
 11
-28.07514251862159
 21
2.182812500000012
 31
0.0
  0
LINE
  5
338
330
1F
100
AcDbEntity
  8
외형선
  6
Continuous
370
    15
100
AcDbLine
 10
-28.07514251862159
 20
-2.182812499999997
 30
0.0
 11
-27.57500000000005
 21
-2.182812499999997
 31
0.0
  0
SPLINE
  5
339
330
1F
100
AcDbEntity
  8
0
  6
Continuous
 62
     1
370
    15
100
AcDbSpline
210
0.0
220
0.0
230
1.0
 70
     8
 71
     3
 72
    18
 73
    14
 74
     0
 42
0.000000001
 43
0.00000001
 40
0.0
 40
0.0
 40
0.0
 40
0.0
 40
0.0949103206502004
 40
0.1898321678059083
 40
0.2847676361444313
 40
0.3797188019291263
 40
0.4746714745863519
 40
0.5696082978086819
 40
0.6645313084224796
 40
0.7689095643000684
 40
0.8732832970911161
 40
0.9776520766261294
 40
1.0
 40
1.0
 40
1.0
 40
1.0
 10
-28.57500000000022
 20
-1.329963815546008
 30
0.0
 10
-28.91363888019441
 20
-1.165637217464635
 30
0.0
 10
-29.5909577670156
 20
-0.8369640644476557
 30
0.0
 10
-30.60703596176398
 20
-0.2583086888647723
 30
0.0
 10
-31.62328492749299
 20
0.3320697997900913
 30
0.0
 10
-32.63968759946266
 20
0.9004525549802769
 30
0.0
 10
-33.65609613493393
 20
1.403642779237956
 30
0.0
 10
-34.67237564854378
 20
1.80642292578267
 30
0.0
 10
-35.7221953112907
 20
2.087749834986
 30
0.0
 10
-36.80592034155887
 20
2.214304519624435
 30
0.0
 10
-37.92327328216396
 20
2.139966910247268
 30
0.0
 10
-38.74791531884983
 20
1.983090454173678
 30
0.0
 10
-39.20009330467025
 20
1.812592651802064
 30
0.0
 10
-39.27984000535363
 20
1.782523436494643
 30
0.0
  0
SPLINE
  5
33A
330
1F
100
AcDbEntity
  8
외형선
  6
Continuous
370
    15
100
AcDbSpline
210
0.0
220
0.0
230
1.0
 70
    24
 71
     3
 72
    11
 73
     7
 74
     0
 42
0.000000001
 43
0.00000001
 40
0.0
 40
0.0
 40
0.0
 40
0.0
 40
0.2411904593184412
 40
0.4869519526523149
 40
0.7827446018811408
 40
1.0
 40
1.0
 40
1.0
 40
1.0
 10
-28.57499999999999
 20
-2.08328594161729
 30
0.0
 10
-28.57500000000005
 20
-2.024091649045217
 30
0.0
 10
-28.57500000000005
 20
-1.904581215525993
 30
0.0
 10
-28.5750000000001
 20
-1.716501885083843
 30
0.0
 10
-28.57499999999999
 20
-1.539530094455727
 30
0.0
 10
-28.57499999999999
 20
-1.432410313805164
 30
0.0
 10
-28.57500000000005
 20
-1.387049356460238
 30
0.0
  0
SPLINE
  5
33B
330
1F
100
AcDbEntity
  8
0
  6
Continuous
 62
     1
370
    15
100
AcDbSpline
210
0.0
220
0.0
230
1.0
 70
     8
 71
     3
 72
    46
 73
    42
 74
     0
 42
0.000000001
 43
0.00000001
 40
0.0
 40
0.0
 40
0.0
 40
0.0
 40
0.0625
 40
0.0625
 40
0.125
 40
0.125
 40
0.1562499999999988
 40
0.1562499999999988
 40
0.1874999999999976
 40
0.1874999999999976
 40
0.2499999999999976
 40
0.2499999999999976
 40
0.3124999999999976
 40
0.3124999999999976
 40
0.3749999999999976
 40
0.3749999999999976
 40
0.4062499999999976
 40
0.4062499999999976
 40
0.4374999999999976
 40
0.4374999999999976
 40
0.5
 40
0.5
 40
0.53125
 40
0.53125
 40
0.5625
 40
0.5625
 40
0.625
 40
0.625
 40
0.6875
 40
0.6875
 40
0.75
 40
0.75
 40
0.78125
 40
0.78125
 40
0.8125
 40
0.8125
 40
0.875
 40
0.875
 40
0.9375
 40
0.9375
 40
1.0
 40
1.0
 40
1.0
 40
1.0
 10
-41.27500000000003
 20
2.182812499999998
 30
0.0
 10
-41.01313133492357
 20
2.161742471574855
 30
0.0
 10
-40.74531998794617
 20
2.132560780905948
 30
0.0
 10
-40.21529046896597
 20
2.043457039245766
 30
0.0
 10
-39.95369572764264
 20
1.983785275087755
 30
0.0
 10
-39.55484537998575
 20
1.872623828009595
 30
0.0
 10
-39.42180716264869
 20
1.83203405385973
 30
0.0
 10
-39.1577456226388
 20
1.744499449020012
 30
0.0
 10
-39.02725658673884
 20
1.697637718997953
 30
0.0
 10
-38.63050685039929
 20
1.547353412820144
 30
0.0
 10
-38.3624899017392
 20
1.434497818106195
 30
0.0
 10
-37.83694400044823
 20
1.190976904958632
 30
0.0
 10
-37.57114296677418
 20
1.059090922546006
 30
0.0
 10
-37.04031457233083
 20
0.781792175511058
 30
0.0
 10
-36.77915566883706
 20
0.6371331686163448
 30
0.0
 10
-36.38048050800757
 20
0.4134725508870223
 30
0.0
 10
-36.2473205713909
 20
0.3379680634026135
 30
0.0
 10
-35.98266201768701
 20
0.1863101033714974
 30
0.0
 10
-35.85211389920897
 20
0.1103420373125635
 30
0.0
 10
-35.45630868721116
 20
-0.1185479941234599
 30
0.0
 10
-35.18820600080713
 20
-0.2721954024302273
 30
0.0
 10
-34.79285851519268
 20
-0.4967107171216862
 30
0.0
 10
-34.66215814429
 20
-0.5705755747141406
 30
0.0
 10
-34.39727862643969
 20
-0.7165888090567303
 30
0.0
 10
-34.26408445200912
 20
-0.7885477011521824
 30
0.0
 10
-33.86553812027324
 20
-0.999485223339732
 30
0.0
 10
-33.60445623263143
 20
-1.132994023623197
 30
0.0
 10
-33.07335617452787
 20
-1.38296010048522
 30
0.0
 10
-32.80830995078497
 20
-1.498547463281383
 30
0.0
 10
-32.28205670000398
 20
-1.70565791583202
 30
0.0
 10
-32.01398826889135
 20
-1.797998139395502
 30
0.0
 10
-31.6176228098152
 20
-1.915075087762815
 30
0.0
 10
-31.48715912686379
 20
-1.950511875568949
 30
0.0
 10
-31.22282738332569
 20
-2.014417476803984
 30
0.0
 10
-31.0897297569951
 20
-2.042796960464372
 30
0.0
 10
-30.6909331313139
 20
-2.116448245886871
 30
0.0
 10
-30.42956932513846
 20
-2.150087372762712
 30
0.0
 10
-29.89916864791167
 20
-2.185744849658121
 30
0.0
 10
-29.63226285329313
 20
-2.187518719909533
 30
0.0
 10
-29.10772214751677
 20
-2.159202398744682
 30
0.0
 10
-28.83980791314599
 20
-2.128896967329964
 30
0.0
 10
-28.57500000000022
 20
-2.083285941617319
 30
0.0
  0
SPLINE
  5
33C
330
1F
100
AcDbEntity
  8
0
  6
Continuous
 62
     1
370
    15
100
AcDbSpline
210
0.0
220
0.0
230
1.0
 70
     8
 71
     3
 72
    12
 73
     8
 74
     0
 42
0.000000001
 43
0.00000001
 40
0.0
 40
0.0
 40
0.0
 40
0.0
 40
0.2123002297482103
 40
0.4246262425698595
 40
0.6369827239456269
 40
0.8493743181669303
 40
1.0
 40
1.0
 40
1.0
 40
1.0
 10
-28.57500000000022
 20
1.730857203669487
 30
0.0
 10
-28.91363887139494
 20
1.837815395609752
 30
0.0
 10
-29.59095774061603
 20
2.051744769164984
 30
0.0
 10
-30.60703606738349
 20
2.19322917263861
 30
0.0
 10
-31.62328453133023
 20
2.181576172112344
 30
0.0
 10
-32.54115142521667
 20
2.043135665564563
 30
0.0
 10
-33.12025211773471
 20
1.853668389447777
 30
0.0
 10
-33.3605366507702
 20
1.77505329442991
 30
0.0
  0
SPLINE
  5
33D
330
1F
100
AcDbEntity
  8
외형선
  6
Continuous
370
    15
100
AcDbSpline
210
0.0
220
0.0
230
1.0
 70
    24
 71
     3
 72
    22
 73
    18
 74
     0
 42
0.000000001
 43
0.00000001
 40
0.0
 40
0.0
 40
0.0
 40
0.0
 40
0.0231967462046723
 40
0.0951027881635452
 40
0.1690941102104865
 40
0.2410001521693608
 40
0.3149914742163035
 40
0.3868975161751796
 40
0.4608888382221242
 40
0.5327948801809983
 40
0.6067862022279412
 40
0.6786922441866144
 40
0.7526835662337591
 40
0.8245896081925798
 40
0.8985809302395833
 40
0.9489414853184001
 40
1.0
 40
1.0
 40
1.0
 40
1.0
 10
-28.57500000000005
 20
-0.6175824269338785
 30
0.0
 10
-28.57500000000005
 20
-0.6132275014143853
 30
0.0
 10
-28.57500000000005
 20
-0.595373033572471
 30
0.0
 10
-28.57499999999999
 20
-0.5312687405024827
 30
0.0
 10
-28.57500000000005
 20
-0.4224654732998653
 30
0.0
 10
-28.5750000000001
 20
-0.2798297437602736
 30
0.0
 10
-28.57500000000005
 20
-0.1125093284156402
 30
0.0
 10
-28.57499999999999
 20
0.0784540670098158
 30
0.0
 10
-28.57500000000005
 20
0.2840354712193408
 30
0.0
 10
-28.57500000000005
 20
0.5021657887771913
 30
0.0
 10
-28.57500000000005
 20
0.7227289699431911
 30
0.0
 10
-28.57499999999999
 20
0.9434658376220857
 30
0.0
 10
-28.57500000000016
 20
1.154115220071433
 30
0.0
 10
-28.57499999999999
 20
1.352653711416935
 30
0.0
 10
-28.57499999999999
 20
1.511861051765991
 30
0.0
 10
-28.5750000000001
 20
1.638306428456489
 30
0.0
 10
-28.57500000000005
 20
1.699865729530473
 30
0.0
 10
-28.57500000000005
 20
1.730857203669416
 30
0.0
  0
SPLINE
  5
33E
330
1F
100
AcDbEntity
  8
0
  6
Continuous
 62
     1
370
    15
100
AcDbSpline
210
0.0
220
0.0
230
1.0
 70
     8
 71
     3
 72
    14
 73
    10
 74
     0
 42
0.000000001
 43
0.00000001
 40
0.0
 40
0.0
 40
0.0
 40
0.0
 40
0.0679239313372725
 40
0.2113015629978412
 40
0.3690472050316551
 40
0.5267905350874028
 40
0.6845308870790866
 40
0.8422675963518923
 40
1.0
 40
1.0
 40
1.0
 40
1.0
 10
-35.65992647213145
 20
2.163198367614897
 30
0.0
 10
-35.49953861336371
 20
2.1673029923749
 30
0.0
 10
-35.00059509557434
 20
2.180071888553784
 30
0.0
 10
-34.12926825671292
 20
2.027209738442821
 30
0.0
 10
-33.04543318187808
 20
1.707664374189534
 30
0.0
 10
-31.927805750294
 20
1.219859005217117
 30
0.0
 10
-30.81016924037169
 20
0.6299709798710897
 30
0.0
 10
-29.6925723958646
 20
-0.0193135956711141
 30
0.0
 10
-28.94752074238619
 20
-0.4408436378621298
 30
0.0
 10
-28.57500000000022
 20
-0.6516057823683208
 30
0.0
  0
LINE
  5
33F
330
1F
100
AcDbEntity
  8
0
  6
Continuous
 62
     1
370
    15
100
AcDbLine
 10
-41.27500000000003
 20
1.97693257017231
 30
0.0
 11
-41.27500000000003
 21
-0.1870263201723214
 31
0.0
  0
SPLINE
  5
340
330
1F
100
AcDbEntity
  8
0
  6
Continuous
 62
     1
370
    15
100
AcDbSpline
210
0.0
220
0.0
230
1.0
 70
     8
 71
     3
 72
    17
 73
    13
 74
     0
 42
0.000000001
 43
0.00000001
 40
0.0
 40
0.0
 40
0.0
 40
0.0
 40
0.0558781275807208
 40
0.1553068458848432
 40
0.2547371421201374
 40
0.354150841518687
 40
0.4535500769561925
 40
0.5628504327228716
 40
0.6721460521106614
 40
0.7814364846648311
 40
0.8907212823985173
 40
0.9999999999999999
 40
0.9999999999999999
 40
0.9999999999999999
 40
0.9999999999999999
 10
-31.05202056262704
 20
-2.163441588020916
 30
0.0
 10
-31.24242461912118
 20
-2.166181832352194
 30
0.0
 10
-31.77163085308217
 20
-2.173798027140179
 30
0.0
 10
-32.6396885886339
 20
-2.012842656598749
 30
0.0
 10
-33.65609587334905
 20
-1.707222833911828
 30
0.0
 10
-34.67237570587127
 20
-1.271710427674307
 30
0.0
 10
-35.72219534266372
 20
-0.7294530452117551
 30
0.0
 10
-36.80592012980986
 20
-0.1091569763022017
 30
0.0
 10
-37.92327409016195
 20
0.5405892443228457
 30
0.0
 10
-39.04058303706807
 20
1.140199427778683
 30
0.0
 10
-40.15781882786985
 20
1.65321325811668
 30
0.0
 10
-40.90261318233675
 20
1.869028134043405
 30
0.0
 10
-41.27500000000003
 20
1.97693257017231
 30
0.0
  0
SPLINE
  5
341
330
1F
100
AcDbEntity
  8
0
  6
Continuous
 62
     1
370
    15
100
AcDbSpline
210
0.0
220
0.0
230
1.0
 70
     8
 71
     3
 72
    15
 73
    11
 74
     0
 42
0.000000001
 43
0.00000001
 40
0.0
 40
0.0
 40
0.0
 40
0.0
 40
0.1284224673378319
 40
0.2568235756384447
 40
0.3852061318149776
 40
0.5135729678566417
 40
0.6419269370663744
 40
0.7702709102370137
 40
0.8986077717768113
 40
1.0
 40
1.0
 40
1.0
 40
1.0
 10
-41.27500000000003
 20
-0.1870263201723214
 30
0.0
 10
-40.93617887672309
 20
-0.3805390451513654
 30
0.0
 10
-40.25859298240357
 20
-0.7675323103556617
 30
0.0
 10
-39.24233499939879
 20
-1.289331706097769
 30
0.0
 10
-38.2262509422219
 20
-1.719601618346899
 30
0.0
 10
-37.21031461593907
 20
-2.025823640315906
 30
0.0
 10
-36.1945084783701
 20
-2.188006796710553
 30
0.0
 10
-35.17876652019646
 20
-2.188318048448806
 30
0.0
 10
-34.23426829290707
 20
-2.059328936008611
 30
0.0
 10
-33.62808088079487
 20
-1.862100968993829
 30
0.0
 10
-33.3605366507702
 20
-1.775053294429895
 30
0.0
  0
LINE
  5
342
330
1F
100
AcDbEntity
  8
외형선
  6
Continuous
370
    15
100
AcDbLine
 10
-28.57499999999999
 20
-0.651605782368406
 30
0.0
 11
-28.57500000000005
 21
-1.329963815546094
 31
0.0
  0
LINE
  5
343
330
1F
100
AcDbEntity
  8
0
  6
Continuous
 62
     1
370
    15
100
AcDbLine
 10
-41.27500000000003
 20
2.182812499999998
 30
0.0
 11
-41.27500000000003
 21
1.97693257017231
 31
0.0
  0
SPLINE
  5
344
330
1F
100
AcDbEntity
  8
0
  6
Continuous
 62
     1
370
    15
100
AcDbSpline
210
0.0
220
0.0
230
1.0
 70
     8
 71
     3
 72
    11
 73
     7
 74
     0
 42
0.000000001
 43
0.00000001
 40
0.0
 40
0.0
 40
0.0
 40
0.0
 40
0.2175555619882075
 40
0.4783841767736431
 40
0.7391993436992137
 40
1.0
 40
1.0
 40
1.0
 40
1.0
 10
-36.99134567797583
 20
-2.169671870217783
 30
0.0
 10
-37.30199538725111
 20
-2.162234161634813
 30
0.0
 10
-37.98508482003098
 20
-2.145879341445294
 30
0.0
 10
-39.04058202744872
 20
-1.893246637001411
 30
0.0
 10
-40.15781908025289
 20
-1.487014574476418
 30
0.0
 10
-40.90261326646285
 20
-1.112616825727485
 30
0.0
 10
-41.27500000000003
 20
-0.9254231589646476
 30
0.0
  0
LINE
  5
345
330
1F
100
AcDbEntity
  8
0
  6
Continuous
 62
     1
370
    15
100
AcDbLine
 10
-41.27500000000003
 20
-0.1870263201723214
 30
0.0
 11
-41.27500000000003
 21
-0.9254231589646476
 31
0.0
  0
SPLINE
  5
346
330
1F
100
AcDbEntity
  8
0
  6
Continuous
 62
     1
370
    15
100
AcDbSpline
210
0.0
220
0.0
230
1.0
 70
     8
 71
     3
 72
     9
 73
     5
 74
     0
 42
0.000000001
 43
0.00000001
 40
0.0
 40
0.0
 40
0.0
 40
0.0
 40
0.5094526529418171
 40
1.0
 40
1.0
 40
1.0
 40
1.0
 10
-41.27500000000003
 20
-2.182812499999997
 30
0.0
 10
-40.93617844650834
 20
-2.1446891135556
 30
0.0
 10
-40.27110868676675
 20
-2.085613371990561
 30
0.0
 10
-39.60607199177713
 20
-1.882272004744407
 30
0.0
 10
-39.27984000535363
 20
-1.782523436494628
 30
0.0
  0
SPLINE
  5
347
330
1F
100
AcDbEntity
  8
0
  6
Continuous
 62
     1
370
    15
100
AcDbSpline
210
0.0
220
0.0
230
1.0
 70
     8
 71
     3
 72
     9
 73
     5
 74
     0
 42
0.000000001
 43
0.00000001
 40
0.0
 40
0.0
 40
0.0
 40
0.0
 40
0.0247564078380208
 40
1.0
 40
1.0
 40
1.0
 40
1.0
 10
-29.72093249636811
 20
2.180469205488862
 30
0.0
 10
-29.71147605469355
 20
2.181249372714888
 30
0.0
 10
-29.32949649867578
 20
2.212763121847388
 30
0.0
 10
-28.94752006717667
 20
2.147213140698824
 30
0.0
 10
-28.57500000000022
 20
2.083285941617334
 30
0.0
  0
LINE
  5
348
330
1F
100
AcDbEntity
  8
0
  6
Continuous
 62
     1
370
    15
100
AcDbLine
 10
-41.27500000000003
 20
-0.9254231589646476
 30
0.0
 11
-41.27500000000003
 21
-2.182812499999997
 31
0.0
  0
LINE
  5
349
330
1F
100
AcDbEntity
  8
외형선
  6
Continuous
370
    15
100
AcDbLine
 10
-28.57499999999999
 20
2.083285941617306
 30
0.0
 11
-28.57500000000005
 21
1.730857203669416
 31
0.0
  0
LINE
  5
34A
330
1F
100
AcDbEntity
  8
외형선
  6
Continuous
370
    15
100
AcDbLine
 10
-27.57500000000005
 20
0.0000000000000147
 30
0.0
 11
-27.57500000000005
 21
-2.182812499999997
 31
0.0
  0
LINE
  5
34B
330
1F
100
AcDbEntity
  8
외형선
  6
Continuous
370
    15
100
AcDbLine
 10
-27.57500000000005
 20
2.182812500000012
 30
0.0
 11
-27.57500000000005
 21
0.0000000000000147
 31
0.0
  0
LINE
  5
34C
330
1F
100
AcDbEntity
  8
외형선
  6
Continuous
370
    15
100
AcDbLine
 10
-17.94747518234971
 20
0.0000000000000147
 30
0.0
 11
-17.94747518234971
 21
-4.762500000000002
 31
0.0
  0
LINE
  5
34D
330
1F
100
AcDbEntity
  8
외형선
  6
Continuous
370
    15
100
AcDbLine
 10
-17.94747518234971
 20
4.762500000000018
 30
0.0
 11
-17.94747518234971
 21
0.0000000000000147
 31
0.0
  0
SPLINE
  5
34E
330
1F
100
AcDbEntity
  8
외형선
  6
Continuous
370
    15
100
AcDbSpline
210
0.0
220
0.0
230
1.0
 70
     8
 71
     3
 72
     8
 73
     4
 74
     0
 42
0.000000001
 43
0.00000001
 40
0.0
 40
0.0
 40
0.0
 40
0.0
 40
1.0
 40
1.0
 40
1.0
 40
1.0
 10
-28.57500000000022
 20
-2.083285941617319
 30
0.0
 10
-28.40752348729052
 20
-2.054439464045259
 30
0.0
 10
-28.24254373034779
 20
-2.019642860309247
 30
0.0
 10
-28.07514251862159
 20
-1.978863776676902
 30
0.0
  0
LINE
  5
34F
330
1F
100
AcDbEntity
  8
외형선
  6
Continuous
370
    15
100
AcDbLine
 10
-28.07514251862159
 20
-1.547093502497048
 30
0.0
 11
-28.07514251862159
 21
-2.182812499999997
 31
0.0
  0
SPLINE
  5
350
330
1F
100
AcDbEntity
  8
외형선
  6
Continuous
370
    15
100
AcDbSpline
210
0.0
220
0.0
230
1.0
 70
     8
 71
     3
 72
     8
 73
     4
 74
     0
 42
0.000000001
 43
0.00000001
 40
0.0
 40
0.0
 40
0.0
 40
0.0
 40
1.0
 40
1.0
 40
1.0
 40
1.0
 10
-28.57500000000022
 20
-1.329963815545994
 30
0.0
 10
-28.40752348729052
 20
-1.406588570661924
 30
0.0
 10
-28.24254373034785
 20
-1.478942977562937
 30
0.0
 10
-28.07514251862159
 20
-1.547101789195764
 30
0.0
  0
SPLINE
  5
351
330
1F
100
AcDbEntity
  8
외형선
  6
Continuous
370
    15
100
AcDbSpline
210
0.0
220
0.0
230
1.0
 70
     8
 71
     3
 72
     8
 73
     4
 74
     0
 42
0.000000001
 43
0.00000001
 40
0.0
 40
0.0
 40
0.0
 40
0.0
 40
1.0
 40
1.0
 40
1.0
 40
1.0
 10
-28.57500000000022
 20
-0.6516057823683208
 30
0.0
 10
-28.40752348729052
 20
-0.7438324979948017
 30
0.0
 10
-28.24254373034779
 20
-0.8336955180523797
 30
0.0
 10
-28.07514251862159
 20
-0.9212863634680697
 30
0.0
  0
LINE
  5
352
330
1F
100
AcDbEntity
  8
외형선
  6
Continuous
370
    15
100
AcDbLine
 10
-28.07514251862159
 20
1.539861066683486
 30
0.0
 11
-28.07514251862159
 21
-0.9212824437324083
 31
0.0
  0
SPLINE
  5
353
330
1F
100
AcDbEntity
  8
외형선
  6
Continuous
370
    15
100
AcDbSpline
210
0.0
220
0.0
230
1.0
 70
     8
 71
     3
 72
     8
 73
     4
 74
     0
 42
0.000000001
 43
0.00000001
 40
0.0
 40
0.0
 40
0.0
 40
0.0
 40
1.0
 40
1.0
 40
1.0
 40
1.0
 10
-28.57500000000022
 20
1.730857203669487
 30
0.0
 10
-28.40752348729052
 20
1.671979930915157
 30
0.0
 10
-28.24254373034785
 20
1.608332418729419
 30
0.0
 10
-28.07514251862159
 20
1.539852741018919
 30
0.0
  0
SPLINE
  5
354
330
1F
100
AcDbEntity
  8
외형선
  6
Continuous
370
    15
100
AcDbSpline
210
0.0
220
0.0
230
1.0
 70
     8
 71
     3
 72
     8
 73
     4
 74
     0
 42
0.000000001
 43
0.00000001
 40
0.0
 40
0.0
 40
0.0
 40
0.0
 40
1.0
 40
1.0
 40
1.0
 40
1.0
 10
-28.57500000000022
 20
2.083285941617334
 30
0.0
 10
-28.40752348729052
 20
2.054439464045274
 30
0.0
 10
-28.24254373034779
 20
2.019642860309262
 30
0.0
 10
-28.07514251862159
 20
1.978863776676917
 30
0.0
  0
LINE
  5
355
330
1F
100
AcDbEntity
  8
외형선
  6
Continuous
370
    15
100
AcDbLine
 10
-28.07514251862159
 20
2.182812500000012
 30
0.0
 11
-28.07514251862159
 21
1.978865601557289
 31
0.0
  0
SPLINE
  5
356
330
1F
100
AcDbEntity
  8
외형선
  6
Continuous
370
    15
100
AcDbSpline
210
0.0
220
0.0
230
1.0
 70
    24
 71
     3
 72
    14
 73
    10
 74
     0
 42
0.000000001
 43
0.00000001
 40
0.0
 40
0.0
 40
0.0
 40
0.0
 40
0.1449121694686421
 40
0.2904684263304151
 40
0.436024683192246
 40
0.5815809400540518
 40
0.7271371969158584
 40
0.8726934537776491
 40
1.0
 40
1.0
 40
1.0
 40
1.0
 10
-28.57500000000005
 20
1.730857203669431
 30
0.0
 10
-28.57500000000005
 20
1.635001068640265
 30
0.0
 10
-28.57500000000005
 20
1.442862749283564
 30
0.0
 10
-28.5750000000001
 20
1.033924781966065
 30
0.0
 10
-28.57500000000005
 20
0.590939600300985
 30
0.0
 10
-28.57500000000005
 20
0.1522187583460952
 30
0.0
 10
-28.5750000000001
 20
-0.225179559654904
 30
0.0
 10
-28.57500000000005
 20
-0.5046638168008282
 30
0.0
 10
-28.57499999999999
 20
-0.579387968233362
 30
0.0
 10
-28.57499999999999
 20
-0.6142511798208399
 30
0.0
  0
SPLINE
  5
357
330
1F
100
AcDbEntity
  8
외형선
  6
Continuous
370
    15
100
AcDbSpline
210
0.0
220
0.0
230
1.0
 70
    24
 71
     3
 72
    12
 73
     8
 74
     0
 42
0.000000001
 43
0.00000001
 40
0.0
 40
0.0
 40
0.0
 40
0.0
 40
0.0937745398575709
 40
0.3894302141789022
 40
0.6936599230846875
 40
0.8462619793821117
 40
1.0
 40
1.0
 40
1.0
 40
1.0
 10
-28.57500000000005
 20
-1.387049356460238
 30
0.0
 10
-28.57500000000005
 20
-1.405899817878847
 30
0.0
 10
-28.57499999999999
 20
-1.484182678437463
 30
0.0
 10
-28.57500000000005
 20
-1.643253946016017
 30
0.0
 10
-28.57499999999993
 20
-1.821637297784661
 30
0.0
 10
-28.5750000000001
 20
-1.970439744640785
 30
0.0
 10
-28.57500000000005
 20
-2.045577667629842
 30
0.0
 10
-28.57499999999999
 20
-2.083285941617347
 30
0.0
  0
CIRCLE
  5
35C
330
1F
100
AcDbEntity
  8
해칭선
100
AcDbCircle
 10
130.9045131268236
 20
-63.94091727465376
 30
0.0
 40
3.000000000000008
  0
INSERT
  5
35D
330
1F
100
AcDbEntity
  8
해칭선
100
AcDbBlockReference
  2
SW_DOWELSYMBOL_0
 10
130.9045131268236
 20
-63.94091727465376
 30
0.0
  0
LINE
  5
3D5
330
1F
100
AcDbEntity
  8
외형선
  6
Continuous
370
    15
100
AcDbLine
 10
-3.568700000000035
 20
3.492500000000021
 30
0.0
 11
3.568700000000035
 21
3.492500000000021
 31
0.0
  0
LINE
  5
3D6
330
1F
100
AcDbEntity
  8
외형선
  6
Continuous
370
    15
100
AcDbLine
 10
-3.568700000000035
 20
3.492500000000021
 30
0.0
 11
-4.838700000000017
 21
4.762500000000003
 31
0.0
  0
LINE
  5
3D7
330
1F
100
AcDbEntity
  8
외형선
  6
Continuous
370
    15
100
AcDbLine
 10
3.568700000000035
 20
3.492500000000021
 30
0.0
 11
4.838700000000017
 21
4.762500000000003
 31
0.0
  0
LINE
  5
3D9
330
1F
100
AcDbEntity
  8
외형선
  6
Continuous
370
    15
100
AcDbLine
 10
-4.838700000000014
 20
4.762500000000003
 30
0.0
 11
-17.94747518234976
 21
4.762500000000003
 31
0.0
  0
ENDSEC
  0
SECTION
  2
OBJECTS
  0
DICTIONARY
  5
C
330
0
100
AcDbDictionary
281
     1
  3
ACAD_GROUP
350
D
  3
ACAD_IMAGE_VARS
350
154
  3
ACAD_LAYOUT
350
1A
  3
ACAD_MLINESTYLE
350
17
  3
ACAD_PLOTSETTINGS
350
19
  3
ACAD_PLOTSTYLENAME
350
E
  3
ACAD_SCALELIST
350
47
  3
APPDATA
350
152
  3
DWGPROPS
350
3FD
  0
DICTIONARY
  5
1E3
330
2
100
AcDbDictionary
280
     1
281
     1
  3
ACAD_LAYERSTATES
360
1E4
  0
DICTIONARY
  5
D
102
{ACAD_REACTORS
330
C
102
}
330
C
100
AcDbDictionary
281
     1
  0
RASTERVARIABLES
  5
154
102
{ACAD_REACTORS
330
C
102
}
330
C
100
AcDbRasterVariables
 90
        0
 70
     1
 71
     1
 72
     1
  0
DICTIONARY
  5
1A
102
{ACAD_REACTORS
330
C
102
}
330
C
100
AcDbDictionary
281
     1
  3
Layout1
350
1E
  3
Layout2
350
26
  3
Model
350
22
  0
DICTIONARY
  5
17
102
{ACAD_REACTORS
330
C
102
}
330
C
100
AcDbDictionary
281
     1
  3
Standard
350
18
  0
DICTIONARY
  5
19
102
{ACAD_REACTORS
330
C
102
}
330
C
100
AcDbDictionary
281
     1
  0
ACDBDICTIONARYWDFLT
  5
E
102
{ACAD_REACTORS
330
C
102
}
330
C
100
AcDbDictionary
281
     1
  3
Normal
350
F
100
AcDbDictionaryWithDefault
340
F
  0
DICTIONARY
  5
47
102
{ACAD_REACTORS
330
C
102
}
330
C
100
AcDbDictionary
281
     1
  3
A0
350
48
  3
A1
350
49
  3
A2
350
4A
  3
A3
350
4B
  3
A4
350
4C
  3
A5
350
4D
  3
A6
350
4E
  3
A7
350
4F
  3
A8
350
50
  3
A9
350
51
  3
B0
350
52
  3
B1
350
53
  3
B2
350
54
  3
B3
350
55
  3
B4
350
56
  3
B5
350
57
  3
B6
350
58
  3
B7
350
59
  3
B8
350
5A
  3
B9
350
5B
  3
C0
350
5C
  3
C1
350
5D
  3
C2
350
5E
  3
C3
350
5F
  3
C4
350
60
  3
C5
350
61
  3
C6
350
62
  3
C7
350
63
  3
C8
350
64
  3
C9
350
65
  3
D0
350
66
  3
D1
350
67
  3
D2
350
68
  0
DICTIONARY
  5
152
102
{ACAD_REACTORS
330
C
102
}
330
C
100
AcDbDictionary
281
     1
  0
XRECORD
  5
3FD
102
{ACAD_REACTORS
330
C
102
}
330
C
100
AcDbXrecord
280
     1
  1
DWGPROPS COOKIE
  2

  3

  4

  6

  7

  8
12016016
  9

300
=
301
=
302
=
303
=
304
=
305
=
306
=
307
=
308
=
309
=
 40
0.0
 41
2458313.094753704
 42
2458319.121040127
  1

 90
        0
  0
DICTIONARY
  5
1E4
102
{ACAD_REACTORS
330
1E3
102
}
330
1E3
100
AcDbDictionary
281
     1
  0
LAYOUT
  5
1E
102
{ACAD_REACTORS
330
1A
102
}
330
1A
100
AcDbPlotSettings
  1

  2
none_device
  4

  6

 40
0.0
 41
0.0
 42
0.0
 43
0.0
 44
0.0
 45
0.0
 46
0.0
 47
0.0
 48
0.0
 49
0.0
140
0.0
141
0.0
142
1.0
143
1.0
 70
   688
 72
     1
 73
     0
 74
     5
  7

 75
    16
147
1.0
148
0.0
149
0.0
100
AcDbLayout
  1
Layout1
 70
     1
 71
     1
 10
0.0
 20
0.0
 11
420.0
 21
297.0
 12
0.0
 22
0.0
 32
0.0
 14
1.000000000000000E+20
 24
1.000000000000000E+20
 34
1.000000000000000E+20
 15
-1.000000000000000E+20
 25
-1.000000000000000E+20
 35
-1.000000000000000E+20
146
0.0
 13
0.0
 23
0.0
 33
0.0
 16
1.0
 26
0.0
 36
0.0
 17
0.0
 27
1.0
 37
0.0
 76
     0
330
1B
  0
LAYOUT
  5
26
102
{ACAD_REACTORS
330
1A
102
}
330
1A
100
AcDbPlotSettings
  1

  2
none_device
  4

  6

 40
0.0
 41
0.0
 42
0.0
 43
0.0
 44
0.0
 45
0.0
 46
0.0
 47
0.0
 48
0.0
 49
0.0
140
0.0
141
0.0
142
1.0
143
1.0
 70
   688
 72
     1
 73
     0
 74
     5
  7

 75
    16
147
1.0
148
0.0
149
0.0
100
AcDbLayout
  1
Layout2
 70
     1
 71
     2
 10
0.0
 20
0.0
 11
0.0
 21
0.0
 12
0.0
 22
0.0
 32
0.0
 14
0.0
 24
0.0
 34
0.0
 15
0.0
 25
0.0
 35
0.0
146
0.0
 13
0.0
 23
0.0
 33
0.0
 16
1.0
 26
0.0
 36
0.0
 17
0.0
 27
1.0
 37
0.0
 76
     0
330
23
  0
LAYOUT
  5
22
102
{ACAD_REACTORS
330
1A
102
}
330
1A
100
AcDbPlotSettings
  1

  2
none_device
  4
ANSI_A_(11.00_x_8.50_Inches)
  6

 40
6.35
 41
19.05
 42
6.35000508
 43
19.05000254
 44
279.4
 45
215.9
 46
93.72016263177488
 47
81.16737105736328
 48
0.0
 49
0.0
140
0.0
141
0.0
142
0.061848811180471
143
1.0
 70
  1696
 72
     0
 73
     0
 74
     0
  7

 75
     0
147
0.0235690232323232
148
0.0
149
0.0
100
AcDbLayout
  1
Model
 70
     1
 71
     0
 10
0.0
 20
0.0
 11
420.0
 21
297.0
 12
0.0
 22
0.0
 32
0.0
 14
-58.17375000000006
 24
-66.94091727465377
 34
0.0
 15
133.9045131268236
 25
38.53681250000005
 35
0.0
146
0.0
 13
0.0
 23
0.0
 33
0.0
 16
1.0
 26
0.0
 36
0.0
 17
0.0
 27
1.0
 37
0.0
 76
     0
330
1F
331
29
  0
MLINESTYLE
  5
18
102
{ACAD_REACTORS
330
17
102
}
330
17
100
AcDbMlineStyle
  2
Standard
 70
     0
  3

 62
   256
 51
90.0
 52
90.0
 71
     2
 49
0.5
 62
   256
  6
BYLAYER
 49
-0.5
 62
   256
  6
BYLAYER
  0
ACDBPLACEHOLDER
  5
F
102
{ACAD_REACTORS
330
E
102
}
330
E
  0
SCALE
  5
48
102
{ACAD_REACTORS
330
47
102
}
330
47
100
AcDbScale
 70
     0
300
1:1
140
1.0
141
1.0
290
     1
  0
SCALE
  5
49
102
{ACAD_REACTORS
330
47
102
}
330
47
100
AcDbScale
 70
     0
300
1:2
140
1.0
141
2.0
290
     0
  0
SCALE
  5
4A
102
{ACAD_REACTORS
330
47
102
}
330
47
100
AcDbScale
 70
     0
300
1:4
140
1.0
141
4.0
290
     0
  0
SCALE
  5
4B
102
{ACAD_REACTORS
330
47
102
}
330
47
100
AcDbScale
 70
     0
300
1:5
140
1.0
141
5.0
290
     0
  0
SCALE
  5
4C
102
{ACAD_REACTORS
330
47
102
}
330
47
100
AcDbScale
 70
     0
300
1:8
140
1.0
141
8.0
290
     0
  0
SCALE
  5
4D
102
{ACAD_REACTORS
330
47
102
}
330
47
100
AcDbScale
 70
     0
300
1:10
140
1.0
141
10.0
290
     0
  0
SCALE
  5
4E
102
{ACAD_REACTORS
330
47
102
}
330
47
100
AcDbScale
 70
     0
300
1:16
140
1.0
141
16.0
290
     0
  0
SCALE
  5
4F
102
{ACAD_REACTORS
330
47
102
}
330
47
100
AcDbScale
 70
     0
300
1:20
140
1.0
141
20.0
290
     0
  0
SCALE
  5
50
102
{ACAD_REACTORS
330
47
102
}
330
47
100
AcDbScale
 70
     0
300
1:30
140
1.0
141
30.0
290
     0
  0
SCALE
  5
51
102
{ACAD_REACTORS
330
47
102
}
330
47
100
AcDbScale
 70
     0
300
1:40
140
1.0
141
40.0
290
     0
  0
SCALE
  5
52
102
{ACAD_REACTORS
330
47
102
}
330
47
100
AcDbScale
 70
     0
300
1:50
140
1.0
141
50.0
290
     0
  0
SCALE
  5
53
102
{ACAD_REACTORS
330
47
102
}
330
47
100
AcDbScale
 70
     0
300
1:100
140
1.0
141
100.0
290
     0
  0
SCALE
  5
54
102
{ACAD_REACTORS
330
47
102
}
330
47
100
AcDbScale
 70
     0
300
2:1
140
2.0
141
1.0
290
     0
  0
SCALE
  5
55
102
{ACAD_REACTORS
330
47
102
}
330
47
100
AcDbScale
 70
     0
300
4:1
140
4.0
141
1.0
290
     0
  0
SCALE
  5
56
102
{ACAD_REACTORS
330
47
102
}
330
47
100
AcDbScale
 70
     0
300
8:1
140
8.0
141
1.0
290
     0
  0
SCALE
  5
57
102
{ACAD_REACTORS
330
47
102
}
330
47
100
AcDbScale
 70
     0
300
10:1
140
10.0
141
1.0
290
     0
  0
SCALE
  5
58
102
{ACAD_REACTORS
330
47
102
}
330
47
100
AcDbScale
 70
     0
300
100:1
140
100.0
141
1.0
290
     0
  0
SCALE
  5
59
102
{ACAD_REACTORS
330
47
102
}
330
47
100
AcDbScale
 70
     0
300
1/128" = 1'-0"
140
0.0078125
141
12.0
290
     0
  0
SCALE
  5
5A
102
{ACAD_REACTORS
330
47
102
}
330
47
100
AcDbScale
 70
     0
300
1/64" = 1'-0"
140
0.015625
141
12.0
290
     0
  0
SCALE
  5
5B
102
{ACAD_REACTORS
330
47
102
}
330
47
100
AcDbScale
 70
     0
300
1/32" = 1'-0"
140
0.03125
141
12.0
290
     0
  0
SCALE
  5
5C
102
{ACAD_REACTORS
330
47
102
}
330
47
100
AcDbScale
 70
     0
300
1/16" = 1'-0"
140
0.0625
141
12.0
290
     0
  0
SCALE
  5
5D
102
{ACAD_REACTORS
330
47
102
}
330
47
100
AcDbScale
 70
     0
300
3/32" = 1'-0"
140
0.09375
141
12.0
290
     0
  0
SCALE
  5
5E
102
{ACAD_REACTORS
330
47
102
}
330
47
100
AcDbScale
 70
     0
300
1/8" = 1'-0"
140
0.125
141
12.0
290
     0
  0
SCALE
  5
5F
102
{ACAD_REACTORS
330
47
102
}
330
47
100
AcDbScale
 70
     0
300
3/16" = 1'-0"
140
0.1875
141
12.0
290
     0
  0
SCALE
  5
60
102
{ACAD_REACTORS
330
47
102
}
330
47
100
AcDbScale
 70
     0
300
1/4" = 1'-0"
140
0.25
141
12.0
290
     0
  0
SCALE
  5
61
102
{ACAD_REACTORS
330
47
102
}
330
47
100
AcDbScale
 70
     0
300
3/8" = 1'-0"
140
0.375
141
12.0
290
     0
  0
SCALE
  5
62
102
{ACAD_REACTORS
330
47
102
}
330
47
100
AcDbScale
 70
     0
300
1/2" = 1'-0"
140
0.5
141
12.0
290
     0
  0
SCALE
  5
63
102
{ACAD_REACTORS
330
47
102
}
330
47
100
AcDbScale
 70
     0
300
3/4" = 1'-0"
140
0.75
141
12.0
290
     0
  0
SCALE
  5
64
102
{ACAD_REACTORS
330
47
102
}
330
47
100
AcDbScale
 70
     0
300
1" = 1'-0"
140
1.0
141
12.0
290
     0
  0
SCALE
  5
65
102
{ACAD_REACTORS
330
47
102
}
330
47
100
AcDbScale
 70
     0
300
1-1/2" = 1'-0"
140
1.5
141
12.0
290
     0
  0
SCALE
  5
66
102
{ACAD_REACTORS
330
47
102
}
330
47
100
AcDbScale
 70
     0
300
3" = 1'-0"
140
3.0
141
12.0
290
     0
  0
SCALE
  5
67
102
{ACAD_REACTORS
330
47
102
}
330
47
100
AcDbScale
 70
     0
300
6" = 1'-0"
140
6.0
141
12.0
290
     0
  0
SCALE
  5
68
102
{ACAD_REACTORS
330
47
102
}
330
47
100
AcDbScale
 70
     0
300
1'-0" = 1'-0"
140
12.0
141
12.0
290
     0
  0
ENDSEC
  0
EOF
