  0
SECTION
  2
HEADER
  9
$ACADVER
  1
AC1015
  9
$ACADMAINTVER
 70
     6
  9
$DWGCODEPAGE
  3
ANSI_949
  9
$INSBASE
 10
0.0
 20
0.0
 30
0.0
  9
$EXTMIN
 10
-58.17375000000006
 20
-49.97180738881174
 30
0.0
  9
$EXTMAX
 10
81.41936447236121
 20
41.6715787444025
 30
0.0
  9
$LIMMIN
 10
0.0
 20
0.0
  9
$LIMMAX
 10
420.0
 20
297.0
  9
$ORTHOMODE
 70
     1
  9
$REGENMODE
 70
     1
  9
$FILLMODE
 70
     1
  9
$QTEXTMODE
 70
     0
  9
$MIRRTEXT
 70
     1
  9
$LTSCALE
 40
1.0
  9
$ATTMODE
 70
     1
  9
$TEXTSIZE
 40
3.5
  9
$TRACEWID
 40
1.0
  9
$TEXTSTYLE
  7
Standard
  9
$CLAYER
  8
0
  9
$CELTYPE
  6
ByLayer
  9
$CECOLOR
 62
   256
  9
$CELTSCALE
 40
1.0
  9
$DISPSILH
 70
     0
  9
$DIMSCALE
 40
1.0
  9
$DIMASZ
 40
3.302
  9
$DIMEXO
 40
1.0
  9
$DIMDLI
 40
3.75
  9
$DIMRND
 40
0.0
  9
$DIMDLE
 40
0.0
  9
$DIMEXE
 40
1.0
  9
$DIMTP
 40
0.0
  9
$DIMTM
 40
0.0
  9
$DIMTXT
 40
3.5
  9
$DIMCEN
 40
2.5
  9
$DIMTSZ
 40
0.0
  9
$DIMTOL
 70
     0
  9
$DIMLIM
 70
     0
  9
$DIMTIH
 70
     1
  9
$DIMTOH
 70
     1
  9
$DIMSE1
 70
     0
  9
$DIMSE2
 70
     0
  9
$DIMTAD
 70
     1
  9
$DIMZIN
 70
     0
  9
$DIMBLK
  1

  9
$DIMASO
 70
     1
  9
$DIMSHO
 70
     1
  9
$DIMPOST
  1

  9
$DIMAPOST
  1

  9
$DIMALT
 70
     0
  9
$DIMALTD
 70
     3
  9
$DIMALTF
 40
0.0393700787401575
  9
$DIMLFAC
 40
1.0
  9
$DIMTOFL
 70
     1
  9
$DIMTVP
 40
0.0
  9
$DIMTIX
 70
     0
  9
$DIMSOXD
 70
     0
  9
$DIMSAH
 70
     0
  9
$DIMBLK1
  1

  9
$DIMBLK2
  1

  9
$DIMSTYLE
  2
ISO-25
  9
$DIMCLRD
 70
     0
  9
$DIMCLRE
 70
     0
  9
$DIMCLRT
 70
     0
  9
$DIMTFAC
 40
1.0
  9
$DIMGAP
 40
1.524
  9
$DIMJUST
 70
     0
  9
$DIMSD1
 70
     0
  9
$DIMSD2
 70
     0
  9
$DIMTOLJ
 70
     0
  9
$DIMTZIN
 70
     0
  9
$DIMALTZ
 70
     0
  9
$DIMALTTZ
 70
     0
  9
$DIMUPT
 70
     0
  9
$DIMDEC
 70
     2
  9
$DIMTDEC
 70
     2
  9
$DIMALTU
 70
     2
  9
$DIMALTTD
 70
     3
  9
$DIMTXSTY
  7
Standard
  9
$DIMAUNIT
 70
     0
  9
$DIMADEC
 70
     2
  9
$DIMALTRND
 40
0.0
  9
$DIMAZIN
 70
     0
  9
$DIMDSEP
 70
    44
  9
$DIMATFIT
 70
     3
  9
$DIMFRAC
 70
     0
  9
$DIMLDRBLK
  1

  9
$DIMLUNIT
 70
     2
  9
$DIMLWD
 70
    -2
  9
$DIMLWE
 70
    -2
  9
$DIMTMOVE
 70
     0
  9
$LUNITS
 70
     2
  9
$LUPREC
 70
     2
  9
$SKETCHINC
 40
1.0
  9
$FILLETRAD
 40
10.0
  9
$AUNITS
 70
     0
  9
$AUPREC
 70
     2
  9
$MENU
  1
.
  9
$ELEVATION
 40
0.0
  9
$PELEVATION
 40
0.0
  9
$THICKNESS
 40
0.0
  9
$LIMCHECK
 70
     0
  9
$CHAMFERA
 40
0.0
  9
$CHAMFERB
 40
0.0
  9
$CHAMFERC
 40
0.0
  9
$CHAMFERD
 40
0.0
  9
$SKPOLY
 70
     0
  9
$TDCREATE
 40
2458313.470177477
  9
$TDUCREATE
 40
2458313.095177477
  9
$TDUPDATE
 40
2458319.495936886
  9
$TDUUPDATE
 40
2458319.120936886
  9
$TDINDWG
 40
0.0029720602
  9
$TDUSRTIMER
 40
2458319.120881551
  9
$USRTIMER
 70
     1
  9
$ANGBASE
 50
0.0
  9
$ANGDIR
 70
     0
  9
$PDMODE
 70
     0
  9
$PDSIZE
 40
-1.0
  9
$PLINEWID
 40
0.0
  9
$SPLFRAME
 70
     0
  9
$SPLINETYPE
 70
     6
  9
$SPLINESEGS
 70
     8
  9
$HANDSEED
  5
3F0
  9
$SURFTAB1
 70
     6
  9
$SURFTAB2
 70
     6
  9
$SURFTYPE
 70
     6
  9
$SURFU
 70
     6
  9
$SURFV
 70
     6
  9
$UCSBASE
  2

  9
$UCSNAME
  2

  9
$UCSORG
 10
0.0
 20
0.0
 30
0.0
  9
$UCSXDIR
 10
1.0
 20
0.0
 30
0.0
  9
$UCSYDIR
 10
0.0
 20
1.0
 30
0.0
  9
$UCSORTHOREF
  2

  9
$UCSORTHOVIEW
 70
     0
  9
$UCSORGTOP
 10
0.0
 20
0.0
 30
0.0
  9
$UCSORGBOTTOM
 10
0.0
 20
0.0
 30
0.0
  9
$UCSORGLEFT
 10
0.0
 20
0.0
 30
0.0
  9
$UCSORGRIGHT
 10
0.0
 20
0.0
 30
0.0
  9
$UCSORGFRONT
 10
0.0
 20
0.0
 30
0.0
  9
$UCSORGBACK
 10
0.0
 20
0.0
 30
0.0
  9
$PUCSBASE
  2

  9
$PUCSNAME
  2

  9
$PUCSORG
 10
0.0
 20
0.0
 30
0.0
  9
$PUCSXDIR
 10
1.0
 20
0.0
 30
0.0
  9
$PUCSYDIR
 10
0.0
 20
1.0
 30
0.0
  9
$PUCSORTHOREF
  2

  9
$PUCSORTHOVIEW
 70
     0
  9
$PUCSORGTOP
 10
0.0
 20
0.0
 30
0.0
  9
$PUCSORGBOTTOM
 10
0.0
 20
0.0
 30
0.0
  9
$PUCSORGLEFT
 10
0.0
 20
0.0
 30
0.0
  9
$PUCSORGRIGHT
 10
0.0
 20
0.0
 30
0.0
  9
$PUCSORGFRONT
 10
0.0
 20
0.0
 30
0.0
  9
$PUCSORGBACK
 10
0.0
 20
0.0
 30
0.0
  9
$USERI1
 70
     0
  9
$USERI2
 70
     0
  9
$USERI3
 70
     0
  9
$USERI4
 70
     0
  9
$USERI5
 70
     0
  9
$USERR1
 40
0.0
  9
$USERR2
 40
0.0
  9
$USERR3
 40
0.0
  9
$USERR4
 40
0.0
  9
$USERR5
 40
0.0
  9
$WORLDVIEW
 70
     1
  9
$SHADEDGE
 70
     3
  9
$SHADEDIF
 70
    70
  9
$TILEMODE
 70
     1
  9
$MAXACTVP
 70
    64
  9
$PINSBASE
 10
0.0
 20
0.0
 30
0.0
  9
$PLIMCHECK
 70
     0
  9
$PEXTMIN
 10
1.000000000000000E+20
 20
1.000000000000000E+20
 30
1.000000000000000E+20
  9
$PEXTMAX
 10
-1.000000000000000E+20
 20
-1.000000000000000E+20
 30
-1.000000000000000E+20
  9
$PLIMMIN
 10
0.0
 20
0.0
  9
$PLIMMAX
 10
0.0
 20
0.0
  9
$UNITMODE
 70
     0
  9
$VISRETAIN
 70
     1
  9
$PLINEGEN
 70
     0
  9
$PSLTSCALE
 70
     1
  9
$TREEDEPTH
 70
  3020
  9
$CMLSTYLE
  2
Standard
  9
$CMLJUST
 70
     0
  9
$CMLSCALE
 40
20.0
  9
$PROXYGRAPHICS
 70
     1
  9
$MEASUREMENT
 70
     1
  9
$CELWEIGHT
370
    -1
  9
$ENDCAPS
280
     0
  9
$JOINSTYLE
280
     0
  9
$LWDISPLAY
290
     1
  9
$INSUNITS
 70
     4
  9
$HYPERLINKBASE
  1

  9
$STYLESHEET
  1

  9
$XEDIT
290
     1
  9
$CEPSNTYPE
380
     0
  9
$PSTYLEMODE
290
     1
  9
$FINGERPRINTGUID
  2
{54CDC367-CA10-46FD-BDD9-64B63E877369}
  9
$VERSIONGUID
  2
{FAEB1C32-E019-11D5-929B-00C0DF256EC4}
  9
$EXTNAMES
290
     1
  9
$PSVPSCALE
 40
0.0
  9
$OLESTARTUP
290
     0
  0
ENDSEC
  0
SECTION
  2
CLASSES
  0
CLASS
  1
ACDBDICTIONARYWDFLT
  2
AcDbDictionaryWithDefault
  3
ObjectDBX Classes
 90
        0
280
     0
281
     0
  0
CLASS
  1
VISUALSTYLE
  2
AcDbVisualStyle
  3
ObjectDBX Classes
 90
     4095
280
     0
281
     0
  0
CLASS
  1
MATERIAL
  2
AcDbMaterial
  3
ObjectDBX Classes
 90
     1153
280
     0
281
     0
  0
CLASS
  1
SCALE
  2
AcDbScale
  3
ObjectDBX Classes
 90
     1153
280
     0
281
     0
  0
CLASS
  1
SUN
  2
AcDbSun
  3
SCENEOE
 90
     1153
280
     0
281
     0
  0
CLASS
  1
ACDBPLACEHOLDER
  2
AcDbPlaceHolder
  3
ObjectDBX Classes
 90
        0
280
     0
281
     0
  0
CLASS
  1
LAYOUT
  2
AcDbLayout
  3
ObjectDBX Classes
 90
        0
280
     0
281
     0
  0
CLASS
  1
TABLESTYLE
  2
AcDbTableStyle
  3
ObjectDBX Classes
 90
     4095
280
     0
281
     0
  0
CLASS
  1
MLEADERSTYLE
  2
AcDbMLeaderStyle
  3
ACDB_MLEADERSTYLE_CLASS
 90
     4095
280
     0
281
     0
  0
CLASS
  1
RASTERVARIABLES
  2
AcDbRasterVariables
  3
ISM
 90
        0
280
     0
281
     0
  0
ENDSEC
  0
SECTION
  2
TABLES
  0
TABLE
  2
VPORT
  5
8
330
0
100
AcDbSymbolTable
 70
     1
  0
VPORT
  5
29
330
8
100
AcDbSymbolTableRecord
100
AcDbViewportTableRecord
  2
*Active
 70
     0
 10
0.0
 20
0.0
 11
1.0
 21
1.0
 12
-11.45922575659612
 22
5.22934095069451
 13
0.0
 23
0.0
 14
10.0
 24
10.0
 15
10.0
 25
10.0
 16
0.0
 26
0.0
 36
1.0
 17
0.0
 27
0.0
 37
0.0
 40
115.3028151628253
 41
1.632093933463796
 42
50.0
 43
0.0
 44
0.0
 50
0.0
 51
0.0
 71
    16
 72
  2000
 73
     1
 74
     3
 75
     0
 76
     0
 77
     0
 78
     0
281
     0
 65
     1
110
0.0
120
0.0
130
0.0
111
1.0
121
0.0
131
0.0
112
0.0
122
1.0
132
0.0
 79
     0
146
0.0
  0
ENDTAB
  0
TABLE
  2
LTYPE
  5
5
330
0
100
AcDbSymbolTable
 70
     6
  0
LTYPE
  5
14
330
5
100
AcDbSymbolTableRecord
100
AcDbLinetypeTableRecord
  2
ByBlock
 70
     0
  3

 72
    65
 73
     0
 40
0.0
  0
LTYPE
  5
15
330
5
100
AcDbSymbolTableRecord
100
AcDbLinetypeTableRecord
  2
ByLayer
 70
     0
  3

 72
    65
 73
     0
 40
0.0
  0
LTYPE
  5
16
330
5
100
AcDbSymbolTableRecord
100
AcDbLinetypeTableRecord
  2
Continuous
 70
     0
  3
Solid line
 72
    65
 73
     0
 40
0.0
  0
LTYPE
  5
6A
330
5
100
AcDbSymbolTableRecord
100
AcDbLinetypeTableRecord
  2
HIDDEN
 70
     0
  3
Hidden __ __ __ __ __ __ __ __ __ __ __ __ __ __
 72
    65
 73
     2
 40
1.905
 49
1.27
 74
     0
 49
-0.635
 74
     0
  0
LTYPE
  5
6B
330
5
100
AcDbSymbolTableRecord
100
AcDbLinetypeTableRecord
  2
PHANTOM
 70
     0
  3
Phantom ______  __  __  ______  __  __  ______
 72
    65
 73
     6
 40
12.7
 49
6.35
 74
     0
 49
-1.27
 74
     0
 49
1.27
 74
     0
 49
-1.27
 74
     0
 49
1.27
 74
     0
 49
-1.27
 74
     0
  0
LTYPE
  5
6C
330
5
100
AcDbSymbolTableRecord
100
AcDbLinetypeTableRecord
  2
CENTER
 70
     0
  3
Center ____ _ ____ _ ____ _ ____ _ ____ _ ____
 72
    65
 73
     4
 40
10.16
 49
6.35
 74
     0
 49
-1.27
 74
     0
 49
1.27
 74
     0
 49
-1.27
 74
     0
  0
LTYPE
  5
6D
330
5
100
AcDbSymbolTableRecord
100
AcDbLinetypeTableRecord
  2
CENTERX2
 70
     0
  3
Center (2x) ________  __  ________  __  _____
 72
    65
 73
     4
 40
20.32
 49
12.7
 74
     0
 49
-2.54
 74
     0
 49
2.54
 74
     0
 49
-2.54
 74
     0
  0
LTYPE
  5
6E
330
5
100
AcDbSymbolTableRecord
100
AcDbLinetypeTableRecord
  2
DOT2
 70
     0
  3
Dot (.5x) ........................................
 72
    65
 73
     2
 40
0.635
 49
0.0
 74
     0
 49
-0.635
 74
     0
  0
ENDTAB
  0
TABLE
  2
LAYER
  5
2
102
{ACAD_XDICTIONARY
360
1DD
102
}
330
0
100
AcDbSymbolTable
 70
    18
  0
LAYER
  5
10
330
2
100
AcDbSymbolTableRecord
100
AcDbLayerTableRecord
  2
0
 70
     0
 62
     7
  6
Continuous
370
    -3
390
F
  0
LAYER
  5
6F
330
2
100
AcDbSymbolTableRecord
100
AcDbLayerTableRecord
  2
FORMAT
 70
     0
 62
     2
  6
Continuous
370
    -3
390
F
  0
LAYER
  5
70
330
2
100
AcDbSymbolTableRecord
100
AcDbLayerTableRecord
  2
외형선
 70
     0
 62
     4
  6
Continuous
370
    30
390
F
  0
LAYER
  5
71
330
2
100
AcDbSymbolTableRecord
100
AcDbLayerTableRecord
  2
숨은선
 70
     0
 62
     2
  6
HIDDEN
370
    15
390
F
  0
LAYER
  5
72
330
2
100
AcDbSymbolTableRecord
100
AcDbLayerTableRecord
  2
중심선
 70
     0
 62
     1
  6
CENTERX2
370
    -3
390
F
  0
LAYER
  5
73
330
2
100
AcDbSymbolTableRecord
100
AcDbLayerTableRecord
  2
파단선
 70
     0
 62
     4
  6
Continuous
370
    -3
390
F
  0
LAYER
  5
74
330
2
100
AcDbSymbolTableRecord
100
AcDbLayerTableRecord
  2
해칭선
 70
     0
 62
   100
  6
Continuous
370
    -3
390
F
  0
LAYER
  5
75
330
2
100
AcDbSymbolTableRecord
100
AcDbLayerTableRecord
  2
가는실선
 70
     0
 62
     4
  6
Continuous
370
    -3
390
F
  0
LAYER
  5
76
330
2
100
AcDbSymbolTableRecord
100
AcDbLayerTableRecord
  2
치수_보조선
 70
     0
 62
     4
  6
Continuous
370
    -3
390
F
  0
LAYER
  5
77
330
2
100
AcDbSymbolTableRecord
100
AcDbLayerTableRecord
  2
치수문자_일반주서
 70
     0
 62
     7
  6
Continuous
370
    15
390
F
  0
LAYER
  5
78
330
2
100
AcDbSymbolTableRecord
100
AcDbLayerTableRecord
  2
개별주서
 70
     0
 62
   100
  6
Continuous
370
    30
390
F
  0
LAYER
  5
79
330
2
100
AcDbSymbolTableRecord
100
AcDbLayerTableRecord
  2
중간선
 70
     0
 62
     2
  6
Continuous
370
    15
390
F
  0
LAYER
  5
7A
330
2
100
AcDbSymbolTableRecord
100
AcDbLayerTableRecord
  2
윤곽선
 70
     0
 62
     3
  6
Continuous
370
    40
390
F
  0
LAYER
  5
7B
330
2
100
AcDbSymbolTableRecord
100
AcDbLayerTableRecord
  2
중심마크
 70
     0
 62
   100
  6
Continuous
370
    30
390
F
  0
LAYER
  5
7C
330
2
100
AcDbSymbolTableRecord
100
AcDbLayerTableRecord
  2
가상선
 70
     0
 62
     4
  6
PHANTOM
370
    -3
390
F
  0
LAYER
  5
7D
330
2
100
AcDbSymbolTableRecord
100
AcDbLayerTableRecord
  2
특수지정선
 70
     0
 62
     5
  6
CENTERX2
370
    60
390
F
  0
LAYER
  5
7E
330
2
100
AcDbSymbolTableRecord
100
AcDbLayerTableRecord
  2
참조1
 70
     0
 62
    -4
  6
Continuous
370
    -3
390
F
  0
LAYER
  5
154
330
2
100
AcDbSymbolTableRecord
100
AcDbLayerTableRecord
  2
Defpoints
 70
     0
 62
     7
  6
Continuous
290
     0
370
    -3
390
F
  0
ENDTAB
  0
TABLE
  2
STYLE
  5
3
330
0
100
AcDbSymbolTable
 70
     2
  0
STYLE
  5
11
330
3
100
AcDbSymbolTableRecord
100
AcDbTextStyleTableRecord
  2
Standard
 70
     0
 40
0.0
 41
1.0
 50
0.0
 71
     0
 42
3.5
  3
txt
  4

  0
STYLE
  5
94
330
3
100
AcDbSymbolTableRecord
100
AcDbTextStyleTableRecord
  2
SLDTEXTSTYLE0
 70
     0
 40
0.0
 41
0.75
 50
0.0
 71
     0
 42
3.5
  3
TXT
  4

  0
ENDTAB
  0
TABLE
  2
VIEW
  5
6
330
0
100
AcDbSymbolTable
 70
     0
  0
ENDTAB
  0
TABLE
  2
UCS
  5
7
330
0
100
AcDbSymbolTable
 70
     0
  0
ENDTAB
  0
TABLE
  2
APPID
  5
9
330
0
100
AcDbSymbolTable
 70
     1
  0
APPID
  5
12
330
9
100
AcDbSymbolTableRecord
100
AcDbRegAppTableRecord
  2
ACAD
 70
     0
  0
ENDTAB
  0
TABLE
  2
DIMSTYLE
  5
A
330
0
100
AcDbSymbolTable
 70
     3
100
AcDbDimStyleTable
  0
DIMSTYLE
105
27
330
A
100
AcDbSymbolTableRecord
100
AcDbDimStyleTableRecord
  2
ISO-25
 70
     0
 41
2.5
 42
0.625
 43
3.75
 44
1.25
 73
     0
 74
     0
 77
     1
 78
     8
140
2.5
141
2.5
143
0.03937007874016
147
0.625
171
     3
172
     1
178
     0
271
     2
272
     2
274
     3
278
    44
283
     0
284
     8
340
11
  0
DIMSTYLE
105
D1
102
{ACAD_REACTORS
330
D0
330
10D
330
E5
330
FA
102
}
330
A
100
AcDbSymbolTableRecord
100
AcDbDimStyleTableRecord
  2
SLDDIMSTYLE0
 70
     0
 41
3.302
 44
0.0
 45
0.000000001
 73
     0
 74
     0
 77
     1
 78
    12
 79
     3
140
3.5
143
0.0393700787401575
147
0.875
148
0.000000001
170
     1
172
     1
173
     1
178
     0
271
     2
272
     2
276
     2
284
    12
289
     0
340
94
  0
DIMSTYLE
105
E6
330
A
100
AcDbSymbolTableRecord
100
AcDbDimStyleTableRecord
  2
SLDDIMSTYLE1
 70
     0
 41
3.302
 44
0.0
 45
0.000000001
 73
     0
 74
     0
 77
     1
 78
    12
 79
     3
140
3.5
143
0.0393700787401575
147
0.875
148
0.000000001
170
     1
173
     1
178
     0
271
     2
272
     2
276
     2
284
    12
340
94
  0
ENDTAB
  0
TABLE
  2
BLOCK_RECORD
  5
1
330
0
100
AcDbSymbolTable
 70
    19
  0
BLOCK_RECORD
  5
1F
330
1
100
AcDbSymbolTableRecord
100
AcDbBlockTableRecord
  2
*Model_Space
340
22
  0
BLOCK_RECORD
  5
1B
330
1
100
AcDbSymbolTableRecord
100
AcDbBlockTableRecord
  2
*Paper_Space
340
1E
  0
BLOCK_RECORD
  5
23
330
1
100
AcDbSymbolTableRecord
100
AcDbBlockTableRecord
  2
*Paper_Space0
340
26
  0
BLOCK_RECORD
  5
7F
330
1
100
AcDbSymbolTableRecord
100
AcDbBlockTableRecord
  2
블럭10
340
0
102
{BLKREFS
331
C9
102
}
  0
BLOCK_RECORD
  5
D2
330
1
100
AcDbSymbolTableRecord
100
AcDbBlockTableRecord
  2
_D
340
0
  0
BLOCK_RECORD
  5
E7
330
1
100
AcDbSymbolTableRecord
100
AcDbBlockTableRecord
  2
_D_1
340
0
  0
BLOCK_RECORD
  5
FB
330
1
100
AcDbSymbolTableRecord
100
AcDbBlockTableRecord
  2
_D_2
340
0
  0
BLOCK_RECORD
  5
10E
330
1
100
AcDbSymbolTableRecord
100
AcDbBlockTableRecord
  2
_D_3
340
0
  0
BLOCK_RECORD
  5
128
330
1
100
AcDbSymbolTableRecord
100
AcDbBlockTableRecord
  2
SW_DOWELSYMBOL_0
340
0
102
{BLKREFS
331
12E
102
}
  0
BLOCK_RECORD
  5
1E1
330
1
100
AcDbSymbolTableRecord
100
AcDbBlockTableRecord
  2
*D7
340
0
  0
BLOCK_RECORD
  5
1F0
330
1
100
AcDbSymbolTableRecord
100
AcDbBlockTableRecord
  2
*D8
340
0
  0
BLOCK_RECORD
  5
1FF
330
1
100
AcDbSymbolTableRecord
100
AcDbBlockTableRecord
  2
*D9
340
0
  0
BLOCK_RECORD
  5
23C
330
1
100
AcDbSymbolTableRecord
100
AcDbBlockTableRecord
  2
*D10
340
0
  0
BLOCK_RECORD
  5
24B
330
1
100
AcDbSymbolTableRecord
100
AcDbBlockTableRecord
  2
*D11
340
0
  0
BLOCK_RECORD
  5
25A
330
1
100
AcDbSymbolTableRecord
100
AcDbBlockTableRecord
  2
*D12
340
0
  0
BLOCK_RECORD
  5
2F6
330
1
100
AcDbSymbolTableRecord
100
AcDbBlockTableRecord
  2
*D13
340
0
  0
BLOCK_RECORD
  5
305
330
1
100
AcDbSymbolTableRecord
100
AcDbBlockTableRecord
  2
*D14
340
0
  0
BLOCK_RECORD
  5
314
330
1
100
AcDbSymbolTableRecord
100
AcDbBlockTableRecord
  2
*D15
340
0
  0
BLOCK_RECORD
  5
350
330
1
100
AcDbSymbolTableRecord
100
AcDbBlockTableRecord
  2
*D16
340
0
  0
BLOCK_RECORD
  5
35F
330
1
100
AcDbSymbolTableRecord
100
AcDbBlockTableRecord
  2
*D17
340
0
  0
BLOCK_RECORD
  5
36E
330
1
100
AcDbSymbolTableRecord
100
AcDbBlockTableRecord
  2
*D18
340
0
  0
ENDTAB
  0
ENDSEC
  0
SECTION
  2
BLOCKS
  0
BLOCK
  5
20
330
1F
100
AcDbEntity
  8
0
100
AcDbBlockBegin
  2
*Model_Space
 70
     0
 10
0.0
 20
0.0
 30
0.0
  3
*Model_Space
  1
*Model_Space
  0
ENDBLK
  5
21
330
1F
100
AcDbEntity
  8
0
100
AcDbBlockEnd
  0
BLOCK
  5
1C
330
1B
100
AcDbEntity
 67
     1
  8
0
100
AcDbBlockBegin
  2
*Paper_Space
 70
     0
 10
0.0
 20
0.0
 30
0.0
  3
*Paper_Space
  1
*Paper_Space
  0
ENDBLK
  5
1D
330
1B
100
AcDbEntity
 67
     1
  8
0
100
AcDbBlockEnd
  0
BLOCK
  5
24
330
23
100
AcDbEntity
  8
0
100
AcDbBlockBegin
  2
*Paper_Space0
 70
     0
 10
0.0
 20
0.0
 30
0.0
  3
*Paper_Space0
  1
*Paper_Space0
  0
ENDBLK
  5
25
330
23
100
AcDbEntity
  8
0
100
AcDbBlockEnd
  0
BLOCK
  5
80
330
7F
100
AcDbEntity
  8
0
100
AcDbBlockBegin
  2
블럭10
 70
     2
 10
0.0
 20
0.0
 30
0.0
  3
블럭10
  1
블럭10
  0
ELLIPSE
  5
82
330
7F
100
AcDbEntity
  8
중심선
100
AcDbEllipse
 10
20.54032771741204
 20
12.0471743016438
 30
0.0
 11
6.600054785286829
 21
-1.261213355974178E-13
 31
0.0
210
0.0
220
0.0
230
1.0
 40
0.636358354079598
 41
0.9219305317359503
 42
6.513795318482858
  0
ELLIPSE
  5
83
330
7F
100
AcDbEntity
  8
중심선
100
AcDbEllipse
 10
20.54032771746488
 20
12.04717430159265
 30
0.0
 11
3.960054785062283
 21
1.540847449632565E-10
 31
0.0
210
0.0
220
0.0
230
1.0
 40
0.3939339440162632
 41
1.131841032648279
 42
5.62031148352944
  0
LINE
  5
84
330
7F
100
AcDbEntity
  8
중심선
100
AcDbLine
 10
2.268634060543552
 20
16.24717430164393
 30
0.0
 11
5.714909304380834
 21
16.24717430164393
 31
0.0
  0
LINE
  5
85
330
7F
100
AcDbEntity
  8
중심선
100
AcDbLine
 10
5.245725140726316
 20
7.84717430164391
 30
0.0
 11
8.692000384563599
 21
7.84717430164391
 31
0.0
  0
LINE
  5
86
330
7F
100
AcDbEntity
  8
중심선
100
AcDbLine
 10
15.74043728645272
 20
16.24717430164393
 30
0.0
 11
8.692000384563599
 21
7.84717430164391
 31
0.0
  0
LINE
  5
87
330
7F
100
AcDbEntity
  8
중심선
100
AcDbLine
 10
0.1404042013395286
 20
13.71084872107135
 30
0.0
 11
3.58671253028996
 21
13.71088815037384
 31
0.0
  0
LINE
  5
88
330
7F
100
AcDbEntity
  8
중심선
100
AcDbLine
 10
2.750260043222114
 20
10.84717430164391
 30
0.0
 11
6.196535287059397
 21
10.84717430164391
 31
0.0
  0
LINE
  5
89
330
7F
100
AcDbEntity
  8
중심선
100
AcDbLine
 10
12.29416204261559
 20
16.24717430164393
 30
0.0
 11
5.245725140726316
 21
7.84717430164391
 31
0.0
  0
LINE
  5
8A
330
7F
100
AcDbEntity
  8
중심선
100
AcDbLine
 10
10.72767329541681
 20
16.24717430164393
 30
0.0
 11
6.196535287059397
 21
10.84717430164391
 31
0.0
  0
LINE
  5
8B
330
7F
100
AcDbEntity
  8
중심선
100
AcDbLine
 10
7.28139805157953
 20
16.24717430164393
 30
0.0
 11
2.750260043222114
 21
10.84717430164391
 31
0.0
  0
LINE
  5
8C
330
7F
100
AcDbEntity
  8
중심선
100
AcDbLine
 10
5.714909304380834
 20
16.24717430164393
 30
0.0
 11
3.58671253028996
 21
13.71088815037384
 31
0.0
  0
LINE
  5
8D
330
7F
100
AcDbEntity
  8
중심선
100
AcDbLine
 10
2.268634060543552
 20
16.24717430164393
 30
0.0
 11
0.1404042013395286
 21
13.71084872107135
 31
0.0
  0
LINE
  5
8E
330
7F
100
AcDbEntity
  8
중심선
100
AcDbLine
 10
7.28139805157953
 20
16.24717430164393
 30
0.0
 11
10.72767329541681
 21
16.24717430164393
 31
0.0
  0
LINE
  5
8F
330
7F
100
AcDbEntity
  8
중심선
100
AcDbLine
 10
12.29416204261559
 20
16.24717430164393
 30
0.0
 11
15.74043728645272
 21
16.24717430164393
 31
0.0
  0
LINE
  5
90
330
7F
100
AcDbEntity
  8
중심선
100
AcDbLine
 10
19.22036997980202
 20
11.08717430171403
 30
0.0
 11
23.66174974927406
 21
11.08717430171406
 31
0.0
  0
LINE
  5
91
330
7F
100
AcDbEntity
  8
중심선
100
AcDbLine
 10
19.22039502424796
 20
13.00717430171391
 30
0.0
 11
19.22036997980202
 21
11.08717430171403
 31
0.0
  0
LINE
  5
92
330
7F
100
AcDbEntity
  8
중심선
100
AcDbLine
 10
19.22039502424796
 20
13.00717430171391
 30
0.0
 11
26.96566020931264
 21
13.00717430171391
 31
0.0
  0
LINE
  5
93
330
7F
100
AcDbEntity
  8
중심선
100
AcDbLine
 10
22.22332737316547
 20
13.45928029700563
 30
0.0
 11
24.52862924686651
 21
15.39360700705356
 31
0.0
  0
ATTDEF
  5
95
330
7F
100
AcDbEntity
  8
FORMAT
 62
     2
100
AcDbText
 10
4.408487351596664
 20
2.075366912832191
 30
0.0
 40
4.233333333333333
  1
E1053013
 41
0.75
  7
SLDTEXTSTYLE0
 11
4.408487351596664
 21
-0.0412997538344756
 31
0.0
100
AcDbAttributeDefinition
  3

  2
AUTOATTR0
 70
     0
 74
     1
  0
ENDBLK
  5
81
330
7F
100
AcDbEntity
  8
0
100
AcDbBlockEnd
  0
BLOCK
  5
D3
330
D2
100
AcDbEntity
  8
0
100
AcDbBlockBegin
  2
_D
 70
     0
 10
0.0
 20
0.0
 30
0.0
  3
_D
  1
_D
  0
LINE
  5
D5
330
D2
100
AcDbEntity
  8
치수문자_일반주서
 62
     0
370
    -2
100
AcDbLine
 10
41.33749999999998
 20
2.579687500000005
 30
0.0
 11
56.06492444393941
 21
2.579687500000059
 31
0.0
  0
LINE
  5
D6
330
D2
100
AcDbEntity
  8
치수문자_일반주서
 62
     0
370
    -2
100
AcDbLine
 10
41.33749999999998
 20
-2.579687499999995
 30
0.0
 11
56.06492444393943
 21
-2.579687499999942
 31
0.0
  0
LINE
  5
D7
330
D2
100
AcDbEntity
  8
치수문자_일반주서
 62
     0
370
    -2
100
AcDbLine
 10
56.06492444393941
 20
2.579687500000059
 30
0.0
 11
56.06492444393925
 21
41.6715787444025
 31
0.0
  0
LINE
  5
D8
330
D2
100
AcDbEntity
  8
치수문자_일반주서
 62
     0
370
    -2
100
AcDbLine
 10
56.06492444393941
 20
2.579687500000059
 30
0.0
 11
56.06492444393943
 21
-2.579687499999942
 31
0.0
  0
LINE
  5
D9
330
D2
100
AcDbEntity
  8
치수문자_일반주서
 62
     0
370
    -2
100
AcDbLine
 10
56.0649244439394
 20
5.881687500000059
 30
0.0
 11
56.06492444393938
 21
9.183687500000058
 31
0.0
  0
LINE
  5
DA
330
D2
100
AcDbEntity
  8
치수문자_일반주서
 62
     0
370
    -2
100
AcDbLine
 10
56.06492444393945
 20
-5.881687499999941
 30
0.0
 11
56.06492444393946
 21
-9.183687499999941
 31
0.0
  0
SOLID
  5
DB
330
D2
100
AcDbEntity
  8
치수문자_일반주서
 62
     0
100
AcDbTrace
 10
55.51459111060606
 20
5.881687500000056
 30
0.0
 11
56.61525777727273
 21
5.881687500000061
 31
0.0
 12
56.06492444393941
 22
2.579687500000059
 32
0.0
 13
56.06492444393941
 23
2.579687500000059
 33
0.0
  0
SOLID
  5
DC
330
D2
100
AcDbEntity
  8
치수문자_일반주서
 62
     0
100
AcDbTrace
 10
56.61525777727278
 20
-5.881687499999939
 30
0.0
 11
55.51459111060611
 21
-5.881687499999944
 31
0.0
 12
56.06492444393943
 22
-2.579687499999942
 32
0.0
 13
56.06492444393943
 23
-2.579687499999942
 33
0.0
  0
MTEXT
  5
DD
330
D2
100
AcDbEntity
  8
치수문자_일반주서
 62
     0
100
AcDbMText
 10
51.68992444393931
 20
26.79657874440248
 30
0.0
 40
3.5
 41
0.0
 71
     2
 72
     1
  1
\A1;%%c5.16 [13/64]
  7
SLDTEXTSTYLE0
 11
-4.131562848756488E-15
 21
1.0
 31
0.0
 73
     1
 44
1.0
  0
POINT
  5
DE
330
D2
100
AcDbEntity
  8
Defpoints
 62
     0
100
AcDbPoint
 10
41.27499999999998
 20
2.579687500000005
 30
0.0
  0
POINT
  5
DF
330
D2
100
AcDbEntity
  8
Defpoints
 62
     0
100
AcDbPoint
 10
41.27499999999998
 20
-2.579687499999995
 30
0.0
  0
POINT
  5
E0
330
D2
100
AcDbEntity
  8
Defpoints
 62
     0
100
AcDbPoint
 10
56.06492444393943
 20
-2.57968749999994
 30
0.0
  0
ENDBLK
  5
D4
330
D2
100
AcDbEntity
  8
0
100
AcDbBlockEnd
  0
BLOCK
  5
E8
330
E7
100
AcDbEntity
  8
0
100
AcDbBlockBegin
  2
_D_1
 70
     0
 10
0.0
 20
0.0
 30
0.0
  3
_D_1
  1
_D_1
  0
LINE
  5
EA
330
E7
100
AcDbEntity
  8
치수문자_일반주서
 62
     0
370
    -2
100
AcDbLine
 10
41.27499999999998
 20
2.642187500000005
 30
0.0
 11
41.27499999999998
 21
14.76660540934078
 31
0.0
  0
LINE
  5
EB
330
E7
100
AcDbEntity
  8
치수문자_일반주서
 62
     0
370
    -2
100
AcDbLine
 10
26.9875
 20
2.616218164089612
 30
0.0
 11
26.9875
 21
14.76660540934078
 31
0.0
  0
LINE
  5
EC
330
E7
100
AcDbEntity
  8
치수문자_일반주서
 62
     0
370
    -2
100
AcDbLine
 10
26.9875
 20
14.76660540934078
 30
0.0
 11
-6.741499999999995
 21
14.76660540934078
 31
0.0
  0
LINE
  5
ED
330
E7
100
AcDbEntity
  8
치수문자_일반주서
 62
     0
370
    -2
100
AcDbLine
 10
41.27499999999998
 20
14.76660540934078
 30
0.0
 11
26.9875
 21
14.76660540934078
 31
0.0
  0
LINE
  5
EE
330
E7
100
AcDbEntity
  8
치수문자_일반주서
 62
     0
370
    -2
100
AcDbLine
 10
44.57699999999998
 20
14.76660540934078
 30
0.0
 11
47.87899999999998
 21
14.76660540934078
 31
0.0
  0
LINE
  5
EF
330
E7
100
AcDbEntity
  8
치수문자_일반주서
 62
     0
370
    -2
100
AcDbLine
 10
23.6855
 20
14.76660540934078
 30
0.0
 11
20.38350000000001
 21
14.76660540934078
 31
0.0
  0
SOLID
  5
F0
330
E7
100
AcDbEntity
  8
치수문자_일반주서
 62
     0
100
AcDbTrace
 10
44.57699999999998
 20
15.31693874267411
 30
0.0
 11
44.57699999999998
 21
14.21627207600744
 31
0.0
 12
41.27499999999998
 22
14.76660540934078
 32
0.0
 13
41.27499999999998
 23
14.76660540934078
 33
0.0
  0
SOLID
  5
F1
330
E7
100
AcDbEntity
  8
치수문자_일반주서
 62
     0
100
AcDbTrace
 10
23.6855
 20
14.21627207600744
 30
0.0
 11
23.6855
 21
15.31693874267411
 31
0.0
 12
26.9875
 22
14.76660540934078
 32
0.0
 13
26.9875
 23
14.76660540934078
 33
0.0
  0
MTEXT
  5
F2
330
E7
100
AcDbEntity
  8
치수문자_일반주서
 62
     0
100
AcDbMText
 10
6.821000000000005
 20
19.14160540934078
 30
0.0
 40
3.5
 41
0.0
 71
     2
 72
     1
  1
\A1;14.29 [9/16]
  7
SLDTEXTSTYLE0
 73
     1
 44
1.0
  0
POINT
  5
F3
330
E7
100
AcDbEntity
  8
Defpoints
 62
     0
100
AcDbPoint
 10
41.27499999999998
 20
2.579687500000005
 30
0.0
  0
POINT
  5
266
330
E7
100
AcDbEntity
  8
Defpoints
 62
     0
100
AcDbPoint
 10
26.9875
 20
2.553718164089612
 30
0.0
  0
POINT
  5
267
330
E7
100
AcDbEntity
  8
Defpoints
 62
     0
100
AcDbPoint
 10
26.9875
 20
14.76660540934078
 30
0.0
  0
ENDBLK
  5
E9
330
E7
100
AcDbEntity
  8
0
100
AcDbBlockEnd
  0
BLOCK
  5
FC
330
FB
100
AcDbEntity
  8
0
100
AcDbBlockBegin
  2
_D_2
 70
     0
 10
0.0
 20
0.0
 30
0.0
  3
_D_2
  1
_D_2
  0
LINE
  5
FE
330
FB
100
AcDbEntity
  8
치수문자_일반주서
 62
     0
370
    -2
100
AcDbLine
 10
41.27499999999998
 20
2.642187500000005
 30
0.0
 11
41.27499999999998
 21
27.81150560816825
 31
0.0
  0
LINE
  5
FF
330
FB
100
AcDbEntity
  8
치수문자_일반주서
 62
     0
370
    -2
100
AcDbLine
 10
-41.27499999999998
 20
2.642187500000013
 30
0.0
 11
-41.27499999999998
 21
27.81150560816825
 31
0.0
  0
LINE
  5
100
330
FB
100
AcDbEntity
  8
치수문자_일반주서
 62
     0
370
    -2
100
AcDbLine
 10
37.97299999999998
 20
27.81150560816825
 30
0.0
 11
-37.97299999999998
 21
27.81150560816825
 31
0.0
  0
SOLID
  5
101
330
FB
100
AcDbEntity
  8
치수문자_일반주서
 62
     0
100
AcDbTrace
 10
37.97299999999998
 20
27.26117227483492
 30
0.0
 11
37.97299999999998
 21
28.36183894150159
 31
0.0
 12
41.27499999999998
 22
27.81150560816825
 32
0.0
 13
41.27499999999998
 23
27.81150560816825
 33
0.0
  0
SOLID
  5
102
330
FB
100
AcDbEntity
  8
치수문자_일반주서
 62
     0
100
AcDbTrace
 10
-37.97299999999998
 20
28.36183894150159
 30
0.0
 11
-37.97299999999998
 21
27.26117227483492
 31
0.0
 12
-41.27499999999998
 22
27.81150560816825
 32
0.0
 13
-41.27499999999998
 23
27.81150560816825
 33
0.0
  0
MTEXT
  5
103
330
FB
100
AcDbEntity
  8
치수문자_일반주서
 62
     0
100
AcDbMText
 10
-0.5567581586078916
 20
32.18650560816825
 30
0.0
 40
3.5
 41
0.0
 71
     2
 72
     1
  1
\A1;82.55 [3 1/4]
  7
SLDTEXTSTYLE0
 73
     1
 44
1.0
  0
POINT
  5
104
330
FB
100
AcDbEntity
  8
Defpoints
 62
     0
100
AcDbPoint
 10
41.27499999999998
 20
2.579687500000005
 30
0.0
  0
POINT
  5
105
330
FB
100
AcDbEntity
  8
Defpoints
 62
     0
100
AcDbPoint
 10
-41.27499999999998
 20
2.579687500000013
 30
0.0
  0
POINT
  5
106
330
FB
100
AcDbEntity
  8
Defpoints
 62
     0
100
AcDbPoint
 10
-41.27499999999998
 20
27.81150560816825
 30
0.0
  0
ENDBLK
  5
FD
330
FB
100
AcDbEntity
  8
0
100
AcDbBlockEnd
  0
BLOCK
  5
10F
330
10E
100
AcDbEntity
  8
0
100
AcDbBlockBegin
  2
_D_3
 70
     0
 10
0.0
 20
0.0
 30
0.0
  3
_D_3
  1
_D_3
  0
LINE
  5
111
330
10E
100
AcDbEntity
  8
치수문자_일반주서
 62
     0
370
    -2
100
AcDbLine
 10
-17.90363284660358
 20
4.762500000000002
 30
0.0
 11
-53.79875000000003
 21
4.762499999999868
 31
0.0
  0
LINE
  5
112
330
10E
100
AcDbEntity
  8
치수문자_일반주서
 62
     0
370
    -2
100
AcDbLine
 10
-17.90363284660352
 20
-4.762500000000004
 30
0.0
 11
-53.79874999999999
 21
-4.762500000000138
 31
0.0
  0
LINE
  5
113
330
10E
100
AcDbEntity
  8
치수문자_일반주서
 62
     0
370
    -2
100
AcDbLine
 10
-53.79875000000001
 20
1.460499999999868
 30
0.0
 11
-53.79875000000001
 21
-1.460500000000138
 31
0.0
  0
SOLID
  5
114
330
10E
100
AcDbEntity
  8
치수문자_일반주서
 62
     0
100
AcDbTrace
 10
-53.24841666666668
 20
1.46049999999987
 30
0.0
 11
-54.34908333333335
 21
1.460499999999866
 31
0.0
 12
-53.79875000000003
 22
4.762499999999868
 32
0.0
 13
-53.79875000000003
 23
4.762499999999868
 33
0.0
  0
SOLID
  5
115
330
10E
100
AcDbEntity
  8
치수문자_일반주서
 62
     0
100
AcDbTrace
 10
-54.34908333333334
 20
-1.46050000000014
 30
0.0
 11
-53.24841666666667
 21
-1.460500000000136
 31
0.0
 12
-53.79874999999999
 22
-4.762500000000138
 32
0.0
 13
-53.79874999999999
 23
-4.762500000000138
 33
0.0
  0
MTEXT
  5
116
330
10E
100
AcDbEntity
  8
치수문자_일반주서
 62
     0
100
AcDbMText
 10
-58.17375000000001
 20
-0.0000000000000152
 30
0.0
 40
3.5
 41
0.0
 71
     2
 72
     1
  1
\A1;%%c9.53 [3/8]
  7
SLDTEXTSTYLE0
 11
-3.729883127349605E-15
 21
1.0
 31
0.0
 73
     1
 44
1.0
  0
POINT
  5
117
330
10E
100
AcDbEntity
  8
Defpoints
 62
     0
100
AcDbPoint
 10
-17.84113284660358
 20
4.762500000000002
 30
0.0
  0
POINT
  5
118
330
10E
100
AcDbEntity
  8
Defpoints
 62
     0
100
AcDbPoint
 10
-17.84113284660352
 20
-4.762500000000004
 30
0.0
  0
POINT
  5
119
330
10E
100
AcDbEntity
  8
Defpoints
 62
     0
100
AcDbPoint
 10
-53.79874999999999
 20
-4.762500000000138
 30
0.0
  0
ENDBLK
  5
110
330
10E
100
AcDbEntity
  8
0
100
AcDbBlockEnd
  0
BLOCK
  5
129
330
128
100
AcDbEntity
  8
0
100
AcDbBlockBegin
  2
SW_DOWELSYMBOL_0
 70
     0
 10
0.0
 20
0.0
 30
0.0
  3
SW_DOWELSYMBOL_0
  1
SW_DOWELSYMBOL_0
  0
CIRCLE
  5
12B
330
128
100
AcDbEntity
  8
해칭선
 62
     0
100
AcDbCircle
 10
0.0
 20
0.0
 30
0.0
 40
3.000000000000008
  0
HATCH
  5
12C
330
128
100
AcDbEntity
  8
0
  6
Continuous
 62
     0
370
     0
100
AcDbHatch
 10
0.0
 20
0.0
 30
0.0
210
0.0
220
0.0
230
1.0
  2
SOLID
 70
     1
 71
     0
 91
        1
 92
        0
 93
        3
 72
     2
 10
0.0
 20
0.0
 40
3.000000000000008
 50
0.0
 51
90.0
 73
     1
 72
     1
 10
0.0
 20
3.000000000000008
 11
0.0
 21
0.0
 72
     1
 10
0.0
 20
0.0
 11
3.00000000000001
 21
0.0
 97
        0
 75
     0
 76
     1
 98
        1
 10
0.0
 20
0.0
  0
HATCH
  5
12D
330
128
100
AcDbEntity
  8
0
  6
Continuous
 62
     0
370
     0
100
AcDbHatch
 10
0.0
 20
0.0
 30
0.0
210
0.0
220
0.0
230
1.0
  2
SOLID
 70
     1
 71
     0
 91
        1
 92
        0
 93
        3
 72
     2
 10
0.0
 20
0.0
 40
3.000000000000008
 50
180.0
 51
270.0000000000007
 73
     1
 72
     1
 10
0.0
 20
-3.000000000000008
 11
0.0
 21
0.0
 72
     1
 10
0.0
 20
0.0
 11
-3.000000000000008
 21
0.0
 97
        0
 75
     0
 76
     1
 98
        1
 10
0.0
 20
0.0
  0
ENDBLK
  5
12A
330
128
100
AcDbEntity
  8
0
100
AcDbBlockEnd
  0
BLOCK
  5
1E2
330
1E1
100
AcDbEntity
  8
0
100
AcDbBlockBegin
  2
*D7
 70
     1
 10
0.0
 20
0.0
 30
0.0
  3
*D7
  1
*D8
  0
LINE
  5
1E4
330
1E1
100
AcDbEntity
  8
치수문자_일반주서
 62
     0
370
    -2
100
AcDbLine
 10
85.6125
 20
11.36649999999994
 30
0.0
 11
100.7293553097448
 21
11.3665
 31
0.0
  0
LINE
  5
1E5
330
1E1
100
AcDbEntity
  8
치수문자_일반주서
 62
     0
370
    -2
100
AcDbLine
 10
85.6125
 20
6.603999999999941
 30
0.0
 11
100.7293553097448
 21
6.603999999999999
 31
0.0
  0
LINE
  5
1E6
330
1E1
100
AcDbEntity
  8
치수문자_일반주서
 62
     0
370
    -2
100
AcDbLine
 10
100.7293553097448
 20
11.3665
 30
0.0
 11
100.7293553097447
 21
47.72055345637148
 31
0.0
  0
LINE
  5
1E7
330
1E1
100
AcDbEntity
  8
치수문자_일반주서
 62
     0
370
    -2
100
AcDbLine
 10
100.7293553097448
 20
11.3665
 30
0.0
 11
100.7293553097448
 21
6.603999999999999
 31
0.0
  0
LINE
  5
1E8
330
1E1
100
AcDbEntity
  8
치수문자_일반주서
 62
     0
370
    -2
100
AcDbLine
 10
100.7293553097448
 20
14.6685
 30
0.0
 11
100.7293553097448
 21
17.9705
 31
0.0
  0
LINE
  5
1E9
330
1E1
100
AcDbEntity
  8
치수문자_일반주서
 62
     0
370
    -2
100
AcDbLine
 10
100.7293553097449
 20
3.302
 30
0.0
 11
100.7293553097449
 21
0.0
 31
0.0
  0
SOLID
  5
1EA
330
1E1
100
AcDbEntity
  8
치수문자_일반주서
 62
     0
100
AcDbTrace
 10
100.1790219764115
 20
14.6685
 30
0.0
 11
101.2796886430781
 21
14.6685
 31
0.0
 12
100.7293553097448
 22
11.3665
 32
0.0
 13
100.7293553097448
 23
11.3665
 33
0.0
  0
SOLID
  5
1EB
330
1E1
100
AcDbEntity
  8
치수문자_일반주서
 62
     0
100
AcDbTrace
 10
101.2796886430782
 20
3.302000000000001
 30
0.0
 11
100.1790219764115
 21
3.301999999999998
 31
0.0
 12
100.7293553097448
 22
6.603999999999999
 32
0.0
 13
100.7293553097448
 23
6.603999999999999
 33
0.0
  0
MTEXT
  5
1EC
330
1E1
100
AcDbEntity
  8
치수문자_일반주서
 62
     0
100
AcDbMText
 10
96.35435530974476
 20
33.72055345637146
 30
0.0
 40
3.5
 41
0.0
 71
     2
 72
     1
  1
\A1;%%c4.76 [3/16]
  7
SLDTEXTSTYLE0
 11
-2.983906501879686E-15
 21
1.0
 31
0.0
 73
     1
 44
1.0
  0
POINT
  5
1ED
330
1E1
100
AcDbEntity
  8
Defpoints
 62
     0
100
AcDbPoint
 10
85.55
 20
11.36649999999994
 30
0.0
  0
POINT
  5
1EE
330
1E1
100
AcDbEntity
  8
Defpoints
 62
     0
100
AcDbPoint
 10
85.55
 20
6.603999999999941
 30
0.0
  0
POINT
  5
1EF
330
1E1
100
AcDbEntity
  8
Defpoints
 62
     0
100
AcDbPoint
 10
100.7293553097448
 20
6.603999999999998
 30
0.0
  0
ENDBLK
  5
1E3
330
1E1
100
AcDbEntity
  8
0
100
AcDbBlockEnd
  0
BLOCK
  5
1F1
330
1F0
100
AcDbEntity
  8
0
100
AcDbBlockBegin
  2
*D8
 70
     1
 10
0.0
 20
0.0
 30
0.0
  3
*D8
  1
*D9
  0
LINE
  5
1F3
330
1F0
100
AcDbEntity
  8
치수문자_일반주서
 62
     0
370
    -2
100
AcDbLine
 10
85.55000000000001
 20
11.42899999999994
 30
0.0
 11
85.55000000000001
 21
26.1748195970709
 31
0.0
  0
LINE
  5
1F4
330
1F0
100
AcDbEntity
  8
치수문자_일반주서
 62
     0
370
    -2
100
AcDbLine
 10
72.85
 20
11.42835872644344
 30
0.0
 11
72.85
 21
26.1748195970709
 31
0.0
  0
LINE
  5
1F5
330
1F0
100
AcDbEntity
  8
치수문자_일반주서
 62
     0
370
    -2
100
AcDbLine
 10
72.85
 20
26.1748195970709
 30
0.0
 11
44.371
 21
26.1748195970709
 31
0.0
  0
LINE
  5
1F6
330
1F0
100
AcDbEntity
  8
치수문자_일반주서
 62
     0
370
    -2
100
AcDbLine
 10
85.55000000000001
 20
26.1748195970709
 30
0.0
 11
72.85
 21
26.1748195970709
 31
0.0
  0
LINE
  5
1F7
330
1F0
100
AcDbEntity
  8
치수문자_일반주서
 62
     0
370
    -2
100
AcDbLine
 10
88.852
 20
26.1748195970709
 30
0.0
 11
92.154
 21
26.1748195970709
 31
0.0
  0
LINE
  5
1F8
330
1F0
100
AcDbEntity
  8
치수문자_일반주서
 62
     0
370
    -2
100
AcDbLine
 10
69.548
 20
26.1748195970709
 30
0.0
 11
66.24600000000001
 21
26.1748195970709
 31
0.0
  0
SOLID
  5
1F9
330
1F0
100
AcDbEntity
  8
치수문자_일반주서
 62
     0
100
AcDbTrace
 10
88.852
 20
26.72515293040424
 30
0.0
 11
88.852
 21
25.62448626373757
 31
0.0
 12
85.55000000000001
 22
26.1748195970709
 32
0.0
 13
85.55000000000001
 23
26.1748195970709
 33
0.0
  0
SOLID
  5
1FA
330
1F0
100
AcDbEntity
  8
치수문자_일반주서
 62
     0
100
AcDbTrace
 10
69.548
 20
25.62448626373757
 30
0.0
 11
69.548
 21
26.72515293040424
 31
0.0
 12
72.85
 22
26.1748195970709
 32
0.0
 13
72.85
 23
26.1748195970709
 33
0.0
  0
MTEXT
  5
1FB
330
1F0
100
AcDbEntity
  8
치수문자_일반주서
 62
     0
100
AcDbMText
 10
55.3085
 20
30.5498195970709
 30
0.0
 40
3.5
 41
0.0
 71
     2
 72
     1
  1
\A1;12.7 [1/2]
  7
SLDTEXTSTYLE0
 73
     1
 44
1.0
  0
POINT
  5
1FC
330
1F0
100
AcDbEntity
  8
Defpoints
 62
     0
100
AcDbPoint
 10
85.55000000000001
 20
11.36649999999994
 30
0.0
  0
POINT
  5
1FD
330
1F0
100
AcDbEntity
  8
Defpoints
 62
     0
100
AcDbPoint
 10
72.85
 20
11.36585872644344
 30
0.0
  0
POINT
  5
1FE
330
1F0
100
AcDbEntity
  8
Defpoints
 62
     0
100
AcDbPoint
 10
72.85
 20
26.1748195970709
 30
0.0
  0
ENDBLK
  5
1F2
330
1F0
100
AcDbEntity
  8
0
100
AcDbBlockEnd
  0
BLOCK
  5
200
330
1FF
100
AcDbEntity
  8
0
100
AcDbBlockBegin
  2
*D9
 70
     1
 10
0.0
 20
0.0
 30
0.0
  3
*D9
  1
*D10
  0
LINE
  5
202
330
1FF
100
AcDbEntity
  8
치수문자_일반주서
 62
     0
370
    -2
100
AcDbLine
 10
85.55000000000001
 20
11.42899999999994
 30
0.0
 11
85.55000000000001
 21
35.46625320036925
 31
0.0
  0
LINE
  5
203
330
1FF
100
AcDbEntity
  8
치수문자_일반주서
 62
     0
370
    -2
100
AcDbLine
 10
3.000000000000007
 20
12.85774999999994
 30
0.0
 11
3.000000000000007
 21
35.46625320036925
 31
0.0
  0
LINE
  5
204
330
1FF
100
AcDbEntity
  8
치수문자_일반주서
 62
     0
370
    -2
100
AcDbLine
 10
82.24800000000002
 20
35.46625320036925
 30
0.0
 11
6.302000000000007
 21
35.46625320036925
 31
0.0
  0
SOLID
  5
205
330
1FF
100
AcDbEntity
  8
치수문자_일반주서
 62
     0
100
AcDbTrace
 10
82.24800000000002
 20
34.91591986703592
 30
0.0
 11
82.24800000000002
 21
36.01658653370259
 31
0.0
 12
85.55000000000001
 22
35.46625320036925
 32
0.0
 13
85.55000000000001
 23
35.46625320036925
 33
0.0
  0
SOLID
  5
206
330
1FF
100
AcDbEntity
  8
치수문자_일반주서
 62
     0
100
AcDbTrace
 10
6.302000000000007
 20
36.01658653370259
 30
0.0
 11
6.302000000000007
 21
34.91591986703592
 31
0.0
 12
3.000000000000007
 22
35.46625320036925
 32
0.0
 13
3.000000000000007
 23
35.46625320036925
 33
0.0
  0
MTEXT
  5
207
330
1FF
100
AcDbEntity
  8
치수문자_일반주서
 62
     0
100
AcDbMText
 10
44.04498495130413
 20
39.84125320036925
 30
0.0
 40
3.5
 41
0.0
 71
     2
 72
     1
  1
\A1;82.55 [3 1/4]
  7
SLDTEXTSTYLE0
 73
     1
 44
1.0
  0
POINT
  5
208
330
1FF
100
AcDbEntity
  8
Defpoints
 62
     0
100
AcDbPoint
 10
85.55000000000001
 20
11.36649999999994
 30
0.0
  0
POINT
  5
209
330
1FF
100
AcDbEntity
  8
Defpoints
 62
     0
100
AcDbPoint
 10
3.000000000000007
 20
12.79524999999994
 30
0.0
  0
POINT
  5
20A
330
1FF
100
AcDbEntity
  8
Defpoints
 62
     0
100
AcDbPoint
 10
3.000000000000007
 20
35.46625320036925
 30
0.0
  0
ENDBLK
  5
201
330
1FF
100
AcDbEntity
  8
0
100
AcDbBlockEnd
  0
BLOCK
  5
23D
330
23C
100
AcDbEntity
  8
0
100
AcDbBlockBegin
  2
*D10
 70
     1
 10
0.0
 20
0.0
 30
0.0
  3
*D10
  1
*D11
  0
LINE
  5
23F
330
23C
100
AcDbEntity
  8
치수문자_일반주서
 62
     0
370
    -2
100
AcDbLine
 10
183.6555823888598
 20
-39.31108899318387
 30
0.0
 11
198.7724376986047
 21
-39.31108899318382
 31
0.0
  0
LINE
  5
240
330
23C
100
AcDbEntity
  8
치수문자_일반주서
 62
     0
370
    -2
100
AcDbLine
 10
183.6555823888598
 20
-44.07358899318388
 30
0.0
 11
198.7724376986047
 21
-44.07358899318382
 31
0.0
  0
LINE
  5
241
330
23C
100
AcDbEntity
  8
치수문자_일반주서
 62
     0
370
    -2
100
AcDbLine
 10
198.7724376986047
 20
-39.31108899318382
 30
0.0
 11
198.7724376986045
 21
-2.957035536812342
 31
0.0
  0
LINE
  5
242
330
23C
100
AcDbEntity
  8
치수문자_일반주서
 62
     0
370
    -2
100
AcDbLine
 10
198.7724376986047
 20
-39.31108899318382
 30
0.0
 11
198.7724376986047
 21
-44.07358899318382
 31
0.0
  0
LINE
  5
243
330
23C
100
AcDbEntity
  8
치수문자_일반주서
 62
     0
370
    -2
100
AcDbLine
 10
198.7724376986047
 20
-36.00908899318382
 30
0.0
 11
198.7724376986046
 21
-32.70708899318382
 31
0.0
  0
LINE
  5
244
330
23C
100
AcDbEntity
  8
치수문자_일반주서
 62
     0
370
    -2
100
AcDbLine
 10
198.7724376986048
 20
-47.37558899318382
 30
0.0
 11
198.7724376986048
 21
-50.67758899318382
 31
0.0
  0
SOLID
  5
245
330
23C
100
AcDbEntity
  8
치수문자_일반주서
 62
     0
100
AcDbTrace
 10
198.2221043652713
 20
-36.00908899318382
 30
0.0
 11
199.322771031938
 21
-36.00908899318382
 31
0.0
 12
198.7724376986047
 22
-39.31108899318382
 32
0.0
 13
198.7724376986047
 23
-39.31108899318382
 33
0.0
  0
SOLID
  5
246
330
23C
100
AcDbEntity
  8
치수문자_일반주서
 62
     0
100
AcDbTrace
 10
199.3227710319381
 20
-47.37558899318382
 30
0.0
 11
198.2221043652714
 21
-47.37558899318382
 31
0.0
 12
198.7724376986047
 22
-44.07358899318382
 32
0.0
 13
198.7724376986047
 23
-44.07358899318382
 33
0.0
  0
MTEXT
  5
247
330
23C
100
AcDbEntity
  8
치수문자_일반주서
 62
     0
100
AcDbMText
 10
194.3974376986046
 20
-16.95703553681237
 30
0.0
 40
3.5
 41
0.0
 71
     2
 72
     1
  1
\A1;%%c4.76 [3/16]
  7
SLDTEXTSTYLE0
 11
-5.967813003759368E-15
 21
1.0
 31
0.0
 73
     1
 44
1.0
  0
POINT
  5
248
330
23C
100
AcDbEntity
  8
Defpoints
 62
     0
100
AcDbPoint
 10
183.5930823888598
 20
-39.31108899318387
 30
0.0
  0
POINT
  5
249
330
23C
100
AcDbEntity
  8
Defpoints
 62
     0
100
AcDbPoint
 10
183.5930823888598
 20
-44.07358899318388
 30
0.0
  0
POINT
  5
24A
330
23C
100
AcDbEntity
  8
Defpoints
 62
     0
100
AcDbPoint
 10
198.7724376986047
 20
-44.07358899318382
 30
0.0
  0
ENDBLK
  5
23E
330
23C
100
AcDbEntity
  8
0
100
AcDbBlockEnd
  0
BLOCK
  5
24C
330
24B
100
AcDbEntity
  8
0
100
AcDbBlockBegin
  2
*D11
 70
     1
 10
0.0
 20
0.0
 30
0.0
  3
*D11
  1
*D12
  0
LINE
  5
24E
330
24B
100
AcDbEntity
  8
치수문자_일반주서
 62
     0
370
    -2
100
AcDbLine
 10
183.5930823888598
 20
-39.24858899318387
 30
0.0
 11
183.5930823888598
 21
-24.50276939611292
 31
0.0
  0
LINE
  5
24F
330
24B
100
AcDbEntity
  8
치수문자_일반주서
 62
     0
370
    -2
100
AcDbLine
 10
170.8930823888598
 20
-39.24923026674038
 30
0.0
 11
170.8930823888598
 21
-24.50276939611292
 31
0.0
  0
LINE
  5
250
330
24B
100
AcDbEntity
  8
치수문자_일반주서
 62
     0
370
    -2
100
AcDbLine
 10
170.8930823888598
 20
-24.50276939611292
 30
0.0
 11
142.4140823888598
 21
-24.50276939611292
 31
0.0
  0
LINE
  5
251
330
24B
100
AcDbEntity
  8
치수문자_일반주서
 62
     0
370
    -2
100
AcDbLine
 10
183.5930823888598
 20
-24.50276939611292
 30
0.0
 11
170.8930823888598
 21
-24.50276939611292
 31
0.0
  0
LINE
  5
252
330
24B
100
AcDbEntity
  8
치수문자_일반주서
 62
     0
370
    -2
100
AcDbLine
 10
186.8950823888598
 20
-24.50276939611292
 30
0.0
 11
190.1970823888598
 21
-24.50276939611292
 31
0.0
  0
LINE
  5
253
330
24B
100
AcDbEntity
  8
치수문자_일반주서
 62
     0
370
    -2
100
AcDbLine
 10
167.5910823888598
 20
-24.50276939611292
 30
0.0
 11
164.2890823888598
 21
-24.50276939611292
 31
0.0
  0
SOLID
  5
254
330
24B
100
AcDbEntity
  8
치수문자_일반주서
 62
     0
100
AcDbTrace
 10
186.8950823888598
 20
-23.95243606277958
 30
0.0
 11
186.8950823888598
 21
-25.05310272944625
 31
0.0
 12
183.5930823888598
 22
-24.50276939611292
 32
0.0
 13
183.5930823888598
 23
-24.50276939611292
 33
0.0
  0
SOLID
  5
255
330
24B
100
AcDbEntity
  8
치수문자_일반주서
 62
     0
100
AcDbTrace
 10
167.5910823888598
 20
-25.05310272944625
 30
0.0
 11
167.5910823888598
 21
-23.95243606277958
 31
0.0
 12
170.8930823888598
 22
-24.50276939611292
 32
0.0
 13
170.8930823888598
 23
-24.50276939611292
 33
0.0
  0
MTEXT
  5
256
330
24B
100
AcDbEntity
  8
치수문자_일반주서
 62
     0
100
AcDbMText
 10
153.3515823888598
 20
-20.12776939611292
 30
0.0
 40
3.5
 41
0.0
 71
     2
 72
     1
  1
\A1;12.7 [1/2]
  7
SLDTEXTSTYLE0
 73
     1
 44
1.0
  0
POINT
  5
257
330
24B
100
AcDbEntity
  8
Defpoints
 62
     0
100
AcDbPoint
 10
183.5930823888598
 20
-39.31108899318387
 30
0.0
  0
POINT
  5
258
330
24B
100
AcDbEntity
  8
Defpoints
 62
     0
100
AcDbPoint
 10
170.8930823888598
 20
-39.31173026674038
 30
0.0
  0
POINT
  5
259
330
24B
100
AcDbEntity
  8
Defpoints
 62
     0
100
AcDbPoint
 10
170.8930823888598
 20
-24.50276939611292
 30
0.0
  0
ENDBLK
  5
24D
330
24B
100
AcDbEntity
  8
0
100
AcDbBlockEnd
  0
BLOCK
  5
25B
330
25A
100
AcDbEntity
  8
0
100
AcDbBlockBegin
  2
*D12
 70
     1
 10
0.0
 20
0.0
 30
0.0
  3
*D12
  1
*D13
  0
LINE
  5
25D
330
25A
100
AcDbEntity
  8
치수문자_일반주서
 62
     0
370
    -2
100
AcDbLine
 10
183.5930823888598
 20
-39.24858899318387
 30
0.0
 11
183.5930823888598
 21
-15.21133579281457
 31
0.0
  0
LINE
  5
25E
330
25A
100
AcDbEntity
  8
치수문자_일반주서
 62
     0
370
    -2
100
AcDbLine
 10
101.0430823888598
 20
-37.81983899318388
 30
0.0
 11
101.0430823888598
 21
-15.21133579281457
 31
0.0
  0
LINE
  5
25F
330
25A
100
AcDbEntity
  8
치수문자_일반주서
 62
     0
370
    -2
100
AcDbLine
 10
180.2910823888598
 20
-15.21133579281457
 30
0.0
 11
104.3450823888598
 21
-15.21133579281457
 31
0.0
  0
SOLID
  5
260
330
25A
100
AcDbEntity
  8
치수문자_일반주서
 62
     0
100
AcDbTrace
 10
180.2910823888598
 20
-15.7616691261479
 30
0.0
 11
180.2910823888598
 21
-14.66100245948123
 31
0.0
 12
183.5930823888598
 22
-15.21133579281457
 32
0.0
 13
183.5930823888598
 23
-15.21133579281457
 33
0.0
  0
SOLID
  5
261
330
25A
100
AcDbEntity
  8
치수문자_일반주서
 62
     0
100
AcDbTrace
 10
104.3450823888598
 20
-14.66100245948123
 30
0.0
 11
104.3450823888598
 21
-15.7616691261479
 31
0.0
 12
101.0430823888598
 22
-15.21133579281457
 32
0.0
 13
101.0430823888598
 23
-15.21133579281457
 33
0.0
  0
MTEXT
  5
262
330
25A
100
AcDbEntity
  8
치수문자_일반주서
 62
     0
100
AcDbMText
 10
142.0880673401639
 20
-10.83633579281457
 30
0.0
 40
3.5
 41
0.0
 71
     2
 72
     1
  1
\A1;82.55 [3 1/4]
  7
SLDTEXTSTYLE0
 73
     1
 44
1.0
  0
POINT
  5
263
330
25A
100
AcDbEntity
  8
Defpoints
 62
     0
100
AcDbPoint
 10
183.5930823888598
 20
-39.31108899318387
 30
0.0
  0
POINT
  5
264
330
25A
100
AcDbEntity
  8
Defpoints
 62
     0
100
AcDbPoint
 10
101.0430823888598
 20
-37.88233899318388
 30
0.0
  0
POINT
  5
265
330
25A
100
AcDbEntity
  8
Defpoints
 62
     0
100
AcDbPoint
 10
101.0430823888598
 20
-15.21133579281457
 30
0.0
  0
ENDBLK
  5
25C
330
25A
100
AcDbEntity
  8
0
100
AcDbBlockEnd
  0
BLOCK
  5
2F7
330
2F6
100
AcDbEntity
  8
0
100
AcDbBlockBegin
  2
*D13
 70
     1
 10
0.0
 20
0.0
 30
0.0
  3
*D13
  1
*D15
  0
LINE
  5
2F9
330
2F6
100
AcDbEntity
  8
치수문자_일반주서
 62
     0
370
    -2
100
AcDbLine
 10
85.61249999999998
 20
11.76337499999994
 30
0.0
 11
100.3399244439394
 21
11.763375
 31
0.0
  0
LINE
  5
2FA
330
2F6
100
AcDbEntity
  8
치수문자_일반주서
 62
     0
370
    -2
100
AcDbLine
 10
85.61249999999998
 20
6.603999999999946
 30
0.0
 11
100.3399244439394
 21
6.603999999999999
 31
0.0
  0
LINE
  5
2FB
330
2F6
100
AcDbEntity
  8
치수문자_일반주서
 62
     0
370
    -2
100
AcDbLine
 10
100.3399244439394
 20
11.763375
 30
0.0
 11
100.3399244439393
 21
50.85526624440244
 31
0.0
  0
LINE
  5
2FC
330
2F6
100
AcDbEntity
  8
치수문자_일반주서
 62
     0
370
    -2
100
AcDbLine
 10
100.3399244439394
 20
11.763375
 30
0.0
 11
100.3399244439394
 21
6.603999999999999
 31
0.0
  0
LINE
  5
2FD
330
2F6
100
AcDbEntity
  8
치수문자_일반주서
 62
     0
370
    -2
100
AcDbLine
 10
100.3399244439394
 20
15.065375
 30
0.0
 11
100.3399244439394
 21
18.367375
 31
0.0
  0
LINE
  5
2FE
330
2F6
100
AcDbEntity
  8
치수문자_일반주서
 62
     0
370
    -2
100
AcDbLine
 10
100.3399244439394
 20
3.302
 30
0.0
 11
100.3399244439394
 21
0.0
 31
0.0
  0
SOLID
  5
2FF
330
2F6
100
AcDbEntity
  8
치수문자_일반주서
 62
     0
100
AcDbTrace
 10
99.78959111060604
 20
15.065375
 30
0.0
 11
100.8902577772727
 21
15.065375
 31
0.0
 12
100.3399244439394
 22
11.763375
 32
0.0
 13
100.3399244439394
 23
11.763375
 33
0.0
  0
SOLID
  5
300
330
2F6
100
AcDbEntity
  8
치수문자_일반주서
 62
     0
100
AcDbTrace
 10
100.8902577772727
 20
3.302000000000001
 30
0.0
 11
99.78959111060608
 21
3.301999999999998
 31
0.0
 12
100.3399244439394
 22
6.603999999999999
 32
0.0
 13
100.3399244439394
 23
6.603999999999999
 33
0.0
  0
MTEXT
  5
301
330
2F6
100
AcDbEntity
  8
치수문자_일반주서
 62
     0
100
AcDbMText
 10
95.96492444393931
 20
35.98026624440243
 30
0.0
 40
3.5
 41
0.0
 71
     2
 72
     1
  1
\A1;%%c5.16 [13/64]
  7
SLDTEXTSTYLE0
 11
-2.754375232504326E-15
 21
1.0
 31
0.0
 73
     1
 44
1.0
  0
POINT
  5
302
330
2F6
100
AcDbEntity
  8
Defpoints
 62
     0
100
AcDbPoint
 10
85.54999999999998
 20
11.76337499999994
 30
0.0
  0
POINT
  5
303
330
2F6
100
AcDbEntity
  8
Defpoints
 62
     0
100
AcDbPoint
 10
85.54999999999998
 20
6.603999999999946
 30
0.0
  0
POINT
  5
304
330
2F6
100
AcDbEntity
  8
Defpoints
 62
     0
100
AcDbPoint
 10
100.3399244439394
 20
6.604000000000001
 30
0.0
  0
ENDBLK
  5
2F8
330
2F6
100
AcDbEntity
  8
0
100
AcDbBlockEnd
  0
BLOCK
  5
306
330
305
100
AcDbEntity
  8
0
100
AcDbBlockBegin
  2
*D14
 70
     1
 10
0.0
 20
0.0
 30
0.0
  3
*D14
  1
*D16
  0
LINE
  5
308
330
305
100
AcDbEntity
  8
치수문자_일반주서
 62
     0
370
    -2
100
AcDbLine
 10
85.54999999999998
 20
11.82587499999994
 30
0.0
 11
85.54999999999998
 21
23.95029290934072
 31
0.0
  0
LINE
  5
309
330
305
100
AcDbEntity
  8
치수문자_일반주서
 62
     0
370
    -2
100
AcDbLine
 10
71.26250000000002
 20
11.79990566408955
 30
0.0
 11
71.26250000000002
 21
23.95029290934072
 31
0.0
  0
LINE
  5
30A
330
305
100
AcDbEntity
  8
치수문자_일반주서
 62
     0
370
    -2
100
AcDbLine
 10
71.26250000000002
 20
23.95029290934072
 30
0.0
 11
37.53350000000002
 21
23.95029290934072
 31
0.0
  0
LINE
  5
30B
330
305
100
AcDbEntity
  8
치수문자_일반주서
 62
     0
370
    -2
100
AcDbLine
 10
85.54999999999998
 20
23.95029290934072
 30
0.0
 11
71.26250000000002
 21
23.95029290934072
 31
0.0
  0
LINE
  5
30C
330
305
100
AcDbEntity
  8
치수문자_일반주서
 62
     0
370
    -2
100
AcDbLine
 10
88.85199999999998
 20
23.95029290934072
 30
0.0
 11
92.15399999999997
 21
23.95029290934072
 31
0.0
  0
LINE
  5
30D
330
305
100
AcDbEntity
  8
치수문자_일반주서
 62
     0
370
    -2
100
AcDbLine
 10
67.96050000000002
 20
23.95029290934072
 30
0.0
 11
64.65850000000003
 21
23.95029290934072
 31
0.0
  0
SOLID
  5
30E
330
305
100
AcDbEntity
  8
치수문자_일반주서
 62
     0
100
AcDbTrace
 10
88.85199999999998
 20
24.50062624267405
 30
0.0
 11
88.85199999999998
 21
23.39995957600738
 31
0.0
 12
85.54999999999998
 22
23.95029290934072
 32
0.0
 13
85.54999999999998
 23
23.95029290934072
 33
0.0
  0
SOLID
  5
30F
330
305
100
AcDbEntity
  8
치수문자_일반주서
 62
     0
100
AcDbTrace
 10
67.96050000000002
 20
23.39995957600738
 30
0.0
 11
67.96050000000002
 21
24.50062624267405
 31
0.0
 12
71.26250000000002
 22
23.95029290934072
 32
0.0
 13
71.26250000000002
 23
23.95029290934072
 33
0.0
  0
MTEXT
  5
310
330
305
100
AcDbEntity
  8
치수문자_일반주서
 62
     0
100
AcDbMText
 10
51.09600000000001
 20
28.32529290934072
 30
0.0
 40
3.5
 41
0.0
 71
     2
 72
     1
  1
\A1;14.29 [9/16]
  7
SLDTEXTSTYLE0
 73
     1
 44
1.0
  0
POINT
  5
311
330
305
100
AcDbEntity
  8
Defpoints
 62
     0
100
AcDbPoint
 10
85.54999999999998
 20
11.76337499999994
 30
0.0
  0
POINT
  5
312
330
305
100
AcDbEntity
  8
Defpoints
 62
     0
100
AcDbPoint
 10
71.26250000000002
 20
11.73740566408955
 30
0.0
  0
POINT
  5
313
330
305
100
AcDbEntity
  8
Defpoints
 62
     0
100
AcDbPoint
 10
71.26250000000002
 20
23.95029290934072
 30
0.0
  0
ENDBLK
  5
307
330
305
100
AcDbEntity
  8
0
100
AcDbBlockEnd
  0
BLOCK
  5
315
330
314
100
AcDbEntity
  8
0
100
AcDbBlockBegin
  2
*D15
 70
     1
 10
0.0
 20
0.0
 30
0.0
  3
*D15
  1
*D17
  0
LINE
  5
317
330
314
100
AcDbEntity
  8
치수문자_일반주서
 62
     0
370
    -2
100
AcDbLine
 10
85.54999999999998
 20
11.82587499999994
 30
0.0
 11
85.54999999999998
 21
36.99519310816819
 31
0.0
  0
LINE
  5
318
330
314
100
AcDbEntity
  8
치수문자_일반주서
 62
     0
370
    -2
100
AcDbLine
 10
3.000000000000007
 20
13.05618749999994
 30
0.0
 11
3.000000000000007
 21
36.99519310816819
 31
0.0
  0
LINE
  5
319
330
314
100
AcDbEntity
  8
치수문자_일반주서
 62
     0
370
    -2
100
AcDbLine
 10
82.24799999999999
 20
36.99519310816819
 30
0.0
 11
6.302000000000007
 21
36.99519310816819
 31
0.0
  0
SOLID
  5
31A
330
314
100
AcDbEntity
  8
치수문자_일반주서
 62
     0
100
AcDbTrace
 10
82.24799999999999
 20
36.44485977483486
 30
0.0
 11
82.24799999999999
 21
37.54552644150153
 31
0.0
 12
85.54999999999998
 22
36.99519310816819
 32
0.0
 13
85.54999999999998
 23
36.99519310816819
 33
0.0
  0
SOLID
  5
31B
330
314
100
AcDbEntity
  8
치수문자_일반주서
 62
     0
100
AcDbTrace
 10
6.302000000000007
 20
37.54552644150153
 30
0.0
 11
6.302000000000007
 21
36.44485977483486
 31
0.0
 12
3.000000000000007
 22
36.99519310816819
 32
0.0
 13
3.000000000000007
 23
36.99519310816819
 33
0.0
  0
MTEXT
  5
31C
330
314
100
AcDbEntity
  8
치수문자_일반주서
 62
     0
100
AcDbMText
 10
43.71824184139211
 20
41.37019310816819
 30
0.0
 40
3.5
 41
0.0
 71
     2
 72
     1
  1
\A1;82.55 [3 1/4]
  7
SLDTEXTSTYLE0
 73
     1
 44
1.0
  0
POINT
  5
31D
330
314
100
AcDbEntity
  8
Defpoints
 62
     0
100
AcDbPoint
 10
85.54999999999998
 20
11.76337499999994
 30
0.0
  0
POINT
  5
31E
330
314
100
AcDbEntity
  8
Defpoints
 62
     0
100
AcDbPoint
 10
3.000000000000007
 20
12.99368749999994
 30
0.0
  0
POINT
  5
31F
330
314
100
AcDbEntity
  8
Defpoints
 62
     0
100
AcDbPoint
 10
3.000000000000007
 20
36.99519310816819
 30
0.0
  0
ENDBLK
  5
316
330
314
100
AcDbEntity
  8
0
100
AcDbBlockEnd
  0
BLOCK
  5
351
330
350
100
AcDbEntity
  8
0
100
AcDbBlockBegin
  2
*D16
 70
     1
 10
0.0
 20
0.0
 30
0.0
  3
*D16
  1
*D18
  0
LINE
  5
353
330
350
100
AcDbEntity
  8
치수문자_일반주서
 62
     0
370
    -2
100
AcDbLine
 10
182.0234724084731
 20
-60.56282330563422
 30
0.0
 11
196.7508968524125
 21
-60.56282330563416
 31
0.0
  0
LINE
  5
354
330
350
100
AcDbEntity
  8
치수문자_일반주서
 62
     0
370
    -2
100
AcDbLine
 10
182.0234724084731
 20
-65.72219830563422
 30
0.0
 11
196.7508968524126
 21
-65.72219830563417
 31
0.0
  0
LINE
  5
355
330
350
100
AcDbEntity
  8
치수문자_일반주서
 62
     0
370
    -2
100
AcDbLine
 10
196.7508968524125
 20
-60.56282330563416
 30
0.0
 11
196.7508968524123
 21
-21.47093206123172
 31
0.0
  0
LINE
  5
356
330
350
100
AcDbEntity
  8
치수문자_일반주서
 62
     0
370
    -2
100
AcDbLine
 10
196.7508968524125
 20
-60.56282330563416
 30
0.0
 11
196.7508968524126
 21
-65.72219830563417
 31
0.0
  0
LINE
  5
357
330
350
100
AcDbEntity
  8
치수문자_일반주서
 62
     0
370
    -2
100
AcDbLine
 10
196.7508968524125
 20
-57.26082330563416
 30
0.0
 11
196.7508968524125
 21
-53.95882330563416
 31
0.0
  0
LINE
  5
358
330
350
100
AcDbEntity
  8
치수문자_일반주서
 62
     0
370
    -2
100
AcDbLine
 10
196.7508968524126
 20
-69.02419830563417
 30
0.0
 11
196.7508968524126
 21
-72.32619830563416
 31
0.0
  0
SOLID
  5
359
330
350
100
AcDbEntity
  8
치수문자_일반주서
 62
     0
100
AcDbTrace
 10
196.2005635190792
 20
-57.26082330563416
 30
0.0
 11
197.3012301857458
 21
-57.26082330563416
 31
0.0
 12
196.7508968524125
 22
-60.56282330563416
 32
0.0
 13
196.7508968524125
 23
-60.56282330563416
 33
0.0
  0
SOLID
  5
35A
330
350
100
AcDbEntity
  8
치수문자_일반주서
 62
     0
100
AcDbTrace
 10
197.3012301857459
 20
-69.02419830563417
 30
0.0
 11
196.2005635190793
 21
-69.02419830563417
 31
0.0
 12
196.7508968524126
 22
-65.72219830563417
 32
0.0
 13
196.7508968524126
 23
-65.72219830563417
 33
0.0
  0
MTEXT
  5
35B
330
350
100
AcDbEntity
  8
치수문자_일반주서
 62
     0
100
AcDbMText
 10
192.3758968524124
 20
-36.34593206123174
 30
0.0
 40
3.5
 41
0.0
 71
     2
 72
     1
  1
\A1;%%c5.16 [13/64]
  7
SLDTEXTSTYLE0
 11
-5.508750465008646E-15
 21
1.0
 31
0.0
 73
     1
 44
1.0
  0
POINT
  5
35C
330
350
100
AcDbEntity
  8
Defpoints
 62
     0
100
AcDbPoint
 10
181.9609724084731
 20
-60.56282330563422
 30
0.0
  0
POINT
  5
35D
330
350
100
AcDbEntity
  8
Defpoints
 62
     0
100
AcDbPoint
 10
181.9609724084731
 20
-65.72219830563422
 30
0.0
  0
POINT
  5
35E
330
350
100
AcDbEntity
  8
Defpoints
 62
     0
100
AcDbPoint
 10
196.7508968524125
 20
-65.72219830563417
 30
0.0
  0
ENDBLK
  5
352
330
350
100
AcDbEntity
  8
0
100
AcDbBlockEnd
  0
BLOCK
  5
360
330
35F
100
AcDbEntity
  8
0
100
AcDbBlockBegin
  2
*D17
 70
     1
 10
0.0
 20
0.0
 30
0.0
  3
*D17
  1
*D19
  0
LINE
  5
362
330
35F
100
AcDbEntity
  8
치수문자_일반주서
 62
     0
370
    -2
100
AcDbLine
 10
181.9609724084731
 20
-60.50032330563422
 30
0.0
 11
181.9609724084731
 21
-48.37590539629345
 31
0.0
  0
LINE
  5
363
330
35F
100
AcDbEntity
  8
치수문자_일반주서
 62
     0
370
    -2
100
AcDbLine
 10
167.6734724084731
 20
-60.52629264154461
 30
0.0
 11
167.6734724084731
 21
-48.37590539629345
 31
0.0
  0
LINE
  5
364
330
35F
100
AcDbEntity
  8
치수문자_일반주서
 62
     0
370
    -2
100
AcDbLine
 10
167.6734724084731
 20
-48.37590539629345
 30
0.0
 11
133.9444724084731
 21
-48.37590539629345
 31
0.0
  0
LINE
  5
365
330
35F
100
AcDbEntity
  8
치수문자_일반주서
 62
     0
370
    -2
100
AcDbLine
 10
181.9609724084731
 20
-48.37590539629345
 30
0.0
 11
167.6734724084731
 21
-48.37590539629345
 31
0.0
  0
LINE
  5
366
330
35F
100
AcDbEntity
  8
치수문자_일반주서
 62
     0
370
    -2
100
AcDbLine
 10
185.262972408473
 20
-48.37590539629345
 30
0.0
 11
188.564972408473
 21
-48.37590539629345
 31
0.0
  0
LINE
  5
367
330
35F
100
AcDbEntity
  8
치수문자_일반주서
 62
     0
370
    -2
100
AcDbLine
 10
164.3714724084731
 20
-48.37590539629345
 30
0.0
 11
161.0694724084731
 21
-48.37590539629345
 31
0.0
  0
SOLID
  5
368
330
35F
100
AcDbEntity
  8
치수문자_일반주서
 62
     0
100
AcDbTrace
 10
185.262972408473
 20
-47.82557206296011
 30
0.0
 11
185.262972408473
 21
-48.92623872962678
 31
0.0
 12
181.9609724084731
 22
-48.37590539629345
 32
0.0
 13
181.9609724084731
 23
-48.37590539629345
 33
0.0
  0
SOLID
  5
369
330
35F
100
AcDbEntity
  8
치수문자_일반주서
 62
     0
100
AcDbTrace
 10
164.3714724084731
 20
-48.92623872962678
 30
0.0
 11
164.3714724084731
 21
-47.82557206296011
 31
0.0
 12
167.6734724084731
 22
-48.37590539629345
 32
0.0
 13
167.6734724084731
 23
-48.37590539629345
 33
0.0
  0
MTEXT
  5
36A
330
35F
100
AcDbEntity
  8
치수문자_일반주서
 62
     0
100
AcDbMText
 10
147.5069724084731
 20
-44.00090539629345
 30
0.0
 40
3.5
 41
0.0
 71
     2
 72
     1
  1
\A1;14.29 [9/16]
  7
SLDTEXTSTYLE0
 73
     1
 44
1.0
  0
POINT
  5
36B
330
35F
100
AcDbEntity
  8
Defpoints
 62
     0
100
AcDbPoint
 10
181.9609724084731
 20
-60.56282330563422
 30
0.0
  0
POINT
  5
36C
330
35F
100
AcDbEntity
  8
Defpoints
 62
     0
100
AcDbPoint
 10
167.6734724084731
 20
-60.58879264154461
 30
0.0
  0
POINT
  5
36D
330
35F
100
AcDbEntity
  8
Defpoints
 62
     0
100
AcDbPoint
 10
167.6734724084731
 20
-48.37590539629345
 30
0.0
  0
ENDBLK
  5
361
330
35F
100
AcDbEntity
  8
0
100
AcDbBlockEnd
  0
BLOCK
  5
36F
330
36E
100
AcDbEntity
  8
0
100
AcDbBlockBegin
  2
*D18
 70
     1
 10
0.0
 20
0.0
 30
0.0
  3
*D18
  1
*D20
  0
LINE
  5
371
330
36E
100
AcDbEntity
  8
치수문자_일반주서
 62
     0
370
    -2
100
AcDbLine
 10
181.9609724084731
 20
-60.50032330563422
 30
0.0
 11
181.9609724084731
 21
-35.33100519746597
 31
0.0
  0
LINE
  5
372
330
36E
100
AcDbEntity
  8
치수문자_일반주서
 62
     0
370
    -2
100
AcDbLine
 10
99.41097240847307
 20
-59.27001080563423
 30
0.0
 11
99.41097240847307
 21
-35.33100519746597
 31
0.0
  0
LINE
  5
373
330
36E
100
AcDbEntity
  8
치수문자_일반주서
 62
     0
370
    -2
100
AcDbLine
 10
178.6589724084731
 20
-35.33100519746597
 30
0.0
 11
102.7129724084731
 21
-35.33100519746597
 31
0.0
  0
SOLID
  5
374
330
36E
100
AcDbEntity
  8
치수문자_일반주서
 62
     0
100
AcDbTrace
 10
178.6589724084731
 20
-35.8813385307993
 30
0.0
 11
178.6589724084731
 21
-34.78067186413264
 31
0.0
 12
181.9609724084731
 22
-35.33100519746597
 32
0.0
 13
181.9609724084731
 23
-35.33100519746597
 33
0.0
  0
SOLID
  5
375
330
36E
100
AcDbEntity
  8
치수문자_일반주서
 62
     0
100
AcDbTrace
 10
102.7129724084731
 20
-34.78067186413264
 30
0.0
 11
102.7129724084731
 21
-35.8813385307993
 31
0.0
 12
99.41097240847307
 22
-35.33100519746597
 32
0.0
 13
99.41097240847307
 23
-35.33100519746597
 33
0.0
  0
MTEXT
  5
376
330
36E
100
AcDbEntity
  8
치수문자_일반주서
 62
     0
100
AcDbMText
 10
140.1292142498652
 20
-30.95600519746597
 30
0.0
 40
3.5
 41
0.0
 71
     2
 72
     1
  1
\A1;82.55 [3 1/4]
  7
SLDTEXTSTYLE0
 73
     1
 44
1.0
  0
POINT
  5
377
330
36E
100
AcDbEntity
  8
Defpoints
 62
     0
100
AcDbPoint
 10
181.9609724084731
 20
-60.56282330563422
 30
0.0
  0
POINT
  5
378
330
36E
100
AcDbEntity
  8
Defpoints
 62
     0
100
AcDbPoint
 10
99.41097240847307
 20
-59.33251080563423
 30
0.0
  0
POINT
  5
379
330
36E
100
AcDbEntity
  8
Defpoints
 62
     0
100
AcDbPoint
 10
99.41097240847307
 20
-35.33100519746597
 30
0.0
  0
ENDBLK
  5
370
330
36E
100
AcDbEntity
  8
0
100
AcDbBlockEnd
  0
ENDSEC
  0
SECTION
  2
ENTITIES
  0
LINE
  5
96
330
1F
100
AcDbEntity
  8
0
  6
Continuous
 62
     1
370
    15
100
AcDbLine
 10
34.63958571992171
 20
-2.579687500000002
 30
0.0
 11
36.21243164470653
 21
-2.579687500000002
 31
0.0
  0
LINE
  5
97
330
1F
100
AcDbEntity
  8
0
  6
Continuous
 62
     1
370
    15
100
AcDbLine
 10
29.1948673739949
 20
2.579687499999999
 30
0.0
 11
27.62205447083958
 21
2.579687499999999
 31
0.0
  0
LINE
  5
98
330
1F
100
AcDbEntity
  8
0
  6
Continuous
 62
     1
370
    15
100
AcDbLine
 10
36.21243164470653
 20
2.579687499999999
 30
0.0
 11
34.63958571992175
 21
2.579687499999999
 31
0.0
  0
LINE
  5
99
330
1F
100
AcDbEntity
  8
0
  6
Continuous
 62
     1
370
    15
100
AcDbLine
 10
27.62205447083956
 20
-2.579687500000002
 30
0.0
 11
29.19486737399485
 21
-2.579687500000002
 31
0.0
  0
LINE
  5
9A
330
1F
100
AcDbEntity
  8
외형선
  6
Continuous
370
    15
100
AcDbLine
 10
17.84113284660355
 20
-4.762500000000008
 30
0.0
 11
25.9875
 21
-2.579687500000001
 31
0.0
  0
LINE
  5
9B
330
1F
100
AcDbEntity
  8
외형선
  6
Continuous
370
    15
100
AcDbLine
 10
25.9875
 20
2.579687499999998
 30
0.0
 11
17.84113284660355
 21
4.762500000000006
 31
0.0
  0
LINE
  5
9C
330
1F
100
AcDbEntity
  8
외형선
  6
Continuous
370
    15
100
AcDbLine
 10
-17.84113284660352
 20
-4.762500000000004
 30
0.0
 11
17.84113284660355
 21
-4.762500000000004
 31
0.0
  0
LINE
  5
9D
330
1F
100
AcDbEntity
  8
외형선
  6
Continuous
370
    15
100
AcDbLine
 10
17.84113284660355
 20
4.762500000000002
 30
0.0
 11
4.838700000000015
 21
4.762500000000002
 31
0.0
  0
LINE
  5
A0
330
1F
100
AcDbEntity
  8
외형선
  6
Continuous
370
    15
100
AcDbLine
 10
25.9875
 20
-2.579687500000001
 30
0.0
 11
26.48742541042088
 21
-2.579687500000001
 31
0.0
  0
LINE
  5
A1
330
1F
100
AcDbEntity
  8
외형선
  6
Continuous
370
    15
100
AcDbLine
 10
26.48742541042088
 20
2.579687499999998
 30
0.0
 11
25.9875
 21
2.579687499999998
 31
0.0
  0
SPLINE
  5
A2
330
1F
100
AcDbEntity
  8
0
  6
Continuous
 62
     1
370
    15
100
AcDbSpline
210
0.0
220
0.0
230
1.0
 70
     8
 71
     3
 72
    18
 73
    14
 74
     0
 42
0.000000001
 43
0.00000001
 40
0.0
 40
0.0
 40
0.0
 40
0.0
 40
0.095739108543753
 40
0.1914545788813641
 40
0.2871587953052181
 40
0.3828641895456514
 40
0.4785831883650491
 40
0.574328161196331
 40
0.6701113682929416
 40
0.7754299278683574
 40
0.8807495149559625
 40
0.9860701627408746
 40
1.0
 40
1.0
 40
1.0
 40
1.0
 10
26.9875
 20
1.223249567387219
 30
0.0
 10
27.36848492922812
 20
1.021841270451647
 30
0.0
 10
28.13036072162885
 20
0.6190744047523442
 30
0.0
 10
29.27300313332514
 20
-0.0467734775857231
 30
0.0
 10
30.41549059971739
 20
-0.7038180758436507
 30
0.0
 10
31.55799335231029
 20
-1.316615882296484
 30
0.0
 10
32.70069098307691
 20
-1.843281472672626
 30
0.0
 10
33.84376127063756
 20
-2.250385640649635
 30
0.0
 10
35.02512224053005
 20
-2.518606214979124
 30
0.0
 10
36.24473790436053
 20
-2.616531982139219
 30
0.0
 10
37.50227399505965
 20
-2.49602828655578
 30
0.0
 10
38.39608688046083
 20
-2.311864796579139
 30
0.0
 10
38.87071673726534
 20
-2.130417723582604
 30
0.0
 10
38.92615899950157
 20
-2.10922260477824
 30
0.0
  0
SPLINE
  5
A3
330
1F
100
AcDbEntity
  8
외형선
  6
Continuous
370
    15
100
AcDbSpline
210
0.0
220
0.0
230
1.0
 70
    24
 71
     3
 72
    13
 73
     9
 74
     0
 42
0.000000001
 43
0.00000001
 40
0.0
 40
0.0
 40
0.0
 40
0.0
 40
0.184709821744561
 40
0.3746158538173229
 40
0.5620154587041476
 40
0.7548496648280412
 40
0.9422492697148611
 40
1.0
 40
1.0
 40
1.0
 40
1.0
 10
26.98750000000002
 20
2.553718164089612
 30
0.0
 10
26.98750000000002
 20
2.46962835531193
 30
0.0
 10
26.98750000000003
 20
2.299083144369384
 30
0.0
 10
26.98749999999995
 20
2.041553417783219
 30
0.0
 10
26.98750000000019
 20
1.787639842336865
 30
0.0
 10
26.98749999999992
 20
1.551387318653245
 30
0.0
 10
26.9875
 20
1.379258210835425
 30
0.0
 10
26.98749999999998
 20
1.299203754102067
 30
0.0
 10
26.98749999999996
 20
1.280345108301365
 30
0.0
  0
SPLINE
  5
A4
330
1F
100
AcDbEntity
  8
0
  6
Continuous
 62
     1
370
    15
100
AcDbSpline
210
0.0
220
0.0
230
1.0
 70
     8
 71
     3
 72
    52
 73
    48
 74
     0
 42
0.000000001
 43
0.00000001
 40
0.0
 40
0.0
 40
0.0
 40
0.0
 40
0.0624999999999992
 40
0.0624999999999992
 40
0.1249999999999984
 40
0.1249999999999984
 40
0.1562499999999991
 40
0.1562499999999991
 40
0.1874999999999998
 40
0.1874999999999998
 40
0.2499999999999989
 40
0.2499999999999989
 40
0.2812499999999986
 40
0.2812499999999986
 40
0.3124999999999981
 40
0.3124999999999981
 40
0.3437499999999977
 40
0.3437499999999977
 40
0.3749999999999973
 40
0.3749999999999973
 40
0.4374999999999943
 40
0.4374999999999943
 40
0.4687499999999927
 40
0.4687499999999927
 40
0.4999999999999912
 40
0.4999999999999912
 40
0.5624999999999905
 40
0.5624999999999905
 40
0.6249999999999896
 40
0.6249999999999896
 40
0.6874999999999888
 40
0.6874999999999888
 40
0.749999999999988
 40
0.749999999999988
 40
0.7812499999999887
 40
0.7812499999999887
 40
0.8124999999999893
 40
0.8124999999999893
 40
0.8749999999999929
 40
0.8749999999999929
 40
0.9062499999999947
 40
0.9062499999999947
 40
0.9374999999999963
 40
0.9374999999999963
 40
0.9687499999999982
 40
0.9687499999999982
 40
1.0
 40
1.0
 40
1.0
 40
1.0
 10
41.27499999999998
 20
-2.579687499999995
 30
0.0
 10
40.98034769893827
 20
-2.555525140191467
 30
0.0
 10
40.6793306583513
 20
-2.523577681806447
 30
0.0
 10
40.08238536562283
 20
-2.426605291650343
 30
0.0
 10
39.78855499867895
 20
-2.36192753503783
 30
0.0
 10
39.34002480965077
 20
-2.241449649970861
 30
0.0
 10
39.19019304182818
 20
-2.197443183075806
 30
0.0
 10
38.89212947772015
 20
-2.102418737663578
 30
0.0
 10
38.74493061471116
 20
-2.05153182837031
 30
0.0
 10
38.30051853532036
 20
-1.888620419099941
 30
0.0
 10
37.99912607411306
 20
-1.766006638463314
 30
0.0
 10
37.55277891401635
 20
-1.566458556167123
 30
0.0
 10
37.40592630593392
 20
-1.497524793642331
 30
0.0
 10
37.10897186322787
 20
-1.354418591132811
 30
0.0
 10
36.95937405787704
 20
-1.280310185128714
 30
0.0
 10
36.66016905673101
 20
-1.12805813451983
 30
0.0
 10
36.51056559796948
 20
-1.049916391022758
 30
0.0
 10
36.21358882174974
 20
-0.8907972448688829
 30
0.0
 10
36.06674220805689
 20
-0.8099247950131356
 30
0.0
 10
35.62042384976875
 20
-0.5626253858448099
 30
0.0
 10
35.31902810879328
 20
-0.3921709479664907
 30
0.0
 10
34.87457786426727
 20
-0.1357171137875905
 30
0.0
 10
34.72739697843348
 20
-0.0500519659046757
 30
0.0
 10
34.42934946391945
 20
0.1218687755893479
 30
0.0
 10
34.27952013933814
 20
0.2079237319254769
 30
0.0
 10
33.83098035343463
 20
0.4644361059558835
 30
0.0
 10
33.53713931804496
 20
0.632502699882002
 30
0.0
 10
32.94021978894438
 20
0.9597429041331738
 30
0.0
 10
32.63919292266817
 20
1.118453992857609
 30
0.0
 10
32.04982515272262
 20
1.416819368710992
 30
0.0
 10
31.74888109013272
 20
1.558583105125474
 30
0.0
 10
31.15191025747652
 20
1.818675128196118
 30
0.0
 10
30.85809018977844
 20
1.936827026954775
 30
0.0
 10
30.40956976643034
 20
2.094597391445175
 30
0.0
 10
30.25973561203784
 20
2.143808025777088
 30
0.0
 10
29.96165610967389
 20
2.234755200202364
 30
0.0
 10
29.81443884761862
 20
2.276407694579571
 30
0.0
 10
29.37006509702704
 20
2.390113820089989
 30
0.0
 10
29.0686760310852
 20
2.450837957605548
 30
0.0
 10
28.62230023525245
 20
2.516493200585141
 30
0.0
 10
28.47544121047953
 20
2.534150683109037
 30
0.0
 10
28.17850921124145
 20
2.561133620841567
 30
0.0
 10
28.02891711567717
 20
2.570415112153527
 30
0.0
 10
27.72971222729995
 20
2.580354384513055
 30
0.0
 10
27.58010317151074
 20
2.581012038200423
 30
0.0
 10
27.28310417175942
 20
2.573756938431124
 30
0.0
 10
27.13626313014788
 20
2.565878717532305
 30
0.0
 10
26.98750000000019
 20
2.553718164088148
 30
0.0
  0
SPLINE
  5
A5
330
1F
100
AcDbEntity
  8
0
  6
Continuous
 62
     1
370
    15
100
AcDbSpline
210
0.0
220
0.0
230
1.0
 70
     8
 71
     3
 72
    12
 73
     8
 74
     0
 42
0.000000001
 43
0.00000001
 40
0.0
 40
0.0
 40
0.0
 40
0.0
 40
0.2324080888950095
 40
0.4647587956982292
 40
0.6970821834608952
 40
0.9294084303905663
 40
0.9999999999999999
 40
0.9999999999999999
 40
0.9999999999999999
 40
0.9999999999999999
 10
26.98750000000002
 20
-2.271221718270416
 30
0.0
 10
27.36848497526436
 20
-2.361011539561735
 30
0.0
 10
28.13036085972621
 20
-2.540569012830937
 30
0.0
 10
29.27300258112198
 20
-2.607428694791237
 30
0.0
 10
30.41549267023524
 20
-2.505448716461298
 30
0.0
 10
31.29282622680943
 20
-2.327842741515982
 30
0.0
 10
31.78937237388105
 20
-2.146930064721275
 30
0.0
 10
31.90508683500379
 20
-2.104770412433098
 30
0.0
  0
SPLINE
  5
A6
330
1F
100
AcDbEntity
  8
외형선
  6
Continuous
370
    15
100
AcDbSpline
210
0.0
220
0.0
230
1.0
 70
    24
 71
     3
 72
    21
 73
    17
 74
     0
 42
0.000000001
 43
0.00000001
 40
0.0
 40
0.0
 40
0.0
 40
0.0
 40
0.0061485661429135
 40
0.0812689918329038
 40
0.1585679149569224
 40
0.2336883406469105
 40
0.310987263770927
 40
0.3861076894610024
 40
0.4634066125849358
 40
0.5385270382748515
 40
0.61582596139879
 40
0.6909463870888549
 40
0.7682453102129553
 40
0.8433657359027994
 40
0.920664659026964
 40
1.0
 40
1.0
 40
1.0
 40
1.0
 10
26.9875
 20
0.3651179755402099
 30
0.0
 10
26.9875
 20
0.3645591427765657
 30
0.0
 10
26.98750000000006
 20
0.3571727417443673
 30
0.0
 10
26.98750000000005
 20
0.3021805489672302
 30
0.0
 10
26.98749999999995
 20
0.1992147239912083
 30
0.0
 10
26.9875
 20
0.0517351129296515
 30
0.0
 10
26.98749999999993
 20
-0.1274729042035917
 30
0.0
 10
26.98749999999996
 20
-0.3381611097216629
 30
0.0
 10
26.98750000000002
 20
-0.570147460829702
 30
0.0
 10
26.98750000000005
 20
-0.8211517176655583
 30
0.0
 10
26.9875
 20
-1.079535865979796
 30
0.0
 10
26.98750000000003
 20
-1.342589108233228
 30
0.0
 10
26.9875
 20
-1.598337464388606
 30
0.0
 10
26.98749999999995
 20
-1.843366198515584
 30
0.0
 10
26.9874999999999
 20
-2.073416758117358
 30
0.0
 10
26.98749999999999
 20
-2.204717712573456
 30
0.0
 10
26.98750000000002
 20
-2.271221718270417
 30
0.0
  0
SPLINE
  5
A7
330
1F
100
AcDbEntity
  8
0
  6
Continuous
 62
     1
370
    15
100
AcDbSpline
210
0.0
220
0.0
230
1.0
 70
     8
 71
     3
 72
    14
 73
    10
 74
     0
 42
0.000000001
 43
0.00000001
 40
0.0
 40
0.0
 40
0.0
 40
0.0
 40
0.0290721249183831
 40
0.1784265835580083
 40
0.3427393707643414
 40
0.5070530528394258
 40
0.6713676829957009
 40
0.8356833143661728
 40
1.0
 40
1.0
 40
1.0
 40
1.0
 10
34.63958571992171
 20
-2.566494785614439
 30
0.0
 10
34.56544597130826
 20
-2.570610802794982
 30
0.0
 10
34.11042240188961
 20
-2.59587235094298
 30
0.0
 10
33.23639714541611
 20
-2.472889461473001
 30
0.0
 10
32.01708107173092
 20
-2.179066438298702
 30
0.0
 10
30.75971875308016
 20
-1.687565704113691
 30
0.0
 10
29.5023160642931
 20
-1.068377424055858
 30
0.0
 10
28.24491274056814
 20
-0.3618647511969156
 30
0.0
 10
27.40663847659336
 20
0.1227898816983951
 30
0.0
 10
26.98750000000019
 20
0.3651179755401061
 30
0.0
  0
LINE
  5
A8
330
1F
100
AcDbEntity
  8
0
  6
Continuous
 62
     1
370
    15
100
AcDbLine
 10
41.27499999999998
 20
-2.336374855658184
 30
0.0
 11
41.27499999999998
 21
0.2210311056582116
 31
0.0
  0
SPLINE
  5
A9
330
1F
100
AcDbEntity
  8
0
  6
Continuous
 62
     1
370
    15
100
AcDbSpline
210
0.0
220
0.0
230
1.0
 70
     8
 71
     3
 72
    18
 73
    14
 74
     0
 42
0.000000001
 43
0.00000001
 40
0.0
 40
0.0
 40
0.0
 40
0.0
 40
0.0064724344656562
 40
0.1010596644580213
 40
0.1956480585203912
 40
0.2902498983794828
 40
0.3848774091016538
 40
0.4795427078480453
 40
0.5836320697305538
 40
0.6877224471329152
 40
0.7918138728529356
 40
0.8959063796015088
 40
1.0
 40
1.0
 40
1.0
 40
1.0
 10
29.1948673739949
 20
2.574331807022228
 30
0.0
 10
29.22092642064664
 20
2.576095273994915
 30
0.0
 10
29.62780864165568
 20
2.603629794659155
 30
0.0
 10
30.41548777581702
 20
2.499639599185279
 30
0.0
 10
31.55799410915117
 20
2.254359633943374
 30
0.0
 10
32.70069077997626
 20
1.844074454957946
 30
0.0
 10
33.84376132596616
 20
1.318576335609962
 30
0.0
 10
35.02512221998884
 20
0.6857096168581726
 30
0.0
 10
36.24473792710231
 20
-0.0188496820190526
 30
0.0
 10
37.50227392597967
 20
-0.7448084223926519
 30
0.0
 10
38.7598366796851
 20
-1.408629758585384
 30
0.0
 10
40.01741182741413
 20
-1.974821013998496
 30
0.0
 10
40.85580244753722
 20
-2.215856478648001
 30
0.0
 10
41.27499999999998
 20
-2.336374855658183
 30
0.0
  0
SPLINE
  5
AA
330
1F
100
AcDbEntity
  8
0
  6
Continuous
 62
     1
370
    15
100
AcDbSpline
210
0.0
220
0.0
230
1.0
 70
     8
 71
     3
 72
    16
 73
    12
 74
     0
 42
0.000000001
 43
0.00000001
 40
0.0
 40
0.0
 40
0.0
 40
0.0
 40
0.1220823241247943
 40
0.2441050754694512
 40
0.3660837383930997
 40
0.4880339820754294
 40
0.6099715952628537
 40
0.7319124199500532
 40
0.853872284586173
 40
0.9880468212434351
 40
1.0
 40
1.0
 40
1.0
 40
1.0
 10
41.27499999999998
 20
0.2210311056582117
 30
0.0
 10
40.89363785056831
 20
0.4388534093384313
 30
0.0
 10
40.13109964583156
 20
0.8743917254703965
 30
0.0
 10
38.98767175770059
 20
1.467046986776294
 30
0.0
 10
37.84472944650069
 20
1.965055776391616
 30
0.0
 10
36.70210740933398
 20
2.335128126524955
 30
0.0
 10
35.55963262843526
 20
2.552267547307324
 30
0.0
 10
34.41709924679207
 20
2.607133241971392
 30
0.0
 10
33.23639989748391
 20
2.473710776337212
 30
0.0
 10
32.398889707545
 20
2.296178939563014
 30
0.0
 10
31.94242540167228
 20
2.119243637374805
 30
0.0
 10
31.90508683500382
 20
2.104770412433095
 30
0.0
  0
LINE
  5
AB
330
1F
100
AcDbEntity
  8
외형선
  6
Continuous
370
    15
100
AcDbLine
 10
26.9875
 20
0.3651179755399703
 30
0.0
 11
26.98750000000002
 21
1.223249567387216
 31
0.0
  0
LINE
  5
AC
330
1F
100
AcDbEntity
  8
0
  6
Continuous
 62
     1
370
    15
100
AcDbLine
 10
41.27499999999998
 20
-2.579687499999995
 30
0.0
 11
41.27499999999998
 21
-2.336374855658184
 31
0.0
  0
SPLINE
  5
AD
330
1F
100
AcDbEntity
  8
0
  6
Continuous
 62
     1
370
    15
100
AcDbSpline
210
0.0
220
0.0
230
1.0
 70
     8
 71
     3
 72
    12
 73
     8
 74
     0
 42
0.000000001
 43
0.00000001
 40
0.0
 40
0.0
 40
0.0
 40
0.0
 40
0.0063792907558906
 40
0.2547806375000803
 40
0.5031844859502376
 40
0.7515909141676613
 40
0.9999999999999999
 40
0.9999999999999999
 40
0.9999999999999999
 40
0.9999999999999999
 10
36.21243164470653
 20
2.577146900436412
 30
0.0
 10
36.22319678930339
 20
2.577990835701282
 30
0.0
 10
36.65314276733227
 20
2.611696520709295
 30
0.0
 10
37.50227602276956
 20
2.491097388101498
 30
0.0
 10
38.75983612053246
 20
2.203469379408744
 30
0.0
 10
40.01741196720463
 20
1.725012250900387
 30
0.0
 10
40.85580249413422
 20
1.304126110875484
 30
0.0
 10
41.27499999999998
 20
1.093681915140052
 30
0.0
  0
LINE
  5
AE
330
1F
100
AcDbEntity
  8
0
  6
Continuous
 62
     1
370
    15
100
AcDbLine
 10
41.27499999999998
 20
0.2210311056582116
 30
0.0
 11
41.27499999999998
 21
1.093681915140052
 31
0.0
  0
SPLINE
  5
AF
330
1F
100
AcDbEntity
  8
0
  6
Continuous
 62
     1
370
    15
100
AcDbSpline
210
0.0
220
0.0
230
1.0
 70
     8
 71
     3
 72
    10
 73
     6
 74
     0
 42
0.000000001
 43
0.00000001
 40
0.0
 40
0.0
 40
0.0
 40
0.0
 40
0.4870497373978576
 40
0.9738618080644338
 40
0.9999999999999999
 40
0.9999999999999999
 40
0.9999999999999999
 40
0.9999999999999999
 10
41.27499999999998
 20
2.579687500000005
 30
0.0
 10
40.8936392921612
 20
2.532391783300703
 30
0.0
 10
40.13110396990673
 20
2.456791929050719
 30
0.0
 10
39.34818642662755
 20
2.271522742437055
 30
0.0
 10
38.94662138150856
 20
2.117091873937289
 30
0.0
 10
38.92615899950159
 20
2.109222604778237
 30
0.0
  0
LINE
  5
B0
330
1F
100
AcDbEntity
  8
0
  6
Continuous
 62
     1
370
    15
100
AcDbLine
 10
27.62205447083956
 20
-2.554194431711268
 30
0.0
 11
26.98750000000019
 21
-2.553718164088151
 31
0.0
  0
LINE
  5
B1
330
1F
100
AcDbEntity
  8
0
  6
Continuous
 62
     1
370
    15
100
AcDbLine
 10
41.27499999999998
 20
1.0806958495536
 30
0.0
 11
41.27499999999998
 21
2.579687500000005
 31
0.0
  0
LINE
  5
B2
330
1F
100
AcDbEntity
  8
외형선
  6
Continuous
370
    15
100
AcDbLine
 10
26.9875
 20
-2.553718164089615
 30
0.0
 11
26.98750000000002
 21
-2.271221718270417
 31
0.0
  0
LINE
  5
B3
330
1F
100
AcDbEntity
  8
외형선
  6
Continuous
370
    15
100
AcDbLine
 10
25.9875
 20
-0.0000000000000015
 30
0.0
 11
25.9875
 21
2.579687499999998
 31
0.0
  0
LINE
  5
B4
330
1F
100
AcDbEntity
  8
외형선
  6
Continuous
370
    15
100
AcDbLine
 10
25.9875
 20
-2.579687500000001
 30
0.0
 11
25.9875
 21
-0.0000000000000015
 31
0.0
  0
LINE
  5
B5
330
1F
100
AcDbEntity
  8
외형선
  6
Continuous
370
    15
100
AcDbLine
 10
17.84113284660355
 20
-0.0000000000000015
 30
0.0
 11
17.84113284660355
 21
4.762500000000006
 31
0.0
  0
LINE
  5
B6
330
1F
100
AcDbEntity
  8
외형선
  6
Continuous
370
    15
100
AcDbLine
 10
17.84113284660355
 20
-4.762500000000008
 30
0.0
 11
17.84113284660355
 21
-0.0000000000000015
 31
0.0
  0
SPLINE
  5
BB
330
1F
100
AcDbEntity
  8
외형선
  6
Continuous
370
    15
100
AcDbSpline
210
0.0
220
0.0
230
1.0
 70
     8
 71
     3
 72
     8
 73
     4
 74
     0
 42
0.000000001
 43
0.00000001
 40
0.0
 40
0.0
 40
0.0
 40
0.0
 40
1.0
 40
1.0
 40
1.0
 40
1.0
 10
26.98750000000002
 20
2.553718164088133
 30
0.0
 10
26.82149680426746
 20
2.540148331753985
 30
0.0
 10
26.65428653520945
 20
2.521238063953591
 30
0.0
 10
26.48742541042085
 20
2.497136564892832
 30
0.0
  0
LINE
  5
BC
330
1F
100
AcDbEntity
  8
외형선
  6
Continuous
370
    15
100
AcDbLine
 10
26.48742541042087
 20
1.468682479201897
 30
0.0
 11
26.48742541042088
 21
2.579687499999998
 31
0.0
  0
SPLINE
  5
BD
330
1F
100
AcDbEntity
  8
외형선
  6
Continuous
370
    15
100
AcDbSpline
210
0.0
220
0.0
230
1.0
 70
     8
 71
     3
 72
     8
 73
     4
 74
     0
 42
0.000000001
 43
0.00000001
 40
0.0
 40
0.0
 40
0.0
 40
0.0
 40
1.0
 40
1.0
 40
1.0
 40
1.0
 10
26.9875
 20
1.223249567387219
 30
0.0
 10
26.82149680426745
 20
1.307660908310672
 30
0.0
 10
26.65428653520947
 20
1.389733951739722
 30
0.0
 10
26.48742541042088
 20
1.468689758709554
 30
0.0
  0
SPLINE
  5
BE
330
1F
100
AcDbEntity
  8
외형선
  6
Continuous
370
    15
100
AcDbSpline
210
0.0
220
0.0
230
1.0
 70
     8
 71
     3
 72
     8
 73
     4
 74
     0
 42
0.000000001
 43
0.00000001
 40
0.0
 40
0.0
 40
0.0
 40
0.0
 40
1.0
 40
1.0
 40
1.0
 40
1.0
 10
26.98750000000002
 20
0.3651179755402078
 30
0.0
 10
26.82149680426746
 20
0.4600284692349456
 30
0.0
 10
26.65428653520945
 20
0.554409584045567
 30
0.0
 10
26.48742541042085
 20
0.647376686274284
 30
0.0
  0
LINE
  5
BF
330
1F
100
AcDbEntity
  8
외형선
  6
Continuous
370
    15
100
AcDbLine
 10
26.48742541042087
 20
-2.120792156940796
 30
0.0
 11
26.48742541042088
 21
0.6473929871322923
 31
0.0
  0
SPLINE
  5
C0
330
1F
100
AcDbEntity
  8
외형선
  6
Continuous
370
    15
100
AcDbSpline
210
0.0
220
0.0
230
1.0
 70
     8
 71
     3
 72
     8
 73
     4
 74
     0
 42
0.000000001
 43
0.00000001
 40
0.0
 40
0.0
 40
0.0
 40
0.0
 40
1.0
 40
1.0
 40
1.0
 40
1.0
 10
26.9875
 20
-2.271221718270416
 30
0.0
 10
26.82149680426745
 20
-2.225758901744593
 30
0.0
 10
26.65428653520947
 20
-2.175465675526026
 30
0.0
 10
26.48742541042088
 20
-2.120787115746865
 30
0.0
  0
SPLINE
  5
C1
330
1F
100
AcDbEntity
  8
외형선
  6
Continuous
370
    15
100
AcDbSpline
210
0.0
220
0.0
230
1.0
 70
     8
 71
     3
 72
     8
 73
     4
 74
     0
 42
0.000000001
 43
0.00000001
 40
0.0
 40
0.0
 40
0.0
 40
0.0
 40
1.0
 40
1.0
 40
1.0
 40
1.0
 10
26.98750000000002
 20
-2.553718164088136
 30
0.0
 10
26.82149680426746
 20
-2.540148331753989
 30
0.0
 10
26.65428653520945
 20
-2.521238063953594
 30
0.0
 10
26.48742541042085
 20
-2.497136564892835
 30
0.0
  0
LINE
  5
C2
330
1F
100
AcDbEntity
  8
외형선
  6
Continuous
370
    15
100
AcDbLine
 10
26.48742541042088
 20
-2.579687500000001
 30
0.0
 11
26.48742541042088
 21
-2.497132338877575
 31
0.0
  0
SPLINE
  5
C3
330
1F
100
AcDbEntity
  8
외형선
  6
Continuous
370
    15
100
AcDbSpline
210
0.0
220
0.0
230
1.0
 70
    24
 71
     3
 72
    14
 73
    10
 74
     0
 42
0.000000001
 43
0.00000001
 40
0.0
 40
0.0
 40
0.0
 40
0.0
 40
0.1313875371296353
 40
0.281250416225466
 40
0.4311132953216171
 40
0.5809761744176083
 40
0.7308390535135986
 40
0.8807019326095855
 40
1.0
 40
1.0
 40
1.0
 40
1.0
 10
26.98750000000002
 20
-2.271221718270418
 30
0.0
 10
26.9875
 20
-2.155462698606698
 30
0.0
 10
26.98749999999996
 20
-1.907666955010789
 30
0.0
 10
26.98750000000005
 20
-1.421259522214582
 30
0.0
 10
26.98750000000005
 20
-0.8937412619097777
 30
0.0
 10
26.9875
 20
-0.3928119341199214
 30
0.0
 10
26.98749999999998
 20
0.015565357788811
 30
0.0
 10
26.9875
 20
0.2906157908919217
 30
0.0
 10
26.9875
 20
0.339141515870666
 30
0.0
 10
26.9875
 20
0.3606491873373193
 30
0.0
  0
SPLINE
  5
C4
330
1F
100
AcDbEntity
  8
외형선
  6
Continuous
370
    15
100
AcDbSpline
210
0.0
220
0.0
230
1.0
 70
    24
 71
     3
 72
    13
 73
     9
 74
     0
 42
0.000000001
 43
0.00000001
 40
0.0
 40
0.0
 40
0.0
 40
0.0
 40
0.1849527947781419
 40
0.3783231912712655
 40
0.5662438751998513
 40
0.7596142716930185
 40
0.8791271671557226
 40
1.0
 40
1.0
 40
1.0
 40
1.0
 10
26.98749999999998
 20
1.280335108301365
 30
0.0
 10
26.98749999999998
 20
1.346260051447245
 30
0.0
 10
26.98749999999999
 20
1.481110324487152
 30
0.0
 10
26.98750000000002
 20
1.713816061503301
 30
0.0
 10
26.9875
 20
1.964503472297609
 30
0.0
 10
26.98749999999999
 20
2.191994062635747
 30
0.0
 10
26.98749999999998
 20
2.390258769356551
 30
0.0
 10
26.98750000000002
 20
2.49902658796813
 30
0.0
 10
26.98750000000003
 20
2.553718164088175
 30
0.0
  0
LINE
  5
C5
330
1F
100
AcDbEntity
  8
중심선
 48
0.8
100
AcDbLine
 10
-44.27500000000001
 20
-0.0000000000000054
 30
0.0
 11
44.27500000000001
 21
0.0000000000000054
 31
0.0
  0
LINE
  5
C6
330
1F
100
AcDbEntity
  8
참조1
100
AcDbLine
 10
1.780880657015621
 20
0.0010749287238892
 30
0.0
 11
1.780880657015621
 21
-39.99892507127611
 31
0.0
  0
LINE
  5
C7
330
1F
100
AcDbEntity
  8
참조1
100
AcDbLine
 10
1.780880657015621
 20
-39.99892507127611
 30
0.0
 11
-29.25297615729306
 21
-39.9989250712761
 31
0.0
  0
CIRCLE
  5
C8
330
1F
100
AcDbEntity
  8
해칭선
100
AcDbCircle
 10
0.0
 20
0.0
 30
0.0
 40
3.000000000000008
  0
INSERT
  5
C9
330
1F
100
AcDbEntity
  8
0
  6
Continuous
 62
     7
100
AcDbBlockReference
 66
     1
  2
블럭10
 10
-13.9402729321252
 20
-52.04717430164393
 30
0.0
  0
ATTRIB
  5
CA
330
C9
100
AcDbEntity
  8
FORMAT
 62
     2
100
AcDbText
 10
-23.12156822086649
 20
-49.97180738881174
 30
0.0
 40
4.233333333333333
  1
E2053013 [ 4 FLUTE ]
 41
0.75
  7
SLDTEXTSTYLE0
 11
-23.12156822086649
 21
-52.08847405547841
 31
0.0
100
AcDbAttribute
  2
AUTOATTR0
 70
     0
 74
     1
  0
SEQEND
  5
CB
330
C9
100
AcDbEntity
  8
0
  6
Continuous
 62
     7
  0
HATCH
  5
CC
330
1F
100
AcDbEntity
  8
중심선
100
AcDbHatch
 10
0.0
 20
0.0
 30
0.0
210
0.0
220
0.0
230
1.0
  2
SOLID
 70
     1
 71
     0
 91
        1
 92
        0
 93
        4
 72
     1
 10
-8.225363627744365
 20
-35.8
 11
-11.67163887158165
 21
-35.8
 72
     1
 10
-11.67163887158165
 20
-35.8
 11
-13.79986873078567
 21
-38.3363255805726
 72
     1
 10
-13.79986873078567
 20
-38.3363255805726
 11
-10.35356040183524
 21
-38.33628615127011
 72
     1
 10
-10.35356040183524
 20
-38.33628615127011
 11
-8.225363627744365
 21
-35.8
 97
        0
 75
     0
 76
     1
 98
        1
 10
-1.780880657015615
 20
-0.0010749287238947
  0
HATCH
  5
CD
330
1F
100
AcDbEntity
  8
중심선
100
AcDbHatch
 10
0.0
 20
0.0
 30
0.0
210
0.0
220
0.0
230
1.0
  2
SOLID
 70
     1
 71
     0
 91
        1
 92
        0
 93
        4
 72
     1
 10
-3.212599636708357
 20
-35.8
 11
-6.658874880545667
 21
-35.8
 72
     1
 10
-6.658874880545667
 20
-35.8
 11
-11.19001288890308
 21
-41.20000000000002
 72
     1
 10
-11.19001288890308
 20
-41.20000000000002
 11
-7.743737645065801
 21
-41.20000000000002
 72
     1
 10
-7.743737645065801
 20
-41.20000000000002
 11
-3.212599636708357
 21
-35.8
 97
        0
 75
     0
 76
     1
 98
        1
 10
-1.780880657015615
 20
-0.0010749287238947
  0
HATCH
  5
CE
330
1F
100
AcDbEntity
  8
중심선
100
AcDbHatch
 10
0.0
 20
0.0
 30
0.0
210
0.0
220
0.0
230
1.0
  2
SOLID
 70
     1
 71
     0
 91
        1
 92
        0
 93
        4
 72
     1
 10
1.800164354327483
 20
-35.79999999999998
 11
-1.646110889509605
 21
-35.79999999999998
 72
     1
 10
-1.646110889509605
 20
-35.79999999999998
 11
-8.694547791398882
 21
-44.20000000000002
 72
     1
 10
-8.694547791398882
 20
-44.20000000000002
 11
-5.248272547561601
 21
-44.20000000000002
 72
     1
 10
-5.2482725475616
 20
-44.20000000000002
 11
1.800164354327483
 21
-35.79999999999998
 97
        0
 75
     0
 76
     1
 98
        1
 10
-1.780880657015615
 20
-0.0010749287238947
  0
HATCH
  5
CF
330
1F
100
AcDbEntity
  8
중심선
100
AcDbHatch
 10
0.0
 20
0.0
 30
0.0
210
0.0
220
0.0
230
1.0
  2
SOLID
 70
     1
 71
     0
 91
        1
 92
        0
 93
        6
 72
     3
 10
6.600054785339683
 20
-40.00000000005127
 11
3.960054785062283
 21
1.540882976769353E-10
 40
0.3939339440162628
 50
17.09539180608436
 51
320.0019657685078
 73
     0
 72
     1
 10
8.283054441040278
 20
-38.5878940046383
 11
10.58835631474131
 21
-36.65356729459035
 72
     3
 10
6.600054785286837
 20
-40.00000000000015
 11
6.600054785286829
 21
-1.278976924368180E-13
 40
0.636358354079598
 50
39.99873849337431
 51
368.4976242363724
 73
     1
 72
     1
 10
13.02538727718744
 20
-39.03999999993002
 11
5.280122092122758
 21
-39.03999999993002
 72
     1
 10
5.280122092122758
 20
-39.03999999993002
 11
5.280097047676824
 21
-40.95999999992991
 72
     1
 10
5.280097047676824
 20
-40.95999999992991
 11
9.721476817148861
 21
-40.95999999992988
 97
        0
 75
     0
 76
     1
 98
        1
 10
-1.780880657015615
 20
-0.0010749287238947
  0
DIMENSION
  5
D0
330
1F
100
AcDbEntity
  8
치수문자_일반주서
100
AcDbDimension
  2
_D
 10
56.06492444393943
 20
-2.579687499999942
 30
0.0
 11
56.06492444393931
 21
26.7965787444025
 31
0.0
 70
   160
  1
%%c<>
 71
     2
 42
5.159375
 52
-270.0
  3
SLDDIMSTYLE0
100
AcDbAlignedDimension
 13
41.27499999999998
 23
2.579687500000005
 33
0.0
 14
41.27499999999998
 24
-2.579687499999995
 34
0.0
 50
90.0000000000002
100
AcDbRotatedDimension
1001
ACAD
1000
DSTYLE
1002
{
1070
   171
1070
     6
1070
   273
1070
     7
1002
}
  0
DIMENSION
  5
E5
330
1F
100
AcDbEntity
  8
치수문자_일반주서
100
AcDbDimension
  2
_D_1
 10
26.9875
 20
14.76660540934078
 30
0.0
 11
6.821000000000005
 21
14.76660540934078
 31
0.0
 70
   160
  1
<>
 71
     2
 42
14.28749999999997
  3
SLDDIMSTYLE0
100
AcDbAlignedDimension
 13
41.27499999999998
 23
2.579687500000005
 33
0.0
 14
26.9875
 24
2.553718164089612
 34
0.0
100
AcDbRotatedDimension
1001
ACAD
1000
DSTYLE
1002
{
1070
   171
1070
     6
1070
   273
1070
     7
1002
}
  0
DIMENSION
  5
FA
330
1F
100
AcDbEntity
  8
치수문자_일반주서
100
AcDbDimension
  2
_D_2
 10
-41.27499999999998
 20
27.81150560816825
 30
0.0
 11
-0.5567581586078916
 21
27.81150560816825
 31
0.0
 70
   160
  1
<>
 71
     2
 42
82.54999999999995
  3
SLDDIMSTYLE0
100
AcDbAlignedDimension
 13
41.27499999999998
 23
2.579687500000005
 33
0.0
 14
-41.27499999999998
 24
2.579687500000013
 34
0.0
100
AcDbRotatedDimension
1001
ACAD
1000
DSTYLE
1002
{
1070
   171
1070
     6
1070
   273
1070
     7
1002
}
  0
DIMENSION
  5
10D
330
1F
100
AcDbEntity
  8
치수문자_일반주서
100
AcDbDimension
  2
_D_3
 10
-53.79874999999999
 20
-4.762500000000138
 30
0.0
 11
-53.79875000000001
 21
0.0000000000000011
 31
0.0
 70
   160
  1
%%c<>
 71
     2
 42
9.525000000000006
 52
-270.0
  3
SLDDIMSTYLE0
100
AcDbAlignedDimension
 13
-17.84113284660358
 23
4.762500000000002
 33
0.0
 14
-17.84113284660352
 24
-4.762500000000004
 34
0.0
 50
90.0000000000002
100
AcDbRotatedDimension
1001
ACAD
1000
DSTYLE
1002
{
1070
   171
1070
     6
1070
   273
1070
     7
1002
}
  0
LINE
  5
121
330
1F
100
AcDbEntity
  8
참조1
100
AcDbLine
 10
68.7193644723612
 20
7.441074928723896
 30
0.0
 11
68.7193644723612
 21
-7.438925071276109
 31
0.0
  0
LINE
  5
122
330
1F
100
AcDbEntity
  8
참조1
100
AcDbLine
 10
81.41936447236121
 20
5.441074928723896
 30
0.0
 11
68.7193644723612
 21
5.441074928723896
 31
0.0
  0
SOLID
  5
123
330
1F
100
AcDbEntity
  8
참조1
100
AcDbTrace
 10
68.7193644723612
 20
5.441074928723896
 30
0.0
 11
75.0693644723612
 21
4.425074928723896
 31
0.0
 12
75.0693644723612
 22
6.457074928723896
 32
0.0
 13
75.0693644723612
 23
6.457074928723896
 33
0.0
  0
LINE
  5
124
330
1F
100
AcDbEntity
  8
참조1
100
AcDbLine
 10
81.41936447236121
 20
-5.438925071276109
 30
0.0
 11
68.7193644723612
 21
-5.438925071276109
 31
0.0
  0
SOLID
  5
125
330
1F
100
AcDbEntity
  8
참조1
100
AcDbTrace
 10
68.7193644723612
 20
-5.438925071276109
 30
0.0
 11
75.0693644723612
 21
-6.454925071276109
 31
0.0
 12
75.0693644723612
 22
-4.422925071276109
 32
0.0
 13
75.0693644723612
 23
-4.422925071276109
 33
0.0
  0
MTEXT
  5
126
330
1F
100
AcDbEntity
  8
참조1
100
AcDbMText
 10
78.1037146049872
 20
11.01136670591223
 30
0.0
 40
3.5
 41
0.0
 71
     1
 72
     1
  1
A
  7
SLDTEXTSTYLE0
 73
     1
 44
1.0
  0
MTEXT
  5
127
330
1F
100
AcDbEntity
  8
참조1
100
AcDbMText
 10
78.1037146049872
 20
0.1313667059122219
 30
0.0
 40
3.5
 41
0.0
 71
     1
 72
     1
  1
A
  7
SLDTEXTSTYLE0
 73
     1
 44
1.0
  0
INSERT
  5
12E
330
1F
100
AcDbEntity
  8
해칭선
100
AcDbBlockReference
  2
SW_DOWELSYMBOL_0
 10
0.0
 20
0.0
 30
0.0
  0
LINE
  5
321
330
1F
100
AcDbEntity
  8
0
  6
Continuous
 62
     1
370
    15
100
AcDbLine
 10
-34.63958571992171
 20
2.579687500000013
 30
0.0
 11
-36.21243164470653
 21
2.579687500000013
 31
0.0
  0
LINE
  5
322
330
1F
100
AcDbEntity
  8
0
  6
Continuous
 62
     1
370
    15
100
AcDbLine
 10
-29.1948673739949
 20
-2.579687499999984
 30
0.0
 11
-27.62205447083957
 21
-2.579687499999984
 31
0.0
  0
LINE
  5
323
330
1F
100
AcDbEntity
  8
0
  6
Continuous
 62
     1
370
    15
100
AcDbLine
 10
-36.21243164470653
 20
-2.579687499999984
 30
0.0
 11
-34.63958571992177
 21
-2.579687499999984
 31
0.0
  0
LINE
  5
324
330
1F
100
AcDbEntity
  8
0
  6
Continuous
 62
     1
370
    15
100
AcDbLine
 10
-27.62205447083957
 20
2.579687499999999
 30
0.0
 11
-29.19486737399487
 21
2.579687499999999
 31
0.0
  0
LINE
  5
325
330
1F
100
AcDbEntity
  8
외형선
  6
Continuous
370
    15
100
AcDbLine
 10
-17.84113284660356
 20
4.762500000000011
 30
0.0
 11
-25.98750000000001
 21
2.579687499999999
 31
0.0
  0
LINE
  5
326
330
1F
100
AcDbEntity
  8
외형선
  6
Continuous
370
    15
100
AcDbLine
 10
-25.98750000000001
 20
-2.579687499999984
 30
0.0
 11
-17.84113284660356
 21
-4.762499999999995
 31
0.0
  0
LINE
  5
329
330
1F
100
AcDbEntity
  8
외형선
  6
Continuous
370
    15
100
AcDbLine
 10
-25.98750000000001
 20
2.579687499999999
 30
0.0
 11
-26.48742541042088
 21
2.579687499999999
 31
0.0
  0
LINE
  5
32A
330
1F
100
AcDbEntity
  8
외형선
  6
Continuous
370
    15
100
AcDbLine
 10
-26.48742541042088
 20
-2.579687499999984
 30
0.0
 11
-25.98750000000001
 21
-2.579687499999984
 31
0.0
  0
SPLINE
  5
32B
330
1F
100
AcDbEntity
  8
0
  6
Continuous
 62
     1
370
    15
100
AcDbSpline
210
0.0
220
0.0
230
1.0
 70
     8
 71
     3
 72
    18
 73
    14
 74
     0
 42
0.000000001
 43
0.00000001
 40
0.0
 40
0.0
 40
0.0
 40
0.0
 40
0.095739108543753
 40
0.1914545788813641
 40
0.2871587953052181
 40
0.3828641895456514
 40
0.4785831883650491
 40
0.574328161196331
 40
0.6701113682929416
 40
0.7754299278683574
 40
0.8807495149559625
 40
0.9860701627408746
 40
1.0
 40
1.0
 40
1.0
 40
1.0
 10
-26.98750000000001
 20
-1.223249567387206
 30
0.0
 10
-27.36848492922812
 20
-1.021841270451638
 30
0.0
 10
-28.13036072162885
 20
-0.6190744047523391
 30
0.0
 10
-29.27300313332515
 20
0.0467734775857314
 30
0.0
 10
-30.4154905997174
 20
0.7038180758436572
 30
0.0
 10
-31.55799335231029
 20
1.316615882296482
 30
0.0
 10
-32.7006909830769
 20
1.843281472672623
 30
0.0
 10
-33.84376127063754
 20
2.250385640649647
 30
0.0
 10
-35.02512224053007
 20
2.518606214979137
 30
0.0
 10
-36.24473790436053
 20
2.616531982139229
 30
0.0
 10
-37.50227399505965
 20
2.496028286555792
 30
0.0
 10
-38.39608688046084
 20
2.311864796579151
 30
0.0
 10
-38.87071673726533
 20
2.130417723582618
 30
0.0
 10
-38.92615899950158
 20
2.109222604778261
 30
0.0
  0
SPLINE
  5
32C
330
1F
100
AcDbEntity
  8
외형선
  6
Continuous
370
    15
100
AcDbSpline
210
0.0
220
0.0
230
1.0
 70
    24
 71
     3
 72
    13
 73
     9
 74
     0
 42
0.000000001
 43
0.00000001
 40
0.0
 40
0.0
 40
0.0
 40
0.0
 40
0.184709821744561
 40
0.3746158538173229
 40
0.5620154587041476
 40
0.7548496648280412
 40
0.9422492697148611
 40
1.0
 40
1.0
 40
1.0
 40
1.0
 10
-26.98750000000001
 20
-2.553718164089595
 30
0.0
 10
-26.98750000000001
 20
-2.469628355311932
 30
0.0
 10
-26.98750000000004
 20
-2.299083144369383
 30
0.0
 10
-26.98749999999995
 20
-2.041553417783212
 30
0.0
 10
-26.98750000000018
 20
-1.787639842336865
 30
0.0
 10
-26.98749999999993
 20
-1.551387318653247
 30
0.0
 10
-26.98750000000001
 20
-1.379258210835423
 30
0.0
 10
-26.98749999999998
 20
-1.299203754102059
 30
0.0
 10
-26.98749999999995
 20
-1.280345108301368
 30
0.0
  0
SPLINE
  5
32D
330
1F
100
AcDbEntity
  8
0
  6
Continuous
 62
     1
370
    15
100
AcDbSpline
210
0.0
220
0.0
230
1.0
 70
     8
 71
     3
 72
    52
 73
    48
 74
     0
 42
0.000000001
 43
0.00000001
 40
0.0
 40
0.0
 40
0.0
 40
0.0
 40
0.0624999999999992
 40
0.0624999999999992
 40
0.1249999999999984
 40
0.1249999999999984
 40
0.1562499999999991
 40
0.1562499999999991
 40
0.1874999999999998
 40
0.1874999999999998
 40
0.2499999999999989
 40
0.2499999999999989
 40
0.2812499999999986
 40
0.2812499999999986
 40
0.3124999999999981
 40
0.3124999999999981
 40
0.3437499999999977
 40
0.3437499999999977
 40
0.3749999999999973
 40
0.3749999999999973
 40
0.4374999999999943
 40
0.4374999999999943
 40
0.4687499999999927
 40
0.4687499999999927
 40
0.4999999999999912
 40
0.4999999999999912
 40
0.5624999999999905
 40
0.5624999999999905
 40
0.6249999999999896
 40
0.6249999999999896
 40
0.6874999999999888
 40
0.6874999999999888
 40
0.749999999999988
 40
0.749999999999988
 40
0.7812499999999887
 40
0.7812499999999887
 40
0.8124999999999893
 40
0.8124999999999893
 40
0.8749999999999929
 40
0.8749999999999929
 40
0.9062499999999947
 40
0.9062499999999947
 40
0.9374999999999963
 40
0.9374999999999963
 40
0.9687499999999982
 40
0.9687499999999982
 40
1.0
 40
1.0
 40
1.0
 40
1.0
 10
-41.27499999999998
 20
2.579687500000013
 30
0.0
 10
-40.98034769893829
 20
2.555525140191485
 30
0.0
 10
-40.67933065835129
 20
2.523577681806465
 30
0.0
 10
-40.08238536562283
 20
2.426605291650354
 30
0.0
 10
-39.78855499867896
 20
2.361927535037843
 30
0.0
 10
-39.34002480965077
 20
2.241449649970882
 30
0.0
 10
-39.19019304182817
 20
2.197443183075827
 30
0.0
 10
-38.89212947772015
 20
2.102418737663591
 30
0.0
 10
-38.74493061471117
 20
2.051531828370323
 30
0.0
 10
-38.30051853532035
 20
1.888620419099958
 30
0.0
 10
-37.99912607411306
 20
1.766006638463332
 30
0.0
 10
-37.55277891401636
 20
1.566458556167142
 30
0.0
 10
-37.40592630593392
 20
1.497524793642349
 30
0.0
 10
-37.10897186322788
 20
1.35441859113282
 30
0.0
 10
-36.95937405787706
 20
1.280310185128734
 30
0.0
 10
-36.66016905673101
 20
1.12805813451984
 30
0.0
 10
-36.51056559796947
 20
1.04991639102277
 30
0.0
 10
-36.21358882174974
 20
0.8907972448688999
 30
0.0
 10
-36.06674220805689
 20
0.8099247950131461
 30
0.0
 10
-35.62042384976874
 20
0.5626253858448185
 30
0.0
 10
-35.31902810879328
 20
0.3921709479664988
 30
0.0
 10
-34.87457786426725
 20
0.1357171137875999
 30
0.0
 10
-34.72739697843346
 20
0.0500519659046863
 30
0.0
 10
-34.42934946391946
 20
-0.1218687755893408
 30
0.0
 10
-34.27952013933813
 20
-0.2079237319254683
 30
0.0
 10
-33.83098035343463
 20
-0.4644361059558756
 30
0.0
 10
-33.53713931804495
 20
-0.632502699881996
 30
0.0
 10
-32.94021978894438
 20
-0.9597429041331575
 30
0.0
 10
-32.63919292266817
 20
-1.118453992857602
 30
0.0
 10
-32.0498251527226
 20
-1.416819368710982
 30
0.0
 10
-31.74888109013273
 20
-1.558583105125457
 30
0.0
 10
-31.15191025747652
 20
-1.818675128196112
 30
0.0
 10
-30.85809018977844
 20
-1.936827026954766
 30
0.0
 10
-30.40956976643034
 20
-2.094597391445169
 30
0.0
 10
-30.25973561203784
 20
-2.143808025777083
 30
0.0
 10
-29.9616561096739
 20
-2.234755200202364
 30
0.0
 10
-29.81443884761862
 20
-2.276407694579553
 30
0.0
 10
-29.37006509702704
 20
-2.390113820089972
 30
0.0
 10
-29.0686760310852
 20
-2.450837957605536
 30
0.0
 10
-28.62230023525245
 20
-2.516493200585138
 30
0.0
 10
-28.47544121047954
 20
-2.534150683109039
 30
0.0
 10
-28.17850921124145
 20
-2.561133620841566
 30
0.0
 10
-28.02891711567716
 20
-2.570415112153519
 30
0.0
 10
-27.72971222729996
 20
-2.58035438451305
 30
0.0
 10
-27.58010317151073
 20
-2.58101203820042
 30
0.0
 10
-27.28310417175942
 20
-2.57375693843111
 30
0.0
 10
-27.13626313014788
 20
-2.565878717532292
 30
0.0
 10
-26.98750000000018
 20
-2.553718164088145
 30
0.0
  0
SPLINE
  5
32E
330
1F
100
AcDbEntity
  8
0
  6
Continuous
 62
     1
370
    15
100
AcDbSpline
210
0.0
220
0.0
230
1.0
 70
     8
 71
     3
 72
    12
 73
     8
 74
     0
 42
0.000000001
 43
0.00000001
 40
0.0
 40
0.0
 40
0.0
 40
0.0
 40
0.2324080888950095
 40
0.4647587956982292
 40
0.6970821834608952
 40
0.9294084303905663
 40
0.9999999999999999
 40
0.9999999999999999
 40
0.9999999999999999
 40
0.9999999999999999
 10
-26.98750000000001
 20
2.271221718270418
 30
0.0
 10
-27.36848497526435
 20
2.361011539561737
 30
0.0
 10
-28.13036085972621
 20
2.540569012830936
 30
0.0
 10
-29.27300258112197
 20
2.607428694791232
 30
0.0
 10
-30.41549267023524
 20
2.505448716461296
 30
0.0
 10
-31.29282622680944
 20
2.327842741515987
 30
0.0
 10
-31.78937237388104
 20
2.146930064721282
 30
0.0
 10
-31.9050868350038
 20
2.104770412433091
 30
0.0
  0
SPLINE
  5
32F
330
1F
100
AcDbEntity
  8
외형선
  6
Continuous
370
    15
100
AcDbSpline
210
0.0
220
0.0
230
1.0
 70
    24
 71
     3
 72
    21
 73
    17
 74
     0
 42
0.000000001
 43
0.00000001
 40
0.0
 40
0.0
 40
0.0
 40
0.0
 40
0.0061485661429135
 40
0.0812689918329038
 40
0.1585679149569224
 40
0.2336883406469105
 40
0.310987263770927
 40
0.3861076894610024
 40
0.4634066125849358
 40
0.5385270382748515
 40
0.61582596139879
 40
0.6909463870888549
 40
0.7682453102129553
 40
0.8433657359027994
 40
0.920664659026964
 40
1.0
 40
1.0
 40
1.0
 40
1.0
 10
-26.98750000000001
 20
-0.3651179755402007
 30
0.0
 10
-26.98750000000001
 20
-0.3645591427765562
 30
0.0
 10
-26.98750000000004
 20
-0.3571727417443635
 30
0.0
 10
-26.98750000000004
 20
-0.3021805489672213
 30
0.0
 10
-26.98749999999995
 20
-0.1992147239912039
 30
0.0
 10
-26.98750000000001
 20
-0.051735112929641
 30
0.0
 10
-26.98749999999993
 20
0.1274729042036005
 30
0.0
 10
-26.98749999999995
 20
0.3381611097216682
 30
0.0
 10
-26.98750000000001
 20
0.5701474608297095
 30
0.0
 10
-26.98750000000004
 20
0.8211517176655652
 30
0.0
 10
-26.98750000000001
 20
1.0795358659798
 30
0.0
 10
-26.98750000000004
 20
1.342589108233235
 30
0.0
 10
-26.98750000000001
 20
1.598337464388614
 30
0.0
 10
-26.98749999999995
 20
1.84336619851559
 30
0.0
 10
-26.9874999999999
 20
2.073416758117354
 30
0.0
 10
-26.98749999999998
 20
2.204717712573462
 30
0.0
 10
-26.98750000000001
 20
2.271221718270418
 30
0.0
  0
SPLINE
  5
330
330
1F
100
AcDbEntity
  8
0
  6
Continuous
 62
     1
370
    15
100
AcDbSpline
210
0.0
220
0.0
230
1.0
 70
     8
 71
     3
 72
    14
 73
    10
 74
     0
 42
0.000000001
 43
0.00000001
 40
0.0
 40
0.0
 40
0.0
 40
0.0
 40
0.0290721249183831
 40
0.1784265835580083
 40
0.3427393707643414
 40
0.5070530528394258
 40
0.6713676829957009
 40
0.8356833143661728
 40
1.0
 40
1.0
 40
1.0
 40
1.0
 10
-34.63958571992171
 20
2.56649478561446
 30
0.0
 10
-34.56544597130826
 20
2.570610802794996
 30
0.0
 10
-34.11042240188962
 20
2.595872350942991
 30
0.0
 10
-33.23639714541611
 20
2.472889461472996
 30
0.0
 10
-32.01708107173093
 20
2.179066438298698
 30
0.0
 10
-30.75971875308016
 20
1.687565704113688
 30
0.0
 10
-29.5023160642931
 20
1.068377424055861
 30
0.0
 10
-28.24491274056814
 20
0.3618647511969262
 30
0.0
 10
-27.40663847659337
 20
-0.1227898816983876
 30
0.0
 10
-26.98750000000018
 20
-0.3651179755401012
 30
0.0
  0
LINE
  5
331
330
1F
100
AcDbEntity
  8
0
  6
Continuous
 62
     1
370
    15
100
AcDbLine
 10
-41.27499999999998
 20
2.3363748556582
 30
0.0
 11
-41.27499999999998
 21
-0.2210311056582052
 31
0.0
  0
SPLINE
  5
332
330
1F
100
AcDbEntity
  8
0
  6
Continuous
 62
     1
370
    15
100
AcDbSpline
210
0.0
220
0.0
230
1.0
 70
     8
 71
     3
 72
    18
 73
    14
 74
     0
 42
0.000000001
 43
0.00000001
 40
0.0
 40
0.0
 40
0.0
 40
0.0
 40
0.0064724344656562
 40
0.1010596644580213
 40
0.1956480585203912
 40
0.2902498983794828
 40
0.3848774091016538
 40
0.4795427078480453
 40
0.5836320697305538
 40
0.6877224471329152
 40
0.7918138728529356
 40
0.8959063796015088
 40
1.0
 40
1.0
 40
1.0
 40
1.0
 10
-29.1948673739949
 20
-2.574331807022225
 30
0.0
 10
-29.22092642064663
 20
-2.576095273994901
 30
0.0
 10
-29.62780864165569
 20
-2.603629794659148
 30
0.0
 10
-30.41548777581701
 20
-2.499639599185265
 30
0.0
 10
-31.55799410915117
 20
-2.254359633943359
 30
0.0
 10
-32.70069077997627
 20
-1.84407445495794
 30
0.0
 10
-33.84376132596617
 20
-1.318576335609954
 30
0.0
 10
-35.02512221998884
 20
-0.6857096168581616
 30
0.0
 10
-36.24473792710231
 20
0.0188496820190598
 30
0.0
 10
-37.50227392597967
 20
0.744808422392659
 30
0.0
 10
-38.75983667968509
 20
1.408629758585399
 30
0.0
 10
-40.01741182741412
 20
1.974821013998515
 30
0.0
 10
-40.85580244753723
 20
2.215856478648015
 30
0.0
 10
-41.27499999999998
 20
2.3363748556582
 30
0.0
  0
SPLINE
  5
333
330
1F
100
AcDbEntity
  8
0
  6
Continuous
 62
     1
370
    15
100
AcDbSpline
210
0.0
220
0.0
230
1.0
 70
     8
 71
     3
 72
    16
 73
    12
 74
     0
 42
0.000000001
 43
0.00000001
 40
0.0
 40
0.0
 40
0.0
 40
0.0
 40
0.1220823241247943
 40
0.2441050754694512
 40
0.3660837383930997
 40
0.4880339820754294
 40
0.6099715952628537
 40
0.7319124199500532
 40
0.853872284586173
 40
0.9880468212434351
 40
1.0
 40
1.0
 40
1.0
 40
1.0
 10
-41.27499999999998
 20
-0.2210311056582052
 30
0.0
 10
-40.8936378505683
 20
-0.4388534093384204
 30
0.0
 10
-40.13109964583157
 20
-0.8743917254703955
 30
0.0
 10
-38.98767175770058
 20
-1.467046986776274
 30
0.0
 10
-37.84472944650068
 20
-1.965055776391615
 30
0.0
 10
-36.70210740933399
 20
-2.335128126524956
 30
0.0
 10
-35.55963262843525
 20
-2.552267547307316
 30
0.0
 10
-34.41709924679208
 20
-2.607133241971389
 30
0.0
 10
-33.23639989748392
 20
-2.473710776337206
 30
0.0
 10
-32.39888970754501
 20
-2.296178939562999
 30
0.0
 10
-31.9424254016723
 20
-2.119243637374786
 30
0.0
 10
-31.90508683500383
 20
-2.10477041243309
 30
0.0
  0
LINE
  5
334
330
1F
100
AcDbEntity
  8
외형선
  6
Continuous
370
    15
100
AcDbLine
 10
-26.98750000000001
 20
-0.3651179755399591
 30
0.0
 11
-26.98750000000001
 21
-1.223249567387206
 31
0.0
  0
LINE
  5
335
330
1F
100
AcDbEntity
  8
0
  6
Continuous
 62
     1
370
    15
100
AcDbLine
 10
-41.27499999999998
 20
2.579687500000013
 30
0.0
 11
-41.27499999999998
 21
2.3363748556582
 31
0.0
  0
SPLINE
  5
336
330
1F
100
AcDbEntity
  8
0
  6
Continuous
 62
     1
370
    15
100
AcDbSpline
210
0.0
220
0.0
230
1.0
 70
     8
 71
     3
 72
    12
 73
     8
 74
     0
 42
0.000000001
 43
0.00000001
 40
0.0
 40
0.0
 40
0.0
 40
0.0
 40
0.0063792907558906
 40
0.2547806375000803
 40
0.5031844859502376
 40
0.7515909141676613
 40
0.9999999999999999
 40
0.9999999999999999
 40
0.9999999999999999
 40
0.9999999999999999
 10
-36.21243164470653
 20
-2.577146900436396
 30
0.0
 10
-36.22319678930339
 20
-2.577990835701264
 30
0.0
 10
-36.65314276733227
 20
-2.61169652070928
 30
0.0
 10
-37.50227602276956
 20
-2.491097388101486
 30
0.0
 10
-38.75983612053247
 20
-2.203469379408737
 30
0.0
 10
-40.01741196720462
 20
-1.72501225090037
 30
0.0
 10
-40.85580249413422
 20
-1.304126110875479
 30
0.0
 10
-41.27499999999998
 20
-1.093681915140045
 30
0.0
  0
LINE
  5
337
330
1F
100
AcDbEntity
  8
0
  6
Continuous
 62
     1
370
    15
100
AcDbLine
 10
-41.27499999999998
 20
-0.2210311056582052
 30
0.0
 11
-41.27499999999998
 21
-1.093681915140045
 31
0.0
  0
SPLINE
  5
338
330
1F
100
AcDbEntity
  8
0
  6
Continuous
 62
     1
370
    15
100
AcDbSpline
210
0.0
220
0.0
230
1.0
 70
     8
 71
     3
 72
    10
 73
     6
 74
     0
 42
0.000000001
 43
0.00000001
 40
0.0
 40
0.0
 40
0.0
 40
0.0
 40
0.4870497373978576
 40
0.9738618080644338
 40
0.9999999999999999
 40
0.9999999999999999
 40
0.9999999999999999
 40
0.9999999999999999
 10
-41.27499999999998
 20
-2.579687499999998
 30
0.0
 10
-40.8936392921612
 20
-2.532391783300688
 30
0.0
 10
-40.13110396990672
 20
-2.456791929050702
 30
0.0
 10
-39.34818642662756
 20
-2.271522742437049
 30
0.0
 10
-38.94662138150855
 20
-2.11709187393729
 30
0.0
 10
-38.92615899950158
 20
-2.109222604778217
 30
0.0
  0
LINE
  5
339
330
1F
100
AcDbEntity
  8
0
  6
Continuous
 62
     1
370
    15
100
AcDbLine
 10
-27.62205447083957
 20
2.554194431711274
 30
0.0
 11
-26.98750000000018
 21
2.553718164088146
 31
0.0
  0
LINE
  5
33A
330
1F
100
AcDbEntity
  8
0
  6
Continuous
 62
     1
370
    15
100
AcDbLine
 10
-41.27499999999998
 20
-1.080695849553599
 30
0.0
 11
-41.27499999999998
 21
-2.579687499999998
 31
0.0
  0
LINE
  5
33B
330
1F
100
AcDbEntity
  8
외형선
  6
Continuous
370
    15
100
AcDbLine
 10
-26.98750000000001
 20
2.55371816408961
 30
0.0
 11
-26.98750000000001
 21
2.271221718270418
 31
0.0
  0
LINE
  5
33C
330
1F
100
AcDbEntity
  8
외형선
  6
Continuous
370
    15
100
AcDbLine
 10
-25.98750000000001
 20
0.0000000000000076
 30
0.0
 11
-25.98750000000001
 21
-2.579687499999984
 31
0.0
  0
LINE
  5
33D
330
1F
100
AcDbEntity
  8
외형선
  6
Continuous
370
    15
100
AcDbLine
 10
-25.98750000000001
 20
2.579687499999999
 30
0.0
 11
-25.98750000000001
 21
0.0000000000000076
 31
0.0
  0
LINE
  5
33E
330
1F
100
AcDbEntity
  8
외형선
  6
Continuous
370
    15
100
AcDbLine
 10
-17.84113284660356
 20
0.0000000000000076
 30
0.0
 11
-17.84113284660356
 21
-4.762499999999995
 31
0.0
  0
LINE
  5
33F
330
1F
100
AcDbEntity
  8
외형선
  6
Continuous
370
    15
100
AcDbLine
 10
-17.84113284660356
 20
4.762500000000011
 30
0.0
 11
-17.84113284660356
 21
0.0000000000000076
 31
0.0
  0
SPLINE
  5
340
330
1F
100
AcDbEntity
  8
외형선
  6
Continuous
370
    15
100
AcDbSpline
210
0.0
220
0.0
230
1.0
 70
     8
 71
     3
 72
     8
 73
     4
 74
     0
 42
0.000000001
 43
0.00000001
 40
0.0
 40
0.0
 40
0.0
 40
0.0
 40
1.0
 40
1.0
 40
1.0
 40
1.0
 10
-26.98750000000001
 20
-2.553718164088117
 30
0.0
 10
-26.82149680426747
 20
-2.540148331753975
 30
0.0
 10
-26.65428653520945
 20
-2.521238063953582
 30
0.0
 10
-26.48742541042085
 20
-2.497136564892834
 30
0.0
  0
LINE
  5
341
330
1F
100
AcDbEntity
  8
외형선
  6
Continuous
370
    15
100
AcDbLine
 10
-26.48742541042085
 20
-1.468682479201881
 30
0.0
 11
-26.48742541042088
 21
-2.579687499999984
 31
0.0
  0
SPLINE
  5
342
330
1F
100
AcDbEntity
  8
외형선
  6
Continuous
370
    15
100
AcDbSpline
210
0.0
220
0.0
230
1.0
 70
     8
 71
     3
 72
     8
 73
     4
 74
     0
 42
0.000000001
 43
0.00000001
 40
0.0
 40
0.0
 40
0.0
 40
0.0
 40
1.0
 40
1.0
 40
1.0
 40
1.0
 10
-26.98750000000001
 20
-1.223249567387206
 30
0.0
 10
-26.82149680426747
 20
-1.307660908310659
 30
0.0
 10
-26.65428653520948
 20
-1.389733951739721
 30
0.0
 10
-26.48742541042088
 20
-1.468689758709537
 30
0.0
  0
SPLINE
  5
343
330
1F
100
AcDbEntity
  8
외형선
  6
Continuous
370
    15
100
AcDbSpline
210
0.0
220
0.0
230
1.0
 70
     8
 71
     3
 72
     8
 73
     4
 74
     0
 42
0.000000001
 43
0.00000001
 40
0.0
 40
0.0
 40
0.0
 40
0.0
 40
1.0
 40
1.0
 40
1.0
 40
1.0
 10
-26.98750000000001
 20
-0.3651179755402007
 30
0.0
 10
-26.82149680426747
 20
-0.4600284692349414
 30
0.0
 10
-26.65428653520945
 20
-0.5544095840455578
 30
0.0
 10
-26.48742541042085
 20
-0.6473766862742774
 30
0.0
  0
LINE
  5
344
330
1F
100
AcDbEntity
  8
외형선
  6
Continuous
370
    15
100
AcDbLine
 10
-26.48742541042085
 20
2.120792156940802
 30
0.0
 11
-26.48742541042088
 21
-0.6473929871322848
 31
0.0
  0
SPLINE
  5
345
330
1F
100
AcDbEntity
  8
외형선
  6
Continuous
370
    15
100
AcDbSpline
210
0.0
220
0.0
230
1.0
 70
     8
 71
     3
 72
     8
 73
     4
 74
     0
 42
0.000000001
 43
0.00000001
 40
0.0
 40
0.0
 40
0.0
 40
0.0
 40
1.0
 40
1.0
 40
1.0
 40
1.0
 10
-26.98750000000001
 20
2.271221718270418
 30
0.0
 10
-26.82149680426747
 20
2.225758901744591
 30
0.0
 10
-26.65428653520948
 20
2.175465675526035
 30
0.0
 10
-26.48742541042088
 20
2.120787115746858
 30
0.0
  0
SPLINE
  5
346
330
1F
100
AcDbEntity
  8
외형선
  6
Continuous
370
    15
100
AcDbSpline
210
0.0
220
0.0
230
1.0
 70
     8
 71
     3
 72
     8
 73
     4
 74
     0
 42
0.000000001
 43
0.00000001
 40
0.0
 40
0.0
 40
0.0
 40
0.0
 40
1.0
 40
1.0
 40
1.0
 40
1.0
 10
-26.98750000000001
 20
2.553718164088132
 30
0.0
 10
-26.82149680426747
 20
2.54014833175399
 30
0.0
 10
-26.65428653520945
 20
2.521238063953597
 30
0.0
 10
-26.48742541042085
 20
2.497136564892835
 30
0.0
  0
LINE
  5
347
330
1F
100
AcDbEntity
  8
외형선
  6
Continuous
370
    15
100
AcDbLine
 10
-26.48742541042088
 20
2.579687499999999
 30
0.0
 11
-26.48742541042088
 21
2.497132338877571
 31
0.0
  0
SPLINE
  5
348
330
1F
100
AcDbEntity
  8
외형선
  6
Continuous
370
    15
100
AcDbSpline
210
0.0
220
0.0
230
1.0
 70
    24
 71
     3
 72
    14
 73
    10
 74
     0
 42
0.000000001
 43
0.00000001
 40
0.0
 40
0.0
 40
0.0
 40
0.0
 40
0.1313875371296353
 40
0.281250416225466
 40
0.4311132953216171
 40
0.5809761744176083
 40
0.7308390535135986
 40
0.8807019326095855
 40
1.0
 40
1.0
 40
1.0
 40
1.0
 10
-26.98750000000001
 20
2.271221718270418
 30
0.0
 10
-26.98750000000001
 20
2.155462698606705
 30
0.0
 10
-26.98749999999995
 20
1.90766695501079
 30
0.0
 10
-26.98750000000004
 20
1.421259522214577
 30
0.0
 10
-26.98750000000004
 20
0.8937412619097747
 30
0.0
 10
-26.98750000000001
 20
0.3928119341199339
 30
0.0
 10
-26.98749999999998
 20
-0.0155653577888013
 30
0.0
 10
-26.98750000000001
 20
-0.2906157908919122
 30
0.0
 10
-26.98750000000001
 20
-0.3391415158706574
 30
0.0
 10
-26.98750000000001
 20
-0.3606491873373154
 30
0.0
  0
SPLINE
  5
349
330
1F
100
AcDbEntity
  8
외형선
  6
Continuous
370
    15
100
AcDbSpline
210
0.0
220
0.0
230
1.0
 70
    24
 71
     3
 72
    13
 73
     9
 74
     0
 42
0.000000001
 43
0.00000001
 40
0.0
 40
0.0
 40
0.0
 40
0.0
 40
0.1849527947781419
 40
0.3783231912712655
 40
0.5662438751998513
 40
0.7596142716930185
 40
0.8791271671557226
 40
1.0
 40
1.0
 40
1.0
 40
1.0
 10
-26.98749999999998
 20
-1.280335108301365
 30
0.0
 10
-26.98749999999998
 20
-1.346260051447238
 30
0.0
 10
-26.98749999999998
 20
-1.48111032448714
 30
0.0
 10
-26.98750000000001
 20
-1.713816061503287
 30
0.0
 10
-26.98750000000001
 20
-1.9645034722976
 30
0.0
 10
-26.98749999999998
 20
-2.191994062635735
 30
0.0
 10
-26.98749999999998
 20
-2.390258769356542
 30
0.0
 10
-26.98750000000001
 20
-2.499026587968124
 30
0.0
 10
-26.98750000000004
 20
-2.553718164088174
 30
0.0
  0
LINE
  5
3C7
330
1F
100
AcDbEntity
  8
외형선
  6
Continuous
370
    15
100
AcDbLine
 10
-3.568700000000035
 20
3.49250000000002
 30
0.0
 11
3.568700000000035
 21
3.49250000000002
 31
0.0
  0
LINE
  5
3C8
330
1F
100
AcDbEntity
  8
외형선
  6
Continuous
370
    15
100
AcDbLine
 10
-3.568700000000035
 20
3.49250000000002
 30
0.0
 11
-4.838700000000017
 21
4.762500000000002
 31
0.0
  0
LINE
  5
3C9
330
1F
100
AcDbEntity
  8
외형선
  6
Continuous
370
    15
100
AcDbLine
 10
3.568700000000035
 20
3.49250000000002
 30
0.0
 11
4.838700000000017
 21
4.762500000000002
 31
0.0
  0
LINE
  5
3CB
330
1F
100
AcDbEntity
  8
외형선
  6
Continuous
370
    15
100
AcDbLine
 10
-4.838700000000014
 20
4.762500000000002
 30
0.0
 11
-17.84113284660358
 21
4.762500000000002
 31
0.0
  0
ENDSEC
  0
SECTION
  2
OBJECTS
  0
DICTIONARY
  5
C
330
0
100
AcDbDictionary
281
     1
  3
ACAD_GROUP
350
D
  3
ACAD_IMAGE_VARS
350
152
  3
ACAD_LAYOUT
350
1A
  3
ACAD_MLINESTYLE
350
17
  3
ACAD_PLOTSETTINGS
350
19
  3
ACAD_PLOTSTYLENAME
350
E
  3
ACAD_SCALELIST
350
47
  3
APPDATA
350
150
  3
DWGPROPS
350
3EF
  0
DICTIONARY
  5
1DD
330
2
100
AcDbDictionary
280
     1
281
     1
  3
ACAD_LAYERSTATES
360
1DE
  0
DICTIONARY
  5
D
102
{ACAD_REACTORS
330
C
102
}
330
C
100
AcDbDictionary
281
     1
  0
RASTERVARIABLES
  5
152
102
{ACAD_REACTORS
330
C
102
}
330
C
100
AcDbRasterVariables
 90
        0
 70
     1
 71
     1
 72
     1
  0
DICTIONARY
  5
1A
102
{ACAD_REACTORS
330
C
102
}
330
C
100
AcDbDictionary
281
     1
  3
Layout1
350
1E
  3
Layout2
350
26
  3
Model
350
22
  0
DICTIONARY
  5
17
102
{ACAD_REACTORS
330
C
102
}
330
C
100
AcDbDictionary
281
     1
  3
Standard
350
18
  0
DICTIONARY
  5
19
102
{ACAD_REACTORS
330
C
102
}
330
C
100
AcDbDictionary
281
     1
  0
ACDBDICTIONARYWDFLT
  5
E
102
{ACAD_REACTORS
330
C
102
}
330
C
100
AcDbDictionary
281
     1
  3
Normal
350
F
100
AcDbDictionaryWithDefault
340
F
  0
DICTIONARY
  5
47
102
{ACAD_REACTORS
330
C
102
}
330
C
100
AcDbDictionary
281
     1
  3
A0
350
48
  3
A1
350
49
  3
A2
350
4A
  3
A3
350
4B
  3
A4
350
4C
  3
A5
350
4D
  3
A6
350
4E
  3
A7
350
4F
  3
A8
350
50
  3
A9
350
51
  3
B0
350
52
  3
B1
350
53
  3
B2
350
54
  3
B3
350
55
  3
B4
350
56
  3
B5
350
57
  3
B6
350
58
  3
B7
350
59
  3
B8
350
5A
  3
B9
350
5B
  3
C0
350
5C
  3
C1
350
5D
  3
C2
350
5E
  3
C3
350
5F
  3
C4
350
60
  3
C5
350
61
  3
C6
350
62
  3
C7
350
63
  3
C8
350
64
  3
C9
350
65
  3
D0
350
66
  3
D1
350
67
  3
D2
350
68
  0
DICTIONARY
  5
150
102
{ACAD_REACTORS
330
C
102
}
330
C
100
AcDbDictionary
281
     1
  0
XRECORD
  5
3EF
102
{ACAD_REACTORS
330
C
102
}
330
C
100
AcDbXrecord
280
     1
  1
DWGPROPS COOKIE
  2

  3

  4

  6

  7

  8
12016016
  9

300
=
301
=
302
=
303
=
304
=
305
=
306
=
307
=
308
=
309
=
 40
0.0
 41
2458313.095177477
 42
2458319.120936886
  1

 90
        0
  0
DICTIONARY
  5
1DE
102
{ACAD_REACTORS
330
1DD
102
}
330
1DD
100
AcDbDictionary
281
     1
  0
LAYOUT
  5
1E
102
{ACAD_REACTORS
330
1A
102
}
330
1A
100
AcDbPlotSettings
  1

  2
none_device
  4

  6

 40
0.0
 41
0.0
 42
0.0
 43
0.0
 44
0.0
 45
0.0
 46
0.0
 47
0.0
 48
0.0
 49
0.0
140
0.0
141
0.0
142
1.0
143
1.0
 70
   688
 72
     1
 73
     0
 74
     5
  7

 75
    16
147
1.0
148
0.0
149
0.0
100
AcDbLayout
  1
Layout1
 70
     1
 71
     1
 10
0.0
 20
0.0
 11
420.0
 21
297.0
 12
0.0
 22
0.0
 32
0.0
 14
1.000000000000000E+20
 24
1.000000000000000E+20
 34
1.000000000000000E+20
 15
-1.000000000000000E+20
 25
-1.000000000000000E+20
 35
-1.000000000000000E+20
146
0.0
 13
0.0
 23
0.0
 33
0.0
 16
1.0
 26
0.0
 36
0.0
 17
0.0
 27
1.0
 37
0.0
 76
     0
330
1B
  0
LAYOUT
  5
26
102
{ACAD_REACTORS
330
1A
102
}
330
1A
100
AcDbPlotSettings
  1

  2
none_device
  4

  6

 40
0.0
 41
0.0
 42
0.0
 43
0.0
 44
0.0
 45
0.0
 46
0.0
 47
0.0
 48
0.0
 49
0.0
140
0.0
141
0.0
142
1.0
143
1.0
 70
   688
 72
     1
 73
     0
 74
     5
  7

 75
    16
147
1.0
148
0.0
149
0.0
100
AcDbLayout
  1
Layout2
 70
     1
 71
     2
 10
0.0
 20
0.0
 11
0.0
 21
0.0
 12
0.0
 22
0.0
 32
0.0
 14
0.0
 24
0.0
 34
0.0
 15
0.0
 25
0.0
 35
0.0
146
0.0
 13
0.0
 23
0.0
 33
0.0
 16
1.0
 26
0.0
 36
0.0
 17
0.0
 27
1.0
 37
0.0
 76
     0
330
23
  0
LAYOUT
  5
22
102
{ACAD_REACTORS
330
1A
102
}
330
1A
100
AcDbPlotSettings
  1

  2
none_device
  4
ANSI_A_(11.00_x_8.50_Inches)
  6

 40
6.35
 41
19.05
 42
6.35000508
 43
19.05000254
 44
279.4
 45
215.9
 46
89.54365339536682
 47
81.19722299023202
 48
0.0
 49
0.0
140
0.0
141
0.0
142
0.0592309552446001
143
1.0
 70
  1696
 72
     0
 73
     0
 74
     0
  7

 75
     0
147
0.0235690232323232
148
0.0
149
0.0
100
AcDbLayout
  1
Model
 70
     1
 71
     0
 10
0.0
 20
0.0
 11
420.0
 21
297.0
 12
0.0
 22
0.0
 32
0.0
 14
-58.17375000000006
 24
-49.97180738881174
 34
0.0
 15
81.41936447236121
 25
41.6715787444025
 35
0.0
146
0.0
 13
0.0
 23
0.0
 33
0.0
 16
1.0
 26
0.0
 36
0.0
 17
0.0
 27
1.0
 37
0.0
 76
     0
330
1F
331
29
  0
MLINESTYLE
  5
18
102
{ACAD_REACTORS
330
17
102
}
330
17
100
AcDbMlineStyle
  2
Standard
 70
     0
  3

 62
   256
 51
90.0
 52
90.0
 71
     2
 49
0.5
 62
   256
  6
BYLAYER
 49
-0.5
 62
   256
  6
BYLAYER
  0
ACDBPLACEHOLDER
  5
F
102
{ACAD_REACTORS
330
E
102
}
330
E
  0
SCALE
  5
48
102
{ACAD_REACTORS
330
47
102
}
330
47
100
AcDbScale
 70
     0
300
1:1
140
1.0
141
1.0
290
     1
  0
SCALE
  5
49
102
{ACAD_REACTORS
330
47
102
}
330
47
100
AcDbScale
 70
     0
300
1:2
140
1.0
141
2.0
290
     0
  0
SCALE
  5
4A
102
{ACAD_REACTORS
330
47
102
}
330
47
100
AcDbScale
 70
     0
300
1:4
140
1.0
141
4.0
290
     0
  0
SCALE
  5
4B
102
{ACAD_REACTORS
330
47
102
}
330
47
100
AcDbScale
 70
     0
300
1:5
140
1.0
141
5.0
290
     0
  0
SCALE
  5
4C
102
{ACAD_REACTORS
330
47
102
}
330
47
100
AcDbScale
 70
     0
300
1:8
140
1.0
141
8.0
290
     0
  0
SCALE
  5
4D
102
{ACAD_REACTORS
330
47
102
}
330
47
100
AcDbScale
 70
     0
300
1:10
140
1.0
141
10.0
290
     0
  0
SCALE
  5
4E
102
{ACAD_REACTORS
330
47
102
}
330
47
100
AcDbScale
 70
     0
300
1:16
140
1.0
141
16.0
290
     0
  0
SCALE
  5
4F
102
{ACAD_REACTORS
330
47
102
}
330
47
100
AcDbScale
 70
     0
300
1:20
140
1.0
141
20.0
290
     0
  0
SCALE
  5
50
102
{ACAD_REACTORS
330
47
102
}
330
47
100
AcDbScale
 70
     0
300
1:30
140
1.0
141
30.0
290
     0
  0
SCALE
  5
51
102
{ACAD_REACTORS
330
47
102
}
330
47
100
AcDbScale
 70
     0
300
1:40
140
1.0
141
40.0
290
     0
  0
SCALE
  5
52
102
{ACAD_REACTORS
330
47
102
}
330
47
100
AcDbScale
 70
     0
300
1:50
140
1.0
141
50.0
290
     0
  0
SCALE
  5
53
102
{ACAD_REACTORS
330
47
102
}
330
47
100
AcDbScale
 70
     0
300
1:100
140
1.0
141
100.0
290
     0
  0
SCALE
  5
54
102
{ACAD_REACTORS
330
47
102
}
330
47
100
AcDbScale
 70
     0
300
2:1
140
2.0
141
1.0
290
     0
  0
SCALE
  5
55
102
{ACAD_REACTORS
330
47
102
}
330
47
100
AcDbScale
 70
     0
300
4:1
140
4.0
141
1.0
290
     0
  0
SCALE
  5
56
102
{ACAD_REACTORS
330
47
102
}
330
47
100
AcDbScale
 70
     0
300
8:1
140
8.0
141
1.0
290
     0
  0
SCALE
  5
57
102
{ACAD_REACTORS
330
47
102
}
330
47
100
AcDbScale
 70
     0
300
10:1
140
10.0
141
1.0
290
     0
  0
SCALE
  5
58
102
{ACAD_REACTORS
330
47
102
}
330
47
100
AcDbScale
 70
     0
300
100:1
140
100.0
141
1.0
290
     0
  0
SCALE
  5
59
102
{ACAD_REACTORS
330
47
102
}
330
47
100
AcDbScale
 70
     0
300
1/128" = 1'-0"
140
0.0078125
141
12.0
290
     0
  0
SCALE
  5
5A
102
{ACAD_REACTORS
330
47
102
}
330
47
100
AcDbScale
 70
     0
300
1/64" = 1'-0"
140
0.015625
141
12.0
290
     0
  0
SCALE
  5
5B
102
{ACAD_REACTORS
330
47
102
}
330
47
100
AcDbScale
 70
     0
300
1/32" = 1'-0"
140
0.03125
141
12.0
290
     0
  0
SCALE
  5
5C
102
{ACAD_REACTORS
330
47
102
}
330
47
100
AcDbScale
 70
     0
300
1/16" = 1'-0"
140
0.0625
141
12.0
290
     0
  0
SCALE
  5
5D
102
{ACAD_REACTORS
330
47
102
}
330
47
100
AcDbScale
 70
     0
300
3/32" = 1'-0"
140
0.09375
141
12.0
290
     0
  0
SCALE
  5
5E
102
{ACAD_REACTORS
330
47
102
}
330
47
100
AcDbScale
 70
     0
300
1/8" = 1'-0"
140
0.125
141
12.0
290
     0
  0
SCALE
  5
5F
102
{ACAD_REACTORS
330
47
102
}
330
47
100
AcDbScale
 70
     0
300
3/16" = 1'-0"
140
0.1875
141
12.0
290
     0
  0
SCALE
  5
60
102
{ACAD_REACTORS
330
47
102
}
330
47
100
AcDbScale
 70
     0
300
1/4" = 1'-0"
140
0.25
141
12.0
290
     0
  0
SCALE
  5
61
102
{ACAD_REACTORS
330
47
102
}
330
47
100
AcDbScale
 70
     0
300
3/8" = 1'-0"
140
0.375
141
12.0
290
     0
  0
SCALE
  5
62
102
{ACAD_REACTORS
330
47
102
}
330
47
100
AcDbScale
 70
     0
300
1/2" = 1'-0"
140
0.5
141
12.0
290
     0
  0
SCALE
  5
63
102
{ACAD_REACTORS
330
47
102
}
330
47
100
AcDbScale
 70
     0
300
3/4" = 1'-0"
140
0.75
141
12.0
290
     0
  0
SCALE
  5
64
102
{ACAD_REACTORS
330
47
102
}
330
47
100
AcDbScale
 70
     0
300
1" = 1'-0"
140
1.0
141
12.0
290
     0
  0
SCALE
  5
65
102
{ACAD_REACTORS
330
47
102
}
330
47
100
AcDbScale
 70
     0
300
1-1/2" = 1'-0"
140
1.5
141
12.0
290
     0
  0
SCALE
  5
66
102
{ACAD_REACTORS
330
47
102
}
330
47
100
AcDbScale
 70
     0
300
3" = 1'-0"
140
3.0
141
12.0
290
     0
  0
SCALE
  5
67
102
{ACAD_REACTORS
330
47
102
}
330
47
100
AcDbScale
 70
     0
300
6" = 1'-0"
140
6.0
141
12.0
290
     0
  0
SCALE
  5
68
102
{ACAD_REACTORS
330
47
102
}
330
47
100
AcDbScale
 70
     0
300
1'-0" = 1'-0"
140
12.0
141
12.0
290
     0
  0
ENDSEC
  0
EOF
