  0
SECTION
  2
HEADER
  9
$ACADVER
  1
AC1015
  9
$ACADMAINTVER
 70
     6
  9
$DWGCODEPAGE
  3
ANSI_949
  9
$INSBASE
 10
0.0
 20
0.0
 30
0.0
  9
$EXTMIN
 10
-58.17375000000006
 20
-49.97180738881174
 30
0.0
  9
$EXTMAX
 10
81.41936447236121
 20
43.29535403243348
 30
0.0
  9
$LIMMIN
 10
0.0
 20
0.0
  9
$LIMMAX
 10
420.0
 20
297.0
  9
$ORTHOMODE
 70
     1
  9
$REGENMODE
 70
     1
  9
$FILLMODE
 70
     1
  9
$QTEXTMODE
 70
     0
  9
$MIRRTEXT
 70
     1
  9
$LTSCALE
 40
1.0
  9
$ATTMODE
 70
     1
  9
$TEXTSIZE
 40
3.5
  9
$TRACEWID
 40
1.0
  9
$TEXTSTYLE
  7
Standard
  9
$CLAYER
  8
0
  9
$CELTYPE
  6
ByLayer
  9
$CECOLOR
 62
   256
  9
$CELTSCALE
 40
1.0
  9
$DISPSILH
 70
     0
  9
$DIMSCALE
 40
1.0
  9
$DIMASZ
 40
3.302
  9
$DIMEXO
 40
1.0
  9
$DIMDLI
 40
3.75
  9
$DIMRND
 40
0.0
  9
$DIMDLE
 40
0.0
  9
$DIMEXE
 40
1.0
  9
$DIMTP
 40
0.0
  9
$DIMTM
 40
0.0
  9
$DIMTXT
 40
3.5
  9
$DIMCEN
 40
2.5
  9
$DIMTSZ
 40
0.0
  9
$DIMTOL
 70
     0
  9
$DIMLIM
 70
     0
  9
$DIMTIH
 70
     1
  9
$DIMTOH
 70
     1
  9
$DIMSE1
 70
     0
  9
$DIMSE2
 70
     0
  9
$DIMTAD
 70
     1
  9
$DIMZIN
 70
     0
  9
$DIMBLK
  1

  9
$DIMASO
 70
     1
  9
$DIMSHO
 70
     1
  9
$DIMPOST
  1

  9
$DIMAPOST
  1

  9
$DIMALT
 70
     0
  9
$DIMALTD
 70
     3
  9
$DIMALTF
 40
0.0393700787401575
  9
$DIMLFAC
 40
1.0
  9
$DIMTOFL
 70
     1
  9
$DIMTVP
 40
0.0
  9
$DIMTIX
 70
     0
  9
$DIMSOXD
 70
     0
  9
$DIMSAH
 70
     0
  9
$DIMBLK1
  1

  9
$DIMBLK2
  1

  9
$DIMSTYLE
  2
ISO-25
  9
$DIMCLRD
 70
     0
  9
$DIMCLRE
 70
     0
  9
$DIMCLRT
 70
     0
  9
$DIMTFAC
 40
1.0
  9
$DIMGAP
 40
1.524
  9
$DIMJUST
 70
     0
  9
$DIMSD1
 70
     0
  9
$DIMSD2
 70
     0
  9
$DIMTOLJ
 70
     0
  9
$DIMTZIN
 70
     0
  9
$DIMALTZ
 70
     0
  9
$DIMALTTZ
 70
     0
  9
$DIMUPT
 70
     0
  9
$DIMDEC
 70
     2
  9
$DIMTDEC
 70
     2
  9
$DIMALTU
 70
     2
  9
$DIMALTTD
 70
     3
  9
$DIMTXSTY
  7
Standard
  9
$DIMAUNIT
 70
     0
  9
$DIMADEC
 70
     2
  9
$DIMALTRND
 40
0.0
  9
$DIMAZIN
 70
     0
  9
$DIMDSEP
 70
    44
  9
$DIMATFIT
 70
     3
  9
$DIMFRAC
 70
     0
  9
$DIMLDRBLK
  1

  9
$DIMLUNIT
 70
     2
  9
$DIMLWD
 70
    -2
  9
$DIMLWE
 70
    -2
  9
$DIMTMOVE
 70
     0
  9
$LUNITS
 70
     2
  9
$LUPREC
 70
     2
  9
$SKETCHINC
 40
1.0
  9
$FILLETRAD
 40
10.0
  9
$AUNITS
 70
     0
  9
$AUPREC
 70
     2
  9
$MENU
  1
.
  9
$ELEVATION
 40
0.0
  9
$PELEVATION
 40
0.0
  9
$THICKNESS
 40
0.0
  9
$LIMCHECK
 70
     0
  9
$CHAMFERA
 40
0.0
  9
$CHAMFERB
 40
0.0
  9
$CHAMFERC
 40
0.0
  9
$CHAMFERD
 40
0.0
  9
$SKPOLY
 70
     0
  9
$TDCREATE
 40
2458313.470389086
  9
$TDUCREATE
 40
2458313.095389086
  9
$TDUPDATE
 40
2458319.495866134
  9
$TDUUPDATE
 40
2458319.120866134
  9
$TDINDWG
 40
0.0041586574
  9
$TDUSRTIMER
 40
2458319.120821262
  9
$USRTIMER
 70
     1
  9
$ANGBASE
 50
0.0
  9
$ANGDIR
 70
     0
  9
$PDMODE
 70
     0
  9
$PDSIZE
 40
-1.0
  9
$PLINEWID
 40
0.0
  9
$SPLFRAME
 70
     0
  9
$SPLINETYPE
 70
     6
  9
$SPLINESEGS
 70
     8
  9
$HANDSEED
  5
3F7
  9
$SURFTAB1
 70
     6
  9
$SURFTAB2
 70
     6
  9
$SURFTYPE
 70
     6
  9
$SURFU
 70
     6
  9
$SURFV
 70
     6
  9
$UCSBASE
  2

  9
$UCSNAME
  2

  9
$UCSORG
 10
0.0
 20
0.0
 30
0.0
  9
$UCSXDIR
 10
1.0
 20
0.0
 30
0.0
  9
$UCSYDIR
 10
0.0
 20
1.0
 30
0.0
  9
$UCSORTHOREF
  2

  9
$UCSORTHOVIEW
 70
     0
  9
$UCSORGTOP
 10
0.0
 20
0.0
 30
0.0
  9
$UCSORGBOTTOM
 10
0.0
 20
0.0
 30
0.0
  9
$UCSORGLEFT
 10
0.0
 20
0.0
 30
0.0
  9
$UCSORGRIGHT
 10
0.0
 20
0.0
 30
0.0
  9
$UCSORGFRONT
 10
0.0
 20
0.0
 30
0.0
  9
$UCSORGBACK
 10
0.0
 20
0.0
 30
0.0
  9
$PUCSBASE
  2

  9
$PUCSNAME
  2

  9
$PUCSORG
 10
0.0
 20
0.0
 30
0.0
  9
$PUCSXDIR
 10
1.0
 20
0.0
 30
0.0
  9
$PUCSYDIR
 10
0.0
 20
1.0
 30
0.0
  9
$PUCSORTHOREF
  2

  9
$PUCSORTHOVIEW
 70
     0
  9
$PUCSORGTOP
 10
0.0
 20
0.0
 30
0.0
  9
$PUCSORGBOTTOM
 10
0.0
 20
0.0
 30
0.0
  9
$PUCSORGLEFT
 10
0.0
 20
0.0
 30
0.0
  9
$PUCSORGRIGHT
 10
0.0
 20
0.0
 30
0.0
  9
$PUCSORGFRONT
 10
0.0
 20
0.0
 30
0.0
  9
$PUCSORGBACK
 10
0.0
 20
0.0
 30
0.0
  9
$USERI1
 70
     0
  9
$USERI2
 70
     0
  9
$USERI3
 70
     0
  9
$USERI4
 70
     0
  9
$USERI5
 70
     0
  9
$USERR1
 40
0.0
  9
$USERR2
 40
0.0
  9
$USERR3
 40
0.0
  9
$USERR4
 40
0.0
  9
$USERR5
 40
0.0
  9
$WORLDVIEW
 70
     1
  9
$SHADEDGE
 70
     3
  9
$SHADEDIF
 70
    70
  9
$TILEMODE
 70
     1
  9
$MAXACTVP
 70
    64
  9
$PINSBASE
 10
0.0
 20
0.0
 30
0.0
  9
$PLIMCHECK
 70
     0
  9
$PEXTMIN
 10
1.000000000000000E+20
 20
1.000000000000000E+20
 30
1.000000000000000E+20
  9
$PEXTMAX
 10
-1.000000000000000E+20
 20
-1.000000000000000E+20
 30
-1.000000000000000E+20
  9
$PLIMMIN
 10
0.0
 20
0.0
  9
$PLIMMAX
 10
0.0
 20
0.0
  9
$UNITMODE
 70
     0
  9
$VISRETAIN
 70
     1
  9
$PLINEGEN
 70
     0
  9
$PSLTSCALE
 70
     1
  9
$TREEDEPTH
 70
  3020
  9
$CMLSTYLE
  2
Standard
  9
$CMLJUST
 70
     0
  9
$CMLSCALE
 40
20.0
  9
$PROXYGRAPHICS
 70
     1
  9
$MEASUREMENT
 70
     1
  9
$CELWEIGHT
370
    -1
  9
$ENDCAPS
280
     0
  9
$JOINSTYLE
280
     0
  9
$LWDISPLAY
290
     1
  9
$INSUNITS
 70
     4
  9
$HYPERLINKBASE
  1

  9
$STYLESHEET
  1

  9
$XEDIT
290
     1
  9
$CEPSNTYPE
380
     0
  9
$PSTYLEMODE
290
     1
  9
$FINGERPRINTGUID
  2
{E85F4C81-B37A-4C3C-9781-26FF8BB0613C}
  9
$VERSIONGUID
  2
{FAEB1C32-E019-11D5-929B-00C0DF256EC4}
  9
$EXTNAMES
290
     1
  9
$PSVPSCALE
 40
0.0
  9
$OLESTARTUP
290
     0
  0
ENDSEC
  0
SECTION
  2
CLASSES
  0
CLASS
  1
ACDBDICTIONARYWDFLT
  2
AcDbDictionaryWithDefault
  3
ObjectDBX Classes
 90
        0
280
     0
281
     0
  0
CLASS
  1
VISUALSTYLE
  2
AcDbVisualStyle
  3
ObjectDBX Classes
 90
     4095
280
     0
281
     0
  0
CLASS
  1
MATERIAL
  2
AcDbMaterial
  3
ObjectDBX Classes
 90
     1153
280
     0
281
     0
  0
CLASS
  1
SCALE
  2
AcDbScale
  3
ObjectDBX Classes
 90
     1153
280
     0
281
     0
  0
CLASS
  1
SUN
  2
AcDbSun
  3
SCENEOE
 90
     1153
280
     0
281
     0
  0
CLASS
  1
ACDBPLACEHOLDER
  2
AcDbPlaceHolder
  3
ObjectDBX Classes
 90
        0
280
     0
281
     0
  0
CLASS
  1
LAYOUT
  2
AcDbLayout
  3
ObjectDBX Classes
 90
        0
280
     0
281
     0
  0
CLASS
  1
TABLESTYLE
  2
AcDbTableStyle
  3
ObjectDBX Classes
 90
     4095
280
     0
281
     0
  0
CLASS
  1
MLEADERSTYLE
  2
AcDbMLeaderStyle
  3
ACDB_MLEADERSTYLE_CLASS
 90
     4095
280
     0
281
     0
  0
CLASS
  1
RASTERVARIABLES
  2
AcDbRasterVariables
  3
ISM
 90
        0
280
     0
281
     0
  0
ENDSEC
  0
SECTION
  2
TABLES
  0
TABLE
  2
VPORT
  5
8
330
0
100
AcDbSymbolTable
 70
     1
  0
VPORT
  5
29
330
8
100
AcDbSymbolTableRecord
100
AcDbViewportTableRecord
  2
*Active
 70
     0
 10
0.0
 20
0.0
 11
1.0
 21
1.0
 12
-31.849374886235
 22
-5.944512319652161
 13
0.0
 23
0.0
 14
10.0
 24
10.0
 15
10.0
 25
10.0
 16
0.0
 26
0.0
 36
1.0
 17
0.0
 27
0.0
 37
0.0
 40
144.3805963529586
 41
1.632093933463796
 42
50.0
 43
0.0
 44
0.0
 50
0.0
 51
0.0
 71
    16
 72
  2000
 73
     1
 74
     3
 75
     0
 76
     0
 77
     0
 78
     0
281
     0
 65
     1
110
0.0
120
0.0
130
0.0
111
1.0
121
0.0
131
0.0
112
0.0
122
1.0
132
0.0
 79
     0
146
0.0
  0
ENDTAB
  0
TABLE
  2
LTYPE
  5
5
330
0
100
AcDbSymbolTable
 70
     6
  0
LTYPE
  5
14
330
5
100
AcDbSymbolTableRecord
100
AcDbLinetypeTableRecord
  2
ByBlock
 70
     0
  3

 72
    65
 73
     0
 40
0.0
  0
LTYPE
  5
15
330
5
100
AcDbSymbolTableRecord
100
AcDbLinetypeTableRecord
  2
ByLayer
 70
     0
  3

 72
    65
 73
     0
 40
0.0
  0
LTYPE
  5
16
330
5
100
AcDbSymbolTableRecord
100
AcDbLinetypeTableRecord
  2
Continuous
 70
     0
  3
Solid line
 72
    65
 73
     0
 40
0.0
  0
LTYPE
  5
6A
330
5
100
AcDbSymbolTableRecord
100
AcDbLinetypeTableRecord
  2
HIDDEN
 70
     0
  3
Hidden __ __ __ __ __ __ __ __ __ __ __ __ __ __
 72
    65
 73
     2
 40
1.905
 49
1.27
 74
     0
 49
-0.635
 74
     0
  0
LTYPE
  5
6B
330
5
100
AcDbSymbolTableRecord
100
AcDbLinetypeTableRecord
  2
PHANTOM
 70
     0
  3
Phantom ______  __  __  ______  __  __  ______
 72
    65
 73
     6
 40
12.7
 49
6.35
 74
     0
 49
-1.27
 74
     0
 49
1.27
 74
     0
 49
-1.27
 74
     0
 49
1.27
 74
     0
 49
-1.27
 74
     0
  0
LTYPE
  5
6C
330
5
100
AcDbSymbolTableRecord
100
AcDbLinetypeTableRecord
  2
CENTER
 70
     0
  3
Center ____ _ ____ _ ____ _ ____ _ ____ _ ____
 72
    65
 73
     4
 40
10.16
 49
6.35
 74
     0
 49
-1.27
 74
     0
 49
1.27
 74
     0
 49
-1.27
 74
     0
  0
LTYPE
  5
6D
330
5
100
AcDbSymbolTableRecord
100
AcDbLinetypeTableRecord
  2
CENTERX2
 70
     0
  3
Center (2x) ________  __  ________  __  _____
 72
    65
 73
     4
 40
20.32
 49
12.7
 74
     0
 49
-2.54
 74
     0
 49
2.54
 74
     0
 49
-2.54
 74
     0
  0
LTYPE
  5
6E
330
5
100
AcDbSymbolTableRecord
100
AcDbLinetypeTableRecord
  2
DOT2
 70
     0
  3
Dot (.5x) ........................................
 72
    65
 73
     2
 40
0.635
 49
0.0
 74
     0
 49
-0.635
 74
     0
  0
ENDTAB
  0
TABLE
  2
LAYER
  5
2
102
{ACAD_XDICTIONARY
360
1DF
102
}
330
0
100
AcDbSymbolTable
 70
    18
  0
LAYER
  5
10
330
2
100
AcDbSymbolTableRecord
100
AcDbLayerTableRecord
  2
0
 70
     0
 62
     7
  6
Continuous
370
    -3
390
F
  0
LAYER
  5
6F
330
2
100
AcDbSymbolTableRecord
100
AcDbLayerTableRecord
  2
FORMAT
 70
     0
 62
     2
  6
Continuous
370
    -3
390
F
  0
LAYER
  5
70
330
2
100
AcDbSymbolTableRecord
100
AcDbLayerTableRecord
  2
외형선
 70
     0
 62
     4
  6
Continuous
370
    30
390
F
  0
LAYER
  5
71
330
2
100
AcDbSymbolTableRecord
100
AcDbLayerTableRecord
  2
숨은선
 70
     0
 62
     2
  6
HIDDEN
370
    15
390
F
  0
LAYER
  5
72
330
2
100
AcDbSymbolTableRecord
100
AcDbLayerTableRecord
  2
중심선
 70
     0
 62
     1
  6
CENTERX2
370
    -3
390
F
  0
LAYER
  5
73
330
2
100
AcDbSymbolTableRecord
100
AcDbLayerTableRecord
  2
파단선
 70
     0
 62
     4
  6
Continuous
370
    -3
390
F
  0
LAYER
  5
74
330
2
100
AcDbSymbolTableRecord
100
AcDbLayerTableRecord
  2
해칭선
 70
     0
 62
   100
  6
Continuous
370
    -3
390
F
  0
LAYER
  5
75
330
2
100
AcDbSymbolTableRecord
100
AcDbLayerTableRecord
  2
가는실선
 70
     0
 62
     4
  6
Continuous
370
    -3
390
F
  0
LAYER
  5
76
330
2
100
AcDbSymbolTableRecord
100
AcDbLayerTableRecord
  2
치수_보조선
 70
     0
 62
     4
  6
Continuous
370
    -3
390
F
  0
LAYER
  5
77
330
2
100
AcDbSymbolTableRecord
100
AcDbLayerTableRecord
  2
치수문자_일반주서
 70
     0
 62
     7
  6
Continuous
370
    15
390
F
  0
LAYER
  5
78
330
2
100
AcDbSymbolTableRecord
100
AcDbLayerTableRecord
  2
개별주서
 70
     0
 62
   100
  6
Continuous
370
    30
390
F
  0
LAYER
  5
79
330
2
100
AcDbSymbolTableRecord
100
AcDbLayerTableRecord
  2
중간선
 70
     0
 62
     2
  6
Continuous
370
    15
390
F
  0
LAYER
  5
7A
330
2
100
AcDbSymbolTableRecord
100
AcDbLayerTableRecord
  2
윤곽선
 70
     0
 62
     3
  6
Continuous
370
    40
390
F
  0
LAYER
  5
7B
330
2
100
AcDbSymbolTableRecord
100
AcDbLayerTableRecord
  2
중심마크
 70
     0
 62
   100
  6
Continuous
370
    30
390
F
  0
LAYER
  5
7C
330
2
100
AcDbSymbolTableRecord
100
AcDbLayerTableRecord
  2
가상선
 70
     0
 62
     4
  6
PHANTOM
370
    -3
390
F
  0
LAYER
  5
7D
330
2
100
AcDbSymbolTableRecord
100
AcDbLayerTableRecord
  2
특수지정선
 70
     0
 62
     5
  6
CENTERX2
370
    60
390
F
  0
LAYER
  5
7E
330
2
100
AcDbSymbolTableRecord
100
AcDbLayerTableRecord
  2
참조1
 70
     0
 62
    -4
  6
Continuous
370
    -3
390
F
  0
LAYER
  5
157
330
2
100
AcDbSymbolTableRecord
100
AcDbLayerTableRecord
  2
Defpoints
 70
     0
 62
     7
  6
Continuous
290
     0
370
    -3
390
F
  0
ENDTAB
  0
TABLE
  2
STYLE
  5
3
330
0
100
AcDbSymbolTable
 70
     2
  0
STYLE
  5
11
330
3
100
AcDbSymbolTableRecord
100
AcDbTextStyleTableRecord
  2
Standard
 70
     0
 40
0.0
 41
1.0
 50
0.0
 71
     0
 42
3.5
  3
txt
  4

  0
STYLE
  5
94
330
3
100
AcDbSymbolTableRecord
100
AcDbTextStyleTableRecord
  2
SLDTEXTSTYLE0
 70
     0
 40
0.0
 41
0.75
 50
0.0
 71
     0
 42
3.5
  3
TXT
  4

  0
ENDTAB
  0
TABLE
  2
VIEW
  5
6
330
0
100
AcDbSymbolTable
 70
     0
  0
ENDTAB
  0
TABLE
  2
UCS
  5
7
330
0
100
AcDbSymbolTable
 70
     0
  0
ENDTAB
  0
TABLE
  2
APPID
  5
9
330
0
100
AcDbSymbolTable
 70
     1
  0
APPID
  5
12
330
9
100
AcDbSymbolTableRecord
100
AcDbRegAppTableRecord
  2
ACAD
 70
     0
  0
ENDTAB
  0
TABLE
  2
DIMSTYLE
  5
A
330
0
100
AcDbSymbolTable
 70
     3
100
AcDbDimStyleTable
  0
DIMSTYLE
105
27
330
A
100
AcDbSymbolTableRecord
100
AcDbDimStyleTableRecord
  2
ISO-25
 70
     0
 41
2.5
 42
0.625
 43
3.75
 44
1.25
 73
     0
 74
     0
 77
     1
 78
     8
140
2.5
141
2.5
143
0.03937007874016
147
0.625
171
     3
172
     1
178
     0
271
     2
272
     2
274
     3
278
    44
283
     0
284
     8
340
11
  0
DIMSTYLE
105
D4
102
{ACAD_REACTORS
330
D3
330
110
330
E8
330
FD
102
}
330
A
100
AcDbSymbolTableRecord
100
AcDbDimStyleTableRecord
  2
SLDDIMSTYLE0
 70
     0
 41
3.302
 44
0.0
 45
0.000000001
 73
     0
 74
     0
 77
     1
 78
    12
 79
     3
140
3.5
143
0.0393700787401575
147
0.875
148
0.000000001
170
     1
172
     1
173
     1
178
     0
271
     2
272
     2
276
     2
284
    12
289
     0
340
94
  0
DIMSTYLE
105
E9
330
A
100
AcDbSymbolTableRecord
100
AcDbDimStyleTableRecord
  2
SLDDIMSTYLE1
 70
     0
 41
3.302
 44
0.0
 45
0.000000001
 73
     0
 74
     0
 77
     1
 78
    12
 79
     3
140
3.5
143
0.0393700787401575
147
0.875
148
0.000000001
170
     1
173
     1
178
     0
271
     2
272
     2
276
     2
284
    12
340
94
  0
ENDTAB
  0
TABLE
  2
BLOCK_RECORD
  5
1
330
0
100
AcDbSymbolTable
 70
    19
  0
BLOCK_RECORD
  5
1F
330
1
100
AcDbSymbolTableRecord
100
AcDbBlockTableRecord
  2
*Model_Space
340
22
  0
BLOCK_RECORD
  5
1B
330
1
100
AcDbSymbolTableRecord
100
AcDbBlockTableRecord
  2
*Paper_Space
340
1E
  0
BLOCK_RECORD
  5
23
330
1
100
AcDbSymbolTableRecord
100
AcDbBlockTableRecord
  2
*Paper_Space0
340
26
  0
BLOCK_RECORD
  5
7F
330
1
100
AcDbSymbolTableRecord
100
AcDbBlockTableRecord
  2
블럭10
340
0
102
{BLKREFS
331
CC
102
}
  0
BLOCK_RECORD
  5
D5
330
1
100
AcDbSymbolTableRecord
100
AcDbBlockTableRecord
  2
_D
340
0
  0
BLOCK_RECORD
  5
EA
330
1
100
AcDbSymbolTableRecord
100
AcDbBlockTableRecord
  2
_D_1
340
0
  0
BLOCK_RECORD
  5
FE
330
1
100
AcDbSymbolTableRecord
100
AcDbBlockTableRecord
  2
_D_2
340
0
  0
BLOCK_RECORD
  5
111
330
1
100
AcDbSymbolTableRecord
100
AcDbBlockTableRecord
  2
_D_3
340
0
  0
BLOCK_RECORD
  5
12B
330
1
100
AcDbSymbolTableRecord
100
AcDbBlockTableRecord
  2
SW_DOWELSYMBOL_0
340
0
102
{BLKREFS
331
131
102
}
  0
BLOCK_RECORD
  5
1E3
330
1
100
AcDbSymbolTableRecord
100
AcDbBlockTableRecord
  2
*D7
340
0
  0
BLOCK_RECORD
  5
1F2
330
1
100
AcDbSymbolTableRecord
100
AcDbBlockTableRecord
  2
*D8
340
0
  0
BLOCK_RECORD
  5
201
330
1
100
AcDbSymbolTableRecord
100
AcDbBlockTableRecord
  2
*D9
340
0
  0
BLOCK_RECORD
  5
23D
330
1
100
AcDbSymbolTableRecord
100
AcDbBlockTableRecord
  2
*D10
340
0
  0
BLOCK_RECORD
  5
24C
330
1
100
AcDbSymbolTableRecord
100
AcDbBlockTableRecord
  2
*D11
340
0
  0
BLOCK_RECORD
  5
25B
330
1
100
AcDbSymbolTableRecord
100
AcDbBlockTableRecord
  2
*D12
340
0
  0
BLOCK_RECORD
  5
2FA
330
1
100
AcDbSymbolTableRecord
100
AcDbBlockTableRecord
  2
*D13
340
0
  0
BLOCK_RECORD
  5
309
330
1
100
AcDbSymbolTableRecord
100
AcDbBlockTableRecord
  2
*D14
340
0
  0
BLOCK_RECORD
  5
318
330
1
100
AcDbSymbolTableRecord
100
AcDbBlockTableRecord
  2
*D15
340
0
  0
BLOCK_RECORD
  5
357
330
1
100
AcDbSymbolTableRecord
100
AcDbBlockTableRecord
  2
*D16
340
0
  0
BLOCK_RECORD
  5
366
330
1
100
AcDbSymbolTableRecord
100
AcDbBlockTableRecord
  2
*D17
340
0
  0
BLOCK_RECORD
  5
375
330
1
100
AcDbSymbolTableRecord
100
AcDbBlockTableRecord
  2
*D18
340
0
  0
ENDTAB
  0
ENDSEC
  0
SECTION
  2
BLOCKS
  0
BLOCK
  5
20
330
1F
100
AcDbEntity
  8
0
100
AcDbBlockBegin
  2
*Model_Space
 70
     0
 10
0.0
 20
0.0
 30
0.0
  3
*Model_Space
  1
*Model_Space
  0
ENDBLK
  5
21
330
1F
100
AcDbEntity
  8
0
100
AcDbBlockEnd
  0
BLOCK
  5
1C
330
1B
100
AcDbEntity
 67
     1
  8
0
100
AcDbBlockBegin
  2
*Paper_Space
 70
     0
 10
0.0
 20
0.0
 30
0.0
  3
*Paper_Space
  1
*Paper_Space
  0
ENDBLK
  5
1D
330
1B
100
AcDbEntity
 67
     1
  8
0
100
AcDbBlockEnd
  0
BLOCK
  5
24
330
23
100
AcDbEntity
  8
0
100
AcDbBlockBegin
  2
*Paper_Space0
 70
     0
 10
0.0
 20
0.0
 30
0.0
  3
*Paper_Space0
  1
*Paper_Space0
  0
ENDBLK
  5
25
330
23
100
AcDbEntity
  8
0
100
AcDbBlockEnd
  0
BLOCK
  5
80
330
7F
100
AcDbEntity
  8
0
100
AcDbBlockBegin
  2
블럭10
 70
     2
 10
0.0
 20
0.0
 30
0.0
  3
블럭10
  1
블럭10
  0
ELLIPSE
  5
82
330
7F
100
AcDbEntity
  8
중심선
100
AcDbEllipse
 10
20.54032771741204
 20
12.0471743016438
 30
0.0
 11
6.600054785286829
 21
-1.261213355974178E-13
 31
0.0
210
0.0
220
0.0
230
1.0
 40
0.636358354079598
 41
0.9219305317359503
 42
6.513795318482858
  0
ELLIPSE
  5
83
330
7F
100
AcDbEntity
  8
중심선
100
AcDbEllipse
 10
20.54032771746488
 20
12.04717430159265
 30
0.0
 11
3.960054785062283
 21
1.540847449632565E-10
 31
0.0
210
0.0
220
0.0
230
1.0
 40
0.3939339440162632
 41
1.131841032648279
 42
5.62031148352944
  0
LINE
  5
84
330
7F
100
AcDbEntity
  8
중심선
100
AcDbLine
 10
2.268634060543552
 20
16.24717430164393
 30
0.0
 11
5.714909304380834
 21
16.24717430164393
 31
0.0
  0
LINE
  5
85
330
7F
100
AcDbEntity
  8
중심선
100
AcDbLine
 10
5.245725140726316
 20
7.84717430164391
 30
0.0
 11
8.692000384563599
 21
7.84717430164391
 31
0.0
  0
LINE
  5
86
330
7F
100
AcDbEntity
  8
중심선
100
AcDbLine
 10
15.74043728645272
 20
16.24717430164393
 30
0.0
 11
8.692000384563599
 21
7.84717430164391
 31
0.0
  0
LINE
  5
87
330
7F
100
AcDbEntity
  8
중심선
100
AcDbLine
 10
0.1404042013395286
 20
13.71084872107135
 30
0.0
 11
3.58671253028996
 21
13.71088815037384
 31
0.0
  0
LINE
  5
88
330
7F
100
AcDbEntity
  8
중심선
100
AcDbLine
 10
2.750260043222114
 20
10.84717430164391
 30
0.0
 11
6.196535287059397
 21
10.84717430164391
 31
0.0
  0
LINE
  5
89
330
7F
100
AcDbEntity
  8
중심선
100
AcDbLine
 10
12.29416204261559
 20
16.24717430164393
 30
0.0
 11
5.245725140726316
 21
7.84717430164391
 31
0.0
  0
LINE
  5
8A
330
7F
100
AcDbEntity
  8
중심선
100
AcDbLine
 10
10.72767329541681
 20
16.24717430164393
 30
0.0
 11
6.196535287059397
 21
10.84717430164391
 31
0.0
  0
LINE
  5
8B
330
7F
100
AcDbEntity
  8
중심선
100
AcDbLine
 10
7.28139805157953
 20
16.24717430164393
 30
0.0
 11
2.750260043222114
 21
10.84717430164391
 31
0.0
  0
LINE
  5
8C
330
7F
100
AcDbEntity
  8
중심선
100
AcDbLine
 10
5.714909304380834
 20
16.24717430164393
 30
0.0
 11
3.58671253028996
 21
13.71088815037384
 31
0.0
  0
LINE
  5
8D
330
7F
100
AcDbEntity
  8
중심선
100
AcDbLine
 10
2.268634060543552
 20
16.24717430164393
 30
0.0
 11
0.1404042013395286
 21
13.71084872107135
 31
0.0
  0
LINE
  5
8E
330
7F
100
AcDbEntity
  8
중심선
100
AcDbLine
 10
7.28139805157953
 20
16.24717430164393
 30
0.0
 11
10.72767329541681
 21
16.24717430164393
 31
0.0
  0
LINE
  5
8F
330
7F
100
AcDbEntity
  8
중심선
100
AcDbLine
 10
12.29416204261559
 20
16.24717430164393
 30
0.0
 11
15.74043728645272
 21
16.24717430164393
 31
0.0
  0
LINE
  5
90
330
7F
100
AcDbEntity
  8
중심선
100
AcDbLine
 10
19.22036997980202
 20
11.08717430171403
 30
0.0
 11
23.66174974927406
 21
11.08717430171406
 31
0.0
  0
LINE
  5
91
330
7F
100
AcDbEntity
  8
중심선
100
AcDbLine
 10
19.22039502424796
 20
13.00717430171391
 30
0.0
 11
19.22036997980202
 21
11.08717430171403
 31
0.0
  0
LINE
  5
92
330
7F
100
AcDbEntity
  8
중심선
100
AcDbLine
 10
19.22039502424796
 20
13.00717430171391
 30
0.0
 11
26.96566020931264
 21
13.00717430171391
 31
0.0
  0
LINE
  5
93
330
7F
100
AcDbEntity
  8
중심선
100
AcDbLine
 10
22.22332737316547
 20
13.45928029700563
 30
0.0
 11
24.52862924686651
 21
15.39360700705356
 31
0.0
  0
ATTDEF
  5
95
330
7F
100
AcDbEntity
  8
FORMAT
 62
     2
100
AcDbText
 10
4.408487351596664
 20
2.075366912832191
 30
0.0
 40
4.233333333333333
  1
E1053014
 41
0.75
  7
SLDTEXTSTYLE0
 11
4.408487351596664
 21
-0.0412997538344756
 31
0.0
100
AcDbAttributeDefinition
  3

  2
AUTOATTR0
 70
     0
 74
     1
  0
ENDBLK
  5
81
330
7F
100
AcDbEntity
  8
0
100
AcDbBlockEnd
  0
BLOCK
  5
D6
330
D5
100
AcDbEntity
  8
0
100
AcDbBlockBegin
  2
_D
 70
     0
 10
0.0
 20
0.0
 30
0.0
  3
_D
  1
_D
  0
LINE
  5
D8
330
D5
100
AcDbEntity
  8
치수문자_일반주서
 62
     0
370
    -2
100
AcDbLine
 10
41.33749999999999
 20
2.778125000000005
 30
0.0
 11
55.675493578134
 21
2.778125000000056
 31
0.0
  0
LINE
  5
D9
330
D5
100
AcDbEntity
  8
치수문자_일반주서
 62
     0
370
    -2
100
AcDbLine
 10
41.33749999999995
 20
-2.778124999999995
 30
0.0
 11
55.67549357813402
 21
-2.778124999999942
 31
0.0
  0
LINE
  5
DA
330
D5
100
AcDbEntity
  8
치수문자_일반주서
 62
     0
370
    -2
100
AcDbLine
 10
55.675493578134
 20
2.778125000000056
 30
0.0
 11
55.67549357813385
 21
43.29535403243348
 31
0.0
  0
LINE
  5
DB
330
D5
100
AcDbEntity
  8
치수문자_일반주서
 62
     0
370
    -2
100
AcDbLine
 10
55.675493578134
 20
2.778125000000056
 30
0.0
 11
55.67549357813402
 21
-2.778124999999942
 31
0.0
  0
LINE
  5
DC
330
D5
100
AcDbEntity
  8
치수문자_일반주서
 62
     0
370
    -2
100
AcDbLine
 10
55.67549357813399
 20
6.080125000000056
 30
0.0
 11
55.67549357813397
 21
9.382125000000055
 31
0.0
  0
LINE
  5
DD
330
D5
100
AcDbEntity
  8
치수문자_일반주서
 62
     0
370
    -2
100
AcDbLine
 10
55.67549357813404
 20
-6.080124999999942
 30
0.0
 11
55.67549357813405
 21
-9.382124999999942
 31
0.0
  0
SOLID
  5
DE
330
D5
100
AcDbEntity
  8
치수문자_일반주서
 62
     0
100
AcDbTrace
 10
55.12516024480065
 20
6.080125000000054
 30
0.0
 11
56.22582691146732
 21
6.080125000000058
 31
0.0
 12
55.675493578134
 22
2.778125000000056
 32
0.0
 13
55.675493578134
 23
2.778125000000056
 33
0.0
  0
SOLID
  5
DF
330
D5
100
AcDbEntity
  8
치수문자_일반주서
 62
     0
100
AcDbTrace
 10
56.22582691146737
 20
-6.08012499999994
 30
0.0
 11
55.1251602448007
 21
-6.080124999999944
 31
0.0
 12
55.67549357813402
 22
-2.778124999999942
 32
0.0
 13
55.67549357813402
 23
-2.778124999999942
 33
0.0
  0
MTEXT
  5
E0
330
D5
100
AcDbEntity
  8
치수문자_일반주서
 62
     0
100
AcDbMText
 10
51.3004935781339
 20
28.85785403243345
 30
0.0
 40
3.5
 41
0.0
 71
     2
 72
     1
  1
\A1;%%c5.56 [7/32]
  7
SLDTEXTSTYLE0
 11
-3.836451216702453E-15
 21
1.0
 31
0.0
 73
     1
 44
1.0
  0
POINT
  5
E1
330
D5
100
AcDbEntity
  8
Defpoints
 62
     0
100
AcDbPoint
 10
41.27499999999999
 20
2.778125000000005
 30
0.0
  0
POINT
  5
E2
330
D5
100
AcDbEntity
  8
Defpoints
 62
     0
100
AcDbPoint
 10
41.27499999999995
 20
-2.778124999999995
 30
0.0
  0
POINT
  5
E3
330
D5
100
AcDbEntity
  8
Defpoints
 62
     0
100
AcDbPoint
 10
55.67549357813402
 20
-2.778124999999942
 30
0.0
  0
ENDBLK
  5
D7
330
D5
100
AcDbEntity
  8
0
100
AcDbBlockEnd
  0
BLOCK
  5
EB
330
EA
100
AcDbEntity
  8
0
100
AcDbBlockBegin
  2
_D_1
 70
     0
 10
0.0
 20
0.0
 30
0.0
  3
_D_1
  1
_D_1
  0
LINE
  5
ED
330
EA
100
AcDbEntity
  8
치수문자_일반주서
 62
     0
370
    -2
100
AcDbLine
 10
41.27499999999999
 20
2.840625000000005
 30
0.0
 11
41.27499999999999
 21
14.28320315043476
 31
0.0
  0
LINE
  5
EE
330
EA
100
AcDbEntity
  8
치수문자_일반주서
 62
     0
370
    -2
100
AcDbLine
 10
26.98750000000003
 20
2.830242951574443
 30
0.0
 11
26.98750000000003
 21
14.28320315043476
 31
0.0
  0
LINE
  5
EF
330
EA
100
AcDbEntity
  8
치수문자_일반주서
 62
     0
370
    -2
100
AcDbLine
 10
26.98750000000003
 20
14.28320315043476
 30
0.0
 11
-6.741499999999967
 21
14.28320315043476
 31
0.0
  0
LINE
  5
F0
330
EA
100
AcDbEntity
  8
치수문자_일반주서
 62
     0
370
    -2
100
AcDbLine
 10
41.27499999999999
 20
14.28320315043476
 30
0.0
 11
26.98750000000003
 21
14.28320315043476
 31
0.0
  0
LINE
  5
F1
330
EA
100
AcDbEntity
  8
치수문자_일반주서
 62
     0
370
    -2
100
AcDbLine
 10
44.57699999999999
 20
14.28320315043476
 30
0.0
 11
47.87899999999999
 21
14.28320315043476
 31
0.0
  0
LINE
  5
F2
330
EA
100
AcDbEntity
  8
치수문자_일반주서
 62
     0
370
    -2
100
AcDbLine
 10
23.68550000000003
 20
14.28320315043476
 30
0.0
 11
20.38350000000003
 21
14.28320315043476
 31
0.0
  0
SOLID
  5
F3
330
EA
100
AcDbEntity
  8
치수문자_일반주서
 62
     0
100
AcDbTrace
 10
44.57699999999999
 20
14.83353648376809
 30
0.0
 11
44.57699999999999
 21
13.73286981710143
 31
0.0
 12
41.27499999999999
 22
14.28320315043476
 32
0.0
 13
41.27499999999999
 23
14.28320315043476
 33
0.0
  0
SOLID
  5
F4
330
EA
100
AcDbEntity
  8
치수문자_일반주서
 62
     0
100
AcDbTrace
 10
23.68550000000003
 20
13.73286981710143
 30
0.0
 11
23.68550000000003
 21
14.83353648376809
 31
0.0
 12
26.98750000000003
 22
14.28320315043476
 32
0.0
 13
26.98750000000003
 23
14.28320315043476
 33
0.0
  0
MTEXT
  5
F5
330
EA
100
AcDbEntity
  8
치수문자_일반주서
 62
     0
100
AcDbMText
 10
6.821000000000033
 20
18.65820315043476
 30
0.0
 40
3.5
 41
0.0
 71
     2
 72
     1
  1
\A1;14.29 [9/16]
  7
SLDTEXTSTYLE0
 73
     1
 44
1.0
  0
POINT
  5
F6
330
EA
100
AcDbEntity
  8
Defpoints
 62
     0
100
AcDbPoint
 10
41.27499999999999
 20
2.778125000000005
 30
0.0
  0
POINT
  5
267
330
EA
100
AcDbEntity
  8
Defpoints
 62
     0
100
AcDbPoint
 10
26.98750000000003
 20
2.767742951574443
 30
0.0
  0
POINT
  5
268
330
EA
100
AcDbEntity
  8
Defpoints
 62
     0
100
AcDbPoint
 10
26.98750000000003
 20
14.28320315043476
 30
0.0
  0
ENDBLK
  5
EC
330
EA
100
AcDbEntity
  8
0
100
AcDbBlockEnd
  0
BLOCK
  5
FF
330
FE
100
AcDbEntity
  8
0
100
AcDbBlockBegin
  2
_D_2
 70
     0
 10
0.0
 20
0.0
 30
0.0
  3
_D_2
  1
_D_2
  0
LINE
  5
101
330
FE
100
AcDbEntity
  8
치수문자_일반주서
 62
     0
370
    -2
100
AcDbLine
 10
41.27499999999999
 20
2.840625000000005
 30
0.0
 11
41.27499999999999
 21
26.62477741403013
 31
0.0
  0
LINE
  5
102
330
FE
100
AcDbEntity
  8
치수문자_일반주서
 62
     0
370
    -2
100
AcDbLine
 10
-41.27499999999998
 20
2.840625000000017
 30
0.0
 11
-41.27499999999998
 21
26.62477741403013
 31
0.0
  0
LINE
  5
103
330
FE
100
AcDbEntity
  8
치수문자_일반주서
 62
     0
370
    -2
100
AcDbLine
 10
37.97299999999999
 20
26.62477741403013
 30
0.0
 11
-37.97299999999998
 21
26.62477741403013
 31
0.0
  0
SOLID
  5
104
330
FE
100
AcDbEntity
  8
치수문자_일반주서
 62
     0
100
AcDbTrace
 10
37.97299999999999
 20
26.07444408069679
 30
0.0
 11
37.97299999999999
 21
27.17511074736346
 31
0.0
 12
41.27499999999999
 22
26.62477741403013
 32
0.0
 13
41.27499999999999
 23
26.62477741403013
 33
0.0
  0
SOLID
  5
105
330
FE
100
AcDbEntity
  8
치수문자_일반주서
 62
     0
100
AcDbTrace
 10
-37.97299999999998
 20
27.17511074736346
 30
0.0
 11
-37.97299999999998
 21
26.07444408069679
 31
0.0
 12
-41.27499999999998
 22
26.62477741403013
 32
0.0
 13
-41.27499999999998
 23
26.62477741403013
 33
0.0
  0
MTEXT
  5
106
330
FE
100
AcDbEntity
  8
치수문자_일반주서
 62
     0
100
AcDbMText
 10
-1.395264422137529
 20
30.99977741403013
 30
0.0
 40
3.5
 41
0.0
 71
     2
 72
     1
  1
\A1;82.55 [3 1/4]
  7
SLDTEXTSTYLE0
 73
     1
 44
1.0
  0
POINT
  5
107
330
FE
100
AcDbEntity
  8
Defpoints
 62
     0
100
AcDbPoint
 10
41.27499999999999
 20
2.778125000000005
 30
0.0
  0
POINT
  5
108
330
FE
100
AcDbEntity
  8
Defpoints
 62
     0
100
AcDbPoint
 10
-41.27499999999998
 20
2.778125000000017
 30
0.0
  0
POINT
  5
109
330
FE
100
AcDbEntity
  8
Defpoints
 62
     0
100
AcDbPoint
 10
-41.27499999999998
 20
26.62477741403013
 30
0.0
  0
ENDBLK
  5
100
330
FE
100
AcDbEntity
  8
0
100
AcDbBlockEnd
  0
BLOCK
  5
112
330
111
100
AcDbEntity
  8
0
100
AcDbBlockBegin
  2
_D_3
 70
     0
 10
0.0
 20
0.0
 30
0.0
  3
_D_3
  1
_D_3
  0
LINE
  5
114
330
111
100
AcDbEntity
  8
치수문자_일반주서
 62
     0
370
    -2
100
AcDbLine
 10
-18.64421167873053
 20
4.762500000000018
 30
0.0
 11
-53.79875000000003
 21
4.762499999999886
 31
0.0
  0
LINE
  5
115
330
111
100
AcDbEntity
  8
치수문자_일반주서
 62
     0
370
    -2
100
AcDbLine
 10
-18.64421167873053
 20
-4.762499999999988
 30
0.0
 11
-53.79874999999999
 21
-4.762500000000119
 31
0.0
  0
LINE
  5
116
330
111
100
AcDbEntity
  8
치수문자_일반주서
 62
     0
370
    -2
100
AcDbLine
 10
-53.79875000000001
 20
1.460499999999887
 30
0.0
 11
-53.79875000000001
 21
-1.46050000000012
 31
0.0
  0
SOLID
  5
117
330
111
100
AcDbEntity
  8
치수문자_일반주서
 62
     0
100
AcDbTrace
 10
-53.24841666666668
 20
1.460499999999889
 30
0.0
 11
-54.34908333333335
 21
1.460499999999885
 31
0.0
 12
-53.79875000000003
 22
4.762499999999886
 32
0.0
 13
-53.79875000000003
 23
4.762499999999886
 33
0.0
  0
SOLID
  5
118
330
111
100
AcDbEntity
  8
치수문자_일반주서
 62
     0
100
AcDbTrace
 10
-54.34908333333334
 20
-1.460500000000122
 30
0.0
 11
-53.24841666666667
 21
-1.460500000000118
 31
0.0
 12
-53.79874999999999
 22
-4.762500000000119
 32
0.0
 13
-53.79874999999999
 23
-4.762500000000119
 33
0.0
  0
MTEXT
  5
119
330
111
100
AcDbEntity
  8
치수문자_일반주서
 62
     0
100
AcDbMText
 10
-58.17375000000001
 20
-0.0000000000000152
 30
0.0
 40
3.5
 41
0.0
 71
     2
 72
     1
  1
\A1;%%c9.53 [3/8]
  7
SLDTEXTSTYLE0
 11
-3.729883127349605E-15
 21
1.0
 31
0.0
 73
     1
 44
1.0
  0
POINT
  5
11A
330
111
100
AcDbEntity
  8
Defpoints
 62
     0
100
AcDbPoint
 10
-18.58171167873053
 20
4.762500000000018
 30
0.0
  0
POINT
  5
11B
330
111
100
AcDbEntity
  8
Defpoints
 62
     0
100
AcDbPoint
 10
-18.58171167873053
 20
-4.762499999999988
 30
0.0
  0
POINT
  5
11C
330
111
100
AcDbEntity
  8
Defpoints
 62
     0
100
AcDbPoint
 10
-53.79874999999999
 20
-4.762500000000119
 30
0.0
  0
ENDBLK
  5
113
330
111
100
AcDbEntity
  8
0
100
AcDbBlockEnd
  0
BLOCK
  5
12C
330
12B
100
AcDbEntity
  8
0
100
AcDbBlockBegin
  2
SW_DOWELSYMBOL_0
 70
     0
 10
0.0
 20
0.0
 30
0.0
  3
SW_DOWELSYMBOL_0
  1
SW_DOWELSYMBOL_0
  0
CIRCLE
  5
12E
330
12B
100
AcDbEntity
  8
해칭선
 62
     0
100
AcDbCircle
 10
0.0
 20
0.0
 30
0.0
 40
3.000000000000008
  0
HATCH
  5
12F
330
12B
100
AcDbEntity
  8
0
  6
Continuous
 62
     0
370
     0
100
AcDbHatch
 10
0.0
 20
0.0
 30
0.0
210
0.0
220
0.0
230
1.0
  2
SOLID
 70
     1
 71
     0
 91
        1
 92
        0
 93
        3
 72
     2
 10
0.0
 20
0.0
 40
3.000000000000008
 50
0.0
 51
90.0
 73
     1
 72
     1
 10
0.0
 20
3.000000000000008
 11
0.0
 21
0.0
 72
     1
 10
0.0
 20
0.0
 11
3.00000000000001
 21
0.0
 97
        0
 75
     0
 76
     1
 98
        1
 10
0.0
 20
0.0
  0
HATCH
  5
130
330
12B
100
AcDbEntity
  8
0
  6
Continuous
 62
     0
370
     0
100
AcDbHatch
 10
0.0
 20
0.0
 30
0.0
210
0.0
220
0.0
230
1.0
  2
SOLID
 70
     1
 71
     0
 91
        1
 92
        0
 93
        3
 72
     2
 10
0.0
 20
0.0
 40
3.000000000000008
 50
180.0
 51
270.0000000000007
 73
     1
 72
     1
 10
0.0
 20
-3.000000000000008
 11
0.0
 21
0.0
 72
     1
 10
0.0
 20
0.0
 11
-3.000000000000008
 21
0.0
 97
        0
 75
     0
 76
     1
 98
        1
 10
0.0
 20
0.0
  0
ENDBLK
  5
12D
330
12B
100
AcDbEntity
  8
0
100
AcDbBlockEnd
  0
BLOCK
  5
1E4
330
1E3
100
AcDbEntity
  8
0
100
AcDbBlockBegin
  2
*D7
 70
     1
 10
0.0
 20
0.0
 30
0.0
  3
*D7
  1
*D8
  0
LINE
  5
1E6
330
1E3
100
AcDbEntity
  8
치수문자_일반주서
 62
     0
370
    -2
100
AcDbLine
 10
85.61249999999998
 20
11.76337499999994
 30
0.0
 11
100.3399244439394
 21
11.763375
 31
0.0
  0
LINE
  5
1E7
330
1E3
100
AcDbEntity
  8
치수문자_일반주서
 62
     0
370
    -2
100
AcDbLine
 10
85.61249999999998
 20
6.603999999999946
 30
0.0
 11
100.3399244439394
 21
6.603999999999999
 31
0.0
  0
LINE
  5
1E8
330
1E3
100
AcDbEntity
  8
치수문자_일반주서
 62
     0
370
    -2
100
AcDbLine
 10
100.3399244439394
 20
11.763375
 30
0.0
 11
100.3399244439393
 21
50.85526624440244
 31
0.0
  0
LINE
  5
1E9
330
1E3
100
AcDbEntity
  8
치수문자_일반주서
 62
     0
370
    -2
100
AcDbLine
 10
100.3399244439394
 20
11.763375
 30
0.0
 11
100.3399244439394
 21
6.603999999999999
 31
0.0
  0
LINE
  5
1EA
330
1E3
100
AcDbEntity
  8
치수문자_일반주서
 62
     0
370
    -2
100
AcDbLine
 10
100.3399244439394
 20
15.065375
 30
0.0
 11
100.3399244439394
 21
18.367375
 31
0.0
  0
LINE
  5
1EB
330
1E3
100
AcDbEntity
  8
치수문자_일반주서
 62
     0
370
    -2
100
AcDbLine
 10
100.3399244439394
 20
3.302
 30
0.0
 11
100.3399244439394
 21
0.0
 31
0.0
  0
SOLID
  5
1EC
330
1E3
100
AcDbEntity
  8
치수문자_일반주서
 62
     0
100
AcDbTrace
 10
99.78959111060604
 20
15.065375
 30
0.0
 11
100.8902577772727
 21
15.065375
 31
0.0
 12
100.3399244439394
 22
11.763375
 32
0.0
 13
100.3399244439394
 23
11.763375
 33
0.0
  0
SOLID
  5
1ED
330
1E3
100
AcDbEntity
  8
치수문자_일반주서
 62
     0
100
AcDbTrace
 10
100.8902577772727
 20
3.302000000000001
 30
0.0
 11
99.78959111060608
 21
3.301999999999998
 31
0.0
 12
100.3399244439394
 22
6.603999999999999
 32
0.0
 13
100.3399244439394
 23
6.603999999999999
 33
0.0
  0
MTEXT
  5
1EE
330
1E3
100
AcDbEntity
  8
치수문자_일반주서
 62
     0
100
AcDbMText
 10
95.96492444393931
 20
35.98026624440243
 30
0.0
 40
3.5
 41
0.0
 71
     2
 72
     1
  1
\A1;%%c5.16 [13/64]
  7
SLDTEXTSTYLE0
 11
-2.754375232504326E-15
 21
1.0
 31
0.0
 73
     1
 44
1.0
  0
POINT
  5
1EF
330
1E3
100
AcDbEntity
  8
Defpoints
 62
     0
100
AcDbPoint
 10
85.54999999999998
 20
11.76337499999994
 30
0.0
  0
POINT
  5
1F0
330
1E3
100
AcDbEntity
  8
Defpoints
 62
     0
100
AcDbPoint
 10
85.54999999999998
 20
6.603999999999946
 30
0.0
  0
POINT
  5
1F1
330
1E3
100
AcDbEntity
  8
Defpoints
 62
     0
100
AcDbPoint
 10
100.3399244439394
 20
6.604000000000001
 30
0.0
  0
ENDBLK
  5
1E5
330
1E3
100
AcDbEntity
  8
0
100
AcDbBlockEnd
  0
BLOCK
  5
1F3
330
1F2
100
AcDbEntity
  8
0
100
AcDbBlockBegin
  2
*D8
 70
     1
 10
0.0
 20
0.0
 30
0.0
  3
*D8
  1
*D9
  0
LINE
  5
1F5
330
1F2
100
AcDbEntity
  8
치수문자_일반주서
 62
     0
370
    -2
100
AcDbLine
 10
85.54999999999998
 20
11.82587499999994
 30
0.0
 11
85.54999999999998
 21
23.95029290934072
 31
0.0
  0
LINE
  5
1F6
330
1F2
100
AcDbEntity
  8
치수문자_일반주서
 62
     0
370
    -2
100
AcDbLine
 10
71.26250000000002
 20
11.79990566408955
 30
0.0
 11
71.26250000000002
 21
23.95029290934072
 31
0.0
  0
LINE
  5
1F7
330
1F2
100
AcDbEntity
  8
치수문자_일반주서
 62
     0
370
    -2
100
AcDbLine
 10
71.26250000000002
 20
23.95029290934072
 30
0.0
 11
37.53350000000002
 21
23.95029290934072
 31
0.0
  0
LINE
  5
1F8
330
1F2
100
AcDbEntity
  8
치수문자_일반주서
 62
     0
370
    -2
100
AcDbLine
 10
85.54999999999998
 20
23.95029290934072
 30
0.0
 11
71.26250000000002
 21
23.95029290934072
 31
0.0
  0
LINE
  5
1F9
330
1F2
100
AcDbEntity
  8
치수문자_일반주서
 62
     0
370
    -2
100
AcDbLine
 10
88.85199999999998
 20
23.95029290934072
 30
0.0
 11
92.15399999999997
 21
23.95029290934072
 31
0.0
  0
LINE
  5
1FA
330
1F2
100
AcDbEntity
  8
치수문자_일반주서
 62
     0
370
    -2
100
AcDbLine
 10
67.96050000000002
 20
23.95029290934072
 30
0.0
 11
64.65850000000003
 21
23.95029290934072
 31
0.0
  0
SOLID
  5
1FB
330
1F2
100
AcDbEntity
  8
치수문자_일반주서
 62
     0
100
AcDbTrace
 10
88.85199999999998
 20
24.50062624267405
 30
0.0
 11
88.85199999999998
 21
23.39995957600738
 31
0.0
 12
85.54999999999998
 22
23.95029290934072
 32
0.0
 13
85.54999999999998
 23
23.95029290934072
 33
0.0
  0
SOLID
  5
1FC
330
1F2
100
AcDbEntity
  8
치수문자_일반주서
 62
     0
100
AcDbTrace
 10
67.96050000000002
 20
23.39995957600738
 30
0.0
 11
67.96050000000002
 21
24.50062624267405
 31
0.0
 12
71.26250000000002
 22
23.95029290934072
 32
0.0
 13
71.26250000000002
 23
23.95029290934072
 33
0.0
  0
MTEXT
  5
1FD
330
1F2
100
AcDbEntity
  8
치수문자_일반주서
 62
     0
100
AcDbMText
 10
51.09600000000001
 20
28.32529290934072
 30
0.0
 40
3.5
 41
0.0
 71
     2
 72
     1
  1
\A1;14.29 [9/16]
  7
SLDTEXTSTYLE0
 73
     1
 44
1.0
  0
POINT
  5
1FE
330
1F2
100
AcDbEntity
  8
Defpoints
 62
     0
100
AcDbPoint
 10
85.54999999999998
 20
11.76337499999994
 30
0.0
  0
POINT
  5
1FF
330
1F2
100
AcDbEntity
  8
Defpoints
 62
     0
100
AcDbPoint
 10
71.26250000000002
 20
11.73740566408955
 30
0.0
  0
POINT
  5
200
330
1F2
100
AcDbEntity
  8
Defpoints
 62
     0
100
AcDbPoint
 10
71.26250000000002
 20
23.95029290934072
 30
0.0
  0
ENDBLK
  5
1F4
330
1F2
100
AcDbEntity
  8
0
100
AcDbBlockEnd
  0
BLOCK
  5
202
330
201
100
AcDbEntity
  8
0
100
AcDbBlockBegin
  2
*D9
 70
     1
 10
0.0
 20
0.0
 30
0.0
  3
*D9
  1
*D10
  0
LINE
  5
204
330
201
100
AcDbEntity
  8
치수문자_일반주서
 62
     0
370
    -2
100
AcDbLine
 10
85.54999999999998
 20
11.82587499999994
 30
0.0
 11
85.54999999999998
 21
36.99519310816819
 31
0.0
  0
LINE
  5
205
330
201
100
AcDbEntity
  8
치수문자_일반주서
 62
     0
370
    -2
100
AcDbLine
 10
3.000000000000007
 20
13.05618749999994
 30
0.0
 11
3.000000000000007
 21
36.99519310816819
 31
0.0
  0
LINE
  5
206
330
201
100
AcDbEntity
  8
치수문자_일반주서
 62
     0
370
    -2
100
AcDbLine
 10
82.24799999999999
 20
36.99519310816819
 30
0.0
 11
6.302000000000007
 21
36.99519310816819
 31
0.0
  0
SOLID
  5
207
330
201
100
AcDbEntity
  8
치수문자_일반주서
 62
     0
100
AcDbTrace
 10
82.24799999999999
 20
36.44485977483486
 30
0.0
 11
82.24799999999999
 21
37.54552644150153
 31
0.0
 12
85.54999999999998
 22
36.99519310816819
 32
0.0
 13
85.54999999999998
 23
36.99519310816819
 33
0.0
  0
SOLID
  5
208
330
201
100
AcDbEntity
  8
치수문자_일반주서
 62
     0
100
AcDbTrace
 10
6.302000000000007
 20
37.54552644150153
 30
0.0
 11
6.302000000000007
 21
36.44485977483486
 31
0.0
 12
3.000000000000007
 22
36.99519310816819
 32
0.0
 13
3.000000000000007
 23
36.99519310816819
 33
0.0
  0
MTEXT
  5
209
330
201
100
AcDbEntity
  8
치수문자_일반주서
 62
     0
100
AcDbMText
 10
43.71824184139211
 20
41.37019310816819
 30
0.0
 40
3.5
 41
0.0
 71
     2
 72
     1
  1
\A1;82.55 [3 1/4]
  7
SLDTEXTSTYLE0
 73
     1
 44
1.0
  0
POINT
  5
20A
330
201
100
AcDbEntity
  8
Defpoints
 62
     0
100
AcDbPoint
 10
85.54999999999998
 20
11.76337499999994
 30
0.0
  0
POINT
  5
20B
330
201
100
AcDbEntity
  8
Defpoints
 62
     0
100
AcDbPoint
 10
3.000000000000007
 20
12.99368749999994
 30
0.0
  0
POINT
  5
20C
330
201
100
AcDbEntity
  8
Defpoints
 62
     0
100
AcDbPoint
 10
3.000000000000007
 20
36.99519310816819
 30
0.0
  0
ENDBLK
  5
203
330
201
100
AcDbEntity
  8
0
100
AcDbBlockEnd
  0
BLOCK
  5
23E
330
23D
100
AcDbEntity
  8
0
100
AcDbBlockBegin
  2
*D10
 70
     1
 10
0.0
 20
0.0
 30
0.0
  3
*D10
  1
*D11
  0
LINE
  5
240
330
23D
100
AcDbEntity
  8
치수문자_일반주서
 62
     0
370
    -2
100
AcDbLine
 10
152.4780701679355
 20
-38.0658785807868
 30
0.0
 11
167.205494611875
 21
-38.06587858078674
 31
0.0
  0
LINE
  5
241
330
23D
100
AcDbEntity
  8
치수문자_일반주서
 62
     0
370
    -2
100
AcDbLine
 10
152.4780701679355
 20
-43.2252535807868
 30
0.0
 11
167.205494611875
 21
-43.22525358078674
 31
0.0
  0
LINE
  5
242
330
23D
100
AcDbEntity
  8
치수문자_일반주서
 62
     0
370
    -2
100
AcDbLine
 10
167.205494611875
 20
-38.06587858078674
 30
0.0
 11
167.2054946118748
 21
1.026012663615695
 31
0.0
  0
LINE
  5
243
330
23D
100
AcDbEntity
  8
치수문자_일반주서
 62
     0
370
    -2
100
AcDbLine
 10
167.205494611875
 20
-38.06587858078674
 30
0.0
 11
167.205494611875
 21
-43.22525358078674
 31
0.0
  0
LINE
  5
244
330
23D
100
AcDbEntity
  8
치수문자_일반주서
 62
     0
370
    -2
100
AcDbLine
 10
167.205494611875
 20
-34.76387858078674
 30
0.0
 11
167.2054946118749
 21
-31.46187858078675
 31
0.0
  0
LINE
  5
245
330
23D
100
AcDbEntity
  8
치수문자_일반주서
 62
     0
370
    -2
100
AcDbLine
 10
167.2054946118751
 20
-46.52725358078674
 30
0.0
 11
167.2054946118751
 21
-49.82925358078674
 31
0.0
  0
SOLID
  5
246
330
23D
100
AcDbEntity
  8
치수문자_일반주서
 62
     0
100
AcDbTrace
 10
166.6551612785416
 20
-34.76387858078674
 30
0.0
 11
167.7558279452083
 21
-34.76387858078674
 31
0.0
 12
167.205494611875
 22
-38.06587858078674
 32
0.0
 13
167.205494611875
 23
-38.06587858078674
 33
0.0
  0
SOLID
  5
247
330
23D
100
AcDbEntity
  8
치수문자_일반주서
 62
     0
100
AcDbTrace
 10
167.7558279452084
 20
-46.52725358078674
 30
0.0
 11
166.6551612785417
 21
-46.52725358078674
 31
0.0
 12
167.205494611875
 22
-43.22525358078674
 32
0.0
 13
167.205494611875
 23
-43.22525358078674
 33
0.0
  0
MTEXT
  5
248
330
23D
100
AcDbEntity
  8
치수문자_일반주서
 62
     0
100
AcDbMText
 10
162.8304946118749
 20
-13.84898733638433
 30
0.0
 40
3.5
 41
0.0
 71
     2
 72
     1
  1
\A1;%%c5.16 [13/64]
  7
SLDTEXTSTYLE0
 11
-5.508750465008654E-15
 21
1.0
 31
0.0
 73
     1
 44
1.0
  0
POINT
  5
249
330
23D
100
AcDbEntity
  8
Defpoints
 62
     0
100
AcDbPoint
 10
152.4155701679355
 20
-38.0658785807868
 30
0.0
  0
POINT
  5
24A
330
23D
100
AcDbEntity
  8
Defpoints
 62
     0
100
AcDbPoint
 10
152.4155701679355
 20
-43.2252535807868
 30
0.0
  0
POINT
  5
24B
330
23D
100
AcDbEntity
  8
Defpoints
 62
     0
100
AcDbPoint
 10
167.2054946118749
 20
-43.22525358078674
 30
0.0
  0
ENDBLK
  5
23F
330
23D
100
AcDbEntity
  8
0
100
AcDbBlockEnd
  0
BLOCK
  5
24D
330
24C
100
AcDbEntity
  8
0
100
AcDbBlockBegin
  2
*D11
 70
     1
 10
0.0
 20
0.0
 30
0.0
  3
*D11
  1
*D12
  0
LINE
  5
24F
330
24C
100
AcDbEntity
  8
치수문자_일반주서
 62
     0
370
    -2
100
AcDbLine
 10
152.4155701679355
 20
-38.0033785807868
 30
0.0
 11
152.4155701679355
 21
-25.87896067144603
 31
0.0
  0
LINE
  5
250
330
24C
100
AcDbEntity
  8
치수문자_일반주서
 62
     0
370
    -2
100
AcDbLine
 10
138.1280701679356
 20
-38.0293479166972
 30
0.0
 11
138.1280701679356
 21
-25.87896067144603
 31
0.0
  0
LINE
  5
251
330
24C
100
AcDbEntity
  8
치수문자_일반주서
 62
     0
370
    -2
100
AcDbLine
 10
138.1280701679356
 20
-25.87896067144603
 30
0.0
 11
104.3990701679355
 21
-25.87896067144603
 31
0.0
  0
LINE
  5
252
330
24C
100
AcDbEntity
  8
치수문자_일반주서
 62
     0
370
    -2
100
AcDbLine
 10
152.4155701679355
 20
-25.87896067144603
 30
0.0
 11
138.1280701679356
 21
-25.87896067144603
 31
0.0
  0
LINE
  5
253
330
24C
100
AcDbEntity
  8
치수문자_일반주서
 62
     0
370
    -2
100
AcDbLine
 10
155.7175701679355
 20
-25.87896067144603
 30
0.0
 11
159.0195701679355
 21
-25.87896067144603
 31
0.0
  0
LINE
  5
254
330
24C
100
AcDbEntity
  8
치수문자_일반주서
 62
     0
370
    -2
100
AcDbLine
 10
134.8260701679356
 20
-25.87896067144603
 30
0.0
 11
131.5240701679356
 21
-25.87896067144603
 31
0.0
  0
SOLID
  5
255
330
24C
100
AcDbEntity
  8
치수문자_일반주서
 62
     0
100
AcDbTrace
 10
155.7175701679355
 20
-25.3286273381127
 30
0.0
 11
155.7175701679355
 21
-26.42929400477936
 31
0.0
 12
152.4155701679355
 22
-25.87896067144603
 32
0.0
 13
152.4155701679355
 23
-25.87896067144603
 33
0.0
  0
SOLID
  5
256
330
24C
100
AcDbEntity
  8
치수문자_일반주서
 62
     0
100
AcDbTrace
 10
134.8260701679356
 20
-26.42929400477936
 30
0.0
 11
134.8260701679356
 21
-25.3286273381127
 31
0.0
 12
138.1280701679356
 22
-25.87896067144603
 32
0.0
 13
138.1280701679356
 23
-25.87896067144603
 33
0.0
  0
MTEXT
  5
257
330
24C
100
AcDbEntity
  8
치수문자_일반주서
 62
     0
100
AcDbMText
 10
117.9615701679355
 20
-21.50396067144603
 30
0.0
 40
3.5
 41
0.0
 71
     2
 72
     1
  1
\A1;14.29 [9/16]
  7
SLDTEXTSTYLE0
 73
     1
 44
1.0
  0
POINT
  5
258
330
24C
100
AcDbEntity
  8
Defpoints
 62
     0
100
AcDbPoint
 10
152.4155701679355
 20
-38.0658785807868
 30
0.0
  0
POINT
  5
259
330
24C
100
AcDbEntity
  8
Defpoints
 62
     0
100
AcDbPoint
 10
138.1280701679356
 20
-38.0918479166972
 30
0.0
  0
POINT
  5
25A
330
24C
100
AcDbEntity
  8
Defpoints
 62
     0
100
AcDbPoint
 10
138.1280701679356
 20
-25.87896067144603
 30
0.0
  0
ENDBLK
  5
24E
330
24C
100
AcDbEntity
  8
0
100
AcDbBlockEnd
  0
BLOCK
  5
25C
330
25B
100
AcDbEntity
  8
0
100
AcDbBlockBegin
  2
*D12
 70
     1
 10
0.0
 20
0.0
 30
0.0
  3
*D12
  1
*D13
  0
LINE
  5
25E
330
25B
100
AcDbEntity
  8
치수문자_일반주서
 62
     0
370
    -2
100
AcDbLine
 10
152.4155701679355
 20
-38.0033785807868
 30
0.0
 11
152.4155701679355
 21
-12.83406047261855
 31
0.0
  0
LINE
  5
25F
330
25B
100
AcDbEntity
  8
치수문자_일반주서
 62
     0
370
    -2
100
AcDbLine
 10
69.86557016793554
 20
-36.7730660807868
 30
0.0
 11
69.86557016793554
 21
-12.83406047261855
 31
0.0
  0
LINE
  5
260
330
25B
100
AcDbEntity
  8
치수문자_일반주서
 62
     0
370
    -2
100
AcDbLine
 10
149.1135701679355
 20
-12.83406047261855
 30
0.0
 11
73.16757016793554
 21
-12.83406047261855
 31
0.0
  0
SOLID
  5
261
330
25B
100
AcDbEntity
  8
치수문자_일반주서
 62
     0
100
AcDbTrace
 10
149.1135701679355
 20
-13.38439380595189
 30
0.0
 11
149.1135701679355
 21
-12.28372713928522
 31
0.0
 12
152.4155701679355
 22
-12.83406047261855
 32
0.0
 13
152.4155701679355
 23
-12.83406047261855
 33
0.0
  0
SOLID
  5
262
330
25B
100
AcDbEntity
  8
치수문자_일반주서
 62
     0
100
AcDbTrace
 10
73.16757016793554
 20
-12.28372713928522
 30
0.0
 11
73.16757016793554
 21
-13.38439380595189
 31
0.0
 12
69.86557016793554
 22
-12.83406047261855
 32
0.0
 13
69.86557016793554
 23
-12.83406047261855
 33
0.0
  0
MTEXT
  5
263
330
25B
100
AcDbEntity
  8
치수문자_일반주서
 62
     0
100
AcDbMText
 10
110.5838120093277
 20
-8.459060472618553
 30
0.0
 40
3.5
 41
0.0
 71
     2
 72
     1
  1
\A1;82.55 [3 1/4]
  7
SLDTEXTSTYLE0
 73
     1
 44
1.0
  0
POINT
  5
264
330
25B
100
AcDbEntity
  8
Defpoints
 62
     0
100
AcDbPoint
 10
152.4155701679355
 20
-38.0658785807868
 30
0.0
  0
POINT
  5
265
330
25B
100
AcDbEntity
  8
Defpoints
 62
     0
100
AcDbPoint
 10
69.86557016793554
 20
-36.8355660807868
 30
0.0
  0
POINT
  5
266
330
25B
100
AcDbEntity
  8
Defpoints
 62
     0
100
AcDbPoint
 10
69.86557016793554
 20
-12.83406047261855
 30
0.0
  0
ENDBLK
  5
25D
330
25B
100
AcDbEntity
  8
0
100
AcDbBlockEnd
  0
BLOCK
  5
2FB
330
2FA
100
AcDbEntity
  8
0
100
AcDbBlockBegin
  2
*D13
 70
     1
 10
0.0
 20
0.0
 30
0.0
  3
*D13
  1
*D15
  0
LINE
  5
2FD
330
2FA
100
AcDbEntity
  8
치수문자_일반주서
 62
     0
370
    -2
100
AcDbLine
 10
85.6125
 20
12.16024999999995
 30
0.0
 11
99.95049357813399
 21
12.16025
 31
0.0
  0
LINE
  5
2FE
330
2FA
100
AcDbEntity
  8
치수문자_일반주서
 62
     0
370
    -2
100
AcDbLine
 10
85.61249999999995
 20
6.603999999999946
 30
0.0
 11
99.950493578134
 21
6.603999999999999
 31
0.0
  0
LINE
  5
2FF
330
2FA
100
AcDbEntity
  8
치수문자_일반주서
 62
     0
370
    -2
100
AcDbLine
 10
99.95049357813399
 20
12.16025
 30
0.0
 11
99.95049357813387
 21
52.67747903243341
 31
0.0
  0
LINE
  5
300
330
2FA
100
AcDbEntity
  8
치수문자_일반주서
 62
     0
370
    -2
100
AcDbLine
 10
99.95049357813399
 20
12.16025
 30
0.0
 11
99.950493578134
 21
6.603999999999999
 31
0.0
  0
LINE
  5
301
330
2FA
100
AcDbEntity
  8
치수문자_일반주서
 62
     0
370
    -2
100
AcDbLine
 10
99.95049357813397
 20
15.46225
 30
0.0
 11
99.95049357813396
 21
18.76425
 31
0.0
  0
LINE
  5
302
330
2FA
100
AcDbEntity
  8
치수문자_일반주서
 62
     0
370
    -2
100
AcDbLine
 10
99.95049357813402
 20
3.302
 30
0.0
 11
99.95049357813403
 21
0.0
 31
0.0
  0
SOLID
  5
303
330
2FA
100
AcDbEntity
  8
치수문자_일반주서
 62
     0
100
AcDbTrace
 10
99.40016024480065
 20
15.46225
 30
0.0
 11
100.5008269114673
 21
15.46225
 31
0.0
 12
99.95049357813399
 22
12.16025
 32
0.0
 13
99.95049357813399
 23
12.16025
 33
0.0
  0
SOLID
  5
304
330
2FA
100
AcDbEntity
  8
치수문자_일반주서
 62
     0
100
AcDbTrace
 10
100.5008269114673
 20
3.302000000000001
 30
0.0
 11
99.40016024480069
 21
3.301999999999998
 31
0.0
 12
99.950493578134
 22
6.603999999999999
 32
0.0
 13
99.950493578134
 23
6.603999999999999
 33
0.0
  0
MTEXT
  5
305
330
2FA
100
AcDbEntity
  8
치수문자_일반주서
 62
     0
100
AcDbMText
 10
95.57549357813392
 20
38.2399790324334
 30
0.0
 40
3.5
 41
0.0
 71
     2
 72
     1
  1
\A1;%%c5.56 [7/32]
  7
SLDTEXTSTYLE0
 11
-2.557634144468302E-15
 21
1.0
 31
0.0
 73
     1
 44
1.0
  0
POINT
  5
306
330
2FA
100
AcDbEntity
  8
Defpoints
 62
     0
100
AcDbPoint
 10
85.55
 20
12.16024999999995
 30
0.0
  0
POINT
  5
307
330
2FA
100
AcDbEntity
  8
Defpoints
 62
     0
100
AcDbPoint
 10
85.54999999999995
 20
6.603999999999946
 30
0.0
  0
POINT
  5
308
330
2FA
100
AcDbEntity
  8
Defpoints
 62
     0
100
AcDbPoint
 10
99.95049357813403
 20
6.604
 30
0.0
  0
ENDBLK
  5
2FC
330
2FA
100
AcDbEntity
  8
0
100
AcDbBlockEnd
  0
BLOCK
  5
30A
330
309
100
AcDbEntity
  8
0
100
AcDbBlockBegin
  2
*D14
 70
     1
 10
0.0
 20
0.0
 30
0.0
  3
*D14
  1
*D16
  0
LINE
  5
30C
330
309
100
AcDbEntity
  8
치수문자_일반주서
 62
     0
370
    -2
100
AcDbLine
 10
85.55
 20
12.22274999999995
 30
0.0
 11
85.55
 21
23.6653281504347
 31
0.0
  0
LINE
  5
30D
330
309
100
AcDbEntity
  8
치수문자_일반주서
 62
     0
370
    -2
100
AcDbLine
 10
71.26250000000005
 20
12.21236795157438
 30
0.0
 11
71.26250000000005
 21
23.6653281504347
 31
0.0
  0
LINE
  5
30E
330
309
100
AcDbEntity
  8
치수문자_일반주서
 62
     0
370
    -2
100
AcDbLine
 10
71.26250000000005
 20
23.6653281504347
 30
0.0
 11
37.53350000000005
 21
23.6653281504347
 31
0.0
  0
LINE
  5
30F
330
309
100
AcDbEntity
  8
치수문자_일반주서
 62
     0
370
    -2
100
AcDbLine
 10
85.55
 20
23.6653281504347
 30
0.0
 11
71.26250000000005
 21
23.6653281504347
 31
0.0
  0
LINE
  5
310
330
309
100
AcDbEntity
  8
치수문자_일반주서
 62
     0
370
    -2
100
AcDbLine
 10
88.852
 20
23.6653281504347
 30
0.0
 11
92.154
 21
23.6653281504347
 31
0.0
  0
LINE
  5
311
330
309
100
AcDbEntity
  8
치수문자_일반주서
 62
     0
370
    -2
100
AcDbLine
 10
67.96050000000005
 20
23.6653281504347
 30
0.0
 11
64.65850000000006
 21
23.6653281504347
 31
0.0
  0
SOLID
  5
312
330
309
100
AcDbEntity
  8
치수문자_일반주서
 62
     0
100
AcDbTrace
 10
88.852
 20
24.21566148376803
 30
0.0
 11
88.852
 21
23.11499481710137
 31
0.0
 12
85.55
 22
23.6653281504347
 32
0.0
 13
85.55
 23
23.6653281504347
 33
0.0
  0
SOLID
  5
313
330
309
100
AcDbEntity
  8
치수문자_일반주서
 62
     0
100
AcDbTrace
 10
67.96050000000005
 20
23.11499481710137
 30
0.0
 11
67.96050000000005
 21
24.21566148376803
 31
0.0
 12
71.26250000000005
 22
23.6653281504347
 32
0.0
 13
71.26250000000005
 23
23.6653281504347
 33
0.0
  0
MTEXT
  5
314
330
309
100
AcDbEntity
  8
치수문자_일반주서
 62
     0
100
AcDbMText
 10
51.09600000000004
 20
28.0403281504347
 30
0.0
 40
3.5
 41
0.0
 71
     2
 72
     1
  1
\A1;14.29 [9/16]
  7
SLDTEXTSTYLE0
 73
     1
 44
1.0
  0
POINT
  5
315
330
309
100
AcDbEntity
  8
Defpoints
 62
     0
100
AcDbPoint
 10
85.55
 20
12.16024999999995
 30
0.0
  0
POINT
  5
316
330
309
100
AcDbEntity
  8
Defpoints
 62
     0
100
AcDbPoint
 10
71.26250000000005
 20
12.14986795157438
 30
0.0
  0
POINT
  5
317
330
309
100
AcDbEntity
  8
Defpoints
 62
     0
100
AcDbPoint
 10
71.26250000000005
 20
23.6653281504347
 30
0.0
  0
ENDBLK
  5
30B
330
309
100
AcDbEntity
  8
0
100
AcDbBlockEnd
  0
BLOCK
  5
319
330
318
100
AcDbEntity
  8
0
100
AcDbBlockBegin
  2
*D15
 70
     1
 10
0.0
 20
0.0
 30
0.0
  3
*D15
  1
*D17
  0
LINE
  5
31B
330
318
100
AcDbEntity
  8
치수문자_일반주서
 62
     0
370
    -2
100
AcDbLine
 10
85.55
 20
12.22274999999995
 30
0.0
 11
85.54999999999998
 21
36.00690241403007
 31
0.0
  0
LINE
  5
31C
330
318
100
AcDbEntity
  8
치수문자_일반주서
 62
     0
370
    -2
100
AcDbLine
 10
3.000000000000007
 20
13.25462499999994
 30
0.0
 11
2.999999999999993
 21
36.00690241403007
 31
0.0
  0
LINE
  5
31D
330
318
100
AcDbEntity
  8
치수문자_일반주서
 62
     0
370
    -2
100
AcDbLine
 10
82.24799999999999
 20
36.00690241403007
 30
0.0
 11
6.301999999999992
 21
36.00690241403007
 31
0.0
  0
SOLID
  5
31E
330
318
100
AcDbEntity
  8
치수문자_일반주서
 62
     0
100
AcDbTrace
 10
82.24799999999999
 20
35.45656908069673
 30
0.0
 11
82.24799999999999
 21
36.5572357473634
 31
0.0
 12
85.54999999999998
 22
36.00690241403007
 32
0.0
 13
85.54999999999998
 23
36.00690241403007
 33
0.0
  0
SOLID
  5
31F
330
318
100
AcDbEntity
  8
치수문자_일반주서
 62
     0
100
AcDbTrace
 10
6.301999999999992
 20
36.5572357473634
 30
0.0
 11
6.301999999999992
 21
35.45656908069673
 31
0.0
 12
2.999999999999993
 22
36.00690241403007
 32
0.0
 13
2.999999999999993
 23
36.00690241403007
 33
0.0
  0
MTEXT
  5
320
330
318
100
AcDbEntity
  8
치수문자_일반주서
 62
     0
100
AcDbMText
 10
42.87973557786248
 20
40.38190241403007
 30
0.0
 40
3.5
 41
0.0
 71
     2
 72
     1
  1
\A1;82.55 [3 1/4]
  7
SLDTEXTSTYLE0
 73
     1
 44
1.0
  0
POINT
  5
321
330
318
100
AcDbEntity
  8
Defpoints
 62
     0
100
AcDbPoint
 10
85.55
 20
12.16024999999995
 30
0.0
  0
POINT
  5
322
330
318
100
AcDbEntity
  8
Defpoints
 62
     0
100
AcDbPoint
 10
3.000000000000007
 20
13.19212499999994
 30
0.0
  0
POINT
  5
323
330
318
100
AcDbEntity
  8
Defpoints
 62
     0
100
AcDbPoint
 10
3.000000000000007
 20
36.00690241403007
 30
0.0
  0
ENDBLK
  5
31A
330
318
100
AcDbEntity
  8
0
100
AcDbBlockEnd
  0
BLOCK
  5
358
330
357
100
AcDbEntity
  8
0
100
AcDbBlockBegin
  2
*D16
 70
     1
 10
0.0
 20
0.0
 30
0.0
  3
*D16
  1
*D18
  0
LINE
  5
35A
330
357
100
AcDbEntity
  8
치수문자_일반주서
 62
     0
370
    -2
100
AcDbLine
 10
177.6007167996576
 20
-59.65970593203717
 30
0.0
 11
191.9387103777916
 21
-59.65970593203711
 31
0.0
  0
LINE
  5
35B
330
357
100
AcDbEntity
  8
치수문자_일반주서
 62
     0
370
    -2
100
AcDbLine
 10
177.6007167996575
 20
-65.21595593203718
 30
0.0
 11
191.9387103777917
 21
-65.21595593203712
 31
0.0
  0
LINE
  5
35C
330
357
100
AcDbEntity
  8
치수문자_일반주서
 62
     0
370
    -2
100
AcDbLine
 10
191.9387103777916
 20
-59.65970593203711
 30
0.0
 11
191.9387103777914
 21
-19.14247689960371
 31
0.0
  0
LINE
  5
35D
330
357
100
AcDbEntity
  8
치수문자_일반주서
 62
     0
370
    -2
100
AcDbLine
 10
191.9387103777916
 20
-59.65970593203711
 30
0.0
 11
191.9387103777917
 21
-65.21595593203712
 31
0.0
  0
LINE
  5
35E
330
357
100
AcDbEntity
  8
치수문자_일반주서
 62
     0
370
    -2
100
AcDbLine
 10
191.9387103777916
 20
-56.35770593203711
 30
0.0
 11
191.9387103777916
 21
-53.05570593203711
 31
0.0
  0
LINE
  5
35F
330
357
100
AcDbEntity
  8
치수문자_일반주서
 62
     0
370
    -2
100
AcDbLine
 10
191.9387103777917
 20
-68.51795593203713
 30
0.0
 11
191.9387103777917
 21
-71.81995593203712
 31
0.0
  0
SOLID
  5
360
330
357
100
AcDbEntity
  8
치수문자_일반주서
 62
     0
100
AcDbTrace
 10
191.3883770444583
 20
-56.35770593203711
 30
0.0
 11
192.4890437111249
 21
-56.35770593203711
 31
0.0
 12
191.9387103777916
 22
-59.65970593203711
 32
0.0
 13
191.9387103777916
 23
-59.65970593203711
 33
0.0
  0
SOLID
  5
361
330
357
100
AcDbEntity
  8
치수문자_일반주서
 62
     0
100
AcDbTrace
 10
192.489043711125
 20
-68.51795593203713
 30
0.0
 11
191.3883770444584
 21
-68.51795593203713
 31
0.0
 12
191.9387103777917
 22
-65.21595593203712
 32
0.0
 13
191.9387103777917
 23
-65.21595593203712
 33
0.0
  0
MTEXT
  5
362
330
357
100
AcDbEntity
  8
치수문자_일반주서
 62
     0
100
AcDbMText
 10
187.5637103777915
 20
-33.57997689960373
 30
0.0
 40
3.5
 41
0.0
 71
     2
 72
     1
  1
\A1;%%c5.56 [7/32]
  7
SLDTEXTSTYLE0
 11
-5.115268288936599E-15
 21
1.0
 31
0.0
 73
     1
 44
1.0
  0
POINT
  5
363
330
357
100
AcDbEntity
  8
Defpoints
 62
     0
100
AcDbPoint
 10
177.5382167996576
 20
-59.65970593203717
 30
0.0
  0
POINT
  5
364
330
357
100
AcDbEntity
  8
Defpoints
 62
     0
100
AcDbPoint
 10
177.5382167996575
 20
-65.21595593203718
 30
0.0
  0
POINT
  5
365
330
357
100
AcDbEntity
  8
Defpoints
 62
     0
100
AcDbPoint
 10
191.9387103777916
 20
-65.21595593203712
 30
0.0
  0
ENDBLK
  5
359
330
357
100
AcDbEntity
  8
0
100
AcDbBlockEnd
  0
BLOCK
  5
367
330
366
100
AcDbEntity
  8
0
100
AcDbBlockBegin
  2
*D17
 70
     1
 10
0.0
 20
0.0
 30
0.0
  3
*D17
  1
*D19
  0
LINE
  5
369
330
366
100
AcDbEntity
  8
치수문자_일반주서
 62
     0
370
    -2
100
AcDbLine
 10
177.5382167996576
 20
-59.59720593203717
 30
0.0
 11
177.5382167996576
 21
-48.15462778160241
 31
0.0
  0
LINE
  5
36A
330
366
100
AcDbEntity
  8
치수문자_일반주서
 62
     0
370
    -2
100
AcDbLine
 10
163.2507167996576
 20
-59.60758798046273
 30
0.0
 11
163.2507167996576
 21
-48.15462778160241
 31
0.0
  0
LINE
  5
36B
330
366
100
AcDbEntity
  8
치수문자_일반주서
 62
     0
370
    -2
100
AcDbLine
 10
163.2507167996576
 20
-48.15462778160241
 30
0.0
 11
129.5217167996576
 21
-48.15462778160241
 31
0.0
  0
LINE
  5
36C
330
366
100
AcDbEntity
  8
치수문자_일반주서
 62
     0
370
    -2
100
AcDbLine
 10
177.5382167996576
 20
-48.15462778160241
 30
0.0
 11
163.2507167996576
 21
-48.15462778160241
 31
0.0
  0
LINE
  5
36D
330
366
100
AcDbEntity
  8
치수문자_일반주서
 62
     0
370
    -2
100
AcDbLine
 10
180.8402167996576
 20
-48.15462778160241
 30
0.0
 11
184.1422167996575
 21
-48.15462778160241
 31
0.0
  0
LINE
  5
36E
330
366
100
AcDbEntity
  8
치수문자_일반주서
 62
     0
370
    -2
100
AcDbLine
 10
159.9487167996576
 20
-48.15462778160241
 30
0.0
 11
156.6467167996576
 21
-48.15462778160241
 31
0.0
  0
SOLID
  5
36F
330
366
100
AcDbEntity
  8
치수문자_일반주서
 62
     0
100
AcDbTrace
 10
180.8402167996576
 20
-47.60429444826908
 30
0.0
 11
180.8402167996576
 21
-48.70496111493575
 31
0.0
 12
177.5382167996576
 22
-48.15462778160241
 32
0.0
 13
177.5382167996576
 23
-48.15462778160241
 33
0.0
  0
SOLID
  5
370
330
366
100
AcDbEntity
  8
치수문자_일반주서
 62
     0
100
AcDbTrace
 10
159.9487167996576
 20
-48.70496111493575
 30
0.0
 11
159.9487167996576
 21
-47.60429444826908
 31
0.0
 12
163.2507167996576
 22
-48.15462778160241
 32
0.0
 13
163.2507167996576
 23
-48.15462778160241
 33
0.0
  0
MTEXT
  5
371
330
366
100
AcDbEntity
  8
치수문자_일반주서
 62
     0
100
AcDbMText
 10
143.0842167996576
 20
-43.77962778160241
 30
0.0
 40
3.5
 41
0.0
 71
     2
 72
     1
  1
\A1;14.29 [9/16]
  7
SLDTEXTSTYLE0
 73
     1
 44
1.0
  0
POINT
  5
372
330
366
100
AcDbEntity
  8
Defpoints
 62
     0
100
AcDbPoint
 10
177.5382167996576
 20
-59.65970593203717
 30
0.0
  0
POINT
  5
373
330
366
100
AcDbEntity
  8
Defpoints
 62
     0
100
AcDbPoint
 10
163.2507167996576
 20
-59.67008798046273
 30
0.0
  0
POINT
  5
374
330
366
100
AcDbEntity
  8
Defpoints
 62
     0
100
AcDbPoint
 10
163.2507167996576
 20
-48.15462778160241
 30
0.0
  0
ENDBLK
  5
368
330
366
100
AcDbEntity
  8
0
100
AcDbBlockEnd
  0
BLOCK
  5
376
330
375
100
AcDbEntity
  8
0
100
AcDbBlockBegin
  2
*D18
 70
     1
 10
0.0
 20
0.0
 30
0.0
  3
*D18
  1
*D20
  0
LINE
  5
378
330
375
100
AcDbEntity
  8
치수문자_일반주서
 62
     0
370
    -2
100
AcDbLine
 10
177.5382167996576
 20
-59.59720593203717
 30
0.0
 11
177.5382167996576
 21
-35.81305351800705
 31
0.0
  0
LINE
  5
379
330
375
100
AcDbEntity
  8
치수문자_일반주서
 62
     0
370
    -2
100
AcDbLine
 10
94.98821679965758
 20
-58.56533093203718
 30
0.0
 11
94.98821679965758
 21
-35.81305351800705
 31
0.0
  0
LINE
  5
37A
330
375
100
AcDbEntity
  8
치수문자_일반주서
 62
     0
370
    -2
100
AcDbLine
 10
174.2362167996576
 20
-35.81305351800705
 30
0.0
 11
98.29021679965757
 21
-35.81305351800705
 31
0.0
  0
SOLID
  5
37B
330
375
100
AcDbEntity
  8
치수문자_일반주서
 62
     0
100
AcDbTrace
 10
174.2362167996576
 20
-36.36338685134039
 30
0.0
 11
174.2362167996576
 21
-35.26272018467372
 31
0.0
 12
177.5382167996576
 22
-35.81305351800705
 32
0.0
 13
177.5382167996576
 23
-35.81305351800705
 33
0.0
  0
SOLID
  5
37C
330
375
100
AcDbEntity
  8
치수문자_일반주서
 62
     0
100
AcDbTrace
 10
98.29021679965757
 20
-35.26272018467372
 30
0.0
 11
98.29021679965757
 21
-36.36338685134039
 31
0.0
 12
94.98821679965758
 22
-35.81305351800705
 32
0.0
 13
94.98821679965758
 23
-35.81305351800705
 33
0.0
  0
MTEXT
  5
37D
330
375
100
AcDbEntity
  8
치수문자_일반주서
 62
     0
100
AcDbMText
 10
134.8679523775201
 20
-31.43805351800705
 30
0.0
 40
3.5
 41
0.0
 71
     2
 72
     1
  1
\A1;82.55 [3 1/4]
  7
SLDTEXTSTYLE0
 73
     1
 44
1.0
  0
POINT
  5
37E
330
375
100
AcDbEntity
  8
Defpoints
 62
     0
100
AcDbPoint
 10
177.5382167996576
 20
-59.65970593203717
 30
0.0
  0
POINT
  5
37F
330
375
100
AcDbEntity
  8
Defpoints
 62
     0
100
AcDbPoint
 10
94.98821679965758
 20
-58.62783093203718
 30
0.0
  0
POINT
  5
380
330
375
100
AcDbEntity
  8
Defpoints
 62
     0
100
AcDbPoint
 10
94.98821679965758
 20
-35.81305351800705
 30
0.0
  0
ENDBLK
  5
377
330
375
100
AcDbEntity
  8
0
100
AcDbBlockEnd
  0
ENDSEC
  0
SECTION
  2
ENTITIES
  0
LINE
  5
96
330
1F
100
AcDbEntity
  8
0
  6
Continuous
 62
     1
370
    15
100
AcDbLine
 10
32.71736582419702
 20
0.8049391503131521
 30
0.0
 11
32.66411991674958
 21
0.8334091369036
 31
0.0
  0
LINE
  5
97
330
1F
100
AcDbEntity
  8
0
  6
Continuous
 62
     1
370
    15
100
AcDbLine
 10
34.12956944278002
 20
-2.778125000000003
 30
0.0
 11
35.82320993213035
 21
-2.778125000000003
 31
0.0
  0
LINE
  5
98
330
1F
100
AcDbEntity
  8
0
  6
Continuous
 62
     1
370
    15
100
AcDbLine
 10
28.26545999877976
 20
2.778125
 30
0.0
 11
26.9875
 21
2.778125
 31
0.0
  0
LINE
  5
99
330
1F
100
AcDbEntity
  8
0
  6
Continuous
 62
     1
370
    15
100
AcDbLine
 10
35.82320993213036
 20
2.778125
 30
0.0
 11
34.12956944278005
 21
2.778125
 31
0.0
  0
LINE
  5
9A
330
1F
100
AcDbEntity
  8
0
  6
Continuous
 62
     1
370
    15
100
AcDbLine
 10
26.9875
 20
-2.778125000000003
 30
0.0
 11
28.26545999877974
 21
-2.778125000000003
 31
0.0
  0
LINE
  5
9B
330
1F
100
AcDbEntity
  8
외형선
  6
Continuous
370
    15
100
AcDbLine
 10
18.58171167873051
 20
-4.762500000000009
 30
0.0
 11
25.9875
 21
-2.778125000000002
 31
0.0
  0
LINE
  5
9C
330
1F
100
AcDbEntity
  8
외형선
  6
Continuous
370
    15
100
AcDbLine
 10
25.9875
 20
2.778124999999999
 30
0.0
 11
18.58171167873051
 21
4.762500000000007
 31
0.0
  0
LINE
  5
9D
330
1F
100
AcDbEntity
  8
외형선
  6
Continuous
370
    15
100
AcDbLine
 10
-18.58171167873046
 20
-4.762500000000005
 30
0.0
 11
18.58171167873051
 21
-4.762500000000005
 31
0.0
  0
LINE
  5
9E
330
1F
100
AcDbEntity
  8
외형선
  6
Continuous
370
    15
100
AcDbLine
 10
18.58171167873051
 20
4.762500000000003
 30
0.0
 11
4.838700000000014
 21
4.762500000000003
 31
0.0
  0
LINE
  5
A1
330
1F
100
AcDbEntity
  8
외형선
  6
Continuous
370
    15
100
AcDbLine
 10
26.57018323129932
 20
-2.778125000000002
 30
0.0
 11
26.9875
 21
-2.778125000000002
 31
0.0
  0
LINE
  5
A2
330
1F
100
AcDbEntity
  8
외형선
  6
Continuous
370
    15
100
AcDbLine
 10
25.9875
 20
-2.778125000000002
 30
0.0
 11
26.487320665403
 21
-2.778125000000002
 31
0.0
  0
LINE
  5
A3
330
1F
100
AcDbEntity
  8
외형선
  6
Continuous
370
    15
100
AcDbLine
 10
26.487320665403
 20
2.778124999999999
 30
0.0
 11
25.9875
 21
2.778124999999999
 31
0.0
  0
LINE
  5
A4
330
1F
100
AcDbEntity
  8
외형선
  6
Continuous
370
    15
100
AcDbLine
 10
26.9875
 20
2.778124999999999
 30
0.0
 11
26.57018323129932
 21
2.778124999999999
 31
0.0
  0
SPLINE
  5
A5
330
1F
100
AcDbEntity
  8
0
  6
Continuous
 62
     1
370
    15
100
AcDbSpline
210
0.0
220
0.0
230
1.0
 70
     8
 71
     3
 72
    17
 73
    13
 74
     0
 42
0.000000001
 43
0.00000001
 40
0.0
 40
0.0
 40
0.0
 40
0.0
 40
0.1131760621655102
 40
0.2263513526175666
 40
0.3395261826348741
 40
0.4527008636543747
 40
0.5658757071642223
 40
0.679051024596724
 40
0.7857469096743485
 40
0.8924566326206508
 40
0.9991875150270585
 40
1.0
 40
1.0
 40
1.0
 40
1.0
 10
26.98750000000002
 20
0.7290795520264863
 30
0.0
 10
27.4319588604719
 20
0.4760276102142014
 30
0.0
 10
28.32087355078468
 20
-0.0300745479254533
 30
0.0
 10
29.65424017523361
 20
-0.801835989301839
 30
0.0
 10
30.98759881310188
 20
-1.508440396456339
 30
0.0
 10
32.32096152239012
 20
-2.100906509232086
 30
0.0
 10
33.6543032947492
 20
-2.533140961266649
 30
0.0
 10
34.96228850555633
 20
-2.766219708211862
 30
0.0
 10
36.24458217513455
 20
-2.802067368882788
 30
0.0
 10
37.50169433641166
 20
-2.629464114713965
 30
0.0
 10
38.34301928063307
 20
-2.438409682035881
 30
0.0
 10
38.7653527259822
 20
-2.27415495144264
 30
0.0
 10
38.76854343486809
 20
-2.272914014845678
 30
0.0
  0
SPLINE
  5
A6
330
1F
100
AcDbEntity
  8
외형선
  6
Continuous
370
    15
100
AcDbSpline
210
0.0
220
0.0
230
1.0
 70
    24
 71
     3
 72
    11
 73
     7
 74
     0
 42
0.000000001
 43
0.00000001
 40
0.0
 40
0.0
 40
0.0
 40
0.0
 40
0.2556061231823116
 40
0.5083528923285232
 40
0.7610996614747424
 40
1.0
 40
1.0
 40
1.0
 40
1.0
 10
26.98750000000003
 20
2.767742951574443
 30
0.0
 10
26.98750000000002
 20
2.585119921223195
 30
0.0
 10
26.9875
 20
2.221916784580649
 30
0.0
 10
26.98749999999999
 20
1.651841957452499
 30
0.0
 10
26.98749999999999
 20
1.140484032019667
 30
0.0
 10
26.98750000000002
 20
0.9020328780277829
 30
0.0
 10
26.98750000000003
 20
0.7861650929406291
 30
0.0
  0
SPLINE
  5
A7
330
1F
100
AcDbEntity
  8
0
  6
Continuous
 62
     1
370
    15
100
AcDbSpline
210
0.0
220
0.0
230
1.0
 70
     8
 71
     3
 72
    50
 73
    46
 74
     0
 42
0.000000001
 43
0.00000001
 40
0.0
 40
0.0
 40
0.0
 40
0.0
 40
0.0624999999999999
 40
0.0624999999999999
 40
0.1249999999999997
 40
0.1249999999999997
 40
0.1874999999999996
 40
0.1874999999999996
 40
0.2499999999999994
 40
0.2499999999999994
 40
0.3124999999999993
 40
0.3124999999999993
 40
0.3749999999999992
 40
0.3749999999999992
 40
0.4062499999999991
 40
0.4062499999999991
 40
0.437499999999999
 40
0.437499999999999
 40
0.4687499999999989
 40
0.4687499999999989
 40
0.4999999999999989
 40
0.4999999999999989
 40
0.5624999999999988
 40
0.5624999999999988
 40
0.5937499999999998
 40
0.5937499999999998
 40
0.6250000000000008
 40
0.6250000000000008
 40
0.6562500000000019
 40
0.6562500000000019
 40
0.6875000000000029
 40
0.6875000000000029
 40
0.7500000000000049
 40
0.7500000000000049
 40
0.7812500000000048
 40
0.7812500000000048
 40
0.8125000000000048
 40
0.8125000000000048
 40
0.8437500000000047
 40
0.8437500000000047
 40
0.8750000000000046
 40
0.8750000000000046
 40
0.9375000000000022
 40
0.9375000000000022
 40
1.0
 40
1.0
 40
1.0
 40
1.0
 10
41.27499999999995
 20
-2.778124999999995
 30
0.0
 10
40.98035916597946
 20
-2.753233475588661
 30
0.0
 10
40.67981125793585
 20
-2.72254320963236
 30
0.0
 10
40.08224826758986
 20
-2.630271091774386
 30
0.0
 10
39.78861424021448
 20
-2.569068426075098
 30
0.0
 10
39.19170025925856
 20
-2.417303586114366
 30
0.0
 10
38.89086861930542
 20
-2.326765427951639
 30
0.0
 10
38.2998505038311
 20
-2.121283355941742
 30
0.0
 10
38.00129415037092
 20
-2.005423992582616
 30
0.0
 10
37.40326909576911
 20
-1.751825221599643
 30
0.0
 10
37.10929698374412
 20
-1.614965873898367
 30
0.0
 10
36.51321827998871
 20
-1.323110963985972
 30
0.0
 10
36.21219850708442
 20
-1.168194072706625
 30
0.0
 10
35.76776770186258
 20
-0.9283537918841754
 30
0.0
 10
35.62066642338802
 20
-0.8471561492868316
 30
0.0
 10
35.32287068377223
 20
-0.6819084360008262
 30
0.0
 10
35.17315140364597
 20
-0.5980330272147172
 30
0.0
 10
34.87400155816985
 20
-0.4288540083088369
 30
0.0
 10
34.7245737697318
 20
-0.3435519774458776
 30
0.0
 10
34.42793152713087
 20
-0.1726316987158883
 30
0.0
 10
34.28101419869088
 20
-0.0870722998099756
 30
0.0
 10
33.83472067683736
 20
0.170677600493426
 30
0.0
 10
33.533608571042
 20
0.3431973591838365
 30
0.0
 10
33.08814686873248
 20
0.5963752228096775
 30
0.0
 10
32.94131797464538
 20
0.6797239405134822
 30
0.0
 10
32.64407872858084
 20
0.844907951619561
 30
0.0
 10
32.49448909411751
 20
0.9265840868458929
 30
0.0
 10
32.19529578799892
 20
1.087034075320967
 30
0.0
 10
32.04569489607254
 20
1.165806437246659
 30
0.0
 10
31.74841110182413
 20
1.319450032462041
 30
0.0
 10
31.60157510357156
 20
1.394187110910596
 30
0.0
 10
31.15618533957221
 20
1.612917882716546
 30
0.0
 10
30.85507679970102
 20
1.750934987137587
 30
0.0
 10
30.40872158894582
 20
1.94091609669313
 30
0.0
 10
30.26178294984405
 20
2.001298198491339
 30
0.0
 10
29.96519206437708
 20
2.116541452667832
 30
0.0
 10
29.8157790181184
 20
2.171353645805072
 30
0.0
 10
29.5166361543492
 20
2.274600157922472
 30
0.0
 10
29.36690911329799
 20
2.323033479893728
 30
0.0
 10
29.06907568068169
 20
2.412923631345177
 30
0.0
 10
28.92193889055183
 20
2.45430152993498
 30
0.0
 10
28.4775901984848
 20
2.568025879615084
 30
0.0
 10
28.17658111953834
 20
2.629862434209837
 30
0.0
 10
27.58043391525636
 20
2.722223487314154
 30
0.0
 10
27.28649857118932
 20
2.752876936858539
 30
0.0
 10
26.98750000000009
 20
2.767742951573913
 30
0.0
  0
LINE
  5
A8
330
1F
100
AcDbEntity
  8
0
  6
Continuous
 62
     1
370
    15
100
AcDbLine
 10
41.27499999999998
 20
-2.51609599840112
 30
0.0
 11
41.27499999999998
 21
0.2380334984011521
 31
0.0
  0
SPLINE
  5
A9
330
1F
100
AcDbEntity
  8
0
  6
Continuous
 62
     1
370
    15
100
AcDbSpline
210
0.0
220
0.0
230
1.0
 70
     8
 71
     3
 72
    18
 73
    14
 74
     0
 42
0.000000001
 43
0.00000001
 40
0.0
 40
0.0
 40
0.0
 40
0.0
 40
0.004259551389535
 40
0.1067483958601642
 40
0.2092368233720634
 40
0.3117251159551014
 40
0.4142135556855234
 40
0.5167024245890004
 40
0.6133236740481228
 40
0.7099574547511686
 40
0.8066103969567574
 40
0.9032890771791318
 40
1.0
 40
1.0
 40
1.0
 40
1.0
 10
28.26545999877978
 20
2.773899407057546
 30
0.0
 10
28.28393207743047
 20
2.77529913600757
 30
0.0
 10
28.74685987987633
 20
2.810377670432836
 30
0.0
 10
29.65424007415881
 20
2.682226709438529
 30
0.0
 10
30.98759884872796
 20
2.379415507502112
 30
0.0
 10
32.32096148096026
 20
1.870865091428533
 30
0.0
 10
33.65430342484304
 20
1.226038991451415
 30
0.0
 10
34.96228803823161
 20
0.4999906824810675
 30
0.0
 10
36.24458380698459
 20
-0.2459772077245341
 30
0.0
 10
37.50168823331821
 20
-0.9614359177616385
 30
0.0
 10
38.75907201475592
 20
-1.608368812592462
 30
0.0
 10
40.0168557596089
 20
-2.158425787525658
 30
0.0
 10
40.85557197529183
 20
-2.396859343947404
 30
0.0
 10
41.275
 20
-2.51609599840112
 30
0.0
  0
SPLINE
  5
AA
330
1F
100
AcDbEntity
  8
0
  6
Continuous
 62
     1
370
    15
100
AcDbSpline
210
0.0
220
0.0
230
1.0
 70
     8
 71
     3
 72
    16
 73
    12
 74
     0
 42
0.000000001
 43
0.00000001
 40
0.0
 40
0.0
 40
0.0
 40
0.0
 40
0.1136451833591739
 40
0.2271596315471121
 40
0.3406092973403826
 40
0.4540608370428029
 40
0.5675808865697575
 40
0.6812347222081415
 40
0.7948708410380159
 40
0.919744009638519
 40
1.0
 40
1.0
 40
1.0
 40
1.0
 10
41.27499999999997
 20
0.2380334984011516
 30
0.0
 10
40.89352690263761
 20
0.4559523149243072
 30
0.0
 10
40.13101954701918
 20
0.8915392584741386
 30
0.0
 10
38.9880628437833
 20
1.491630506733987
 30
0.0
 10
37.84586162834732
 20
2.008693870623893
 30
0.0
 10
36.70363500331005
 20
2.412823084645634
 30
0.0
 10
35.56062134395672
 20
2.681182347723945
 30
0.0
 10
34.41657371528893
 20
2.800297127249588
 30
0.0
 10
33.23456780968319
 20
2.755278684010678
 30
0.0
 10
32.16469617635177
 20
2.582343890515932
 30
0.0
 10
31.47625476311292
 20
2.353083071948792
 30
0.0
 10
31.20690472187582
 20
2.263385663066032
 30
0.0
  0
SPLINE
  5
AB
330
1F
100
AcDbEntity
  8
0
  6
Continuous
 62
     1
370
    15
100
AcDbSpline
210
0.0
220
0.0
230
1.0
 70
     8
 71
     3
 72
    13
 73
     9
 74
     0
 42
0.000000001
 43
0.00000001
 40
0.0
 40
0.0
 40
0.0
 40
0.0
 40
0.1200213390348088
 40
0.2960605131581231
 40
0.4720658557844402
 40
0.6480494502756001
 40
0.8240234411570677
 40
0.9999999999999999
 40
0.9999999999999999
 40
0.9999999999999999
 40
0.9999999999999999
 10
34.12956944278002
 20
-2.763416743528052
 30
0.0
 10
33.84380686147328
 20
-2.760702858709535
 30
0.0
 10
33.13890707329039
 20
-2.754008431381164
 30
0.0
 10
32.01503449275649
 20
-2.539481228345184
 30
0.0
 10
30.75796561932293
 20
-2.149281093601551
 30
0.0
 10
29.50108593566476
 20
-1.606977557205119
 30
0.0
 10
28.24428914287368
 20
-0.9583558583697848
 30
0.0
 10
27.40643175206383
 20
-0.4794218223864286
 30
0.0
 10
26.98750000000009
 20
-0.2399530571547626
 30
0.0
  0
LINE
  5
AC
330
1F
100
AcDbEntity
  8
외형선
  6
Continuous
370
    15
100
AcDbLine
 10
26.98750000000003
 20
-0.239953057154928
 30
0.0
 11
26.98749999999999
 21
0.7290795520264806
 31
0.0
  0
LINE
  5
AD
330
1F
100
AcDbEntity
  8
0
  6
Continuous
 62
     1
370
    15
100
AcDbLine
 10
41.27499999999998
 20
-2.778124999999995
 30
0.0
 11
41.27499999999998
 21
-2.51609599840112
 31
0.0
  0
LINE
  5
AE
330
1F
100
AcDbEntity
  8
외형선
  6
Continuous
370
    15
100
AcDbLine
 10
26.98750000000003
 20
2.767742951574443
 30
0.0
 11
26.9875
 21
2.778125
 31
0.0
  0
SPLINE
  5
AF
330
1F
100
AcDbEntity
  8
0
  6
Continuous
 62
     1
370
    15
100
AcDbSpline
210
0.0
220
0.0
230
1.0
 70
     8
 71
     3
 72
    12
 73
     8
 74
     0
 42
0.000000001
 43
0.00000001
 40
0.0
 40
0.0
 40
0.0
 40
0.0
 40
0.0772914376460953
 40
0.3078843415375701
 40
0.5385229696724948
 40
0.7692230152950498
 40
1.0
 40
1.0
 40
1.0
 40
1.0
 10
35.82320993213036
 20
2.757033875704321
 30
0.0
 10
35.96365566270993
 20
2.762832472322629
 30
0.0
 10
36.52311014561465
 20
2.785930724289998
 30
0.0
 10
37.50168573557564
 20
2.632601732726585
 30
0.0
 10
38.75907268106705
 20
2.303860420010733
 30
0.0
 10
40.01685559294783
 20
1.81142258913804
 30
0.0
 10
40.85557191973196
 20
1.389038532319048
 30
0.0
 10
41.27499999999998
 20
1.177811293227748
 30
0.0
  0
LINE
  5
B0
330
1F
100
AcDbEntity
  8
0
  6
Continuous
 62
     1
370
    15
100
AcDbLine
 10
41.27499999999998
 20
0.238033498401152
 30
0.0
 11
41.27499999999998
 21
1.177811293227748
 31
0.0
  0
SPLINE
  5
B1
330
1F
100
AcDbEntity
  8
0
  6
Continuous
 62
     1
370
    15
100
AcDbSpline
210
0.0
220
0.0
230
1.0
 70
     8
 71
     3
 72
    11
 73
     7
 74
     0
 42
0.000000001
 43
0.00000001
 40
0.0
 40
0.0
 40
0.0
 40
0.0
 40
0.316010115110244
 40
0.6320180754427615
 40
0.9480247501497192
 40
1.0
 40
1.0
 40
1.0
 40
1.0
 10
26.9875
 20
-2.680750179043518
 30
0.0
 10
27.43195888402487
 20
-2.728970015559359
 30
0.0
 10
28.32087362144344
 20
-2.825409359794508
 30
0.0
 10
29.65423989260143
 20
-2.685244382483253
 30
0.0
 10
30.61624900604346
 20
-2.48844363533065
 30
0.0
 10
31.13380327183106
 20
-2.291239561158749
 30
0.0
 10
31.20690472187579
 20
-2.263385663066036
 30
0.0
  0
SPLINE
  5
B2
330
1F
100
AcDbEntity
  8
외형선
  6
Continuous
370
    15
100
AcDbSpline
210
0.0
220
0.0
230
1.0
 70
    24
 71
     3
 72
    20
 73
    16
 74
     0
 42
0.000000001
 43
0.00000001
 40
0.0
 40
0.0
 40
0.0
 40
0.0
 40
0.048096529141837
 40
0.1285356827428915
 40
0.2067078385303543
 40
0.2871469921314115
 40
0.3653191479189495
 40
0.4457583015199315
 40
0.5239304573073382
 40
0.6043696109083339
 40
0.6825417666958524
 40
0.7629809202969698
 40
0.8411530760842605
 40
0.921592229685491
 40
0.9999999999999999
 40
0.9999999999999999
 40
0.9999999999999999
 40
0.9999999999999999
 10
26.9875
 20
-0.1196542418090729
 30
0.0
 10
26.9875
 20
-0.1200036828022331
 30
0.0
 10
26.98750000000003
 20
-0.120937547208576
 30
0.0
 10
26.98749999999995
 20
-0.1753036045705763
 30
0.0
 10
26.98749999999998
 20
-0.2763780793869175
 30
0.0
 10
26.98750000000002
 20
-0.421037720914173
 30
0.0
 10
26.98749999999992
 20
-0.6052498772386629
 30
0.0
 10
26.9875000000001
 20
-0.821165377835591
 30
0.0
 10
26.98749999999988
 20
-1.06637321864551
 30
0.0
 10
26.98750000000005
 20
-1.329580179677473
 30
0.0
 10
26.98749999999998
 20
-1.608015919764616
 30
0.0
 10
26.9875
 20
-1.888957069553304
 30
0.0
 10
26.98750000000002
 20
-2.168887907460978
 30
0.0
 10
26.98749999999999
 20
-2.437420487021164
 30
0.0
 10
26.98749999999999
 20
-2.600334747582032
 30
0.0
 10
26.9875
 20
-2.680750179043523
 30
0.0
  0
SPLINE
  5
B3
330
1F
100
AcDbEntity
  8
0
  6
Continuous
 62
     1
370
    15
100
AcDbSpline
210
0.0
220
0.0
230
1.0
 70
     8
 71
     3
 72
    10
 73
     6
 74
     0
 42
0.000000001
 43
0.00000001
 40
0.0
 40
0.0
 40
0.0
 40
0.0
 40
0.456502486554478
 40
0.9124798216772353
 40
1.0
 40
1.0
 40
1.0
 40
1.0
 10
41.27499999999998
 20
2.778125000000005
 30
0.0
 10
40.89352797305953
 20
2.731933855384772
 30
0.0
 10
40.13102275705355
 20
2.660025551724322
 30
0.0
 10
39.29563663199374
 20
2.467815943750659
 30
0.0
 10
38.84164961114007
 20
2.299946302205819
 30
0.0
 10
38.76854343486808
 20
2.272914014845675
 30
0.0
  0
LINE
  5
B4
330
1F
100
AcDbEntity
  8
0
  6
Continuous
 62
     1
370
    15
100
AcDbLine
 10
41.27499999999998
 20
1.177403822954252
 30
0.0
 11
41.27499999999999
 21
2.778125000000005
 31
0.0
  0
LINE
  5
B5
330
1F
100
AcDbEntity
  8
외형선
  6
Continuous
370
    15
100
AcDbLine
 10
26.9875
 20
-2.778125000000003
 30
0.0
 11
26.9875
 21
-2.680750179043523
 31
0.0
  0
LINE
  5
B6
330
1F
100
AcDbEntity
  8
외형선
  6
Continuous
370
    15
100
AcDbLine
 10
25.9875
 20
-0.0000000000000015
 30
0.0
 11
25.9875
 21
2.778124999999999
 31
0.0
  0
LINE
  5
B7
330
1F
100
AcDbEntity
  8
외형선
  6
Continuous
370
    15
100
AcDbLine
 10
25.9875
 20
-2.778125000000002
 30
0.0
 11
25.9875
 21
-0.0000000000000015
 31
0.0
  0
LINE
  5
B8
330
1F
100
AcDbEntity
  8
외형선
  6
Continuous
370
    15
100
AcDbLine
 10
18.58171167873051
 20
-0.0000000000000015
 30
0.0
 11
18.58171167873051
 21
4.762500000000007
 31
0.0
  0
LINE
  5
B9
330
1F
100
AcDbEntity
  8
외형선
  6
Continuous
370
    15
100
AcDbLine
 10
18.58171167873051
 20
-4.762500000000009
 30
0.0
 11
18.58171167873051
 21
-0.0000000000000015
 31
0.0
  0
SPLINE
  5
BE
330
1F
100
AcDbEntity
  8
외형선
  6
Continuous
370
    15
100
AcDbSpline
210
0.0
220
0.0
230
1.0
 70
    24
 71
     3
 72
    14
 73
    10
 74
     0
 42
0.000000001
 43
0.00000001
 40
0.0
 40
0.0
 40
0.0
 40
0.0
 40
0.1286921062917739
 40
0.2871844118579961
 40
0.4456767174242192
 40
0.6041690229904458
 40
0.7626613285566668
 40
0.9211536341228843
 40
1.0
 40
1.0
 40
1.0
 40
1.0
 10
26.98750000000002
 20
-2.68075017904352
 30
0.0
 10
26.98750000000002
 20
-2.546295409727966
 30
0.0
 10
26.98749999999999
 20
-2.246251258147721
 30
0.0
 10
26.98750000000002
 20
-1.7106392668355
 30
0.0
 10
26.98749999999998
 20
-1.154729439984299
 30
0.0
 10
26.98750000000002
 20
-0.6649507186321748
 30
0.0
 10
26.98749999999999
 20
-0.3112630219617097
 30
0.0
 10
26.98750000000005
 20
-0.1242635565545668
 30
0.0
 10
26.98750000000002
 20
-0.1344514774351535
 30
0.0
 10
26.9875
 20
-0.1378360103155006
 30
0.0
  0
SPLINE
  5
BF
330
1F
100
AcDbEntity
  8
외형선
  6
Continuous
370
    15
100
AcDbSpline
210
0.0
220
0.0
230
1.0
 70
     8
 71
     3
 72
     8
 73
     4
 74
     0
 42
0.000000001
 43
0.00000001
 40
0.0
 40
0.0
 40
0.0
 40
0.0
 40
1.0
 40
1.0
 40
1.0
 40
1.0
 10
26.98750000000002
 20
-2.680750179043522
 30
0.0
 10
26.82070755919693
 20
-2.655553085978739
 30
0.0
 10
26.65353355100484
 20
-2.625521235304575
 30
0.0
 10
26.48732066540301
 20
-2.59091234171637
 30
0.0
  0
SPLINE
  5
C0
330
1F
100
AcDbEntity
  8
외형선
  6
Continuous
370
    15
100
AcDbSpline
210
0.0
220
0.0
230
1.0
 70
     8
 71
     3
 72
     8
 73
     4
 74
     0
 42
0.000000001
 43
0.00000001
 40
0.0
 40
0.0
 40
0.0
 40
0.0
 40
1.0
 40
1.0
 40
1.0
 40
1.0
 10
26.98749999999998
 20
-0.2399530571547035
 30
0.0
 10
26.8207075591969
 20
-0.1442994669033192
 30
0.0
 10
26.65353355100482
 20
-0.0481425503830632
 30
0.0
 10
26.487320665403
 20
0.0477444066188432
 30
0.0
  0
SPLINE
  5
C1
330
1F
100
AcDbEntity
  8
외형선
  6
Continuous
370
    15
100
AcDbSpline
210
0.0
220
0.0
230
1.0
 70
     8
 71
     3
 72
     8
 73
     4
 74
     0
 42
0.000000001
 43
0.00000001
 40
0.0
 40
0.0
 40
0.0
 40
0.0
 40
1.0
 40
1.0
 40
1.0
 40
1.0
 10
26.98749999999998
 20
2.767742951573917
 30
0.0
 10
26.8207075591969
 20
2.776035763374085
 30
0.0
 10
26.65353355100482
 20
2.779362847013662
 30
0.0
 10
26.487320665403
 20
2.777714705879927
 30
0.0
  0
LINE
  5
C2
330
1F
100
AcDbEntity
  8
외형선
  6
Continuous
370
    15
100
AcDbLine
 10
26.487320665403
 20
1.002550836682779
 30
0.0
 11
26.487320665403
 21
2.778124999999999
 31
0.0
  0
SPLINE
  5
C3
330
1F
100
AcDbEntity
  8
외형선
  6
Continuous
370
    15
100
AcDbSpline
210
0.0
220
0.0
230
1.0
 70
     8
 71
     3
 72
     8
 73
     4
 74
     0
 42
0.000000001
 43
0.00000001
 40
0.0
 40
0.0
 40
0.0
 40
0.0
 40
1.0
 40
1.0
 40
1.0
 40
1.0
 10
26.98750000000002
 20
0.7290795520264659
 30
0.0
 10
26.82070755919693
 20
0.8217266596802852
 30
0.0
 10
26.65353355100484
 20
0.9131340446407684
 30
0.0
 10
26.48732066540301
 20
1.002572567531542
 30
0.0
  0
LINE
  5
C4
330
1F
100
AcDbEntity
  8
외형선
  6
Continuous
370
    15
100
AcDbLine
 10
26.487320665403
 20
-2.590920750523189
 30
0.0
 11
26.487320665403
 21
0.0477623997889964
 31
0.0
  0
LINE
  5
C5
330
1F
100
AcDbEntity
  8
외형선
  6
Continuous
370
    15
100
AcDbLine
 10
26.57018323129932
 20
-2.777446787303517
 30
0.0
 11
26.487320665403
 21
-2.77771470587993
 31
0.0
  0
LINE
  5
C6
330
1F
100
AcDbEntity
  8
외형선
  6
Continuous
370
    15
100
AcDbLine
 10
26.487320665403
 20
-2.778125000000002
 30
0.0
 11
26.487320665403
 21
-2.777714396548249
 31
0.0
  0
SPLINE
  5
C7
330
1F
100
AcDbEntity
  8
외형선
  6
Continuous
370
    15
100
AcDbSpline
210
0.0
220
0.0
230
1.0
 70
    24
 71
     3
 72
    12
 73
     8
 74
     0
 42
0.000000001
 43
0.00000001
 40
0.0
 40
0.0
 40
0.0
 40
0.0
 40
0.0754527287360398
 40
0.3255465690561949
 40
0.5756404093763448
 40
0.8257342496961539
 40
1.0
 40
1.0
 40
1.0
 40
1.0
 10
26.9875
 20
0.7861750929406248
 30
0.0
 10
26.9875
 20
0.8138787104409625
 30
0.0
 10
26.98749999999999
 20
0.9334080870289331
 30
0.0
 10
26.98750000000002
 20
1.298458818241695
 30
0.0
 10
26.98750000000005
 20
1.824113462521354
 30
0.0
 10
26.98749999999995
 20
2.342643105700658
 30
0.0
 10
26.98750000000002
 20
2.64399218706342
 30
0.0
 10
26.98750000000005
 20
2.767742951573958
 30
0.0
  0
LINE
  5
C8
330
1F
100
AcDbEntity
  8
중심선
 48
0.8
100
AcDbLine
 10
-44.27500000000001
 20
-0.0000000000000054
 30
0.0
 11
44.27500000000001
 21
0.0000000000000054
 31
0.0
  0
LINE
  5
C9
330
1F
100
AcDbEntity
  8
참조1
100
AcDbLine
 10
1.780880657015621
 20
0.0010749287238892
 30
0.0
 11
1.780880657015621
 21
-39.99892507127611
 31
0.0
  0
LINE
  5
CA
330
1F
100
AcDbEntity
  8
참조1
100
AcDbLine
 10
1.780880657015621
 20
-39.99892507127611
 30
0.0
 11
-29.25297615729306
 21
-39.9989250712761
 31
0.0
  0
CIRCLE
  5
CB
330
1F
100
AcDbEntity
  8
해칭선
100
AcDbCircle
 10
0.0
 20
0.0
 30
0.0
 40
3.000000000000008
  0
INSERT
  5
CC
330
1F
100
AcDbEntity
  8
0
  6
Continuous
 62
     7
100
AcDbBlockReference
 66
     1
  2
블럭10
 10
-13.9402729321252
 20
-52.04717430164393
 30
0.0
  0
ATTRIB
  5
CD
330
CC
100
AcDbEntity
  8
FORMAT
 62
     2
100
AcDbText
 10
-23.12156822086649
 20
-49.97180738881174
 30
0.0
 40
4.233333333333333
  1
E2053014 [ 4 FLUTE ]
 41
0.75
  7
SLDTEXTSTYLE0
 11
-23.12156822086649
 21
-52.08847405547841
 31
0.0
100
AcDbAttribute
  2
AUTOATTR0
 70
     0
 74
     1
  0
SEQEND
  5
CE
330
CC
100
AcDbEntity
  8
0
  6
Continuous
 62
     7
  0
HATCH
  5
CF
330
1F
100
AcDbEntity
  8
중심선
100
AcDbHatch
 10
0.0
 20
0.0
 30
0.0
210
0.0
220
0.0
230
1.0
  2
SOLID
 70
     1
 71
     0
 91
        1
 92
        0
 93
        4
 72
     1
 10
-8.225363627744365
 20
-35.8
 11
-11.67163887158165
 21
-35.8
 72
     1
 10
-11.67163887158165
 20
-35.8
 11
-13.79986873078567
 21
-38.3363255805726
 72
     1
 10
-13.79986873078567
 20
-38.3363255805726
 11
-10.35356040183524
 21
-38.33628615127011
 72
     1
 10
-10.35356040183524
 20
-38.33628615127011
 11
-8.225363627744365
 21
-35.8
 97
        0
 75
     0
 76
     1
 98
        1
 10
-1.780880657015615
 20
-0.0010749287238947
  0
HATCH
  5
D0
330
1F
100
AcDbEntity
  8
중심선
100
AcDbHatch
 10
0.0
 20
0.0
 30
0.0
210
0.0
220
0.0
230
1.0
  2
SOLID
 70
     1
 71
     0
 91
        1
 92
        0
 93
        4
 72
     1
 10
-3.212599636708357
 20
-35.8
 11
-6.658874880545667
 21
-35.8
 72
     1
 10
-6.658874880545667
 20
-35.8
 11
-11.19001288890308
 21
-41.20000000000002
 72
     1
 10
-11.19001288890308
 20
-41.20000000000002
 11
-7.743737645065801
 21
-41.20000000000002
 72
     1
 10
-7.743737645065801
 20
-41.20000000000002
 11
-3.212599636708357
 21
-35.8
 97
        0
 75
     0
 76
     1
 98
        1
 10
-1.780880657015615
 20
-0.0010749287238947
  0
HATCH
  5
D1
330
1F
100
AcDbEntity
  8
중심선
100
AcDbHatch
 10
0.0
 20
0.0
 30
0.0
210
0.0
220
0.0
230
1.0
  2
SOLID
 70
     1
 71
     0
 91
        1
 92
        0
 93
        4
 72
     1
 10
1.800164354327483
 20
-35.79999999999998
 11
-1.646110889509605
 21
-35.79999999999998
 72
     1
 10
-1.646110889509605
 20
-35.79999999999998
 11
-8.694547791398882
 21
-44.20000000000002
 72
     1
 10
-8.694547791398882
 20
-44.20000000000002
 11
-5.248272547561601
 21
-44.20000000000002
 72
     1
 10
-5.2482725475616
 20
-44.20000000000002
 11
1.800164354327483
 21
-35.79999999999998
 97
        0
 75
     0
 76
     1
 98
        1
 10
-1.780880657015615
 20
-0.0010749287238947
  0
HATCH
  5
D2
330
1F
100
AcDbEntity
  8
중심선
100
AcDbHatch
 10
0.0
 20
0.0
 30
0.0
210
0.0
220
0.0
230
1.0
  2
SOLID
 70
     1
 71
     0
 91
        1
 92
        0
 93
        6
 72
     3
 10
6.600054785339683
 20
-40.00000000005127
 11
3.960054785062283
 21
1.540882976769353E-10
 40
0.3939339440162628
 50
17.09539180608436
 51
320.0019657685078
 73
     0
 72
     1
 10
8.283054441040278
 20
-38.5878940046383
 11
10.58835631474131
 21
-36.65356729459035
 72
     3
 10
6.600054785286837
 20
-40.00000000000015
 11
6.600054785286829
 21
-1.278976924368180E-13
 40
0.636358354079598
 50
39.99873849337431
 51
368.4976242363724
 73
     1
 72
     1
 10
13.02538727718744
 20
-39.03999999993002
 11
5.280122092122758
 21
-39.03999999993002
 72
     1
 10
5.280122092122758
 20
-39.03999999993002
 11
5.280097047676824
 21
-40.95999999992991
 72
     1
 10
5.280097047676824
 20
-40.95999999992991
 11
9.721476817148861
 21
-40.95999999992988
 97
        0
 75
     0
 76
     1
 98
        1
 10
-1.780880657015615
 20
-0.0010749287238947
  0
DIMENSION
  5
D3
330
1F
100
AcDbEntity
  8
치수문자_일반주서
100
AcDbDimension
  2
_D
 10
55.67549357813402
 20
-2.778124999999942
 30
0.0
 11
55.6754935781339
 21
28.85785403243347
 31
0.0
 70
   160
  1
%%c<>
 71
     2
 42
5.55625
 52
-270.0
  3
SLDDIMSTYLE0
100
AcDbAlignedDimension
 13
41.27499999999999
 23
2.778125000000005
 33
0.0
 14
41.27499999999995
 24
-2.778124999999995
 34
0.0
 50
90.0000000000002
100
AcDbRotatedDimension
1001
ACAD
1000
DSTYLE
1002
{
1070
   171
1070
     6
1070
   273
1070
     7
1002
}
  0
DIMENSION
  5
E8
330
1F
100
AcDbEntity
  8
치수문자_일반주서
100
AcDbDimension
  2
_D_1
 10
26.98750000000003
 20
14.28320315043476
 30
0.0
 11
6.821000000000033
 21
14.28320315043476
 31
0.0
 70
   160
  1
<>
 71
     2
 42
14.28749999999996
  3
SLDDIMSTYLE0
100
AcDbAlignedDimension
 13
41.27499999999999
 23
2.778125000000005
 33
0.0
 14
26.98750000000003
 24
2.767742951574443
 34
0.0
 50
0.0000000000000285
100
AcDbRotatedDimension
1001
ACAD
1000
DSTYLE
1002
{
1070
   171
1070
     6
1070
   273
1070
     7
1002
}
  0
DIMENSION
  5
FD
330
1F
100
AcDbEntity
  8
치수문자_일반주서
100
AcDbDimension
  2
_D_2
 10
-41.27499999999998
 20
26.62477741403013
 30
0.0
 11
-1.395264422137529
 21
26.62477741403013
 31
0.0
 70
   160
  1
<>
 71
     2
 42
82.54999999999997
  3
SLDDIMSTYLE0
100
AcDbAlignedDimension
 13
41.27499999999999
 23
2.778125000000005
 33
0.0
 14
-41.27499999999998
 24
2.778125000000017
 34
0.0
100
AcDbRotatedDimension
1001
ACAD
1000
DSTYLE
1002
{
1070
   171
1070
     6
1070
   273
1070
     7
1002
}
  0
DIMENSION
  5
110
330
1F
100
AcDbEntity
  8
치수문자_일반주서
100
AcDbDimension
  2
_D_3
 10
-53.79874999999999
 20
-4.762500000000119
 30
0.0
 11
-53.79875000000001
 21
0.0000000000000011
 31
0.0
 70
   160
  1
%%c<>
 71
     2
 42
9.525000000000006
 52
-270.0
  3
SLDDIMSTYLE0
100
AcDbAlignedDimension
 13
-18.58171167873053
 23
4.762500000000018
 33
0.0
 14
-18.58171167873053
 24
-4.762499999999988
 34
0.0
 50
90.0000000000002
100
AcDbRotatedDimension
1001
ACAD
1000
DSTYLE
1002
{
1070
   171
1070
     6
1070
   273
1070
     7
1002
}
  0
LINE
  5
124
330
1F
100
AcDbEntity
  8
참조1
100
AcDbLine
 10
68.7193644723612
 20
7.441074928723896
 30
0.0
 11
68.7193644723612
 21
-7.438925071276109
 31
0.0
  0
LINE
  5
125
330
1F
100
AcDbEntity
  8
참조1
100
AcDbLine
 10
81.41936447236121
 20
5.441074928723896
 30
0.0
 11
68.7193644723612
 21
5.441074928723896
 31
0.0
  0
SOLID
  5
126
330
1F
100
AcDbEntity
  8
참조1
100
AcDbTrace
 10
68.7193644723612
 20
5.441074928723896
 30
0.0
 11
75.0693644723612
 21
4.425074928723896
 31
0.0
 12
75.0693644723612
 22
6.457074928723896
 32
0.0
 13
75.0693644723612
 23
6.457074928723896
 33
0.0
  0
LINE
  5
127
330
1F
100
AcDbEntity
  8
참조1
100
AcDbLine
 10
81.41936447236121
 20
-5.438925071276109
 30
0.0
 11
68.7193644723612
 21
-5.438925071276109
 31
0.0
  0
SOLID
  5
128
330
1F
100
AcDbEntity
  8
참조1
100
AcDbTrace
 10
68.7193644723612
 20
-5.438925071276109
 30
0.0
 11
75.0693644723612
 21
-6.454925071276109
 31
0.0
 12
75.0693644723612
 22
-4.422925071276109
 32
0.0
 13
75.0693644723612
 23
-4.422925071276109
 33
0.0
  0
MTEXT
  5
129
330
1F
100
AcDbEntity
  8
참조1
100
AcDbMText
 10
78.1037146049872
 20
11.01136670591223
 30
0.0
 40
3.5
 41
0.0
 71
     1
 72
     1
  1
A
  7
SLDTEXTSTYLE0
 73
     1
 44
1.0
  0
MTEXT
  5
12A
330
1F
100
AcDbEntity
  8
참조1
100
AcDbMText
 10
78.1037146049872
 20
0.1313667059122219
 30
0.0
 40
3.5
 41
0.0
 71
     1
 72
     1
  1
A
  7
SLDTEXTSTYLE0
 73
     1
 44
1.0
  0
INSERT
  5
131
330
1F
100
AcDbEntity
  8
해칭선
100
AcDbBlockReference
  2
SW_DOWELSYMBOL_0
 10
0.0
 20
0.0
 30
0.0
  0
LINE
  5
325
330
1F
100
AcDbEntity
  8
0
  6
Continuous
 62
     1
370
    15
100
AcDbLine
 10
-32.71736582419703
 20
-0.8049391503131385
 30
0.0
 11
-32.66411991674957
 21
-0.8334091369035899
 31
0.0
  0
LINE
  5
326
330
1F
100
AcDbEntity
  8
0
  6
Continuous
 62
     1
370
    15
100
AcDbLine
 10
-34.12956944278002
 20
2.778125000000003
 30
0.0
 11
-35.82320993213034
 21
2.778125000000003
 31
0.0
  0
LINE
  5
327
330
1F
100
AcDbEntity
  8
0
  6
Continuous
 62
     1
370
    15
100
AcDbLine
 10
-28.26545999877976
 20
-2.778124999999988
 30
0.0
 11
-26.98750000000001
 21
-2.778124999999988
 31
0.0
  0
LINE
  5
328
330
1F
100
AcDbEntity
  8
0
  6
Continuous
 62
     1
370
    15
100
AcDbLine
 10
-35.82320993213037
 20
-2.778124999999988
 30
0.0
 11
-34.12956944278005
 21
-2.778124999999988
 31
0.0
  0
LINE
  5
329
330
1F
100
AcDbEntity
  8
0
  6
Continuous
 62
     1
370
    15
100
AcDbLine
 10
-26.98750000000001
 20
2.778125000000003
 30
0.0
 11
-28.26545999877973
 21
2.778125000000003
 31
0.0
  0
LINE
  5
32A
330
1F
100
AcDbEntity
  8
외형선
  6
Continuous
370
    15
100
AcDbLine
 10
-18.58171167873053
 20
4.762500000000018
 30
0.0
 11
-25.98750000000001
 21
2.778125000000003
 31
0.0
  0
LINE
  5
32B
330
1F
100
AcDbEntity
  8
외형선
  6
Continuous
370
    15
100
AcDbLine
 10
-25.98750000000001
 20
-2.778124999999988
 30
0.0
 11
-18.58171167873053
 21
-4.762499999999988
 31
0.0
  0
LINE
  5
32E
330
1F
100
AcDbEntity
  8
외형선
  6
Continuous
370
    15
100
AcDbLine
 10
-26.57018323129932
 20
2.778125000000003
 30
0.0
 11
-26.98750000000001
 21
2.778125000000003
 31
0.0
  0
LINE
  5
32F
330
1F
100
AcDbEntity
  8
외형선
  6
Continuous
370
    15
100
AcDbLine
 10
-25.98750000000001
 20
2.778125000000003
 30
0.0
 11
-26.48732066540299
 21
2.778125000000003
 31
0.0
  0
LINE
  5
330
330
1F
100
AcDbEntity
  8
외형선
  6
Continuous
370
    15
100
AcDbLine
 10
-26.48732066540299
 20
-2.778124999999988
 30
0.0
 11
-25.98750000000001
 21
-2.778124999999988
 31
0.0
  0
LINE
  5
331
330
1F
100
AcDbEntity
  8
외형선
  6
Continuous
370
    15
100
AcDbLine
 10
-26.98750000000001
 20
-2.778124999999988
 30
0.0
 11
-26.57018323129932
 21
-2.778124999999988
 31
0.0
  0
SPLINE
  5
332
330
1F
100
AcDbEntity
  8
0
  6
Continuous
 62
     1
370
    15
100
AcDbSpline
210
0.0
220
0.0
230
1.0
 70
     8
 71
     3
 72
    17
 73
    13
 74
     0
 42
0.000000001
 43
0.00000001
 40
0.0
 40
0.0
 40
0.0
 40
0.0
 40
0.1131760621655102
 40
0.2263513526175666
 40
0.3395261826348741
 40
0.4527008636543747
 40
0.5658757071642223
 40
0.679051024596724
 40
0.7857469096743485
 40
0.8924566326206508
 40
0.9991875150270585
 40
1.0
 40
1.0
 40
1.0
 40
1.0
 10
-26.98750000000001
 20
-0.7290795520264761
 30
0.0
 10
-27.43195886047189
 20
-0.4760276102141882
 30
0.0
 10
-28.32087355078468
 20
0.0300745479254663
 30
0.0
 10
-29.65424017523361
 20
0.8018359893018503
 30
0.0
 10
-30.98759881310187
 20
1.508440396456351
 30
0.0
 10
-32.32096152239012
 20
2.10090650923209
 30
0.0
 10
-33.65430329474918
 20
2.533140961266654
 30
0.0
 10
-34.96228850555633
 20
2.766219708211864
 30
0.0
 10
-36.24458217513455
 20
2.802067368882789
 30
0.0
 10
-37.50169433641167
 20
2.629464114713969
 30
0.0
 10
-38.34301928063309
 20
2.438409682035897
 30
0.0
 10
-38.76535272598221
 20
2.274154951442654
 30
0.0
 10
-38.76854343486809
 20
2.272914014845697
 30
0.0
  0
SPLINE
  5
333
330
1F
100
AcDbEntity
  8
외형선
  6
Continuous
370
    15
100
AcDbSpline
210
0.0
220
0.0
230
1.0
 70
    24
 71
     3
 72
    11
 73
     7
 74
     0
 42
0.000000001
 43
0.00000001
 40
0.0
 40
0.0
 40
0.0
 40
0.0
 40
0.2556061231823116
 40
0.5083528923285232
 40
0.7610996614747424
 40
1.0
 40
1.0
 40
1.0
 40
1.0
 10
-26.98750000000004
 20
-2.767742951574433
 30
0.0
 10
-26.98750000000001
 20
-2.585119921223181
 30
0.0
 10
-26.98750000000001
 20
-2.221916784580628
 30
0.0
 10
-26.98749999999998
 20
-1.651841957452489
 30
0.0
 10
-26.98749999999998
 20
-1.140484032019657
 30
0.0
 10
-26.98750000000001
 20
-0.9020328780277747
 30
0.0
 10
-26.98750000000004
 20
-0.7861650929406134
 30
0.0
  0
SPLINE
  5
334
330
1F
100
AcDbEntity
  8
0
  6
Continuous
 62
     1
370
    15
100
AcDbSpline
210
0.0
220
0.0
230
1.0
 70
     8
 71
     3
 72
    50
 73
    46
 74
     0
 42
0.000000001
 43
0.00000001
 40
0.0
 40
0.0
 40
0.0
 40
0.0
 40
0.0624999999999999
 40
0.0624999999999999
 40
0.1249999999999997
 40
0.1249999999999997
 40
0.1874999999999996
 40
0.1874999999999996
 40
0.2499999999999994
 40
0.2499999999999994
 40
0.3124999999999993
 40
0.3124999999999993
 40
0.3749999999999992
 40
0.3749999999999992
 40
0.4062499999999991
 40
0.4062499999999991
 40
0.437499999999999
 40
0.437499999999999
 40
0.4687499999999989
 40
0.4687499999999989
 40
0.4999999999999989
 40
0.4999999999999989
 40
0.5624999999999988
 40
0.5624999999999988
 40
0.5937499999999998
 40
0.5937499999999998
 40
0.6250000000000008
 40
0.6250000000000008
 40
0.6562500000000019
 40
0.6562500000000019
 40
0.6875000000000029
 40
0.6875000000000029
 40
0.7500000000000049
 40
0.7500000000000049
 40
0.7812500000000048
 40
0.7812500000000048
 40
0.8125000000000048
 40
0.8125000000000048
 40
0.8437500000000047
 40
0.8437500000000047
 40
0.8750000000000046
 40
0.8750000000000046
 40
0.9375000000000022
 40
0.9375000000000022
 40
1.0
 40
1.0
 40
1.0
 40
1.0
 10
-41.27499999999995
 20
2.778125000000017
 30
0.0
 10
-40.98035916597945
 20
2.753233475588687
 30
0.0
 10
-40.67981125793585
 20
2.722543209632378
 30
0.0
 10
-40.08224826758988
 20
2.630271091774404
 30
0.0
 10
-39.78861424021449
 20
2.56906842607512
 30
0.0
 10
-39.19170025925857
 20
2.417303586114386
 30
0.0
 10
-38.89086861930542
 20
2.326765427951657
 30
0.0
 10
-38.2998505038311
 20
2.121283355941757
 30
0.0
 10
-38.00129415037094
 20
2.005423992582636
 30
0.0
 10
-37.4032690957691
 20
1.751825221599646
 30
0.0
 10
-37.10929698374412
 20
1.614965873898371
 30
0.0
 10
-36.51321827998871
 20
1.323110963985983
 30
0.0
 10
-36.21219850708442
 20
1.168194072706634
 30
0.0
 10
-35.76776770186257
 20
0.9283537918841849
 30
0.0
 10
-35.62066642338803
 20
0.8471561492868394
 30
0.0
 10
-35.32287068377224
 20
0.6819084360008394
 30
0.0
 10
-35.17315140364596
 20
0.5980330272147332
 30
0.0
 10
-34.87400155816985
 20
0.4288540083088468
 30
0.0
 10
-34.72457376973182
 20
0.3435519774458916
 30
0.0
 10
-34.42793152713085
 20
0.1726316987158971
 30
0.0
 10
-34.28101419869088
 20
0.0870722998099898
 30
0.0
 10
-33.83472067683735
 20
-0.1706776004934123
 30
0.0
 10
-33.53360857104201
 20
-0.3431973591838253
 30
0.0
 10
-33.08814686873248
 20
-0.5963752228096619
 30
0.0
 10
-32.94131797464539
 20
-0.6797239405134685
 30
0.0
 10
-32.64407872858084
 20
-0.8449079516195535
 30
0.0
 10
-32.49448909411751
 20
-0.9265840868458848
 30
0.0
 10
-32.19529578799893
 20
-1.087034075320957
 30
0.0
 10
-32.04569489607255
 20
-1.165806437246651
 30
0.0
 10
-31.74841110182413
 20
-1.319450032462029
 30
0.0
 10
-31.60157510357155
 20
-1.394187110910586
 30
0.0
 10
-31.1561853395722
 20
-1.612917882716544
 30
0.0
 10
-30.85507679970101
 20
-1.750934987137583
 30
0.0
 10
-30.40872158894581
 20
-1.940916096693115
 30
0.0
 10
-30.26178294984405
 20
-2.001298198491326
 30
0.0
 10
-29.96519206437708
 20
-2.116541452667831
 30
0.0
 10
-29.81577901811841
 20
-2.171353645805055
 30
0.0
 10
-29.51663615434921
 20
-2.274600157922464
 30
0.0
 10
-29.36690911329799
 20
-2.323033479893723
 30
0.0
 10
-29.06907568068169
 20
-2.412923631345165
 30
0.0
 10
-28.92193889055181
 20
-2.45430152993498
 30
0.0
 10
-28.47759019848479
 20
-2.568025879615078
 30
0.0
 10
-28.17658111953835
 20
-2.629862434209826
 30
0.0
 10
-27.58043391525638
 20
-2.722223487314153
 30
0.0
 10
-27.28649857118933
 20
-2.752876936858527
 30
0.0
 10
-26.98750000000007
 20
-2.767742951573893
 30
0.0
  0
LINE
  5
335
330
1F
100
AcDbEntity
  8
0
  6
Continuous
 62
     1
370
    15
100
AcDbLine
 10
-41.27499999999998
 20
2.516095998401142
 30
0.0
 11
-41.27499999999998
 21
-0.2380334984011436
 31
0.0
  0
SPLINE
  5
336
330
1F
100
AcDbEntity
  8
0
  6
Continuous
 62
     1
370
    15
100
AcDbSpline
210
0.0
220
0.0
230
1.0
 70
     8
 71
     3
 72
    18
 73
    14
 74
     0
 42
0.000000001
 43
0.00000001
 40
0.0
 40
0.0
 40
0.0
 40
0.0
 40
0.004259551389535
 40
0.1067483958601642
 40
0.2092368233720634
 40
0.3117251159551014
 40
0.4142135556855234
 40
0.5167024245890004
 40
0.6133236740481228
 40
0.7099574547511686
 40
0.8066103969567574
 40
0.9032890771791318
 40
1.0
 40
1.0
 40
1.0
 40
1.0
 10
-28.26545999877976
 20
-2.773899407057541
 30
0.0
 10
-28.28393207743045
 20
-2.775299136007561
 30
0.0
 10
-28.74685987987633
 20
-2.810377670432814
 30
0.0
 10
-29.65424007415879
 20
-2.682226709438509
 30
0.0
 10
-30.98759884872797
 20
-2.379415507502102
 30
0.0
 10
-32.32096148096025
 20
-1.870865091428527
 30
0.0
 10
-33.65430342484302
 20
-1.226038991451403
 30
0.0
 10
-34.96228803823161
 20
-0.4999906824810547
 30
0.0
 10
-36.24458380698459
 20
0.2459772077245437
 30
0.0
 10
-37.50168823331822
 20
0.9614359177616483
 30
0.0
 10
-38.75907201475593
 20
1.608368812592474
 30
0.0
 10
-40.01685575960892
 20
2.158425787525673
 30
0.0
 10
-40.85557197529184
 20
2.396859343947427
 30
0.0
 10
-41.27500000000001
 20
2.516095998401142
 30
0.0
  0
SPLINE
  5
337
330
1F
100
AcDbEntity
  8
0
  6
Continuous
 62
     1
370
    15
100
AcDbSpline
210
0.0
220
0.0
230
1.0
 70
     8
 71
     3
 72
    16
 73
    12
 74
     0
 42
0.000000001
 43
0.00000001
 40
0.0
 40
0.0
 40
0.0
 40
0.0
 40
0.1136451833591739
 40
0.2271596315471121
 40
0.3406092973403826
 40
0.4540608370428029
 40
0.5675808865697575
 40
0.6812347222081415
 40
0.7948708410380159
 40
0.919744009638519
 40
1.0
 40
1.0
 40
1.0
 40
1.0
 10
-41.27499999999998
 20
-0.2380334984011436
 30
0.0
 10
-40.8935269026376
 20
-0.4559523149242958
 30
0.0
 10
-40.13101954701918
 20
-0.8915392584741251
 30
0.0
 10
-38.9880628437833
 20
-1.491630506733976
 30
0.0
 10
-37.84586162834734
 20
-2.008693870623886
 30
0.0
 10
-36.70363500331004
 20
-2.412823084645623
 30
0.0
 10
-35.56062134395671
 20
-2.681182347723932
 30
0.0
 10
-34.41657371528893
 20
-2.800297127249578
 30
0.0
 10
-33.2345678096832
 20
-2.755278684010676
 30
0.0
 10
-32.16469617635175
 20
-2.582343890515915
 30
0.0
 10
-31.47625476311293
 20
-2.353083071948788
 30
0.0
 10
-31.20690472187582
 20
-2.263385663066031
 30
0.0
  0
SPLINE
  5
338
330
1F
100
AcDbEntity
  8
0
  6
Continuous
 62
     1
370
    15
100
AcDbSpline
210
0.0
220
0.0
230
1.0
 70
     8
 71
     3
 72
    13
 73
     9
 74
     0
 42
0.000000001
 43
0.00000001
 40
0.0
 40
0.0
 40
0.0
 40
0.0
 40
0.1200213390348088
 40
0.2960605131581231
 40
0.4720658557844402
 40
0.6480494502756001
 40
0.8240234411570677
 40
0.9999999999999999
 40
0.9999999999999999
 40
0.9999999999999999
 40
0.9999999999999999
 10
-34.12956944278002
 20
2.763416743528055
 30
0.0
 10
-33.84380686147327
 20
2.760702858709536
 30
0.0
 10
-33.1389070732904
 20
2.754008431381167
 30
0.0
 10
-32.01503449275648
 20
2.539481228345182
 30
0.0
 10
-30.75796561932293
 20
2.149281093601559
 30
0.0
 10
-29.50108593566478
 20
1.606977557205127
 30
0.0
 10
-28.2442891428737
 20
0.9583558583697926
 30
0.0
 10
-27.40643175206384
 20
0.4794218223864424
 30
0.0
 10
-26.98750000000007
 20
0.2399530571547719
 30
0.0
  0
LINE
  5
339
330
1F
100
AcDbEntity
  8
외형선
  6
Continuous
370
    15
100
AcDbLine
 10
-26.98750000000004
 20
0.2399530571549424
 30
0.0
 11
-26.98749999999998
 21
-0.729079552026469
 31
0.0
  0
LINE
  5
33A
330
1F
100
AcDbEntity
  8
0
  6
Continuous
 62
     1
370
    15
100
AcDbLine
 10
-41.27499999999998
 20
2.778125000000017
 30
0.0
 11
-41.27499999999998
 21
2.516095998401142
 31
0.0
  0
LINE
  5
33B
330
1F
100
AcDbEntity
  8
외형선
  6
Continuous
370
    15
100
AcDbLine
 10
-26.98750000000004
 20
-2.767742951574433
 30
0.0
 11
-26.98750000000001
 21
-2.778124999999988
 31
0.0
  0
SPLINE
  5
33C
330
1F
100
AcDbEntity
  8
0
  6
Continuous
 62
     1
370
    15
100
AcDbSpline
210
0.0
220
0.0
230
1.0
 70
     8
 71
     3
 72
    12
 73
     8
 74
     0
 42
0.000000001
 43
0.00000001
 40
0.0
 40
0.0
 40
0.0
 40
0.0
 40
0.0772914376460953
 40
0.3078843415375701
 40
0.5385229696724948
 40
0.7692230152950498
 40
1.0
 40
1.0
 40
1.0
 40
1.0
 10
-35.82320993213037
 20
-2.757033875704308
 30
0.0
 10
-35.96365566270993
 20
-2.762832472322628
 30
0.0
 10
-36.52311014561465
 20
-2.785930724289983
 30
0.0
 10
-37.50168573557565
 20
-2.632601732726584
 30
0.0
 10
-38.75907268106704
 20
-2.303860420010721
 30
0.0
 10
-40.01685559294782
 20
-1.811422589138032
 30
0.0
 10
-40.85557191973197
 20
-1.389038532319041
 30
0.0
 10
-41.27499999999998
 20
-1.17781129322774
 30
0.0
  0
LINE
  5
33D
330
1F
100
AcDbEntity
  8
0
  6
Continuous
 62
     1
370
    15
100
AcDbLine
 10
-41.27499999999998
 20
-0.2380334984011436
 30
0.0
 11
-41.27499999999998
 21
-1.17781129322774
 31
0.0
  0
SPLINE
  5
33E
330
1F
100
AcDbEntity
  8
0
  6
Continuous
 62
     1
370
    15
100
AcDbSpline
210
0.0
220
0.0
230
1.0
 70
     8
 71
     3
 72
    11
 73
     7
 74
     0
 42
0.000000001
 43
0.00000001
 40
0.0
 40
0.0
 40
0.0
 40
0.0
 40
0.316010115110244
 40
0.6320180754427615
 40
0.9480247501497192
 40
1.0
 40
1.0
 40
1.0
 40
1.0
 10
-26.98750000000001
 20
2.680750179043529
 30
0.0
 10
-27.43195888402488
 20
2.72897001555937
 30
0.0
 10
-28.32087362144344
 20
2.825409359794506
 30
0.0
 10
-29.65423989260142
 20
2.685244382483262
 30
0.0
 10
-30.61624900604346
 20
2.488443635330654
 30
0.0
 10
-31.13380327183106
 20
2.291239561158747
 30
0.0
 10
-31.20690472187579
 20
2.263385663066046
 30
0.0
  0
SPLINE
  5
33F
330
1F
100
AcDbEntity
  8
외형선
  6
Continuous
370
    15
100
AcDbSpline
210
0.0
220
0.0
230
1.0
 70
    24
 71
     3
 72
    20
 73
    16
 74
     0
 42
0.000000001
 43
0.00000001
 40
0.0
 40
0.0
 40
0.0
 40
0.0
 40
0.048096529141837
 40
0.1285356827428915
 40
0.2067078385303543
 40
0.2871469921314115
 40
0.3653191479189495
 40
0.4457583015199315
 40
0.5239304573073382
 40
0.6043696109083339
 40
0.6825417666958524
 40
0.7629809202969698
 40
0.8411530760842605
 40
0.921592229685491
 40
0.9999999999999999
 40
0.9999999999999999
 40
0.9999999999999999
 40
0.9999999999999999
 10
-26.98750000000001
 20
0.1196542418090805
 30
0.0
 10
-26.98750000000001
 20
0.1200036828022424
 30
0.0
 10
-26.98750000000004
 20
0.1209375472085914
 30
0.0
 10
-26.98749999999995
 20
0.1753036045705874
 30
0.0
 10
-26.98749999999998
 20
0.2763780793869307
 30
0.0
 10
-26.98750000000001
 20
0.4210377209141858
 30
0.0
 10
-26.98749999999993
 20
0.6052498772386703
 30
0.0
 10
-26.9875000000001
 20
0.8211653778356056
 30
0.0
 10
-26.9874999999999
 20
1.066373218645524
 30
0.0
 10
-26.98750000000004
 20
1.329580179677486
 30
0.0
 10
-26.98749999999998
 20
1.608015919764626
 30
0.0
 10
-26.98750000000001
 20
1.888957069553314
 30
0.0
 10
-26.98750000000001
 20
2.168887907460985
 30
0.0
 10
-26.98749999999998
 20
2.437420487021172
 30
0.0
 10
-26.98749999999998
 20
2.60033474758204
 30
0.0
 10
-26.98750000000001
 20
2.680750179043529
 30
0.0
  0
SPLINE
  5
340
330
1F
100
AcDbEntity
  8
0
  6
Continuous
 62
     1
370
    15
100
AcDbSpline
210
0.0
220
0.0
230
1.0
 70
     8
 71
     3
 72
    10
 73
     6
 74
     0
 42
0.000000001
 43
0.00000001
 40
0.0
 40
0.0
 40
0.0
 40
0.0
 40
0.456502486554478
 40
0.9124798216772353
 40
1.0
 40
1.0
 40
1.0
 40
1.0
 10
-41.27499999999998
 20
-2.778124999999988
 30
0.0
 10
-40.89352797305952
 20
-2.731933855384767
 30
0.0
 10
-40.13102275705356
 20
-2.660025551724317
 30
0.0
 10
-39.29563663199374
 20
-2.46781594375065
 30
0.0
 10
-38.84164961114007
 20
-2.299946302205796
 30
0.0
 10
-38.76854343486809
 20
-2.272914014845667
 30
0.0
  0
LINE
  5
341
330
1F
100
AcDbEntity
  8
0
  6
Continuous
 62
     1
370
    15
100
AcDbLine
 10
-41.27499999999998
 20
-1.177403822954239
 30
0.0
 11
-41.27499999999998
 21
-2.778124999999988
 31
0.0
  0
LINE
  5
342
330
1F
100
AcDbEntity
  8
외형선
  6
Continuous
370
    15
100
AcDbLine
 10
-26.98750000000001
 20
2.778125000000003
 30
0.0
 11
-26.98750000000001
 21
2.680750179043529
 31
0.0
  0
LINE
  5
343
330
1F
100
AcDbEntity
  8
외형선
  6
Continuous
370
    15
100
AcDbLine
 10
-25.98750000000001
 20
0.0000000000000147
 30
0.0
 11
-25.98750000000001
 21
-2.778124999999988
 31
0.0
  0
LINE
  5
344
330
1F
100
AcDbEntity
  8
외형선
  6
Continuous
370
    15
100
AcDbLine
 10
-25.98750000000001
 20
2.778125000000003
 30
0.0
 11
-25.98750000000001
 21
0.0000000000000147
 31
0.0
  0
LINE
  5
345
330
1F
100
AcDbEntity
  8
외형선
  6
Continuous
370
    15
100
AcDbLine
 10
-18.58171167873053
 20
0.0000000000000147
 30
0.0
 11
-18.58171167873053
 21
-4.762499999999988
 31
0.0
  0
LINE
  5
346
330
1F
100
AcDbEntity
  8
외형선
  6
Continuous
370
    15
100
AcDbLine
 10
-18.58171167873053
 20
4.762500000000018
 30
0.0
 11
-18.58171167873053
 21
0.0000000000000147
 31
0.0
  0
SPLINE
  5
347
330
1F
100
AcDbEntity
  8
외형선
  6
Continuous
370
    15
100
AcDbSpline
210
0.0
220
0.0
230
1.0
 70
    24
 71
     3
 72
    14
 73
    10
 74
     0
 42
0.000000001
 43
0.00000001
 40
0.0
 40
0.0
 40
0.0
 40
0.0
 40
0.1286921062917739
 40
0.2871844118579961
 40
0.4456767174242192
 40
0.6041690229904458
 40
0.7626613285566668
 40
0.9211536341228843
 40
1.0
 40
1.0
 40
1.0
 40
1.0
 10
-26.98750000000001
 20
2.680750179043529
 30
0.0
 10
-26.98750000000001
 20
2.546295409727975
 30
0.0
 10
-26.98749999999998
 20
2.246251258147723
 30
0.0
 10
-26.98750000000001
 20
1.7106392668355
 30
0.0
 10
-26.98749999999998
 20
1.154729439984309
 30
0.0
 10
-26.98750000000001
 20
0.6649507186321846
 30
0.0
 10
-26.98749999999998
 20
0.3112630219617221
 30
0.0
 10
-26.98750000000004
 20
0.1242635565545745
 30
0.0
 10
-26.98750000000001
 20
0.1344514774351642
 30
0.0
 10
-26.98750000000001
 20
0.1378360103155108
 30
0.0
  0
SPLINE
  5
348
330
1F
100
AcDbEntity
  8
외형선
  6
Continuous
370
    15
100
AcDbSpline
210
0.0
220
0.0
230
1.0
 70
     8
 71
     3
 72
     8
 73
     4
 74
     0
 42
0.000000001
 43
0.00000001
 40
0.0
 40
0.0
 40
0.0
 40
0.0
 40
1.0
 40
1.0
 40
1.0
 40
1.0
 10
-26.98750000000001
 20
2.680750179043529
 30
0.0
 10
-26.82070755919693
 20
2.655553085978739
 30
0.0
 10
-26.65353355100484
 20
2.625521235304575
 30
0.0
 10
-26.48732066540302
 20
2.590912341716376
 30
0.0
  0
SPLINE
  5
349
330
1F
100
AcDbEntity
  8
외형선
  6
Continuous
370
    15
100
AcDbSpline
210
0.0
220
0.0
230
1.0
 70
     8
 71
     3
 72
     8
 73
     4
 74
     0
 42
0.000000001
 43
0.00000001
 40
0.0
 40
0.0
 40
0.0
 40
0.0
 40
1.0
 40
1.0
 40
1.0
 40
1.0
 10
-26.98749999999998
 20
0.2399530571547151
 30
0.0
 10
-26.8207075591969
 20
0.1442994669033273
 30
0.0
 10
-26.65353355100484
 20
0.0481425503830768
 30
0.0
 10
-26.48732066540299
 20
-0.0477444066188321
 30
0.0
  0
SPLINE
  5
34A
330
1F
100
AcDbEntity
  8
외형선
  6
Continuous
370
    15
100
AcDbSpline
210
0.0
220
0.0
230
1.0
 70
     8
 71
     3
 72
     8
 73
     4
 74
     0
 42
0.000000001
 43
0.00000001
 40
0.0
 40
0.0
 40
0.0
 40
0.0
 40
1.0
 40
1.0
 40
1.0
 40
1.0
 10
-26.98749999999998
 20
-2.767742951573907
 30
0.0
 10
-26.8207075591969
 20
-2.776035763374068
 30
0.0
 10
-26.65353355100484
 20
-2.779362847013658
 30
0.0
 10
-26.48732066540299
 20
-2.777714705879915
 30
0.0
  0
LINE
  5
34B
330
1F
100
AcDbEntity
  8
외형선
  6
Continuous
370
    15
100
AcDbLine
 10
-26.48732066540299
 20
-1.002550836682765
 30
0.0
 11
-26.48732066540299
 21
-2.778124999999988
 31
0.0
  0
SPLINE
  5
34C
330
1F
100
AcDbEntity
  8
외형선
  6
Continuous
370
    15
100
AcDbSpline
210
0.0
220
0.0
230
1.0
 70
     8
 71
     3
 72
     8
 73
     4
 74
     0
 42
0.000000001
 43
0.00000001
 40
0.0
 40
0.0
 40
0.0
 40
0.0
 40
1.0
 40
1.0
 40
1.0
 40
1.0
 10
-26.98750000000001
 20
-0.7290795520264548
 30
0.0
 10
-26.82070755919693
 20
-0.8217266596802726
 30
0.0
 10
-26.65353355100484
 20
-0.9131340446407559
 30
0.0
 10
-26.48732066540302
 20
-1.00257256753153
 30
0.0
  0
LINE
  5
34D
330
1F
100
AcDbEntity
  8
외형선
  6
Continuous
370
    15
100
AcDbLine
 10
-26.48732066540299
 20
2.590920750523197
 30
0.0
 11
-26.48732066540299
 21
-0.047762399788986
 31
0.0
  0
LINE
  5
34E
330
1F
100
AcDbEntity
  8
외형선
  6
Continuous
370
    15
100
AcDbLine
 10
-26.57018323129932
 20
2.777446787303518
 30
0.0
 11
-26.48732066540299
 21
2.777714705879931
 31
0.0
  0
LINE
  5
34F
330
1F
100
AcDbEntity
  8
외형선
  6
Continuous
370
    15
100
AcDbLine
 10
-26.48732066540299
 20
2.778125000000003
 30
0.0
 11
-26.48732066540299
 21
2.777714396548248
 31
0.0
  0
SPLINE
  5
350
330
1F
100
AcDbEntity
  8
외형선
  6
Continuous
370
    15
100
AcDbSpline
210
0.0
220
0.0
230
1.0
 70
    24
 71
     3
 72
    12
 73
     8
 74
     0
 42
0.000000001
 43
0.00000001
 40
0.0
 40
0.0
 40
0.0
 40
0.0
 40
0.0754527287360398
 40
0.3255465690561949
 40
0.5756404093763448
 40
0.8257342496961539
 40
1.0
 40
1.0
 40
1.0
 40
1.0
 10
-26.98750000000001
 20
-0.7861750929406166
 30
0.0
 10
-26.98750000000001
 20
-0.8138787104409526
 30
0.0
 10
-26.98749999999998
 20
-0.9334080870289223
 30
0.0
 10
-26.98750000000001
 20
-1.298458818241684
 30
0.0
 10
-26.98750000000004
 20
-1.824113462521353
 30
0.0
 10
-26.98749999999995
 20
-2.342643105700645
 30
0.0
 10
-26.98750000000001
 20
-2.643992187063418
 30
0.0
 10
-26.98750000000004
 20
-2.76774295157395
 30
0.0
  0
LINE
  5
3CE
330
1F
100
AcDbEntity
  8
외형선
  6
Continuous
370
    15
100
AcDbLine
 10
-3.568700000000037
 20
3.492500000000021
 30
0.0
 11
3.568700000000034
 21
3.492500000000021
 31
0.0
  0
LINE
  5
3CF
330
1F
100
AcDbEntity
  8
외형선
  6
Continuous
370
    15
100
AcDbLine
 10
-3.568700000000037
 20
3.492500000000021
 30
0.0
 11
-4.838700000000019
 21
4.762500000000003
 31
0.0
  0
LINE
  5
3D0
330
1F
100
AcDbEntity
  8
외형선
  6
Continuous
370
    15
100
AcDbLine
 10
3.568700000000034
 20
3.492500000000021
 30
0.0
 11
4.838700000000015
 21
4.762500000000003
 31
0.0
  0
LINE
  5
3D2
330
1F
100
AcDbEntity
  8
외형선
  6
Continuous
370
    15
100
AcDbLine
 10
-4.838700000000021
 20
4.762500000000003
 30
0.0
 11
-18.58171167873059
 21
4.762500000000003
 31
0.0
  0
ENDSEC
  0
SECTION
  2
OBJECTS
  0
DICTIONARY
  5
C
330
0
100
AcDbDictionary
281
     1
  3
ACAD_GROUP
350
D
  3
ACAD_IMAGE_VARS
350
155
  3
ACAD_LAYOUT
350
1A
  3
ACAD_MLINESTYLE
350
17
  3
ACAD_PLOTSETTINGS
350
19
  3
ACAD_PLOTSTYLENAME
350
E
  3
ACAD_SCALELIST
350
47
  3
APPDATA
350
153
  3
DWGPROPS
350
3F6
  0
DICTIONARY
  5
1DF
330
2
100
AcDbDictionary
280
     1
281
     1
  3
ACAD_LAYERSTATES
360
1E0
  0
DICTIONARY
  5
D
102
{ACAD_REACTORS
330
C
102
}
330
C
100
AcDbDictionary
281
     1
  0
RASTERVARIABLES
  5
155
102
{ACAD_REACTORS
330
C
102
}
330
C
100
AcDbRasterVariables
 90
        0
 70
     1
 71
     1
 72
     1
  0
DICTIONARY
  5
1A
102
{ACAD_REACTORS
330
C
102
}
330
C
100
AcDbDictionary
281
     1
  3
Layout1
350
1E
  3
Layout2
350
26
  3
Model
350
22
  0
DICTIONARY
  5
17
102
{ACAD_REACTORS
330
C
102
}
330
C
100
AcDbDictionary
281
     1
  3
Standard
350
18
  0
DICTIONARY
  5
19
102
{ACAD_REACTORS
330
C
102
}
330
C
100
AcDbDictionary
281
     1
  0
ACDBDICTIONARYWDFLT
  5
E
102
{ACAD_REACTORS
330
C
102
}
330
C
100
AcDbDictionary
281
     1
  3
Normal
350
F
100
AcDbDictionaryWithDefault
340
F
  0
DICTIONARY
  5
47
102
{ACAD_REACTORS
330
C
102
}
330
C
100
AcDbDictionary
281
     1
  3
A0
350
48
  3
A1
350
49
  3
A2
350
4A
  3
A3
350
4B
  3
A4
350
4C
  3
A5
350
4D
  3
A6
350
4E
  3
A7
350
4F
  3
A8
350
50
  3
A9
350
51
  3
B0
350
52
  3
B1
350
53
  3
B2
350
54
  3
B3
350
55
  3
B4
350
56
  3
B5
350
57
  3
B6
350
58
  3
B7
350
59
  3
B8
350
5A
  3
B9
350
5B
  3
C0
350
5C
  3
C1
350
5D
  3
C2
350
5E
  3
C3
350
5F
  3
C4
350
60
  3
C5
350
61
  3
C6
350
62
  3
C7
350
63
  3
C8
350
64
  3
C9
350
65
  3
D0
350
66
  3
D1
350
67
  3
D2
350
68
  0
DICTIONARY
  5
153
102
{ACAD_REACTORS
330
C
102
}
330
C
100
AcDbDictionary
281
     1
  0
XRECORD
  5
3F6
102
{ACAD_REACTORS
330
C
102
}
330
C
100
AcDbXrecord
280
     1
  1
DWGPROPS COOKIE
  2

  3

  4

  6

  7

  8
12016016
  9

300
=
301
=
302
=
303
=
304
=
305
=
306
=
307
=
308
=
309
=
 40
0.0
 41
2458313.095389086
 42
2458319.120866134
  1

 90
        0
  0
DICTIONARY
  5
1E0
102
{ACAD_REACTORS
330
1DF
102
}
330
1DF
100
AcDbDictionary
281
     1
  0
LAYOUT
  5
1E
102
{ACAD_REACTORS
330
1A
102
}
330
1A
100
AcDbPlotSettings
  1

  2
none_device
  4

  6

 40
0.0
 41
0.0
 42
0.0
 43
0.0
 44
0.0
 45
0.0
 46
0.0
 47
0.0
 48
0.0
 49
0.0
140
0.0
141
0.0
142
1.0
143
1.0
 70
   688
 72
     1
 73
     0
 74
     5
  7

 75
    16
147
1.0
148
0.0
149
0.0
100
AcDbLayout
  1
Layout1
 70
     1
 71
     1
 10
0.0
 20
0.0
 11
420.0
 21
297.0
 12
0.0
 22
0.0
 32
0.0
 14
1.000000000000000E+20
 24
1.000000000000000E+20
 34
1.000000000000000E+20
 15
-1.000000000000000E+20
 25
-1.000000000000000E+20
 35
-1.000000000000000E+20
146
0.0
 13
0.0
 23
0.0
 33
0.0
 16
1.0
 26
0.0
 36
0.0
 17
0.0
 27
1.0
 37
0.0
 76
     0
330
1B
  0
LAYOUT
  5
26
102
{ACAD_REACTORS
330
1A
102
}
330
1A
100
AcDbPlotSettings
  1

  2
none_device
  4

  6

 40
0.0
 41
0.0
 42
0.0
 43
0.0
 44
0.0
 45
0.0
 46
0.0
 47
0.0
 48
0.0
 49
0.0
140
0.0
141
0.0
142
1.0
143
1.0
 70
   688
 72
     1
 73
     0
 74
     5
  7

 75
    16
147
1.0
148
0.0
149
0.0
100
AcDbLayout
  1
Layout2
 70
     1
 71
     2
 10
0.0
 20
0.0
 11
0.0
 21
0.0
 12
0.0
 22
0.0
 32
0.0
 14
0.0
 24
0.0
 34
0.0
 15
0.0
 25
0.0
 35
0.0
146
0.0
 13
0.0
 23
0.0
 33
0.0
 16
1.0
 26
0.0
 36
0.0
 17
0.0
 27
1.0
 37
0.0
 76
     0
330
23
  0
LAYOUT
  5
22
102
{ACAD_REACTORS
330
1A
102
}
330
1A
100
AcDbPlotSettings
  1

  2
none_device
  4
ANSI_A_(11.00_x_8.50_Inches)
  6

 40
6.35
 41
19.05
 42
6.35000508
 43
19.05000254
 44
279.4
 45
215.9
 46
89.54365339536682
 47
81.04850065958252
 48
0.0
 49
0.0
140
0.0
141
0.0
142
0.0592309552446001
143
1.0
 70
  1696
 72
     0
 73
     0
 74
     0
  7

 75
     0
147
0.0235690232323232
148
0.0
149
0.0
100
AcDbLayout
  1
Model
 70
     1
 71
     0
 10
0.0
 20
0.0
 11
420.0
 21
297.0
 12
0.0
 22
0.0
 32
0.0
 14
-58.17375000000006
 24
-49.97180738881174
 34
0.0
 15
81.41936447236121
 25
43.29535403243348
 35
0.0
146
0.0
 13
0.0
 23
0.0
 33
0.0
 16
1.0
 26
0.0
 36
0.0
 17
0.0
 27
1.0
 37
0.0
 76
     0
330
1F
331
29
  0
MLINESTYLE
  5
18
102
{ACAD_REACTORS
330
17
102
}
330
17
100
AcDbMlineStyle
  2
Standard
 70
     0
  3

 62
   256
 51
90.0
 52
90.0
 71
     2
 49
0.5
 62
   256
  6
BYLAYER
 49
-0.5
 62
   256
  6
BYLAYER
  0
ACDBPLACEHOLDER
  5
F
102
{ACAD_REACTORS
330
E
102
}
330
E
  0
SCALE
  5
48
102
{ACAD_REACTORS
330
47
102
}
330
47
100
AcDbScale
 70
     0
300
1:1
140
1.0
141
1.0
290
     1
  0
SCALE
  5
49
102
{ACAD_REACTORS
330
47
102
}
330
47
100
AcDbScale
 70
     0
300
1:2
140
1.0
141
2.0
290
     0
  0
SCALE
  5
4A
102
{ACAD_REACTORS
330
47
102
}
330
47
100
AcDbScale
 70
     0
300
1:4
140
1.0
141
4.0
290
     0
  0
SCALE
  5
4B
102
{ACAD_REACTORS
330
47
102
}
330
47
100
AcDbScale
 70
     0
300
1:5
140
1.0
141
5.0
290
     0
  0
SCALE
  5
4C
102
{ACAD_REACTORS
330
47
102
}
330
47
100
AcDbScale
 70
     0
300
1:8
140
1.0
141
8.0
290
     0
  0
SCALE
  5
4D
102
{ACAD_REACTORS
330
47
102
}
330
47
100
AcDbScale
 70
     0
300
1:10
140
1.0
141
10.0
290
     0
  0
SCALE
  5
4E
102
{ACAD_REACTORS
330
47
102
}
330
47
100
AcDbScale
 70
     0
300
1:16
140
1.0
141
16.0
290
     0
  0
SCALE
  5
4F
102
{ACAD_REACTORS
330
47
102
}
330
47
100
AcDbScale
 70
     0
300
1:20
140
1.0
141
20.0
290
     0
  0
SCALE
  5
50
102
{ACAD_REACTORS
330
47
102
}
330
47
100
AcDbScale
 70
     0
300
1:30
140
1.0
141
30.0
290
     0
  0
SCALE
  5
51
102
{ACAD_REACTORS
330
47
102
}
330
47
100
AcDbScale
 70
     0
300
1:40
140
1.0
141
40.0
290
     0
  0
SCALE
  5
52
102
{ACAD_REACTORS
330
47
102
}
330
47
100
AcDbScale
 70
     0
300
1:50
140
1.0
141
50.0
290
     0
  0
SCALE
  5
53
102
{ACAD_REACTORS
330
47
102
}
330
47
100
AcDbScale
 70
     0
300
1:100
140
1.0
141
100.0
290
     0
  0
SCALE
  5
54
102
{ACAD_REACTORS
330
47
102
}
330
47
100
AcDbScale
 70
     0
300
2:1
140
2.0
141
1.0
290
     0
  0
SCALE
  5
55
102
{ACAD_REACTORS
330
47
102
}
330
47
100
AcDbScale
 70
     0
300
4:1
140
4.0
141
1.0
290
     0
  0
SCALE
  5
56
102
{ACAD_REACTORS
330
47
102
}
330
47
100
AcDbScale
 70
     0
300
8:1
140
8.0
141
1.0
290
     0
  0
SCALE
  5
57
102
{ACAD_REACTORS
330
47
102
}
330
47
100
AcDbScale
 70
     0
300
10:1
140
10.0
141
1.0
290
     0
  0
SCALE
  5
58
102
{ACAD_REACTORS
330
47
102
}
330
47
100
AcDbScale
 70
     0
300
100:1
140
100.0
141
1.0
290
     0
  0
SCALE
  5
59
102
{ACAD_REACTORS
330
47
102
}
330
47
100
AcDbScale
 70
     0
300
1/128" = 1'-0"
140
0.0078125
141
12.0
290
     0
  0
SCALE
  5
5A
102
{ACAD_REACTORS
330
47
102
}
330
47
100
AcDbScale
 70
     0
300
1/64" = 1'-0"
140
0.015625
141
12.0
290
     0
  0
SCALE
  5
5B
102
{ACAD_REACTORS
330
47
102
}
330
47
100
AcDbScale
 70
     0
300
1/32" = 1'-0"
140
0.03125
141
12.0
290
     0
  0
SCALE
  5
5C
102
{ACAD_REACTORS
330
47
102
}
330
47
100
AcDbScale
 70
     0
300
1/16" = 1'-0"
140
0.0625
141
12.0
290
     0
  0
SCALE
  5
5D
102
{ACAD_REACTORS
330
47
102
}
330
47
100
AcDbScale
 70
     0
300
3/32" = 1'-0"
140
0.09375
141
12.0
290
     0
  0
SCALE
  5
5E
102
{ACAD_REACTORS
330
47
102
}
330
47
100
AcDbScale
 70
     0
300
1/8" = 1'-0"
140
0.125
141
12.0
290
     0
  0
SCALE
  5
5F
102
{ACAD_REACTORS
330
47
102
}
330
47
100
AcDbScale
 70
     0
300
3/16" = 1'-0"
140
0.1875
141
12.0
290
     0
  0
SCALE
  5
60
102
{ACAD_REACTORS
330
47
102
}
330
47
100
AcDbScale
 70
     0
300
1/4" = 1'-0"
140
0.25
141
12.0
290
     0
  0
SCALE
  5
61
102
{ACAD_REACTORS
330
47
102
}
330
47
100
AcDbScale
 70
     0
300
3/8" = 1'-0"
140
0.375
141
12.0
290
     0
  0
SCALE
  5
62
102
{ACAD_REACTORS
330
47
102
}
330
47
100
AcDbScale
 70
     0
300
1/2" = 1'-0"
140
0.5
141
12.0
290
     0
  0
SCALE
  5
63
102
{ACAD_REACTORS
330
47
102
}
330
47
100
AcDbScale
 70
     0
300
3/4" = 1'-0"
140
0.75
141
12.0
290
     0
  0
SCALE
  5
64
102
{ACAD_REACTORS
330
47
102
}
330
47
100
AcDbScale
 70
     0
300
1" = 1'-0"
140
1.0
141
12.0
290
     0
  0
SCALE
  5
65
102
{ACAD_REACTORS
330
47
102
}
330
47
100
AcDbScale
 70
     0
300
1-1/2" = 1'-0"
140
1.5
141
12.0
290
     0
  0
SCALE
  5
66
102
{ACAD_REACTORS
330
47
102
}
330
47
100
AcDbScale
 70
     0
300
3" = 1'-0"
140
3.0
141
12.0
290
     0
  0
SCALE
  5
67
102
{ACAD_REACTORS
330
47
102
}
330
47
100
AcDbScale
 70
     0
300
6" = 1'-0"
140
6.0
141
12.0
290
     0
  0
SCALE
  5
68
102
{ACAD_REACTORS
330
47
102
}
330
47
100
AcDbScale
 70
     0
300
1'-0" = 1'-0"
140
12.0
141
12.0
290
     0
  0
ENDSEC
  0
EOF
