  0
SECTION
  2
HEADER
  9
$ACADVER
  1
AC1015
  9
$ACADMAINTVER
 70
     6
  9
$DWGCODEPAGE
  3
ANSI_949
  9
$INSBASE
 10
0.0
 20
0.0
 30
0.0
  9
$EXTMIN
 10
-59.76125000000005
 20
-49.97180738881174
 30
0.0
  9
$EXTMAX
 10
81.41936447236121
 20
45.66790460849538
 30
0.0
  9
$LIMMIN
 10
0.0
 20
0.0
  9
$LIMMAX
 10
420.0
 20
297.0
  9
$ORTHOMODE
 70
     1
  9
$REGENMODE
 70
     1
  9
$FILLMODE
 70
     1
  9
$QTEXTMODE
 70
     0
  9
$MIRRTEXT
 70
     1
  9
$LTSCALE
 40
1.0
  9
$ATTMODE
 70
     1
  9
$TEXTSIZE
 40
3.5
  9
$TRACEWID
 40
1.0
  9
$TEXTSTYLE
  7
Standard
  9
$CLAYER
  8
0
  9
$CELTYPE
  6
ByLayer
  9
$CECOLOR
 62
   256
  9
$CELTSCALE
 40
1.0
  9
$DISPSILH
 70
     0
  9
$DIMSCALE
 40
1.0
  9
$DIMASZ
 40
3.302
  9
$DIMEXO
 40
1.0
  9
$DIMDLI
 40
3.75
  9
$DIMRND
 40
0.0
  9
$DIMDLE
 40
0.0
  9
$DIMEXE
 40
1.0
  9
$DIMTP
 40
0.0
  9
$DIMTM
 40
0.0
  9
$DIMTXT
 40
3.5
  9
$DIMCEN
 40
2.5
  9
$DIMTSZ
 40
0.0
  9
$DIMTOL
 70
     0
  9
$DIMLIM
 70
     0
  9
$DIMTIH
 70
     1
  9
$DIMTOH
 70
     1
  9
$DIMSE1
 70
     0
  9
$DIMSE2
 70
     0
  9
$DIMTAD
 70
     1
  9
$DIMZIN
 70
     0
  9
$DIMBLK
  1

  9
$DIMASO
 70
     1
  9
$DIMSHO
 70
     1
  9
$DIMPOST
  1

  9
$DIMAPOST
  1

  9
$DIMALT
 70
     0
  9
$DIMALTD
 70
     3
  9
$DIMALTF
 40
0.0393700787401575
  9
$DIMLFAC
 40
1.0
  9
$DIMTOFL
 70
     1
  9
$DIMTVP
 40
0.0
  9
$DIMTIX
 70
     0
  9
$DIMSOXD
 70
     0
  9
$DIMSAH
 70
     0
  9
$DIMBLK1
  1

  9
$DIMBLK2
  1

  9
$DIMSTYLE
  2
ISO-25
  9
$DIMCLRD
 70
     0
  9
$DIMCLRE
 70
     0
  9
$DIMCLRT
 70
     0
  9
$DIMTFAC
 40
1.0
  9
$DIMGAP
 40
1.524
  9
$DIMJUST
 70
     0
  9
$DIMSD1
 70
     0
  9
$DIMSD2
 70
     0
  9
$DIMTOLJ
 70
     0
  9
$DIMTZIN
 70
     0
  9
$DIMALTZ
 70
     0
  9
$DIMALTTZ
 70
     0
  9
$DIMUPT
 70
     0
  9
$DIMDEC
 70
     2
  9
$DIMTDEC
 70
     2
  9
$DIMALTU
 70
     2
  9
$DIMALTTD
 70
     3
  9
$DIMTXSTY
  7
Standard
  9
$DIMAUNIT
 70
     0
  9
$DIMADEC
 70
     2
  9
$DIMALTRND
 40
0.0
  9
$DIMAZIN
 70
     0
  9
$DIMDSEP
 70
    44
  9
$DIMATFIT
 70
     3
  9
$DIMFRAC
 70
     0
  9
$DIMLDRBLK
  1

  9
$DIMLUNIT
 70
     2
  9
$DIMLWD
 70
    -2
  9
$DIMLWE
 70
    -2
  9
$DIMTMOVE
 70
     0
  9
$LUNITS
 70
     2
  9
$LUPREC
 70
     2
  9
$SKETCHINC
 40
1.0
  9
$FILLETRAD
 40
10.0
  9
$AUNITS
 70
     0
  9
$AUPREC
 70
     2
  9
$MENU
  1
.
  9
$ELEVATION
 40
0.0
  9
$PELEVATION
 40
0.0
  9
$THICKNESS
 40
0.0
  9
$LIMCHECK
 70
     0
  9
$CHAMFERA
 40
0.0
  9
$CHAMFERB
 40
0.0
  9
$CHAMFERC
 40
0.0
  9
$CHAMFERD
 40
0.0
  9
$SKPOLY
 70
     0
  9
$TDCREATE
 40
2458313.470813021
  9
$TDUCREATE
 40
2458313.095813021
  9
$TDUPDATE
 40
2458319.492877917
  9
$TDUUPDATE
 40
2458319.117877917
  9
$TDINDWG
 40
0.0026610301
  9
$TDUSRTIMER
 40
2458319.117835972
  9
$USRTIMER
 70
     1
  9
$ANGBASE
 50
0.0
  9
$ANGDIR
 70
     0
  9
$PDMODE
 70
     0
  9
$PDSIZE
 40
-1.0
  9
$PLINEWID
 40
0.0
  9
$SPLFRAME
 70
     0
  9
$SPLINETYPE
 70
     6
  9
$SPLINESEGS
 70
     8
  9
$HANDSEED
  5
3E2
  9
$SURFTAB1
 70
     6
  9
$SURFTAB2
 70
     6
  9
$SURFTYPE
 70
     6
  9
$SURFU
 70
     6
  9
$SURFV
 70
     6
  9
$UCSBASE
  2

  9
$UCSNAME
  2

  9
$UCSORG
 10
0.0
 20
0.0
 30
0.0
  9
$UCSXDIR
 10
1.0
 20
0.0
 30
0.0
  9
$UCSYDIR
 10
0.0
 20
1.0
 30
0.0
  9
$UCSORTHOREF
  2

  9
$UCSORTHOVIEW
 70
     0
  9
$UCSORGTOP
 10
0.0
 20
0.0
 30
0.0
  9
$UCSORGBOTTOM
 10
0.0
 20
0.0
 30
0.0
  9
$UCSORGLEFT
 10
0.0
 20
0.0
 30
0.0
  9
$UCSORGRIGHT
 10
0.0
 20
0.0
 30
0.0
  9
$UCSORGFRONT
 10
0.0
 20
0.0
 30
0.0
  9
$UCSORGBACK
 10
0.0
 20
0.0
 30
0.0
  9
$PUCSBASE
  2

  9
$PUCSNAME
  2

  9
$PUCSORG
 10
0.0
 20
0.0
 30
0.0
  9
$PUCSXDIR
 10
1.0
 20
0.0
 30
0.0
  9
$PUCSYDIR
 10
0.0
 20
1.0
 30
0.0
  9
$PUCSORTHOREF
  2

  9
$PUCSORTHOVIEW
 70
     0
  9
$PUCSORGTOP
 10
0.0
 20
0.0
 30
0.0
  9
$PUCSORGBOTTOM
 10
0.0
 20
0.0
 30
0.0
  9
$PUCSORGLEFT
 10
0.0
 20
0.0
 30
0.0
  9
$PUCSORGRIGHT
 10
0.0
 20
0.0
 30
0.0
  9
$PUCSORGFRONT
 10
0.0
 20
0.0
 30
0.0
  9
$PUCSORGBACK
 10
0.0
 20
0.0
 30
0.0
  9
$USERI1
 70
     0
  9
$USERI2
 70
     0
  9
$USERI3
 70
     0
  9
$USERI4
 70
     0
  9
$USERI5
 70
     0
  9
$USERR1
 40
0.0
  9
$USERR2
 40
0.0
  9
$USERR3
 40
0.0
  9
$USERR4
 40
0.0
  9
$USERR5
 40
0.0
  9
$WORLDVIEW
 70
     1
  9
$SHADEDGE
 70
     3
  9
$SHADEDIF
 70
    70
  9
$TILEMODE
 70
     1
  9
$MAXACTVP
 70
    64
  9
$PINSBASE
 10
0.0
 20
0.0
 30
0.0
  9
$PLIMCHECK
 70
     0
  9
$PEXTMIN
 10
1.000000000000000E+20
 20
1.000000000000000E+20
 30
1.000000000000000E+20
  9
$PEXTMAX
 10
-1.000000000000000E+20
 20
-1.000000000000000E+20
 30
-1.000000000000000E+20
  9
$PLIMMIN
 10
0.0
 20
0.0
  9
$PLIMMAX
 10
0.0
 20
0.0
  9
$UNITMODE
 70
     0
  9
$VISRETAIN
 70
     1
  9
$PLINEGEN
 70
     0
  9
$PSLTSCALE
 70
     1
  9
$TREEDEPTH
 70
  3020
  9
$CMLSTYLE
  2
Standard
  9
$CMLJUST
 70
     0
  9
$CMLSCALE
 40
20.0
  9
$PROXYGRAPHICS
 70
     1
  9
$MEASUREMENT
 70
     1
  9
$CELWEIGHT
370
    -1
  9
$ENDCAPS
280
     0
  9
$JOINSTYLE
280
     0
  9
$LWDISPLAY
290
     1
  9
$INSUNITS
 70
     4
  9
$HYPERLINKBASE
  1

  9
$STYLESHEET
  1

  9
$XEDIT
290
     1
  9
$CEPSNTYPE
380
     0
  9
$PSTYLEMODE
290
     1
  9
$FINGERPRINTGUID
  2
{89DE785D-3CDB-4288-AA88-C22E6B3953B4}
  9
$VERSIONGUID
  2
{FAEB1C32-E019-11D5-929B-00C0DF256EC4}
  9
$EXTNAMES
290
     1
  9
$PSVPSCALE
 40
0.0
  9
$OLESTARTUP
290
     0
  0
ENDSEC
  0
SECTION
  2
CLASSES
  0
CLASS
  1
ACDBDICTIONARYWDFLT
  2
AcDbDictionaryWithDefault
  3
ObjectDBX Classes
 90
        0
280
     0
281
     0
  0
CLASS
  1
VISUALSTYLE
  2
AcDbVisualStyle
  3
ObjectDBX Classes
 90
     4095
280
     0
281
     0
  0
CLASS
  1
MATERIAL
  2
AcDbMaterial
  3
ObjectDBX Classes
 90
     1153
280
     0
281
     0
  0
CLASS
  1
SCALE
  2
AcDbScale
  3
ObjectDBX Classes
 90
     1153
280
     0
281
     0
  0
CLASS
  1
SUN
  2
AcDbSun
  3
SCENEOE
 90
     1153
280
     0
281
     0
  0
CLASS
  1
ACDBPLACEHOLDER
  2
AcDbPlaceHolder
  3
ObjectDBX Classes
 90
        0
280
     0
281
     0
  0
CLASS
  1
LAYOUT
  2
AcDbLayout
  3
ObjectDBX Classes
 90
        0
280
     0
281
     0
  0
CLASS
  1
TABLESTYLE
  2
AcDbTableStyle
  3
ObjectDBX Classes
 90
     4095
280
     0
281
     0
  0
CLASS
  1
MLEADERSTYLE
  2
AcDbMLeaderStyle
  3
ACDB_MLEADERSTYLE_CLASS
 90
     4095
280
     0
281
     0
  0
CLASS
  1
RASTERVARIABLES
  2
AcDbRasterVariables
  3
ISM
 90
        0
280
     0
281
     0
  0
ENDSEC
  0
SECTION
  2
TABLES
  0
TABLE
  2
VPORT
  5
8
330
0
100
AcDbSymbolTable
 70
     1
  0
VPORT
  5
29
330
8
100
AcDbSymbolTableRecord
100
AcDbViewportTableRecord
  2
*Active
 70
     0
 10
0.0
 20
0.0
 11
1.0
 21
1.0
 12
1.630527772996082
 22
-9.12387884406591
 13
0.0
 23
0.0
 14
10.0
 24
10.0
 15
10.0
 25
10.0
 16
0.0
 26
0.0
 36
1.0
 17
0.0
 27
0.0
 37
0.0
 40
121.7514965218244
 41
1.632093933463796
 42
50.0
 43
0.0
 44
0.0
 50
0.0
 51
0.0
 71
    16
 72
  2000
 73
     1
 74
     3
 75
     0
 76
     0
 77
     0
 78
     0
281
     0
 65
     1
110
0.0
120
0.0
130
0.0
111
1.0
121
0.0
131
0.0
112
0.0
122
1.0
132
0.0
 79
     0
146
0.0
  0
ENDTAB
  0
TABLE
  2
LTYPE
  5
5
330
0
100
AcDbSymbolTable
 70
     6
  0
LTYPE
  5
14
330
5
100
AcDbSymbolTableRecord
100
AcDbLinetypeTableRecord
  2
ByBlock
 70
     0
  3

 72
    65
 73
     0
 40
0.0
  0
LTYPE
  5
15
330
5
100
AcDbSymbolTableRecord
100
AcDbLinetypeTableRecord
  2
ByLayer
 70
     0
  3

 72
    65
 73
     0
 40
0.0
  0
LTYPE
  5
16
330
5
100
AcDbSymbolTableRecord
100
AcDbLinetypeTableRecord
  2
Continuous
 70
     0
  3
Solid line
 72
    65
 73
     0
 40
0.0
  0
LTYPE
  5
6A
330
5
100
AcDbSymbolTableRecord
100
AcDbLinetypeTableRecord
  2
HIDDEN
 70
     0
  3
Hidden __ __ __ __ __ __ __ __ __ __ __ __ __ __
 72
    65
 73
     2
 40
1.905
 49
1.27
 74
     0
 49
-0.635
 74
     0
  0
LTYPE
  5
6B
330
5
100
AcDbSymbolTableRecord
100
AcDbLinetypeTableRecord
  2
PHANTOM
 70
     0
  3
Phantom ______  __  __  ______  __  __  ______
 72
    65
 73
     6
 40
12.7
 49
6.35
 74
     0
 49
-1.27
 74
     0
 49
1.27
 74
     0
 49
-1.27
 74
     0
 49
1.27
 74
     0
 49
-1.27
 74
     0
  0
LTYPE
  5
6C
330
5
100
AcDbSymbolTableRecord
100
AcDbLinetypeTableRecord
  2
CENTER
 70
     0
  3
Center ____ _ ____ _ ____ _ ____ _ ____ _ ____
 72
    65
 73
     4
 40
10.16
 49
6.35
 74
     0
 49
-1.27
 74
     0
 49
1.27
 74
     0
 49
-1.27
 74
     0
  0
LTYPE
  5
6D
330
5
100
AcDbSymbolTableRecord
100
AcDbLinetypeTableRecord
  2
CENTERX2
 70
     0
  3
Center (2x) ________  __  ________  __  _____
 72
    65
 73
     4
 40
20.32
 49
12.7
 74
     0
 49
-2.54
 74
     0
 49
2.54
 74
     0
 49
-2.54
 74
     0
  0
LTYPE
  5
6E
330
5
100
AcDbSymbolTableRecord
100
AcDbLinetypeTableRecord
  2
DOT2
 70
     0
  3
Dot (.5x) ........................................
 72
    65
 73
     2
 40
0.635
 49
0.0
 74
     0
 49
-0.635
 74
     0
  0
ENDTAB
  0
TABLE
  2
LAYER
  5
2
102
{ACAD_XDICTIONARY
360
1D8
102
}
330
0
100
AcDbSymbolTable
 70
    18
  0
LAYER
  5
10
330
2
100
AcDbSymbolTableRecord
100
AcDbLayerTableRecord
  2
0
 70
     0
 62
     7
  6
Continuous
370
    -3
390
F
  0
LAYER
  5
6F
330
2
100
AcDbSymbolTableRecord
100
AcDbLayerTableRecord
  2
FORMAT
 70
     0
 62
     2
  6
Continuous
370
    -3
390
F
  0
LAYER
  5
70
330
2
100
AcDbSymbolTableRecord
100
AcDbLayerTableRecord
  2
외형선
 70
     0
 62
     4
  6
Continuous
370
    30
390
F
  0
LAYER
  5
71
330
2
100
AcDbSymbolTableRecord
100
AcDbLayerTableRecord
  2
숨은선
 70
     0
 62
     2
  6
HIDDEN
370
    15
390
F
  0
LAYER
  5
72
330
2
100
AcDbSymbolTableRecord
100
AcDbLayerTableRecord
  2
중심선
 70
     0
 62
     1
  6
CENTERX2
370
    -3
390
F
  0
LAYER
  5
73
330
2
100
AcDbSymbolTableRecord
100
AcDbLayerTableRecord
  2
파단선
 70
     0
 62
     4
  6
Continuous
370
    -3
390
F
  0
LAYER
  5
74
330
2
100
AcDbSymbolTableRecord
100
AcDbLayerTableRecord
  2
해칭선
 70
     0
 62
   100
  6
Continuous
370
    -3
390
F
  0
LAYER
  5
75
330
2
100
AcDbSymbolTableRecord
100
AcDbLayerTableRecord
  2
가는실선
 70
     0
 62
     4
  6
Continuous
370
    -3
390
F
  0
LAYER
  5
76
330
2
100
AcDbSymbolTableRecord
100
AcDbLayerTableRecord
  2
치수_보조선
 70
     0
 62
     4
  6
Continuous
370
    -3
390
F
  0
LAYER
  5
77
330
2
100
AcDbSymbolTableRecord
100
AcDbLayerTableRecord
  2
치수문자_일반주서
 70
     0
 62
     7
  6
Continuous
370
    15
390
F
  0
LAYER
  5
78
330
2
100
AcDbSymbolTableRecord
100
AcDbLayerTableRecord
  2
개별주서
 70
     0
 62
   100
  6
Continuous
370
    30
390
F
  0
LAYER
  5
79
330
2
100
AcDbSymbolTableRecord
100
AcDbLayerTableRecord
  2
중간선
 70
     0
 62
     2
  6
Continuous
370
    15
390
F
  0
LAYER
  5
7A
330
2
100
AcDbSymbolTableRecord
100
AcDbLayerTableRecord
  2
윤곽선
 70
     0
 62
     3
  6
Continuous
370
    40
390
F
  0
LAYER
  5
7B
330
2
100
AcDbSymbolTableRecord
100
AcDbLayerTableRecord
  2
중심마크
 70
     0
 62
   100
  6
Continuous
370
    30
390
F
  0
LAYER
  5
7C
330
2
100
AcDbSymbolTableRecord
100
AcDbLayerTableRecord
  2
가상선
 70
     0
 62
     4
  6
PHANTOM
370
    -3
390
F
  0
LAYER
  5
7D
330
2
100
AcDbSymbolTableRecord
100
AcDbLayerTableRecord
  2
특수지정선
 70
     0
 62
     5
  6
CENTERX2
370
    60
390
F
  0
LAYER
  5
7E
330
2
100
AcDbSymbolTableRecord
100
AcDbLayerTableRecord
  2
참조1
 70
     0
 62
    -4
  6
Continuous
370
    -3
390
F
  0
LAYER
  5
150
330
2
100
AcDbSymbolTableRecord
100
AcDbLayerTableRecord
  2
Defpoints
 70
     0
 62
     7
  6
Continuous
290
     0
370
    -3
390
F
  0
ENDTAB
  0
TABLE
  2
STYLE
  5
3
330
0
100
AcDbSymbolTable
 70
     2
  0
STYLE
  5
11
330
3
100
AcDbSymbolTableRecord
100
AcDbTextStyleTableRecord
  2
Standard
 70
     0
 40
0.0
 41
1.0
 50
0.0
 71
     0
 42
3.5
  3
txt
  4

  0
STYLE
  5
94
330
3
100
AcDbSymbolTableRecord
100
AcDbTextStyleTableRecord
  2
SLDTEXTSTYLE0
 70
     0
 40
0.0
 41
0.75
 50
0.0
 71
     0
 42
3.5
  3
TXT
  4

  0
ENDTAB
  0
TABLE
  2
VIEW
  5
6
330
0
100
AcDbSymbolTable
 70
     0
  0
ENDTAB
  0
TABLE
  2
UCS
  5
7
330
0
100
AcDbSymbolTable
 70
     0
  0
ENDTAB
  0
TABLE
  2
APPID
  5
9
330
0
100
AcDbSymbolTable
 70
     1
  0
APPID
  5
12
330
9
100
AcDbSymbolTableRecord
100
AcDbRegAppTableRecord
  2
ACAD
 70
     0
  0
ENDTAB
  0
TABLE
  2
DIMSTYLE
  5
A
330
0
100
AcDbSymbolTable
 70
     3
100
AcDbDimStyleTable
  0
DIMSTYLE
105
27
330
A
100
AcDbSymbolTableRecord
100
AcDbDimStyleTableRecord
  2
ISO-25
 70
     0
 41
2.5
 42
0.625
 43
3.75
 44
1.25
 73
     0
 74
     0
 77
     1
 78
     8
140
2.5
141
2.5
143
0.03937007874016
147
0.625
171
     3
172
     1
178
     0
271
     2
272
     2
274
     3
278
    44
283
     0
284
     8
340
11
  0
DIMSTYLE
105
CD
102
{ACAD_REACTORS
330
CC
330
109
330
E1
330
F6
102
}
330
A
100
AcDbSymbolTableRecord
100
AcDbDimStyleTableRecord
  2
SLDDIMSTYLE0
 70
     0
 41
3.302
 44
0.0
 45
0.000000001
 73
     0
 74
     0
 77
     1
 78
    12
 79
     3
140
3.5
143
0.0393700787401575
147
0.875
148
0.000000001
170
     1
172
     1
173
     1
178
     0
271
     2
272
     2
276
     2
284
    12
289
     0
340
94
  0
DIMSTYLE
105
E2
330
A
100
AcDbSymbolTableRecord
100
AcDbDimStyleTableRecord
  2
SLDDIMSTYLE1
 70
     0
 41
3.302
 44
0.0
 45
0.000000001
 73
     0
 74
     0
 77
     1
 78
    12
 79
     3
140
3.5
143
0.0393700787401575
147
0.875
148
0.000000001
170
     1
173
     1
178
     0
271
     2
272
     2
276
     2
284
    12
340
94
  0
ENDTAB
  0
TABLE
  2
BLOCK_RECORD
  5
1
330
0
100
AcDbSymbolTable
 70
    19
  0
BLOCK_RECORD
  5
1F
330
1
100
AcDbSymbolTableRecord
100
AcDbBlockTableRecord
  2
*Model_Space
340
22
  0
BLOCK_RECORD
  5
1B
330
1
100
AcDbSymbolTableRecord
100
AcDbBlockTableRecord
  2
*Paper_Space
340
1E
  0
BLOCK_RECORD
  5
23
330
1
100
AcDbSymbolTableRecord
100
AcDbBlockTableRecord
  2
*Paper_Space0
340
26
  0
BLOCK_RECORD
  5
7F
330
1
100
AcDbSymbolTableRecord
100
AcDbBlockTableRecord
  2
블럭10
340
0
102
{BLKREFS
331
C5
102
}
  0
BLOCK_RECORD
  5
CE
330
1
100
AcDbSymbolTableRecord
100
AcDbBlockTableRecord
  2
_D
340
0
  0
BLOCK_RECORD
  5
E3
330
1
100
AcDbSymbolTableRecord
100
AcDbBlockTableRecord
  2
_D_1
340
0
  0
BLOCK_RECORD
  5
F7
330
1
100
AcDbSymbolTableRecord
100
AcDbBlockTableRecord
  2
_D_2
340
0
  0
BLOCK_RECORD
  5
10A
330
1
100
AcDbSymbolTableRecord
100
AcDbBlockTableRecord
  2
_D_3
340
0
  0
BLOCK_RECORD
  5
124
330
1
100
AcDbSymbolTableRecord
100
AcDbBlockTableRecord
  2
SW_DOWELSYMBOL_0
340
0
102
{BLKREFS
331
12A
102
}
  0
BLOCK_RECORD
  5
1DC
330
1
100
AcDbSymbolTableRecord
100
AcDbBlockTableRecord
  2
*D7
340
0
  0
BLOCK_RECORD
  5
1EB
330
1
100
AcDbSymbolTableRecord
100
AcDbBlockTableRecord
  2
*D8
340
0
  0
BLOCK_RECORD
  5
1FA
330
1
100
AcDbSymbolTableRecord
100
AcDbBlockTableRecord
  2
*D9
340
0
  0
BLOCK_RECORD
  5
236
330
1
100
AcDbSymbolTableRecord
100
AcDbBlockTableRecord
  2
*D10
340
0
  0
BLOCK_RECORD
  5
245
330
1
100
AcDbSymbolTableRecord
100
AcDbBlockTableRecord
  2
*D11
340
0
  0
BLOCK_RECORD
  5
254
330
1
100
AcDbSymbolTableRecord
100
AcDbBlockTableRecord
  2
*D12
340
0
  0
BLOCK_RECORD
  5
2EC
330
1
100
AcDbSymbolTableRecord
100
AcDbBlockTableRecord
  2
*D13
340
0
  0
BLOCK_RECORD
  5
2FB
330
1
100
AcDbSymbolTableRecord
100
AcDbBlockTableRecord
  2
*D14
340
0
  0
BLOCK_RECORD
  5
30A
330
1
100
AcDbSymbolTableRecord
100
AcDbBlockTableRecord
  2
*D15
340
0
  0
BLOCK_RECORD
  5
342
330
1
100
AcDbSymbolTableRecord
100
AcDbBlockTableRecord
  2
*D16
340
0
  0
BLOCK_RECORD
  5
351
330
1
100
AcDbSymbolTableRecord
100
AcDbBlockTableRecord
  2
*D17
340
0
  0
BLOCK_RECORD
  5
360
330
1
100
AcDbSymbolTableRecord
100
AcDbBlockTableRecord
  2
*D18
340
0
  0
ENDTAB
  0
ENDSEC
  0
SECTION
  2
BLOCKS
  0
BLOCK
  5
20
330
1F
100
AcDbEntity
  8
0
100
AcDbBlockBegin
  2
*Model_Space
 70
     0
 10
0.0
 20
0.0
 30
0.0
  3
*Model_Space
  1
*Model_Space
  0
ENDBLK
  5
21
330
1F
100
AcDbEntity
  8
0
100
AcDbBlockEnd
  0
BLOCK
  5
1C
330
1B
100
AcDbEntity
 67
     1
  8
0
100
AcDbBlockBegin
  2
*Paper_Space
 70
     0
 10
0.0
 20
0.0
 30
0.0
  3
*Paper_Space
  1
*Paper_Space
  0
ENDBLK
  5
1D
330
1B
100
AcDbEntity
 67
     1
  8
0
100
AcDbBlockEnd
  0
BLOCK
  5
24
330
23
100
AcDbEntity
  8
0
100
AcDbBlockBegin
  2
*Paper_Space0
 70
     0
 10
0.0
 20
0.0
 30
0.0
  3
*Paper_Space0
  1
*Paper_Space0
  0
ENDBLK
  5
25
330
23
100
AcDbEntity
  8
0
100
AcDbBlockEnd
  0
BLOCK
  5
80
330
7F
100
AcDbEntity
  8
0
100
AcDbBlockBegin
  2
블럭10
 70
     2
 10
0.0
 20
0.0
 30
0.0
  3
블럭10
  1
블럭10
  0
ELLIPSE
  5
82
330
7F
100
AcDbEntity
  8
중심선
100
AcDbEllipse
 10
20.54032771741204
 20
12.0471743016438
 30
0.0
 11
6.600054785286829
 21
-1.261213355974178E-13
 31
0.0
210
0.0
220
0.0
230
1.0
 40
0.636358354079598
 41
0.9219305317359503
 42
6.513795318482858
  0
ELLIPSE
  5
83
330
7F
100
AcDbEntity
  8
중심선
100
AcDbEllipse
 10
20.54032771746488
 20
12.04717430159265
 30
0.0
 11
3.960054785062283
 21
1.540847449632565E-10
 31
0.0
210
0.0
220
0.0
230
1.0
 40
0.3939339440162632
 41
1.131841032648279
 42
5.62031148352944
  0
LINE
  5
84
330
7F
100
AcDbEntity
  8
중심선
100
AcDbLine
 10
2.268634060543552
 20
16.24717430164393
 30
0.0
 11
5.714909304380834
 21
16.24717430164393
 31
0.0
  0
LINE
  5
85
330
7F
100
AcDbEntity
  8
중심선
100
AcDbLine
 10
5.245725140726316
 20
7.84717430164391
 30
0.0
 11
8.692000384563599
 21
7.84717430164391
 31
0.0
  0
LINE
  5
86
330
7F
100
AcDbEntity
  8
중심선
100
AcDbLine
 10
15.74043728645272
 20
16.24717430164393
 30
0.0
 11
8.692000384563599
 21
7.84717430164391
 31
0.0
  0
LINE
  5
87
330
7F
100
AcDbEntity
  8
중심선
100
AcDbLine
 10
0.1404042013395286
 20
13.71084872107135
 30
0.0
 11
3.58671253028996
 21
13.71088815037384
 31
0.0
  0
LINE
  5
88
330
7F
100
AcDbEntity
  8
중심선
100
AcDbLine
 10
2.750260043222114
 20
10.84717430164391
 30
0.0
 11
6.196535287059397
 21
10.84717430164391
 31
0.0
  0
LINE
  5
89
330
7F
100
AcDbEntity
  8
중심선
100
AcDbLine
 10
12.29416204261559
 20
16.24717430164393
 30
0.0
 11
5.245725140726316
 21
7.84717430164391
 31
0.0
  0
LINE
  5
8A
330
7F
100
AcDbEntity
  8
중심선
100
AcDbLine
 10
10.72767329541681
 20
16.24717430164393
 30
0.0
 11
6.196535287059397
 21
10.84717430164391
 31
0.0
  0
LINE
  5
8B
330
7F
100
AcDbEntity
  8
중심선
100
AcDbLine
 10
7.28139805157953
 20
16.24717430164393
 30
0.0
 11
2.750260043222114
 21
10.84717430164391
 31
0.0
  0
LINE
  5
8C
330
7F
100
AcDbEntity
  8
중심선
100
AcDbLine
 10
5.714909304380834
 20
16.24717430164393
 30
0.0
 11
3.58671253028996
 21
13.71088815037384
 31
0.0
  0
LINE
  5
8D
330
7F
100
AcDbEntity
  8
중심선
100
AcDbLine
 10
2.268634060543552
 20
16.24717430164393
 30
0.0
 11
0.1404042013395286
 21
13.71084872107135
 31
0.0
  0
LINE
  5
8E
330
7F
100
AcDbEntity
  8
중심선
100
AcDbLine
 10
7.28139805157953
 20
16.24717430164393
 30
0.0
 11
10.72767329541681
 21
16.24717430164393
 31
0.0
  0
LINE
  5
8F
330
7F
100
AcDbEntity
  8
중심선
100
AcDbLine
 10
12.29416204261559
 20
16.24717430164393
 30
0.0
 11
15.74043728645272
 21
16.24717430164393
 31
0.0
  0
LINE
  5
90
330
7F
100
AcDbEntity
  8
중심선
100
AcDbLine
 10
19.22036997980202
 20
11.08717430171403
 30
0.0
 11
23.66174974927406
 21
11.08717430171406
 31
0.0
  0
LINE
  5
91
330
7F
100
AcDbEntity
  8
중심선
100
AcDbLine
 10
19.22039502424796
 20
13.00717430171391
 30
0.0
 11
19.22036997980202
 21
11.08717430171403
 31
0.0
  0
LINE
  5
92
330
7F
100
AcDbEntity
  8
중심선
100
AcDbLine
 10
19.22039502424796
 20
13.00717430171391
 30
0.0
 11
26.96566020931264
 21
13.00717430171391
 31
0.0
  0
LINE
  5
93
330
7F
100
AcDbEntity
  8
중심선
100
AcDbLine
 10
22.22332737316547
 20
13.45928029700563
 30
0.0
 11
24.52862924686651
 21
15.39360700705356
 31
0.0
  0
ATTDEF
  5
95
330
7F
100
AcDbEntity
  8
FORMAT
 62
     2
100
AcDbText
 10
4.408487351596664
 20
2.075366912832191
 30
0.0
 40
4.233333333333333
  1
E1053016
 41
0.75
  7
SLDTEXTSTYLE0
 11
4.408487351596664
 21
-0.0412997538344756
 31
0.0
100
AcDbAttributeDefinition
  3

  2
AUTOATTR0
 70
     0
 74
     1
  0
ENDBLK
  5
81
330
7F
100
AcDbEntity
  8
0
100
AcDbBlockEnd
  0
BLOCK
  5
CF
330
CE
100
AcDbEntity
  8
0
100
AcDbBlockBegin
  2
_D
 70
     0
 10
0.0
 20
0.0
 30
0.0
  3
_D
  1
_D
  0
LINE
  5
D1
330
CE
100
AcDbEntity
  8
치수문자_일반주서
 62
     0
370
    -2
100
AcDbLine
 10
42.92500000000003
 20
3.175000000000006
 30
0.0
 11
56.4850756837006
 21
3.175000000000054
 31
0.0
  0
LINE
  5
D2
330
CE
100
AcDbEntity
  8
치수문자_일반주서
 62
     0
370
    -2
100
AcDbLine
 10
42.925
 20
-3.174999999999994
 30
0.0
 11
56.48507568370062
 21
-3.174999999999947
 31
0.0
  0
LINE
  5
D3
330
CE
100
AcDbEntity
  8
치수문자_일반주서
 62
     0
370
    -2
100
AcDbLine
 10
56.4850756837006
 20
3.175000000000054
 30
0.0
 11
56.48507568370046
 21
45.66790460849538
 31
0.0
  0
LINE
  5
D4
330
CE
100
AcDbEntity
  8
치수문자_일반주서
 62
     0
370
    -2
100
AcDbLine
 10
56.4850756837006
 20
3.175000000000054
 30
0.0
 11
56.48507568370062
 21
-3.174999999999947
 31
0.0
  0
LINE
  5
D5
330
CE
100
AcDbEntity
  8
치수문자_일반주서
 62
     0
370
    -2
100
AcDbLine
 10
56.48507568370059
 20
6.477000000000054
 30
0.0
 11
56.48507568370057
 21
9.779000000000053
 31
0.0
  0
LINE
  5
D6
330
CE
100
AcDbEntity
  8
치수문자_일반주서
 62
     0
370
    -2
100
AcDbLine
 10
56.48507568370064
 20
-6.476999999999947
 30
0.0
 11
56.48507568370065
 21
-9.778999999999947
 31
0.0
  0
SOLID
  5
D7
330
CE
100
AcDbEntity
  8
치수문자_일반주서
 62
     0
100
AcDbTrace
 10
55.93474235036725
 20
6.477000000000052
 30
0.0
 11
57.03540901703392
 21
6.477000000000055
 31
0.0
 12
56.4850756837006
 22
3.175000000000054
 32
0.0
 13
56.4850756837006
 23
3.175000000000054
 33
0.0
  0
SOLID
  5
D8
330
CE
100
AcDbEntity
  8
치수문자_일반주서
 62
     0
100
AcDbTrace
 10
57.03540901703397
 20
-6.476999999999945
 30
0.0
 11
55.9347423503673
 21
-6.476999999999949
 31
0.0
 12
56.48507568370062
 22
-3.174999999999947
 32
0.0
 13
56.48507568370062
 23
-3.174999999999947
 33
0.0
  0
MTEXT
  5
D9
330
CE
100
AcDbEntity
  8
치수문자_일반주서
 62
     0
100
AcDbMText
 10
52.1100756837005
 20
32.98040460849537
 30
0.0
 40
3.5
 41
0.0
 71
     2
 72
     1
  1
\A1;%%c6.35 [1/4]
  7
SLDTEXTSTYLE0
 11
-3.356894814614647E-15
 21
1.0
 31
0.0
 73
     1
 44
1.0
  0
POINT
  5
DA
330
CE
100
AcDbEntity
  8
Defpoints
 62
     0
100
AcDbPoint
 10
42.86250000000003
 20
3.175000000000005
 30
0.0
  0
POINT
  5
DB
330
CE
100
AcDbEntity
  8
Defpoints
 62
     0
100
AcDbPoint
 10
42.8625
 20
-3.174999999999994
 30
0.0
  0
POINT
  5
DC
330
CE
100
AcDbEntity
  8
Defpoints
 62
     0
100
AcDbPoint
 10
56.48507568370062
 20
-3.174999999999943
 30
0.0
  0
ENDBLK
  5
D0
330
CE
100
AcDbEntity
  8
0
100
AcDbBlockEnd
  0
BLOCK
  5
E4
330
E3
100
AcDbEntity
  8
0
100
AcDbBlockBegin
  2
_D_1
 70
     0
 10
0.0
 20
0.0
 30
0.0
  3
_D_1
  1
_D_1
  0
LINE
  5
E6
330
E3
100
AcDbEntity
  8
치수문자_일반주서
 62
     0
370
    -2
100
AcDbLine
 10
42.8625
 20
3.237500000000005
 30
0.0
 11
42.8625
 21
17.79388085582886
 31
0.0
  0
LINE
  5
E7
330
E3
100
AcDbEntity
  8
치수문자_일반주서
 62
     0
370
    -2
100
AcDbLine
 10
26.98750000000002
 20
3.184479914112002
 30
0.0
 11
26.98750000000002
 21
17.79388085582886
 31
0.0
  0
LINE
  5
E8
330
E3
100
AcDbEntity
  8
치수문자_일반주서
 62
     0
370
    -2
100
AcDbLine
 10
26.98750000000002
 20
17.79388085582886
 30
0.0
 11
-7.14046381939275
 21
17.79388085582886
 31
0.0
  0
LINE
  5
E9
330
E3
100
AcDbEntity
  8
치수문자_일반주서
 62
     0
370
    -2
100
AcDbLine
 10
42.8625
 20
17.79388085582886
 30
0.0
 11
26.98750000000002
 21
17.79388085582886
 31
0.0
  0
LINE
  5
EA
330
E3
100
AcDbEntity
  8
치수문자_일반주서
 62
     0
370
    -2
100
AcDbLine
 10
46.1645
 20
17.79388085582886
 30
0.0
 11
49.4665
 21
17.79388085582886
 31
0.0
  0
LINE
  5
EB
330
E3
100
AcDbEntity
  8
치수문자_일반주서
 62
     0
370
    -2
100
AcDbLine
 10
23.68550000000002
 20
17.79388085582886
 30
0.0
 11
20.38350000000002
 21
17.79388085582886
 31
0.0
  0
SOLID
  5
EC
330
E3
100
AcDbEntity
  8
치수문자_일반주서
 62
     0
100
AcDbTrace
 10
46.1645
 20
18.34421418916219
 30
0.0
 11
46.1645
 21
17.24354752249553
 31
0.0
 12
42.8625
 22
17.79388085582886
 32
0.0
 13
42.8625
 23
17.79388085582886
 33
0.0
  0
SOLID
  5
ED
330
E3
100
AcDbEntity
  8
치수문자_일반주서
 62
     0
100
AcDbTrace
 10
23.68550000000002
 20
17.24354752249553
 30
0.0
 11
23.68550000000002
 21
18.34421418916219
 31
0.0
 12
26.98750000000002
 22
17.79388085582886
 32
0.0
 13
26.98750000000002
 23
17.79388085582886
 33
0.0
  0
MTEXT
  5
EE
330
E3
100
AcDbEntity
  8
치수문자_일반주서
 62
     0
100
AcDbMText
 10
5.54703618060725
 20
22.16888085582886
 30
0.0
 40
3.5
 41
0.0
 71
     2
 72
     1
  1
\A1;15.88 [5/8]
  7
SLDTEXTSTYLE0
 73
     1
 44
1.0
  0
POINT
  5
EF
330
E3
100
AcDbEntity
  8
Defpoints
 62
     0
100
AcDbPoint
 10
42.8625
 20
3.175000000000005
 30
0.0
  0
POINT
  5
260
330
E3
100
AcDbEntity
  8
Defpoints
 62
     0
100
AcDbPoint
 10
26.98750000000002
 20
3.121979914112002
 30
0.0
  0
POINT
  5
261
330
E3
100
AcDbEntity
  8
Defpoints
 62
     0
100
AcDbPoint
 10
26.98750000000002
 20
17.79388085582886
 30
0.0
  0
ENDBLK
  5
E5
330
E3
100
AcDbEntity
  8
0
100
AcDbBlockEnd
  0
BLOCK
  5
F8
330
F7
100
AcDbEntity
  8
0
100
AcDbBlockBegin
  2
_D_2
 70
     0
 10
0.0
 20
0.0
 30
0.0
  3
_D_2
  1
_D_2
  0
LINE
  5
FA
330
F7
100
AcDbEntity
  8
치수문자_일반주서
 62
     0
370
    -2
100
AcDbLine
 10
42.8625
 20
3.237500000000005
 30
0.0
 11
42.8625
 21
33.80205829723805
 31
0.0
  0
LINE
  5
FB
330
F7
100
AcDbEntity
  8
치수문자_일반주서
 62
     0
370
    -2
100
AcDbLine
 10
-42.8625
 20
3.237500000000005
 30
0.0
 11
-42.8625
 21
33.80205829723805
 31
0.0
  0
LINE
  5
FC
330
F7
100
AcDbEntity
  8
치수문자_일반주서
 62
     0
370
    -2
100
AcDbLine
 10
39.5605
 20
33.80205829723805
 30
0.0
 11
-39.5605
 21
33.80205829723805
 31
0.0
  0
SOLID
  5
FD
330
F7
100
AcDbEntity
  8
치수문자_일반주서
 62
     0
100
AcDbTrace
 10
39.5605
 20
33.25172496390471
 30
0.0
 11
39.5605
 21
34.35239163057138
 31
0.0
 12
42.8625
 22
33.80205829723805
 32
0.0
 13
42.8625
 23
33.80205829723805
 33
0.0
  0
SOLID
  5
FE
330
F7
100
AcDbEntity
  8
치수문자_일반주서
 62
     0
100
AcDbTrace
 10
-39.5605
 20
34.35239163057138
 30
0.0
 11
-39.5605
 21
33.25172496390471
 31
0.0
 12
-42.8625
 22
33.80205829723805
 32
0.0
 13
-42.8625
 23
33.80205829723805
 33
0.0
  0
MTEXT
  5
FF
330
F7
100
AcDbEntity
  8
치수문자_일반주서
 62
     0
100
AcDbMText
 10
1.079637824865145
 20
38.17705829723805
 30
0.0
 40
3.5
 41
0.0
 71
     2
 72
     1
  1
\A1;85.73 [3 3/8]
  7
SLDTEXTSTYLE0
 73
     1
 44
1.0
  0
POINT
  5
100
330
F7
100
AcDbEntity
  8
Defpoints
 62
     0
100
AcDbPoint
 10
42.8625
 20
3.175000000000005
 30
0.0
  0
POINT
  5
101
330
F7
100
AcDbEntity
  8
Defpoints
 62
     0
100
AcDbPoint
 10
-42.8625
 20
3.175000000000005
 30
0.0
  0
POINT
  5
102
330
F7
100
AcDbEntity
  8
Defpoints
 62
     0
100
AcDbPoint
 10
-42.8625
 20
33.80205829723805
 30
0.0
  0
ENDBLK
  5
F9
330
F7
100
AcDbEntity
  8
0
100
AcDbBlockEnd
  0
BLOCK
  5
10B
330
10A
100
AcDbEntity
  8
0
100
AcDbBlockBegin
  2
_D_3
 70
     0
 10
0.0
 20
0.0
 30
0.0
  3
_D_3
  1
_D_3
  0
LINE
  5
10D
330
10A
100
AcDbEntity
  8
치수문자_일반주서
 62
     0
370
    -2
100
AcDbLine
 10
-20.1253693429844
 20
4.762500000000017
 30
0.0
 11
-55.38625000000002
 21
4.762499999999886
 31
0.0
  0
LINE
  5
10E
330
10A
100
AcDbEntity
  8
치수문자_일반주서
 62
     0
370
    -2
100
AcDbLine
 10
-20.12536934298439
 20
-4.762500000000006
 30
0.0
 11
-55.38624999999998
 21
-4.762500000000137
 31
0.0
  0
LINE
  5
10F
330
10A
100
AcDbEntity
  8
치수문자_일반주서
 62
     0
370
    -2
100
AcDbLine
 10
-55.38625
 20
1.460499999999886
 30
0.0
 11
-55.38625
 21
-1.460500000000137
 31
0.0
  0
SOLID
  5
110
330
10A
100
AcDbEntity
  8
치수문자_일반주서
 62
     0
100
AcDbTrace
 10
-54.83591666666667
 20
1.460499999999888
 30
0.0
 11
-55.93658333333334
 21
1.460499999999884
 31
0.0
 12
-55.38625000000002
 22
4.762499999999886
 32
0.0
 13
-55.38625000000002
 23
4.762499999999886
 33
0.0
  0
SOLID
  5
111
330
10A
100
AcDbEntity
  8
치수문자_일반주서
 62
     0
100
AcDbTrace
 10
-55.93658333333333
 20
-1.460500000000139
 30
0.0
 11
-54.83591666666666
 21
-1.460500000000135
 31
0.0
 12
-55.38624999999998
 22
-4.762500000000137
 32
0.0
 13
-55.38624999999998
 23
-4.762500000000137
 33
0.0
  0
MTEXT
  5
112
330
10A
100
AcDbEntity
  8
치수문자_일반주서
 62
     0
100
AcDbMText
 10
-59.76125
 20
-0.0000000000000154
 30
0.0
 40
3.5
 41
0.0
 71
     2
 72
     1
  1
\A1;%%c9.53 [3/8]
  7
SLDTEXTSTYLE0
 11
-3.729883127349598E-15
 21
1.0
 31
0.0
 73
     1
 44
1.0
  0
POINT
  5
113
330
10A
100
AcDbEntity
  8
Defpoints
 62
     0
100
AcDbPoint
 10
-20.0628693429844
 20
4.762500000000017
 30
0.0
  0
POINT
  5
114
330
10A
100
AcDbEntity
  8
Defpoints
 62
     0
100
AcDbPoint
 10
-20.06286934298439
 20
-4.762500000000006
 30
0.0
  0
POINT
  5
115
330
10A
100
AcDbEntity
  8
Defpoints
 62
     0
100
AcDbPoint
 10
-55.38624999999998
 20
-4.762500000000138
 30
0.0
  0
ENDBLK
  5
10C
330
10A
100
AcDbEntity
  8
0
100
AcDbBlockEnd
  0
BLOCK
  5
125
330
124
100
AcDbEntity
  8
0
100
AcDbBlockBegin
  2
SW_DOWELSYMBOL_0
 70
     0
 10
0.0
 20
0.0
 30
0.0
  3
SW_DOWELSYMBOL_0
  1
SW_DOWELSYMBOL_0
  0
CIRCLE
  5
127
330
124
100
AcDbEntity
  8
해칭선
 62
     0
100
AcDbCircle
 10
0.0
 20
0.0
 30
0.0
 40
3.000000000000008
  0
HATCH
  5
128
330
124
100
AcDbEntity
  8
0
  6
Continuous
 62
     0
370
     0
100
AcDbHatch
 10
0.0
 20
0.0
 30
0.0
210
0.0
220
0.0
230
1.0
  2
SOLID
 70
     1
 71
     0
 91
        1
 92
        0
 93
        3
 72
     2
 10
0.0
 20
0.0
 40
3.000000000000008
 50
0.0
 51
90.0
 73
     1
 72
     1
 10
0.0
 20
3.000000000000008
 11
0.0
 21
0.0
 72
     1
 10
0.0
 20
0.0
 11
3.00000000000001
 21
0.0
 97
        0
 75
     0
 76
     1
 98
        1
 10
0.0
 20
0.0
  0
HATCH
  5
129
330
124
100
AcDbEntity
  8
0
  6
Continuous
 62
     0
370
     0
100
AcDbHatch
 10
0.0
 20
0.0
 30
0.0
210
0.0
220
0.0
230
1.0
  2
SOLID
 70
     1
 71
     0
 91
        1
 92
        0
 93
        3
 72
     2
 10
0.0
 20
0.0
 40
3.000000000000008
 50
180.0
 51
270.0000000000007
 73
     1
 72
     1
 10
0.0
 20
-3.000000000000008
 11
0.0
 21
0.0
 72
     1
 10
0.0
 20
0.0
 11
-3.00000000000001
 21
0.0
 97
        0
 75
     0
 76
     1
 98
        1
 10
0.0
 20
0.0
  0
ENDBLK
  5
126
330
124
100
AcDbEntity
  8
0
100
AcDbBlockEnd
  0
BLOCK
  5
1DD
330
1DC
100
AcDbEntity
  8
0
100
AcDbBlockBegin
  2
*D7
 70
     1
 10
0.0
 20
0.0
 30
0.0
  3
*D7
  1
*D8
  0
LINE
  5
1DF
330
1DC
100
AcDbEntity
  8
치수문자_일반주서
 62
     0
370
    -2
100
AcDbLine
 10
88.7875
 20
12.55712499999995
 30
0.0
 11
102.7369475596824
 21
12.557125
 31
0.0
  0
LINE
  5
1E0
330
1DC
100
AcDbEntity
  8
치수문자_일반주서
 62
     0
370
    -2
100
AcDbLine
 10
88.7875
 20
6.603999999999948
 30
0.0
 11
102.7369475596824
 21
6.603999999999999
 31
0.0
  0
LINE
  5
1E1
330
1DC
100
AcDbEntity
  8
치수문자_일반주서
 62
     0
370
    -2
100
AcDbLine
 10
102.7369475596824
 20
12.557125
 30
0.0
 11
102.7369475596823
 21
53.84344182046437
 31
0.0
  0
LINE
  5
1E2
330
1DC
100
AcDbEntity
  8
치수문자_일반주서
 62
     0
370
    -2
100
AcDbLine
 10
102.7369475596824
 20
12.557125
 30
0.0
 11
102.7369475596824
 21
6.603999999999999
 31
0.0
  0
LINE
  5
1E3
330
1DC
100
AcDbEntity
  8
치수문자_일반주서
 62
     0
370
    -2
100
AcDbLine
 10
102.7369475596824
 20
15.859125
 30
0.0
 11
102.7369475596824
 21
19.161125
 31
0.0
  0
LINE
  5
1E4
330
1DC
100
AcDbEntity
  8
치수문자_일반주서
 62
     0
370
    -2
100
AcDbLine
 10
102.7369475596824
 20
3.302
 30
0.0
 11
102.7369475596824
 21
0.0
 31
0.0
  0
SOLID
  5
1E5
330
1DC
100
AcDbEntity
  8
치수문자_일반주서
 62
     0
100
AcDbTrace
 10
102.1866142263491
 20
15.859125
 30
0.0
 11
103.2872808930157
 21
15.859125
 31
0.0
 12
102.7369475596824
 22
12.557125
 32
0.0
 13
102.7369475596824
 23
12.557125
 33
0.0
  0
SOLID
  5
1E6
330
1DC
100
AcDbEntity
  8
치수문자_일반주서
 62
     0
100
AcDbTrace
 10
103.2872808930158
 20
3.302000000000001
 30
0.0
 11
102.1866142263491
 21
3.301999999999998
 31
0.0
 12
102.7369475596824
 22
6.603999999999999
 32
0.0
 13
102.7369475596824
 23
6.603999999999999
 33
0.0
  0
MTEXT
  5
1E7
330
1DC
100
AcDbEntity
  8
치수문자_일반주서
 62
     0
100
AcDbMText
 10
98.36194755968233
 20
40.49969182046436
 30
0.0
 40
3.5
 41
0.0
 71
     2
 72
     1
  1
\A1;%%c5.95 [0.23]
  7
SLDTEXTSTYLE0
 11
-2.387125201503749E-15
 21
1.0
 31
0.0
 73
     1
 44
1.0
  0
POINT
  5
1E8
330
1DC
100
AcDbEntity
  8
Defpoints
 62
     0
100
AcDbPoint
 10
88.725
 20
12.55712499999995
 30
0.0
  0
POINT
  5
1E9
330
1DC
100
AcDbEntity
  8
Defpoints
 62
     0
100
AcDbPoint
 10
88.725
 20
6.603999999999948
 30
0.0
  0
POINT
  5
1EA
330
1DC
100
AcDbEntity
  8
Defpoints
 62
     0
100
AcDbPoint
 10
102.7369475596824
 20
6.604
 30
0.0
  0
ENDBLK
  5
1DE
330
1DC
100
AcDbEntity
  8
0
100
AcDbBlockEnd
  0
BLOCK
  5
1EC
330
1EB
100
AcDbEntity
  8
0
100
AcDbBlockBegin
  2
*D8
 70
     1
 10
0.0
 20
0.0
 30
0.0
  3
*D8
  1
*D9
  0
LINE
  5
1EE
330
1EB
100
AcDbEntity
  8
치수문자_일반주서
 62
     0
370
    -2
100
AcDbLine
 10
88.725
 20
12.61962499999995
 30
0.0
 11
88.725
 21
28.27001784234418
 31
0.0
  0
LINE
  5
1EF
330
1EB
100
AcDbEntity
  8
치수문자_일반주서
 62
     0
370
    -2
100
AcDbLine
 10
72.84999999999997
 20
12.61882031402067
 30
0.0
 11
72.84999999999997
 21
28.27001784234418
 31
0.0
  0
LINE
  5
1F0
330
1EB
100
AcDbEntity
  8
치수문자_일반주서
 62
     0
370
    -2
100
AcDbLine
 10
72.84999999999997
 20
28.27001784234418
 30
0.0
 11
40.43349999999997
 21
28.27001784234418
 31
0.0
  0
LINE
  5
1F1
330
1EB
100
AcDbEntity
  8
치수문자_일반주서
 62
     0
370
    -2
100
AcDbLine
 10
88.725
 20
28.27001784234418
 30
0.0
 11
72.84999999999997
 21
28.27001784234418
 31
0.0
  0
LINE
  5
1F2
330
1EB
100
AcDbEntity
  8
치수문자_일반주서
 62
     0
370
    -2
100
AcDbLine
 10
92.02699999999999
 20
28.27001784234418
 30
0.0
 11
95.32899999999998
 21
28.27001784234418
 31
0.0
  0
LINE
  5
1F3
330
1EB
100
AcDbEntity
  8
치수문자_일반주서
 62
     0
370
    -2
100
AcDbLine
 10
69.54799999999997
 20
28.27001784234418
 30
0.0
 11
66.24599999999998
 21
28.27001784234418
 31
0.0
  0
SOLID
  5
1F4
330
1EB
100
AcDbEntity
  8
치수문자_일반주서
 62
     0
100
AcDbTrace
 10
92.02699999999999
 20
28.82035117567752
 30
0.0
 11
92.02699999999999
 21
27.71968450901085
 31
0.0
 12
88.725
 22
28.27001784234418
 32
0.0
 13
88.725
 23
28.27001784234418
 33
0.0
  0
SOLID
  5
1F5
330
1EB
100
AcDbEntity
  8
치수문자_일반주서
 62
     0
100
AcDbTrace
 10
69.54799999999997
 20
27.71968450901085
 30
0.0
 11
69.54799999999997
 21
28.82035117567752
 31
0.0
 12
72.84999999999997
 22
28.27001784234418
 32
0.0
 13
72.84999999999997
 23
28.27001784234418
 33
0.0
  0
MTEXT
  5
1F6
330
1EB
100
AcDbEntity
  8
치수문자_일반주서
 62
     0
100
AcDbMText
 10
53.33974999999997
 20
32.64501784234418
 30
0.0
 40
3.5
 41
0.0
 71
     2
 72
     1
  1
\A1;15.88 [0.63]
  7
SLDTEXTSTYLE0
 73
     1
 44
1.0
  0
POINT
  5
1F7
330
1EB
100
AcDbEntity
  8
Defpoints
 62
     0
100
AcDbPoint
 10
88.725
 20
12.55712499999995
 30
0.0
  0
POINT
  5
1F8
330
1EB
100
AcDbEntity
  8
Defpoints
 62
     0
100
AcDbPoint
 10
72.84999999999997
 20
12.55632031402067
 30
0.0
  0
POINT
  5
1F9
330
1EB
100
AcDbEntity
  8
Defpoints
 62
     0
100
AcDbPoint
 10
72.84999999999997
 20
28.27001784234418
 30
0.0
  0
ENDBLK
  5
1ED
330
1EB
100
AcDbEntity
  8
0
100
AcDbBlockEnd
  0
BLOCK
  5
1FB
330
1FA
100
AcDbEntity
  8
0
100
AcDbBlockBegin
  2
*D9
 70
     1
 10
0.0
 20
0.0
 30
0.0
  3
*D9
  1
*D10
  0
LINE
  5
1FD
330
1FA
100
AcDbEntity
  8
치수문자_일반주서
 62
     0
370
    -2
100
AcDbLine
 10
88.725
 20
12.61962499999995
 30
0.0
 11
88.725
 21
38.32166414276391
 31
0.0
  0
LINE
  5
1FE
330
1FA
100
AcDbEntity
  8
치수문자_일반주서
 62
     0
370
    -2
100
AcDbLine
 10
3.000000000000007
 20
13.45306249999994
 30
0.0
 11
3.000000000000007
 21
38.32166414276391
 31
0.0
  0
LINE
  5
1FF
330
1FA
100
AcDbEntity
  8
치수문자_일반주서
 62
     0
370
    -2
100
AcDbLine
 10
85.423
 20
38.32166414276391
 30
0.0
 11
6.302000000000007
 21
38.32166414276391
 31
0.0
  0
SOLID
  5
200
330
1FA
100
AcDbEntity
  8
치수문자_일반주서
 62
     0
100
AcDbTrace
 10
85.423
 20
37.77133080943057
 30
0.0
 11
85.423
 21
38.87199747609724
 31
0.0
 12
88.725
 22
38.32166414276391
 32
0.0
 13
88.725
 23
38.32166414276391
 33
0.0
  0
SOLID
  5
201
330
1FA
100
AcDbEntity
  8
치수문자_일반주서
 62
     0
100
AcDbTrace
 10
6.302000000000007
 20
38.87199747609724
 30
0.0
 11
6.302000000000007
 21
37.77133080943057
 31
0.0
 12
3.000000000000007
 22
38.32166414276391
 32
0.0
 13
3.000000000000007
 23
38.32166414276391
 33
0.0
  0
MTEXT
  5
202
330
1FA
100
AcDbEntity
  8
치수문자_일반주서
 62
     0
100
AcDbMText
 10
46.75085189956336
 20
42.69666414276391
 30
0.0
 40
3.5
 41
0.0
 71
     2
 72
     1
  1
\A1;85.73 [3.38]
  7
SLDTEXTSTYLE0
 73
     1
 44
1.0
  0
POINT
  5
203
330
1FA
100
AcDbEntity
  8
Defpoints
 62
     0
100
AcDbPoint
 10
88.725
 20
12.55712499999995
 30
0.0
  0
POINT
  5
204
330
1FA
100
AcDbEntity
  8
Defpoints
 62
     0
100
AcDbPoint
 10
3.000000000000007
 20
13.39056249999994
 30
0.0
  0
POINT
  5
205
330
1FA
100
AcDbEntity
  8
Defpoints
 62
     0
100
AcDbPoint
 10
3.000000000000007
 20
38.32166414276391
 30
0.0
  0
ENDBLK
  5
1FC
330
1FA
100
AcDbEntity
  8
0
100
AcDbBlockEnd
  0
BLOCK
  5
237
330
236
100
AcDbEntity
  8
0
100
AcDbBlockBegin
  2
*D10
 70
     1
 10
0.0
 20
0.0
 30
0.0
  3
*D10
  1
*D11
  0
LINE
  5
239
330
236
100
AcDbEntity
  8
치수문자_일반주서
 62
     0
370
    -2
100
AcDbLine
 10
164.3644865553962
 20
-34.29628433642432
 30
0.0
 11
178.3139341150787
 21
-34.29628433642427
 31
0.0
  0
LINE
  5
23A
330
236
100
AcDbEntity
  8
치수문자_일반주서
 62
     0
370
    -2
100
AcDbLine
 10
164.3644865553962
 20
-40.24940933642431
 30
0.0
 11
178.3139341150787
 21
-40.24940933642426
 31
0.0
  0
LINE
  5
23B
330
236
100
AcDbEntity
  8
치수문자_일반주서
 62
     0
370
    -2
100
AcDbLine
 10
178.3139341150787
 20
-34.29628433642427
 30
0.0
 11
178.3139341150785
 21
6.990032484040107
 31
0.0
  0
LINE
  5
23C
330
236
100
AcDbEntity
  8
치수문자_일반주서
 62
     0
370
    -2
100
AcDbLine
 10
178.3139341150787
 20
-34.29628433642427
 30
0.0
 11
178.3139341150787
 21
-40.24940933642426
 31
0.0
  0
LINE
  5
23D
330
236
100
AcDbEntity
  8
치수문자_일반주서
 62
     0
370
    -2
100
AcDbLine
 10
178.3139341150787
 20
-30.99428433642427
 30
0.0
 11
178.3139341150786
 21
-27.69228433642427
 31
0.0
  0
LINE
  5
23E
330
236
100
AcDbEntity
  8
치수문자_일반주서
 62
     0
370
    -2
100
AcDbLine
 10
178.3139341150788
 20
-43.55140933642426
 30
0.0
 11
178.3139341150788
 21
-46.85340933642426
 31
0.0
  0
SOLID
  5
23F
330
236
100
AcDbEntity
  8
치수문자_일반주서
 62
     0
100
AcDbTrace
 10
177.7636007817453
 20
-30.99428433642428
 30
0.0
 11
178.864267448412
 21
-30.99428433642427
 31
0.0
 12
178.3139341150787
 22
-34.29628433642427
 32
0.0
 13
178.3139341150787
 23
-34.29628433642427
 33
0.0
  0
SOLID
  5
240
330
236
100
AcDbEntity
  8
치수문자_일반주서
 62
     0
100
AcDbTrace
 10
178.8642674484121
 20
-43.55140933642426
 30
0.0
 11
177.7636007817454
 21
-43.55140933642426
 31
0.0
 12
178.3139341150787
 22
-40.24940933642426
 32
0.0
 13
178.3139341150787
 23
-40.24940933642426
 33
0.0
  0
MTEXT
  5
241
330
236
100
AcDbEntity
  8
치수문자_일반주서
 62
     0
100
AcDbMText
 10
173.9389341150786
 20
-6.353717515959914
 30
0.0
 40
3.5
 41
0.0
 71
     2
 72
     1
  1
\A1;%%c5.95 [0.23]
  7
SLDTEXTSTYLE0
 11
-4.774250403007503E-15
 21
1.0
 31
0.0
 73
     1
 44
1.0
  0
POINT
  5
242
330
236
100
AcDbEntity
  8
Defpoints
 62
     0
100
AcDbPoint
 10
164.3019865553962
 20
-34.29628433642432
 30
0.0
  0
POINT
  5
243
330
236
100
AcDbEntity
  8
Defpoints
 62
     0
100
AcDbPoint
 10
164.3019865553962
 20
-40.24940933642431
 30
0.0
  0
POINT
  5
244
330
236
100
AcDbEntity
  8
Defpoints
 62
     0
100
AcDbPoint
 10
178.3139341150786
 20
-40.24940933642426
 30
0.0
  0
ENDBLK
  5
238
330
236
100
AcDbEntity
  8
0
100
AcDbBlockEnd
  0
BLOCK
  5
246
330
245
100
AcDbEntity
  8
0
100
AcDbBlockBegin
  2
*D11
 70
     1
 10
0.0
 20
0.0
 30
0.0
  3
*D11
  1
*D12
  0
LINE
  5
248
330
245
100
AcDbEntity
  8
치수문자_일반주서
 62
     0
370
    -2
100
AcDbLine
 10
164.3019865553962
 20
-34.23378433642432
 30
0.0
 11
164.3019865553962
 21
-18.58339149408008
 31
0.0
  0
LINE
  5
249
330
245
100
AcDbEntity
  8
치수문자_일반주서
 62
     0
370
    -2
100
AcDbLine
 10
148.4269865553962
 20
-34.2345890224036
 30
0.0
 11
148.4269865553962
 21
-18.58339149408008
 31
0.0
  0
LINE
  5
24A
330
245
100
AcDbEntity
  8
치수문자_일반주서
 62
     0
370
    -2
100
AcDbLine
 10
148.4269865553962
 20
-18.58339149408008
 30
0.0
 11
116.0104865553962
 21
-18.58339149408008
 31
0.0
  0
LINE
  5
24B
330
245
100
AcDbEntity
  8
치수문자_일반주서
 62
     0
370
    -2
100
AcDbLine
 10
164.3019865553962
 20
-18.58339149408008
 30
0.0
 11
148.4269865553962
 21
-18.58339149408008
 31
0.0
  0
LINE
  5
24C
330
245
100
AcDbEntity
  8
치수문자_일반주서
 62
     0
370
    -2
100
AcDbLine
 10
167.6039865553962
 20
-18.58339149408008
 30
0.0
 11
170.9059865553962
 21
-18.58339149408008
 31
0.0
  0
LINE
  5
24D
330
245
100
AcDbEntity
  8
치수문자_일반주서
 62
     0
370
    -2
100
AcDbLine
 10
145.1249865553962
 20
-18.58339149408008
 30
0.0
 11
141.8229865553962
 21
-18.58339149408008
 31
0.0
  0
SOLID
  5
24E
330
245
100
AcDbEntity
  8
치수문자_일반주서
 62
     0
100
AcDbTrace
 10
167.6039865553962
 20
-18.03305816074675
 30
0.0
 11
167.6039865553962
 21
-19.13372482741342
 31
0.0
 12
164.3019865553962
 22
-18.58339149408008
 32
0.0
 13
164.3019865553962
 23
-18.58339149408008
 33
0.0
  0
SOLID
  5
24F
330
245
100
AcDbEntity
  8
치수문자_일반주서
 62
     0
100
AcDbTrace
 10
145.1249865553962
 20
-19.13372482741342
 30
0.0
 11
145.1249865553962
 21
-18.03305816074675
 31
0.0
 12
148.4269865553962
 22
-18.58339149408008
 32
0.0
 13
148.4269865553962
 23
-18.58339149408008
 33
0.0
  0
MTEXT
  5
250
330
245
100
AcDbEntity
  8
치수문자_일반주서
 62
     0
100
AcDbMText
 10
128.9167365553962
 20
-14.20839149408008
 30
0.0
 40
3.5
 41
0.0
 71
     2
 72
     1
  1
\A1;15.88 [0.63]
  7
SLDTEXTSTYLE0
 73
     1
 44
1.0
  0
POINT
  5
251
330
245
100
AcDbEntity
  8
Defpoints
 62
     0
100
AcDbPoint
 10
164.3019865553962
 20
-34.29628433642432
 30
0.0
  0
POINT
  5
252
330
245
100
AcDbEntity
  8
Defpoints
 62
     0
100
AcDbPoint
 10
148.4269865553962
 20
-34.2970890224036
 30
0.0
  0
POINT
  5
253
330
245
100
AcDbEntity
  8
Defpoints
 62
     0
100
AcDbPoint
 10
148.4269865553962
 20
-18.58339149408008
 30
0.0
  0
ENDBLK
  5
247
330
245
100
AcDbEntity
  8
0
100
AcDbBlockEnd
  0
BLOCK
  5
255
330
254
100
AcDbEntity
  8
0
100
AcDbBlockBegin
  2
*D12
 70
     1
 10
0.0
 20
0.0
 30
0.0
  3
*D12
  1
*D13
  0
LINE
  5
257
330
254
100
AcDbEntity
  8
치수문자_일반주서
 62
     0
370
    -2
100
AcDbLine
 10
164.3019865553962
 20
-34.23378433642432
 30
0.0
 11
164.3019865553962
 21
-8.531745193660356
 31
0.0
  0
LINE
  5
258
330
254
100
AcDbEntity
  8
치수문자_일반주서
 62
     0
370
    -2
100
AcDbLine
 10
78.57698655539622
 20
-33.40034683642432
 30
0.0
 11
78.57698655539622
 21
-8.531745193660356
 31
0.0
  0
LINE
  5
259
330
254
100
AcDbEntity
  8
치수문자_일반주서
 62
     0
370
    -2
100
AcDbLine
 10
160.9999865553962
 20
-8.531745193660356
 30
0.0
 11
81.87898655539621
 21
-8.531745193660356
 31
0.0
  0
SOLID
  5
25A
330
254
100
AcDbEntity
  8
치수문자_일반주서
 62
     0
100
AcDbTrace
 10
160.9999865553962
 20
-9.082078526993689
 30
0.0
 11
160.9999865553962
 21
-7.981411860327023
 31
0.0
 12
164.3019865553962
 22
-8.531745193660356
 32
0.0
 13
164.3019865553962
 23
-8.531745193660356
 33
0.0
  0
SOLID
  5
25B
330
254
100
AcDbEntity
  8
치수문자_일반주서
 62
     0
100
AcDbTrace
 10
81.87898655539621
 20
-7.981411860327023
 30
0.0
 11
81.87898655539621
 21
-9.082078526993689
 31
0.0
 12
78.57698655539622
 22
-8.531745193660356
 32
0.0
 13
78.57698655539622
 23
-8.531745193660356
 33
0.0
  0
MTEXT
  5
25C
330
254
100
AcDbEntity
  8
치수문자_일반주서
 62
     0
100
AcDbMText
 10
122.3278384549596
 20
-4.156745193660356
 30
0.0
 40
3.5
 41
0.0
 71
     2
 72
     1
  1
\A1;85.73 [3.38]
  7
SLDTEXTSTYLE0
 73
     1
 44
1.0
  0
POINT
  5
25D
330
254
100
AcDbEntity
  8
Defpoints
 62
     0
100
AcDbPoint
 10
164.3019865553962
 20
-34.29628433642432
 30
0.0
  0
POINT
  5
25E
330
254
100
AcDbEntity
  8
Defpoints
 62
     0
100
AcDbPoint
 10
78.57698655539622
 20
-33.46284683642432
 30
0.0
  0
POINT
  5
25F
330
254
100
AcDbEntity
  8
Defpoints
 62
     0
100
AcDbPoint
 10
78.57698655539622
 20
-8.531745193660356
 30
0.0
  0
ENDBLK
  5
256
330
254
100
AcDbEntity
  8
0
100
AcDbBlockEnd
  0
BLOCK
  5
2ED
330
2EC
100
AcDbEntity
  8
0
100
AcDbBlockBegin
  2
*D13
 70
     1
 10
0.0
 20
0.0
 30
0.0
  3
*D13
  1
*D15
  0
LINE
  5
2EF
330
2EC
100
AcDbEntity
  8
치수문자_일반주서
 62
     0
370
    -2
100
AcDbLine
 10
88.78750000000002
 20
12.95399999999995
 30
0.0
 11
102.3475756837006
 21
12.954
 31
0.0
  0
LINE
  5
2F0
330
2EC
100
AcDbEntity
  8
치수문자_일반주서
 62
     0
370
    -2
100
AcDbLine
 10
88.7875
 20
6.603999999999951
 30
0.0
 11
102.3475756837007
 21
6.603999999999999
 31
0.0
  0
LINE
  5
2F1
330
2EC
100
AcDbEntity
  8
치수문자_일반주서
 62
     0
370
    -2
100
AcDbLine
 10
102.3475756837006
 20
12.954
 30
0.0
 11
102.3475756837004
 21
55.44690460849533
 31
0.0
  0
LINE
  5
2F2
330
2EC
100
AcDbEntity
  8
치수문자_일반주서
 62
     0
370
    -2
100
AcDbLine
 10
102.3475756837006
 20
12.954
 30
0.0
 11
102.3475756837007
 21
6.603999999999999
 31
0.0
  0
LINE
  5
2F3
330
2EC
100
AcDbEntity
  8
치수문자_일반주서
 62
     0
370
    -2
100
AcDbLine
 10
102.3475756837006
 20
16.256
 30
0.0
 11
102.3475756837006
 21
19.558
 31
0.0
  0
LINE
  5
2F4
330
2EC
100
AcDbEntity
  8
치수문자_일반주서
 62
     0
370
    -2
100
AcDbLine
 10
102.3475756837007
 20
3.302
 30
0.0
 11
102.3475756837007
 21
0.0
 31
0.0
  0
SOLID
  5
2F5
330
2EC
100
AcDbEntity
  8
치수문자_일반주서
 62
     0
100
AcDbTrace
 10
101.7972423503673
 20
16.256
 30
0.0
 11
102.8979090170339
 21
16.256
 31
0.0
 12
102.3475756837006
 22
12.954
 32
0.0
 13
102.3475756837006
 23
12.954
 33
0.0
  0
SOLID
  5
2F6
330
2EC
100
AcDbEntity
  8
치수문자_일반주서
 62
     0
100
AcDbTrace
 10
102.897909017034
 20
3.302000000000002
 30
0.0
 11
101.7972423503673
 21
3.301999999999997
 31
0.0
 12
102.3475756837007
 22
6.603999999999999
 32
0.0
 13
102.3475756837007
 23
6.603999999999999
 33
0.0
  0
MTEXT
  5
2F7
330
2EC
100
AcDbEntity
  8
치수문자_일반주서
 62
     0
100
AcDbMText
 10
97.9725756837005
 20
42.75940460849531
 30
0.0
 40
3.5
 41
0.0
 71
     2
 72
     1
  1
\A1;%%c6.35 [1/4]
  7
SLDTEXTSTYLE0
 11
-4.475859752819529E-15
 21
1.0
 31
0.0
 73
     1
 44
1.0
  0
POINT
  5
2F8
330
2EC
100
AcDbEntity
  8
Defpoints
 62
     0
100
AcDbPoint
 10
88.72500000000002
 20
12.95399999999995
 30
0.0
  0
POINT
  5
2F9
330
2EC
100
AcDbEntity
  8
Defpoints
 62
     0
100
AcDbPoint
 10
88.725
 20
6.603999999999951
 30
0.0
  0
POINT
  5
2FA
330
2EC
100
AcDbEntity
  8
Defpoints
 62
     0
100
AcDbPoint
 10
102.3475756837006
 20
6.604000000000002
 30
0.0
  0
ENDBLK
  5
2EE
330
2EC
100
AcDbEntity
  8
0
100
AcDbBlockEnd
  0
BLOCK
  5
2FC
330
2FB
100
AcDbEntity
  8
0
100
AcDbBlockBegin
  2
*D14
 70
     1
 10
0.0
 20
0.0
 30
0.0
  3
*D14
  1
*D16
  0
LINE
  5
2FE
330
2FB
100
AcDbEntity
  8
치수문자_일반주서
 62
     0
370
    -2
100
AcDbLine
 10
88.725
 20
13.01649999999995
 30
0.0
 11
88.725
 21
27.57288085582881
 31
0.0
  0
LINE
  5
2FF
330
2FB
100
AcDbEntity
  8
치수문자_일반주서
 62
     0
370
    -2
100
AcDbLine
 10
72.85000000000002
 20
12.96347991411195
 30
0.0
 11
72.85000000000002
 21
27.57288085582881
 31
0.0
  0
LINE
  5
300
330
2FB
100
AcDbEntity
  8
치수문자_일반주서
 62
     0
370
    -2
100
AcDbLine
 10
72.85000000000002
 20
27.57288085582881
 30
0.0
 11
38.72203618060725
 21
27.57288085582881
 31
0.0
  0
LINE
  5
301
330
2FB
100
AcDbEntity
  8
치수문자_일반주서
 62
     0
370
    -2
100
AcDbLine
 10
88.725
 20
27.57288085582881
 30
0.0
 11
72.85000000000002
 21
27.57288085582881
 31
0.0
  0
LINE
  5
302
330
2FB
100
AcDbEntity
  8
치수문자_일반주서
 62
     0
370
    -2
100
AcDbLine
 10
92.02699999999999
 20
27.57288085582881
 30
0.0
 11
95.32899999999998
 21
27.57288085582881
 31
0.0
  0
LINE
  5
303
330
2FB
100
AcDbEntity
  8
치수문자_일반주서
 62
     0
370
    -2
100
AcDbLine
 10
69.54800000000003
 20
27.57288085582881
 30
0.0
 11
66.24600000000004
 21
27.57288085582881
 31
0.0
  0
SOLID
  5
304
330
2FB
100
AcDbEntity
  8
치수문자_일반주서
 62
     0
100
AcDbTrace
 10
92.02699999999999
 20
28.12321418916214
 30
0.0
 11
92.02699999999999
 21
27.02254752249547
 31
0.0
 12
88.725
 22
27.57288085582881
 32
0.0
 13
88.725
 23
27.57288085582881
 33
0.0
  0
SOLID
  5
305
330
2FB
100
AcDbEntity
  8
치수문자_일반주서
 62
     0
100
AcDbTrace
 10
69.54800000000003
 20
27.02254752249547
 30
0.0
 11
69.54800000000003
 21
28.12321418916214
 31
0.0
 12
72.85000000000002
 22
27.57288085582881
 32
0.0
 13
72.85000000000002
 23
27.57288085582881
 33
0.0
  0
MTEXT
  5
306
330
2FB
100
AcDbEntity
  8
치수문자_일반주서
 62
     0
100
AcDbMText
 10
51.40953618060725
 20
31.94788085582881
 30
0.0
 40
3.5
 41
0.0
 71
     2
 72
     1
  1
\A1;15.88 [5/8]
  7
SLDTEXTSTYLE0
 73
     1
 44
1.0
  0
POINT
  5
307
330
2FB
100
AcDbEntity
  8
Defpoints
 62
     0
100
AcDbPoint
 10
88.725
 20
12.95399999999995
 30
0.0
  0
POINT
  5
308
330
2FB
100
AcDbEntity
  8
Defpoints
 62
     0
100
AcDbPoint
 10
72.85000000000002
 20
12.90097991411195
 30
0.0
  0
POINT
  5
309
330
2FB
100
AcDbEntity
  8
Defpoints
 62
     0
100
AcDbPoint
 10
72.85000000000002
 20
27.57288085582881
 30
0.0
  0
ENDBLK
  5
2FD
330
2FB
100
AcDbEntity
  8
0
100
AcDbBlockEnd
  0
BLOCK
  5
30B
330
30A
100
AcDbEntity
  8
0
100
AcDbBlockBegin
  2
*D15
 70
     1
 10
0.0
 20
0.0
 30
0.0
  3
*D15
  1
*D17
  0
LINE
  5
30D
330
30A
100
AcDbEntity
  8
치수문자_일반주서
 62
     0
370
    -2
100
AcDbLine
 10
88.725
 20
13.01649999999995
 30
0.0
 11
88.725
 21
43.58105829723799
 31
0.0
  0
LINE
  5
30E
330
30A
100
AcDbEntity
  8
치수문자_일반주서
 62
     0
370
    -2
100
AcDbLine
 10
3.000000000000007
 20
13.65149999999995
 30
0.0
 11
3.000000000000007
 21
43.58105829723799
 31
0.0
  0
LINE
  5
30F
330
30A
100
AcDbEntity
  8
치수문자_일반주서
 62
     0
370
    -2
100
AcDbLine
 10
85.423
 20
43.58105829723799
 30
0.0
 11
6.302000000000007
 21
43.58105829723799
 31
0.0
  0
SOLID
  5
310
330
30A
100
AcDbEntity
  8
치수문자_일반주서
 62
     0
100
AcDbTrace
 10
85.423
 20
43.03072496390466
 30
0.0
 11
85.423
 21
44.13139163057133
 31
0.0
 12
88.725
 22
43.58105829723799
 32
0.0
 13
88.725
 23
43.58105829723799
 33
0.0
  0
SOLID
  5
311
330
30A
100
AcDbEntity
  8
치수문자_일반주서
 62
     0
100
AcDbTrace
 10
6.302000000000007
 20
44.13139163057133
 30
0.0
 11
6.302000000000007
 21
43.03072496390466
 31
0.0
 12
3.000000000000007
 22
43.58105829723799
 32
0.0
 13
3.000000000000007
 23
43.58105829723799
 33
0.0
  0
MTEXT
  5
312
330
30A
100
AcDbEntity
  8
치수문자_일반주서
 62
     0
100
AcDbMText
 10
46.94213782486514
 20
47.95605829723799
 30
0.0
 40
3.5
 41
0.0
 71
     2
 72
     1
  1
\A1;85.73 [3 3/8]
  7
SLDTEXTSTYLE0
 73
     1
 44
1.0
  0
POINT
  5
313
330
30A
100
AcDbEntity
  8
Defpoints
 62
     0
100
AcDbPoint
 10
88.725
 20
12.95399999999995
 30
0.0
  0
POINT
  5
314
330
30A
100
AcDbEntity
  8
Defpoints
 62
     0
100
AcDbPoint
 10
3.000000000000007
 20
13.58899999999995
 30
0.0
  0
POINT
  5
315
330
30A
100
AcDbEntity
  8
Defpoints
 62
     0
100
AcDbPoint
 10
3.000000000000007
 20
43.58105829723799
 30
0.0
  0
ENDBLK
  5
30C
330
30A
100
AcDbEntity
  8
0
100
AcDbBlockEnd
  0
BLOCK
  5
343
330
342
100
AcDbEntity
  8
0
100
AcDbBlockBegin
  2
*D16
 70
     1
 10
0.0
 20
0.0
 30
0.0
  3
*D16
  1
*D18
  0
LINE
  5
345
330
342
100
AcDbEntity
  8
치수문자_일반주서
 62
     0
370
    -2
100
AcDbLine
 10
177.0208716483105
 20
-40.38187539409442
 30
0.0
 11
190.5809473320111
 21
-40.38187539409437
 31
0.0
  0
LINE
  5
346
330
342
100
AcDbEntity
  8
치수문자_일반주서
 62
     0
370
    -2
100
AcDbLine
 10
177.0208716483104
 20
-46.73187539409442
 30
0.0
 11
190.5809473320111
 21
-46.73187539409437
 31
0.0
  0
LINE
  5
347
330
342
100
AcDbEntity
  8
치수문자_일반주서
 62
     0
370
    -2
100
AcDbLine
 10
190.5809473320111
 20
-40.38187539409437
 30
0.0
 11
190.5809473320109
 21
2.111029214400958
 31
0.0
  0
LINE
  5
348
330
342
100
AcDbEntity
  8
치수문자_일반주서
 62
     0
370
    -2
100
AcDbLine
 10
190.5809473320111
 20
-40.38187539409437
 30
0.0
 11
190.5809473320111
 21
-46.73187539409437
 31
0.0
  0
LINE
  5
349
330
342
100
AcDbEntity
  8
치수문자_일반주서
 62
     0
370
    -2
100
AcDbLine
 10
190.5809473320111
 20
-37.07987539409437
 30
0.0
 11
190.580947332011
 21
-33.77787539409437
 31
0.0
  0
LINE
  5
34A
330
342
100
AcDbEntity
  8
치수문자_일반주서
 62
     0
370
    -2
100
AcDbLine
 10
190.5809473320112
 20
-50.03387539409437
 30
0.0
 11
190.5809473320112
 21
-53.33587539409437
 31
0.0
  0
SOLID
  5
34B
330
342
100
AcDbEntity
  8
치수문자_일반주서
 62
     0
100
AcDbTrace
 10
190.0306139986778
 20
-37.07987539409437
 30
0.0
 11
191.1312806653444
 21
-37.07987539409437
 31
0.0
 12
190.5809473320111
 22
-40.38187539409437
 32
0.0
 13
190.5809473320111
 23
-40.38187539409437
 33
0.0
  0
SOLID
  5
34C
330
342
100
AcDbEntity
  8
치수문자_일반주서
 62
     0
100
AcDbTrace
 10
191.1312806653445
 20
-50.03387539409437
 30
0.0
 11
190.0306139986778
 21
-50.03387539409437
 31
0.0
 12
190.5809473320111
 22
-46.73187539409437
 32
0.0
 13
190.5809473320111
 23
-46.73187539409437
 33
0.0
  0
MTEXT
  5
34D
330
342
100
AcDbEntity
  8
치수문자_일반주서
 62
     0
100
AcDbMText
 10
186.205947332011
 20
-10.57647078559906
 30
0.0
 40
3.5
 41
0.0
 71
     2
 72
     1
  1
\A1;%%c6.35 [1/4]
  7
SLDTEXTSTYLE0
 11
-4.475859752819528E-15
 21
1.0
 31
0.0
 73
     1
 44
1.0
  0
POINT
  5
34E
330
342
100
AcDbEntity
  8
Defpoints
 62
     0
100
AcDbPoint
 10
176.9583716483105
 20
-40.38187539409442
 30
0.0
  0
POINT
  5
34F
330
342
100
AcDbEntity
  8
Defpoints
 62
     0
100
AcDbPoint
 10
176.9583716483104
 20
-46.73187539409442
 30
0.0
  0
POINT
  5
350
330
342
100
AcDbEntity
  8
Defpoints
 62
     0
100
AcDbPoint
 10
190.5809473320111
 20
-46.73187539409437
 30
0.0
  0
ENDBLK
  5
344
330
342
100
AcDbEntity
  8
0
100
AcDbBlockEnd
  0
BLOCK
  5
352
330
351
100
AcDbEntity
  8
0
100
AcDbBlockBegin
  2
*D17
 70
     1
 10
0.0
 20
0.0
 30
0.0
  3
*D17
  1
*D19
  0
LINE
  5
354
330
351
100
AcDbEntity
  8
치수문자_일반주서
 62
     0
370
    -2
100
AcDbLine
 10
176.9583716483104
 20
-40.31937539409442
 30
0.0
 11
176.9583716483104
 21
-25.76299453826557
 31
0.0
  0
LINE
  5
355
330
351
100
AcDbEntity
  8
치수문자_일반주서
 62
     0
370
    -2
100
AcDbLine
 10
161.0833716483105
 20
-40.37239547998242
 30
0.0
 11
161.0833716483105
 21
-25.76299453826557
 31
0.0
  0
LINE
  5
356
330
351
100
AcDbEntity
  8
치수문자_일반주서
 62
     0
370
    -2
100
AcDbLine
 10
161.0833716483105
 20
-25.76299453826557
 30
0.0
 11
126.9554078289177
 21
-25.76299453826557
 31
0.0
  0
LINE
  5
357
330
351
100
AcDbEntity
  8
치수문자_일반주서
 62
     0
370
    -2
100
AcDbLine
 10
176.9583716483104
 20
-25.76299453826557
 30
0.0
 11
161.0833716483105
 21
-25.76299453826557
 31
0.0
  0
LINE
  5
358
330
351
100
AcDbEntity
  8
치수문자_일반주서
 62
     0
370
    -2
100
AcDbLine
 10
180.2603716483104
 20
-25.76299453826557
 30
0.0
 11
183.5623716483104
 21
-25.76299453826557
 31
0.0
  0
LINE
  5
359
330
351
100
AcDbEntity
  8
치수문자_일반주서
 62
     0
370
    -2
100
AcDbLine
 10
157.7813716483105
 20
-25.76299453826557
 30
0.0
 11
154.4793716483105
 21
-25.76299453826557
 31
0.0
  0
SOLID
  5
35A
330
351
100
AcDbEntity
  8
치수문자_일반주서
 62
     0
100
AcDbTrace
 10
180.2603716483104
 20
-25.21266120493223
 30
0.0
 11
180.2603716483104
 21
-26.3133278715989
 31
0.0
 12
176.9583716483104
 22
-25.76299453826557
 32
0.0
 13
176.9583716483104
 23
-25.76299453826557
 33
0.0
  0
SOLID
  5
35B
330
351
100
AcDbEntity
  8
치수문자_일반주서
 62
     0
100
AcDbTrace
 10
157.7813716483105
 20
-26.3133278715989
 30
0.0
 11
157.7813716483105
 21
-25.21266120493223
 31
0.0
 12
161.0833716483105
 22
-25.76299453826557
 32
0.0
 13
161.0833716483105
 23
-25.76299453826557
 33
0.0
  0
MTEXT
  5
35C
330
351
100
AcDbEntity
  8
치수문자_일반주서
 62
     0
100
AcDbMText
 10
139.6429078289177
 20
-21.38799453826557
 30
0.0
 40
3.5
 41
0.0
 71
     2
 72
     1
  1
\A1;15.88 [5/8]
  7
SLDTEXTSTYLE0
 73
     1
 44
1.0
  0
POINT
  5
35D
330
351
100
AcDbEntity
  8
Defpoints
 62
     0
100
AcDbPoint
 10
176.9583716483104
 20
-40.38187539409442
 30
0.0
  0
POINT
  5
35E
330
351
100
AcDbEntity
  8
Defpoints
 62
     0
100
AcDbPoint
 10
161.0833716483105
 20
-40.43489547998242
 30
0.0
  0
POINT
  5
35F
330
351
100
AcDbEntity
  8
Defpoints
 62
     0
100
AcDbPoint
 10
161.0833716483105
 20
-25.76299453826557
 30
0.0
  0
ENDBLK
  5
353
330
351
100
AcDbEntity
  8
0
100
AcDbBlockEnd
  0
BLOCK
  5
361
330
360
100
AcDbEntity
  8
0
100
AcDbBlockBegin
  2
*D18
 70
     1
 10
0.0
 20
0.0
 30
0.0
  3
*D18
  1
*D20
  0
LINE
  5
363
330
360
100
AcDbEntity
  8
치수문자_일반주서
 62
     0
370
    -2
100
AcDbLine
 10
176.9583716483104
 20
-40.31937539409442
 30
0.0
 11
176.9583716483104
 21
-9.754817096856378
 31
0.0
  0
LINE
  5
364
330
360
100
AcDbEntity
  8
치수문자_일반주서
 62
     0
370
    -2
100
AcDbLine
 10
91.23337164831048
 20
-39.68437539409443
 30
0.0
 11
91.23337164831048
 21
-9.754817096856378
 31
0.0
  0
LINE
  5
365
330
360
100
AcDbEntity
  8
치수문자_일반주서
 62
     0
370
    -2
100
AcDbLine
 10
173.6563716483105
 20
-9.754817096856378
 30
0.0
 11
94.53537164831047
 21
-9.754817096856378
 31
0.0
  0
SOLID
  5
366
330
360
100
AcDbEntity
  8
치수문자_일반주서
 62
     0
100
AcDbTrace
 10
173.6563716483105
 20
-10.30515043018971
 30
0.0
 11
173.6563716483105
 21
-9.204483763523045
 31
0.0
 12
176.9583716483104
 22
-9.754817096856378
 32
0.0
 13
176.9583716483104
 23
-9.754817096856378
 33
0.0
  0
SOLID
  5
367
330
360
100
AcDbEntity
  8
치수문자_일반주서
 62
     0
100
AcDbTrace
 10
94.53537164831047
 20
-9.204483763523045
 30
0.0
 11
94.53537164831047
 21
-10.30515043018971
 31
0.0
 12
91.23337164831048
 22
-9.754817096856378
 32
0.0
 13
91.23337164831048
 23
-9.754817096856378
 33
0.0
  0
MTEXT
  5
368
330
360
100
AcDbEntity
  8
치수문자_일반주서
 62
     0
100
AcDbMText
 10
135.1755094731756
 20
-5.379817096856378
 30
0.0
 40
3.5
 41
0.0
 71
     2
 72
     1
  1
\A1;85.73 [3 3/8]
  7
SLDTEXTSTYLE0
 73
     1
 44
1.0
  0
POINT
  5
369
330
360
100
AcDbEntity
  8
Defpoints
 62
     0
100
AcDbPoint
 10
176.9583716483104
 20
-40.38187539409442
 30
0.0
  0
POINT
  5
36A
330
360
100
AcDbEntity
  8
Defpoints
 62
     0
100
AcDbPoint
 10
91.23337164831048
 20
-39.74687539409443
 30
0.0
  0
POINT
  5
36B
330
360
100
AcDbEntity
  8
Defpoints
 62
     0
100
AcDbPoint
 10
91.23337164831048
 20
-9.754817096856378
 30
0.0
  0
ENDBLK
  5
362
330
360
100
AcDbEntity
  8
0
100
AcDbBlockEnd
  0
ENDSEC
  0
SECTION
  2
ENTITIES
  0
LINE
  5
96
330
1F
100
AcDbEntity
  8
0
  6
Continuous
 62
     1
370
    15
100
AcDbLine
 10
34.6969712859181
 20
-3.175000000000002
 30
0.0
 11
36.63138498194899
 21
-3.175000000000002
 31
0.0
  0
LINE
  5
97
330
1F
100
AcDbEntity
  8
0
  6
Continuous
 62
     1
370
    15
100
AcDbLine
 10
27.99486473814033
 20
3.174999999999999
 30
0.0
 11
26.9875
 21
3.174999999999999
 31
0.0
  0
LINE
  5
98
330
1F
100
AcDbEntity
  8
0
  6
Continuous
 62
     1
370
    15
100
AcDbLine
 10
36.63138498194899
 20
3.174999999999999
 30
0.0
 11
34.69697128591814
 21
3.174999999999999
 31
0.0
  0
LINE
  5
99
330
1F
100
AcDbEntity
  8
0
  6
Continuous
 62
     1
370
    15
100
AcDbLine
 10
26.9875
 20
-3.175000000000002
 30
0.0
 11
27.99486473814027
 21
-3.175000000000002
 31
0.0
  0
LINE
  5
9A
330
1F
100
AcDbEntity
  8
외형선
  6
Continuous
370
    15
100
AcDbLine
 10
20.0628693429844
 20
-4.76250000000001
 30
0.0
 11
25.9875
 21
-3.175000000000001
 31
0.0
  0
LINE
  5
9B
330
1F
100
AcDbEntity
  8
외형선
  6
Continuous
370
    15
100
AcDbLine
 10
25.9875
 20
3.174999999999998
 30
0.0
 11
20.0628693429844
 21
4.762500000000006
 31
0.0
  0
LINE
  5
9C
330
1F
100
AcDbEntity
  8
외형선
  6
Continuous
370
    15
100
AcDbLine
 10
-20.06286934298439
 20
-4.762500000000006
 30
0.0
 11
20.06286934298439
 21
-4.762500000000006
 31
0.0
  0
LINE
  5
9D
330
1F
100
AcDbEntity
  8
외형선
  6
Continuous
370
    15
100
AcDbLine
 10
20.0628693429844
 20
4.762500000000002
 30
0.0
 11
4.838700000000019
 21
4.762500000000002
 31
0.0
  0
LINE
  5
A0
330
1F
100
AcDbEntity
  8
외형선
  6
Continuous
370
    15
100
AcDbLine
 10
25.9875
 20
-3.175000000000001
 30
0.0
 11
26.9875
 21
-3.175000000000001
 31
0.0
  0
LINE
  5
A1
330
1F
100
AcDbEntity
  8
외형선
  6
Continuous
370
    15
100
AcDbLine
 10
26.9875
 20
3.174999999999998
 30
0.0
 11
25.9875
 21
3.174999999999998
 31
0.0
  0
SPLINE
  5
A2
330
1F
100
AcDbEntity
  8
0
  6
Continuous
 62
     1
370
    15
100
AcDbSpline
210
0.0
220
0.0
230
1.0
 70
     8
 71
     3
 72
    17
 73
    13
 74
     0
 42
0.000000001
 43
0.00000001
 40
0.0
 40
0.0
 40
0.0
 40
0.0
 40
0.0976865955834842
 40
0.1953263956383554
 40
0.2929348016750454
 40
0.3905273566657232
 40
0.4881196751896661
 40
0.5857273728953126
 40
0.6833659959521072
 40
0.7907609022685119
 40
0.8981589835234572
 40
1.0
 40
1.0
 40
1.0
 40
1.0
 10
26.98749999999998
 20
0.5778117477874511
 30
0.0
 10
27.41111102200336
 20
0.3344676777991224
 30
0.0
 10
28.25813014050556
 20
-0.1521038912772807
 30
0.0
 10
29.52825659159724
 20
-0.8822475843961773
 30
0.0
 10
30.79790493012477
 20
-1.563235807184554
 30
0.0
 10
32.06730356577859
 20
-2.161769162211913
 30
0.0
 10
33.33669724501426
 20
-2.645445539099069
 30
0.0
 10
34.60633834602191
 20
-2.988513788345193
 30
0.0
 10
35.91853297472039
 20
-3.179927295388014
 30
0.0
 10
37.27343375481513
 20
-3.18517915645161
 30
0.0
 10
38.64649530147498
 20
-3.002986611197279
 30
0.0
 10
39.55386536007762
 20
-2.728525150266639
 30
0.0
 10
39.99550122111088
 20
-2.594939054418134
 30
0.0
  0
SPLINE
  5
A3
330
1F
100
AcDbEntity
  8
외형선
  6
Continuous
370
    15
100
AcDbSpline
210
0.0
220
0.0
230
1.0
 70
    24
 71
     3
 72
    14
 73
    10
 74
     0
 42
0.000000001
 43
0.00000001
 40
0.0
 40
0.0
 40
0.0
 40
0.0
 40
0.1548857513506806
 40
0.3179817618701575
 40
0.4810777723896463
 40
0.6441737829091346
 40
0.8072697934286182
 40
0.9703658039481089
 40
1.0
 40
1.0
 40
1.0
 40
1.0
 10
26.9875
 20
3.129757652332253
 30
0.0
 10
26.98749999999998
 20
2.94017350320616
 30
0.0
 10
26.98749999999992
 20
2.550955636255452
 30
0.0
 10
26.9875
 20
1.904280090967168
 30
0.0
 10
26.98749999999992
 20
1.295087690024234
 30
0.0
 10
26.98749999999998
 20
0.7877868096332906
 30
0.0
 10
26.98750000000007
 20
0.4661143971531139
 30
0.0
 10
26.9875
 20
0.3274759012970817
 30
0.0
 10
26.98749999999996
 20
0.3662903059366893
 30
0.0
 10
26.98749999999998
 20
0.3722584086912595
 30
0.0
  0
SPLINE
  5
A4
330
1F
100
AcDbEntity
  8
0
  6
Continuous
 62
     1
370
    15
100
AcDbSpline
210
0.0
220
0.0
230
1.0
 70
     8
 71
     3
 72
    46
 73
    42
 74
     0
 42
0.000000001
 43
0.00000001
 40
0.0
 40
0.0
 40
0.0
 40
0.0
 40
0.0624999999999985
 40
0.0624999999999985
 40
0.124999999999997
 40
0.124999999999997
 40
0.1874999999999955
 40
0.1874999999999955
 40
0.249999999999994
 40
0.249999999999994
 40
0.3124999999999925
 40
0.3124999999999925
 40
0.3437499999999927
 40
0.3437499999999927
 40
0.374999999999993
 40
0.374999999999993
 40
0.4374999999999954
 40
0.4374999999999954
 40
0.4687499999999957
 40
0.4687499999999957
 40
0.4999999999999959
 40
0.4999999999999959
 40
0.5312499999999961
 40
0.5312499999999961
 40
0.5624999999999963
 40
0.5624999999999963
 40
0.6249999999999969
 40
0.6249999999999969
 40
0.6562499999999971
 40
0.6562499999999971
 40
0.6874999999999973
 40
0.6874999999999973
 40
0.7499999999999979
 40
0.7499999999999979
 40
0.8124999999999983
 40
0.8124999999999983
 40
0.8749999999999989
 40
0.8749999999999989
 40
0.9374999999999993
 40
0.9374999999999993
 40
1.0
 40
1.0
 40
1.0
 40
1.0
 10
42.86250000000001
 20
-3.174999999999994
 30
0.0
 10
42.5345939870388
 20
-3.147010037886484
 30
0.0
 10
42.20083574422608
 20
-3.113395008769018
 30
0.0
 10
41.53774741028099
 20
-3.012820879773283
 30
0.0
 10
41.21069769889132
 20
-2.946173707424801
 30
0.0
 10
40.5468916502641
 20
-2.781038285192767
 30
0.0
 10
40.21552275560141
 20
-2.682884440317184
 30
0.0
 10
39.55758124085098
 20
-2.459208120162949
 30
0.0
 10
39.22353627549726
 20
-2.332786585723336
 30
0.0
 10
38.56147598062246
 20
-2.056742428772119
 30
0.0
 10
38.23390448085246
 20
-1.90731598619891
 30
0.0
 10
37.73574524354856
 20
-1.667858551223243
 30
0.0
 10
37.56953333909993
 20
-1.58563242219113
 30
0.0
 10
37.23881814578993
 20
-1.417388058334621
 30
0.0
 10
37.07525538525321
 20
-1.331541003324986
 30
0.0
 10
36.58042887119952
 20
-1.068233523494223
 30
0.0
 10
36.24625624090658
 20
-0.8851515435202079
 30
0.0
 10
35.75071358838242
 20
-0.6058577925215332
 30
0.0
 10
35.58724071326331
 20
-0.5121367259319374
 30
0.0
 10
35.25695671434646
 20
-0.3229307188306253
 30
0.0
 10
35.09084181674226
 20
-0.2275752126397318
 30
0.0
 10
34.75868856613594
 20
-0.0365178959395431
 30
0.0
 10
34.59265296741255
 20
0.0591823297844514
 30
0.0
 10
34.26268295724162
 20
0.2497595606154775
 30
0.0
 10
34.09915096714062
 20
0.3445606864272243
 30
0.0
 10
33.60318293888474
 20
0.6282080604929056
 30
0.0
 10
33.26904190548341
 20
0.8155611815038442
 30
0.0
 10
32.77473179882569
 20
1.08718188264404
 30
0.0
 10
32.61099171626099
 20
1.176189817873035
 30
0.0
 10
32.28002345446104
 20
1.351402202928179
 30
0.0
 10
32.1137632768985
 20
1.437426610165172
 30
0.0
 10
31.61569693525652
 20
1.689161053214234
 30
0.0
 10
31.28839485796252
 20
1.847933471671095
 30
0.0
 10
30.62588965406871
 20
2.145037169700782
 30
0.0
 10
30.29193942883438
 20
2.283052091878999
 30
0.0
 10
29.63480676392044
 20
2.531515403128347
 30
0.0
 10
29.30255136561769
 20
2.643133837950925
 30
0.0
 10
28.63899284478457
 20
2.83633413054749
 30
0.0
 10
28.31200559335496
 20
2.917627999205159
 30
0.0
 10
27.64859530336564
 20
3.048521735592167
 30
0.0
 10
27.31584642913463
 20
3.097714440720333
 30
0.0
 10
26.98750000000074
 20
3.129757652327068
 30
0.0
  0
LINE
  5
A5
330
1F
100
AcDbEntity
  8
0
  6
Continuous
 62
     1
370
    15
100
AcDbLine
 10
42.8625
 20
-2.875538283886993
 30
0.0
 11
42.8625
 21
0.2720382838870301
 31
0.0
  0
SPLINE
  5
A6
330
1F
100
AcDbEntity
  8
0
  6
Continuous
 62
     1
370
    15
100
AcDbSpline
210
0.0
220
0.0
230
1.0
 70
     8
 71
     3
 72
    19
 73
    15
 74
     0
 42
0.000000001
 43
0.00000001
 40
0.0
 40
0.0
 40
0.0
 40
0.0
 40
0.0177180551209616
 40
0.1031467799041296
 40
0.1885480368828005
 40
0.2739354251865403
 40
0.3593226065966609
 40
0.4447232438299234
 40
0.53015093881331
 40
0.6241147721032425
 40
0.7180813832660372
 40
0.812050984336205
 40
0.906023786492714
 40
1.0
 40
1.0
 40
1.0
 40
1.0
 10
27.99486473814031
 20
3.161111924696125
 30
0.0
 10
28.08267904600111
 20
3.165415072308824
 30
0.0
 10
28.59389560016088
 20
3.190466118638218
 30
0.0
 10
29.52825116318041
 20
3.070488491492683
 30
0.0
 10
30.79790638429062
 20
2.798391973858815
 30
0.0
 10
32.06730317584115
 20
2.363288521046266
 30
0.0
 10
33.3366973507278
 20
1.806606266743423
 30
0.0
 10
34.60633831315584
 20
1.152924963649403
 30
0.0
 10
35.91853300238547
 20
0.4145667935817883
 30
0.0
 10
37.27343367218619
 20
-0.373759903681866
 30
0.0
 10
38.67060824830182
 20
-1.163596758974132
 30
0.0
 10
40.06785571316053
 20
-1.87521285037506
 30
0.0
 10
41.46515433099739
 20
-2.479703937500732
 30
0.0
 10
42.3967124742799
 20
-2.743591905200399
 30
0.0
 10
42.8625
 20
-2.875538283886993
 30
0.0
  0
SPLINE
  5
A7
330
1F
100
AcDbEntity
  8
0
  6
Continuous
 62
     1
370
    15
100
AcDbSpline
210
0.0
220
0.0
230
1.0
 70
     8
 71
     3
 72
    16
 73
    12
 74
     0
 42
0.000000001
 43
0.00000001
 40
0.0
 40
0.0
 40
0.0
 40
0.0
 40
0.1102255154082222
 40
0.2203943162466498
 40
0.3305237315449026
 40
0.440631267659866
 40
0.5507345297450298
 40
0.6608511422775974
 40
0.7709986694009634
 40
0.892159807734295
 40
0.9999999999999999
 40
0.9999999999999999
 40
0.9999999999999999
 40
0.9999999999999999
 10
42.86250000000002
 20
0.2720382838870301
 30
0.0
 10
42.43882196324432
 20
0.5141954830756129
 30
0.0
 10
41.5916838856978
 20
0.9983852837920302
 30
0.0
 10
40.32141307559788
 20
1.667927348650781
 30
0.0
 10
39.05167459698431
 20
2.249804012581829
 30
0.0
 10
37.78224102176441
 20
2.71199159172772
 30
0.0
 10
36.51286845682937
 20
3.030018880299556
 30
0.0
 10
35.2433011237861
 20
3.188144332855725
 30
0.0
 10
33.93120611009642
 20
3.17292015872316
 30
0.0
 10
32.62758207581685
 20
2.990740634684517
 30
0.0
 10
31.74738607651952
 20
2.718812775345666
 30
0.0
 10
31.33288845963919
 20
2.590757831049956
 30
0.0
  0
SPLINE
  5
A8
330
1F
100
AcDbEntity
  8
0
  6
Continuous
 62
     1
370
    15
100
AcDbSpline
210
0.0
220
0.0
230
1.0
 70
     8
 71
     3
 72
    13
 73
     9
 74
     0
 42
0.000000001
 43
0.00000001
 40
0.0
 40
0.0
 40
0.0
 40
0.0
 40
0.0938560983247808
 40
0.2750740863236402
 40
0.4562970609443292
 40
0.6375254325177658
 40
0.8187596098284908
 40
1.0
 40
1.0
 40
1.0
 40
1.0
 10
34.6969712859181
 20
-3.154269370102331
 30
0.0
 10
34.45581650604867
 20
-3.156942990997429
 30
0.0
 10
33.74903844986298
 20
-3.164778857158729
 30
0.0
 10
32.57636087927551
 20
-2.968103904965532
 30
0.0
 10
31.17923898384491
 20
-2.576519923453998
 30
0.0
 10
29.78203780946904
 20
-2.010007381115021
 30
0.0
 10
28.3847914595138
 20
-1.319277957199288
 30
0.0
 10
27.45326914197594
 20
-0.7958160121805574
 30
0.0
 10
26.98750000000074
 20
-0.5340805535686046
 30
0.0
  0
LINE
  5
A9
330
1F
100
AcDbEntity
  8
외형선
  6
Continuous
370
    15
100
AcDbLine
 10
26.9875
 20
-0.534080553570806
 30
0.0
 11
26.9875
 21
0.5778117477874415
 31
0.0
  0
LINE
  5
AA
330
1F
100
AcDbEntity
  8
0
  6
Continuous
 62
     1
370
    15
100
AcDbLine
 10
42.8625
 20
-3.174999999999994
 30
0.0
 11
42.8625
 21
-2.875538283886993
 31
0.0
  0
SPLINE
  5
AB
330
1F
100
AcDbEntity
  8
0
  6
Continuous
 62
     1
370
    15
100
AcDbSpline
210
0.0
220
0.0
230
1.0
 70
     8
 71
     3
 72
    12
 73
     8
 74
     0
 42
0.000000001
 43
0.00000001
 40
0.0
 40
0.0
 40
0.0
 40
0.0
 40
0.103036676009957
 40
0.3272663015375919
 40
0.5515030617889597
 40
0.7757474606939163
 40
1.0
 40
1.0
 40
1.0
 40
1.0
 10
36.63138498194899
 20
3.149588662649816
 30
0.0
 10
36.84539289345417
 20
3.155127316175617
 30
0.0
 10
37.52512733763707
 20
3.172719252611064
 30
0.0
 10
38.67061175249414
 20
2.984324266419735
 30
0.0
 10
40.06785477866229
 20
2.603756434030175
 30
0.0
 10
41.46515456463517
 20
2.050905442814031
 30
0.0
 10
42.3967125521601
 20
1.581018023422446
 30
0.0
 10
42.8625
 20
1.34607004940314
 30
0.0
  0
LINE
  5
AC
330
1F
100
AcDbEntity
  8
0
  6
Continuous
 62
     1
370
    15
100
AcDbLine
 10
42.8625
 20
0.27203828388703
 30
0.0
 11
42.8625
 21
1.346070049403139
 31
0.0
  0
SPLINE
  5
AD
330
1F
100
AcDbEntity
  8
0
  6
Continuous
 62
     1
370
    15
100
AcDbSpline
210
0.0
220
0.0
230
1.0
 70
     8
 71
     3
 72
    11
 73
     7
 74
     0
 42
0.000000001
 43
0.00000001
 40
0.0
 40
0.0
 40
0.0
 40
0.0
 40
0.2924204844129839
 40
0.5847008884898262
 40
0.8768873159678406
 40
1.0
 40
1.0
 40
1.0
 40
1.0
 10
26.98749999999998
 20
-3.121979914112006
 30
0.0
 10
27.41111109774424
 20
-3.150803504377177
 30
0.0
 10
28.2581303676919
 20
-3.208436877331005
 30
0.0
 10
29.52825568348146
 20
-3.072388077495883
 30
0.0
 10
30.55309512403606
 20
-2.865366823107534
 30
0.0
 10
31.15458172243295
 20
-2.653549639014568
 30
0.0
 10
31.33288845963914
 20
-2.59075783104996
 30
0.0
  0
SPLINE
  5
AE
330
1F
100
AcDbEntity
  8
외형선
  6
Continuous
370
    15
100
AcDbSpline
210
0.0
220
0.0
230
1.0
 70
    24
 71
     3
 72
    20
 73
    16
 74
     0
 42
0.000000001
 43
0.00000001
 40
0.0
 40
0.0
 40
0.0
 40
0.0
 40
0.0095246269390496
 40
0.0923668744875145
 40
0.1728743983888789
 40
0.2557166459373497
 40
0.336224169838714
 40
0.4190664173871848
 40
0.4995739412885466
 40
0.5824161888370148
 40
0.6629237127383802
 40
0.7457659602868519
 40
0.8262734841880827
 40
0.9091157317366835
 40
1.0
 40
1.0
 40
1.0
 40
1.0
 10
26.98750000000002
 20
-0.327091711171355
 30
0.0
 10
26.98750000000003
 20
-0.3261177251755308
 30
0.0
 10
26.9875
 20
-0.3166723114281362
 30
0.0
 10
26.98749999999995
 20
-0.3502643258018308
 30
0.0
 10
26.98750000000006
 20
-0.4315458419597822
 30
0.0
 10
26.98749999999988
 20
-0.5681720200057337
 30
0.0
 10
26.98750000000009
 20
-0.7519662063035767
 30
0.0
 10
26.98749999999993
 20
-0.9762288318674432
 30
0.0
 10
26.98750000000009
 20
-1.238159355251039
 30
0.0
 10
26.98750000000002
 20
-1.525771709910291
 30
0.0
 10
26.98749999999993
 20
-1.836020986989925
 30
0.0
 10
26.98749999999998
 20
-2.154721224137132
 30
0.0
 10
26.98750000000005
 20
-2.477948578222144
 30
0.0
 10
26.98749999999998
 20
-2.806519434526643
 30
0.0
 10
26.98749999999998
 20
-3.013630607966725
 30
0.0
 10
26.9875
 20
-3.121979914112008
 30
0.0
  0
SPLINE
  5
AF
330
1F
100
AcDbEntity
  8
0
  6
Continuous
 62
     1
370
    15
100
AcDbSpline
210
0.0
220
0.0
230
1.0
 70
     8
 71
     3
 72
    10
 73
     6
 74
     0
 42
0.000000001
 43
0.00000001
 40
0.0
 40
0.0
 40
0.0
 40
0.0
 40
0.4432934560577897
 40
0.8863588233871218
 40
1.0
 40
1.0
 40
1.0
 40
1.0
 10
42.86250000000003
 20
3.175000000000005
 30
0.0
 10
42.43882300994927
 20
3.124089068787215
 30
0.0
 10
41.59168702527406
 20
3.045638937907087
 30
0.0
 10
40.63605685391015
 20
2.828101120007287
 30
0.0
 10
40.10409187274618
 20
2.634466020293543
 30
0.0
 10
39.99550122111089
 20
2.594939054418132
 30
0.0
  0
LINE
  5
B0
330
1F
100
AcDbEntity
  8
0
  6
Continuous
 62
     1
370
    15
100
AcDbLine
 10
42.8625
 20
1.334052108396942
 30
0.0
 11
42.8625
 21
3.175000000000005
 31
0.0
  0
LINE
  5
B1
330
1F
100
AcDbEntity
  8
외형선
  6
Continuous
370
    15
100
AcDbLine
 10
25.9875
 20
-0.0000000000000017
 30
0.0
 11
25.9875
 21
3.174999999999998
 31
0.0
  0
LINE
  5
B2
330
1F
100
AcDbEntity
  8
외형선
  6
Continuous
370
    15
100
AcDbLine
 10
25.9875
 20
-3.175000000000001
 30
0.0
 11
25.9875
 21
-0.0000000000000017
 31
0.0
  0
LINE
  5
B3
330
1F
100
AcDbEntity
  8
외형선
  6
Continuous
370
    15
100
AcDbLine
 10
20.0628693429844
 20
-0.0000000000000017
 30
0.0
 11
20.0628693429844
 21
4.76250000000001
 31
0.0
  0
LINE
  5
B4
330
1F
100
AcDbEntity
  8
외형선
  6
Continuous
370
    15
100
AcDbLine
 10
20.0628693429844
 20
-4.76250000000002
 30
0.0
 11
20.0628693429844
 21
-0.0000000000000017
 31
0.0
  0
SPLINE
  5
B9
330
1F
100
AcDbEntity
  8
외형선
  6
Continuous
370
    15
100
AcDbSpline
210
0.0
220
0.0
230
1.0
 70
     8
 71
     3
 72
     8
 73
     4
 74
     0
 42
0.000000001
 43
0.00000001
 40
0.0
 40
0.0
 40
0.0
 40
0.0
 40
1.0
 40
1.0
 40
1.0
 40
1.0
 10
26.9875
 20
3.129757652327137
 30
0.0
 10
26.82192935944546
 20
3.145915632437175
 30
0.0
 10
26.6549534340491
 20
3.157813377942285
 30
0.0
 10
26.48759797819388
 20
3.165330957737151
 30
0.0
  0
LINE
  5
BA
330
1F
100
AcDbEntity
  8
외형선
  6
Continuous
370
    15
100
AcDbLine
 10
26.4875979781939
 20
0.8589954730381957
 30
0.0
 11
26.48759797819388
 21
3.165331406374291
 31
0.0
  0
SPLINE
  5
BB
330
1F
100
AcDbEntity
  8
외형선
  6
Continuous
370
    15
100
AcDbSpline
210
0.0
220
0.0
230
1.0
 70
     8
 71
     3
 72
     8
 73
     4
 74
     0
 42
0.000000001
 43
0.00000001
 40
0.0
 40
0.0
 40
0.0
 40
0.0
 40
1.0
 40
1.0
 40
1.0
 40
1.0
 10
26.98749999999998
 20
0.5778117477874511
 30
0.0
 10
26.82192935944547
 20
0.6722635847231647
 30
0.0
 10
26.6549534340491
 20
0.7661872092951316
 30
0.0
 10
26.48759797819388
 20
0.858991470617366
 30
0.0
  0
SPLINE
  5
BC
330
1F
100
AcDbEntity
  8
외형선
  6
Continuous
370
    15
100
AcDbSpline
210
0.0
220
0.0
230
1.0
 70
     8
 71
     3
 72
     8
 73
     4
 74
     0
 42
0.000000001
 43
0.00000001
 40
0.0
 40
0.0
 40
0.0
 40
0.0
 40
1.0
 40
1.0
 40
1.0
 40
1.0
 10
26.9875
 20
-0.5340805535681857
 30
0.0
 10
26.82192935944546
 20
-0.4393934102942371
 30
0.0
 10
26.6549534340491
 20
-0.343704093369892
 30
0.0
 10
26.48759797819388
 20
-0.2475983198464485
 30
0.0
  0
LINE
  5
BD
330
1F
100
AcDbEntity
  8
외형선
  6
Continuous
370
    15
100
AcDbLine
 10
26.4875979781939
 20
-3.056591529350932
 30
0.0
 11
26.48759797819388
 21
-0.2475925843407596
 31
0.0
  0
SPLINE
  5
BE
330
1F
100
AcDbEntity
  8
외형선
  6
Continuous
370
    15
100
AcDbSpline
210
0.0
220
0.0
230
1.0
 70
     8
 71
     3
 72
     8
 73
     4
 74
     0
 42
0.000000001
 43
0.00000001
 40
0.0
 40
0.0
 40
0.0
 40
0.0
 40
1.0
 40
1.0
 40
1.0
 40
1.0
 10
26.98749999999998
 20
-3.121979914112004
 30
0.0
 10
26.82192935944547
 20
-3.104498898063545
 30
0.0
 10
26.6549534340491
 20
-3.082673351820306
 30
0.0
 10
26.48759797819388
 20
-3.056592654150467
 30
0.0
  0
SPLINE
  5
BF
330
1F
100
AcDbEntity
  8
외형선
  6
Continuous
370
    15
100
AcDbSpline
210
0.0
220
0.0
230
1.0
 70
    24
 71
     3
 72
    14
 73
    10
 74
     0
 42
0.000000001
 43
0.00000001
 40
0.0
 40
0.0
 40
0.0
 40
0.0
 40
0.1525405623596913
 40
0.3157722202751918
 40
0.4790038781908638
 40
0.6422355361064551
 40
0.8054671940220423
 40
0.9686988519376183
 40
1.0
 40
1.0
 40
1.0
 40
1.0
 10
26.9875
 20
-3.121979914112007
 30
0.0
 10
26.98749999999999
 20
-2.936648665007743
 30
0.0
 10
26.98749999999998
 20
-2.552996873571234
 30
0.0
 10
26.9875000000001
 20
-1.90945168490539
 30
0.0
 10
26.98749999999991
 20
-1.296080051059176
 30
0.0
 10
26.98749999999998
 20
-0.780983363749122
 30
0.0
 10
26.98749999999996
 20
-0.4484543292785699
 30
0.0
 10
26.98750000000006
 20
-0.3009241542836039
 30
0.0
 10
26.98750000000002
 20
-0.3355103476565604
 30
0.0
 10
26.98750000000003
 20
-0.3410754118843584
 30
0.0
  0
SPLINE
  5
C0
330
1F
100
AcDbEntity
  8
외형선
  6
Continuous
370
    15
100
AcDbSpline
210
0.0
220
0.0
230
1.0
 70
    24
 71
     3
 72
    14
 73
    10
 74
     0
 42
0.000000001
 43
0.00000001
 40
0.0
 40
0.0
 40
0.0
 40
0.0
 40
0.0891069298210111
 40
0.2525356048552093
 40
0.4159642798893267
 40
0.5793929549234399
 40
0.742821629957542
 40
0.906250304991663
 40
1.0
 40
1.0
 40
1.0
 40
1.0
 10
26.98750000000003
 20
0.3828801052333271
 30
0.0
 10
26.98750000000003
 20
0.3764450393243294
 30
0.0
 10
26.98750000000005
 20
0.3582075883777401
 30
0.0
 10
26.98749999999988
 20
0.5654185785784855
 30
0.0
 10
26.98750000000002
 20
0.9622844938601377
 30
0.0
 10
26.98749999999995
 20
1.516264309032826
 30
0.0
 10
26.98750000000005
 20
2.14977110789921
 30
0.0
 10
26.98750000000006
 20
2.709885522668485
 30
0.0
 10
26.98750000000002
 20
3.017589695363398
 30
0.0
 10
26.98749999999998
 20
3.12975765232719
 30
0.0
  0
LINE
  5
C1
330
1F
100
AcDbEntity
  8
중심선
 48
0.8
100
AcDbLine
 10
-45.8625
 20
-0.0000000000000056
 30
0.0
 11
45.8625
 21
0.0000000000000056
 31
0.0
  0
LINE
  5
C2
330
1F
100
AcDbEntity
  8
참조1
100
AcDbLine
 10
3.368380657015613
 20
0.0010749287238892
 30
0.0
 11
3.368380657015616
 21
-39.99892507127611
 31
0.0
  0
LINE
  5
C3
330
1F
100
AcDbEntity
  8
참조1
100
AcDbLine
 10
3.368380657015616
 20
-39.99892507127611
 30
0.0
 11
-29.25297615729306
 21
-39.9989250712761
 31
0.0
  0
CIRCLE
  5
C4
330
1F
100
AcDbEntity
  8
해칭선
100
AcDbCircle
 10
0.0
 20
0.0
 30
0.0
 40
3.000000000000008
  0
INSERT
  5
C5
330
1F
100
AcDbEntity
  8
0
  6
Continuous
 62
     7
100
AcDbBlockReference
 66
     1
  2
블럭10
 10
-13.9402729321252
 20
-52.04717430164393
 30
0.0
  0
ATTRIB
  5
C6
330
C5
100
AcDbEntity
  8
FORMAT
 62
     2
100
AcDbText
 10
-23.12156822086648
 20
-49.97180738881174
 30
0.0
 40
4.233333333333333
  1
E2053016 [ 4 FLUTE ]
 41
0.75
  7
SLDTEXTSTYLE0
 11
-23.12156822086648
 21
-52.08847405547841
 31
0.0
100
AcDbAttribute
  2
AUTOATTR0
 70
     0
 74
     1
  0
SEQEND
  5
C7
330
C5
100
AcDbEntity
  8
0
  6
Continuous
 62
     7
  0
HATCH
  5
C8
330
1F
100
AcDbEntity
  8
중심선
100
AcDbHatch
 10
0.0
 20
0.0
 30
0.0
210
0.0
220
0.0
230
1.0
  2
SOLID
 70
     1
 71
     0
 91
        1
 92
        0
 93
        4
 72
     1
 10
-8.225363627744365
 20
-35.8
 11
-11.67163887158165
 21
-35.8
 72
     1
 10
-11.67163887158165
 20
-35.8
 11
-13.79986873078567
 21
-38.33632558057257
 72
     1
 10
-13.79986873078567
 20
-38.33632558057257
 11
-10.35356040183524
 21
-38.33628615127008
 72
     1
 10
-10.35356040183524
 20
-38.33628615127008
 11
-8.225363627744365
 21
-35.8
 97
        0
 75
     0
 76
     1
 98
        1
 10
-3.368380657015607
 20
-0.0010749287238949
  0
HATCH
  5
C9
330
1F
100
AcDbEntity
  8
중심선
100
AcDbHatch
 10
0.0
 20
0.0
 30
0.0
210
0.0
220
0.0
230
1.0
  2
SOLID
 70
     1
 71
     0
 91
        1
 92
        0
 93
        4
 72
     1
 10
-3.212599636708385
 20
-35.8
 11
-6.658874880545695
 21
-35.8
 72
     1
 10
-6.658874880545695
 20
-35.8
 11
-11.19001288890308
 21
-41.20000000000002
 72
     1
 10
-11.19001288890308
 20
-41.20000000000002
 11
-7.743737645065802
 21
-41.20000000000002
 72
     1
 10
-7.743737645065801
 20
-41.20000000000002
 11
-3.212599636708385
 21
-35.8
 97
        0
 75
     0
 76
     1
 98
        1
 10
-3.368380657015607
 20
-0.0010749287238949
  0
HATCH
  5
CA
330
1F
100
AcDbEntity
  8
중심선
100
AcDbHatch
 10
0.0
 20
0.0
 30
0.0
210
0.0
220
0.0
230
1.0
  2
SOLID
 70
     1
 71
     0
 91
        1
 92
        0
 93
        4
 72
     1
 10
1.800164354327511
 20
-35.79999999999998
 11
-1.646110889509577
 21
-35.79999999999998
 72
     1
 10
-1.646110889509577
 20
-35.79999999999998
 11
-8.69454779139888
 21
-44.20000000000002
 72
     1
 10
-8.694547791398882
 20
-44.20000000000002
 11
-5.2482725475616
 21
-44.20000000000002
 72
     1
 10
-5.2482725475616
 20
-44.20000000000002
 11
1.80016435432751
 21
-35.79999999999998
 97
        0
 75
     0
 76
     1
 98
        1
 10
-3.368380657015607
 20
-0.0010749287238949
  0
HATCH
  5
CB
330
1F
100
AcDbEntity
  8
중심선
100
AcDbHatch
 10
0.0
 20
0.0
 30
0.0
210
0.0
220
0.0
230
1.0
  2
SOLID
 70
     1
 71
     0
 91
        1
 92
        0
 93
        6
 72
     3
 10
6.600054785339683
 20
-40.00000000005127
 11
3.960054785062283
 21
1.540882976769353E-10
 40
0.3939339440162628
 50
17.09539180608436
 51
320.0019657685078
 73
     0
 72
     1
 10
8.283054441040278
 20
-38.5878940046383
 11
10.58835631474134
 21
-36.65356729459038
 72
     3
 10
6.600054785286837
 20
-40.00000000000015
 11
6.600054785286829
 21
-1.278976924368180E-13
 40
0.636358354079598
 50
39.99873849337385
 51
368.4976242363724
 73
     1
 72
     1
 10
13.02538727718744
 20
-39.03999999993002
 11
5.280122092122758
 21
-39.03999999993002
 72
     1
 10
5.280122092122758
 20
-39.03999999993002
 11
5.280097047676824
 21
-40.95999999992991
 72
     1
 10
5.280097047676824
 20
-40.95999999992991
 11
9.721476817148861
 21
-40.95999999992988
 97
        0
 75
     0
 76
     1
 98
        1
 10
-3.368380657015607
 20
-0.0010749287238949
  0
DIMENSION
  5
CC
330
1F
100
AcDbEntity
  8
치수문자_일반주서
100
AcDbDimension
  2
_D
 10
56.48507568370062
 20
-3.174999999999947
 30
0.0
 11
56.4850756837005
 21
32.98040460849538
 31
0.0
 70
   160
  1
%%c<>
 71
     2
 42
6.35
 52
-270.0
  3
SLDDIMSTYLE0
100
AcDbAlignedDimension
 13
42.86250000000003
 23
3.175000000000005
 33
0.0
 14
42.8625
 24
-3.174999999999994
 34
0.0
 50
90.0000000000002
100
AcDbRotatedDimension
1001
ACAD
1000
DSTYLE
1002
{
1070
   171
1070
     6
1070
   273
1070
     7
1002
}
  0
DIMENSION
  5
E1
330
1F
100
AcDbEntity
  8
치수문자_일반주서
100
AcDbDimension
  2
_D_1
 10
26.98750000000002
 20
17.79388085582886
 30
0.0
 11
5.54703618060725
 21
17.79388085582886
 31
0.0
 70
   160
  1
<>
 71
     2
 42
15.87499999999998
  3
SLDDIMSTYLE0
100
AcDbAlignedDimension
 13
42.8625
 23
3.175000000000005
 33
0.0
 14
26.98750000000002
 24
3.121979914112002
 34
0.0
 50
0.0000000000000256
100
AcDbRotatedDimension
1001
ACAD
1000
DSTYLE
1002
{
1070
   171
1070
     6
1070
   273
1070
     7
1002
}
  0
DIMENSION
  5
F6
330
1F
100
AcDbEntity
  8
치수문자_일반주서
100
AcDbDimension
  2
_D_2
 10
-42.8625
 20
33.80205829723805
 30
0.0
 11
1.079637824865145
 21
33.80205829723805
 31
0.0
 70
   160
  1
<>
 71
     2
 42
85.725
  3
SLDDIMSTYLE0
100
AcDbAlignedDimension
 13
42.8625
 23
3.175000000000005
 33
0.0
 14
-42.8625
 24
3.175000000000005
 34
0.0
100
AcDbRotatedDimension
1001
ACAD
1000
DSTYLE
1002
{
1070
   171
1070
     6
1070
   273
1070
     7
1002
}
  0
DIMENSION
  5
109
330
1F
100
AcDbEntity
  8
치수문자_일반주서
100
AcDbDimension
  2
_D_3
 10
-55.38624999999998
 20
-4.762500000000137
 30
0.0
 11
-55.38625
 21
0.0000000000000009
 31
0.0
 70
   160
  1
%%c<>
 71
     2
 42
9.525000000000023
 52
-270.0
  3
SLDDIMSTYLE0
100
AcDbAlignedDimension
 13
-20.0628693429844
 23
4.762500000000017
 33
0.0
 14
-20.06286934298439
 24
-4.762500000000006
 34
0.0
 50
90.0000000000002
100
AcDbRotatedDimension
1001
ACAD
1000
DSTYLE
1002
{
1070
   171
1070
     6
1070
   273
1070
     7
1002
}
  0
LINE
  5
11D
330
1F
100
AcDbEntity
  8
참조1
100
AcDbLine
 10
68.7193644723612
 20
7.441074928723896
 30
0.0
 11
68.7193644723612
 21
-7.438925071276109
 31
0.0
  0
LINE
  5
11E
330
1F
100
AcDbEntity
  8
참조1
100
AcDbLine
 10
81.41936447236121
 20
5.441074928723896
 30
0.0
 11
68.7193644723612
 21
5.441074928723896
 31
0.0
  0
SOLID
  5
11F
330
1F
100
AcDbEntity
  8
참조1
100
AcDbTrace
 10
68.7193644723612
 20
5.441074928723896
 30
0.0
 11
75.0693644723612
 21
4.425074928723896
 31
0.0
 12
75.0693644723612
 22
6.457074928723896
 32
0.0
 13
75.0693644723612
 23
6.457074928723896
 33
0.0
  0
LINE
  5
120
330
1F
100
AcDbEntity
  8
참조1
100
AcDbLine
 10
81.41936447236121
 20
-5.438925071276109
 30
0.0
 11
68.7193644723612
 21
-5.438925071276109
 31
0.0
  0
SOLID
  5
121
330
1F
100
AcDbEntity
  8
참조1
100
AcDbTrace
 10
68.7193644723612
 20
-5.438925071276109
 30
0.0
 11
75.0693644723612
 21
-6.454925071276109
 31
0.0
 12
75.0693644723612
 22
-4.422925071276109
 32
0.0
 13
75.0693644723612
 23
-4.422925071276109
 33
0.0
  0
MTEXT
  5
122
330
1F
100
AcDbEntity
  8
참조1
100
AcDbMText
 10
78.1037146049872
 20
11.01136670591223
 30
0.0
 40
3.5
 41
0.0
 71
     1
 72
     1
  1
A
  7
SLDTEXTSTYLE0
 73
     1
 44
1.0
  0
MTEXT
  5
123
330
1F
100
AcDbEntity
  8
참조1
100
AcDbMText
 10
78.1037146049872
 20
0.1313667059122219
 30
0.0
 40
3.5
 41
0.0
 71
     1
 72
     1
  1
A
  7
SLDTEXTSTYLE0
 73
     1
 44
1.0
  0
INSERT
  5
12A
330
1F
100
AcDbEntity
  8
해칭선
100
AcDbBlockReference
  2
SW_DOWELSYMBOL_0
 10
0.0
 20
0.0
 30
0.0
  0
LINE
  5
317
330
1F
100
AcDbEntity
  8
0
  6
Continuous
 62
     1
370
    15
100
AcDbLine
 10
-34.69697128591811
 20
3.175000000000012
 30
0.0
 11
-36.63138498194898
 21
3.175000000000012
 31
0.0
  0
LINE
  5
318
330
1F
100
AcDbEntity
  8
0
  6
Continuous
 62
     1
370
    15
100
AcDbLine
 10
-27.99486473814032
 20
-3.17499999999999
 30
0.0
 11
-26.9875
 21
-3.17499999999999
 31
0.0
  0
LINE
  5
319
330
1F
100
AcDbEntity
  8
0
  6
Continuous
 62
     1
370
    15
100
AcDbLine
 10
-36.63138498194898
 20
-3.17499999999999
 30
0.0
 11
-34.69697128591814
 21
-3.17499999999999
 31
0.0
  0
LINE
  5
31A
330
1F
100
AcDbEntity
  8
0
  6
Continuous
 62
     1
370
    15
100
AcDbLine
 10
-26.9875
 20
3.175000000000012
 30
0.0
 11
-27.99486473814027
 21
3.175000000000012
 31
0.0
  0
LINE
  5
31B
330
1F
100
AcDbEntity
  8
외형선
  6
Continuous
370
    15
100
AcDbLine
 10
-20.0628693429844
 20
4.762500000000017
 30
0.0
 11
-25.9875
 21
3.175000000000012
 31
0.0
  0
LINE
  5
31C
330
1F
100
AcDbEntity
  8
외형선
  6
Continuous
370
    15
100
AcDbLine
 10
-25.9875
 20
-3.17499999999999
 30
0.0
 11
-20.0628693429844
 21
-4.762500000000003
 31
0.0
  0
LINE
  5
31F
330
1F
100
AcDbEntity
  8
외형선
  6
Continuous
370
    15
100
AcDbLine
 10
-25.9875
 20
3.175000000000012
 30
0.0
 11
-26.9875
 21
3.175000000000012
 31
0.0
  0
LINE
  5
320
330
1F
100
AcDbEntity
  8
외형선
  6
Continuous
370
    15
100
AcDbLine
 10
-26.9875
 20
-3.17499999999999
 30
0.0
 11
-25.9875
 21
-3.17499999999999
 31
0.0
  0
SPLINE
  5
321
330
1F
100
AcDbEntity
  8
0
  6
Continuous
 62
     1
370
    15
100
AcDbSpline
210
0.0
220
0.0
230
1.0
 70
     8
 71
     3
 72
    17
 73
    13
 74
     0
 42
0.000000001
 43
0.00000001
 40
0.0
 40
0.0
 40
0.0
 40
0.0
 40
0.0976865955834842
 40
0.1953263956383554
 40
0.2929348016750454
 40
0.3905273566657232
 40
0.4881196751896661
 40
0.5857273728953126
 40
0.6833659959521072
 40
0.7907609022685119
 40
0.8981589835234572
 40
1.0
 40
1.0
 40
1.0
 40
1.0
 10
-26.9875
 20
-0.5778117477874428
 30
0.0
 10
-27.4111110220034
 20
-0.3344676777991109
 30
0.0
 10
-28.2581301405056
 20
0.1521038912772926
 30
0.0
 10
-29.52825659159724
 20
0.8822475843961829
 30
0.0
 10
-30.79790493012477
 20
1.563235807184562
 30
0.0
 10
-32.0673035657786
 20
2.161769162211919
 30
0.0
 10
-33.33669724501429
 20
2.645445539099079
 30
0.0
 10
-34.60633834602193
 20
2.988513788345202
 30
0.0
 10
-35.91853297472038
 20
3.17992729538802
 30
0.0
 10
-37.27343375481514
 20
3.185179156451618
 30
0.0
 10
-38.64649530147499
 20
3.002986611197287
 30
0.0
 10
-39.55386536007764
 20
2.728525150266649
 30
0.0
 10
-39.99550122111087
 20
2.594939054418142
 30
0.0
  0
SPLINE
  5
322
330
1F
100
AcDbEntity
  8
외형선
  6
Continuous
370
    15
100
AcDbSpline
210
0.0
220
0.0
230
1.0
 70
    24
 71
     3
 72
    14
 73
    10
 74
     0
 42
0.000000001
 43
0.00000001
 40
0.0
 40
0.0
 40
0.0
 40
0.0
 40
0.1548857513506806
 40
0.3179817618701575
 40
0.4810777723896463
 40
0.6441737829091346
 40
0.8072697934286182
 40
0.9703658039481089
 40
1.0
 40
1.0
 40
1.0
 40
1.0
 10
-26.9875
 20
-3.129757652332244
 30
0.0
 10
-26.9875
 20
-2.940173503206153
 30
0.0
 10
-26.98749999999994
 20
-2.550955636255444
 30
0.0
 10
-26.9875
 20
-1.904280090967162
 30
0.0
 10
-26.98749999999994
 20
-1.295087690024225
 30
0.0
 10
-26.9875
 20
-0.7877868096332815
 30
0.0
 10
-26.98750000000008
 20
-0.4661143971531058
 30
0.0
 10
-26.9875
 20
-0.3274759012970773
 30
0.0
 10
-26.9875
 20
-0.3662903059366795
 30
0.0
 10
-26.9875
 20
-0.3722584086912517
 30
0.0
  0
SPLINE
  5
323
330
1F
100
AcDbEntity
  8
0
  6
Continuous
 62
     1
370
    15
100
AcDbSpline
210
0.0
220
0.0
230
1.0
 70
     8
 71
     3
 72
    46
 73
    42
 74
     0
 42
0.000000001
 43
0.00000001
 40
0.0
 40
0.0
 40
0.0
 40
0.0
 40
0.0624999999999985
 40
0.0624999999999985
 40
0.124999999999997
 40
0.124999999999997
 40
0.1874999999999955
 40
0.1874999999999955
 40
0.249999999999994
 40
0.249999999999994
 40
0.3124999999999925
 40
0.3124999999999925
 40
0.3437499999999927
 40
0.3437499999999927
 40
0.374999999999993
 40
0.374999999999993
 40
0.4374999999999954
 40
0.4374999999999954
 40
0.4687499999999957
 40
0.4687499999999957
 40
0.4999999999999959
 40
0.4999999999999959
 40
0.5312499999999961
 40
0.5312499999999961
 40
0.5624999999999963
 40
0.5624999999999963
 40
0.6249999999999969
 40
0.6249999999999969
 40
0.6562499999999971
 40
0.6562499999999971
 40
0.6874999999999973
 40
0.6874999999999973
 40
0.7499999999999979
 40
0.7499999999999979
 40
0.8124999999999983
 40
0.8124999999999983
 40
0.8749999999999989
 40
0.8749999999999989
 40
0.9374999999999993
 40
0.9374999999999993
 40
1.0
 40
1.0
 40
1.0
 40
1.0
 10
-42.86250000000003
 20
3.175000000000005
 30
0.0
 10
-42.5345939870388
 20
3.147010037886489
 30
0.0
 10
-42.2008357442261
 20
3.113395008769026
 30
0.0
 10
-41.53774741028103
 20
3.012820879773287
 30
0.0
 10
-41.21069769889134
 20
2.946173707424805
 30
0.0
 10
-40.5468916502641
 20
2.781038285192779
 30
0.0
 10
-40.21552275560144
 20
2.682884440317196
 30
0.0
 10
-39.55758124085098
 20
2.459208120162956
 30
0.0
 10
-39.22353627549727
 20
2.332786585723341
 30
0.0
 10
-38.56147598062249
 20
2.056742428772126
 30
0.0
 10
-38.23390448085247
 20
1.907315986198917
 30
0.0
 10
-37.73574524354858
 20
1.667858551223248
 30
0.0
 10
-37.56953333909995
 20
1.58563242219114
 30
0.0
 10
-37.23881814578995
 20
1.417388058334631
 30
0.0
 10
-37.07525538525321
 20
1.331541003324993
 30
0.0
 10
-36.58042887119954
 20
1.068233523494229
 30
0.0
 10
-36.24625624090662
 20
0.8851515435202163
 30
0.0
 10
-35.75071358838242
 20
0.6058577925215406
 30
0.0
 10
-35.58724071326331
 20
0.5121367259319459
 30
0.0
 10
-35.25695671434646
 20
0.3229307188306339
 30
0.0
 10
-35.09084181674227
 20
0.2275752126397353
 30
0.0
 10
-34.75868856613594
 20
0.0365178959395539
 30
0.0
 10
-34.59265296741255
 20
-0.0591823297844411
 30
0.0
 10
-34.26268295724161
 20
-0.2497595606154729
 30
0.0
 10
-34.09915096714063
 20
-0.3445606864272148
 30
0.0
 10
-33.60318293888473
 20
-0.6282080604928947
 30
0.0
 10
-33.26904190548343
 20
-0.815561181503838
 30
0.0
 10
-32.7747317988257
 20
-1.087181882644032
 30
0.0
 10
-32.61099171626101
 20
-1.176189817873023
 30
0.0
 10
-32.28002345446104
 20
-1.35140220292817
 30
0.0
 10
-32.1137632768985
 20
-1.437426610165161
 30
0.0
 10
-31.61569693525654
 20
-1.689161053214228
 30
0.0
 10
-31.28839485796253
 20
-1.847933471671084
 30
0.0
 10
-30.62588965406873
 20
-2.145037169700771
 30
0.0
 10
-30.2919394288344
 20
-2.283052091878992
 30
0.0
 10
-29.63480676392048
 20
-2.531515403128338
 30
0.0
 10
-29.3025513656177
 20
-2.643133837950912
 30
0.0
 10
-28.63899284478457
 20
-2.836334130547484
 30
0.0
 10
-28.31200559335495
 20
-2.917627999205151
 30
0.0
 10
-27.64859530336564
 20
-3.04852173559216
 30
0.0
 10
-27.31584642913462
 20
-3.097714440720324
 30
0.0
 10
-26.98750000000074
 20
-3.129757652327057
 30
0.0
  0
LINE
  5
324
330
1F
100
AcDbEntity
  8
0
  6
Continuous
 62
     1
370
    15
100
AcDbLine
 10
-42.8625
 20
2.875538283886997
 30
0.0
 11
-42.8625
 21
-0.2720382838870205
 31
0.0
  0
SPLINE
  5
325
330
1F
100
AcDbEntity
  8
0
  6
Continuous
 62
     1
370
    15
100
AcDbSpline
210
0.0
220
0.0
230
1.0
 70
     8
 71
     3
 72
    19
 73
    15
 74
     0
 42
0.000000001
 43
0.00000001
 40
0.0
 40
0.0
 40
0.0
 40
0.0
 40
0.0177180551209616
 40
0.1031467799041296
 40
0.1885480368828005
 40
0.2739354251865403
 40
0.3593226065966609
 40
0.4447232438299234
 40
0.53015093881331
 40
0.6241147721032425
 40
0.7180813832660372
 40
0.812050984336205
 40
0.906023786492714
 40
1.0
 40
1.0
 40
1.0
 40
1.0
 10
-27.99486473814032
 20
-3.161111924696115
 30
0.0
 10
-28.08267904600113
 20
-3.165415072308817
 30
0.0
 10
-28.59389560016091
 20
-3.190466118638212
 30
0.0
 10
-29.52825116318043
 20
-3.070488491492675
 30
0.0
 10
-30.79790638429061
 20
-2.798391973858805
 30
0.0
 10
-32.06730317584116
 20
-2.363288521046257
 30
0.0
 10
-33.33669735072782
 20
-1.806606266743415
 30
0.0
 10
-34.60633831315583
 20
-1.152924963649397
 30
0.0
 10
-35.9185330023855
 20
-0.4145667935817838
 30
0.0
 10
-37.27343367218621
 20
0.3737599036818725
 30
0.0
 10
-38.67060824830183
 20
1.163596758974137
 30
0.0
 10
-40.06785571316054
 20
1.875212850375064
 30
0.0
 10
-41.46515433099741
 20
2.479703937500738
 30
0.0
 10
-42.39671247427991
 20
2.743591905200404
 30
0.0
 10
-42.8625
 20
2.875538283886997
 30
0.0
  0
SPLINE
  5
326
330
1F
100
AcDbEntity
  8
0
  6
Continuous
 62
     1
370
    15
100
AcDbSpline
210
0.0
220
0.0
230
1.0
 70
     8
 71
     3
 72
    16
 73
    12
 74
     0
 42
0.000000001
 43
0.00000001
 40
0.0
 40
0.0
 40
0.0
 40
0.0
 40
0.1102255154082222
 40
0.2203943162466498
 40
0.3305237315449026
 40
0.440631267659866
 40
0.5507345297450298
 40
0.6608511422775974
 40
0.7709986694009634
 40
0.892159807734295
 40
0.9999999999999999
 40
0.9999999999999999
 40
0.9999999999999999
 40
0.9999999999999999
 10
-42.86250000000005
 20
-0.2720382838870205
 30
0.0
 10
-42.43882196324434
 20
-0.5141954830756031
 30
0.0
 10
-41.5916838856978
 20
-0.998385283792025
 30
0.0
 10
-40.32141307559787
 20
-1.667927348650778
 30
0.0
 10
-39.05167459698434
 20
-2.249804012581819
 30
0.0
 10
-37.78224102176442
 20
-2.711991591727709
 30
0.0
 10
-36.51286845682937
 20
-3.03001888029955
 30
0.0
 10
-35.24330112378611
 20
-3.188144332855714
 30
0.0
 10
-33.93120611009645
 20
-3.172920158723151
 30
0.0
 10
-32.62758207581685
 20
-2.990740634684513
 30
0.0
 10
-31.74738607651953
 20
-2.718812775345654
 30
0.0
 10
-31.33288845963919
 20
-2.590757831049948
 30
0.0
  0
SPLINE
  5
327
330
1F
100
AcDbEntity
  8
0
  6
Continuous
 62
     1
370
    15
100
AcDbSpline
210
0.0
220
0.0
230
1.0
 70
     8
 71
     3
 72
    13
 73
     9
 74
     0
 42
0.000000001
 43
0.00000001
 40
0.0
 40
0.0
 40
0.0
 40
0.0
 40
0.0938560983247808
 40
0.2750740863236402
 40
0.4562970609443292
 40
0.6375254325177658
 40
0.8187596098284908
 40
1.0
 40
1.0
 40
1.0
 40
1.0
 10
-34.69697128591811
 20
3.154269370102341
 30
0.0
 10
-34.45581650604866
 20
3.156942990997436
 30
0.0
 10
-33.74903844986299
 20
3.164778857158737
 30
0.0
 10
-32.5763608792755
 20
2.968103904965539
 30
0.0
 10
-31.17923898384491
 20
2.576519923454008
 30
0.0
 10
-29.78203780946903
 20
2.010007381115031
 30
0.0
 10
-28.38479145951383
 20
1.319277957199297
 30
0.0
 10
-27.45326914197595
 20
0.7958160121805665
 30
0.0
 10
-26.98750000000074
 20
0.5340805535686147
 30
0.0
  0
LINE
  5
328
330
1F
100
AcDbEntity
  8
외형선
  6
Continuous
370
    15
100
AcDbLine
 10
-26.9875
 20
0.5340805535708174
 30
0.0
 11
-26.9875
 21
-0.5778117477874357
 31
0.0
  0
LINE
  5
329
330
1F
100
AcDbEntity
  8
0
  6
Continuous
 62
     1
370
    15
100
AcDbLine
 10
-42.8625
 20
3.175000000000005
 30
0.0
 11
-42.8625
 21
2.875538283886997
 31
0.0
  0
SPLINE
  5
32A
330
1F
100
AcDbEntity
  8
0
  6
Continuous
 62
     1
370
    15
100
AcDbSpline
210
0.0
220
0.0
230
1.0
 70
     8
 71
     3
 72
    12
 73
     8
 74
     0
 42
0.000000001
 43
0.00000001
 40
0.0
 40
0.0
 40
0.0
 40
0.0
 40
0.103036676009957
 40
0.3272663015375919
 40
0.5515030617889597
 40
0.7757474606939163
 40
1.0
 40
1.0
 40
1.0
 40
1.0
 10
-36.63138498194898
 20
-3.149588662649804
 30
0.0
 10
-36.84539289345416
 20
-3.155127316175608
 30
0.0
 10
-37.5251273376371
 20
-3.172719252611059
 30
0.0
 10
-38.67061175249414
 20
-2.984324266419726
 30
0.0
 10
-40.06785477866229
 20
-2.603756434030167
 30
0.0
 10
-41.4651545646352
 20
-2.050905442814027
 30
0.0
 10
-42.39671255216011
 20
-1.581018023422437
 30
0.0
 10
-42.8625
 20
-1.346070049403131
 30
0.0
  0
LINE
  5
32B
330
1F
100
AcDbEntity
  8
0
  6
Continuous
 62
     1
370
    15
100
AcDbLine
 10
-42.8625
 20
-0.2720382838870205
 30
0.0
 11
-42.8625
 21
-1.346070049403131
 31
0.0
  0
SPLINE
  5
32C
330
1F
100
AcDbEntity
  8
0
  6
Continuous
 62
     1
370
    15
100
AcDbSpline
210
0.0
220
0.0
230
1.0
 70
     8
 71
     3
 72
    11
 73
     7
 74
     0
 42
0.000000001
 43
0.00000001
 40
0.0
 40
0.0
 40
0.0
 40
0.0
 40
0.2924204844129839
 40
0.5847008884898262
 40
0.8768873159678406
 40
1.0
 40
1.0
 40
1.0
 40
1.0
 10
-26.9875
 20
3.121979914112018
 30
0.0
 10
-27.41111109774424
 20
3.150803504377187
 30
0.0
 10
-28.25813036769192
 20
3.208436877331011
 30
0.0
 10
-29.52825568348148
 20
3.072388077495888
 30
0.0
 10
-30.55309512403606
 20
2.865366823107543
 30
0.0
 10
-31.15458172243295
 20
2.653549639014579
 30
0.0
 10
-31.33288845963914
 20
2.590757831049971
 30
0.0
  0
SPLINE
  5
32D
330
1F
100
AcDbEntity
  8
외형선
  6
Continuous
370
    15
100
AcDbSpline
210
0.0
220
0.0
230
1.0
 70
    24
 71
     3
 72
    20
 73
    16
 74
     0
 42
0.000000001
 43
0.00000001
 40
0.0
 40
0.0
 40
0.0
 40
0.0
 40
0.0095246269390496
 40
0.0923668744875145
 40
0.1728743983888789
 40
0.2557166459373497
 40
0.336224169838714
 40
0.4190664173871848
 40
0.4995739412885466
 40
0.5824161888370148
 40
0.6629237127383802
 40
0.7457659602868519
 40
0.8262734841880827
 40
0.9091157317366835
 40
1.0
 40
1.0
 40
1.0
 40
1.0
 10
-26.98750000000005
 20
0.3270917111713632
 30
0.0
 10
-26.98750000000005
 20
0.3261177251755359
 30
0.0
 10
-26.9875
 20
0.3166723114281427
 30
0.0
 10
-26.98749999999994
 20
0.3502643258018384
 30
0.0
 10
-26.98750000000005
 20
0.4315458419597891
 30
0.0
 10
-26.98749999999988
 20
0.5681720200057402
 30
0.0
 10
-26.98750000000011
 20
0.7519662063035856
 30
0.0
 10
-26.98749999999994
 20
0.9762288318674525
 30
0.0
 10
-26.98750000000011
 20
1.238159355251043
 30
0.0
 10
-26.98750000000005
 20
1.525771709910302
 30
0.0
 10
-26.98749999999994
 20
1.836020986989937
 30
0.0
 10
-26.9875
 20
2.154721224137142
 30
0.0
 10
-26.98750000000005
 20
2.477948578222155
 30
0.0
 10
-26.9875
 20
2.80651943452665
 30
0.0
 10
-26.9875
 20
3.013630607966733
 30
0.0
 10
-26.9875
 20
3.121979914112018
 30
0.0
  0
SPLINE
  5
32E
330
1F
100
AcDbEntity
  8
0
  6
Continuous
 62
     1
370
    15
100
AcDbSpline
210
0.0
220
0.0
230
1.0
 70
     8
 71
     3
 72
    10
 73
     6
 74
     0
 42
0.000000001
 43
0.00000001
 40
0.0
 40
0.0
 40
0.0
 40
0.0
 40
0.4432934560577897
 40
0.8863588233871218
 40
1.0
 40
1.0
 40
1.0
 40
1.0
 10
-42.86250000000005
 20
-3.174999999999997
 30
0.0
 10
-42.4388230099493
 20
-3.124089068787206
 30
0.0
 10
-41.59168702527408
 20
-3.045638937907078
 30
0.0
 10
-40.63605685391018
 20
-2.828101120007275
 30
0.0
 10
-40.1040918727462
 20
-2.634466020293537
 30
0.0
 10
-39.9955012211109
 20
-2.594939054418127
 30
0.0
  0
LINE
  5
32F
330
1F
100
AcDbEntity
  8
0
  6
Continuous
 62
     1
370
    15
100
AcDbLine
 10
-42.8625
 20
-1.334052108396932
 30
0.0
 11
-42.8625
 21
-3.174999999999997
 31
0.0
  0
LINE
  5
330
330
1F
100
AcDbEntity
  8
외형선
  6
Continuous
370
    15
100
AcDbLine
 10
-25.9875
 20
0.0000000000000074
 30
0.0
 11
-25.9875
 21
-3.17499999999999
 31
0.0
  0
LINE
  5
331
330
1F
100
AcDbEntity
  8
외형선
  6
Continuous
370
    15
100
AcDbLine
 10
-25.9875
 20
3.175000000000012
 30
0.0
 11
-25.9875
 21
0.0000000000000074
 31
0.0
  0
LINE
  5
332
330
1F
100
AcDbEntity
  8
외형선
  6
Continuous
370
    15
100
AcDbLine
 10
-20.0628693429844
 20
0.0000000000000074
 30
0.0
 11
-20.0628693429844
 21
-4.762500000000003
 31
0.0
  0
LINE
  5
333
330
1F
100
AcDbEntity
  8
외형선
  6
Continuous
370
    15
100
AcDbLine
 10
-20.0628693429844
 20
4.762500000000024
 30
0.0
 11
-20.0628693429844
 21
0.0000000000000074
 31
0.0
  0
SPLINE
  5
334
330
1F
100
AcDbEntity
  8
외형선
  6
Continuous
370
    15
100
AcDbSpline
210
0.0
220
0.0
230
1.0
 70
     8
 71
     3
 72
     8
 73
     4
 74
     0
 42
0.000000001
 43
0.00000001
 40
0.0
 40
0.0
 40
0.0
 40
0.0
 40
1.0
 40
1.0
 40
1.0
 40
1.0
 10
-26.9875
 20
-3.129757652327128
 30
0.0
 10
-26.82192935944549
 20
-3.145915632437166
 30
0.0
 10
-26.65495343404912
 20
-3.157813377942275
 30
0.0
 10
-26.48759797819388
 20
-3.16533095773714
 30
0.0
  0
LINE
  5
335
330
1F
100
AcDbEntity
  8
외형선
  6
Continuous
370
    15
100
AcDbLine
 10
-26.48759797819393
 20
-0.8589954730381916
 30
0.0
 11
-26.48759797819388
 21
-3.165331406374285
 31
0.0
  0
SPLINE
  5
336
330
1F
100
AcDbEntity
  8
외형선
  6
Continuous
370
    15
100
AcDbSpline
210
0.0
220
0.0
230
1.0
 70
     8
 71
     3
 72
     8
 73
     4
 74
     0
 42
0.000000001
 43
0.00000001
 40
0.0
 40
0.0
 40
0.0
 40
0.0
 40
1.0
 40
1.0
 40
1.0
 40
1.0
 10
-26.9875
 20
-0.5778117477874428
 30
0.0
 10
-26.82192935944549
 20
-0.6722635847231541
 30
0.0
 10
-26.65495343404912
 20
-0.7661872092951253
 30
0.0
 10
-26.48759797819388
 20
-0.8589914706173541
 30
0.0
  0
SPLINE
  5
337
330
1F
100
AcDbEntity
  8
외형선
  6
Continuous
370
    15
100
AcDbSpline
210
0.0
220
0.0
230
1.0
 70
     8
 71
     3
 72
     8
 73
     4
 74
     0
 42
0.000000001
 43
0.00000001
 40
0.0
 40
0.0
 40
0.0
 40
0.0
 40
1.0
 40
1.0
 40
1.0
 40
1.0
 10
-26.9875
 20
0.5340805535681955
 30
0.0
 10
-26.82192935944549
 20
0.4393934102942441
 30
0.0
 10
-26.65495343404912
 20
0.3437040933699012
 30
0.0
 10
-26.48759797819388
 20
0.2475983198464536
 30
0.0
  0
LINE
  5
338
330
1F
100
AcDbEntity
  8
외형선
  6
Continuous
370
    15
100
AcDbLine
 10
-26.48759797819393
 20
3.05659152935094
 30
0.0
 11
-26.48759797819388
 21
0.2475925843407654
 31
0.0
  0
SPLINE
  5
339
330
1F
100
AcDbEntity
  8
외형선
  6
Continuous
370
    15
100
AcDbSpline
210
0.0
220
0.0
230
1.0
 70
     8
 71
     3
 72
     8
 73
     4
 74
     0
 42
0.000000001
 43
0.00000001
 40
0.0
 40
0.0
 40
0.0
 40
0.0
 40
1.0
 40
1.0
 40
1.0
 40
1.0
 10
-26.9875
 20
3.121979914112011
 30
0.0
 10
-26.82192935944549
 20
3.104498898063554
 30
0.0
 10
-26.65495343404912
 20
3.082673351820312
 30
0.0
 10
-26.48759797819388
 20
3.056592654150478
 30
0.0
  0
SPLINE
  5
33A
330
1F
100
AcDbEntity
  8
외형선
  6
Continuous
370
    15
100
AcDbSpline
210
0.0
220
0.0
230
1.0
 70
    24
 71
     3
 72
    14
 73
    10
 74
     0
 42
0.000000001
 43
0.00000001
 40
0.0
 40
0.0
 40
0.0
 40
0.0
 40
0.1525405623596913
 40
0.3157722202751918
 40
0.4790038781908638
 40
0.6422355361064551
 40
0.8054671940220423
 40
0.9686988519376183
 40
1.0
 40
1.0
 40
1.0
 40
1.0
 10
-26.9875
 20
3.121979914112018
 30
0.0
 10
-26.9875
 20
2.936648665007752
 30
0.0
 10
-26.9875
 20
2.552996873571239
 30
0.0
 10
-26.98750000000011
 20
1.909451684905399
 30
0.0
 10
-26.98749999999994
 20
1.296080051059185
 30
0.0
 10
-26.9875
 20
0.7809833637491298
 30
0.0
 10
-26.9875
 20
0.4484543292785761
 30
0.0
 10
-26.98750000000005
 20
0.3009241542836139
 30
0.0
 10
-26.98750000000005
 20
0.3355103476565662
 30
0.0
 10
-26.98750000000005
 20
0.3410754118843687
 30
0.0
  0
SPLINE
  5
33B
330
1F
100
AcDbEntity
  8
외형선
  6
Continuous
370
    15
100
AcDbSpline
210
0.0
220
0.0
230
1.0
 70
    24
 71
     3
 72
    14
 73
    10
 74
     0
 42
0.000000001
 43
0.00000001
 40
0.0
 40
0.0
 40
0.0
 40
0.0
 40
0.0891069298210111
 40
0.2525356048552093
 40
0.4159642798893267
 40
0.5793929549234399
 40
0.742821629957542
 40
0.906250304991663
 40
1.0
 40
1.0
 40
1.0
 40
1.0
 10
-26.98750000000005
 20
-0.3828801052333188
 30
0.0
 10
-26.98750000000005
 20
-0.3764450393243234
 30
0.0
 10
-26.98750000000005
 20
-0.3582075883777304
 30
0.0
 10
-26.98749999999988
 20
-0.5654185785784801
 30
0.0
 10
-26.98750000000005
 20
-0.9622844938601315
 30
0.0
 10
-26.98749999999994
 20
-1.51626430903282
 30
0.0
 10
-26.98750000000005
 20
-2.149771107899198
 30
0.0
 10
-26.98750000000005
 20
-2.709885522668479
 30
0.0
 10
-26.98750000000005
 20
-3.017589695363391
 30
0.0
 10
-26.9875
 20
-3.129757652327185
 30
0.0
  0
LINE
  5
3B9
330
1F
100
AcDbEntity
  8
외형선
  6
Continuous
370
    15
100
AcDbLine
 10
-3.568700000000037
 20
3.49250000000002
 30
0.0
 11
3.568700000000034
 21
3.49250000000002
 31
0.0
  0
LINE
  5
3BA
330
1F
100
AcDbEntity
  8
외형선
  6
Continuous
370
    15
100
AcDbLine
 10
-3.568700000000037
 20
3.49250000000002
 30
0.0
 11
-4.838700000000019
 21
4.762500000000002
 31
0.0
  0
LINE
  5
3BB
330
1F
100
AcDbEntity
  8
외형선
  6
Continuous
370
    15
100
AcDbLine
 10
3.568700000000034
 20
3.49250000000002
 30
0.0
 11
4.838700000000015
 21
4.762500000000002
 31
0.0
  0
LINE
  5
3BD
330
1F
100
AcDbEntity
  8
외형선
  6
Continuous
370
    15
100
AcDbLine
 10
-4.838700000000017
 20
4.762500000000002
 30
0.0
 11
-20.06286934298448
 21
4.762500000000002
 31
0.0
  0
ENDSEC
  0
SECTION
  2
OBJECTS
  0
DICTIONARY
  5
C
330
0
100
AcDbDictionary
281
     1
  3
ACAD_GROUP
350
D
  3
ACAD_IMAGE_VARS
350
14E
  3
ACAD_LAYOUT
350
1A
  3
ACAD_MLINESTYLE
350
17
  3
ACAD_PLOTSETTINGS
350
19
  3
ACAD_PLOTSTYLENAME
350
E
  3
ACAD_SCALELIST
350
47
  3
APPDATA
350
14C
  3
DWGPROPS
350
3E1
  0
DICTIONARY
  5
1D8
330
2
100
AcDbDictionary
280
     1
281
     1
  3
ACAD_LAYERSTATES
360
1D9
  0
DICTIONARY
  5
D
102
{ACAD_REACTORS
330
C
102
}
330
C
100
AcDbDictionary
281
     1
  0
RASTERVARIABLES
  5
14E
102
{ACAD_REACTORS
330
C
102
}
330
C
100
AcDbRasterVariables
 90
        0
 70
     1
 71
     1
 72
     1
  0
DICTIONARY
  5
1A
102
{ACAD_REACTORS
330
C
102
}
330
C
100
AcDbDictionary
281
     1
  3
Layout1
350
1E
  3
Layout2
350
26
  3
Model
350
22
  0
DICTIONARY
  5
17
102
{ACAD_REACTORS
330
C
102
}
330
C
100
AcDbDictionary
281
     1
  3
Standard
350
18
  0
DICTIONARY
  5
19
102
{ACAD_REACTORS
330
C
102
}
330
C
100
AcDbDictionary
281
     1
  0
ACDBDICTIONARYWDFLT
  5
E
102
{ACAD_REACTORS
330
C
102
}
330
C
100
AcDbDictionary
281
     1
  3
Normal
350
F
100
AcDbDictionaryWithDefault
340
F
  0
DICTIONARY
  5
47
102
{ACAD_REACTORS
330
C
102
}
330
C
100
AcDbDictionary
281
     1
  3
A0
350
48
  3
A1
350
49
  3
A2
350
4A
  3
A3
350
4B
  3
A4
350
4C
  3
A5
350
4D
  3
A6
350
4E
  3
A7
350
4F
  3
A8
350
50
  3
A9
350
51
  3
B0
350
52
  3
B1
350
53
  3
B2
350
54
  3
B3
350
55
  3
B4
350
56
  3
B5
350
57
  3
B6
350
58
  3
B7
350
59
  3
B8
350
5A
  3
B9
350
5B
  3
C0
350
5C
  3
C1
350
5D
  3
C2
350
5E
  3
C3
350
5F
  3
C4
350
60
  3
C5
350
61
  3
C6
350
62
  3
C7
350
63
  3
C8
350
64
  3
C9
350
65
  3
D0
350
66
  3
D1
350
67
  3
D2
350
68
  0
DICTIONARY
  5
14C
102
{ACAD_REACTORS
330
C
102
}
330
C
100
AcDbDictionary
281
     1
  0
XRECORD
  5
3E1
102
{ACAD_REACTORS
330
C
102
}
330
C
100
AcDbXrecord
280
     1
  1
DWGPROPS COOKIE
  2

  3

  4

  6

  7

  8
12016016
  9

300
=
301
=
302
=
303
=
304
=
305
=
306
=
307
=
308
=
309
=
 40
0.0
 41
2458313.095813021
 42
2458319.117877917
  1

 90
        0
  0
DICTIONARY
  5
1D9
102
{ACAD_REACTORS
330
1D8
102
}
330
1D8
100
AcDbDictionary
281
     1
  0
LAYOUT
  5
1E
102
{ACAD_REACTORS
330
1A
102
}
330
1A
100
AcDbPlotSettings
  1

  2
none_device
  4

  6

 40
0.0
 41
0.0
 42
0.0
 43
0.0
 44
0.0
 45
0.0
 46
0.0
 47
0.0
 48
0.0
 49
0.0
140
0.0
141
0.0
142
1.0
143
1.0
 70
   688
 72
     1
 73
     0
 74
     5
  7

 75
    16
147
1.0
148
0.0
149
0.0
100
AcDbLayout
  1
Layout1
 70
     1
 71
     1
 10
0.0
 20
0.0
 11
420.0
 21
297.0
 12
0.0
 22
0.0
 32
0.0
 14
1.000000000000000E+20
 24
1.000000000000000E+20
 34
1.000000000000000E+20
 15
-1.000000000000000E+20
 25
-1.000000000000000E+20
 35
-1.000000000000000E+20
146
0.0
 13
0.0
 23
0.0
 33
0.0
 16
1.0
 26
0.0
 36
0.0
 17
0.0
 27
1.0
 37
0.0
 76
     0
330
1B
  0
LAYOUT
  5
26
102
{ACAD_REACTORS
330
1A
102
}
330
1A
100
AcDbPlotSettings
  1

  2
none_device
  4

  6

 40
0.0
 41
0.0
 42
0.0
 43
0.0
 44
0.0
 45
0.0
 46
0.0
 47
0.0
 48
0.0
 49
0.0
140
0.0
141
0.0
142
1.0
143
1.0
 70
   688
 72
     1
 73
     0
 74
     5
  7

 75
    16
147
1.0
148
0.0
149
0.0
100
AcDbLayout
  1
Layout2
 70
     1
 71
     2
 10
0.0
 20
0.0
 11
0.0
 21
0.0
 12
0.0
 22
0.0
 32
0.0
 14
0.0
 24
0.0
 34
0.0
 15
0.0
 25
0.0
 35
0.0
146
0.0
 13
0.0
 23
0.0
 33
0.0
 16
1.0
 26
0.0
 36
0.0
 17
0.0
 27
1.0
 37
0.0
 76
     0
330
23
  0
LAYOUT
  5
22
102
{ACAD_REACTORS
330
1A
102
}
330
1A
100
AcDbPlotSettings
  1

  2
none_device
  4
ANSI_A_(11.00_x_8.50_Inches)
  6

 40
6.35
 41
19.05
 42
6.35000508
 43
19.05000254
 44
279.4
 45
215.9
 46
84.22881026641525
 47
81.20938282326141
 48
0.0
 49
0.0
140
0.0
141
0.0
142
0.0558995861883415
143
1.0
 70
  1696
 72
     0
 73
     0
 74
     0
  7

 75
     0
147
0.0235690232323232
148
0.0
149
0.0
100
AcDbLayout
  1
Model
 70
     1
 71
     0
 10
0.0
 20
0.0
 11
420.0
 21
297.0
 12
0.0
 22
0.0
 32
0.0
 14
-59.76125000000005
 24
-49.97180738881174
 34
0.0
 15
81.41936447236121
 25
45.66790460849538
 35
0.0
146
0.0
 13
0.0
 23
0.0
 33
0.0
 16
1.0
 26
0.0
 36
0.0
 17
0.0
 27
1.0
 37
0.0
 76
     0
330
1F
331
29
  0
MLINESTYLE
  5
18
102
{ACAD_REACTORS
330
17
102
}
330
17
100
AcDbMlineStyle
  2
Standard
 70
     0
  3

 62
   256
 51
90.0
 52
90.0
 71
     2
 49
0.5
 62
   256
  6
BYLAYER
 49
-0.5
 62
   256
  6
BYLAYER
  0
ACDBPLACEHOLDER
  5
F
102
{ACAD_REACTORS
330
E
102
}
330
E
  0
SCALE
  5
48
102
{ACAD_REACTORS
330
47
102
}
330
47
100
AcDbScale
 70
     0
300
1:1
140
1.0
141
1.0
290
     1
  0
SCALE
  5
49
102
{ACAD_REACTORS
330
47
102
}
330
47
100
AcDbScale
 70
     0
300
1:2
140
1.0
141
2.0
290
     0
  0
SCALE
  5
4A
102
{ACAD_REACTORS
330
47
102
}
330
47
100
AcDbScale
 70
     0
300
1:4
140
1.0
141
4.0
290
     0
  0
SCALE
  5
4B
102
{ACAD_REACTORS
330
47
102
}
330
47
100
AcDbScale
 70
     0
300
1:5
140
1.0
141
5.0
290
     0
  0
SCALE
  5
4C
102
{ACAD_REACTORS
330
47
102
}
330
47
100
AcDbScale
 70
     0
300
1:8
140
1.0
141
8.0
290
     0
  0
SCALE
  5
4D
102
{ACAD_REACTORS
330
47
102
}
330
47
100
AcDbScale
 70
     0
300
1:10
140
1.0
141
10.0
290
     0
  0
SCALE
  5
4E
102
{ACAD_REACTORS
330
47
102
}
330
47
100
AcDbScale
 70
     0
300
1:16
140
1.0
141
16.0
290
     0
  0
SCALE
  5
4F
102
{ACAD_REACTORS
330
47
102
}
330
47
100
AcDbScale
 70
     0
300
1:20
140
1.0
141
20.0
290
     0
  0
SCALE
  5
50
102
{ACAD_REACTORS
330
47
102
}
330
47
100
AcDbScale
 70
     0
300
1:30
140
1.0
141
30.0
290
     0
  0
SCALE
  5
51
102
{ACAD_REACTORS
330
47
102
}
330
47
100
AcDbScale
 70
     0
300
1:40
140
1.0
141
40.0
290
     0
  0
SCALE
  5
52
102
{ACAD_REACTORS
330
47
102
}
330
47
100
AcDbScale
 70
     0
300
1:50
140
1.0
141
50.0
290
     0
  0
SCALE
  5
53
102
{ACAD_REACTORS
330
47
102
}
330
47
100
AcDbScale
 70
     0
300
1:100
140
1.0
141
100.0
290
     0
  0
SCALE
  5
54
102
{ACAD_REACTORS
330
47
102
}
330
47
100
AcDbScale
 70
     0
300
2:1
140
2.0
141
1.0
290
     0
  0
SCALE
  5
55
102
{ACAD_REACTORS
330
47
102
}
330
47
100
AcDbScale
 70
     0
300
4:1
140
4.0
141
1.0
290
     0
  0
SCALE
  5
56
102
{ACAD_REACTORS
330
47
102
}
330
47
100
AcDbScale
 70
     0
300
8:1
140
8.0
141
1.0
290
     0
  0
SCALE
  5
57
102
{ACAD_REACTORS
330
47
102
}
330
47
100
AcDbScale
 70
     0
300
10:1
140
10.0
141
1.0
290
     0
  0
SCALE
  5
58
102
{ACAD_REACTORS
330
47
102
}
330
47
100
AcDbScale
 70
     0
300
100:1
140
100.0
141
1.0
290
     0
  0
SCALE
  5
59
102
{ACAD_REACTORS
330
47
102
}
330
47
100
AcDbScale
 70
     0
300
1/128" = 1'-0"
140
0.0078125
141
12.0
290
     0
  0
SCALE
  5
5A
102
{ACAD_REACTORS
330
47
102
}
330
47
100
AcDbScale
 70
     0
300
1/64" = 1'-0"
140
0.015625
141
12.0
290
     0
  0
SCALE
  5
5B
102
{ACAD_REACTORS
330
47
102
}
330
47
100
AcDbScale
 70
     0
300
1/32" = 1'-0"
140
0.03125
141
12.0
290
     0
  0
SCALE
  5
5C
102
{ACAD_REACTORS
330
47
102
}
330
47
100
AcDbScale
 70
     0
300
1/16" = 1'-0"
140
0.0625
141
12.0
290
     0
  0
SCALE
  5
5D
102
{ACAD_REACTORS
330
47
102
}
330
47
100
AcDbScale
 70
     0
300
3/32" = 1'-0"
140
0.09375
141
12.0
290
     0
  0
SCALE
  5
5E
102
{ACAD_REACTORS
330
47
102
}
330
47
100
AcDbScale
 70
     0
300
1/8" = 1'-0"
140
0.125
141
12.0
290
     0
  0
SCALE
  5
5F
102
{ACAD_REACTORS
330
47
102
}
330
47
100
AcDbScale
 70
     0
300
3/16" = 1'-0"
140
0.1875
141
12.0
290
     0
  0
SCALE
  5
60
102
{ACAD_REACTORS
330
47
102
}
330
47
100
AcDbScale
 70
     0
300
1/4" = 1'-0"
140
0.25
141
12.0
290
     0
  0
SCALE
  5
61
102
{ACAD_REACTORS
330
47
102
}
330
47
100
AcDbScale
 70
     0
300
3/8" = 1'-0"
140
0.375
141
12.0
290
     0
  0
SCALE
  5
62
102
{ACAD_REACTORS
330
47
102
}
330
47
100
AcDbScale
 70
     0
300
1/2" = 1'-0"
140
0.5
141
12.0
290
     0
  0
SCALE
  5
63
102
{ACAD_REACTORS
330
47
102
}
330
47
100
AcDbScale
 70
     0
300
3/4" = 1'-0"
140
0.75
141
12.0
290
     0
  0
SCALE
  5
64
102
{ACAD_REACTORS
330
47
102
}
330
47
100
AcDbScale
 70
     0
300
1" = 1'-0"
140
1.0
141
12.0
290
     0
  0
SCALE
  5
65
102
{ACAD_REACTORS
330
47
102
}
330
47
100
AcDbScale
 70
     0
300
1-1/2" = 1'-0"
140
1.5
141
12.0
290
     0
  0
SCALE
  5
66
102
{ACAD_REACTORS
330
47
102
}
330
47
100
AcDbScale
 70
     0
300
3" = 1'-0"
140
3.0
141
12.0
290
     0
  0
SCALE
  5
67
102
{ACAD_REACTORS
330
47
102
}
330
47
100
AcDbScale
 70
     0
300
6" = 1'-0"
140
6.0
141
12.0
290
     0
  0
SCALE
  5
68
102
{ACAD_REACTORS
330
47
102
}
330
47
100
AcDbScale
 70
     0
300
1'-0" = 1'-0"
140
12.0
141
12.0
290
     0
  0
ENDSEC
  0
EOF
