  0
SECTION
  2
HEADER
  9
$ACADVER
  1
AC1015
  9
$ACADMAINTVER
 70
     6
  9
$DWGCODEPAGE
  3
ANSI_949
  9
$INSBASE
 10
0.0
 20
0.0
 30
0.0
  9
$EXTMIN
 10
-68.96875000000007
 20
-49.97180738881174
 30
0.0
  9
$EXTMAX
 10
81.41936447236121
 20
43.0649375000001
 30
0.0
  9
$LIMMIN
 10
0.0
 20
0.0
  9
$LIMMAX
 10
420.0
 20
297.0
  9
$ORTHOMODE
 70
     1
  9
$REGENMODE
 70
     1
  9
$FILLMODE
 70
     1
  9
$QTEXTMODE
 70
     0
  9
$MIRRTEXT
 70
     1
  9
$LTSCALE
 40
1.0
  9
$ATTMODE
 70
     1
  9
$TEXTSIZE
 40
3.5
  9
$TRACEWID
 40
1.0
  9
$TEXTSTYLE
  7
Standard
  9
$CLAYER
  8
0
  9
$CELTYPE
  6
ByLayer
  9
$CECOLOR
 62
   256
  9
$CELTSCALE
 40
1.0
  9
$DISPSILH
 70
     0
  9
$DIMSCALE
 40
1.0
  9
$DIMASZ
 40
3.302
  9
$DIMEXO
 40
1.0
  9
$DIMDLI
 40
3.75
  9
$DIMRND
 40
0.0
  9
$DIMDLE
 40
0.0
  9
$DIMEXE
 40
1.0
  9
$DIMTP
 40
0.0
  9
$DIMTM
 40
0.0
  9
$DIMTXT
 40
3.5
  9
$DIMCEN
 40
2.5
  9
$DIMTSZ
 40
0.0
  9
$DIMTOL
 70
     0
  9
$DIMLIM
 70
     0
  9
$DIMTIH
 70
     1
  9
$DIMTOH
 70
     1
  9
$DIMSE1
 70
     0
  9
$DIMSE2
 70
     0
  9
$DIMTAD
 70
     1
  9
$DIMZIN
 70
     0
  9
$DIMBLK
  1

  9
$DIMASO
 70
     1
  9
$DIMSHO
 70
     1
  9
$DIMPOST
  1

  9
$DIMAPOST
  1

  9
$DIMALT
 70
     0
  9
$DIMALTD
 70
     3
  9
$DIMALTF
 40
0.0393700787401575
  9
$DIMLFAC
 40
1.0
  9
$DIMTOFL
 70
     1
  9
$DIMTVP
 40
0.0
  9
$DIMTIX
 70
     0
  9
$DIMSOXD
 70
     0
  9
$DIMSAH
 70
     0
  9
$DIMBLK1
  1

  9
$DIMBLK2
  1

  9
$DIMSTYLE
  2
ISO-25
  9
$DIMCLRD
 70
     0
  9
$DIMCLRE
 70
     0
  9
$DIMCLRT
 70
     0
  9
$DIMTFAC
 40
1.0
  9
$DIMGAP
 40
1.524
  9
$DIMJUST
 70
     0
  9
$DIMSD1
 70
     0
  9
$DIMSD2
 70
     0
  9
$DIMTOLJ
 70
     0
  9
$DIMTZIN
 70
     0
  9
$DIMALTZ
 70
     0
  9
$DIMALTTZ
 70
     0
  9
$DIMUPT
 70
     0
  9
$DIMDEC
 70
     2
  9
$DIMTDEC
 70
     2
  9
$DIMALTU
 70
     2
  9
$DIMALTTD
 70
     3
  9
$DIMTXSTY
  7
Standard
  9
$DIMAUNIT
 70
     0
  9
$DIMADEC
 70
     2
  9
$DIMALTRND
 40
0.0
  9
$DIMAZIN
 70
     0
  9
$DIMDSEP
 70
    44
  9
$DIMATFIT
 70
     3
  9
$DIMFRAC
 70
     0
  9
$DIMLDRBLK
  1

  9
$DIMLUNIT
 70
     2
  9
$DIMLWD
 70
    -2
  9
$DIMLWE
 70
    -2
  9
$DIMTMOVE
 70
     0
  9
$LUNITS
 70
     2
  9
$LUPREC
 70
     2
  9
$SKETCHINC
 40
1.0
  9
$FILLETRAD
 40
10.0
  9
$AUNITS
 70
     0
  9
$AUPREC
 70
     2
  9
$MENU
  1
.
  9
$ELEVATION
 40
0.0
  9
$PELEVATION
 40
0.0
  9
$THICKNESS
 40
0.0
  9
$LIMCHECK
 70
     0
  9
$CHAMFERA
 40
0.0
  9
$CHAMFERB
 40
0.0
  9
$CHAMFERC
 40
0.0
  9
$CHAMFERD
 40
0.0
  9
$SKPOLY
 70
     0
  9
$TDCREATE
 40
2458313.472718785
  9
$TDUCREATE
 40
2458313.097718785
  9
$TDUPDATE
 40
2458319.496980278
  9
$TDUUPDATE
 40
2458319.121980278
  9
$TDINDWG
 40
0.001664838
  9
$TDUSRTIMER
 40
2458319.121938195
  9
$USRTIMER
 70
     1
  9
$ANGBASE
 50
0.0
  9
$ANGDIR
 70
     0
  9
$PDMODE
 70
     0
  9
$PDSIZE
 40
-1.0
  9
$PLINEWID
 40
0.0
  9
$SPLFRAME
 70
     0
  9
$SPLINETYPE
 70
     6
  9
$SPLINESEGS
 70
     8
  9
$HANDSEED
  5
3D8
  9
$SURFTAB1
 70
     6
  9
$SURFTAB2
 70
     6
  9
$SURFTYPE
 70
     6
  9
$SURFU
 70
     6
  9
$SURFV
 70
     6
  9
$UCSBASE
  2

  9
$UCSNAME
  2

  9
$UCSORG
 10
0.0
 20
0.0
 30
0.0
  9
$UCSXDIR
 10
1.0
 20
0.0
 30
0.0
  9
$UCSYDIR
 10
0.0
 20
1.0
 30
0.0
  9
$UCSORTHOREF
  2

  9
$UCSORTHOVIEW
 70
     0
  9
$UCSORGTOP
 10
0.0
 20
0.0
 30
0.0
  9
$UCSORGBOTTOM
 10
0.0
 20
0.0
 30
0.0
  9
$UCSORGLEFT
 10
0.0
 20
0.0
 30
0.0
  9
$UCSORGRIGHT
 10
0.0
 20
0.0
 30
0.0
  9
$UCSORGFRONT
 10
0.0
 20
0.0
 30
0.0
  9
$UCSORGBACK
 10
0.0
 20
0.0
 30
0.0
  9
$PUCSBASE
  2

  9
$PUCSNAME
  2

  9
$PUCSORG
 10
0.0
 20
0.0
 30
0.0
  9
$PUCSXDIR
 10
1.0
 20
0.0
 30
0.0
  9
$PUCSYDIR
 10
0.0
 20
1.0
 30
0.0
  9
$PUCSORTHOREF
  2

  9
$PUCSORTHOVIEW
 70
     0
  9
$PUCSORGTOP
 10
0.0
 20
0.0
 30
0.0
  9
$PUCSORGBOTTOM
 10
0.0
 20
0.0
 30
0.0
  9
$PUCSORGLEFT
 10
0.0
 20
0.0
 30
0.0
  9
$PUCSORGRIGHT
 10
0.0
 20
0.0
 30
0.0
  9
$PUCSORGFRONT
 10
0.0
 20
0.0
 30
0.0
  9
$PUCSORGBACK
 10
0.0
 20
0.0
 30
0.0
  9
$USERI1
 70
     0
  9
$USERI2
 70
     0
  9
$USERI3
 70
     0
  9
$USERI4
 70
     0
  9
$USERI5
 70
     0
  9
$USERR1
 40
0.0
  9
$USERR2
 40
0.0
  9
$USERR3
 40
0.0
  9
$USERR4
 40
0.0
  9
$USERR5
 40
0.0
  9
$WORLDVIEW
 70
     1
  9
$SHADEDGE
 70
     3
  9
$SHADEDIF
 70
    70
  9
$TILEMODE
 70
     1
  9
$MAXACTVP
 70
    64
  9
$PINSBASE
 10
0.0
 20
0.0
 30
0.0
  9
$PLIMCHECK
 70
     0
  9
$PEXTMIN
 10
1.000000000000000E+20
 20
1.000000000000000E+20
 30
1.000000000000000E+20
  9
$PEXTMAX
 10
-1.000000000000000E+20
 20
-1.000000000000000E+20
 30
-1.000000000000000E+20
  9
$PLIMMIN
 10
0.0
 20
0.0
  9
$PLIMMAX
 10
0.0
 20
0.0
  9
$UNITMODE
 70
     0
  9
$VISRETAIN
 70
     1
  9
$PLINEGEN
 70
     0
  9
$PSLTSCALE
 70
     1
  9
$TREEDEPTH
 70
  3020
  9
$CMLSTYLE
  2
Standard
  9
$CMLJUST
 70
     0
  9
$CMLSCALE
 40
20.0
  9
$PROXYGRAPHICS
 70
     1
  9
$MEASUREMENT
 70
     1
  9
$CELWEIGHT
370
    -1
  9
$ENDCAPS
280
     0
  9
$JOINSTYLE
280
     0
  9
$LWDISPLAY
290
     1
  9
$INSUNITS
 70
     4
  9
$HYPERLINKBASE
  1

  9
$STYLESHEET
  1

  9
$XEDIT
290
     1
  9
$CEPSNTYPE
380
     0
  9
$PSTYLEMODE
290
     1
  9
$FINGERPRINTGUID
  2
{38EA5A1A-1D18-4BEA-AED4-0DB9A139AA49}
  9
$VERSIONGUID
  2
{FAEB1C32-E019-11D5-929B-00C0DF256EC4}
  9
$EXTNAMES
290
     1
  9
$PSVPSCALE
 40
0.0
  9
$OLESTARTUP
290
     0
  0
ENDSEC
  0
SECTION
  2
CLASSES
  0
CLASS
  1
ACDBDICTIONARYWDFLT
  2
AcDbDictionaryWithDefault
  3
ObjectDBX Classes
 90
        0
280
     0
281
     0
  0
CLASS
  1
VISUALSTYLE
  2
AcDbVisualStyle
  3
ObjectDBX Classes
 90
     4095
280
     0
281
     0
  0
CLASS
  1
MATERIAL
  2
AcDbMaterial
  3
ObjectDBX Classes
 90
     1153
280
     0
281
     0
  0
CLASS
  1
SCALE
  2
AcDbScale
  3
ObjectDBX Classes
 90
     1153
280
     0
281
     0
  0
CLASS
  1
SUN
  2
AcDbSun
  3
SCENEOE
 90
     1153
280
     0
281
     0
  0
CLASS
  1
ACDBPLACEHOLDER
  2
AcDbPlaceHolder
  3
ObjectDBX Classes
 90
        0
280
     0
281
     0
  0
CLASS
  1
LAYOUT
  2
AcDbLayout
  3
ObjectDBX Classes
 90
        0
280
     0
281
     0
  0
CLASS
  1
TABLESTYLE
  2
AcDbTableStyle
  3
ObjectDBX Classes
 90
     4095
280
     0
281
     0
  0
CLASS
  1
MLEADERSTYLE
  2
AcDbMLeaderStyle
  3
ACDB_MLEADERSTYLE_CLASS
 90
     4095
280
     0
281
     0
  0
CLASS
  1
RASTERVARIABLES
  2
AcDbRasterVariables
  3
ISM
 90
        0
280
     0
281
     0
  0
ENDSEC
  0
SECTION
  2
TABLES
  0
TABLE
  2
VPORT
  5
8
330
0
100
AcDbSymbolTable
 70
     1
  0
VPORT
  5
29
330
8
100
AcDbSymbolTableRecord
100
AcDbViewportTableRecord
  2
*Active
 70
     0
 10
0.0
 20
0.0
 11
1.0
 21
1.0
 12
-12.57499489983707
 22
-35.12467302770249
 13
0.0
 23
0.0
 14
10.0
 24
10.0
 15
10.0
 25
10.0
 16
0.0
 26
0.0
 36
1.0
 17
0.0
 27
0.0
 37
0.0
 40
104.0893506455069
 41
1.67311411992263
 42
50.0
 43
0.0
 44
0.0
 50
0.0
 51
0.0
 71
    16
 72
  2000
 73
     1
 74
     3
 75
     0
 76
     0
 77
     0
 78
     0
281
     0
 65
     1
110
0.0
120
0.0
130
0.0
111
1.0
121
0.0
131
0.0
112
0.0
122
1.0
132
0.0
 79
     0
146
0.0
  0
ENDTAB
  0
TABLE
  2
LTYPE
  5
5
330
0
100
AcDbSymbolTable
 70
     6
  0
LTYPE
  5
14
330
5
100
AcDbSymbolTableRecord
100
AcDbLinetypeTableRecord
  2
ByBlock
 70
     0
  3

 72
    65
 73
     0
 40
0.0
  0
LTYPE
  5
15
330
5
100
AcDbSymbolTableRecord
100
AcDbLinetypeTableRecord
  2
ByLayer
 70
     0
  3

 72
    65
 73
     0
 40
0.0
  0
LTYPE
  5
16
330
5
100
AcDbSymbolTableRecord
100
AcDbLinetypeTableRecord
  2
Continuous
 70
     0
  3
Solid line
 72
    65
 73
     0
 40
0.0
  0
LTYPE
  5
6A
330
5
100
AcDbSymbolTableRecord
100
AcDbLinetypeTableRecord
  2
HIDDEN
 70
     0
  3
Hidden __ __ __ __ __ __ __ __ __ __ __ __ __ __
 72
    65
 73
     2
 40
1.905
 49
1.27
 74
     0
 49
-0.635
 74
     0
  0
LTYPE
  5
6B
330
5
100
AcDbSymbolTableRecord
100
AcDbLinetypeTableRecord
  2
PHANTOM
 70
     0
  3
Phantom ______  __  __  ______  __  __  ______
 72
    65
 73
     6
 40
12.7
 49
6.35
 74
     0
 49
-1.27
 74
     0
 49
1.27
 74
     0
 49
-1.27
 74
     0
 49
1.27
 74
     0
 49
-1.27
 74
     0
  0
LTYPE
  5
6C
330
5
100
AcDbSymbolTableRecord
100
AcDbLinetypeTableRecord
  2
CENTER
 70
     0
  3
Center ____ _ ____ _ ____ _ ____ _ ____ _ ____
 72
    65
 73
     4
 40
10.16
 49
6.35
 74
     0
 49
-1.27
 74
     0
 49
1.27
 74
     0
 49
-1.27
 74
     0
  0
LTYPE
  5
6D
330
5
100
AcDbSymbolTableRecord
100
AcDbLinetypeTableRecord
  2
CENTERX2
 70
     0
  3
Center (2x) ________  __  ________  __  _____
 72
    65
 73
     4
 40
20.32
 49
12.7
 74
     0
 49
-2.54
 74
     0
 49
2.54
 74
     0
 49
-2.54
 74
     0
  0
LTYPE
  5
6E
330
5
100
AcDbSymbolTableRecord
100
AcDbLinetypeTableRecord
  2
DOT2
 70
     0
  3
Dot (.5x) ........................................
 72
    65
 73
     2
 40
0.635
 49
0.0
 74
     0
 49
-0.635
 74
     0
  0
ENDTAB
  0
TABLE
  2
LAYER
  5
2
102
{ACAD_XDICTIONARY
360
1D0
102
}
330
0
100
AcDbSymbolTable
 70
    18
  0
LAYER
  5
10
330
2
100
AcDbSymbolTableRecord
100
AcDbLayerTableRecord
  2
0
 70
     0
 62
     7
  6
Continuous
370
    -3
390
F
  0
LAYER
  5
6F
330
2
100
AcDbSymbolTableRecord
100
AcDbLayerTableRecord
  2
FORMAT
 70
     0
 62
     2
  6
Continuous
370
    -3
390
F
  0
LAYER
  5
70
330
2
100
AcDbSymbolTableRecord
100
AcDbLayerTableRecord
  2
외형선
 70
     0
 62
     4
  6
Continuous
370
    30
390
F
  0
LAYER
  5
71
330
2
100
AcDbSymbolTableRecord
100
AcDbLayerTableRecord
  2
숨은선
 70
     0
 62
     2
  6
HIDDEN
370
    15
390
F
  0
LAYER
  5
72
330
2
100
AcDbSymbolTableRecord
100
AcDbLayerTableRecord
  2
중심선
 70
     0
 62
     1
  6
CENTERX2
370
    -3
390
F
  0
LAYER
  5
73
330
2
100
AcDbSymbolTableRecord
100
AcDbLayerTableRecord
  2
파단선
 70
     0
 62
     4
  6
Continuous
370
    -3
390
F
  0
LAYER
  5
74
330
2
100
AcDbSymbolTableRecord
100
AcDbLayerTableRecord
  2
해칭선
 70
     0
 62
   100
  6
Continuous
370
    -3
390
F
  0
LAYER
  5
75
330
2
100
AcDbSymbolTableRecord
100
AcDbLayerTableRecord
  2
가는실선
 70
     0
 62
     4
  6
Continuous
370
    -3
390
F
  0
LAYER
  5
76
330
2
100
AcDbSymbolTableRecord
100
AcDbLayerTableRecord
  2
치수_보조선
 70
     0
 62
     4
  6
Continuous
370
    -3
390
F
  0
LAYER
  5
77
330
2
100
AcDbSymbolTableRecord
100
AcDbLayerTableRecord
  2
치수문자_일반주서
 70
     0
 62
     7
  6
Continuous
370
    15
390
F
  0
LAYER
  5
78
330
2
100
AcDbSymbolTableRecord
100
AcDbLayerTableRecord
  2
개별주서
 70
     0
 62
   100
  6
Continuous
370
    30
390
F
  0
LAYER
  5
79
330
2
100
AcDbSymbolTableRecord
100
AcDbLayerTableRecord
  2
중간선
 70
     0
 62
     2
  6
Continuous
370
    15
390
F
  0
LAYER
  5
7A
330
2
100
AcDbSymbolTableRecord
100
AcDbLayerTableRecord
  2
윤곽선
 70
     0
 62
     3
  6
Continuous
370
    40
390
F
  0
LAYER
  5
7B
330
2
100
AcDbSymbolTableRecord
100
AcDbLayerTableRecord
  2
중심마크
 70
     0
 62
   100
  6
Continuous
370
    30
390
F
  0
LAYER
  5
7C
330
2
100
AcDbSymbolTableRecord
100
AcDbLayerTableRecord
  2
가상선
 70
     0
 62
     4
  6
PHANTOM
370
    -3
390
F
  0
LAYER
  5
7D
330
2
100
AcDbSymbolTableRecord
100
AcDbLayerTableRecord
  2
특수지정선
 70
     0
 62
     5
  6
CENTERX2
370
    60
390
F
  0
LAYER
  5
7E
330
2
100
AcDbSymbolTableRecord
100
AcDbLayerTableRecord
  2
참조1
 70
     0
 62
    -4
  6
Continuous
370
    -3
390
F
  0
LAYER
  5
153
330
2
100
AcDbSymbolTableRecord
100
AcDbLayerTableRecord
  2
Defpoints
 70
     0
 62
     7
  6
Continuous
290
     0
370
    -3
390
F
  0
ENDTAB
  0
TABLE
  2
STYLE
  5
3
330
0
100
AcDbSymbolTable
 70
     2
  0
STYLE
  5
11
330
3
100
AcDbSymbolTableRecord
100
AcDbTextStyleTableRecord
  2
Standard
 70
     0
 40
0.0
 41
1.0
 50
0.0
 71
     0
 42
3.5
  3
txt
  4

  0
STYLE
  5
94
330
3
100
AcDbSymbolTableRecord
100
AcDbTextStyleTableRecord
  2
SLDTEXTSTYLE0
 70
     0
 40
0.0
 41
0.75
 50
0.0
 71
     0
 42
3.5
  3
TXT
  4

  0
ENDTAB
  0
TABLE
  2
VIEW
  5
6
330
0
100
AcDbSymbolTable
 70
     0
  0
ENDTAB
  0
TABLE
  2
UCS
  5
7
330
0
100
AcDbSymbolTable
 70
     0
  0
ENDTAB
  0
TABLE
  2
APPID
  5
9
330
0
100
AcDbSymbolTable
 70
     1
  0
APPID
  5
12
330
9
100
AcDbSymbolTableRecord
100
AcDbRegAppTableRecord
  2
ACAD
 70
     0
  0
ENDTAB
  0
TABLE
  2
DIMSTYLE
  5
A
330
0
100
AcDbSymbolTable
 70
     4
100
AcDbDimStyleTable
  0
DIMSTYLE
105
27
330
A
100
AcDbSymbolTableRecord
100
AcDbDimStyleTableRecord
  2
ISO-25
 70
     0
 41
2.5
 42
0.625
 43
3.75
 44
1.25
 73
     0
 74
     0
 77
     1
 78
     8
140
2.5
141
2.5
143
0.03937007874016
147
0.625
171
     3
172
     1
178
     0
271
     2
272
     2
274
     3
278
    44
283
     0
284
     8
340
11
  0
DIMSTYLE
105
D0
330
A
100
AcDbSymbolTableRecord
100
AcDbDimStyleTableRecord
  2
SLDDIMSTYLE0
 70
     0
 41
3.302
 44
0.0
 45
0.000000001
 73
     0
 74
     0
 77
     1
 78
    12
 79
     3
140
3.5
143
0.0393700787401575
147
0.875
148
0.000000001
170
     1
173
     1
178
     0
271
     2
272
     2
276
     2
284
    12
340
94
  0
DIMSTYLE
105
E4
330
A
100
AcDbSymbolTableRecord
100
AcDbDimStyleTableRecord
  2
SLDDIMSTYLE1
 70
     0
 41
3.302
 44
0.0
 45
0.000000001
 73
     0
 74
     0
 77
     1
 78
     4
 79
     1
140
3.5
143
0.0393700787401575
147
0.875
148
0.000000001
170
     1
173
     1
178
     0
271
     2
272
     2
276
     2
284
    12
340
94
  0
DIMSTYLE
105
10C
102
{ACAD_REACTORS
330
10B
330
CF
330
E3
330
F8
102
}
330
A
100
AcDbSymbolTableRecord
100
AcDbDimStyleTableRecord
  2
SLDDIMSTYLE2
 70
     0
 41
3.302
 44
0.0
 45
0.000000001
 73
     0
 74
     0
 77
     1
 78
     4
 79
     1
140
3.5
143
0.0393700787401575
147
0.875
148
0.000000001
170
     1
172
     1
173
     1
178
     0
271
     2
272
     2
276
     2
284
    12
289
     0
340
94
  0
ENDTAB
  0
TABLE
  2
BLOCK_RECORD
  5
1
330
0
100
AcDbSymbolTable
 70
    19
  0
BLOCK_RECORD
  5
1F
330
1
100
AcDbSymbolTableRecord
100
AcDbBlockTableRecord
  2
*Model_Space
340
22
  0
BLOCK_RECORD
  5
1B
330
1
100
AcDbSymbolTableRecord
100
AcDbBlockTableRecord
  2
*Paper_Space
340
1E
  0
BLOCK_RECORD
  5
23
330
1
100
AcDbSymbolTableRecord
100
AcDbBlockTableRecord
  2
*Paper_Space0
340
26
  0
BLOCK_RECORD
  5
7F
330
1
100
AcDbSymbolTableRecord
100
AcDbBlockTableRecord
  2
블럭10
340
0
102
{BLKREFS
331
C8
102
}
  0
BLOCK_RECORD
  5
D1
330
1
100
AcDbSymbolTableRecord
100
AcDbBlockTableRecord
  2
_D
340
0
  0
BLOCK_RECORD
  5
E5
330
1
100
AcDbSymbolTableRecord
100
AcDbBlockTableRecord
  2
_D_1
340
0
  0
BLOCK_RECORD
  5
F9
330
1
100
AcDbSymbolTableRecord
100
AcDbBlockTableRecord
  2
_D_2
340
0
  0
BLOCK_RECORD
  5
10D
330
1
100
AcDbSymbolTableRecord
100
AcDbBlockTableRecord
  2
_D_3
340
0
  0
BLOCK_RECORD
  5
127
330
1
100
AcDbSymbolTableRecord
100
AcDbBlockTableRecord
  2
SW_DOWELSYMBOL_0
340
0
102
{BLKREFS
331
12D
102
}
  0
BLOCK_RECORD
  5
1D4
330
1
100
AcDbSymbolTableRecord
100
AcDbBlockTableRecord
  2
*D7
340
0
  0
BLOCK_RECORD
  5
1E3
330
1
100
AcDbSymbolTableRecord
100
AcDbBlockTableRecord
  2
*D8
340
0
  0
BLOCK_RECORD
  5
1F2
330
1
100
AcDbSymbolTableRecord
100
AcDbBlockTableRecord
  2
*D9
340
0
  0
BLOCK_RECORD
  5
223
330
1
100
AcDbSymbolTableRecord
100
AcDbBlockTableRecord
  2
*D10
340
0
  0
BLOCK_RECORD
  5
232
330
1
100
AcDbSymbolTableRecord
100
AcDbBlockTableRecord
  2
*D11
340
0
  0
BLOCK_RECORD
  5
241
330
1
100
AcDbSymbolTableRecord
100
AcDbBlockTableRecord
  2
*D12
340
0
  0
BLOCK_RECORD
  5
2DD
330
1
100
AcDbSymbolTableRecord
100
AcDbBlockTableRecord
  2
*D13
340
0
  0
BLOCK_RECORD
  5
2EC
330
1
100
AcDbSymbolTableRecord
100
AcDbBlockTableRecord
  2
*D14
340
0
  0
BLOCK_RECORD
  5
2FB
330
1
100
AcDbSymbolTableRecord
100
AcDbBlockTableRecord
  2
*D15
340
0
  0
BLOCK_RECORD
  5
336
330
1
100
AcDbSymbolTableRecord
100
AcDbBlockTableRecord
  2
*D16
340
0
  0
BLOCK_RECORD
  5
345
330
1
100
AcDbSymbolTableRecord
100
AcDbBlockTableRecord
  2
*D17
340
0
  0
BLOCK_RECORD
  5
354
330
1
100
AcDbSymbolTableRecord
100
AcDbBlockTableRecord
  2
*D18
340
0
  0
ENDTAB
  0
ENDSEC
  0
SECTION
  2
BLOCKS
  0
BLOCK
  5
20
330
1F
100
AcDbEntity
  8
0
100
AcDbBlockBegin
  2
*Model_Space
 70
     0
 10
0.0
 20
0.0
 30
0.0
  3
*Model_Space
  1
*Model_Space
  0
ENDBLK
  5
21
330
1F
100
AcDbEntity
  8
0
100
AcDbBlockEnd
  0
BLOCK
  5
1C
330
1B
100
AcDbEntity
 67
     1
  8
0
100
AcDbBlockBegin
  2
*Paper_Space
 70
     0
 10
0.0
 20
0.0
 30
0.0
  3
*Paper_Space
  1
*Paper_Space
  0
ENDBLK
  5
1D
330
1B
100
AcDbEntity
 67
     1
  8
0
100
AcDbBlockEnd
  0
BLOCK
  5
24
330
23
100
AcDbEntity
  8
0
100
AcDbBlockBegin
  2
*Paper_Space0
 70
     0
 10
0.0
 20
0.0
 30
0.0
  3
*Paper_Space0
  1
*Paper_Space0
  0
ENDBLK
  5
25
330
23
100
AcDbEntity
  8
0
100
AcDbBlockEnd
  0
BLOCK
  5
80
330
7F
100
AcDbEntity
  8
0
100
AcDbBlockBegin
  2
블럭10
 70
     2
 10
0.0
 20
0.0
 30
0.0
  3
블럭10
  1
블럭10
  0
ELLIPSE
  5
82
330
7F
100
AcDbEntity
  8
중심선
100
AcDbEllipse
 10
20.54032771741204
 20
12.0471743016438
 30
0.0
 11
6.600054785286829
 21
-1.261213355974178E-13
 31
0.0
210
0.0
220
0.0
230
1.0
 40
0.636358354079598
 41
0.9219305317359503
 42
6.513795318482858
  0
ELLIPSE
  5
83
330
7F
100
AcDbEntity
  8
중심선
100
AcDbEllipse
 10
20.54032771746488
 20
12.04717430159265
 30
0.0
 11
3.960054785062283
 21
1.540847449632565E-10
 31
0.0
210
0.0
220
0.0
230
1.0
 40
0.3939339440162632
 41
1.131841032648279
 42
5.62031148352944
  0
LINE
  5
84
330
7F
100
AcDbEntity
  8
중심선
100
AcDbLine
 10
2.268634060543552
 20
16.24717430164393
 30
0.0
 11
5.714909304380834
 21
16.24717430164393
 31
0.0
  0
LINE
  5
85
330
7F
100
AcDbEntity
  8
중심선
100
AcDbLine
 10
5.245725140726316
 20
7.84717430164391
 30
0.0
 11
8.692000384563599
 21
7.84717430164391
 31
0.0
  0
LINE
  5
86
330
7F
100
AcDbEntity
  8
중심선
100
AcDbLine
 10
15.74043728645272
 20
16.24717430164393
 30
0.0
 11
8.692000384563599
 21
7.84717430164391
 31
0.0
  0
LINE
  5
87
330
7F
100
AcDbEntity
  8
중심선
100
AcDbLine
 10
0.1404042013395286
 20
13.71084872107135
 30
0.0
 11
3.58671253028996
 21
13.71088815037384
 31
0.0
  0
LINE
  5
88
330
7F
100
AcDbEntity
  8
중심선
100
AcDbLine
 10
2.750260043222114
 20
10.84717430164391
 30
0.0
 11
6.196535287059397
 21
10.84717430164391
 31
0.0
  0
LINE
  5
89
330
7F
100
AcDbEntity
  8
중심선
100
AcDbLine
 10
12.29416204261559
 20
16.24717430164393
 30
0.0
 11
5.245725140726316
 21
7.84717430164391
 31
0.0
  0
LINE
  5
8A
330
7F
100
AcDbEntity
  8
중심선
100
AcDbLine
 10
10.72767329541681
 20
16.24717430164393
 30
0.0
 11
6.196535287059397
 21
10.84717430164391
 31
0.0
  0
LINE
  5
8B
330
7F
100
AcDbEntity
  8
중심선
100
AcDbLine
 10
7.28139805157953
 20
16.24717430164393
 30
0.0
 11
2.750260043222114
 21
10.84717430164391
 31
0.0
  0
LINE
  5
8C
330
7F
100
AcDbEntity
  8
중심선
100
AcDbLine
 10
5.714909304380834
 20
16.24717430164393
 30
0.0
 11
3.58671253028996
 21
13.71088815037384
 31
0.0
  0
LINE
  5
8D
330
7F
100
AcDbEntity
  8
중심선
100
AcDbLine
 10
2.268634060543552
 20
16.24717430164393
 30
0.0
 11
0.1404042013395286
 21
13.71084872107135
 31
0.0
  0
LINE
  5
8E
330
7F
100
AcDbEntity
  8
중심선
100
AcDbLine
 10
7.28139805157953
 20
16.24717430164393
 30
0.0
 11
10.72767329541681
 21
16.24717430164393
 31
0.0
  0
LINE
  5
8F
330
7F
100
AcDbEntity
  8
중심선
100
AcDbLine
 10
12.29416204261559
 20
16.24717430164393
 30
0.0
 11
15.74043728645272
 21
16.24717430164393
 31
0.0
  0
LINE
  5
90
330
7F
100
AcDbEntity
  8
중심선
100
AcDbLine
 10
19.22036997980202
 20
11.08717430171403
 30
0.0
 11
23.66174974927406
 21
11.08717430171406
 31
0.0
  0
LINE
  5
91
330
7F
100
AcDbEntity
  8
중심선
100
AcDbLine
 10
19.22039502424796
 20
13.00717430171391
 30
0.0
 11
19.22036997980202
 21
11.08717430171403
 31
0.0
  0
LINE
  5
92
330
7F
100
AcDbEntity
  8
중심선
100
AcDbLine
 10
19.22039502424796
 20
13.00717430171391
 30
0.0
 11
26.96566020931264
 21
13.00717430171391
 31
0.0
  0
LINE
  5
93
330
7F
100
AcDbEntity
  8
중심선
100
AcDbLine
 10
22.22332737316547
 20
13.45928029700563
 30
0.0
 11
24.52862924686651
 21
15.39360700705356
 31
0.0
  0
ATTDEF
  5
95
330
7F
100
AcDbEntity
  8
FORMAT
 62
     2
100
AcDbText
 10
4.408487351596664
 20
2.075366912832191
 30
0.0
 40
4.233333333333333
  1
E1053025
 41
0.75
  7
SLDTEXTSTYLE0
 11
4.408487351596664
 21
-0.0412997538344756
 31
0.0
100
AcDbAttributeDefinition
  3

  2
AUTOATTR0
 70
     0
 74
     1
  0
ENDBLK
  5
81
330
7F
100
AcDbEntity
  8
0
100
AcDbBlockEnd
  0
BLOCK
  5
D2
330
D1
100
AcDbEntity
  8
0
100
AcDbBlockBegin
  2
_D
 70
     0
 10
0.0
 20
0.0
 30
0.0
  3
_D
  1
_D
  0
LINE
  5
D4
330
D1
100
AcDbEntity
  8
치수문자_일반주서
 62
     0
370
    -2
100
AcDbLine
 10
52.44999999999998
 20
4.960937500000005
 30
0.0
 11
70.77418101980787
 21
4.960937500000071
 31
0.0
  0
LINE
  5
D5
330
D1
100
AcDbEntity
  8
치수문자_일반주서
 62
     0
370
    -2
100
AcDbLine
 10
52.44999999999998
 20
-4.960937499999993
 30
0.0
 11
70.7741810198079
 21
-4.960937499999918
 31
0.0
  0
LINE
  5
D6
330
D1
100
AcDbEntity
  8
치수문자_일반주서
 62
     0
370
    -2
100
AcDbLine
 10
70.77418101980787
 20
4.960937500000071
 30
0.0
 11
70.77418101980776
 21
43.0649375000001
 31
0.0
  0
LINE
  5
D7
330
D1
100
AcDbEntity
  8
치수문자_일반주서
 62
     0
370
    -2
100
AcDbLine
 10
70.77418101980787
 20
4.960937500000071
 30
0.0
 11
70.7741810198079
 21
-4.960937499999918
 31
0.0
  0
LINE
  5
D8
330
D1
100
AcDbEntity
  8
치수문자_일반주서
 62
     0
370
    -2
100
AcDbLine
 10
70.77418101980786
 20
8.26293750000007
 30
0.0
 11
70.77418101980784
 21
11.56493750000007
 31
0.0
  0
LINE
  5
D9
330
D1
100
AcDbEntity
  8
치수문자_일반주서
 62
     0
370
    -2
100
AcDbLine
 10
70.77418101980791
 20
-8.262937499999918
 30
0.0
 11
70.77418101980793
 21
-11.56493749999992
 31
0.0
  0
SOLID
  5
DA
330
D1
100
AcDbEntity
  8
치수문자_일반주서
 62
     0
100
AcDbTrace
 10
70.22384768647453
 20
8.262937500000069
 30
0.0
 11
71.32451435314118
 21
8.262937500000072
 31
0.0
 12
70.77418101980787
 22
4.960937500000071
 32
0.0
 13
70.77418101980787
 23
4.960937500000071
 33
0.0
  0
SOLID
  5
DB
330
D1
100
AcDbEntity
  8
치수문자_일반주서
 62
     0
100
AcDbTrace
 10
71.32451435314124
 20
-8.262937499999916
 30
0.0
 11
70.22384768647458
 21
-8.26293749999992
 31
0.0
 12
70.7741810198079
 22
-4.960937499999918
 32
0.0
 13
70.7741810198079
 23
-4.960937499999918
 33
0.0
  0
MTEXT
  5
DC
330
D1
100
AcDbEntity
  8
치수문자_일반주서
 62
     0
100
AcDbMText
 10
66.3991810198078
 20
27.31493750000008
 30
0.0
 40
3.5
 41
0.0
 71
     2
 72
     1
  1
\A1;%%c9.92 [25/64]
  7
SLDTEXTSTYLE0
 11
-2.864550241804499E-15
 21
1.0
 31
0.0
 73
     1
 44
1.0
  0
POINT
  5
DD
330
D1
100
AcDbEntity
  8
Defpoints
 62
     0
100
AcDbPoint
 10
52.38749999999998
 20
4.960937500000005
 30
0.0
  0
POINT
  5
24D
330
D1
100
AcDbEntity
  8
Defpoints
 62
     0
100
AcDbPoint
 10
52.38749999999998
 20
-4.960937499999993
 30
0.0
  0
POINT
  5
24E
330
D1
100
AcDbEntity
  8
Defpoints
 62
     0
100
AcDbPoint
 10
70.77418101980788
 20
-4.960937499999925
 30
0.0
  0
ENDBLK
  5
D3
330
D1
100
AcDbEntity
  8
0
100
AcDbBlockEnd
  0
BLOCK
  5
E6
330
E5
100
AcDbEntity
  8
0
100
AcDbBlockBegin
  2
_D_1
 70
     0
 10
0.0
 20
0.0
 30
0.0
  3
_D_1
  1
_D_1
  0
LINE
  5
E8
330
E5
100
AcDbEntity
  8
치수문자_일반주서
 62
     0
370
    -2
100
AcDbLine
 10
52.38749999999998
 20
5.023437500000005
 30
0.0
 11
52.38749999999998
 21
15.73481935620197
 31
0.0
  0
LINE
  5
E9
330
E5
100
AcDbEntity
  8
치수문자_일반주서
 62
     0
370
    -2
100
AcDbLine
 10
26.98749999999997
 20
4.998809504175265
 30
0.0
 11
26.98749999999997
 21
15.73481935620197
 31
0.0
  0
LINE
  5
EA
330
E5
100
AcDbEntity
  8
치수문자_일반주서
 62
     0
370
    -2
100
AcDbLine
 10
26.98749999999997
 20
15.73481935620197
 30
0.0
 11
-3.819071401747088
 21
15.73481935620197
 31
0.0
  0
LINE
  5
EB
330
E5
100
AcDbEntity
  8
치수문자_일반주서
 62
     0
370
    -2
100
AcDbLine
 10
52.38749999999998
 20
15.73481935620197
 30
0.0
 11
26.98749999999997
 21
15.73481935620197
 31
0.0
  0
LINE
  5
EC
330
E5
100
AcDbEntity
  8
치수문자_일반주서
 62
     0
370
    -2
100
AcDbLine
 10
55.68949999999998
 20
15.73481935620197
 30
0.0
 11
58.99149999999998
 21
15.73481935620197
 31
0.0
  0
LINE
  5
ED
330
E5
100
AcDbEntity
  8
치수문자_일반주서
 62
     0
370
    -2
100
AcDbLine
 10
23.68549999999997
 20
15.73481935620197
 30
0.0
 11
20.38349999999997
 21
15.73481935620197
 31
0.0
  0
SOLID
  5
EE
330
E5
100
AcDbEntity
  8
치수문자_일반주서
 62
     0
100
AcDbTrace
 10
55.68949999999998
 20
16.28515268953531
 30
0.0
 11
55.68949999999998
 21
15.18448602286864
 31
0.0
 12
52.38749999999998
 22
15.73481935620197
 32
0.0
 13
52.38749999999998
 23
15.73481935620197
 33
0.0
  0
SOLID
  5
EF
330
E5
100
AcDbEntity
  8
치수문자_일반주서
 62
     0
100
AcDbTrace
 10
23.68549999999997
 20
15.18448602286864
 30
0.0
 11
23.68549999999997
 21
16.28515268953531
 31
0.0
 12
26.98749999999997
 22
15.73481935620197
 32
0.0
 13
26.98749999999997
 23
15.73481935620197
 33
0.0
  0
MTEXT
  5
F0
330
E5
100
AcDbEntity
  8
치수문자_일반주서
 62
     0
100
AcDbMText
 10
6.024678598252912
 20
20.10981935620197
 30
0.0
 40
3.5
 41
0.0
 71
     2
 72
     1
  1
\A1;25.40 [1]
  7
SLDTEXTSTYLE0
 73
     1
 44
1.0
  0
POINT
  5
F1
330
E5
100
AcDbEntity
  8
Defpoints
 62
     0
100
AcDbPoint
 10
52.38749999999998
 20
4.960937500000005
 30
0.0
  0
POINT
  5
24F
330
E5
100
AcDbEntity
  8
Defpoints
 62
     0
100
AcDbPoint
 10
26.98749999999997
 20
4.936309504175265
 30
0.0
  0
POINT
  5
250
330
E5
100
AcDbEntity
  8
Defpoints
 62
     0
100
AcDbPoint
 10
26.98749999999997
 20
15.73481935620197
 30
0.0
  0
ENDBLK
  5
E7
330
E5
100
AcDbEntity
  8
0
100
AcDbBlockEnd
  0
BLOCK
  5
FA
330
F9
100
AcDbEntity
  8
0
100
AcDbBlockBegin
  2
_D_2
 70
     0
 10
0.0
 20
0.0
 30
0.0
  3
_D_2
  1
_D_2
  0
LINE
  5
FC
330
F9
100
AcDbEntity
  8
치수문자_일반주서
 62
     0
370
    -2
100
AcDbLine
 10
52.38749999999998
 20
5.023437500000005
 30
0.0
 11
52.38749999999998
 21
33.10081493654526
 31
0.0
  0
LINE
  5
FD
330
F9
100
AcDbEntity
  8
치수문자_일반주서
 62
     0
370
    -2
100
AcDbLine
 10
-52.38749999999995
 20
5.023437499999985
 30
0.0
 11
-52.38749999999995
 21
33.10081493654526
 31
0.0
  0
LINE
  5
FE
330
F9
100
AcDbEntity
  8
치수문자_일반주서
 62
     0
370
    -2
100
AcDbLine
 10
49.08549999999998
 20
33.10081493654526
 30
0.0
 11
-49.08549999999995
 21
33.10081493654526
 31
0.0
  0
SOLID
  5
FF
330
F9
100
AcDbEntity
  8
치수문자_일반주서
 62
     0
100
AcDbTrace
 10
49.08549999999998
 20
32.55048160321193
 30
0.0
 11
49.08549999999998
 21
33.6511482698786
 31
0.0
 12
52.38749999999998
 22
33.10081493654526
 32
0.0
 13
52.38749999999998
 23
33.10081493654526
 33
0.0
  0
SOLID
  5
100
330
F9
100
AcDbEntity
  8
치수문자_일반주서
 62
     0
100
AcDbTrace
 10
-49.08549999999995
 20
33.6511482698786
 30
0.0
 11
-49.08549999999995
 21
32.55048160321193
 31
0.0
 12
-52.38749999999995
 22
33.10081493654526
 32
0.0
 13
-52.38749999999995
 23
33.10081493654526
 33
0.0
  0
MTEXT
  5
101
330
F9
100
AcDbEntity
  8
치수문자_일반주서
 62
     0
100
AcDbMText
 10
0.1166594832907819
 20
37.47581493654526
 30
0.0
 40
3.5
 41
0.0
 71
     2
 72
     1
  1
\A1;104.78 [4 1/8]
  7
SLDTEXTSTYLE0
 73
     1
 44
1.0
  0
POINT
  5
102
330
F9
100
AcDbEntity
  8
Defpoints
 62
     0
100
AcDbPoint
 10
52.38749999999998
 20
4.960937500000005
 30
0.0
  0
POINT
  5
103
330
F9
100
AcDbEntity
  8
Defpoints
 62
     0
100
AcDbPoint
 10
-52.38749999999995
 20
4.960937499999985
 30
0.0
  0
POINT
  5
104
330
F9
100
AcDbEntity
  8
Defpoints
 62
     0
100
AcDbPoint
 10
-52.38749999999995
 20
33.10081493654526
 30
0.0
  0
ENDBLK
  5
FB
330
F9
100
AcDbEntity
  8
0
100
AcDbBlockEnd
  0
BLOCK
  5
10E
330
10D
100
AcDbEntity
  8
0
100
AcDbBlockBegin
  2
_D_3
 70
     0
 10
0.0
 20
0.0
 30
0.0
  3
_D_3
  1
_D_3
  0
LINE
  5
110
330
10D
100
AcDbEntity
  8
치수문자_일반주서
 62
     0
370
    -2
100
AcDbLine
 10
-20.86594817511132
 20
6.350000000000001
 30
0.0
 11
-64.59375000000004
 21
6.349999999999837
 31
0.0
  0
LINE
  5
111
330
10D
100
AcDbEntity
  8
치수문자_일반주서
 62
     0
370
    -2
100
AcDbLine
 10
-20.86594817511132
 20
-6.350000000000017
 30
0.0
 11
-64.59375
 21
-6.350000000000181
 31
0.0
  0
LINE
  5
112
330
10D
100
AcDbEntity
  8
치수문자_일반주서
 62
     0
370
    -2
100
AcDbLine
 10
-64.59375000000003
 20
3.047999999999838
 30
0.0
 11
-64.59375000000001
 21
-3.048000000000181
 31
0.0
  0
SOLID
  5
113
330
10D
100
AcDbEntity
  8
치수문자_일반주서
 62
     0
100
AcDbTrace
 10
-64.0434166666667
 20
3.047999999999839
 30
0.0
 11
-65.14408333333336
 21
3.047999999999836
 31
0.0
 12
-64.59375000000004
 22
6.349999999999837
 32
0.0
 13
-64.59375000000004
 23
6.349999999999837
 33
0.0
  0
SOLID
  5
114
330
10D
100
AcDbEntity
  8
치수문자_일반주서
 62
     0
100
AcDbTrace
 10
-65.14408333333334
 20
-3.048000000000183
 30
0.0
 11
-64.04341666666669
 21
-3.048000000000179
 31
0.0
 12
-64.59375
 22
-6.350000000000181
 32
0.0
 13
-64.59375
 23
-6.350000000000181
 33
0.0
  0
MTEXT
  5
115
330
10D
100
AcDbEntity
  8
치수문자_일반주서
 62
     0
100
AcDbMText
 10
-68.96875000000003
 20
-0.0000000000000232
 30
0.0
 40
3.5
 41
0.0
 71
     2
 72
     1
  1
\A1;%%c12.70 [1/2]
  7
SLDTEXTSTYLE0
 11
-3.356894814614642E-15
 21
1.0
 31
0.0
 73
     1
 44
1.0
  0
POINT
  5
116
330
10D
100
AcDbEntity
  8
Defpoints
 62
     0
100
AcDbPoint
 10
-20.80344817511132
 20
6.350000000000001
 30
0.0
  0
POINT
  5
117
330
10D
100
AcDbEntity
  8
Defpoints
 62
     0
100
AcDbPoint
 10
-20.80344817511132
 20
-6.350000000000017
 30
0.0
  0
POINT
  5
118
330
10D
100
AcDbEntity
  8
Defpoints
 62
     0
100
AcDbPoint
 10
-64.59375
 20
-6.35000000000018
 30
0.0
  0
ENDBLK
  5
10F
330
10D
100
AcDbEntity
  8
0
100
AcDbBlockEnd
  0
BLOCK
  5
128
330
127
100
AcDbEntity
  8
0
100
AcDbBlockBegin
  2
SW_DOWELSYMBOL_0
 70
     0
 10
0.0
 20
0.0
 30
0.0
  3
SW_DOWELSYMBOL_0
  1
SW_DOWELSYMBOL_0
  0
CIRCLE
  5
12A
330
127
100
AcDbEntity
  8
해칭선
 62
     0
100
AcDbCircle
 10
0.0
 20
0.0
 30
0.0
 40
3.000000000000008
  0
HATCH
  5
12B
330
127
100
AcDbEntity
  8
0
  6
Continuous
 62
     0
370
     0
100
AcDbHatch
 10
0.0
 20
0.0
 30
0.0
210
0.0
220
0.0
230
1.0
  2
SOLID
 70
     1
 71
     0
 91
        1
 92
        0
 93
        3
 72
     2
 10
0.0
 20
0.0
 40
3.000000000000008
 50
0.0
 51
90.0
 73
     1
 72
     1
 10
0.0
 20
3.000000000000008
 11
0.0
 21
0.0
 72
     1
 10
0.0
 20
0.0
 11
3.00000000000001
 21
0.0
 97
        0
 75
     0
 76
     1
 98
        1
 10
0.0
 20
0.0
  0
HATCH
  5
12C
330
127
100
AcDbEntity
  8
0
  6
Continuous
 62
     0
370
     0
100
AcDbHatch
 10
0.0
 20
0.0
 30
0.0
210
0.0
220
0.0
230
1.0
  2
SOLID
 70
     1
 71
     0
 91
        1
 92
        0
 93
        3
 72
     2
 10
0.0
 20
0.0
 40
3.000000000000008
 50
180.0
 51
270.0000000000007
 73
     1
 72
     1
 10
0.0
 20
-3.000000000000008
 11
0.0
 21
0.0
 72
     1
 10
0.0
 20
0.0
 11
-3.00000000000001
 21
0.0
 97
        0
 75
     0
 76
     1
 98
        1
 10
0.0
 20
0.0
  0
ENDBLK
  5
129
330
127
100
AcDbEntity
  8
0
100
AcDbBlockEnd
  0
BLOCK
  5
1D5
330
1D4
100
AcDbEntity
  8
0
100
AcDbBlockBegin
  2
*D7
 70
     1
 10
0.0
 20
0.0
 30
0.0
  3
*D7
  1
*D8
  0
LINE
  5
1D7
330
1D4
100
AcDbEntity
  8
치수문자_일반주서
 62
     0
370
    -2
100
AcDbLine
 10
91.96250000000002
 20
16.12899999999993
 30
0.0
 11
108.7775393559568
 21
16.129
 31
0.0
  0
LINE
  5
1D8
330
1D4
100
AcDbEntity
  8
치수문자_일반주서
 62
     0
370
    -2
100
AcDbLine
 10
91.9625
 20
6.603999999999934
 30
0.0
 11
108.7775393559568
 21
6.603999999999999
 31
0.0
  0
LINE
  5
1D9
330
1D4
100
AcDbEntity
  8
치수문자_일반주서
 62
     0
370
    -2
100
AcDbLine
 10
108.7775393559568
 20
16.129
 30
0.0
 11
108.7775393559567
 21
48.983
 31
0.0
  0
LINE
  5
1DA
330
1D4
100
AcDbEntity
  8
치수문자_일반주서
 62
     0
370
    -2
100
AcDbLine
 10
108.7775393559568
 20
16.129
 30
0.0
 11
108.7775393559568
 21
6.603999999999999
 31
0.0
  0
LINE
  5
1DB
330
1D4
100
AcDbEntity
  8
치수문자_일반주서
 62
     0
370
    -2
100
AcDbLine
 10
108.7775393559568
 20
19.431
 30
0.0
 11
108.7775393559568
 21
22.733
 31
0.0
  0
LINE
  5
1DC
330
1D4
100
AcDbEntity
  8
치수문자_일반주서
 62
     0
370
    -2
100
AcDbLine
 10
108.7775393559568
 20
3.302
 30
0.0
 11
108.7775393559569
 21
0.0
 31
0.0
  0
SOLID
  5
1DD
330
1D4
100
AcDbEntity
  8
치수문자_일반주서
 62
     0
100
AcDbTrace
 10
108.2272060226235
 20
19.431
 30
0.0
 11
109.3278726892901
 21
19.431
 31
0.0
 12
108.7775393559568
 22
16.129
 32
0.0
 13
108.7775393559568
 23
16.129
 33
0.0
  0
SOLID
  5
1DE
330
1D4
100
AcDbEntity
  8
치수문자_일반주서
 62
     0
100
AcDbTrace
 10
109.3278726892902
 20
3.302000000000001
 30
0.0
 11
108.2272060226235
 21
3.301999999999998
 31
0.0
 12
108.7775393559568
 22
6.603999999999999
 32
0.0
 13
108.7775393559568
 23
6.603999999999999
 33
0.0
  0
MTEXT
  5
1DF
330
1D4
100
AcDbEntity
  8
치수문자_일반주서
 62
     0
100
AcDbMText
 10
104.4025393559567
 20
35.85799999999998
 30
0.0
 40
3.5
 41
0.0
 71
     2
 72
     1
  1
\A1;%%c9.53 [3/8]
  7
SLDTEXTSTYLE0
 11
-2.983906501879686E-15
 21
1.0
 31
0.0
 73
     1
 44
1.0
  0
POINT
  5
1E0
330
1D4
100
AcDbEntity
  8
Defpoints
 62
     0
100
AcDbPoint
 10
91.90000000000002
 20
16.12899999999993
 30
0.0
  0
POINT
  5
1E1
330
1D4
100
AcDbEntity
  8
Defpoints
 62
     0
100
AcDbPoint
 10
91.9
 20
6.603999999999934
 30
0.0
  0
POINT
  5
1E2
330
1D4
100
AcDbEntity
  8
Defpoints
 62
     0
100
AcDbPoint
 10
108.7775393559568
 20
6.603999999999997
 30
0.0
  0
ENDBLK
  5
1D6
330
1D4
100
AcDbEntity
  8
0
100
AcDbBlockEnd
  0
BLOCK
  5
1E4
330
1E3
100
AcDbEntity
  8
0
100
AcDbBlockBegin
  2
*D8
 70
     1
 10
0.0
 20
0.0
 30
0.0
  3
*D8
  1
*D9
  0
LINE
  5
1E6
330
1E3
100
AcDbEntity
  8
치수문자_일반주서
 62
     0
370
    -2
100
AcDbLine
 10
91.90000000000002
 20
16.19149999999993
 30
0.0
 11
91.90000000000002
 21
30.27765835679359
 31
0.0
  0
LINE
  5
1E7
330
1E3
100
AcDbEntity
  8
치수문자_일반주서
 62
     0
370
    -2
100
AcDbLine
 10
72.85
 20
15.82605620290988
 30
0.0
 11
72.85
 21
30.27765835679359
 31
0.0
  0
LINE
  5
1E8
330
1E3
100
AcDbEntity
  8
치수문자_일반주서
 62
     0
370
    -2
100
AcDbLine
 10
72.85
 20
30.27765835679359
 30
0.0
 11
41.3085
 21
30.27765835679359
 31
0.0
  0
LINE
  5
1E9
330
1E3
100
AcDbEntity
  8
치수문자_일반주서
 62
     0
370
    -2
100
AcDbLine
 10
91.90000000000002
 20
30.27765835679359
 30
0.0
 11
72.85
 21
30.27765835679359
 31
0.0
  0
LINE
  5
1EA
330
1E3
100
AcDbEntity
  8
치수문자_일반주서
 62
     0
370
    -2
100
AcDbLine
 10
95.20200000000003
 20
30.27765835679359
 30
0.0
 11
98.50400000000002
 21
30.27765835679359
 31
0.0
  0
LINE
  5
1EB
330
1E3
100
AcDbEntity
  8
치수문자_일반주서
 62
     0
370
    -2
100
AcDbLine
 10
69.548
 20
30.27765835679359
 30
0.0
 11
66.24600000000001
 21
30.27765835679359
 31
0.0
  0
SOLID
  5
1EC
330
1E3
100
AcDbEntity
  8
치수문자_일반주서
 62
     0
100
AcDbTrace
 10
95.20200000000003
 20
30.82799169012693
 30
0.0
 11
95.20200000000003
 21
29.72732502346026
 31
0.0
 12
91.90000000000002
 22
30.27765835679359
 32
0.0
 13
91.90000000000002
 23
30.27765835679359
 33
0.0
  0
SOLID
  5
1ED
330
1E3
100
AcDbEntity
  8
치수문자_일반주서
 62
     0
100
AcDbTrace
 10
69.548
 20
29.72732502346026
 30
0.0
 11
69.548
 21
30.82799169012693
 31
0.0
 12
72.85
 22
30.27765835679359
 32
0.0
 13
72.85
 23
30.27765835679359
 33
0.0
  0
MTEXT
  5
1EE
330
1E3
100
AcDbEntity
  8
치수문자_일반주서
 62
     0
100
AcDbMText
 10
53.77725
 20
34.65265835679359
 30
0.0
 40
3.5
 41
0.0
 71
     2
 72
     1
  1
\A1;19.05 [3/4]
  7
SLDTEXTSTYLE0
 73
     1
 44
1.0
  0
POINT
  5
1EF
330
1E3
100
AcDbEntity
  8
Defpoints
 62
     0
100
AcDbPoint
 10
91.90000000000002
 20
16.12899999999993
 30
0.0
  0
POINT
  5
1F0
330
1E3
100
AcDbEntity
  8
Defpoints
 62
     0
100
AcDbPoint
 10
72.85
 20
15.76355620290988
 30
0.0
  0
POINT
  5
1F1
330
1E3
100
AcDbEntity
  8
Defpoints
 62
     0
100
AcDbPoint
 10
72.85
 20
30.27765835679359
 30
0.0
  0
ENDBLK
  5
1E5
330
1E3
100
AcDbEntity
  8
0
100
AcDbBlockEnd
  0
BLOCK
  5
1F3
330
1F2
100
AcDbEntity
  8
0
100
AcDbBlockBegin
  2
*D9
 70
     1
 10
0.0
 20
0.0
 30
0.0
  3
*D9
  1
*D10
  0
LINE
  5
1F5
330
1F2
100
AcDbEntity
  8
치수문자_일반주서
 62
     0
370
    -2
100
AcDbLine
 10
91.90000000000002
 20
16.19149999999993
 30
0.0
 11
91.9
 21
49.04993837155764
 31
0.0
  0
LINE
  5
1F6
330
1F2
100
AcDbEntity
  8
치수문자_일반주서
 62
     0
370
    -2
100
AcDbLine
 10
3.000000000000007
 20
15.23899999999993
 30
0.0
 11
2.999999999999993
 21
49.04993837155764
 31
0.0
  0
LINE
  5
1F7
330
1F2
100
AcDbEntity
  8
치수문자_일반주서
 62
     0
370
    -2
100
AcDbLine
 10
88.59800000000001
 20
49.04993837155764
 30
0.0
 11
6.301999999999992
 21
49.04993837155764
 31
0.0
  0
SOLID
  5
1F8
330
1F2
100
AcDbEntity
  8
치수문자_일반주서
 62
     0
100
AcDbTrace
 10
88.59800000000001
 20
48.49960503822431
 30
0.0
 11
88.59800000000001
 21
49.60027170489098
 31
0.0
 12
91.9
 22
49.04993837155764
 32
0.0
 13
91.9
 23
49.04993837155764
 33
0.0
  0
SOLID
  5
1F9
330
1F2
100
AcDbEntity
  8
치수문자_일반주서
 62
     0
100
AcDbTrace
 10
6.301999999999992
 20
49.60027170489098
 30
0.0
 11
6.301999999999992
 21
48.49960503822431
 31
0.0
 12
2.999999999999993
 22
49.04993837155764
 32
0.0
 13
2.999999999999993
 23
49.04993837155764
 33
0.0
  0
MTEXT
  5
1FA
330
1F2
100
AcDbEntity
  8
치수문자_일반주서
 62
     0
100
AcDbMText
 10
51.78163248678271
 20
53.42493837155764
 30
0.0
 40
3.5
 41
0.0
 71
     2
 72
     1
  1
\A1;88.90 [3 1/2]
  7
SLDTEXTSTYLE0
 73
     1
 44
1.0
  0
POINT
  5
1FB
330
1F2
100
AcDbEntity
  8
Defpoints
 62
     0
100
AcDbPoint
 10
91.90000000000002
 20
16.12899999999993
 30
0.0
  0
POINT
  5
1FC
330
1F2
100
AcDbEntity
  8
Defpoints
 62
     0
100
AcDbPoint
 10
3.000000000000007
 20
15.17649999999993
 30
0.0
  0
POINT
  5
1FD
330
1F2
100
AcDbEntity
  8
Defpoints
 62
     0
100
AcDbPoint
 10
3.000000000000007
 20
49.04993837155764
 30
0.0
  0
ENDBLK
  5
1F4
330
1F2
100
AcDbEntity
  8
0
100
AcDbBlockEnd
  0
BLOCK
  5
224
330
223
100
AcDbEntity
  8
0
100
AcDbBlockBegin
  2
*D10
 70
     1
 10
0.0
 20
0.0
 30
0.0
  3
*D10
  1
*D11
  0
LINE
  5
226
330
223
100
AcDbEntity
  8
치수문자_일반주서
 62
     0
370
    -2
100
AcDbLine
 10
187.0398280696722
 20
-46.64096174404545
 30
0.0
 11
203.854867425629
 21
-46.64096174404538
 31
0.0
  0
LINE
  5
227
330
223
100
AcDbEntity
  8
치수문자_일반주서
 62
     0
370
    -2
100
AcDbLine
 10
187.0398280696722
 20
-56.16596174404545
 30
0.0
 11
203.854867425629
 21
-56.16596174404538
 31
0.0
  0
LINE
  5
228
330
223
100
AcDbEntity
  8
치수문자_일반주서
 62
     0
370
    -2
100
AcDbLine
 10
203.854867425629
 20
-46.64096174404538
 30
0.0
 11
203.8548674256289
 21
-13.78696174404539
 31
0.0
  0
LINE
  5
229
330
223
100
AcDbEntity
  8
치수문자_일반주서
 62
     0
370
    -2
100
AcDbLine
 10
203.854867425629
 20
-46.64096174404538
 30
0.0
 11
203.854867425629
 21
-56.16596174404538
 31
0.0
  0
LINE
  5
22A
330
223
100
AcDbEntity
  8
치수문자_일반주서
 62
     0
370
    -2
100
AcDbLine
 10
203.854867425629
 20
-43.33896174404538
 30
0.0
 11
203.854867425629
 21
-40.03696174404539
 31
0.0
  0
LINE
  5
22B
330
223
100
AcDbEntity
  8
치수문자_일반주서
 62
     0
370
    -2
100
AcDbLine
 10
203.854867425629
 20
-59.46796174404538
 30
0.0
 11
203.854867425629
 21
-62.76996174404538
 31
0.0
  0
SOLID
  5
22C
330
223
100
AcDbEntity
  8
치수문자_일반주서
 62
     0
100
AcDbTrace
 10
203.3045340922957
 20
-43.33896174404538
 30
0.0
 11
204.4052007589623
 21
-43.33896174404538
 31
0.0
 12
203.854867425629
 22
-46.64096174404538
 32
0.0
 13
203.854867425629
 23
-46.64096174404538
 33
0.0
  0
SOLID
  5
22D
330
223
100
AcDbEntity
  8
치수문자_일반주서
 62
     0
100
AcDbTrace
 10
204.4052007589624
 20
-59.46796174404538
 30
0.0
 11
203.3045340922957
 21
-59.46796174404538
 31
0.0
 12
203.854867425629
 22
-56.16596174404538
 32
0.0
 13
203.854867425629
 23
-56.16596174404538
 33
0.0
  0
MTEXT
  5
22E
330
223
100
AcDbEntity
  8
치수문자_일반주서
 62
     0
100
AcDbMText
 10
199.479867425629
 20
-26.9119617440454
 30
0.0
 40
3.5
 41
0.0
 71
     2
 72
     1
  1
\A1;%%c9.53 [3/8]
  7
SLDTEXTSTYLE0
 11
-2.983906501879686E-15
 21
1.0
 31
0.0
 73
     1
 44
1.0
  0
POINT
  5
22F
330
223
100
AcDbEntity
  8
Defpoints
 62
     0
100
AcDbPoint
 10
186.9773280696722
 20
-46.64096174404545
 30
0.0
  0
POINT
  5
230
330
223
100
AcDbEntity
  8
Defpoints
 62
     0
100
AcDbPoint
 10
186.9773280696722
 20
-56.16596174404545
 30
0.0
  0
POINT
  5
231
330
223
100
AcDbEntity
  8
Defpoints
 62
     0
100
AcDbPoint
 10
203.854867425629
 20
-56.16596174404538
 30
0.0
  0
ENDBLK
  5
225
330
223
100
AcDbEntity
  8
0
100
AcDbBlockEnd
  0
BLOCK
  5
233
330
232
100
AcDbEntity
  8
0
100
AcDbBlockBegin
  2
*D11
 70
     1
 10
0.0
 20
0.0
 30
0.0
  3
*D11
  1
*D12
  0
LINE
  5
235
330
232
100
AcDbEntity
  8
치수문자_일반주서
 62
     0
370
    -2
100
AcDbLine
 10
186.9773280696722
 20
-46.57846174404545
 30
0.0
 11
186.9773280696722
 21
-32.49230338725179
 31
0.0
  0
LINE
  5
236
330
232
100
AcDbEntity
  8
치수문자_일반주서
 62
     0
370
    -2
100
AcDbLine
 10
167.9273280696722
 20
-46.94390554113551
 30
0.0
 11
167.9273280696722
 21
-32.49230338725179
 31
0.0
  0
LINE
  5
237
330
232
100
AcDbEntity
  8
치수문자_일반주서
 62
     0
370
    -2
100
AcDbLine
 10
167.9273280696722
 20
-32.49230338725179
 30
0.0
 11
136.3858280696722
 21
-32.49230338725179
 31
0.0
  0
LINE
  5
238
330
232
100
AcDbEntity
  8
치수문자_일반주서
 62
     0
370
    -2
100
AcDbLine
 10
186.9773280696722
 20
-32.49230338725179
 30
0.0
 11
167.9273280696722
 21
-32.49230338725179
 31
0.0
  0
LINE
  5
239
330
232
100
AcDbEntity
  8
치수문자_일반주서
 62
     0
370
    -2
100
AcDbLine
 10
190.2793280696722
 20
-32.49230338725179
 30
0.0
 11
193.5813280696722
 21
-32.49230338725179
 31
0.0
  0
LINE
  5
23A
330
232
100
AcDbEntity
  8
치수문자_일반주서
 62
     0
370
    -2
100
AcDbLine
 10
164.6253280696722
 20
-32.49230338725179
 30
0.0
 11
161.3233280696722
 21
-32.49230338725179
 31
0.0
  0
SOLID
  5
23B
330
232
100
AcDbEntity
  8
치수문자_일반주서
 62
     0
100
AcDbTrace
 10
190.2793280696722
 20
-31.94197005391846
 30
0.0
 11
190.2793280696722
 21
-33.04263672058513
 31
0.0
 12
186.9773280696722
 22
-32.49230338725179
 32
0.0
 13
186.9773280696722
 23
-32.49230338725179
 33
0.0
  0
SOLID
  5
23C
330
232
100
AcDbEntity
  8
치수문자_일반주서
 62
     0
100
AcDbTrace
 10
164.6253280696722
 20
-33.04263672058513
 30
0.0
 11
164.6253280696722
 21
-31.94197005391846
 31
0.0
 12
167.9273280696722
 22
-32.49230338725179
 32
0.0
 13
167.9273280696722
 23
-32.49230338725179
 33
0.0
  0
MTEXT
  5
23D
330
232
100
AcDbEntity
  8
치수문자_일반주서
 62
     0
100
AcDbMText
 10
148.8545780696722
 20
-28.11730338725179
 30
0.0
 40
3.5
 41
0.0
 71
     2
 72
     1
  1
\A1;19.05 [3/4]
  7
SLDTEXTSTYLE0
 73
     1
 44
1.0
  0
POINT
  5
23E
330
232
100
AcDbEntity
  8
Defpoints
 62
     0
100
AcDbPoint
 10
186.9773280696722
 20
-46.64096174404545
 30
0.0
  0
POINT
  5
23F
330
232
100
AcDbEntity
  8
Defpoints
 62
     0
100
AcDbPoint
 10
167.9273280696722
 20
-47.00640554113551
 30
0.0
  0
POINT
  5
240
330
232
100
AcDbEntity
  8
Defpoints
 62
     0
100
AcDbPoint
 10
167.9273280696722
 20
-32.49230338725179
 30
0.0
  0
ENDBLK
  5
234
330
232
100
AcDbEntity
  8
0
100
AcDbBlockEnd
  0
BLOCK
  5
242
330
241
100
AcDbEntity
  8
0
100
AcDbBlockBegin
  2
*D12
 70
     1
 10
0.0
 20
0.0
 30
0.0
  3
*D12
  1
*D13
  0
LINE
  5
244
330
241
100
AcDbEntity
  8
치수문자_일반주서
 62
     0
370
    -2
100
AcDbLine
 10
186.9773280696722
 20
-46.57846174404545
 30
0.0
 11
186.9773280696722
 21
-13.72002337248774
 31
0.0
  0
LINE
  5
245
330
241
100
AcDbEntity
  8
치수문자_일반주서
 62
     0
370
    -2
100
AcDbLine
 10
98.0773280696722
 20
-47.53096174404546
 30
0.0
 11
98.0773280696722
 21
-13.72002337248774
 31
0.0
  0
LINE
  5
246
330
241
100
AcDbEntity
  8
치수문자_일반주서
 62
     0
370
    -2
100
AcDbLine
 10
183.6753280696722
 20
-13.72002337248774
 30
0.0
 11
101.3793280696722
 21
-13.72002337248774
 31
0.0
  0
SOLID
  5
247
330
241
100
AcDbEntity
  8
치수문자_일반주서
 62
     0
100
AcDbTrace
 10
183.6753280696722
 20
-14.27035670582107
 30
0.0
 11
183.6753280696722
 21
-13.16969003915441
 31
0.0
 12
186.9773280696722
 22
-13.72002337248774
 32
0.0
 13
186.9773280696722
 23
-13.72002337248774
 33
0.0
  0
SOLID
  5
248
330
241
100
AcDbEntity
  8
치수문자_일반주서
 62
     0
100
AcDbTrace
 10
101.3793280696722
 20
-13.16969003915441
 30
0.0
 11
101.3793280696722
 21
-14.27035670582107
 31
0.0
 12
98.0773280696722
 22
-13.72002337248774
 32
0.0
 13
98.0773280696722
 23
-13.72002337248774
 33
0.0
  0
MTEXT
  5
249
330
241
100
AcDbEntity
  8
치수문자_일반주서
 62
     0
100
AcDbMText
 10
146.8589605564549
 20
-9.345023372487738
 30
0.0
 40
3.5
 41
0.0
 71
     2
 72
     1
  1
\A1;88.90 [3 1/2]
  7
SLDTEXTSTYLE0
 73
     1
 44
1.0
  0
POINT
  5
24A
330
241
100
AcDbEntity
  8
Defpoints
 62
     0
100
AcDbPoint
 10
186.9773280696722
 20
-46.64096174404545
 30
0.0
  0
POINT
  5
24B
330
241
100
AcDbEntity
  8
Defpoints
 62
     0
100
AcDbPoint
 10
98.0773280696722
 20
-47.59346174404546
 30
0.0
  0
POINT
  5
24C
330
241
100
AcDbEntity
  8
Defpoints
 62
     0
100
AcDbPoint
 10
98.0773280696722
 20
-13.72002337248774
 30
0.0
  0
ENDBLK
  5
243
330
241
100
AcDbEntity
  8
0
100
AcDbBlockEnd
  0
BLOCK
  5
2DE
330
2DD
100
AcDbEntity
  8
0
100
AcDbBlockBegin
  2
*D13
 70
     1
 10
0.0
 20
0.0
 30
0.0
  3
*D13
  1
*D15
  0
LINE
  5
2E0
330
2DD
100
AcDbEntity
  8
치수문자_일반주서
 62
     0
370
    -2
100
AcDbLine
 10
107.8375
 20
16.52587499999992
 30
0.0
 11
126.1616810198079
 21
16.52587499999999
 31
0.0
  0
LINE
  5
2E1
330
2DD
100
AcDbEntity
  8
치수문자_일반주서
 62
     0
370
    -2
100
AcDbLine
 10
107.8375
 20
6.603999999999925
 30
0.0
 11
126.1616810198079
 21
6.603999999999992
 31
0.0
  0
LINE
  5
2E2
330
2DD
100
AcDbEntity
  8
치수문자_일반주서
 62
     0
370
    -2
100
AcDbLine
 10
126.1616810198079
 20
16.52587499999999
 30
0.0
 11
126.1616810198078
 21
54.62987500000002
 31
0.0
  0
LINE
  5
2E3
330
2DD
100
AcDbEntity
  8
치수문자_일반주서
 62
     0
370
    -2
100
AcDbLine
 10
126.1616810198079
 20
16.52587499999999
 30
0.0
 11
126.1616810198079
 21
6.603999999999992
 31
0.0
  0
LINE
  5
2E4
330
2DD
100
AcDbEntity
  8
치수문자_일반주서
 62
     0
370
    -2
100
AcDbLine
 10
126.1616810198079
 20
19.82787499999999
 30
0.0
 11
126.1616810198078
 21
23.12987499999999
 31
0.0
  0
LINE
  5
2E5
330
2DD
100
AcDbEntity
  8
치수문자_일반주서
 62
     0
370
    -2
100
AcDbLine
 10
126.1616810198079
 20
3.301999999999992
 30
0.0
 11
126.1616810198079
 21
-0.0000000000000071
 31
0.0
  0
SOLID
  5
2E6
330
2DD
100
AcDbEntity
  8
치수문자_일반주서
 62
     0
100
AcDbTrace
 10
125.6113476864745
 20
19.82787499999999
 30
0.0
 11
126.7120143531412
 21
19.82787499999999
 31
0.0
 12
126.1616810198079
 22
16.52587499999999
 32
0.0
 13
126.1616810198079
 23
16.52587499999999
 33
0.0
  0
SOLID
  5
2E7
330
2DD
100
AcDbEntity
  8
치수문자_일반주서
 62
     0
100
AcDbTrace
 10
126.7120143531412
 20
3.301999999999994
 30
0.0
 11
125.6113476864746
 21
3.301999999999991
 31
0.0
 12
126.1616810198079
 22
6.603999999999992
 32
0.0
 13
126.1616810198079
 23
6.603999999999992
 33
0.0
  0
MTEXT
  5
2E8
330
2DD
100
AcDbEntity
  8
치수문자_일반주서
 62
     0
100
AcDbMText
 10
121.7866810198078
 20
38.879875
 30
0.0
 40
3.5
 41
0.0
 71
     2
 72
     1
  1
\A1;%%c9.92 [25/64]
  7
SLDTEXTSTYLE0
 11
-2.864550241804499E-15
 21
1.0
 31
0.0
 73
     1
 44
1.0
  0
POINT
  5
2E9
330
2DD
100
AcDbEntity
  8
Defpoints
 62
     0
100
AcDbPoint
 10
107.775
 20
16.52587499999992
 30
0.0
  0
POINT
  5
2EA
330
2DD
100
AcDbEntity
  8
Defpoints
 62
     0
100
AcDbPoint
 10
107.775
 20
6.603999999999925
 30
0.0
  0
POINT
  5
2EB
330
2DD
100
AcDbEntity
  8
Defpoints
 62
     0
100
AcDbPoint
 10
126.1616810198079
 20
6.603999999999994
 30
0.0
  0
ENDBLK
  5
2DF
330
2DD
100
AcDbEntity
  8
0
100
AcDbBlockEnd
  0
BLOCK
  5
2ED
330
2EC
100
AcDbEntity
  8
0
100
AcDbBlockBegin
  2
*D14
 70
     1
 10
0.0
 20
0.0
 30
0.0
  3
*D14
  1
*D16
  0
LINE
  5
2EF
330
2EC
100
AcDbEntity
  8
치수문자_일반주서
 62
     0
370
    -2
100
AcDbLine
 10
107.775
 20
16.58837499999992
 30
0.0
 11
107.775
 21
27.29975685620189
 31
0.0
  0
LINE
  5
2F0
330
2EC
100
AcDbEntity
  8
치수문자_일반주서
 62
     0
370
    -2
100
AcDbLine
 10
82.37499999999997
 20
16.56374700417518
 30
0.0
 11
82.37499999999997
 21
27.29975685620189
 31
0.0
  0
LINE
  5
2F1
330
2EC
100
AcDbEntity
  8
치수문자_일반주서
 62
     0
370
    -2
100
AcDbLine
 10
82.37499999999997
 20
27.29975685620189
 30
0.0
 11
51.56842859825292
 21
27.29975685620189
 31
0.0
  0
LINE
  5
2F2
330
2EC
100
AcDbEntity
  8
치수문자_일반주서
 62
     0
370
    -2
100
AcDbLine
 10
107.775
 20
27.29975685620189
 30
0.0
 11
82.37499999999997
 21
27.29975685620189
 31
0.0
  0
LINE
  5
2F3
330
2EC
100
AcDbEntity
  8
치수문자_일반주서
 62
     0
370
    -2
100
AcDbLine
 10
111.077
 20
27.29975685620189
 30
0.0
 11
114.379
 21
27.29975685620189
 31
0.0
  0
LINE
  5
2F4
330
2EC
100
AcDbEntity
  8
치수문자_일반주서
 62
     0
370
    -2
100
AcDbLine
 10
79.07299999999998
 20
27.29975685620189
 30
0.0
 11
75.77099999999999
 21
27.29975685620189
 31
0.0
  0
SOLID
  5
2F5
330
2EC
100
AcDbEntity
  8
치수문자_일반주서
 62
     0
100
AcDbTrace
 10
111.077
 20
27.85009018953523
 30
0.0
 11
111.077
 21
26.74942352286856
 31
0.0
 12
107.775
 22
27.29975685620189
 32
0.0
 13
107.775
 23
27.29975685620189
 33
0.0
  0
SOLID
  5
2F6
330
2EC
100
AcDbEntity
  8
치수문자_일반주서
 62
     0
100
AcDbTrace
 10
79.07299999999998
 20
26.74942352286856
 30
0.0
 11
79.07299999999998
 21
27.85009018953523
 31
0.0
 12
82.37499999999997
 22
27.29975685620189
 32
0.0
 13
82.37499999999997
 23
27.29975685620189
 33
0.0
  0
MTEXT
  5
2F7
330
2EC
100
AcDbEntity
  8
치수문자_일반주서
 62
     0
100
AcDbMText
 10
61.41217859825292
 20
31.67475685620189
 30
0.0
 40
3.5
 41
0.0
 71
     2
 72
     1
  1
\A1;25.40 [1]
  7
SLDTEXTSTYLE0
 73
     1
 44
1.0
  0
POINT
  5
2F8
330
2EC
100
AcDbEntity
  8
Defpoints
 62
     0
100
AcDbPoint
 10
107.775
 20
16.52587499999992
 30
0.0
  0
POINT
  5
2F9
330
2EC
100
AcDbEntity
  8
Defpoints
 62
     0
100
AcDbPoint
 10
82.37499999999997
 20
16.50124700417518
 30
0.0
  0
POINT
  5
2FA
330
2EC
100
AcDbEntity
  8
Defpoints
 62
     0
100
AcDbPoint
 10
82.37499999999997
 20
27.29975685620189
 30
0.0
  0
ENDBLK
  5
2EE
330
2EC
100
AcDbEntity
  8
0
100
AcDbBlockEnd
  0
BLOCK
  5
2FC
330
2FB
100
AcDbEntity
  8
0
100
AcDbBlockBegin
  2
*D15
 70
     1
 10
0.0
 20
0.0
 30
0.0
  3
*D15
  1
*D17
  0
LINE
  5
2FE
330
2FB
100
AcDbEntity
  8
치수문자_일반주서
 62
     0
370
    -2
100
AcDbLine
 10
107.775
 20
16.58837499999992
 30
0.0
 11
107.775
 21
44.66575243654518
 31
0.0
  0
LINE
  5
2FF
330
2FB
100
AcDbEntity
  8
치수문자_일반주서
 62
     0
370
    -2
100
AcDbLine
 10
3.000000000000007
 20
16.70743749999992
 30
0.0
 11
2.999999999999993
 21
44.66575243654518
 31
0.0
  0
LINE
  5
300
330
2FB
100
AcDbEntity
  8
치수문자_일반주서
 62
     0
370
    -2
100
AcDbLine
 10
104.473
 20
44.66575243654518
 30
0.0
 11
6.301999999999992
 21
44.66575243654518
 31
0.0
  0
SOLID
  5
301
330
2FB
100
AcDbEntity
  8
치수문자_일반주서
 62
     0
100
AcDbTrace
 10
104.473
 20
44.11541910321184
 30
0.0
 11
104.473
 21
45.21608576987851
 31
0.0
 12
107.775
 22
44.66575243654518
 32
0.0
 13
107.775
 23
44.66575243654518
 33
0.0
  0
SOLID
  5
302
330
2FB
100
AcDbEntity
  8
치수문자_일반주서
 62
     0
100
AcDbTrace
 10
6.301999999999992
 20
45.21608576987851
 30
0.0
 11
6.301999999999992
 21
44.11541910321184
 31
0.0
 12
2.999999999999993
 22
44.66575243654518
 32
0.0
 13
2.999999999999993
 23
44.66575243654518
 33
0.0
  0
MTEXT
  5
303
330
2FB
100
AcDbEntity
  8
치수문자_일반주서
 62
     0
100
AcDbMText
 10
55.50415948329079
 20
49.04075243654518
 30
0.0
 40
3.5
 41
0.0
 71
     2
 72
     1
  1
\A1;104.78 [4 1/8]
  7
SLDTEXTSTYLE0
 73
     1
 44
1.0
  0
POINT
  5
304
330
2FB
100
AcDbEntity
  8
Defpoints
 62
     0
100
AcDbPoint
 10
107.775
 20
16.52587499999992
 30
0.0
  0
POINT
  5
305
330
2FB
100
AcDbEntity
  8
Defpoints
 62
     0
100
AcDbPoint
 10
3.000000000000007
 20
16.64493749999992
 30
0.0
  0
POINT
  5
306
330
2FB
100
AcDbEntity
  8
Defpoints
 62
     0
100
AcDbPoint
 10
3.000000000000007
 20
44.66575243654518
 30
0.0
  0
ENDBLK
  5
2FD
330
2FB
100
AcDbEntity
  8
0
100
AcDbBlockEnd
  0
BLOCK
  5
337
330
336
100
AcDbEntity
  8
0
100
AcDbBlockBegin
  2
*D16
 70
     1
 10
0.0
 20
0.0
 30
0.0
  3
*D16
  1
*D18
  0
LINE
  5
339
330
336
100
AcDbEntity
  8
치수문자_일반주서
 62
     0
370
    -2
100
AcDbLine
 10
225.7069928223771
 20
-46.70965877196284
 30
0.0
 11
244.031173842185
 21
-46.70965877196276
 31
0.0
  0
LINE
  5
33A
330
336
100
AcDbEntity
  8
치수문자_일반주서
 62
     0
370
    -2
100
AcDbLine
 10
225.7069928223771
 20
-56.63153377196284
 30
0.0
 11
244.031173842185
 21
-56.63153377196276
 31
0.0
  0
LINE
  5
33B
330
336
100
AcDbEntity
  8
치수문자_일반주서
 62
     0
370
    -2
100
AcDbLine
 10
244.031173842185
 20
-46.70965877196276
 30
0.0
 11
244.0311738421849
 21
-8.605658771962752
 31
0.0
  0
LINE
  5
33C
330
336
100
AcDbEntity
  8
치수문자_일반주서
 62
     0
370
    -2
100
AcDbLine
 10
244.031173842185
 20
-46.70965877196276
 30
0.0
 11
244.031173842185
 21
-56.63153377196276
 31
0.0
  0
LINE
  5
33D
330
336
100
AcDbEntity
  8
치수문자_일반주서
 62
     0
370
    -2
100
AcDbLine
 10
244.031173842185
 20
-43.40765877196277
 30
0.0
 11
244.031173842185
 21
-40.10565877196277
 31
0.0
  0
LINE
  5
33E
330
336
100
AcDbEntity
  8
치수문자_일반주서
 62
     0
370
    -2
100
AcDbLine
 10
244.031173842185
 20
-59.93353377196276
 30
0.0
 11
244.031173842185
 21
-63.23553377196276
 31
0.0
  0
SOLID
  5
33F
330
336
100
AcDbEntity
  8
치수문자_일반주서
 62
     0
100
AcDbTrace
 10
243.4808405088517
 20
-43.40765877196277
 30
0.0
 11
244.5815071755183
 21
-43.40765877196277
 31
0.0
 12
244.031173842185
 22
-46.70965877196276
 32
0.0
 13
244.031173842185
 23
-46.70965877196276
 33
0.0
  0
SOLID
  5
340
330
336
100
AcDbEntity
  8
치수문자_일반주서
 62
     0
100
AcDbTrace
 10
244.5815071755184
 20
-59.93353377196276
 30
0.0
 11
243.4808405088517
 21
-59.93353377196276
 31
0.0
 12
244.031173842185
 22
-56.63153377196276
 32
0.0
 13
244.031173842185
 23
-56.63153377196276
 33
0.0
  0
MTEXT
  5
341
330
336
100
AcDbEntity
  8
치수문자_일반주서
 62
     0
100
AcDbMText
 10
239.656173842185
 20
-24.35565877196276
 30
0.0
 40
3.5
 41
0.0
 71
     2
 72
     1
  1
\A1;%%c9.92 [25/64]
  7
SLDTEXTSTYLE0
 11
-2.864550241804498E-15
 21
1.0
 31
0.0
 73
     1
 44
1.0
  0
POINT
  5
342
330
336
100
AcDbEntity
  8
Defpoints
 62
     0
100
AcDbPoint
 10
225.6444928223771
 20
-46.70965877196284
 30
0.0
  0
POINT
  5
343
330
336
100
AcDbEntity
  8
Defpoints
 62
     0
100
AcDbPoint
 10
225.6444928223771
 20
-56.63153377196284
 30
0.0
  0
POINT
  5
344
330
336
100
AcDbEntity
  8
Defpoints
 62
     0
100
AcDbPoint
 10
244.031173842185
 20
-56.63153377196276
 30
0.0
  0
ENDBLK
  5
338
330
336
100
AcDbEntity
  8
0
100
AcDbBlockEnd
  0
BLOCK
  5
346
330
345
100
AcDbEntity
  8
0
100
AcDbBlockBegin
  2
*D17
 70
     1
 10
0.0
 20
0.0
 30
0.0
  3
*D17
  1
*D19
  0
LINE
  5
348
330
345
100
AcDbEntity
  8
치수문자_일반주서
 62
     0
370
    -2
100
AcDbLine
 10
225.6444928223771
 20
-46.64715877196284
 30
0.0
 11
225.6444928223771
 21
-35.93577691576087
 31
0.0
  0
LINE
  5
349
330
345
100
AcDbEntity
  8
치수문자_일반주서
 62
     0
370
    -2
100
AcDbLine
 10
200.2444928223771
 20
-46.67178676778758
 30
0.0
 11
200.2444928223771
 21
-35.93577691576087
 31
0.0
  0
LINE
  5
34A
330
345
100
AcDbEntity
  8
치수문자_일반주서
 62
     0
370
    -2
100
AcDbLine
 10
200.2444928223771
 20
-35.93577691576087
 30
0.0
 11
169.4379214206301
 21
-35.93577691576087
 31
0.0
  0
LINE
  5
34B
330
345
100
AcDbEntity
  8
치수문자_일반주서
 62
     0
370
    -2
100
AcDbLine
 10
225.6444928223771
 20
-35.93577691576087
 30
0.0
 11
200.2444928223771
 21
-35.93577691576087
 31
0.0
  0
LINE
  5
34C
330
345
100
AcDbEntity
  8
치수문자_일반주서
 62
     0
370
    -2
100
AcDbLine
 10
228.9464928223771
 20
-35.93577691576087
 30
0.0
 11
232.2484928223771
 21
-35.93577691576087
 31
0.0
  0
LINE
  5
34D
330
345
100
AcDbEntity
  8
치수문자_일반주서
 62
     0
370
    -2
100
AcDbLine
 10
196.9424928223771
 20
-35.93577691576087
 30
0.0
 11
193.6404928223771
 21
-35.93577691576087
 31
0.0
  0
SOLID
  5
34E
330
345
100
AcDbEntity
  8
치수문자_일반주서
 62
     0
100
AcDbTrace
 10
228.9464928223771
 20
-35.38544358242753
 30
0.0
 11
228.9464928223771
 21
-36.4861102490942
 31
0.0
 12
225.6444928223771
 22
-35.93577691576087
 32
0.0
 13
225.6444928223771
 23
-35.93577691576087
 33
0.0
  0
SOLID
  5
34F
330
345
100
AcDbEntity
  8
치수문자_일반주서
 62
     0
100
AcDbTrace
 10
196.9424928223771
 20
-36.4861102490942
 30
0.0
 11
196.9424928223771
 21
-35.38544358242753
 31
0.0
 12
200.2444928223771
 22
-35.93577691576087
 32
0.0
 13
200.2444928223771
 23
-35.93577691576087
 33
0.0
  0
MTEXT
  5
350
330
345
100
AcDbEntity
  8
치수문자_일반주서
 62
     0
100
AcDbMText
 10
179.2816714206301
 20
-31.56077691576087
 30
0.0
 40
3.5
 41
0.0
 71
     2
 72
     1
  1
\A1;25.40 [1]
  7
SLDTEXTSTYLE0
 73
     1
 44
1.0
  0
POINT
  5
351
330
345
100
AcDbEntity
  8
Defpoints
 62
     0
100
AcDbPoint
 10
225.6444928223771
 20
-46.70965877196284
 30
0.0
  0
POINT
  5
352
330
345
100
AcDbEntity
  8
Defpoints
 62
     0
100
AcDbPoint
 10
200.2444928223771
 20
-46.73428676778758
 30
0.0
  0
POINT
  5
353
330
345
100
AcDbEntity
  8
Defpoints
 62
     0
100
AcDbPoint
 10
200.2444928223771
 20
-35.93577691576087
 30
0.0
  0
ENDBLK
  5
347
330
345
100
AcDbEntity
  8
0
100
AcDbBlockEnd
  0
BLOCK
  5
355
330
354
100
AcDbEntity
  8
0
100
AcDbBlockBegin
  2
*D18
 70
     1
 10
0.0
 20
0.0
 30
0.0
  3
*D18
  1
*D20
  0
LINE
  5
357
330
354
100
AcDbEntity
  8
치수문자_일반주서
 62
     0
370
    -2
100
AcDbLine
 10
225.6444928223771
 20
-46.64715877196284
 30
0.0
 11
225.6444928223771
 21
-18.56978133541759
 31
0.0
  0
LINE
  5
358
330
354
100
AcDbEntity
  8
치수문자_일반주서
 62
     0
370
    -2
100
AcDbLine
 10
120.8694928223771
 20
-46.52809627196284
 30
0.0
 11
120.8694928223771
 21
-18.56978133541759
 31
0.0
  0
LINE
  5
359
330
354
100
AcDbEntity
  8
치수문자_일반주서
 62
     0
370
    -2
100
AcDbLine
 10
222.3424928223771
 20
-18.56978133541759
 30
0.0
 11
124.1714928223771
 21
-18.56978133541759
 31
0.0
  0
SOLID
  5
35A
330
354
100
AcDbEntity
  8
치수문자_일반주서
 62
     0
100
AcDbTrace
 10
222.3424928223771
 20
-19.12011466875092
 30
0.0
 11
222.3424928223771
 21
-18.01944800208425
 31
0.0
 12
225.6444928223771
 22
-18.56978133541759
 32
0.0
 13
225.6444928223771
 23
-18.56978133541759
 33
0.0
  0
SOLID
  5
35B
330
354
100
AcDbEntity
  8
치수문자_일반주서
 62
     0
100
AcDbTrace
 10
124.1714928223771
 20
-18.01944800208425
 30
0.0
 11
124.1714928223771
 21
-19.12011466875092
 31
0.0
 12
120.8694928223771
 22
-18.56978133541759
 32
0.0
 13
120.8694928223771
 23
-18.56978133541759
 33
0.0
  0
MTEXT
  5
35C
330
354
100
AcDbEntity
  8
치수문자_일반주서
 62
     0
100
AcDbMText
 10
173.3736523056679
 20
-14.19478133541759
 30
0.0
 40
3.5
 41
0.0
 71
     2
 72
     1
  1
\A1;104.78 [4 1/8]
  7
SLDTEXTSTYLE0
 73
     1
 44
1.0
  0
POINT
  5
35D
330
354
100
AcDbEntity
  8
Defpoints
 62
     0
100
AcDbPoint
 10
225.6444928223771
 20
-46.70965877196284
 30
0.0
  0
POINT
  5
35E
330
354
100
AcDbEntity
  8
Defpoints
 62
     0
100
AcDbPoint
 10
120.8694928223771
 20
-46.59059627196284
 30
0.0
  0
POINT
  5
35F
330
354
100
AcDbEntity
  8
Defpoints
 62
     0
100
AcDbPoint
 10
120.8694928223771
 20
-18.56978133541759
 30
0.0
  0
ENDBLK
  5
356
330
354
100
AcDbEntity
  8
0
100
AcDbBlockEnd
  0
ENDSEC
  0
SECTION
  2
ENTITIES
  0
LINE
  5
96
330
1F
100
AcDbEntity
  8
0
  6
Continuous
 62
     1
370
    15
100
AcDbLine
 10
37.0793510014477
 20
1.450540927411133
 30
0.0
 11
37.0091725171362
 21
1.488255717061689
 31
0.0
  0
LINE
  5
97
330
1F
100
AcDbEntity
  8
0
  6
Continuous
 62
     1
370
    15
100
AcDbLine
 10
39.62823929953071
 20
-4.960937500000004
 30
0.0
 11
42.65216649448862
 21
-4.960937500000004
 31
0.0
  0
LINE
  5
98
330
1F
100
AcDbEntity
  8
0
  6
Continuous
 62
     1
370
    15
100
AcDbLine
 10
29.15512336644474
 20
4.960937499999999
 30
0.0
 11
26.9875
 21
4.960937499999999
 31
0.0
  0
LINE
  5
99
330
1F
100
AcDbEntity
  8
0
  6
Continuous
 62
     1
370
    15
100
AcDbLine
 10
42.65216649448863
 20
4.960937499999999
 30
0.0
 11
39.6282392995308
 21
4.960937499999999
 31
0.0
  0
LINE
  5
9A
330
1F
100
AcDbEntity
  8
0
  6
Continuous
 62
     1
370
    15
100
AcDbLine
 10
26.9875
 20
-4.960937500000004
 30
0.0
 11
29.15512336644466
 21
-4.960937500000004
 31
0.0
  0
LINE
  5
9B
330
1F
100
AcDbEntity
  8
외형선
  6
Continuous
370
    15
100
AcDbLine
 10
20.80344817511133
 20
-6.350000000000011
 30
0.0
 11
25.9875
 21
-4.960937500000003
 31
0.0
  0
LINE
  5
9C
330
1F
100
AcDbEntity
  8
외형선
  6
Continuous
370
    15
100
AcDbLine
 10
25.9875
 20
4.960937499999997
 30
0.0
 11
20.80344817511133
 21
6.350000000000006
 31
0.0
  0
LINE
  5
9D
330
1F
100
AcDbEntity
  8
외형선
  6
Continuous
370
    15
100
AcDbLine
 10
-20.80344817511136
 20
-6.350000000000007
 30
0.0
 11
20.80344817511133
 21
-6.350000000000007
 31
0.0
  0
LINE
  5
9E
330
1F
100
AcDbEntity
  8
외형선
  6
Continuous
370
    15
100
AcDbLine
 10
20.80344817511133
 20
6.350000000000001
 30
0.0
 11
5.727700000000031
 21
6.350000000000001
 31
0.0
  0
LINE
  5
A1
330
1F
100
AcDbEntity
  8
외형선
  6
Continuous
370
    15
100
AcDbLine
 10
25.9875
 20
-4.960937500000003
 30
0.0
 11
26.9875
 21
-4.960937500000003
 31
0.0
  0
LINE
  5
A2
330
1F
100
AcDbEntity
  8
외형선
  6
Continuous
370
    15
100
AcDbLine
 10
26.9875
 20
4.960937499999997
 30
0.0
 11
25.9875
 21
4.960937499999997
 31
0.0
  0
SPLINE
  5
A3
330
1F
100
AcDbEntity
  8
0
  6
Continuous
 62
     1
370
    15
100
AcDbSpline
210
0.0
220
0.0
230
1.0
 70
     8
 71
     3
 72
    19
 73
    15
 74
     0
 42
0.000000001
 43
0.00000001
 40
0.0
 40
0.0
 40
0.0
 40
0.0
 40
0.0850845779641049
 40
0.170160388753685
 40
0.2552301710180455
 40
0.3402966721721209
 40
0.4253626444060858
 40
0.5104308406801864
 40
0.5955040107171734
 40
0.6805848970047775
 40
0.7697187693899222
 40
0.8588548522481168
 40
0.947993370312379
 40
1.0
 40
1.0
 40
1.0
 40
1.0
 10
26.9875
 20
1.238605899091559
 30
0.0
 10
27.58019574540191
 20
0.9021378153749109
 30
0.0
 10
28.76552616442088
 20
0.2292363178486954
 30
0.0
 10
30.54339975266636
 20
-0.804098281221144
 30
0.0
 10
32.32112569965423
 20
-1.799298886030885
 30
0.0
 10
34.09876831899979
 20
-2.718736899575057
 30
0.0
 10
35.87639848020711
 20
-3.521924845379222
 30
0.0
 10
37.65408226166853
 20
-4.174899766697844
 30
0.0
 10
39.43189847300118
 20
-4.649905516615481
 30
0.0
 10
41.23803867016247
 20
-4.930337684850695
 30
0.0
 10
43.07263995959597
 20
-4.995400445203839
 30
0.0
 10
44.93547566121991
 20
-4.818936914525358
 30
0.0
 10
46.53969046776069
 20
-4.500500469910363
 30
0.0
 10
47.52296018539369
 20
-4.167966305926831
 30
0.0
 10
47.88525775567845
 20
-4.045440088056594
 30
0.0
  0
SPLINE
  5
A4
330
1F
100
AcDbEntity
  8
외형선
  6
Continuous
370
    15
100
AcDbSpline
210
0.0
220
0.0
230
1.0
 70
    24
 71
     3
 72
    16
 73
    12
 74
     0
 42
0.000000001
 43
0.00000001
 40
0.0
 40
0.0
 40
0.0
 40
0.0
 40
0.1215565175817707
 40
0.246683636309616
 40
0.3675025720221156
 40
0.4918252650551335
 40
0.6126442007676357
 40
0.7369668938006575
 40
0.8577858295131597
 40
0.982108522546181
 40
1.0
 40
1.0
 40
1.0
 40
1.0
 10
26.98749999999997
 20
4.936309504175265
 30
0.0
 10
26.98749999999998
 20
4.780556281640838
 30
0.0
 10
26.98749999999997
 20
4.464474741415016
 30
0.0
 10
26.98750000000004
 20
3.964553354776518
 30
0.0
 10
26.98749999999997
 20
3.457878676850786
 30
0.0
 10
26.98750000000004
 20
2.964788843132816
 30
0.0
 10
26.98749999999998
 20
2.490687642616064
 30
0.0
 10
26.98750000000008
 20
2.055033642010899
 30
0.0
 10
26.98750000000001
 20
1.67089030702905
 30
0.0
 10
26.98749999999983
 20
1.421787057398493
 30
0.0
 10
26.98749999999993
 20
1.323520451136227
 30
0.0
 10
26.98749999999993
 20
1.311157866139344
 30
0.0
  0
SPLINE
  5
A5
330
1F
100
AcDbEntity
  8
0
  6
Continuous
 62
     1
370
    15
100
AcDbSpline
210
0.0
220
0.0
230
1.0
 70
     8
 71
     3
 72
    54
 73
    50
 74
     0
 42
0.000000001
 43
0.00000001
 40
0.0
 40
0.0
 40
0.0
 40
0.0
 40
0.0624999999999997
 40
0.0624999999999997
 40
0.0937499999999996
 40
0.0937499999999996
 40
0.1249999999999995
 40
0.1249999999999995
 40
0.1874999999999992
 40
0.1874999999999992
 40
0.2187499999999996
 40
0.2187499999999996
 40
0.2500000000000001
 40
0.2500000000000001
 40
0.2812500000000006
 40
0.2812500000000006
 40
0.3125000000000011
 40
0.3125000000000011
 40
0.3750000000000019
 40
0.3750000000000019
 40
0.4375000000000029
 40
0.4375000000000029
 40
0.4687500000000033
 40
0.4687500000000033
 40
0.5000000000000038
 40
0.5000000000000038
 40
0.5625000000000034
 40
0.5625000000000034
 40
0.5937500000000032
 40
0.5937500000000032
 40
0.6250000000000031
 40
0.6250000000000031
 40
0.6875000000000028
 40
0.6875000000000028
 40
0.7500000000000023
 40
0.7500000000000023
 40
0.7812500000000022
 40
0.7812500000000022
 40
0.8125000000000021
 40
0.8125000000000021
 40
0.843750000000002
 40
0.843750000000002
 40
0.8750000000000019
 40
0.8750000000000019
 40
0.9375000000000003
 40
0.9375000000000003
 40
0.9687500000000002
 40
0.9687500000000002
 40
1.0
 40
1.0
 40
1.0
 40
1.0
 10
52.38749999999998
 20
-4.960937499999993
 30
0.0
 10
51.86163707086458
 20
-4.916570928356094
 30
0.0
 10
51.32754973607701
 20
-4.862070184358061
 30
0.0
 10
50.53440480369016
 20
-4.73960098160051
 30
0.0
 10
50.27202655484491
 20
-4.692105064680719
 30
0.0
 10
49.74257567433006
 20
-4.583633814624111
 30
0.0
 10
49.47675622591643
 20
-4.522710686127014
 30
0.0
 10
48.68111557219706
 20
-4.321012078160489
 30
0.0
 10
48.15580941371281
 20
-4.161631926356858
 30
0.0
 10
47.35954742030459
 20
-3.887635176867501
 30
0.0
 10
47.094004940377
 20
-3.790606156909145
 30
0.0
 10
46.56606441553424
 20
-3.58645417835479
 30
0.0
 10
46.3032581865561
 20
-3.479300511031684
 30
0.0
 10
45.77325547387296
 20
-3.254804660222177
 30
0.0
 10
45.5074007250236
 20
-3.137632353532244
 30
0.0
 10
44.97738575093145
 20
-2.894937853830543
 30
0.0
 10
44.71456305687023
 20
-2.769638791077424
 30
0.0
 10
43.92268629647264
 20
-2.381962444353987
 30
0.0
 10
43.38845555302452
 20
-2.107369854402777
 30
0.0
 10
42.33448896553289
 20
-1.539886441415155
 30
0.0
 10
41.80281257864571
 20
-1.244904419710157
 30
0.0
 10
41.00861267599905
 20
-0.7949237198734466
 30
0.0
 10
40.74622884489774
 20
-0.6440333149752967
 30
0.0
 10
40.21748481171329
 20
-0.3400970108684336
 30
0.0
 10
39.95177302815787
 20
-0.187171578375055
 30
0.0
 10
39.15571124173278
 20
0.2715475267646598
 30
0.0
 10
38.63058586518699
 20
0.5764818380991128
 30
0.0
 10
37.83453988534054
 20
1.027976047040767
 30
0.0
 10
37.56882105583638
 20
1.17729026551541
 30
0.0
 10
37.04003859996478
 20
1.471652976087482
 30
0.0
 10
36.77766565645967
 20
1.616583088493904
 30
0.0
 10
35.98351304932293
 20
2.045150750680129
 30
0.0
 10
35.45172586851747
 20
2.32120051426855
 30
0.0
 10
34.39786383277071
 20
2.842248964287271
 30
0.0
 10
33.86363673758085
 20
3.089190143703894
 30
0.0
 10
33.07169205395671
 20
3.429776022586959
 30
0.0
 10
32.80890201338242
 20
3.538435062317553
 30
0.0
 10
32.27891165025545
 20
3.745980361731505
 30
0.0
 10
32.0130569459539
 20
3.844668057631578
 30
0.0
 10
31.48302979860659
 20
4.030610197404222
 30
0.0
 10
31.2201903627921
 20
4.117731532850769
 30
0.0
 10
30.69229529409684
 20
4.280299597268876
 30
0.0
 10
30.4267634419376
 20
4.355770541242519
 30
0.0
 10
29.63049635536105
 20
4.563195136268786
 30
0.0
 10
29.10517132492267
 20
4.67581079435411
 30
0.0
 10
28.3095571769041
 20
4.804512328505544
 30
0.0
 10
28.04373427076563
 20
4.840648444735107
 30
0.0
 10
27.5142520356011
 20
4.898953577795331
 30
0.0
 10
27.25186234533117
 20
4.9211109525691
 30
0.0
 10
26.98750000000015
 20
4.936309504173999
 30
0.0
  0
LINE
  5
A6
330
1F
100
AcDbEntity
  8
0
  6
Continuous
 62
     1
370
    15
100
AcDbLine
 10
52.3875
 20
-4.49302856857343
 30
0.0
 11
52.3875
 21
0.4250598185734847
 31
0.0
  0
SPLINE
  5
A7
330
1F
100
AcDbEntity
  8
0
  6
Continuous
 62
     1
370
    15
100
AcDbSpline
210
0.0
220
0.0
230
1.0
 70
     8
 71
     3
 72
    20
 73
    16
 74
     0
 42
0.000000001
 43
0.00000001
 40
0.0
 40
0.0
 40
0.0
 40
0.0
 40
0.059759774138866
 40
0.1362819976099297
 40
0.2128012696469143
 40
0.2893200659081087
 40
0.3658408627444983
 40
0.4423661335948674
 40
0.5188983453899337
 40
0.5990763112897574
 40
0.6792562655608708
 40
0.7594384103557869
 40
0.8396229472217235
 40
0.9198100770456974
 40
1.0
 40
1.0
 40
1.0
 40
1.0
 10
29.15512336644473
 20
4.942797011461451
 30
0.0
 10
29.61789629578469
 20
4.937588642720985
 30
0.0
 10
30.67324866548565
 20
4.925710972390599
 30
0.0
 10
32.32112489950379
 20
4.657039560476253
 30
0.0
 10
34.09876853330153
 20
4.19316717878548
 30
0.0
 10
35.87639842312984
 20
3.543804162922648
 30
0.0
 10
37.65408227567168
 20
2.745020241446901
 30
0.0
 10
39.43189847406983
 20
1.82861603717757
 30
0.0
 10
41.23803865157373
 20
0.8185874397304967
 30
0.0
 10
43.07264003691073
 20
-0.2450274072517347
 30
0.0
 10
44.93547537201447
 20
-1.313231198094184
 30
0.0
 10
46.79838302209954
 20
-2.321058542655536
 30
0.0
 10
48.66135457150477
 20
-3.216188101015637
 30
0.0
 10
50.52439819827112
 20
-3.975860506338642
 30
0.0
 10
51.766458855505
 20
-4.320637212948896
 30
0.0
 10
52.3875
 20
-4.49302856857343
 30
0.0
  0
SPLINE
  5
A8
330
1F
100
AcDbEntity
  8
0
  6
Continuous
 62
     1
370
    15
100
AcDbSpline
210
0.0
220
0.0
230
1.0
 70
     8
 71
     3
 72
    18
 73
    14
 74
     0
 42
0.000000001
 43
0.00000001
 40
0.0
 40
0.0
 40
0.0
 40
0.0
 40
0.0987690007814417
 40
0.1975207973367833
 40
0.2962585284811076
 40
0.3949853533983854
 40
0.4937044471004834
 40
0.5924189958373681
 40
0.6911321924725383
 40
0.7898472318379732
 40
0.8932720726688589
 40
0.9966981341863055
 40
1.0
 40
1.0
 40
1.0
 40
1.0
 10
52.3875
 20
0.4250598185734848
 30
0.0
 10
51.7945571084823
 20
0.7642709132905565
 30
0.0
 10
50.60877460809112
 20
1.442634016732911
 30
0.0
 10
48.83031835569835
 20
2.393815824086905
 30
0.0
 10
47.05216059492193
 20
3.244081163542841
 30
0.0
 10
45.27424008210128
 20
3.955573490415476
 30
0.0
 10
43.49648523644279
 20
4.498272558075035
 30
0.0
 10
41.71883229984761
 20
4.849408883250736
 30
0.0
 10
39.94119503234479
 20
4.992248877449502
 30
0.0
 10
38.13532809620936
 20
4.926365858532997
 30
0.0
 10
36.30095421506799
 20
4.616542964775509
 30
0.0
 10
35.03940638853993
 20
4.310577329792463
 30
0.0
 10
34.39871022052443
 20
4.068366124166912
 30
0.0
 10
34.37888885954577
 20
4.060872781800509
 30
0.0
  0
SPLINE
  5
A9
330
1F
100
AcDbEntity
  8
0
  6
Continuous
 62
     1
370
    15
100
AcDbSpline
210
0.0
220
0.0
230
1.0
 70
     8
 71
     3
 72
    14
 73
    10
 74
     0
 42
0.000000001
 43
0.00000001
 40
0.0
 40
0.0
 40
0.0
 40
0.0
 40
0.1158773288062781
 40
0.2632255090543018
 40
0.4105754284004178
 40
0.5579274624776209
 40
0.7052819863319549
 40
0.852639374318875
 40
1.0
 40
1.0
 40
1.0
 40
1.0
 10
39.62823929953071
 20
-4.94556298521815
 30
0.0
 10
39.14002231067285
 20
-4.937782780409044
 30
0.0
 10
38.03099462816643
 20
-4.920109363248667
 30
0.0
 10
36.300954885362
 20
-4.625750286771993
 30
0.0
 10
34.43834766483319
 20
-4.116441065606679
 30
0.0
 10
32.575691871017
 20
-3.408077321681209
 30
0.0
 10
30.71300257102361
 20
-2.541463836777471
 30
0.0
 10
28.85026930461447
 20
-1.557068435335959
 30
0.0
 10
27.60842764905301
 20
-0.8481652685067078
 30
0.0
 10
26.98750000000016
 20
-0.4937097911806673
 30
0.0
  0
LINE
  5
AA
330
1F
100
AcDbEntity
  8
외형선
  6
Continuous
370
    15
100
AcDbLine
 10
26.98749999999997
 20
-0.4937097911811149
 30
0.0
 11
26.98749999999998
 21
1.238605899091552
 31
0.0
  0
LINE
  5
AB
330
1F
100
AcDbEntity
  8
0
  6
Continuous
 62
     1
370
    15
100
AcDbLine
 10
52.38749999999998
 20
-4.960937499999993
 30
0.0
 11
52.3875
 21
-4.49302856857343
 31
0.0
  0
LINE
  5
AC
330
1F
100
AcDbEntity
  8
외형선
  6
Continuous
370
    15
100
AcDbLine
 10
26.98749999999997
 20
4.936309504175265
 30
0.0
 11
26.9875
 21
4.960937499999999
 31
0.0
  0
SPLINE
  5
AD
330
1F
100
AcDbEntity
  8
0
  6
Continuous
 62
     1
370
    15
100
AcDbSpline
210
0.0
220
0.0
230
1.0
 70
     8
 71
     3
 72
    13
 73
     9
 74
     0
 42
0.000000001
 43
0.00000001
 40
0.0
 40
0.0
 40
0.0
 40
0.0
 40
0.0431890105131342
 40
0.2345397925782993
 40
0.4258958023646143
 40
0.6172575208678367
 40
0.808625427508141
 40
1.0
 40
1.0
 40
1.0
 40
1.0
 10
42.65216649448865
 20
4.940602266457695
 30
0.0
 10
42.79231731771624
 20
4.946825510734278
 30
0.0
 10
43.55341243471327
 20
4.980621108374788
 30
0.0
 10
44.93547772324717
 20
4.812144648936622
 30
0.0
 10
46.79838239227761
 20
4.43248803359945
 30
0.0
 10
48.6613547394653
 20
3.824082648518747
 30
0.0
 10
50.52439815627866
 20
3.048863142620823
 30
0.0
 10
51.76645884150738
 20
2.41844767544516
 30
0.0
 10
52.38750000000001
 20
2.103234452192409
 30
0.0
  0
LINE
  5
AE
330
1F
100
AcDbEntity
  8
0
  6
Continuous
 62
     1
370
    15
100
AcDbLine
 10
52.3875
 20
0.4250598185734849
 30
0.0
 11
52.3875
 21
2.103234452192409
 31
0.0
  0
SPLINE
  5
AF
330
1F
100
AcDbEntity
  8
0
  6
Continuous
 62
     1
370
    15
100
AcDbSpline
210
0.0
220
0.0
230
1.0
 70
     8
 71
     3
 72
    12
 73
     8
 74
     0
 42
0.000000001
 43
0.00000001
 40
0.0
 40
0.0
 40
0.0
 40
0.0
 40
0.2405548153644974
 40
0.4810848437922765
 40
0.7215978281116493
 40
0.9621015359334731
 40
1.0
 40
1.0
 40
1.0
 40
1.0
 10
26.98749999999998
 20
-4.803827256015964
 30
0.0
 10
27.58019574772383
 20
-4.869179151326051
 30
0.0
 10
28.76552617138642
 20
-4.999876208041145
 30
0.0
 10
30.54339972480831
 20
-4.931595504133157
 30
0.0
 10
32.32112580411232
 20
-4.652003205914405
 30
0.0
 10
33.59960296539857
 20
-4.347489232796824
 30
0.0
 10
34.28551649446108
 20
-4.095214550466793
 30
0.0
 10
34.37888885954573
 20
-4.060872781800516
 30
0.0
  0
SPLINE
  5
B0
330
1F
100
AcDbEntity
  8
외형선
  6
Continuous
370
    15
100
AcDbSpline
210
0.0
220
0.0
230
1.0
 70
    24
 71
     3
 72
    20
 73
    16
 74
     0
 42
0.000000001
 43
0.00000001
 40
0.0
 40
0.0
 40
0.0
 40
0.0
 40
0.0432164258163365
 40
0.1239992329370726
 40
0.202505357137612
 40
0.2832881642583503
 40
0.3617942884588897
 40
0.4425770955796276
 40
0.5210832197801669
 40
0.6018660269009042
 40
0.6803721511014438
 40
0.7611549582221819
 40
0.8396610824227226
 40
0.920443889543462
 40
1.0
 40
1.0
 40
1.0
 40
1.0
 10
26.98750000000001
 20
-0.2639615971304815
 30
0.0
 10
26.9875
 20
-0.2633228823352642
 30
0.0
 10
26.98749999999995
 20
-0.2614902424726089
 30
0.0
 10
26.98750000000007
 20
-0.3510383979961247
 30
0.0
 10
26.98749999999998
 20
-0.5241208136788582
 30
0.0
 10
26.98750000000004
 20
-0.7760794569600106
 30
0.0
 10
26.98749999999998
 20
-1.099226779815011
 30
0.0
 10
26.98749999999987
 20
-1.479962667399636
 30
0.0
 10
26.9875
 20
-1.913991987221369
 30
0.0
 10
26.98749999999994
 20
-2.381336391634105
 30
0.0
 10
26.98750000000004
 20
-2.877074868229898
 30
0.0
 10
26.9875000000001
 20
-3.378550750206187
 30
0.0
 10
26.9874999999999
 20
-3.879506969410253
 30
0.0
 10
26.98749999999997
 20
-4.362920988562044
 30
0.0
 10
26.98749999999998
 20
-4.657610020910952
 30
0.0
 10
26.98749999999998
 20
-4.803827256015965
 30
0.0
  0
SPLINE
  5
B1
330
1F
100
AcDbEntity
  8
0
  6
Continuous
 62
     1
370
    15
100
AcDbSpline
210
0.0
220
0.0
230
1.0
 70
     8
 71
     3
 72
    10
 73
     6
 74
     0
 42
0.000000001
 43
0.00000001
 40
0.0
 40
0.0
 40
0.0
 40
0.0
 40
0.3950847095864737
 40
0.790100600751999
 40
0.9999999999999999
 40
0.9999999999999999
 40
0.9999999999999999
 40
0.9999999999999999
 10
52.38749999999998
 20
4.960937500000005
 30
0.0
 10
51.79455752044728
 20
4.891312434665919
 30
0.0
 10
50.60877584391429
 20
4.788558041171002
 30
0.0
 10
49.10803994320721
 20
4.462739762185737
 30
0.0
 10
48.20025115212799
 20
4.152938089770918
 30
0.0
 10
47.88525775567847
 20
4.04544008805659
 30
0.0
  0
LINE
  5
B2
330
1F
100
AcDbEntity
  8
0
  6
Continuous
 62
     1
370
    15
100
AcDbLine
 10
52.3875
 20
2.080337342494518
 30
0.0
 11
52.38749999999998
 21
4.960937500000005
 31
0.0
  0
LINE
  5
B3
330
1F
100
AcDbEntity
  8
외형선
  6
Continuous
370
    15
100
AcDbLine
 10
26.9875
 20
-4.960937500000004
 30
0.0
 11
26.98749999999998
 21
-4.803827256015965
 31
0.0
  0
LINE
  5
B4
330
1F
100
AcDbEntity
  8
외형선
  6
Continuous
370
    15
100
AcDbLine
 10
25.9875
 20
-0.0000000000000027
 30
0.0
 11
25.9875
 21
4.960937499999997
 31
0.0
  0
LINE
  5
B5
330
1F
100
AcDbEntity
  8
외형선
  6
Continuous
370
    15
100
AcDbLine
 10
25.9875
 20
-4.960937500000003
 30
0.0
 11
25.9875
 21
-0.0000000000000027
 31
0.0
  0
LINE
  5
B6
330
1F
100
AcDbEntity
  8
외형선
  6
Continuous
370
    15
100
AcDbLine
 10
20.80344817511133
 20
-0.0000000000000027
 30
0.0
 11
20.80344817511133
 21
6.350000000000006
 31
0.0
  0
LINE
  5
B7
330
1F
100
AcDbEntity
  8
외형선
  6
Continuous
370
    15
100
AcDbLine
 10
20.80344817511133
 20
-6.350000000000011
 30
0.0
 11
20.80344817511133
 21
-0.0000000000000027
 31
0.0
  0
SPLINE
  5
BC
330
1F
100
AcDbEntity
  8
외형선
  6
Continuous
370
    15
100
AcDbSpline
210
0.0
220
0.0
230
1.0
 70
     8
 71
     3
 72
     8
 73
     4
 74
     0
 42
0.000000001
 43
0.00000001
 40
0.0
 40
0.0
 40
0.0
 40
0.0
 40
1.0
 40
1.0
 40
1.0
 40
1.0
 10
26.98750000000001
 20
4.936309504174008
 30
0.0
 10
26.82124285768545
 20
4.945867853923047
 30
0.0
 10
26.6544538414416
 20
4.95265870575181
 30
0.0
 10
26.48755417679191
 20
4.956654144470123
 30
0.0
  0
LINE
  5
BD
330
1F
100
AcDbEntity
  8
외형선
  6
Continuous
370
    15
100
AcDbLine
 10
26.48755417679191
 20
1.515569050152743
 30
0.0
 11
26.48755417679192
 21
4.956655380360674
 31
0.0
  0
SPLINE
  5
BE
330
1F
100
AcDbEntity
  8
외형선
  6
Continuous
370
    15
100
AcDbSpline
210
0.0
220
0.0
230
1.0
 70
     8
 71
     3
 72
     8
 73
     4
 74
     0
 42
0.000000001
 43
0.00000001
 40
0.0
 40
0.0
 40
0.0
 40
0.0
 40
1.0
 40
1.0
 40
1.0
 40
1.0
 10
26.98750000000001
 20
1.238605899091523
 30
0.0
 10
26.82124285768545
 20
1.331609242082085
 30
0.0
 10
26.6544538414416
 20
1.424014725917065
 30
0.0
 10
26.48755417679191
 20
1.515585535846704
 30
0.0
  0
SPLINE
  5
BF
330
1F
100
AcDbEntity
  8
외형선
  6
Continuous
370
    15
100
AcDbSpline
210
0.0
220
0.0
230
1.0
 70
     8
 71
     3
 72
     8
 73
     4
 74
     0
 42
0.000000001
 43
0.00000001
 40
0.0
 40
0.0
 40
0.0
 40
0.0
 40
1.0
 40
1.0
 40
1.0
 40
1.0
 10
26.98750000000001
 20
-0.4937097911805934
 30
0.0
 10
26.82124285768545
 20
-0.3981415574666695
 30
0.0
 10
26.6544538414416
 20
-0.3021936676614047
 30
0.0
 10
26.48755417679191
 20
-0.2061081536799919
 30
0.0
  0
LINE
  5
C0
330
1F
100
AcDbEntity
  8
외형선
  6
Continuous
370
    15
100
AcDbLine
 10
26.48755417679191
 20
-4.723764529813625
 30
0.0
 11
26.48755417679192
 21
-0.2060784298460106
 31
0.0
  0
SPLINE
  5
C1
330
1F
100
AcDbEntity
  8
외형선
  6
Continuous
370
    15
100
AcDbSpline
210
0.0
220
0.0
230
1.0
 70
     8
 71
     3
 72
     8
 73
     4
 74
     0
 42
0.000000001
 43
0.00000001
 40
0.0
 40
0.0
 40
0.0
 40
0.0
 40
1.0
 40
1.0
 40
1.0
 40
1.0
 10
26.98750000000001
 20
-4.803827256015969
 30
0.0
 10
26.82124285768545
 20
-4.779847524205447
 30
0.0
 10
26.6544538414416
 20
-4.753139102614734
 30
0.0
 10
26.48755417679191
 20
-4.723759240524276
 30
0.0
  0
SPLINE
  5
C2
330
1F
100
AcDbEntity
  8
외형선
  6
Continuous
370
    15
100
AcDbSpline
210
0.0
220
0.0
230
1.0
 70
    24
 71
     3
 72
    19
 73
    15
 74
     0
 42
0.000000001
 43
0.00000001
 40
0.0
 40
0.0
 40
0.0
 40
0.0
 40
0.1328624739051774
 40
0.2124532723023672
 40
0.2920440706995571
 40
0.3716348690967475
 40
0.4512256674939379
 40
0.5308164658911284
 40
0.6104072642883189
 40
0.6899980626855089
 40
0.7695888610826989
 40
0.8491796594798849
 40
0.9287704578770709
 40
1.0
 40
1.0
 40
1.0
 40
1.0
 10
26.98750000000004
 20
-4.803827256015968
 30
0.0
 10
26.98750000000003
 20
-4.554296361522786
 30
0.0
 10
26.98750000000003
 20
-4.15528486100347
 30
0.0
 10
26.98750000000001
 20
-3.546481518027776
 30
0.0
 10
26.98749999999997
 20
-3.043517453284207
 30
0.0
 10
26.9875
 20
-2.545003467880398
 30
0.0
 10
26.98750000000004
 20
-2.065793927720597
 30
0.0
 10
26.98749999999997
 20
-1.620261038063091
 30
0.0
 10
26.98749999999995
 20
-1.219467252073721
 30
0.0
 10
26.98749999999994
 20
-0.8770702435557913
 30
0.0
 10
26.98750000000005
 20
-0.5995473545210801
 30
0.0
 10
26.98750000000001
 20
-0.4002898257653547
 30
0.0
 10
26.98750000000001
 20
-0.2765445384571227
 30
0.0
 10
26.98749999999998
 20
-0.2639325212712139
 30
0.0
 10
26.9875
 20
-0.2579761084538129
 30
0.0
  0
SPLINE
  5
C3
330
1F
100
AcDbEntity
  8
외형선
  6
Continuous
370
    15
100
AcDbSpline
210
0.0
220
0.0
230
1.0
 70
    24
 71
     3
 72
    15
 73
    11
 74
     0
 42
0.000000001
 43
0.00000001
 40
0.0
 40
0.0
 40
0.0
 40
0.0
 40
0.1008094579993514
 40
0.2233566186679814
 40
0.3459037793366115
 40
0.4684509400052356
 40
0.5909981006738596
 40
0.713545261342495
 40
0.8360924220111303
 40
1.0
 40
1.0
 40
1.0
 40
1.0
 10
26.98749999999998
 20
1.311167866139322
 30
0.0
 10
26.98749999999997
 20
1.391194245946711
 30
0.0
 10
26.98749999999991
 20
1.568503220250818
 30
0.0
 10
26.98749999999997
 20
1.921660541149984
 30
0.0
 10
26.98750000000007
 20
2.340949102875988
 30
0.0
 10
26.98750000000001
 20
2.803416228456996
 30
0.0
 10
26.98749999999998
 20
3.292274675055798
 30
0.0
 10
26.9875
 20
3.79431116612966
 30
0.0
 10
26.9875
 20
4.354643131252137
 30
0.0
 10
26.98750000000001
 20
4.724614335952299
 30
0.0
 10
26.98750000000003
 20
4.936309504174083
 30
0.0
  0
LINE
  5
C4
330
1F
100
AcDbEntity
  8
중심선
 48
0.8
100
AcDbLine
 10
-55.38750000000001
 20
-0.0000000000000066
 30
0.0
 11
55.38750000000001
 21
0.0000000000000066
 31
0.0
  0
LINE
  5
C5
330
1F
100
AcDbEntity
  8
참조1
100
AcDbLine
 10
12.89338065701562
 20
0.0010749287238892
 30
0.0
 11
12.89338065701562
 21
-39.99892507127611
 31
0.0
  0
LINE
  5
C6
330
1F
100
AcDbEntity
  8
참조1
100
AcDbLine
 10
12.89338065701562
 20
-39.99892507127611
 30
0.0
 11
-29.25297615729306
 21
-39.9989250712761
 31
0.0
  0
CIRCLE
  5
C7
330
1F
100
AcDbEntity
  8
해칭선
100
AcDbCircle
 10
0.0
 20
0.0
 30
0.0
 40
3.000000000000012
  0
INSERT
  5
C8
330
1F
100
AcDbEntity
  8
0
  6
Continuous
 62
     7
100
AcDbBlockReference
 66
     1
  2
블럭10
 10
-13.9402729321252
 20
-52.04717430164393
 30
0.0
  0
ATTRIB
  5
C9
330
C8
100
AcDbEntity
  8
FORMAT
 62
     2
100
AcDbText
 10
-23.12156822086649
 20
-49.97180738881174
 30
0.0
 40
4.233333333333333
  1
E2053025 [ 4 FLUTE ]
 41
0.75
  7
SLDTEXTSTYLE0
 11
-23.12156822086649
 21
-52.08847405547841
 31
0.0
100
AcDbAttribute
  2
AUTOATTR0
 70
     0
 74
     1
  0
SEQEND
  5
CA
330
C8
100
AcDbEntity
  8
0
  6
Continuous
 62
     7
  0
HATCH
  5
CB
330
1F
100
AcDbEntity
  8
중심선
100
AcDbHatch
 10
0.0
 20
0.0
 30
0.0
210
0.0
220
0.0
230
1.0
  2
SOLID
 70
     1
 71
     0
 91
        1
 92
        0
 93
        4
 72
     1
 10
-8.225363627744372
 20
-35.8
 11
-11.67163887158165
 21
-35.8
 72
     1
 10
-11.67163887158165
 20
-35.8
 11
-13.79986873078568
 21
-38.33632558057257
 72
     1
 10
-13.79986873078568
 20
-38.33632558057257
 11
-10.35356040183524
 21
-38.33628615127008
 72
     1
 10
-10.35356040183524
 20
-38.33628615127008
 11
-8.225363627744372
 21
-35.8
 97
        0
 75
     0
 76
     1
 98
        1
 10
-12.89338065701562
 20
-0.0010749287238958
  0
HATCH
  5
CC
330
1F
100
AcDbEntity
  8
중심선
100
AcDbHatch
 10
0.0
 20
0.0
 30
0.0
210
0.0
220
0.0
230
1.0
  2
SOLID
 70
     1
 71
     0
 91
        1
 92
        0
 93
        4
 72
     1
 10
-3.212599636708392
 20
-35.8
 11
-6.658874880545646
 21
-35.79999999999998
 72
     1
 10
-6.658874880545646
 20
-35.79999999999998
 11
-11.19001288890309
 21
-41.20000000000002
 72
     1
 10
-11.19001288890309
 20
-41.20000000000002
 11
-7.743737645065809
 21
-41.20000000000002
 72
     1
 10
-7.743737645065808
 20
-41.20000000000002
 11
-3.212599636708392
 21
-35.8
 97
        0
 75
     0
 76
     1
 98
        1
 10
-12.89338065701562
 20
-0.0010749287238958
  0
HATCH
  5
CD
330
1F
100
AcDbEntity
  8
중심선
100
AcDbHatch
 10
0.0
 20
0.0
 30
0.0
210
0.0
220
0.0
230
1.0
  2
SOLID
 70
     1
 71
     0
 91
        1
 92
        0
 93
        4
 72
     1
 10
1.800164354327476
 20
-35.79999999999998
 11
-1.646110889509611
 21
-35.79999999999998
 72
     1
 10
-1.646110889509611
 20
-35.79999999999998
 11
-8.69454779139889
 21
-44.20000000000002
 72
     1
 10
-8.69454779139889
 20
-44.20000000000002
 11
-5.248272547561608
 21
-44.20000000000002
 72
     1
 10
-5.248272547561607
 20
-44.20000000000002
 11
1.800164354327476
 21
-35.79999999999998
 97
        0
 75
     0
 76
     1
 98
        1
 10
-12.89338065701562
 20
-0.0010749287238958
  0
HATCH
  5
CE
330
1F
100
AcDbEntity
  8
중심선
100
AcDbHatch
 10
0.0
 20
0.0
 30
0.0
210
0.0
220
0.0
230
1.0
  2
SOLID
 70
     1
 71
     0
 91
        1
 92
        0
 93
        6
 72
     3
 10
6.600054785339676
 20
-40.00000000005127
 11
3.960054785062283
 21
1.540882976769353E-10
 40
0.3939339440162628
 50
17.09539180608436
 51
320.0019657685078
 73
     0
 72
     1
 10
8.28305444104027
 20
-38.5878940046383
 11
10.58835631474131
 21
-36.65356729459035
 72
     3
 10
6.600054785286829
 20
-40.00000000000015
 11
6.600054785286829
 21
-1.278976924368180E-13
 40
0.636358354079598
 50
39.99873849337431
 51
368.4976242363724
 73
     1
 72
     1
 10
13.02538727718744
 20
-39.03999999993002
 11
5.280122092122753
 21
-39.03999999993002
 72
     1
 10
5.280122092122753
 20
-39.03999999993002
 11
5.280097047676819
 21
-40.95999999992991
 72
     1
 10
5.280097047676819
 20
-40.95999999992991
 11
9.721476817148854
 21
-40.95999999992988
 97
        0
 75
     0
 76
     1
 98
        1
 10
-12.89338065701562
 20
-0.0010749287238958
  0
DIMENSION
  5
CF
330
1F
100
AcDbEntity
  8
치수문자_일반주서
100
AcDbDimension
  2
_D
 10
70.7741810198079
 20
-4.960937499999918
 30
0.0
 11
70.7741810198078
 21
27.3149375000001
 31
0.0
 70
   160
  1
%%c<>
 71
     2
 42
9.921874999999998
 52
-270.0
  3
SLDDIMSTYLE2
100
AcDbAlignedDimension
 13
52.38749999999998
 23
4.960937500000005
 33
0.0
 14
52.38749999999998
 24
-4.960937499999993
 34
0.0
 50
90.0000000000002
100
AcDbRotatedDimension
1001
ACAD
1000
DSTYLE
1002
{
1070
   171
1070
     6
1070
   273
1070
     5
1002
}
  0
DIMENSION
  5
E3
330
1F
100
AcDbEntity
  8
치수문자_일반주서
100
AcDbDimension
  2
_D_1
 10
26.98749999999997
 20
15.73481935620197
 30
0.0
 11
6.024678598252912
 21
15.73481935620197
 31
0.0
 70
   160
  1
<>
 71
     2
 42
25.40000000000001
  3
SLDDIMSTYLE2
100
AcDbAlignedDimension
 13
52.38749999999998
 23
4.960937500000005
 33
0.0
 14
26.98749999999997
 24
4.936309504175265
 34
0.0
 50
0.0000000000001763
100
AcDbRotatedDimension
1001
ACAD
1000
DSTYLE
1002
{
1070
   171
1070
     6
1070
   273
1070
     5
1002
}
  0
DIMENSION
  5
F8
330
1F
100
AcDbEntity
  8
치수문자_일반주서
100
AcDbDimension
  2
_D_2
 10
-52.38749999999995
 20
33.10081493654526
 30
0.0
 11
0.1166594832907819
 21
33.10081493654526
 31
0.0
 70
   160
  1
<>
 71
     2
 42
104.7749999999999
  3
SLDDIMSTYLE2
100
AcDbAlignedDimension
 13
52.38749999999998
 23
4.960937500000005
 33
0.0
 14
-52.38749999999995
 24
4.960937499999985
 34
0.0
100
AcDbRotatedDimension
1001
ACAD
1000
DSTYLE
1002
{
1070
   171
1070
     6
1070
   273
1070
     5
1002
}
  0
DIMENSION
  5
10B
330
1F
100
AcDbEntity
  8
치수문자_일반주서
100
AcDbDimension
  2
_D_3
 10
-64.59375
 20
-6.350000000000181
 30
0.0
 11
-64.59375000000003
 21
-0.0000000000000087
 31
0.0
 70
   160
  1
%%c<>
 71
     2
 42
12.70000000000002
 52
-270.0
  3
SLDDIMSTYLE2
100
AcDbAlignedDimension
 13
-20.80344817511132
 23
6.350000000000001
 33
0.0
 14
-20.80344817511132
 24
-6.350000000000017
 34
0.0
 50
90.0000000000002
100
AcDbRotatedDimension
1001
ACAD
1000
DSTYLE
1002
{
1070
   171
1070
     6
1070
   273
1070
     5
1002
}
  0
LINE
  5
120
330
1F
100
AcDbEntity
  8
참조1
100
AcDbLine
 10
68.7193644723612
 20
7.441074928723896
 30
0.0
 11
68.7193644723612
 21
-7.438925071276109
 31
0.0
  0
LINE
  5
121
330
1F
100
AcDbEntity
  8
참조1
100
AcDbLine
 10
81.41936447236121
 20
5.441074928723896
 30
0.0
 11
68.7193644723612
 21
5.441074928723896
 31
0.0
  0
SOLID
  5
122
330
1F
100
AcDbEntity
  8
참조1
100
AcDbTrace
 10
68.7193644723612
 20
5.441074928723896
 30
0.0
 11
75.0693644723612
 21
4.425074928723896
 31
0.0
 12
75.0693644723612
 22
6.457074928723896
 32
0.0
 13
75.0693644723612
 23
6.457074928723896
 33
0.0
  0
LINE
  5
123
330
1F
100
AcDbEntity
  8
참조1
100
AcDbLine
 10
81.41936447236121
 20
-5.438925071276109
 30
0.0
 11
68.7193644723612
 21
-5.438925071276109
 31
0.0
  0
SOLID
  5
124
330
1F
100
AcDbEntity
  8
참조1
100
AcDbTrace
 10
68.7193644723612
 20
-5.438925071276109
 30
0.0
 11
75.0693644723612
 21
-6.454925071276109
 31
0.0
 12
75.0693644723612
 22
-4.422925071276109
 32
0.0
 13
75.0693644723612
 23
-4.422925071276109
 33
0.0
  0
MTEXT
  5
125
330
1F
100
AcDbEntity
  8
참조1
100
AcDbMText
 10
78.1037146049872
 20
11.01136670591223
 30
0.0
 40
3.5
 41
0.0
 71
     1
 72
     1
  1
A
  7
SLDTEXTSTYLE0
 73
     1
 44
1.0
  0
MTEXT
  5
126
330
1F
100
AcDbEntity
  8
참조1
100
AcDbMText
 10
78.1037146049872
 20
0.1313667059122219
 30
0.0
 40
3.5
 41
0.0
 71
     1
 72
     1
  1
A
  7
SLDTEXTSTYLE0
 73
     1
 44
1.0
  0
INSERT
  5
12D
330
1F
100
AcDbEntity
  8
해칭선
100
AcDbBlockReference
  2
SW_DOWELSYMBOL_0
 10
0.0
 20
0.0
 30
0.0
  0
LINE
  5
308
330
1F
100
AcDbEntity
  8
0
  6
Continuous
 62
     1
370
    15
100
AcDbLine
 10
-37.07935100144768
 20
-1.450540927411141
 30
0.0
 11
-37.00917251713619
 21
-1.488255717061691
 31
0.0
  0
LINE
  5
309
330
1F
100
AcDbEntity
  8
0
  6
Continuous
 62
     1
370
    15
100
AcDbLine
 10
-39.62823929953068
 20
4.960937499999999
 30
0.0
 11
-42.65216649448862
 21
4.960937499999999
 31
0.0
  0
LINE
  5
30A
330
1F
100
AcDbEntity
  8
0
  6
Continuous
 62
     1
370
    15
100
AcDbLine
 10
-29.15512336644473
 20
-4.960937500000008
 30
0.0
 11
-26.98749999999998
 21
-4.960937500000008
 31
0.0
  0
LINE
  5
30B
330
1F
100
AcDbEntity
  8
0
  6
Continuous
 62
     1
370
    15
100
AcDbLine
 10
-42.65216649448862
 20
-4.960937500000001
 30
0.0
 11
-39.6282392995308
 21
-4.960937500000001
 31
0.0
  0
LINE
  5
30C
330
1F
100
AcDbEntity
  8
0
  6
Continuous
 62
     1
370
    15
100
AcDbLine
 10
-26.98749999999998
 20
4.960937499999992
 30
0.0
 11
-29.15512336644465
 21
4.960937499999992
 31
0.0
  0
LINE
  5
30D
330
1F
100
AcDbEntity
  8
외형선
  6
Continuous
370
    15
100
AcDbLine
 10
-20.80344817511132
 20
6.350000000000001
 30
0.0
 11
-25.98749999999998
 21
4.960937499999992
 31
0.0
  0
LINE
  5
30E
330
1F
100
AcDbEntity
  8
외형선
  6
Continuous
370
    15
100
AcDbLine
 10
-25.98749999999998
 20
-4.960937500000008
 30
0.0
 11
-20.80344817511132
 21
-6.350000000000017
 31
0.0
  0
LINE
  5
311
330
1F
100
AcDbEntity
  8
외형선
  6
Continuous
370
    15
100
AcDbLine
 10
-25.98749999999998
 20
4.960937499999992
 30
0.0
 11
-26.98749999999998
 21
4.960937499999992
 31
0.0
  0
LINE
  5
312
330
1F
100
AcDbEntity
  8
외형선
  6
Continuous
370
    15
100
AcDbLine
 10
-26.98749999999998
 20
-4.960937500000008
 30
0.0
 11
-25.98749999999998
 21
-4.960937500000008
 31
0.0
  0
SPLINE
  5
313
330
1F
100
AcDbEntity
  8
0
  6
Continuous
 62
     1
370
    15
100
AcDbSpline
210
0.0
220
0.0
230
1.0
 70
     8
 71
     3
 72
    19
 73
    15
 74
     0
 42
0.000000001
 43
0.00000001
 40
0.0
 40
0.0
 40
0.0
 40
0.0
 40
0.0850845779641049
 40
0.170160388753685
 40
0.2552301710180455
 40
0.3402966721721209
 40
0.4253626444060858
 40
0.5104308406801864
 40
0.5955040107171734
 40
0.6805848970047775
 40
0.7697187693899222
 40
0.8588548522481168
 40
0.947993370312379
 40
1.0
 40
1.0
 40
1.0
 40
1.0
 10
-26.98749999999998
 20
-1.238605899091575
 30
0.0
 10
-27.5801957454019
 20
-0.9021378153749218
 30
0.0
 10
-28.76552616442086
 20
-0.22923631784871
 30
0.0
 10
-30.54339975266634
 20
0.8040982812211432
 30
0.0
 10
-32.32112569965422
 20
1.799298886030882
 30
0.0
 10
-34.09876831899978
 20
2.718736899575048
 30
0.0
 10
-35.87639848020711
 20
3.521924845379217
 30
0.0
 10
-37.65408226166851
 20
4.17489976669784
 30
0.0
 10
-39.43189847300118
 20
4.649905516615475
 30
0.0
 10
-41.23803867016246
 20
4.930337684850691
 30
0.0
 10
-43.07263995959595
 20
4.995400445203834
 30
0.0
 10
-44.93547566121989
 20
4.818936914525351
 30
0.0
 10
-46.53969046776066
 20
4.500500469910356
 30
0.0
 10
-47.52296018539368
 20
4.167966305926824
 30
0.0
 10
-47.88525775567845
 20
4.045440088056586
 30
0.0
  0
SPLINE
  5
314
330
1F
100
AcDbEntity
  8
외형선
  6
Continuous
370
    15
100
AcDbSpline
210
0.0
220
0.0
230
1.0
 70
    24
 71
     3
 72
    16
 73
    12
 74
     0
 42
0.000000001
 43
0.00000001
 40
0.0
 40
0.0
 40
0.0
 40
0.0
 40
0.1215565175817707
 40
0.246683636309616
 40
0.3675025720221156
 40
0.4918252650551335
 40
0.6126442007676357
 40
0.7369668938006575
 40
0.8577858295131597
 40
0.982108522546181
 40
1.0
 40
1.0
 40
1.0
 40
1.0
 10
-26.98749999999995
 20
-4.936309504175278
 30
0.0
 10
-26.98749999999998
 20
-4.780556281640849
 30
0.0
 10
-26.98749999999995
 20
-4.464474741415025
 30
0.0
 10
-26.98750000000003
 20
-3.964553354776534
 30
0.0
 10
-26.98749999999995
 20
-3.457878676850797
 30
0.0
 10
-26.98750000000003
 20
-2.96478884313283
 30
0.0
 10
-26.98749999999998
 20
-2.490687642616074
 30
0.0
 10
-26.98750000000006
 20
-2.055033642010912
 30
0.0
 10
-26.9875
 20
-1.670890307029062
 30
0.0
 10
-26.98749999999981
 20
-1.421787057398505
 30
0.0
 10
-26.98749999999992
 20
-1.32352045113624
 30
0.0
 10
-26.98749999999992
 20
-1.311157866139354
 30
0.0
  0
SPLINE
  5
315
330
1F
100
AcDbEntity
  8
0
  6
Continuous
 62
     1
370
    15
100
AcDbSpline
210
0.0
220
0.0
230
1.0
 70
     8
 71
     3
 72
    54
 73
    50
 74
     0
 42
0.000000001
 43
0.00000001
 40
0.0
 40
0.0
 40
0.0
 40
0.0
 40
0.0624999999999997
 40
0.0624999999999997
 40
0.0937499999999996
 40
0.0937499999999996
 40
0.1249999999999995
 40
0.1249999999999995
 40
0.1874999999999992
 40
0.1874999999999992
 40
0.2187499999999996
 40
0.2187499999999996
 40
0.2500000000000001
 40
0.2500000000000001
 40
0.2812500000000006
 40
0.2812500000000006
 40
0.3125000000000011
 40
0.3125000000000011
 40
0.3750000000000019
 40
0.3750000000000019
 40
0.4375000000000029
 40
0.4375000000000029
 40
0.4687500000000033
 40
0.4687500000000033
 40
0.5000000000000038
 40
0.5000000000000038
 40
0.5625000000000034
 40
0.5625000000000034
 40
0.5937500000000032
 40
0.5937500000000032
 40
0.6250000000000031
 40
0.6250000000000031
 40
0.6875000000000028
 40
0.6875000000000028
 40
0.7500000000000023
 40
0.7500000000000023
 40
0.7812500000000022
 40
0.7812500000000022
 40
0.8125000000000021
 40
0.8125000000000021
 40
0.843750000000002
 40
0.843750000000002
 40
0.8750000000000019
 40
0.8750000000000019
 40
0.9375000000000003
 40
0.9375000000000003
 40
0.9687500000000002
 40
0.9687500000000002
 40
1.0
 40
1.0
 40
1.0
 40
1.0
 10
-52.38749999999995
 20
4.960937499999985
 30
0.0
 10
-51.86163707086458
 20
4.916570928356086
 30
0.0
 10
-51.327549736077
 20
4.86207018435806
 30
0.0
 10
-50.53440480369013
 20
4.739600981600502
 30
0.0
 10
-50.27202655484489
 20
4.692105064680717
 30
0.0
 10
-49.74257567433005
 20
4.583633814624107
 30
0.0
 10
-49.47675622591643
 20
4.522710686127012
 30
0.0
 10
-48.68111557219705
 20
4.321012078160485
 30
0.0
 10
-48.1558094137128
 20
4.161631926356853
 30
0.0
 10
-47.35954742030457
 20
3.887635176867497
 30
0.0
 10
-47.094004940377
 20
3.790606156909142
 30
0.0
 10
-46.56606441553421
 20
3.586454178354785
 30
0.0
 10
-46.30325818655609
 20
3.479300511031681
 30
0.0
 10
-45.77325547387294
 20
3.25480466022217
 30
0.0
 10
-45.50740072502358
 20
3.137632353532239
 30
0.0
 10
-44.97738575093143
 20
2.894937853830541
 30
0.0
 10
-44.71456305687021
 20
2.769638791077419
 30
0.0
 10
-43.92268629647261
 20
2.38196244435398
 30
0.0
 10
-43.38845555302449
 20
2.107369854402776
 30
0.0
 10
-42.33448896553286
 20
1.539886441415148
 30
0.0
 10
-41.80281257864569
 20
1.244904419710152
 30
0.0
 10
-41.00861267599904
 20
0.7949237198734374
 30
0.0
 10
-40.74622884489772
 20
0.6440333149752882
 30
0.0
 10
-40.21748481171328
 20
0.3400970108684327
 30
0.0
 10
-39.95177302815787
 20
0.1871715783750496
 30
0.0
 10
-39.15571124173277
 20
-0.2715475267646645
 30
0.0
 10
-38.63058586518698
 20
-0.5764818380991137
 30
0.0
 10
-37.83453988534054
 20
-1.027976047040767
 30
0.0
 10
-37.56882105583636
 20
-1.177290265515418
 30
0.0
 10
-37.04003859996478
 20
-1.471652976087484
 30
0.0
 10
-36.77766565645967
 20
-1.616583088493912
 30
0.0
 10
-35.9835130493229
 20
-2.045150750680137
 30
0.0
 10
-35.45172586851745
 20
-2.321200514268555
 30
0.0
 10
-34.39786383277069
 20
-2.842248964287279
 30
0.0
 10
-33.86363673758083
 20
-3.089190143703903
 30
0.0
 10
-33.07169205395669
 20
-3.429776022586964
 30
0.0
 10
-32.8089020133824
 20
-3.538435062317561
 30
0.0
 10
-32.27891165025544
 20
-3.745980361731512
 30
0.0
 10
-32.01305694595387
 20
-3.84466805763158
 30
0.0
 10
-31.48302979860659
 20
-4.03061019740423
 30
0.0
 10
-31.22019036279209
 20
-4.11773153285077
 30
0.0
 10
-30.69229529409682
 20
-4.28029959726888
 30
0.0
 10
-30.42676344193759
 20
-4.355770541242522
 30
0.0
 10
-29.63049635536102
 20
-4.563195136268797
 30
0.0
 10
-29.10517132492267
 20
-4.675810794354121
 30
0.0
 10
-28.30955717690409
 20
-4.80451232850556
 30
0.0
 10
-28.0437342707656
 20
-4.840648444735117
 30
0.0
 10
-27.51425203560108
 20
-4.898953577795347
 30
0.0
 10
-27.25186234533114
 20
-4.921110952569117
 30
0.0
 10
-26.98750000000015
 20
-4.936309504174013
 30
0.0
  0
LINE
  5
316
330
1F
100
AcDbEntity
  8
0
  6
Continuous
 62
     1
370
    15
100
AcDbLine
 10
-52.38749999999998
 20
4.493028568573421
 30
0.0
 11
-52.38749999999998
 21
-0.425059818573488
 31
0.0
  0
SPLINE
  5
317
330
1F
100
AcDbEntity
  8
0
  6
Continuous
 62
     1
370
    15
100
AcDbSpline
210
0.0
220
0.0
230
1.0
 70
     8
 71
     3
 72
    20
 73
    16
 74
     0
 42
0.000000001
 43
0.00000001
 40
0.0
 40
0.0
 40
0.0
 40
0.0
 40
0.059759774138866
 40
0.1362819976099297
 40
0.2128012696469143
 40
0.2893200659081087
 40
0.3658408627444983
 40
0.4423661335948674
 40
0.5188983453899337
 40
0.5990763112897574
 40
0.6792562655608708
 40
0.7594384103557869
 40
0.8396229472217235
 40
0.9198100770456974
 40
1.0
 40
1.0
 40
1.0
 40
1.0
 10
-29.15512336644471
 20
-4.942797011461459
 30
0.0
 10
-29.61789629578467
 20
-4.937588642720997
 30
0.0
 10
-30.67324866548565
 20
-4.925710972390605
 30
0.0
 10
-32.32112489950378
 20
-4.657039560476258
 30
0.0
 10
-34.09876853330152
 20
-4.193167178785488
 30
0.0
 10
-35.87639842312984
 20
-3.543804162922655
 30
0.0
 10
-37.65408227567166
 20
-2.745020241446909
 30
0.0
 10
-39.4318984740698
 20
-1.828616037177576
 30
0.0
 10
-41.23803865157372
 20
-0.8185874397305006
 30
0.0
 10
-43.07264003691071
 20
0.2450274072517324
 30
0.0
 10
-44.93547537201444
 20
1.313231198094179
 30
0.0
 10
-46.79838302209952
 20
2.321058542655535
 30
0.0
 10
-48.66135457150474
 20
3.216188101015632
 30
0.0
 10
-50.52439819827111
 20
3.975860506338634
 30
0.0
 10
-51.76645885550499
 20
4.320637212948895
 30
0.0
 10
-52.38749999999998
 20
4.493028568573421
 30
0.0
  0
SPLINE
  5
318
330
1F
100
AcDbEntity
  8
0
  6
Continuous
 62
     1
370
    15
100
AcDbSpline
210
0.0
220
0.0
230
1.0
 70
     8
 71
     3
 72
    18
 73
    14
 74
     0
 42
0.000000001
 43
0.00000001
 40
0.0
 40
0.0
 40
0.0
 40
0.0
 40
0.0987690007814417
 40
0.1975207973367833
 40
0.2962585284811076
 40
0.3949853533983854
 40
0.4937044471004834
 40
0.5924189958373681
 40
0.6911321924725383
 40
0.7898472318379732
 40
0.8932720726688589
 40
0.9966981341863055
 40
1.0
 40
1.0
 40
1.0
 40
1.0
 10
-52.38749999999998
 20
-0.425059818573488
 30
0.0
 10
-51.79455710848227
 20
-0.7642709132905601
 30
0.0
 10
-50.60877460809112
 20
-1.442634016732918
 30
0.0
 10
-48.83031835569832
 20
-2.393815824086908
 30
0.0
 10
-47.05216059492192
 20
-3.244081163542845
 30
0.0
 10
-45.27424008210127
 20
-3.955573490415482
 30
0.0
 10
-43.49648523644279
 20
-4.498272558075045
 30
0.0
 10
-41.7188322998476
 20
-4.84940888325074
 30
0.0
 10
-39.94119503234477
 20
-4.992248877449506
 30
0.0
 10
-38.13532809620934
 20
-4.926365858533004
 30
0.0
 10
-36.30095421506797
 20
-4.616542964775513
 30
0.0
 10
-35.03940638853992
 20
-4.310577329792467
 30
0.0
 10
-34.3987102205244
 20
-4.068366124166915
 30
0.0
 10
-34.37888885954575
 20
-4.060872781800513
 30
0.0
  0
SPLINE
  5
319
330
1F
100
AcDbEntity
  8
0
  6
Continuous
 62
     1
370
    15
100
AcDbSpline
210
0.0
220
0.0
230
1.0
 70
     8
 71
     3
 72
    14
 73
    10
 74
     0
 42
0.000000001
 43
0.00000001
 40
0.0
 40
0.0
 40
0.0
 40
0.0
 40
0.1158773288062781
 40
0.2632255090543018
 40
0.4105754284004178
 40
0.5579274624776209
 40
0.7052819863319549
 40
0.852639374318875
 40
1.0
 40
1.0
 40
1.0
 40
1.0
 10
-39.62823929953068
 20
4.945562985218145
 30
0.0
 10
-39.14002231067283
 20
4.937782780409036
 30
0.0
 10
-38.03099462816643
 20
4.920109363248662
 30
0.0
 10
-36.30095488536198
 20
4.625750286771988
 30
0.0
 10
-34.43834766483317
 20
4.116441065606671
 30
0.0
 10
-32.57569187101699
 20
3.408077321681204
 30
0.0
 10
-30.71300257102359
 20
2.541463836777467
 30
0.0
 10
-28.85026930461446
 20
1.557068435335949
 30
0.0
 10
-27.60842764905299
 20
0.8481652685066969
 30
0.0
 10
-26.98750000000015
 20
0.4937097911806554
 30
0.0
  0
LINE
  5
31A
330
1F
100
AcDbEntity
  8
외형선
  6
Continuous
370
    15
100
AcDbLine
 10
-26.98749999999995
 20
0.493709791181103
 30
0.0
 11
-26.98749999999998
 21
-1.238605899091561
 31
0.0
  0
LINE
  5
31B
330
1F
100
AcDbEntity
  8
0
  6
Continuous
 62
     1
370
    15
100
AcDbLine
 10
-52.38749999999995
 20
4.960937499999985
 30
0.0
 11
-52.38749999999998
 21
4.493028568573421
 31
0.0
  0
LINE
  5
31C
330
1F
100
AcDbEntity
  8
외형선
  6
Continuous
370
    15
100
AcDbLine
 10
-26.98749999999995
 20
-4.936309504175278
 30
0.0
 11
-26.98749999999998
 21
-4.960937500000008
 31
0.0
  0
SPLINE
  5
31D
330
1F
100
AcDbEntity
  8
0
  6
Continuous
 62
     1
370
    15
100
AcDbSpline
210
0.0
220
0.0
230
1.0
 70
     8
 71
     3
 72
    13
 73
     9
 74
     0
 42
0.000000001
 43
0.00000001
 40
0.0
 40
0.0
 40
0.0
 40
0.0
 40
0.0431890105131342
 40
0.2345397925782993
 40
0.4258958023646143
 40
0.6172575208678367
 40
0.808625427508141
 40
1.0
 40
1.0
 40
1.0
 40
1.0
 10
-42.65216649448862
 20
-4.940602266457703
 30
0.0
 10
-42.79231731771622
 20
-4.946825510734286
 30
0.0
 10
-43.55341243471326
 20
-4.980621108374792
 30
0.0
 10
-44.93547772324714
 20
-4.812144648936624
 30
0.0
 10
-46.7983823922776
 20
-4.432488033599456
 30
0.0
 10
-48.66135473946527
 20
-3.824082648518754
 30
0.0
 10
-50.52439815627866
 20
-3.048863142620832
 30
0.0
 10
-51.76645884150738
 20
-2.418447675445166
 30
0.0
 10
-52.38750000000001
 20
-2.103234452192411
 30
0.0
  0
LINE
  5
31E
330
1F
100
AcDbEntity
  8
0
  6
Continuous
 62
     1
370
    15
100
AcDbLine
 10
-52.38749999999998
 20
-0.425059818573488
 30
0.0
 11
-52.38749999999998
 21
-2.103234452192411
 31
0.0
  0
SPLINE
  5
31F
330
1F
100
AcDbEntity
  8
0
  6
Continuous
 62
     1
370
    15
100
AcDbSpline
210
0.0
220
0.0
230
1.0
 70
     8
 71
     3
 72
    12
 73
     8
 74
     0
 42
0.000000001
 43
0.00000001
 40
0.0
 40
0.0
 40
0.0
 40
0.0
 40
0.2405548153644974
 40
0.4810848437922765
 40
0.7215978281116493
 40
0.9621015359334731
 40
1.0
 40
1.0
 40
1.0
 40
1.0
 10
-26.98749999999998
 20
4.803827256015949
 30
0.0
 10
-27.58019574772381
 20
4.869179151326036
 30
0.0
 10
-28.76552617138642
 20
4.999876208041136
 30
0.0
 10
-30.54339972480829
 20
4.931595504133155
 30
0.0
 10
-32.32112580411231
 20
4.652003205914396
 30
0.0
 10
-33.59960296539855
 20
4.347489232796817
 30
0.0
 10
-34.28551649446106
 20
4.095214550466792
 30
0.0
 10
-34.37888885954572
 20
4.060872781800511
 30
0.0
  0
SPLINE
  5
320
330
1F
100
AcDbEntity
  8
외형선
  6
Continuous
370
    15
100
AcDbSpline
210
0.0
220
0.0
230
1.0
 70
    24
 71
     3
 72
    20
 73
    16
 74
     0
 42
0.000000001
 43
0.00000001
 40
0.0
 40
0.0
 40
0.0
 40
0.0
 40
0.0432164258163365
 40
0.1239992329370726
 40
0.202505357137612
 40
0.2832881642583503
 40
0.3617942884588897
 40
0.4425770955796276
 40
0.5210832197801669
 40
0.6018660269009042
 40
0.6803721511014438
 40
0.7611549582221819
 40
0.8396610824227226
 40
0.920443889543462
 40
1.0
 40
1.0
 40
1.0
 40
1.0
 10
-26.9875
 20
0.2639615971304672
 30
0.0
 10
-26.98749999999998
 20
0.2633228823352518
 30
0.0
 10
-26.98749999999995
 20
0.2614902424725962
 30
0.0
 10
-26.98750000000006
 20
0.3510383979961127
 30
0.0
 10
-26.98749999999998
 20
0.524120813678848
 30
0.0
 10
-26.98750000000003
 20
0.7760794569599974
 30
0.0
 10
-26.98749999999998
 20
1.099226779814998
 30
0.0
 10
-26.98749999999986
 20
1.479962667399625
 30
0.0
 10
-26.98749999999998
 20
1.913991987221358
 30
0.0
 10
-26.98749999999992
 20
2.381336391634093
 30
0.0
 10
-26.98750000000003
 20
2.87707486822989
 30
0.0
 10
-26.98750000000009
 20
3.378550750206173
 30
0.0
 10
-26.98749999999989
 20
3.879506969410243
 30
0.0
 10
-26.98749999999995
 20
4.36292098856203
 30
0.0
 10
-26.98749999999998
 20
4.657610020910943
 30
0.0
 10
-26.98749999999998
 20
4.803827256015956
 30
0.0
  0
SPLINE
  5
321
330
1F
100
AcDbEntity
  8
0
  6
Continuous
 62
     1
370
    15
100
AcDbSpline
210
0.0
220
0.0
230
1.0
 70
     8
 71
     3
 72
    10
 73
     6
 74
     0
 42
0.000000001
 43
0.00000001
 40
0.0
 40
0.0
 40
0.0
 40
0.0
 40
0.3950847095864737
 40
0.790100600751999
 40
0.9999999999999999
 40
0.9999999999999999
 40
0.9999999999999999
 40
0.9999999999999999
 10
-52.38749999999995
 20
-4.960937500000015
 30
0.0
 10
-51.79455752044728
 20
-4.891312434665921
 30
0.0
 10
-50.60877584391428
 20
-4.788558041171009
 30
0.0
 10
-49.10803994320721
 20
-4.462739762185742
 30
0.0
 10
-48.20025115212797
 20
-4.152938089770921
 30
0.0
 10
-47.88525775567845
 20
-4.045440088056595
 30
0.0
  0
LINE
  5
322
330
1F
100
AcDbEntity
  8
0
  6
Continuous
 62
     1
370
    15
100
AcDbLine
 10
-52.38749999999998
 20
-2.080337342494524
 30
0.0
 11
-52.38749999999995
 21
-4.960937500000015
 31
0.0
  0
LINE
  5
323
330
1F
100
AcDbEntity
  8
외형선
  6
Continuous
370
    15
100
AcDbLine
 10
-26.98749999999998
 20
4.960937499999992
 30
0.0
 11
-26.98749999999998
 21
4.803827256015956
 31
0.0
  0
LINE
  5
324
330
1F
100
AcDbEntity
  8
외형선
  6
Continuous
370
    15
100
AcDbLine
 10
-25.98749999999998
 20
-0.0000000000000078
 30
0.0
 11
-25.98749999999998
 21
-4.960937500000008
 31
0.0
  0
LINE
  5
325
330
1F
100
AcDbEntity
  8
외형선
  6
Continuous
370
    15
100
AcDbLine
 10
-25.98749999999998
 20
4.960937499999992
 30
0.0
 11
-25.98749999999998
 21
-0.0000000000000078
 31
0.0
  0
LINE
  5
326
330
1F
100
AcDbEntity
  8
외형선
  6
Continuous
370
    15
100
AcDbLine
 10
-20.80344817511132
 20
-0.0000000000000078
 30
0.0
 11
-20.80344817511132
 21
-6.350000000000017
 31
0.0
  0
LINE
  5
327
330
1F
100
AcDbEntity
  8
외형선
  6
Continuous
370
    15
100
AcDbLine
 10
-20.80344817511132
 20
6.350000000000001
 30
0.0
 11
-20.80344817511132
 21
-0.0000000000000078
 31
0.0
  0
SPLINE
  5
328
330
1F
100
AcDbEntity
  8
외형선
  6
Continuous
370
    15
100
AcDbSpline
210
0.0
220
0.0
230
1.0
 70
     8
 71
     3
 72
     8
 73
     4
 74
     0
 42
0.000000001
 43
0.00000001
 40
0.0
 40
0.0
 40
0.0
 40
0.0
 40
1.0
 40
1.0
 40
1.0
 40
1.0
 10
-26.9875
 20
-4.93630950417402
 30
0.0
 10
-26.82124285768543
 20
-4.945867853923056
 30
0.0
 10
-26.6544538414416
 20
-4.952658705751824
 30
0.0
 10
-26.48755417679191
 20
-4.956654144470137
 30
0.0
  0
LINE
  5
329
330
1F
100
AcDbEntity
  8
외형선
  6
Continuous
370
    15
100
AcDbLine
 10
-26.48755417679191
 20
-1.515569050152757
 30
0.0
 11
-26.48755417679191
 21
-4.956655380360687
 31
0.0
  0
SPLINE
  5
32A
330
1F
100
AcDbEntity
  8
외형선
  6
Continuous
370
    15
100
AcDbSpline
210
0.0
220
0.0
230
1.0
 70
     8
 71
     3
 72
     8
 73
     4
 74
     0
 42
0.000000001
 43
0.00000001
 40
0.0
 40
0.0
 40
0.0
 40
0.0
 40
1.0
 40
1.0
 40
1.0
 40
1.0
 10
-26.9875
 20
-1.238605899091532
 30
0.0
 10
-26.82124285768543
 20
-1.331609242082096
 30
0.0
 10
-26.6544538414416
 20
-1.424014725917076
 30
0.0
 10
-26.48755417679191
 20
-1.515585535846719
 30
0.0
  0
SPLINE
  5
32B
330
1F
100
AcDbEntity
  8
외형선
  6
Continuous
370
    15
100
AcDbSpline
210
0.0
220
0.0
230
1.0
 70
     8
 71
     3
 72
     8
 73
     4
 74
     0
 42
0.000000001
 43
0.00000001
 40
0.0
 40
0.0
 40
0.0
 40
0.0
 40
1.0
 40
1.0
 40
1.0
 40
1.0
 10
-26.9875
 20
0.4937097911805843
 30
0.0
 10
-26.82124285768543
 20
0.3981415574666578
 30
0.0
 10
-26.6544538414416
 20
0.3021936676613912
 30
0.0
 10
-26.48755417679191
 20
0.206108153679984
 30
0.0
  0
LINE
  5
32C
330
1F
100
AcDbEntity
  8
외형선
  6
Continuous
370
    15
100
AcDbLine
 10
-26.48755417679191
 20
4.723764529813613
 30
0.0
 11
-26.48755417679191
 21
0.2060784298459943
 31
0.0
  0
SPLINE
  5
32D
330
1F
100
AcDbEntity
  8
외형선
  6
Continuous
370
    15
100
AcDbSpline
210
0.0
220
0.0
230
1.0
 70
     8
 71
     3
 72
     8
 73
     4
 74
     0
 42
0.000000001
 43
0.00000001
 40
0.0
 40
0.0
 40
0.0
 40
0.0
 40
1.0
 40
1.0
 40
1.0
 40
1.0
 10
-26.9875
 20
4.803827256015956
 30
0.0
 10
-26.82124285768543
 20
4.779847524205436
 30
0.0
 10
-26.6544538414416
 20
4.753139102614724
 30
0.0
 10
-26.48755417679191
 20
4.723759240524266
 30
0.0
  0
SPLINE
  5
32E
330
1F
100
AcDbEntity
  8
외형선
  6
Continuous
370
    15
100
AcDbSpline
210
0.0
220
0.0
230
1.0
 70
    24
 71
     3
 72
    19
 73
    15
 74
     0
 42
0.000000001
 43
0.00000001
 40
0.0
 40
0.0
 40
0.0
 40
0.0
 40
0.1328624739051774
 40
0.2124532723023672
 40
0.2920440706995571
 40
0.3716348690967475
 40
0.4512256674939379
 40
0.5308164658911284
 40
0.6104072642883189
 40
0.6899980626855089
 40
0.7695888610826989
 40
0.8491796594798849
 40
0.9287704578770709
 40
1.0
 40
1.0
 40
1.0
 40
1.0
 10
-26.98750000000003
 20
4.803827256015956
 30
0.0
 10
-26.9875
 20
4.554296361522773
 30
0.0
 10
-26.9875
 20
4.155284861003458
 30
0.0
 10
-26.9875
 20
3.546481518027768
 30
0.0
 10
-26.98749999999995
 20
3.043517453284195
 30
0.0
 10
-26.98749999999998
 20
2.545003467880384
 30
0.0
 10
-26.98750000000003
 20
2.065793927720584
 30
0.0
 10
-26.98749999999995
 20
1.620261038063084
 30
0.0
 10
-26.98749999999995
 20
1.219467252073705
 30
0.0
 10
-26.98749999999992
 20
0.8770702435557773
 30
0.0
 10
-26.98750000000003
 20
0.5995473545210708
 30
0.0
 10
-26.9875
 20
0.4002898257653407
 30
0.0
 10
-26.9875
 20
0.2765445384571088
 30
0.0
 10
-26.98749999999998
 20
0.2639325212712003
 30
0.0
 10
-26.98749999999998
 20
0.2579761084538028
 30
0.0
  0
SPLINE
  5
32F
330
1F
100
AcDbEntity
  8
외형선
  6
Continuous
370
    15
100
AcDbSpline
210
0.0
220
0.0
230
1.0
 70
    24
 71
     3
 72
    15
 73
    11
 74
     0
 42
0.000000001
 43
0.00000001
 40
0.0
 40
0.0
 40
0.0
 40
0.0
 40
0.1008094579993514
 40
0.2233566186679814
 40
0.3459037793366115
 40
0.4684509400052356
 40
0.5909981006738596
 40
0.713545261342495
 40
0.8360924220111303
 40
1.0
 40
1.0
 40
1.0
 40
1.0
 10
-26.98749999999998
 20
-1.311167866139336
 30
0.0
 10
-26.98749999999995
 20
-1.391194245946722
 30
0.0
 10
-26.98749999999989
 20
-1.568503220250826
 30
0.0
 10
-26.98749999999995
 20
-1.921660541149998
 30
0.0
 10
-26.98750000000006
 20
-2.340949102876003
 30
0.0
 10
-26.9875
 20
-2.803416228457003
 30
0.0
 10
-26.98749999999998
 20
-3.292274675055808
 30
0.0
 10
-26.98749999999998
 20
-3.794311166129667
 30
0.0
 10
-26.98749999999998
 20
-4.354643131252147
 30
0.0
 10
-26.9875
 20
-4.724614335952311
 30
0.0
 10
-26.9875
 20
-4.936309504174099
 30
0.0
  0
LINE
  5
3AE
330
1F
100
AcDbEntity
  8
외형선
  6
Continuous
370
    15
100
AcDbLine
 10
-4.203700000000024
 20
4.826000000000001
 30
0.0
 11
4.203700000000028
 21
4.826000000000001
 31
0.0
  0
LINE
  5
3AF
330
1F
100
AcDbEntity
  8
외형선
  6
Continuous
370
    15
100
AcDbLine
 10
-4.203700000000024
 20
4.826000000000001
 30
0.0
 11
-5.727700000000025
 21
6.350000000000001
 31
0.0
  0
LINE
  5
3B0
330
1F
100
AcDbEntity
  8
외형선
  6
Continuous
370
    15
100
AcDbLine
 10
4.203700000000028
 20
4.826000000000001
 30
0.0
 11
5.727700000000029
 21
6.350000000000001
 31
0.0
  0
LINE
  5
3B3
330
1F
100
AcDbEntity
  8
외형선
  6
Continuous
370
    15
100
AcDbLine
 10
-5.72770000000002
 20
6.350000000000001
 30
0.0
 11
-20.80344817511132
 21
6.350000000000001
 31
0.0
  0
ENDSEC
  0
SECTION
  2
OBJECTS
  0
DICTIONARY
  5
C
330
0
100
AcDbDictionary
281
     1
  3
ACAD_GROUP
350
D
  3
ACAD_IMAGE_VARS
350
151
  3
ACAD_LAYOUT
350
1A
  3
ACAD_MLINESTYLE
350
17
  3
ACAD_PLOTSETTINGS
350
19
  3
ACAD_PLOTSTYLENAME
350
E
  3
ACAD_SCALELIST
350
47
  3
APPDATA
350
14F
  3
DWGPROPS
350
3D7
  0
DICTIONARY
  5
1D0
330
2
100
AcDbDictionary
280
     1
281
     1
  3
ACAD_LAYERSTATES
360
1D1
  0
DICTIONARY
  5
D
102
{ACAD_REACTORS
330
C
102
}
330
C
100
AcDbDictionary
281
     1
  0
RASTERVARIABLES
  5
151
102
{ACAD_REACTORS
330
C
102
}
330
C
100
AcDbRasterVariables
 90
        0
 70
     1
 71
     1
 72
     1
  0
DICTIONARY
  5
1A
102
{ACAD_REACTORS
330
C
102
}
330
C
100
AcDbDictionary
281
     1
  3
Layout1
350
1E
  3
Layout2
350
26
  3
Model
350
22
  0
DICTIONARY
  5
17
102
{ACAD_REACTORS
330
C
102
}
330
C
100
AcDbDictionary
281
     1
  3
Standard
350
18
  0
DICTIONARY
  5
19
102
{ACAD_REACTORS
330
C
102
}
330
C
100
AcDbDictionary
281
     1
  0
ACDBDICTIONARYWDFLT
  5
E
102
{ACAD_REACTORS
330
C
102
}
330
C
100
AcDbDictionary
281
     1
  3
Normal
350
F
100
AcDbDictionaryWithDefault
340
F
  0
DICTIONARY
  5
47
102
{ACAD_REACTORS
330
C
102
}
330
C
100
AcDbDictionary
281
     1
  3
A0
350
48
  3
A1
350
49
  3
A2
350
4A
  3
A3
350
4B
  3
A4
350
4C
  3
A5
350
4D
  3
A6
350
4E
  3
A7
350
4F
  3
A8
350
50
  3
A9
350
51
  3
B0
350
52
  3
B1
350
53
  3
B2
350
54
  3
B3
350
55
  3
B4
350
56
  3
B5
350
57
  3
B6
350
58
  3
B7
350
59
  3
B8
350
5A
  3
B9
350
5B
  3
C0
350
5C
  3
C1
350
5D
  3
C2
350
5E
  3
C3
350
5F
  3
C4
350
60
  3
C5
350
61
  3
C6
350
62
  3
C7
350
63
  3
C8
350
64
  3
C9
350
65
  3
D0
350
66
  3
D1
350
67
  3
D2
350
68
  0
DICTIONARY
  5
14F
102
{ACAD_REACTORS
330
C
102
}
330
C
100
AcDbDictionary
281
     1
  0
XRECORD
  5
3D7
102
{ACAD_REACTORS
330
C
102
}
330
C
100
AcDbXrecord
280
     1
  1
DWGPROPS COOKIE
  2

  3

  4

  6

  7

  8
12016016
  9

300
=
301
=
302
=
303
=
304
=
305
=
306
=
307
=
308
=
309
=
 40
0.0
 41
2458313.097718785
 42
2458319.121980278
  1

 90
        0
  0
DICTIONARY
  5
1D1
102
{ACAD_REACTORS
330
1D0
102
}
330
1D0
100
AcDbDictionary
281
     1
  0
LAYOUT
  5
1E
102
{ACAD_REACTORS
330
1A
102
}
330
1A
100
AcDbPlotSettings
  1

  2
none_device
  4

  6

 40
0.0
 41
0.0
 42
0.0
 43
0.0
 44
0.0
 45
0.0
 46
0.0
 47
0.0
 48
0.0
 49
0.0
140
0.0
141
0.0
142
1.0
143
1.0
 70
   688
 72
     1
 73
     0
 74
     5
  7

 75
    16
147
1.0
148
0.0
149
0.0
100
AcDbLayout
  1
Layout1
 70
     1
 71
     1
 10
0.0
 20
0.0
 11
420.0
 21
297.0
 12
0.0
 22
0.0
 32
0.0
 14
1.000000000000000E+20
 24
1.000000000000000E+20
 34
1.000000000000000E+20
 15
-1.000000000000000E+20
 25
-1.000000000000000E+20
 35
-1.000000000000000E+20
146
0.0
 13
0.0
 23
0.0
 33
0.0
 16
1.0
 26
0.0
 36
0.0
 17
0.0
 27
1.0
 37
0.0
 76
     0
330
1B
  0
LAYOUT
  5
26
102
{ACAD_REACTORS
330
1A
102
}
330
1A
100
AcDbPlotSettings
  1

  2
none_device
  4

  6

 40
0.0
 41
0.0
 42
0.0
 43
0.0
 44
0.0
 45
0.0
 46
0.0
 47
0.0
 48
0.0
 49
0.0
140
0.0
141
0.0
142
1.0
143
1.0
 70
   688
 72
     1
 73
     0
 74
     5
  7

 75
    16
147
1.0
148
0.0
149
0.0
100
AcDbLayout
  1
Layout2
 70
     1
 71
     2
 10
0.0
 20
0.0
 11
0.0
 21
0.0
 12
0.0
 22
0.0
 32
0.0
 14
0.0
 24
0.0
 34
0.0
 15
0.0
 25
0.0
 35
0.0
146
0.0
 13
0.0
 23
0.0
 33
0.0
 16
1.0
 26
0.0
 36
0.0
 17
0.0
 27
1.0
 37
0.0
 76
     0
330
23
  0
LAYOUT
  5
22
102
{ACAD_REACTORS
330
1A
102
}
330
1A
100
AcDbPlotSettings
  1

  2
none_device
  4
ANSI_A_(11.00_x_8.50_Inches)
  6

 40
6.35
 41
19.05
 42
6.35000508
 43
19.05000254
 44
279.4
 45
215.9
 46
61.47075058006798
 47
82.19718653568677
 48
0.0
 49
0.0
140
0.0
141
0.0
142
0.0418462529351176
143
1.0
 70
  1696
 72
     0
 73
     0
 74
     0
  7

 75
     0
147
0.0235690232323232
148
0.0
149
0.0
100
AcDbLayout
  1
Model
 70
     1
 71
     0
 10
0.0
 20
0.0
 11
420.0
 21
297.0
 12
0.0
 22
0.0
 32
0.0
 14
-68.96875000000007
 24
-49.97180738881174
 34
0.0
 15
81.41936447236121
 25
43.0649375000001
 35
0.0
146
0.0
 13
0.0
 23
0.0
 33
0.0
 16
1.0
 26
0.0
 36
0.0
 17
0.0
 27
1.0
 37
0.0
 76
     0
330
1F
331
29
  0
MLINESTYLE
  5
18
102
{ACAD_REACTORS
330
17
102
}
330
17
100
AcDbMlineStyle
  2
Standard
 70
     0
  3

 62
   256
 51
90.0
 52
90.0
 71
     2
 49
0.5
 62
   256
  6
BYLAYER
 49
-0.5
 62
   256
  6
BYLAYER
  0
ACDBPLACEHOLDER
  5
F
102
{ACAD_REACTORS
330
E
102
}
330
E
  0
SCALE
  5
48
102
{ACAD_REACTORS
330
47
102
}
330
47
100
AcDbScale
 70
     0
300
1:1
140
1.0
141
1.0
290
     1
  0
SCALE
  5
49
102
{ACAD_REACTORS
330
47
102
}
330
47
100
AcDbScale
 70
     0
300
1:2
140
1.0
141
2.0
290
     0
  0
SCALE
  5
4A
102
{ACAD_REACTORS
330
47
102
}
330
47
100
AcDbScale
 70
     0
300
1:4
140
1.0
141
4.0
290
     0
  0
SCALE
  5
4B
102
{ACAD_REACTORS
330
47
102
}
330
47
100
AcDbScale
 70
     0
300
1:5
140
1.0
141
5.0
290
     0
  0
SCALE
  5
4C
102
{ACAD_REACTORS
330
47
102
}
330
47
100
AcDbScale
 70
     0
300
1:8
140
1.0
141
8.0
290
     0
  0
SCALE
  5
4D
102
{ACAD_REACTORS
330
47
102
}
330
47
100
AcDbScale
 70
     0
300
1:10
140
1.0
141
10.0
290
     0
  0
SCALE
  5
4E
102
{ACAD_REACTORS
330
47
102
}
330
47
100
AcDbScale
 70
     0
300
1:16
140
1.0
141
16.0
290
     0
  0
SCALE
  5
4F
102
{ACAD_REACTORS
330
47
102
}
330
47
100
AcDbScale
 70
     0
300
1:20
140
1.0
141
20.0
290
     0
  0
SCALE
  5
50
102
{ACAD_REACTORS
330
47
102
}
330
47
100
AcDbScale
 70
     0
300
1:30
140
1.0
141
30.0
290
     0
  0
SCALE
  5
51
102
{ACAD_REACTORS
330
47
102
}
330
47
100
AcDbScale
 70
     0
300
1:40
140
1.0
141
40.0
290
     0
  0
SCALE
  5
52
102
{ACAD_REACTORS
330
47
102
}
330
47
100
AcDbScale
 70
     0
300
1:50
140
1.0
141
50.0
290
     0
  0
SCALE
  5
53
102
{ACAD_REACTORS
330
47
102
}
330
47
100
AcDbScale
 70
     0
300
1:100
140
1.0
141
100.0
290
     0
  0
SCALE
  5
54
102
{ACAD_REACTORS
330
47
102
}
330
47
100
AcDbScale
 70
     0
300
2:1
140
2.0
141
1.0
290
     0
  0
SCALE
  5
55
102
{ACAD_REACTORS
330
47
102
}
330
47
100
AcDbScale
 70
     0
300
4:1
140
4.0
141
1.0
290
     0
  0
SCALE
  5
56
102
{ACAD_REACTORS
330
47
102
}
330
47
100
AcDbScale
 70
     0
300
8:1
140
8.0
141
1.0
290
     0
  0
SCALE
  5
57
102
{ACAD_REACTORS
330
47
102
}
330
47
100
AcDbScale
 70
     0
300
10:1
140
10.0
141
1.0
290
     0
  0
SCALE
  5
58
102
{ACAD_REACTORS
330
47
102
}
330
47
100
AcDbScale
 70
     0
300
100:1
140
100.0
141
1.0
290
     0
  0
SCALE
  5
59
102
{ACAD_REACTORS
330
47
102
}
330
47
100
AcDbScale
 70
     0
300
1/128" = 1'-0"
140
0.0078125
141
12.0
290
     0
  0
SCALE
  5
5A
102
{ACAD_REACTORS
330
47
102
}
330
47
100
AcDbScale
 70
     0
300
1/64" = 1'-0"
140
0.015625
141
12.0
290
     0
  0
SCALE
  5
5B
102
{ACAD_REACTORS
330
47
102
}
330
47
100
AcDbScale
 70
     0
300
1/32" = 1'-0"
140
0.03125
141
12.0
290
     0
  0
SCALE
  5
5C
102
{ACAD_REACTORS
330
47
102
}
330
47
100
AcDbScale
 70
     0
300
1/16" = 1'-0"
140
0.0625
141
12.0
290
     0
  0
SCALE
  5
5D
102
{ACAD_REACTORS
330
47
102
}
330
47
100
AcDbScale
 70
     0
300
3/32" = 1'-0"
140
0.09375
141
12.0
290
     0
  0
SCALE
  5
5E
102
{ACAD_REACTORS
330
47
102
}
330
47
100
AcDbScale
 70
     0
300
1/8" = 1'-0"
140
0.125
141
12.0
290
     0
  0
SCALE
  5
5F
102
{ACAD_REACTORS
330
47
102
}
330
47
100
AcDbScale
 70
     0
300
3/16" = 1'-0"
140
0.1875
141
12.0
290
     0
  0
SCALE
  5
60
102
{ACAD_REACTORS
330
47
102
}
330
47
100
AcDbScale
 70
     0
300
1/4" = 1'-0"
140
0.25
141
12.0
290
     0
  0
SCALE
  5
61
102
{ACAD_REACTORS
330
47
102
}
330
47
100
AcDbScale
 70
     0
300
3/8" = 1'-0"
140
0.375
141
12.0
290
     0
  0
SCALE
  5
62
102
{ACAD_REACTORS
330
47
102
}
330
47
100
AcDbScale
 70
     0
300
1/2" = 1'-0"
140
0.5
141
12.0
290
     0
  0
SCALE
  5
63
102
{ACAD_REACTORS
330
47
102
}
330
47
100
AcDbScale
 70
     0
300
3/4" = 1'-0"
140
0.75
141
12.0
290
     0
  0
SCALE
  5
64
102
{ACAD_REACTORS
330
47
102
}
330
47
100
AcDbScale
 70
     0
300
1" = 1'-0"
140
1.0
141
12.0
290
     0
  0
SCALE
  5
65
102
{ACAD_REACTORS
330
47
102
}
330
47
100
AcDbScale
 70
     0
300
1-1/2" = 1'-0"
140
1.5
141
12.0
290
     0
  0
SCALE
  5
66
102
{ACAD_REACTORS
330
47
102
}
330
47
100
AcDbScale
 70
     0
300
3" = 1'-0"
140
3.0
141
12.0
290
     0
  0
SCALE
  5
67
102
{ACAD_REACTORS
330
47
102
}
330
47
100
AcDbScale
 70
     0
300
6" = 1'-0"
140
6.0
141
12.0
290
     0
  0
SCALE
  5
68
102
{ACAD_REACTORS
330
47
102
}
330
47
100
AcDbScale
 70
     0
300
1'-0" = 1'-0"
140
12.0
141
12.0
290
     0
  0
ENDSEC
  0
EOF
