  0
SECTION
  2
HEADER
  9
$ACADVER
  1
AC1015
  9
$ACADMAINTVER
 70
     6
  9
$DWGCODEPAGE
  3
ANSI_949
  9
$INSBASE
 10
0.0
 20
0.0
 30
0.0
  9
$EXTMIN
 10
-68.96875000000007
 20
-49.97180738881174
 30
0.0
  9
$EXTMAX
 10
81.41936447236121
 20
44.77431250000009
 30
0.0
  9
$LIMMIN
 10
0.0
 20
0.0
  9
$LIMMAX
 10
420.0
 20
297.0
  9
$ORTHOMODE
 70
     1
  9
$REGENMODE
 70
     1
  9
$FILLMODE
 70
     1
  9
$QTEXTMODE
 70
     0
  9
$MIRRTEXT
 70
     1
  9
$LTSCALE
 40
1.0
  9
$ATTMODE
 70
     1
  9
$TEXTSIZE
 40
3.5
  9
$TRACEWID
 40
1.0
  9
$TEXTSTYLE
  7
Standard
  9
$CLAYER
  8
0
  9
$CELTYPE
  6
ByLayer
  9
$CECOLOR
 62
   256
  9
$CELTSCALE
 40
1.0
  9
$DISPSILH
 70
     0
  9
$DIMSCALE
 40
1.0
  9
$DIMASZ
 40
3.302
  9
$DIMEXO
 40
1.0
  9
$DIMDLI
 40
3.75
  9
$DIMRND
 40
0.0
  9
$DIMDLE
 40
0.0
  9
$DIMEXE
 40
1.0
  9
$DIMTP
 40
0.0
  9
$DIMTM
 40
0.0
  9
$DIMTXT
 40
3.5
  9
$DIMCEN
 40
2.5
  9
$DIMTSZ
 40
0.0
  9
$DIMTOL
 70
     0
  9
$DIMLIM
 70
     0
  9
$DIMTIH
 70
     1
  9
$DIMTOH
 70
     1
  9
$DIMSE1
 70
     0
  9
$DIMSE2
 70
     0
  9
$DIMTAD
 70
     1
  9
$DIMZIN
 70
     0
  9
$DIMBLK
  1

  9
$DIMASO
 70
     1
  9
$DIMSHO
 70
     1
  9
$DIMPOST
  1

  9
$DIMAPOST
  1

  9
$DIMALT
 70
     0
  9
$DIMALTD
 70
     3
  9
$DIMALTF
 40
0.0393700787401575
  9
$DIMLFAC
 40
1.0
  9
$DIMTOFL
 70
     1
  9
$DIMTVP
 40
0.0
  9
$DIMTIX
 70
     0
  9
$DIMSOXD
 70
     0
  9
$DIMSAH
 70
     0
  9
$DIMBLK1
  1

  9
$DIMBLK2
  1

  9
$DIMSTYLE
  2
ISO-25
  9
$DIMCLRD
 70
     0
  9
$DIMCLRE
 70
     0
  9
$DIMCLRT
 70
     0
  9
$DIMTFAC
 40
1.0
  9
$DIMGAP
 40
1.524
  9
$DIMJUST
 70
     0
  9
$DIMSD1
 70
     0
  9
$DIMSD2
 70
     0
  9
$DIMTOLJ
 70
     0
  9
$DIMTZIN
 70
     0
  9
$DIMALTZ
 70
     0
  9
$DIMALTTZ
 70
     0
  9
$DIMUPT
 70
     0
  9
$DIMDEC
 70
     2
  9
$DIMTDEC
 70
     2
  9
$DIMALTU
 70
     2
  9
$DIMALTTD
 70
     3
  9
$DIMTXSTY
  7
Standard
  9
$DIMAUNIT
 70
     0
  9
$DIMADEC
 70
     2
  9
$DIMALTRND
 40
0.0
  9
$DIMAZIN
 70
     0
  9
$DIMDSEP
 70
    44
  9
$DIMATFIT
 70
     3
  9
$DIMFRAC
 70
     0
  9
$DIMLDRBLK
  1

  9
$DIMLUNIT
 70
     2
  9
$DIMLWD
 70
    -2
  9
$DIMLWE
 70
    -2
  9
$DIMTMOVE
 70
     0
  9
$LUNITS
 70
     2
  9
$LUPREC
 70
     2
  9
$SKETCHINC
 40
1.0
  9
$FILLETRAD
 40
10.0
  9
$AUNITS
 70
     0
  9
$AUPREC
 70
     2
  9
$MENU
  1
.
  9
$ELEVATION
 40
0.0
  9
$PELEVATION
 40
0.0
  9
$THICKNESS
 40
0.0
  9
$LIMCHECK
 70
     0
  9
$CHAMFERA
 40
0.0
  9
$CHAMFERB
 40
0.0
  9
$CHAMFERC
 40
0.0
  9
$CHAMFERD
 40
0.0
  9
$SKPOLY
 70
     0
  9
$TDCREATE
 40
2458313.473142546
  9
$TDUCREATE
 40
2458313.098142546
  9
$TDUPDATE
 40
2458319.496881204
  9
$TDUUPDATE
 40
2458319.121881204
  9
$TDINDWG
 40
0.0018700463
  9
$TDUSRTIMER
 40
2458319.121838206
  9
$USRTIMER
 70
     1
  9
$ANGBASE
 50
0.0
  9
$ANGDIR
 70
     0
  9
$PDMODE
 70
     0
  9
$PDSIZE
 40
-1.0
  9
$PLINEWID
 40
0.0
  9
$SPLFRAME
 70
     0
  9
$SPLINETYPE
 70
     6
  9
$SPLINESEGS
 70
     8
  9
$HANDSEED
  5
3E3
  9
$SURFTAB1
 70
     6
  9
$SURFTAB2
 70
     6
  9
$SURFTYPE
 70
     6
  9
$SURFU
 70
     6
  9
$SURFV
 70
     6
  9
$UCSBASE
  2

  9
$UCSNAME
  2

  9
$UCSORG
 10
0.0
 20
0.0
 30
0.0
  9
$UCSXDIR
 10
1.0
 20
0.0
 30
0.0
  9
$UCSYDIR
 10
0.0
 20
1.0
 30
0.0
  9
$UCSORTHOREF
  2

  9
$UCSORTHOVIEW
 70
     0
  9
$UCSORGTOP
 10
0.0
 20
0.0
 30
0.0
  9
$UCSORGBOTTOM
 10
0.0
 20
0.0
 30
0.0
  9
$UCSORGLEFT
 10
0.0
 20
0.0
 30
0.0
  9
$UCSORGRIGHT
 10
0.0
 20
0.0
 30
0.0
  9
$UCSORGFRONT
 10
0.0
 20
0.0
 30
0.0
  9
$UCSORGBACK
 10
0.0
 20
0.0
 30
0.0
  9
$PUCSBASE
  2

  9
$PUCSNAME
  2

  9
$PUCSORG
 10
0.0
 20
0.0
 30
0.0
  9
$PUCSXDIR
 10
1.0
 20
0.0
 30
0.0
  9
$PUCSYDIR
 10
0.0
 20
1.0
 30
0.0
  9
$PUCSORTHOREF
  2

  9
$PUCSORTHOVIEW
 70
     0
  9
$PUCSORGTOP
 10
0.0
 20
0.0
 30
0.0
  9
$PUCSORGBOTTOM
 10
0.0
 20
0.0
 30
0.0
  9
$PUCSORGLEFT
 10
0.0
 20
0.0
 30
0.0
  9
$PUCSORGRIGHT
 10
0.0
 20
0.0
 30
0.0
  9
$PUCSORGFRONT
 10
0.0
 20
0.0
 30
0.0
  9
$PUCSORGBACK
 10
0.0
 20
0.0
 30
0.0
  9
$USERI1
 70
     0
  9
$USERI2
 70
     0
  9
$USERI3
 70
     0
  9
$USERI4
 70
     0
  9
$USERI5
 70
     0
  9
$USERR1
 40
0.0
  9
$USERR2
 40
0.0
  9
$USERR3
 40
0.0
  9
$USERR4
 40
0.0
  9
$USERR5
 40
0.0
  9
$WORLDVIEW
 70
     1
  9
$SHADEDGE
 70
     3
  9
$SHADEDIF
 70
    70
  9
$TILEMODE
 70
     1
  9
$MAXACTVP
 70
    64
  9
$PINSBASE
 10
0.0
 20
0.0
 30
0.0
  9
$PLIMCHECK
 70
     0
  9
$PEXTMIN
 10
1.000000000000000E+20
 20
1.000000000000000E+20
 30
1.000000000000000E+20
  9
$PEXTMAX
 10
-1.000000000000000E+20
 20
-1.000000000000000E+20
 30
-1.000000000000000E+20
  9
$PLIMMIN
 10
0.0
 20
0.0
  9
$PLIMMAX
 10
0.0
 20
0.0
  9
$UNITMODE
 70
     0
  9
$VISRETAIN
 70
     1
  9
$PLINEGEN
 70
     0
  9
$PSLTSCALE
 70
     1
  9
$TREEDEPTH
 70
  3020
  9
$CMLSTYLE
  2
Standard
  9
$CMLJUST
 70
     0
  9
$CMLSCALE
 40
20.0
  9
$PROXYGRAPHICS
 70
     1
  9
$MEASUREMENT
 70
     1
  9
$CELWEIGHT
370
    -1
  9
$ENDCAPS
280
     0
  9
$JOINSTYLE
280
     0
  9
$LWDISPLAY
290
     1
  9
$INSUNITS
 70
     4
  9
$HYPERLINKBASE
  1

  9
$STYLESHEET
  1

  9
$XEDIT
290
     1
  9
$CEPSNTYPE
380
     0
  9
$PSTYLEMODE
290
     1
  9
$FINGERPRINTGUID
  2
{16CF28A4-CAB8-4994-B492-D8B0422296A7}
  9
$VERSIONGUID
  2
{FAEB1C32-E019-11D5-929B-00C0DF256EC4}
  9
$EXTNAMES
290
     1
  9
$PSVPSCALE
 40
0.0
  9
$OLESTARTUP
290
     0
  0
ENDSEC
  0
SECTION
  2
CLASSES
  0
CLASS
  1
ACDBDICTIONARYWDFLT
  2
AcDbDictionaryWithDefault
  3
ObjectDBX Classes
 90
        0
280
     0
281
     0
  0
CLASS
  1
VISUALSTYLE
  2
AcDbVisualStyle
  3
ObjectDBX Classes
 90
     4095
280
     0
281
     0
  0
CLASS
  1
MATERIAL
  2
AcDbMaterial
  3
ObjectDBX Classes
 90
     1153
280
     0
281
     0
  0
CLASS
  1
SCALE
  2
AcDbScale
  3
ObjectDBX Classes
 90
     1153
280
     0
281
     0
  0
CLASS
  1
SUN
  2
AcDbSun
  3
SCENEOE
 90
     1153
280
     0
281
     0
  0
CLASS
  1
ACDBPLACEHOLDER
  2
AcDbPlaceHolder
  3
ObjectDBX Classes
 90
        0
280
     0
281
     0
  0
CLASS
  1
LAYOUT
  2
AcDbLayout
  3
ObjectDBX Classes
 90
        0
280
     0
281
     0
  0
CLASS
  1
TABLESTYLE
  2
AcDbTableStyle
  3
ObjectDBX Classes
 90
     4095
280
     0
281
     0
  0
CLASS
  1
MLEADERSTYLE
  2
AcDbMLeaderStyle
  3
ACDB_MLEADERSTYLE_CLASS
 90
     4095
280
     0
281
     0
  0
CLASS
  1
RASTERVARIABLES
  2
AcDbRasterVariables
  3
ISM
 90
        0
280
     0
281
     0
  0
ENDSEC
  0
SECTION
  2
TABLES
  0
TABLE
  2
VPORT
  5
8
330
0
100
AcDbSymbolTable
 70
     1
  0
VPORT
  5
29
330
8
100
AcDbSymbolTableRecord
100
AcDbViewportTableRecord
  2
*Active
 70
     0
 10
0.0
 20
0.0
 11
1.0
 21
1.0
 12
18.85084618310925
 22
-6.478111675429981
 13
0.0
 23
0.0
 14
10.0
 24
10.0
 15
10.0
 25
10.0
 16
0.0
 26
0.0
 36
1.0
 17
0.0
 27
0.0
 37
0.0
 40
104.0893506455069
 41
1.632093933463796
 42
50.0
 43
0.0
 44
0.0
 50
0.0
 51
0.0
 71
    16
 72
  2000
 73
     1
 74
     3
 75
     0
 76
     0
 77
     0
 78
     0
281
     0
 65
     1
110
0.0
120
0.0
130
0.0
111
1.0
121
0.0
131
0.0
112
0.0
122
1.0
132
0.0
 79
     0
146
0.0
  0
ENDTAB
  0
TABLE
  2
LTYPE
  5
5
330
0
100
AcDbSymbolTable
 70
     6
  0
LTYPE
  5
14
330
5
100
AcDbSymbolTableRecord
100
AcDbLinetypeTableRecord
  2
ByBlock
 70
     0
  3

 72
    65
 73
     0
 40
0.0
  0
LTYPE
  5
15
330
5
100
AcDbSymbolTableRecord
100
AcDbLinetypeTableRecord
  2
ByLayer
 70
     0
  3

 72
    65
 73
     0
 40
0.0
  0
LTYPE
  5
16
330
5
100
AcDbSymbolTableRecord
100
AcDbLinetypeTableRecord
  2
Continuous
 70
     0
  3
Solid line
 72
    65
 73
     0
 40
0.0
  0
LTYPE
  5
6A
330
5
100
AcDbSymbolTableRecord
100
AcDbLinetypeTableRecord
  2
HIDDEN
 70
     0
  3
Hidden __ __ __ __ __ __ __ __ __ __ __ __ __ __
 72
    65
 73
     2
 40
1.905
 49
1.27
 74
     0
 49
-0.635
 74
     0
  0
LTYPE
  5
6B
330
5
100
AcDbSymbolTableRecord
100
AcDbLinetypeTableRecord
  2
PHANTOM
 70
     0
  3
Phantom ______  __  __  ______  __  __  ______
 72
    65
 73
     6
 40
12.7
 49
6.35
 74
     0
 49
-1.27
 74
     0
 49
1.27
 74
     0
 49
-1.27
 74
     0
 49
1.27
 74
     0
 49
-1.27
 74
     0
  0
LTYPE
  5
6C
330
5
100
AcDbSymbolTableRecord
100
AcDbLinetypeTableRecord
  2
CENTER
 70
     0
  3
Center ____ _ ____ _ ____ _ ____ _ ____ _ ____
 72
    65
 73
     4
 40
10.16
 49
6.35
 74
     0
 49
-1.27
 74
     0
 49
1.27
 74
     0
 49
-1.27
 74
     0
  0
LTYPE
  5
6D
330
5
100
AcDbSymbolTableRecord
100
AcDbLinetypeTableRecord
  2
CENTERX2
 70
     0
  3
Center (2x) ________  __  ________  __  _____
 72
    65
 73
     4
 40
20.32
 49
12.7
 74
     0
 49
-2.54
 74
     0
 49
2.54
 74
     0
 49
-2.54
 74
     0
  0
LTYPE
  5
6E
330
5
100
AcDbSymbolTableRecord
100
AcDbLinetypeTableRecord
  2
DOT2
 70
     0
  3
Dot (.5x) ........................................
 72
    65
 73
     2
 40
0.635
 49
0.0
 74
     0
 49
-0.635
 74
     0
  0
ENDTAB
  0
TABLE
  2
LAYER
  5
2
102
{ACAD_XDICTIONARY
360
1D7
102
}
330
0
100
AcDbSymbolTable
 70
    18
  0
LAYER
  5
10
330
2
100
AcDbSymbolTableRecord
100
AcDbLayerTableRecord
  2
0
 70
     0
 62
     7
  6
Continuous
370
    -3
390
F
  0
LAYER
  5
6F
330
2
100
AcDbSymbolTableRecord
100
AcDbLayerTableRecord
  2
FORMAT
 70
     0
 62
     2
  6
Continuous
370
    -3
390
F
  0
LAYER
  5
70
330
2
100
AcDbSymbolTableRecord
100
AcDbLayerTableRecord
  2
외형선
 70
     0
 62
     4
  6
Continuous
370
    30
390
F
  0
LAYER
  5
71
330
2
100
AcDbSymbolTableRecord
100
AcDbLayerTableRecord
  2
숨은선
 70
     0
 62
     2
  6
HIDDEN
370
    15
390
F
  0
LAYER
  5
72
330
2
100
AcDbSymbolTableRecord
100
AcDbLayerTableRecord
  2
중심선
 70
     0
 62
     1
  6
CENTERX2
370
    -3
390
F
  0
LAYER
  5
73
330
2
100
AcDbSymbolTableRecord
100
AcDbLayerTableRecord
  2
파단선
 70
     0
 62
     4
  6
Continuous
370
    -3
390
F
  0
LAYER
  5
74
330
2
100
AcDbSymbolTableRecord
100
AcDbLayerTableRecord
  2
해칭선
 70
     0
 62
   100
  6
Continuous
370
    -3
390
F
  0
LAYER
  5
75
330
2
100
AcDbSymbolTableRecord
100
AcDbLayerTableRecord
  2
가는실선
 70
     0
 62
     4
  6
Continuous
370
    -3
390
F
  0
LAYER
  5
76
330
2
100
AcDbSymbolTableRecord
100
AcDbLayerTableRecord
  2
치수_보조선
 70
     0
 62
     4
  6
Continuous
370
    -3
390
F
  0
LAYER
  5
77
330
2
100
AcDbSymbolTableRecord
100
AcDbLayerTableRecord
  2
치수문자_일반주서
 70
     0
 62
     7
  6
Continuous
370
    15
390
F
  0
LAYER
  5
78
330
2
100
AcDbSymbolTableRecord
100
AcDbLayerTableRecord
  2
개별주서
 70
     0
 62
   100
  6
Continuous
370
    30
390
F
  0
LAYER
  5
79
330
2
100
AcDbSymbolTableRecord
100
AcDbLayerTableRecord
  2
중간선
 70
     0
 62
     2
  6
Continuous
370
    15
390
F
  0
LAYER
  5
7A
330
2
100
AcDbSymbolTableRecord
100
AcDbLayerTableRecord
  2
윤곽선
 70
     0
 62
     3
  6
Continuous
370
    40
390
F
  0
LAYER
  5
7B
330
2
100
AcDbSymbolTableRecord
100
AcDbLayerTableRecord
  2
중심마크
 70
     0
 62
   100
  6
Continuous
370
    30
390
F
  0
LAYER
  5
7C
330
2
100
AcDbSymbolTableRecord
100
AcDbLayerTableRecord
  2
가상선
 70
     0
 62
     4
  6
PHANTOM
370
    -3
390
F
  0
LAYER
  5
7D
330
2
100
AcDbSymbolTableRecord
100
AcDbLayerTableRecord
  2
특수지정선
 70
     0
 62
     5
  6
CENTERX2
370
    60
390
F
  0
LAYER
  5
7E
330
2
100
AcDbSymbolTableRecord
100
AcDbLayerTableRecord
  2
참조1
 70
     0
 62
    -4
  6
Continuous
370
    -3
390
F
  0
LAYER
  5
152
330
2
100
AcDbSymbolTableRecord
100
AcDbLayerTableRecord
  2
Defpoints
 70
     0
 62
     7
  6
Continuous
290
     0
370
    -3
390
F
  0
ENDTAB
  0
TABLE
  2
STYLE
  5
3
330
0
100
AcDbSymbolTable
 70
     2
  0
STYLE
  5
11
330
3
100
AcDbSymbolTableRecord
100
AcDbTextStyleTableRecord
  2
Standard
 70
     0
 40
0.0
 41
1.0
 50
0.0
 71
     0
 42
3.5
  3
txt
  4

  0
STYLE
  5
94
330
3
100
AcDbSymbolTableRecord
100
AcDbTextStyleTableRecord
  2
SLDTEXTSTYLE0
 70
     0
 40
0.0
 41
0.75
 50
0.0
 71
     0
 42
3.5
  3
TXT
  4

  0
ENDTAB
  0
TABLE
  2
VIEW
  5
6
330
0
100
AcDbSymbolTable
 70
     0
  0
ENDTAB
  0
TABLE
  2
UCS
  5
7
330
0
100
AcDbSymbolTable
 70
     0
  0
ENDTAB
  0
TABLE
  2
APPID
  5
9
330
0
100
AcDbSymbolTable
 70
     1
  0
APPID
  5
12
330
9
100
AcDbSymbolTableRecord
100
AcDbRegAppTableRecord
  2
ACAD
 70
     0
  0
ENDTAB
  0
TABLE
  2
DIMSTYLE
  5
A
330
0
100
AcDbSymbolTable
 70
     4
100
AcDbDimStyleTable
  0
DIMSTYLE
105
27
330
A
100
AcDbSymbolTableRecord
100
AcDbDimStyleTableRecord
  2
ISO-25
 70
     0
 41
2.5
 42
0.625
 43
3.75
 44
1.25
 73
     0
 74
     0
 77
     1
 78
     8
140
2.5
141
2.5
143
0.03937007874016
147
0.625
171
     3
172
     1
178
     0
271
     2
272
     2
274
     3
278
    44
283
     0
284
     8
340
11
  0
DIMSTYLE
105
CF
330
A
100
AcDbSymbolTableRecord
100
AcDbDimStyleTableRecord
  2
SLDDIMSTYLE0
 70
     0
 41
3.302
 44
0.0
 45
0.000000001
 73
     0
 74
     0
 77
     1
 78
    12
 79
     3
140
3.5
143
0.0393700787401575
147
0.875
148
0.000000001
170
     1
173
     1
178
     0
271
     2
272
     2
276
     2
284
    12
340
94
  0
DIMSTYLE
105
E3
330
A
100
AcDbSymbolTableRecord
100
AcDbDimStyleTableRecord
  2
SLDDIMSTYLE1
 70
     0
 41
3.302
 44
0.0
 45
0.000000001
 73
     0
 74
     0
 77
     1
 78
     4
 79
     1
140
3.5
143
0.0393700787401575
147
0.875
148
0.000000001
170
     1
173
     1
178
     0
271
     2
272
     2
276
     2
284
    12
340
94
  0
DIMSTYLE
105
10B
102
{ACAD_REACTORS
330
10A
330
CE
330
E2
330
F7
102
}
330
A
100
AcDbSymbolTableRecord
100
AcDbDimStyleTableRecord
  2
SLDDIMSTYLE2
 70
     0
 41
3.302
 44
0.0
 45
0.000000001
 73
     0
 74
     0
 77
     1
 78
     4
 79
     1
140
3.5
143
0.0393700787401575
147
0.875
148
0.000000001
170
     1
172
     1
173
     1
178
     0
271
     2
272
     2
276
     2
284
    12
289
     0
340
94
  0
ENDTAB
  0
TABLE
  2
BLOCK_RECORD
  5
1
330
0
100
AcDbSymbolTable
 70
    19
  0
BLOCK_RECORD
  5
1F
330
1
100
AcDbSymbolTableRecord
100
AcDbBlockTableRecord
  2
*Model_Space
340
22
  0
BLOCK_RECORD
  5
1B
330
1
100
AcDbSymbolTableRecord
100
AcDbBlockTableRecord
  2
*Paper_Space
340
1E
  0
BLOCK_RECORD
  5
23
330
1
100
AcDbSymbolTableRecord
100
AcDbBlockTableRecord
  2
*Paper_Space0
340
26
  0
BLOCK_RECORD
  5
7F
330
1
100
AcDbSymbolTableRecord
100
AcDbBlockTableRecord
  2
블럭10
340
0
102
{BLKREFS
331
C7
102
}
  0
BLOCK_RECORD
  5
D0
330
1
100
AcDbSymbolTableRecord
100
AcDbBlockTableRecord
  2
_D
340
0
  0
BLOCK_RECORD
  5
E4
330
1
100
AcDbSymbolTableRecord
100
AcDbBlockTableRecord
  2
_D_1
340
0
  0
BLOCK_RECORD
  5
F8
330
1
100
AcDbSymbolTableRecord
100
AcDbBlockTableRecord
  2
_D_2
340
0
  0
BLOCK_RECORD
  5
10C
330
1
100
AcDbSymbolTableRecord
100
AcDbBlockTableRecord
  2
_D_3
340
0
  0
BLOCK_RECORD
  5
126
330
1
100
AcDbSymbolTableRecord
100
AcDbBlockTableRecord
  2
SW_DOWELSYMBOL_0
340
0
102
{BLKREFS
331
12C
102
}
  0
BLOCK_RECORD
  5
1DB
330
1
100
AcDbSymbolTableRecord
100
AcDbBlockTableRecord
  2
*D7
340
0
  0
BLOCK_RECORD
  5
1EA
330
1
100
AcDbSymbolTableRecord
100
AcDbBlockTableRecord
  2
*D8
340
0
  0
BLOCK_RECORD
  5
1F9
330
1
100
AcDbSymbolTableRecord
100
AcDbBlockTableRecord
  2
*D9
340
0
  0
BLOCK_RECORD
  5
232
330
1
100
AcDbSymbolTableRecord
100
AcDbBlockTableRecord
  2
*D10
340
0
  0
BLOCK_RECORD
  5
241
330
1
100
AcDbSymbolTableRecord
100
AcDbBlockTableRecord
  2
*D11
340
0
  0
BLOCK_RECORD
  5
250
330
1
100
AcDbSymbolTableRecord
100
AcDbBlockTableRecord
  2
*D12
340
0
  0
BLOCK_RECORD
  5
2EB
330
1
100
AcDbSymbolTableRecord
100
AcDbBlockTableRecord
  2
*D13
340
0
  0
BLOCK_RECORD
  5
2FA
330
1
100
AcDbSymbolTableRecord
100
AcDbBlockTableRecord
  2
*D14
340
0
  0
BLOCK_RECORD
  5
309
330
1
100
AcDbSymbolTableRecord
100
AcDbBlockTableRecord
  2
*D15
340
0
  0
BLOCK_RECORD
  5
343
330
1
100
AcDbSymbolTableRecord
100
AcDbBlockTableRecord
  2
*D16
340
0
  0
BLOCK_RECORD
  5
352
330
1
100
AcDbSymbolTableRecord
100
AcDbBlockTableRecord
  2
*D17
340
0
  0
BLOCK_RECORD
  5
361
330
1
100
AcDbSymbolTableRecord
100
AcDbBlockTableRecord
  2
*D18
340
0
  0
ENDTAB
  0
ENDSEC
  0
SECTION
  2
BLOCKS
  0
BLOCK
  5
20
330
1F
100
AcDbEntity
  8
0
100
AcDbBlockBegin
  2
*Model_Space
 70
     0
 10
0.0
 20
0.0
 30
0.0
  3
*Model_Space
  1
*Model_Space
  0
ENDBLK
  5
21
330
1F
100
AcDbEntity
  8
0
100
AcDbBlockEnd
  0
BLOCK
  5
1C
330
1B
100
AcDbEntity
 67
     1
  8
0
100
AcDbBlockBegin
  2
*Paper_Space
 70
     0
 10
0.0
 20
0.0
 30
0.0
  3
*Paper_Space
  1
*Paper_Space
  0
ENDBLK
  5
1D
330
1B
100
AcDbEntity
 67
     1
  8
0
100
AcDbBlockEnd
  0
BLOCK
  5
24
330
23
100
AcDbEntity
  8
0
100
AcDbBlockBegin
  2
*Paper_Space0
 70
     0
 10
0.0
 20
0.0
 30
0.0
  3
*Paper_Space0
  1
*Paper_Space0
  0
ENDBLK
  5
25
330
23
100
AcDbEntity
  8
0
100
AcDbBlockEnd
  0
BLOCK
  5
80
330
7F
100
AcDbEntity
  8
0
100
AcDbBlockBegin
  2
블럭10
 70
     2
 10
0.0
 20
0.0
 30
0.0
  3
블럭10
  1
블럭10
  0
ELLIPSE
  5
82
330
7F
100
AcDbEntity
  8
중심선
100
AcDbEllipse
 10
20.54032771741204
 20
12.0471743016438
 30
0.0
 11
6.600054785286829
 21
-1.261213355974178E-13
 31
0.0
210
0.0
220
0.0
230
1.0
 40
0.636358354079598
 41
0.9219305317359503
 42
6.513795318482858
  0
ELLIPSE
  5
83
330
7F
100
AcDbEntity
  8
중심선
100
AcDbEllipse
 10
20.54032771746488
 20
12.04717430159265
 30
0.0
 11
3.960054785062283
 21
1.540847449632565E-10
 31
0.0
210
0.0
220
0.0
230
1.0
 40
0.3939339440162632
 41
1.131841032648279
 42
5.62031148352944
  0
LINE
  5
84
330
7F
100
AcDbEntity
  8
중심선
100
AcDbLine
 10
2.268634060543552
 20
16.24717430164393
 30
0.0
 11
5.714909304380834
 21
16.24717430164393
 31
0.0
  0
LINE
  5
85
330
7F
100
AcDbEntity
  8
중심선
100
AcDbLine
 10
5.245725140726316
 20
7.84717430164391
 30
0.0
 11
8.692000384563599
 21
7.84717430164391
 31
0.0
  0
LINE
  5
86
330
7F
100
AcDbEntity
  8
중심선
100
AcDbLine
 10
15.74043728645272
 20
16.24717430164393
 30
0.0
 11
8.692000384563599
 21
7.84717430164391
 31
0.0
  0
LINE
  5
87
330
7F
100
AcDbEntity
  8
중심선
100
AcDbLine
 10
0.1404042013395286
 20
13.71084872107135
 30
0.0
 11
3.58671253028996
 21
13.71088815037384
 31
0.0
  0
LINE
  5
88
330
7F
100
AcDbEntity
  8
중심선
100
AcDbLine
 10
2.750260043222114
 20
10.84717430164391
 30
0.0
 11
6.196535287059397
 21
10.84717430164391
 31
0.0
  0
LINE
  5
89
330
7F
100
AcDbEntity
  8
중심선
100
AcDbLine
 10
12.29416204261559
 20
16.24717430164393
 30
0.0
 11
5.245725140726316
 21
7.84717430164391
 31
0.0
  0
LINE
  5
8A
330
7F
100
AcDbEntity
  8
중심선
100
AcDbLine
 10
10.72767329541681
 20
16.24717430164393
 30
0.0
 11
6.196535287059397
 21
10.84717430164391
 31
0.0
  0
LINE
  5
8B
330
7F
100
AcDbEntity
  8
중심선
100
AcDbLine
 10
7.28139805157953
 20
16.24717430164393
 30
0.0
 11
2.750260043222114
 21
10.84717430164391
 31
0.0
  0
LINE
  5
8C
330
7F
100
AcDbEntity
  8
중심선
100
AcDbLine
 10
5.714909304380834
 20
16.24717430164393
 30
0.0
 11
3.58671253028996
 21
13.71088815037384
 31
0.0
  0
LINE
  5
8D
330
7F
100
AcDbEntity
  8
중심선
100
AcDbLine
 10
2.268634060543552
 20
16.24717430164393
 30
0.0
 11
0.1404042013395286
 21
13.71084872107135
 31
0.0
  0
LINE
  5
8E
330
7F
100
AcDbEntity
  8
중심선
100
AcDbLine
 10
7.28139805157953
 20
16.24717430164393
 30
0.0
 11
10.72767329541681
 21
16.24717430164393
 31
0.0
  0
LINE
  5
8F
330
7F
100
AcDbEntity
  8
중심선
100
AcDbLine
 10
12.29416204261559
 20
16.24717430164393
 30
0.0
 11
15.74043728645272
 21
16.24717430164393
 31
0.0
  0
LINE
  5
90
330
7F
100
AcDbEntity
  8
중심선
100
AcDbLine
 10
19.22036997980202
 20
11.08717430171403
 30
0.0
 11
23.66174974927406
 21
11.08717430171406
 31
0.0
  0
LINE
  5
91
330
7F
100
AcDbEntity
  8
중심선
100
AcDbLine
 10
19.22039502424796
 20
13.00717430171391
 30
0.0
 11
19.22036997980202
 21
11.08717430171403
 31
0.0
  0
LINE
  5
92
330
7F
100
AcDbEntity
  8
중심선
100
AcDbLine
 10
19.22039502424796
 20
13.00717430171391
 30
0.0
 11
26.96566020931264
 21
13.00717430171391
 31
0.0
  0
LINE
  5
93
330
7F
100
AcDbEntity
  8
중심선
100
AcDbLine
 10
22.22332737316547
 20
13.45928029700563
 30
0.0
 11
24.52862924686651
 21
15.39360700705356
 31
0.0
  0
ATTDEF
  5
95
330
7F
100
AcDbEntity
  8
FORMAT
 62
     2
100
AcDbText
 10
4.408487351596664
 20
2.075366912832191
 30
0.0
 40
4.233333333333333
  1
E1053027
 41
0.75
  7
SLDTEXTSTYLE0
 11
4.408487351596664
 21
-0.0412997538344756
 31
0.0
100
AcDbAttributeDefinition
  3

  2
AUTOATTR0
 70
     0
 74
     1
  0
ENDBLK
  5
81
330
7F
100
AcDbEntity
  8
0
100
AcDbBlockEnd
  0
BLOCK
  5
D1
330
D0
100
AcDbEntity
  8
0
100
AcDbBlockBegin
  2
_D
 70
     0
 10
0.0
 20
0.0
 30
0.0
  3
_D
  1
_D
  0
LINE
  5
D3
330
D0
100
AcDbEntity
  8
치수문자_일반주서
 62
     0
370
    -2
100
AcDbLine
 10
52.44999999999998
 20
5.357812500000005
 30
0.0
 11
67.4897291500535
 21
5.357812500000062
 31
0.0
  0
LINE
  5
D4
330
D0
100
AcDbEntity
  8
치수문자_일반주서
 62
     0
370
    -2
100
AcDbLine
 10
52.44999999999998
 20
-5.357812499999993
 30
0.0
 11
67.48972915005355
 21
-5.357812499999934
 31
0.0
  0
LINE
  5
D5
330
D0
100
AcDbEntity
  8
치수문자_일반주서
 62
     0
370
    -2
100
AcDbLine
 10
67.4897291500535
 20
5.357812500000062
 30
0.0
 11
67.48972915005335
 21
44.77431250000009
 31
0.0
  0
LINE
  5
D6
330
D0
100
AcDbEntity
  8
치수문자_일반주서
 62
     0
370
    -2
100
AcDbLine
 10
67.4897291500535
 20
5.357812500000062
 30
0.0
 11
67.48972915005355
 21
-5.357812499999934
 31
0.0
  0
LINE
  5
D7
330
D0
100
AcDbEntity
  8
치수문자_일반주서
 62
     0
370
    -2
100
AcDbLine
 10
67.48972915005349
 20
8.659812500000061
 30
0.0
 11
67.48972915005348
 21
11.96181250000006
 31
0.0
  0
LINE
  5
D8
330
D0
100
AcDbEntity
  8
치수문자_일반주서
 62
     0
370
    -2
100
AcDbLine
 10
67.48972915005356
 20
-8.659812499999934
 30
0.0
 11
67.48972915005358
 21
-11.96181249999993
 31
0.0
  0
SOLID
  5
D9
330
D0
100
AcDbEntity
  8
치수문자_일반주서
 62
     0
100
AcDbTrace
 10
66.93939581672016
 20
8.65981250000006
 30
0.0
 11
68.04006248338682
 21
8.659812500000063
 31
0.0
 12
67.4897291500535
 22
5.357812500000062
 32
0.0
 13
67.4897291500535
 23
5.357812500000062
 33
0.0
  0
SOLID
  5
DA
330
D0
100
AcDbEntity
  8
치수문자_일반주서
 62
     0
100
AcDbTrace
 10
68.04006248338689
 20
-8.659812499999932
 30
0.0
 11
66.93939581672024
 21
-8.659812499999935
 31
0.0
 12
67.48972915005355
 22
-5.357812499999934
 32
0.0
 13
67.48972915005355
 23
-5.357812499999934
 33
0.0
  0
MTEXT
  5
DB
330
D0
100
AcDbEntity
  8
치수문자_일반주서
 62
     0
100
AcDbMText
 10
63.11472915005342
 20
28.36806250000007
 30
0.0
 40
3.5
 41
0.0
 71
     2
 72
     1
  1
\A1;%%c10.72 [27/64]
  7
SLDTEXTSTYLE0
 11
-3.978542002506249E-15
 21
1.0
 31
0.0
 73
     1
 44
1.0
  0
POINT
  5
DC
330
D0
100
AcDbEntity
  8
Defpoints
 62
     0
100
AcDbPoint
 10
52.38749999999998
 20
5.357812500000005
 30
0.0
  0
POINT
  5
25C
330
D0
100
AcDbEntity
  8
Defpoints
 62
     0
100
AcDbPoint
 10
52.38749999999998
 20
-5.357812499999993
 30
0.0
  0
POINT
  5
25D
330
D0
100
AcDbEntity
  8
Defpoints
 62
     0
100
AcDbPoint
 10
67.48972915005356
 20
-5.357812499999936
 30
0.0
  0
ENDBLK
  5
D2
330
D0
100
AcDbEntity
  8
0
100
AcDbBlockEnd
  0
BLOCK
  5
E5
330
E4
100
AcDbEntity
  8
0
100
AcDbBlockBegin
  2
_D_1
 70
     0
 10
0.0
 20
0.0
 30
0.0
  3
_D_1
  1
_D_1
  0
LINE
  5
E7
330
E4
100
AcDbEntity
  8
치수문자_일반주서
 62
     0
370
    -2
100
AcDbLine
 10
52.38749999999998
 20
5.420312500000005
 30
0.0
 11
52.38749999999998
 21
20.71954973390218
 31
0.0
  0
LINE
  5
E8
330
E4
100
AcDbEntity
  8
치수문자_일반주서
 62
     0
370
    -2
100
AcDbLine
 10
26.98750000000001
 20
5.417328241654605
 30
0.0
 11
26.98750000000001
 21
20.71954973390218
 31
0.0
  0
LINE
  5
E9
330
E4
100
AcDbEntity
  8
치수문자_일반주서
 62
     0
370
    -2
100
AcDbLine
 10
26.98750000000001
 20
20.71954973390218
 30
0.0
 11
-6.009445657619629
 21
20.71954973390218
 31
0.0
  0
LINE
  5
EA
330
E4
100
AcDbEntity
  8
치수문자_일반주서
 62
     0
370
    -2
100
AcDbLine
 10
52.38749999999998
 20
20.71954973390218
 30
0.0
 11
26.98750000000001
 21
20.71954973390218
 31
0.0
  0
LINE
  5
EB
330
E4
100
AcDbEntity
  8
치수문자_일반주서
 62
     0
370
    -2
100
AcDbLine
 10
55.68949999999998
 20
20.71954973390218
 30
0.0
 11
58.99149999999998
 21
20.71954973390218
 31
0.0
  0
LINE
  5
EC
330
E4
100
AcDbEntity
  8
치수문자_일반주서
 62
     0
370
    -2
100
AcDbLine
 10
23.68550000000001
 20
20.71954973390218
 30
0.0
 11
20.38350000000001
 21
20.71954973390218
 31
0.0
  0
SOLID
  5
ED
330
E4
100
AcDbEntity
  8
치수문자_일반주서
 62
     0
100
AcDbTrace
 10
55.68949999999998
 20
21.26988306723551
 30
0.0
 11
55.68949999999998
 21
20.16921640056884
 31
0.0
 12
52.38749999999998
 22
20.71954973390218
 32
0.0
 13
52.38749999999998
 23
20.71954973390218
 33
0.0
  0
SOLID
  5
EE
330
E4
100
AcDbEntity
  8
치수문자_일반주서
 62
     0
100
AcDbTrace
 10
23.68550000000001
 20
20.16921640056884
 30
0.0
 11
23.68550000000001
 21
21.26988306723551
 31
0.0
 12
26.98750000000001
 22
20.71954973390218
 32
0.0
 13
26.98750000000001
 23
20.71954973390218
 33
0.0
  0
MTEXT
  5
EF
330
E4
100
AcDbEntity
  8
치수문자_일반주서
 62
     0
100
AcDbMText
 10
3.834304342380371
 20
25.09454973390218
 30
0.0
 40
3.5
 41
0.0
 71
     2
 72
     1
  1
\A1;25.40 [1]
  7
SLDTEXTSTYLE0
 73
     1
 44
1.0
  0
POINT
  5
F0
330
E4
100
AcDbEntity
  8
Defpoints
 62
     0
100
AcDbPoint
 10
52.38749999999998
 20
5.357812500000005
 30
0.0
  0
POINT
  5
25E
330
E4
100
AcDbEntity
  8
Defpoints
 62
     0
100
AcDbPoint
 10
26.98750000000001
 20
5.354828241654605
 30
0.0
  0
POINT
  5
25F
330
E4
100
AcDbEntity
  8
Defpoints
 62
     0
100
AcDbPoint
 10
26.98750000000001
 20
20.71954973390218
 30
0.0
  0
ENDBLK
  5
E6
330
E4
100
AcDbEntity
  8
0
100
AcDbBlockEnd
  0
BLOCK
  5
F9
330
F8
100
AcDbEntity
  8
0
100
AcDbBlockBegin
  2
_D_2
 70
     0
 10
0.0
 20
0.0
 30
0.0
  3
_D_2
  1
_D_2
  0
LINE
  5
FB
330
F8
100
AcDbEntity
  8
치수문자_일반주서
 62
     0
370
    -2
100
AcDbLine
 10
52.38749999999998
 20
5.420312500000005
 30
0.0
 11
52.38749999999998
 21
35.43986672067656
 31
0.0
  0
LINE
  5
FC
330
F8
100
AcDbEntity
  8
치수문자_일반주서
 62
     0
370
    -2
100
AcDbLine
 10
-52.38749999999995
 20
5.420312499999993
 30
0.0
 11
-52.38749999999995
 21
35.43986672067656
 31
0.0
  0
LINE
  5
FD
330
F8
100
AcDbEntity
  8
치수문자_일반주서
 62
     0
370
    -2
100
AcDbLine
 10
49.08549999999998
 20
35.43986672067656
 30
0.0
 11
-49.08549999999995
 21
35.43986672067656
 31
0.0
  0
SOLID
  5
FE
330
F8
100
AcDbEntity
  8
치수문자_일반주서
 62
     0
100
AcDbTrace
 10
49.08549999999998
 20
34.88953338734323
 30
0.0
 11
49.08549999999998
 21
35.9902000540099
 31
0.0
 12
52.38749999999998
 22
35.43986672067656
 32
0.0
 13
52.38749999999998
 23
35.43986672067656
 33
0.0
  0
SOLID
  5
FF
330
F8
100
AcDbEntity
  8
치수문자_일반주서
 62
     0
100
AcDbTrace
 10
-49.08549999999995
 20
35.9902000540099
 30
0.0
 11
-49.08549999999995
 21
34.88953338734323
 31
0.0
 12
-52.38749999999995
 22
35.43986672067656
 32
0.0
 13
-52.38749999999995
 23
35.43986672067656
 33
0.0
  0
MTEXT
  5
100
330
F8
100
AcDbEntity
  8
치수문자_일반주서
 62
     0
100
AcDbMText
 10
-2.133391733338975
 20
39.81486672067656
 30
0.0
 40
3.5
 41
0.0
 71
     2
 72
     1
  1
\A1;104.78 [4 1/8]
  7
SLDTEXTSTYLE0
 73
     1
 44
1.0
  0
POINT
  5
101
330
F8
100
AcDbEntity
  8
Defpoints
 62
     0
100
AcDbPoint
 10
52.38749999999998
 20
5.357812500000005
 30
0.0
  0
POINT
  5
102
330
F8
100
AcDbEntity
  8
Defpoints
 62
     0
100
AcDbPoint
 10
-52.38749999999995
 20
5.357812499999993
 30
0.0
  0
POINT
  5
103
330
F8
100
AcDbEntity
  8
Defpoints
 62
     0
100
AcDbPoint
 10
-52.38749999999995
 20
35.43986672067656
 30
0.0
  0
ENDBLK
  5
FA
330
F8
100
AcDbEntity
  8
0
100
AcDbBlockEnd
  0
BLOCK
  5
10D
330
10C
100
AcDbEntity
  8
0
100
AcDbBlockBegin
  2
_D_3
 70
     0
 10
0.0
 20
0.0
 30
0.0
  3
_D_3
  1
_D_3
  0
LINE
  5
10F
330
10C
100
AcDbEntity
  8
치수문자_일반주서
 62
     0
370
    -2
100
AcDbLine
 10
-22.34710583936519
 20
6.350000000000001
 30
0.0
 11
-64.59375000000004
 21
6.349999999999843
 31
0.0
  0
LINE
  5
110
330
10C
100
AcDbEntity
  8
치수문자_일반주서
 62
     0
370
    -2
100
AcDbLine
 10
-22.34710583936519
 20
-6.350000000000007
 30
0.0
 11
-64.59375
 21
-6.350000000000165
 31
0.0
  0
LINE
  5
111
330
10C
100
AcDbEntity
  8
치수문자_일반주서
 62
     0
370
    -2
100
AcDbLine
 10
-64.59375000000003
 20
3.047999999999844
 30
0.0
 11
-64.59375000000001
 21
-3.048000000000165
 31
0.0
  0
SOLID
  5
112
330
10C
100
AcDbEntity
  8
치수문자_일반주서
 62
     0
100
AcDbTrace
 10
-64.0434166666667
 20
3.047999999999845
 30
0.0
 11
-65.14408333333336
 21
3.047999999999842
 31
0.0
 12
-64.59375000000004
 22
6.349999999999843
 32
0.0
 13
-64.59375000000004
 23
6.349999999999843
 33
0.0
  0
SOLID
  5
113
330
10C
100
AcDbEntity
  8
치수문자_일반주서
 62
     0
100
AcDbTrace
 10
-65.14408333333334
 20
-3.048000000000167
 30
0.0
 11
-64.04341666666669
 21
-3.048000000000163
 31
0.0
 12
-64.59375
 22
-6.350000000000165
 32
0.0
 13
-64.59375
 23
-6.350000000000165
 33
0.0
  0
MTEXT
  5
114
330
10C
100
AcDbEntity
  8
치수문자_일반주서
 62
     0
100
AcDbMText
 10
-68.96875000000003
 20
-0.0000000000000232
 30
0.0
 40
3.5
 41
0.0
 71
     2
 72
     1
  1
\A1;%%c12.70 [1/2]
  7
SLDTEXTSTYLE0
 11
-3.356894814614645E-15
 21
1.0
 31
0.0
 73
     1
 44
1.0
  0
POINT
  5
115
330
10C
100
AcDbEntity
  8
Defpoints
 62
     0
100
AcDbPoint
 10
-22.28460583936519
 20
6.350000000000001
 30
0.0
  0
POINT
  5
116
330
10C
100
AcDbEntity
  8
Defpoints
 62
     0
100
AcDbPoint
 10
-22.28460583936519
 20
-6.350000000000007
 30
0.0
  0
POINT
  5
117
330
10C
100
AcDbEntity
  8
Defpoints
 62
     0
100
AcDbPoint
 10
-64.59375
 20
-6.350000000000165
 30
0.0
  0
ENDBLK
  5
10E
330
10C
100
AcDbEntity
  8
0
100
AcDbBlockEnd
  0
BLOCK
  5
127
330
126
100
AcDbEntity
  8
0
100
AcDbBlockBegin
  2
SW_DOWELSYMBOL_0
 70
     0
 10
0.0
 20
0.0
 30
0.0
  3
SW_DOWELSYMBOL_0
  1
SW_DOWELSYMBOL_0
  0
CIRCLE
  5
129
330
126
100
AcDbEntity
  8
해칭선
 62
     0
100
AcDbCircle
 10
0.0
 20
0.0
 30
0.0
 40
3.000000000000008
  0
HATCH
  5
12A
330
126
100
AcDbEntity
  8
0
  6
Continuous
 62
     0
370
     0
100
AcDbHatch
 10
0.0
 20
0.0
 30
0.0
210
0.0
220
0.0
230
1.0
  2
SOLID
 70
     1
 71
     0
 91
        1
 92
        0
 93
        3
 72
     2
 10
0.0
 20
0.0
 40
3.000000000000008
 50
0.0
 51
90.0
 73
     1
 72
     1
 10
0.0
 20
3.000000000000008
 11
0.0
 21
0.0
 72
     1
 10
0.0
 20
0.0
 11
3.00000000000001
 21
0.0
 97
        0
 75
     0
 76
     1
 98
        1
 10
0.0
 20
0.0
  0
HATCH
  5
12B
330
126
100
AcDbEntity
  8
0
  6
Continuous
 62
     0
370
     0
100
AcDbHatch
 10
0.0
 20
0.0
 30
0.0
210
0.0
220
0.0
230
1.0
  2
SOLID
 70
     1
 71
     0
 91
        1
 92
        0
 93
        3
 72
     2
 10
0.0
 20
0.0
 40
3.000000000000008
 50
180.0
 51
270.0000000000007
 73
     1
 72
     1
 10
0.0
 20
-3.000000000000008
 11
0.0
 21
0.0
 72
     1
 10
0.0
 20
0.0
 11
-3.00000000000001
 21
0.0
 97
        0
 75
     0
 76
     1
 98
        1
 10
0.0
 20
0.0
  0
ENDBLK
  5
128
330
126
100
AcDbEntity
  8
0
100
AcDbBlockEnd
  0
BLOCK
  5
1DC
330
1DB
100
AcDbEntity
  8
0
100
AcDbBlockBegin
  2
*D7
 70
     1
 10
0.0
 20
0.0
 30
0.0
  3
*D7
  1
*D8
  0
LINE
  5
1DE
330
1DB
100
AcDbEntity
  8
치수문자_일반주서
 62
     0
370
    -2
100
AcDbLine
 10
107.8375
 20
16.92274999999995
 30
0.0
 11
121.697322220765
 21
16.92275
 31
0.0
  0
LINE
  5
1DF
330
1DB
100
AcDbEntity
  8
치수문자_일반주서
 62
     0
370
    -2
100
AcDbLine
 10
107.8375
 20
6.603999999999947
 30
0.0
 11
121.697322220765
 21
6.603999999999999
 31
0.0
  0
LINE
  5
1E0
330
1DB
100
AcDbEntity
  8
치수문자_일반주서
 62
     0
370
    -2
100
AcDbLine
 10
121.697322220765
 20
16.92275
 30
0.0
 11
121.6973222207648
 21
55.46425
 31
0.0
  0
LINE
  5
1E1
330
1DB
100
AcDbEntity
  8
치수문자_일반주서
 62
     0
370
    -2
100
AcDbLine
 10
121.697322220765
 20
16.92275
 30
0.0
 11
121.697322220765
 21
6.603999999999999
 31
0.0
  0
LINE
  5
1E2
330
1DB
100
AcDbEntity
  8
치수문자_일반주서
 62
     0
370
    -2
100
AcDbLine
 10
121.697322220765
 20
20.22475
 30
0.0
 11
121.697322220765
 21
23.52675
 31
0.0
  0
LINE
  5
1E3
330
1DB
100
AcDbEntity
  8
치수문자_일반주서
 62
     0
370
    -2
100
AcDbLine
 10
121.697322220765
 20
3.302
 30
0.0
 11
121.6973222207651
 21
0.0
 31
0.0
  0
SOLID
  5
1E4
330
1DB
100
AcDbEntity
  8
치수문자_일반주서
 62
     0
100
AcDbTrace
 10
121.1469888874316
 20
20.22475
 30
0.0
 11
122.2476555540983
 21
20.22475
 31
0.0
 12
121.697322220765
 22
16.92275
 32
0.0
 13
121.697322220765
 23
16.92275
 33
0.0
  0
SOLID
  5
1E5
330
1DB
100
AcDbEntity
  8
치수문자_일반주서
 62
     0
100
AcDbTrace
 10
122.2476555540984
 20
3.302000000000002
 30
0.0
 11
121.1469888874317
 21
3.301999999999997
 31
0.0
 12
121.697322220765
 22
6.603999999999999
 32
0.0
 13
121.697322220765
 23
6.603999999999999
 33
0.0
  0
MTEXT
  5
1E6
330
1DB
100
AcDbEntity
  8
치수문자_일반주서
 62
     0
100
AcDbMText
 10
117.3223222207649
 20
39.49549999999999
 30
0.0
 40
3.5
 41
0.0
 71
     2
 72
     1
  1
\A1;%%c10.32 [13/32]
  7
SLDTEXTSTYLE0
 11
-4.131562848756488E-15
 21
1.0
 31
0.0
 73
     1
 44
1.0
  0
POINT
  5
1E7
330
1DB
100
AcDbEntity
  8
Defpoints
 62
     0
100
AcDbPoint
 10
107.775
 20
16.92274999999995
 30
0.0
  0
POINT
  5
1E8
330
1DB
100
AcDbEntity
  8
Defpoints
 62
     0
100
AcDbPoint
 10
107.775
 20
6.603999999999947
 30
0.0
  0
POINT
  5
1E9
330
1DB
100
AcDbEntity
  8
Defpoints
 62
     0
100
AcDbPoint
 10
121.697322220765
 20
6.603999999999999
 30
0.0
  0
ENDBLK
  5
1DD
330
1DB
100
AcDbEntity
  8
0
100
AcDbBlockEnd
  0
BLOCK
  5
1EB
330
1EA
100
AcDbEntity
  8
0
100
AcDbBlockBegin
  2
*D8
 70
     1
 10
0.0
 20
0.0
 30
0.0
  3
*D8
  1
*D9
  0
LINE
  5
1ED
330
1EA
100
AcDbEntity
  8
치수문자_일반주서
 62
     0
370
    -2
100
AcDbLine
 10
107.775
 20
16.98524999999995
 30
0.0
 11
107.775
 21
31.29628904099936
 31
0.0
  0
LINE
  5
1EE
330
1EA
100
AcDbEntity
  8
치수문자_일반주서
 62
     0
370
    -2
100
AcDbLine
 10
82.37500000000003
 20
16.93585217638109
 30
0.0
 11
82.37500000000003
 21
31.29628904099936
 31
0.0
  0
LINE
  5
1EF
330
1EA
100
AcDbEntity
  8
치수문자_일반주서
 62
     0
370
    -2
100
AcDbLine
 10
82.37500000000003
 20
31.29628904099936
 30
0.0
 11
56.08350000000002
 21
31.29628904099936
 31
0.0
  0
LINE
  5
1F0
330
1EA
100
AcDbEntity
  8
치수문자_일반주서
 62
     0
370
    -2
100
AcDbLine
 10
107.775
 20
31.29628904099936
 30
0.0
 11
82.37500000000003
 21
31.29628904099936
 31
0.0
  0
LINE
  5
1F1
330
1EA
100
AcDbEntity
  8
치수문자_일반주서
 62
     0
370
    -2
100
AcDbLine
 10
111.077
 20
31.29628904099936
 30
0.0
 11
114.379
 21
31.29628904099936
 31
0.0
  0
LINE
  5
1F2
330
1EA
100
AcDbEntity
  8
치수문자_일반주서
 62
     0
370
    -2
100
AcDbLine
 10
79.07300000000004
 20
31.29628904099936
 30
0.0
 11
75.77100000000004
 21
31.29628904099936
 31
0.0
  0
SOLID
  5
1F3
330
1EA
100
AcDbEntity
  8
치수문자_일반주서
 62
     0
100
AcDbTrace
 10
111.077
 20
31.8466223743327
 30
0.0
 11
111.077
 21
30.74595570766603
 31
0.0
 12
107.775
 22
31.29628904099936
 32
0.0
 13
107.775
 23
31.29628904099936
 33
0.0
  0
SOLID
  5
1F4
330
1EA
100
AcDbEntity
  8
치수문자_일반주서
 62
     0
100
AcDbTrace
 10
79.07300000000004
 20
30.74595570766603
 30
0.0
 11
79.07300000000004
 21
31.8466223743327
 31
0.0
 12
82.37500000000003
 22
31.29628904099936
 32
0.0
 13
82.37500000000003
 23
31.29628904099936
 33
0.0
  0
MTEXT
  5
1F5
330
1EA
100
AcDbEntity
  8
치수문자_일반주서
 62
     0
100
AcDbMText
 10
65.92725000000002
 20
35.67128904099936
 30
0.0
 40
3.5
 41
0.0
 71
     2
 72
     1
  1
\A1;25.40 [1]
  7
SLDTEXTSTYLE0
 73
     1
 44
1.0
  0
POINT
  5
1F6
330
1EA
100
AcDbEntity
  8
Defpoints
 62
     0
100
AcDbPoint
 10
107.775
 20
16.92274999999995
 30
0.0
  0
POINT
  5
1F7
330
1EA
100
AcDbEntity
  8
Defpoints
 62
     0
100
AcDbPoint
 10
82.37500000000003
 20
16.87335217638109
 30
0.0
  0
POINT
  5
1F8
330
1EA
100
AcDbEntity
  8
Defpoints
 62
     0
100
AcDbPoint
 10
82.37500000000003
 20
31.29628904099936
 30
0.0
  0
ENDBLK
  5
1EC
330
1EA
100
AcDbEntity
  8
0
100
AcDbBlockEnd
  0
BLOCK
  5
1FA
330
1F9
100
AcDbEntity
  8
0
100
AcDbBlockBegin
  2
*D9
 70
     1
 10
0.0
 20
0.0
 30
0.0
  3
*D9
  1
*D10
  0
LINE
  5
1FC
330
1F9
100
AcDbEntity
  8
치수문자_일반주서
 62
     0
370
    -2
100
AcDbLine
 10
107.775
 20
16.98524999999995
 30
0.0
 11
107.775
 21
46.57359099484088
 31
0.0
  0
LINE
  5
1FD
330
1F9
100
AcDbEntity
  8
치수문자_일반주서
 62
     0
370
    -2
100
AcDbLine
 10
3.000000000000007
 20
16.90587499999994
 30
0.0
 11
2.999999999999993
 21
46.57359099484088
 31
0.0
  0
LINE
  5
1FE
330
1F9
100
AcDbEntity
  8
치수문자_일반주서
 62
     0
370
    -2
100
AcDbLine
 10
104.473
 20
46.57359099484088
 30
0.0
 11
6.301999999999992
 21
46.57359099484088
 31
0.0
  0
SOLID
  5
1FF
330
1F9
100
AcDbEntity
  8
치수문자_일반주서
 62
     0
100
AcDbTrace
 10
104.473
 20
46.02325766150755
 30
0.0
 11
104.473
 21
47.12392432817422
 31
0.0
 12
107.775
 22
46.57359099484088
 32
0.0
 13
107.775
 23
46.57359099484088
 33
0.0
  0
SOLID
  5
200
330
1F9
100
AcDbEntity
  8
치수문자_일반주서
 62
     0
100
AcDbTrace
 10
6.301999999999992
 20
47.12392432817422
 30
0.0
 11
6.301999999999992
 21
46.02325766150755
 31
0.0
 12
2.999999999999993
 22
46.57359099484088
 32
0.0
 13
2.999999999999993
 23
46.57359099484088
 33
0.0
  0
MTEXT
  5
201
330
1F9
100
AcDbEntity
  8
치수문자_일반주서
 62
     0
100
AcDbMText
 10
56.98553732606008
 20
50.94859099484088
 30
0.0
 40
3.5
 41
0.0
 71
     2
 72
     1
  1
\A1;104.78 [4 1/8]
  7
SLDTEXTSTYLE0
 73
     1
 44
1.0
  0
POINT
  5
202
330
1F9
100
AcDbEntity
  8
Defpoints
 62
     0
100
AcDbPoint
 10
107.775
 20
16.92274999999995
 30
0.0
  0
POINT
  5
203
330
1F9
100
AcDbEntity
  8
Defpoints
 62
     0
100
AcDbPoint
 10
3.000000000000007
 20
16.84337499999994
 30
0.0
  0
POINT
  5
204
330
1F9
100
AcDbEntity
  8
Defpoints
 62
     0
100
AcDbPoint
 10
3.000000000000007
 20
46.57359099484088
 30
0.0
  0
ENDBLK
  5
1FB
330
1F9
100
AcDbEntity
  8
0
100
AcDbBlockEnd
  0
BLOCK
  5
233
330
232
100
AcDbEntity
  8
0
100
AcDbBlockBegin
  2
*D10
 70
     1
 10
0.0
 20
0.0
 30
0.0
  3
*D10
  1
*D11
  0
LINE
  5
235
330
232
100
AcDbEntity
  8
치수문자_일반주서
 62
     0
370
    -2
100
AcDbLine
 10
201.2438731684708
 20
-42.47016022907093
 30
0.0
 11
215.1036953892358
 21
-42.47016022907088
 31
0.0
  0
LINE
  5
236
330
232
100
AcDbEntity
  8
치수문자_일반주서
 62
     0
370
    -2
100
AcDbLine
 10
201.2438731684708
 20
-52.78891022907093
 30
0.0
 11
215.1036953892358
 21
-52.78891022907088
 31
0.0
  0
LINE
  5
237
330
232
100
AcDbEntity
  8
치수문자_일반주서
 62
     0
370
    -2
100
AcDbLine
 10
215.1036953892358
 20
-42.47016022907088
 30
0.0
 11
215.1036953892357
 21
-3.928660229070871
 31
0.0
  0
LINE
  5
238
330
232
100
AcDbEntity
  8
치수문자_일반주서
 62
     0
370
    -2
100
AcDbLine
 10
215.1036953892358
 20
-42.47016022907088
 30
0.0
 11
215.1036953892358
 21
-52.78891022907088
 31
0.0
  0
LINE
  5
239
330
232
100
AcDbEntity
  8
치수문자_일반주서
 62
     0
370
    -2
100
AcDbLine
 10
215.1036953892358
 20
-39.16816022907088
 30
0.0
 11
215.1036953892358
 21
-35.86616022907088
 31
0.0
  0
LINE
  5
23A
330
232
100
AcDbEntity
  8
치수문자_일반주서
 62
     0
370
    -2
100
AcDbLine
 10
215.1036953892358
 20
-56.09091022907088
 30
0.0
 11
215.1036953892358
 21
-59.39291022907088
 31
0.0
  0
SOLID
  5
23B
330
232
100
AcDbEntity
  8
치수문자_일반주서
 62
     0
100
AcDbTrace
 10
214.5533620559025
 20
-39.16816022907088
 30
0.0
 11
215.6540287225691
 21
-39.16816022907088
 31
0.0
 12
215.1036953892358
 22
-42.47016022907088
 32
0.0
 13
215.1036953892358
 23
-42.47016022907088
 33
0.0
  0
SOLID
  5
23C
330
232
100
AcDbEntity
  8
치수문자_일반주서
 62
     0
100
AcDbTrace
 10
215.6540287225691
 20
-56.09091022907088
 30
0.0
 11
214.5533620559025
 21
-56.09091022907088
 31
0.0
 12
215.1036953892358
 22
-52.78891022907088
 32
0.0
 13
215.1036953892358
 23
-52.78891022907088
 33
0.0
  0
MTEXT
  5
23D
330
232
100
AcDbEntity
  8
치수문자_일반주서
 62
     0
100
AcDbMText
 10
210.7286953892357
 20
-19.89741022907088
 30
0.0
 40
3.5
 41
0.0
 71
     2
 72
     1
  1
\A1;%%c10.32 [13/32]
  7
SLDTEXTSTYLE0
 11
-2.754375232504325E-15
 21
1.0
 31
0.0
 73
     1
 44
1.0
  0
POINT
  5
23E
330
232
100
AcDbEntity
  8
Defpoints
 62
     0
100
AcDbPoint
 10
201.1813731684708
 20
-42.47016022907093
 30
0.0
  0
POINT
  5
23F
330
232
100
AcDbEntity
  8
Defpoints
 62
     0
100
AcDbPoint
 10
201.1813731684708
 20
-52.78891022907093
 30
0.0
  0
POINT
  5
240
330
232
100
AcDbEntity
  8
Defpoints
 62
     0
100
AcDbPoint
 10
215.1036953892359
 20
-52.78891022907088
 30
0.0
  0
ENDBLK
  5
234
330
232
100
AcDbEntity
  8
0
100
AcDbBlockEnd
  0
BLOCK
  5
242
330
241
100
AcDbEntity
  8
0
100
AcDbBlockBegin
  2
*D11
 70
     1
 10
0.0
 20
0.0
 30
0.0
  3
*D11
  1
*D12
  0
LINE
  5
244
330
241
100
AcDbEntity
  8
치수문자_일반주서
 62
     0
370
    -2
100
AcDbLine
 10
201.1813731684708
 20
-42.40766022907093
 30
0.0
 11
201.1813731684708
 21
-28.09662118807152
 31
0.0
  0
LINE
  5
245
330
241
100
AcDbEntity
  8
치수문자_일반주서
 62
     0
370
    -2
100
AcDbLine
 10
175.7813731684709
 20
-42.45705805268979
 30
0.0
 11
175.7813731684709
 21
-28.09662118807152
 31
0.0
  0
LINE
  5
246
330
241
100
AcDbEntity
  8
치수문자_일반주서
 62
     0
370
    -2
100
AcDbLine
 10
175.7813731684709
 20
-28.09662118807152
 30
0.0
 11
149.4898731684709
 21
-28.09662118807152
 31
0.0
  0
LINE
  5
247
330
241
100
AcDbEntity
  8
치수문자_일반주서
 62
     0
370
    -2
100
AcDbLine
 10
201.1813731684708
 20
-28.09662118807152
 30
0.0
 11
175.7813731684709
 21
-28.09662118807152
 31
0.0
  0
LINE
  5
248
330
241
100
AcDbEntity
  8
치수문자_일반주서
 62
     0
370
    -2
100
AcDbLine
 10
204.4833731684708
 20
-28.09662118807152
 30
0.0
 11
207.7853731684708
 21
-28.09662118807152
 31
0.0
  0
LINE
  5
249
330
241
100
AcDbEntity
  8
치수문자_일반주서
 62
     0
370
    -2
100
AcDbLine
 10
172.4793731684709
 20
-28.09662118807152
 30
0.0
 11
169.1773731684709
 21
-28.09662118807152
 31
0.0
  0
SOLID
  5
24A
330
241
100
AcDbEntity
  8
치수문자_일반주서
 62
     0
100
AcDbTrace
 10
204.4833731684708
 20
-27.54628785473818
 30
0.0
 11
204.4833731684708
 21
-28.64695452140485
 31
0.0
 12
201.1813731684708
 22
-28.09662118807152
 32
0.0
 13
201.1813731684708
 23
-28.09662118807152
 33
0.0
  0
SOLID
  5
24B
330
241
100
AcDbEntity
  8
치수문자_일반주서
 62
     0
100
AcDbTrace
 10
172.4793731684709
 20
-28.64695452140485
 30
0.0
 11
172.4793731684709
 21
-27.54628785473818
 31
0.0
 12
175.7813731684709
 22
-28.09662118807152
 32
0.0
 13
175.7813731684709
 23
-28.09662118807152
 33
0.0
  0
MTEXT
  5
24C
330
241
100
AcDbEntity
  8
치수문자_일반주서
 62
     0
100
AcDbMText
 10
159.3336231684709
 20
-23.72162118807152
 30
0.0
 40
3.5
 41
0.0
 71
     2
 72
     1
  1
\A1;25.40 [1]
  7
SLDTEXTSTYLE0
 73
     1
 44
1.0
  0
POINT
  5
24D
330
241
100
AcDbEntity
  8
Defpoints
 62
     0
100
AcDbPoint
 10
201.1813731684708
 20
-42.47016022907093
 30
0.0
  0
POINT
  5
24E
330
241
100
AcDbEntity
  8
Defpoints
 62
     0
100
AcDbPoint
 10
175.7813731684709
 20
-42.51955805268979
 30
0.0
  0
POINT
  5
24F
330
241
100
AcDbEntity
  8
Defpoints
 62
     0
100
AcDbPoint
 10
175.7813731684709
 20
-28.09662118807152
 30
0.0
  0
ENDBLK
  5
243
330
241
100
AcDbEntity
  8
0
100
AcDbBlockEnd
  0
BLOCK
  5
251
330
250
100
AcDbEntity
  8
0
100
AcDbBlockBegin
  2
*D12
 70
     1
 10
0.0
 20
0.0
 30
0.0
  3
*D12
  1
*D13
  0
LINE
  5
253
330
250
100
AcDbEntity
  8
치수문자_일반주서
 62
     0
370
    -2
100
AcDbLine
 10
201.1813731684708
 20
-42.40766022907093
 30
0.0
 11
201.1813731684708
 21
-12.81931923422999
 31
0.0
  0
LINE
  5
254
330
250
100
AcDbEntity
  8
치수문자_일반주서
 62
     0
370
    -2
100
AcDbLine
 10
96.40637316847085
 20
-42.48703522907094
 30
0.0
 11
96.40637316847085
 21
-12.81931923422999
 31
0.0
  0
LINE
  5
255
330
250
100
AcDbEntity
  8
치수문자_일반주서
 62
     0
370
    -2
100
AcDbLine
 10
197.8793731684708
 20
-12.81931923422999
 30
0.0
 11
99.70837316847084
 21
-12.81931923422999
 31
0.0
  0
SOLID
  5
256
330
250
100
AcDbEntity
  8
치수문자_일반주서
 62
     0
100
AcDbTrace
 10
197.8793731684708
 20
-13.36965256756333
 30
0.0
 11
197.8793731684708
 21
-12.26898590089666
 31
0.0
 12
201.1813731684708
 22
-12.81931923422999
 32
0.0
 13
201.1813731684708
 23
-12.81931923422999
 33
0.0
  0
SOLID
  5
257
330
250
100
AcDbEntity
  8
치수문자_일반주서
 62
     0
100
AcDbTrace
 10
99.70837316847084
 20
-12.26898590089666
 30
0.0
 11
99.70837316847084
 21
-13.36965256756333
 31
0.0
 12
96.40637316847085
 22
-12.81931923422999
 32
0.0
 13
96.40637316847085
 23
-12.81931923422999
 33
0.0
  0
MTEXT
  5
258
330
250
100
AcDbEntity
  8
치수문자_일반주서
 62
     0
100
AcDbMText
 10
150.3919104945309
 20
-8.444319234229994
 30
0.0
 40
3.5
 41
0.0
 71
     2
 72
     1
  1
\A1;104.78 [4 1/8]
  7
SLDTEXTSTYLE0
 73
     1
 44
1.0
  0
POINT
  5
259
330
250
100
AcDbEntity
  8
Defpoints
 62
     0
100
AcDbPoint
 10
201.1813731684708
 20
-42.47016022907093
 30
0.0
  0
POINT
  5
25A
330
250
100
AcDbEntity
  8
Defpoints
 62
     0
100
AcDbPoint
 10
96.40637316847085
 20
-42.54953522907094
 30
0.0
  0
POINT
  5
25B
330
250
100
AcDbEntity
  8
Defpoints
 62
     0
100
AcDbPoint
 10
96.40637316847085
 20
-12.81931923422999
 30
0.0
  0
ENDBLK
  5
252
330
250
100
AcDbEntity
  8
0
100
AcDbBlockEnd
  0
BLOCK
  5
2EC
330
2EB
100
AcDbEntity
  8
0
100
AcDbBlockBegin
  2
*D13
 70
     1
 10
0.0
 20
0.0
 30
0.0
  3
*D13
  1
*D15
  0
LINE
  5
2EE
330
2EB
100
AcDbEntity
  8
치수문자_일반주서
 62
     0
370
    -2
100
AcDbLine
 10
107.8375
 20
17.31962499999994
 30
0.0
 11
122.8772291500535
 21
17.31962499999999
 31
0.0
  0
LINE
  5
2EF
330
2EB
100
AcDbEntity
  8
치수문자_일반주서
 62
     0
370
    -2
100
AcDbLine
 10
107.8375
 20
6.603999999999941
 30
0.0
 11
122.8772291500536
 21
6.603999999999999
 31
0.0
  0
LINE
  5
2F0
330
2EB
100
AcDbEntity
  8
치수문자_일반주서
 62
     0
370
    -2
100
AcDbLine
 10
122.8772291500535
 20
17.31962499999999
 30
0.0
 11
122.8772291500534
 21
56.73612500000002
 31
0.0
  0
LINE
  5
2F1
330
2EB
100
AcDbEntity
  8
치수문자_일반주서
 62
     0
370
    -2
100
AcDbLine
 10
122.8772291500535
 20
17.31962499999999
 30
0.0
 11
122.8772291500536
 21
6.603999999999999
 31
0.0
  0
LINE
  5
2F2
330
2EB
100
AcDbEntity
  8
치수문자_일반주서
 62
     0
370
    -2
100
AcDbLine
 10
122.8772291500535
 20
20.62162499999999
 30
0.0
 11
122.8772291500535
 21
23.92362499999999
 31
0.0
  0
LINE
  5
2F3
330
2EB
100
AcDbEntity
  8
치수문자_일반주서
 62
     0
370
    -2
100
AcDbLine
 10
122.8772291500536
 20
3.302
 30
0.0
 11
122.8772291500536
 21
0.0
 31
0.0
  0
SOLID
  5
2F4
330
2EB
100
AcDbEntity
  8
치수문자_일반주서
 62
     0
100
AcDbTrace
 10
122.3268958167202
 20
20.62162499999999
 30
0.0
 11
123.4275624833868
 21
20.621625
 31
0.0
 12
122.8772291500535
 22
17.31962499999999
 32
0.0
 13
122.8772291500535
 23
17.31962499999999
 33
0.0
  0
SOLID
  5
2F5
330
2EB
100
AcDbEntity
  8
치수문자_일반주서
 62
     0
100
AcDbTrace
 10
123.4275624833869
 20
3.302000000000002
 30
0.0
 11
122.3268958167203
 21
3.301999999999997
 31
0.0
 12
122.8772291500536
 22
6.603999999999999
 32
0.0
 13
122.8772291500536
 23
6.603999999999999
 33
0.0
  0
MTEXT
  5
2F6
330
2EB
100
AcDbEntity
  8
치수문자_일반주서
 62
     0
100
AcDbMText
 10
118.5022291500534
 20
40.32987500000001
 30
0.0
 40
3.5
 41
0.0
 71
     2
 72
     1
  1
\A1;%%c10.72 [27/64]
  7
SLDTEXTSTYLE0
 11
-3.978542002506250E-15
 21
1.0
 31
0.0
 73
     1
 44
1.0
  0
POINT
  5
2F7
330
2EB
100
AcDbEntity
  8
Defpoints
 62
     0
100
AcDbPoint
 10
107.775
 20
17.31962499999994
 30
0.0
  0
POINT
  5
2F8
330
2EB
100
AcDbEntity
  8
Defpoints
 62
     0
100
AcDbPoint
 10
107.775
 20
6.603999999999941
 30
0.0
  0
POINT
  5
2F9
330
2EB
100
AcDbEntity
  8
Defpoints
 62
     0
100
AcDbPoint
 10
122.8772291500536
 20
6.603999999999998
 30
0.0
  0
ENDBLK
  5
2ED
330
2EB
100
AcDbEntity
  8
0
100
AcDbBlockEnd
  0
BLOCK
  5
2FB
330
2FA
100
AcDbEntity
  8
0
100
AcDbBlockBegin
  2
*D14
 70
     1
 10
0.0
 20
0.0
 30
0.0
  3
*D14
  1
*D16
  0
LINE
  5
2FD
330
2FA
100
AcDbEntity
  8
치수문자_일반주서
 62
     0
370
    -2
100
AcDbLine
 10
107.775
 20
17.38212499999994
 30
0.0
 11
107.775
 21
32.68136223390211
 31
0.0
  0
LINE
  5
2FE
330
2FA
100
AcDbEntity
  8
치수문자_일반주서
 62
     0
370
    -2
100
AcDbLine
 10
82.37500000000003
 20
17.37914074165454
 30
0.0
 11
82.37500000000003
 21
32.68136223390211
 31
0.0
  0
LINE
  5
2FF
330
2FA
100
AcDbEntity
  8
치수문자_일반주서
 62
     0
370
    -2
100
AcDbLine
 10
82.37500000000003
 20
32.68136223390211
 30
0.0
 11
49.37805434238038
 21
32.68136223390211
 31
0.0
  0
LINE
  5
300
330
2FA
100
AcDbEntity
  8
치수문자_일반주서
 62
     0
370
    -2
100
AcDbLine
 10
107.775
 20
32.68136223390211
 30
0.0
 11
82.37500000000003
 21
32.68136223390211
 31
0.0
  0
LINE
  5
301
330
2FA
100
AcDbEntity
  8
치수문자_일반주서
 62
     0
370
    -2
100
AcDbLine
 10
111.077
 20
32.68136223390211
 30
0.0
 11
114.379
 21
32.68136223390211
 31
0.0
  0
LINE
  5
302
330
2FA
100
AcDbEntity
  8
치수문자_일반주서
 62
     0
370
    -2
100
AcDbLine
 10
79.07300000000004
 20
32.68136223390211
 30
0.0
 11
75.77100000000004
 21
32.68136223390211
 31
0.0
  0
SOLID
  5
303
330
2FA
100
AcDbEntity
  8
치수문자_일반주서
 62
     0
100
AcDbTrace
 10
111.077
 20
33.23169556723544
 30
0.0
 11
111.077
 21
32.13102890056877
 31
0.0
 12
107.775
 22
32.68136223390211
 32
0.0
 13
107.775
 23
32.68136223390211
 33
0.0
  0
SOLID
  5
304
330
2FA
100
AcDbEntity
  8
치수문자_일반주서
 62
     0
100
AcDbTrace
 10
79.07300000000004
 20
32.13102890056877
 30
0.0
 11
79.07300000000004
 21
33.23169556723544
 31
0.0
 12
82.37500000000003
 22
32.68136223390211
 32
0.0
 13
82.37500000000003
 23
32.68136223390211
 33
0.0
  0
MTEXT
  5
305
330
2FA
100
AcDbEntity
  8
치수문자_일반주서
 62
     0
100
AcDbMText
 10
59.22180434238038
 20
37.05636223390211
 30
0.0
 40
3.5
 41
0.0
 71
     2
 72
     1
  1
\A1;25.40 [1]
  7
SLDTEXTSTYLE0
 73
     1
 44
1.0
  0
POINT
  5
306
330
2FA
100
AcDbEntity
  8
Defpoints
 62
     0
100
AcDbPoint
 10
107.775
 20
17.31962499999994
 30
0.0
  0
POINT
  5
307
330
2FA
100
AcDbEntity
  8
Defpoints
 62
     0
100
AcDbPoint
 10
82.37500000000003
 20
17.31664074165454
 30
0.0
  0
POINT
  5
308
330
2FA
100
AcDbEntity
  8
Defpoints
 62
     0
100
AcDbPoint
 10
82.37500000000003
 20
32.68136223390211
 30
0.0
  0
ENDBLK
  5
2FC
330
2FA
100
AcDbEntity
  8
0
100
AcDbBlockEnd
  0
BLOCK
  5
30A
330
309
100
AcDbEntity
  8
0
100
AcDbBlockBegin
  2
*D15
 70
     1
 10
0.0
 20
0.0
 30
0.0
  3
*D15
  1
*D17
  0
LINE
  5
30C
330
309
100
AcDbEntity
  8
치수문자_일반주서
 62
     0
370
    -2
100
AcDbLine
 10
107.775
 20
17.38212499999994
 30
0.0
 11
107.775
 21
47.4016792206765
 31
0.0
  0
LINE
  5
30D
330
309
100
AcDbEntity
  8
치수문자_일반주서
 62
     0
370
    -2
100
AcDbLine
 10
3.000000000000007
 20
17.10431249999993
 30
0.0
 11
2.999999999999993
 21
47.4016792206765
 31
0.0
  0
LINE
  5
30E
330
309
100
AcDbEntity
  8
치수문자_일반주서
 62
     0
370
    -2
100
AcDbLine
 10
104.473
 20
47.4016792206765
 30
0.0
 11
6.301999999999992
 21
47.4016792206765
 31
0.0
  0
SOLID
  5
30F
330
309
100
AcDbEntity
  8
치수문자_일반주서
 62
     0
100
AcDbTrace
 10
104.473
 20
46.85134588734316
 30
0.0
 11
104.473
 21
47.95201255400983
 31
0.0
 12
107.775
 22
47.4016792206765
 32
0.0
 13
107.775
 23
47.4016792206765
 33
0.0
  0
SOLID
  5
310
330
309
100
AcDbEntity
  8
치수문자_일반주서
 62
     0
100
AcDbTrace
 10
6.301999999999992
 20
47.95201255400983
 30
0.0
 11
6.301999999999992
 21
46.85134588734316
 31
0.0
 12
2.999999999999993
 22
47.4016792206765
 32
0.0
 13
2.999999999999993
 23
47.4016792206765
 33
0.0
  0
MTEXT
  5
311
330
309
100
AcDbEntity
  8
치수문자_일반주서
 62
     0
100
AcDbMText
 10
53.25410826666104
 20
51.7766792206765
 30
0.0
 40
3.5
 41
0.0
 71
     2
 72
     1
  1
\A1;104.78 [4 1/8]
  7
SLDTEXTSTYLE0
 73
     1
 44
1.0
  0
POINT
  5
312
330
309
100
AcDbEntity
  8
Defpoints
 62
     0
100
AcDbPoint
 10
107.775
 20
17.31962499999994
 30
0.0
  0
POINT
  5
313
330
309
100
AcDbEntity
  8
Defpoints
 62
     0
100
AcDbPoint
 10
3.000000000000007
 20
17.04181249999993
 30
0.0
  0
POINT
  5
314
330
309
100
AcDbEntity
  8
Defpoints
 62
     0
100
AcDbPoint
 10
3.000000000000007
 20
47.4016792206765
 30
0.0
  0
ENDBLK
  5
30B
330
309
100
AcDbEntity
  8
0
100
AcDbBlockEnd
  0
BLOCK
  5
344
330
343
100
AcDbEntity
  8
0
100
AcDbBlockBegin
  2
*D16
 70
     1
 10
0.0
 20
0.0
 30
0.0
  3
*D16
  1
*D18
  0
LINE
  5
346
330
343
100
AcDbEntity
  8
치수문자_일반주서
 62
     0
370
    -2
100
AcDbLine
 10
241.6138111341605
 20
-46.45521330433481
 30
0.0
 11
256.653540284214
 21
-46.45521330433476
 31
0.0
  0
LINE
  5
347
330
343
100
AcDbEntity
  8
치수문자_일반주서
 62
     0
370
    -2
100
AcDbLine
 10
241.6138111341605
 20
-57.17083830433481
 30
0.0
 11
256.6535402842141
 21
-57.17083830433475
 31
0.0
  0
LINE
  5
348
330
343
100
AcDbEntity
  8
치수문자_일반주서
 62
     0
370
    -2
100
AcDbLine
 10
256.653540284214
 20
-46.45521330433476
 30
0.0
 11
256.6535402842138
 21
-7.038713304334728
 31
0.0
  0
LINE
  5
349
330
343
100
AcDbEntity
  8
치수문자_일반주서
 62
     0
370
    -2
100
AcDbLine
 10
256.653540284214
 20
-46.45521330433476
 30
0.0
 11
256.6535402842141
 21
-57.17083830433475
 31
0.0
  0
LINE
  5
34A
330
343
100
AcDbEntity
  8
치수문자_일반주서
 62
     0
370
    -2
100
AcDbLine
 10
256.653540284214
 20
-43.15321330433476
 30
0.0
 11
256.653540284214
 21
-39.85121330433476
 31
0.0
  0
LINE
  5
34B
330
343
100
AcDbEntity
  8
치수문자_일반주서
 62
     0
370
    -2
100
AcDbLine
 10
256.6535402842141
 20
-60.47283830433475
 30
0.0
 11
256.6535402842141
 21
-63.77483830433475
 31
0.0
  0
SOLID
  5
34C
330
343
100
AcDbEntity
  8
치수문자_일반주서
 62
     0
100
AcDbTrace
 10
256.1032069508807
 20
-43.15321330433476
 30
0.0
 11
257.2038736175474
 21
-43.15321330433476
 31
0.0
 12
256.653540284214
 22
-46.45521330433476
 32
0.0
 13
256.653540284214
 23
-46.45521330433476
 33
0.0
  0
SOLID
  5
34D
330
343
100
AcDbEntity
  8
치수문자_일반주서
 62
     0
100
AcDbTrace
 10
257.2038736175475
 20
-60.47283830433475
 30
0.0
 11
256.1032069508807
 21
-60.47283830433475
 31
0.0
 12
256.6535402842141
 22
-57.17083830433475
 32
0.0
 13
256.6535402842141
 23
-57.17083830433475
 33
0.0
  0
MTEXT
  5
34E
330
343
100
AcDbEntity
  8
치수문자_일반주서
 62
     0
100
AcDbMText
 10
252.2785402842139
 20
-23.44496330433475
 30
0.0
 40
3.5
 41
0.0
 71
     2
 72
     1
  1
\A1;%%c10.72 [27/64]
  7
SLDTEXTSTYLE0
 11
-5.304722670008332E-15
 21
1.0
 31
0.0
 73
     1
 44
1.0
  0
POINT
  5
34F
330
343
100
AcDbEntity
  8
Defpoints
 62
     0
100
AcDbPoint
 10
241.5513111341605
 20
-46.45521330433481
 30
0.0
  0
POINT
  5
350
330
343
100
AcDbEntity
  8
Defpoints
 62
     0
100
AcDbPoint
 10
241.5513111341605
 20
-57.17083830433481
 30
0.0
  0
POINT
  5
351
330
343
100
AcDbEntity
  8
Defpoints
 62
     0
100
AcDbPoint
 10
256.653540284214
 20
-57.17083830433475
 30
0.0
  0
ENDBLK
  5
345
330
343
100
AcDbEntity
  8
0
100
AcDbBlockEnd
  0
BLOCK
  5
353
330
352
100
AcDbEntity
  8
0
100
AcDbBlockBegin
  2
*D17
 70
     1
 10
0.0
 20
0.0
 30
0.0
  3
*D17
  1
*D19
  0
LINE
  5
355
330
352
100
AcDbEntity
  8
치수문자_일반주서
 62
     0
370
    -2
100
AcDbLine
 10
241.5513111341605
 20
-46.39271330433481
 30
0.0
 11
241.5513111341605
 21
-31.09347607043264
 31
0.0
  0
LINE
  5
356
330
352
100
AcDbEntity
  8
치수문자_일반주서
 62
     0
370
    -2
100
AcDbLine
 10
216.1513111341605
 20
-46.39569756268021
 30
0.0
 11
216.1513111341605
 21
-31.09347607043264
 31
0.0
  0
LINE
  5
357
330
352
100
AcDbEntity
  8
치수문자_일반주서
 62
     0
370
    -2
100
AcDbLine
 10
216.1513111341605
 20
-31.09347607043264
 30
0.0
 11
183.1543654765409
 21
-31.09347607043264
 31
0.0
  0
LINE
  5
358
330
352
100
AcDbEntity
  8
치수문자_일반주서
 62
     0
370
    -2
100
AcDbLine
 10
241.5513111341605
 20
-31.09347607043264
 30
0.0
 11
216.1513111341605
 21
-31.09347607043264
 31
0.0
  0
LINE
  5
359
330
352
100
AcDbEntity
  8
치수문자_일반주서
 62
     0
370
    -2
100
AcDbLine
 10
244.8533111341605
 20
-31.09347607043264
 30
0.0
 11
248.1553111341605
 21
-31.09347607043264
 31
0.0
  0
LINE
  5
35A
330
352
100
AcDbEntity
  8
치수문자_일반주서
 62
     0
370
    -2
100
AcDbLine
 10
212.8493111341605
 20
-31.09347607043264
 30
0.0
 11
209.5473111341605
 21
-31.09347607043264
 31
0.0
  0
SOLID
  5
35B
330
352
100
AcDbEntity
  8
치수문자_일반주서
 62
     0
100
AcDbTrace
 10
244.8533111341605
 20
-30.54314273709931
 30
0.0
 11
244.8533111341605
 21
-31.64380940376598
 31
0.0
 12
241.5513111341605
 22
-31.09347607043264
 32
0.0
 13
241.5513111341605
 23
-31.09347607043264
 33
0.0
  0
SOLID
  5
35C
330
352
100
AcDbEntity
  8
치수문자_일반주서
 62
     0
100
AcDbTrace
 10
212.8493111341605
 20
-31.64380940376598
 30
0.0
 11
212.8493111341605
 21
-30.54314273709931
 31
0.0
 12
216.1513111341605
 22
-31.09347607043264
 32
0.0
 13
216.1513111341605
 23
-31.09347607043264
 33
0.0
  0
MTEXT
  5
35D
330
352
100
AcDbEntity
  8
치수문자_일반주서
 62
     0
100
AcDbMText
 10
192.9981154765409
 20
-26.71847607043264
 30
0.0
 40
3.5
 41
0.0
 71
     2
 72
     1
  1
\A1;25.40 [1]
  7
SLDTEXTSTYLE0
 73
     1
 44
1.0
  0
POINT
  5
35E
330
352
100
AcDbEntity
  8
Defpoints
 62
     0
100
AcDbPoint
 10
241.5513111341605
 20
-46.45521330433481
 30
0.0
  0
POINT
  5
35F
330
352
100
AcDbEntity
  8
Defpoints
 62
     0
100
AcDbPoint
 10
216.1513111341605
 20
-46.45819756268021
 30
0.0
  0
POINT
  5
360
330
352
100
AcDbEntity
  8
Defpoints
 62
     0
100
AcDbPoint
 10
216.1513111341605
 20
-31.09347607043264
 30
0.0
  0
ENDBLK
  5
354
330
352
100
AcDbEntity
  8
0
100
AcDbBlockEnd
  0
BLOCK
  5
362
330
361
100
AcDbEntity
  8
0
100
AcDbBlockBegin
  2
*D18
 70
     1
 10
0.0
 20
0.0
 30
0.0
  3
*D18
  1
*D20
  0
LINE
  5
364
330
361
100
AcDbEntity
  8
치수문자_일반주서
 62
     0
370
    -2
100
AcDbLine
 10
241.5513111341605
 20
-46.39271330433481
 30
0.0
 11
241.5513111341605
 21
-16.37315908365825
 31
0.0
  0
LINE
  5
365
330
361
100
AcDbEntity
  8
치수문자_일반주서
 62
     0
370
    -2
100
AcDbLine
 10
136.7763111341605
 20
-46.67052580433482
 30
0.0
 11
136.7763111341605
 21
-16.37315908365825
 31
0.0
  0
LINE
  5
366
330
361
100
AcDbEntity
  8
치수문자_일반주서
 62
     0
370
    -2
100
AcDbLine
 10
238.2493111341605
 20
-16.37315908365825
 30
0.0
 11
140.0783111341605
 21
-16.37315908365825
 31
0.0
  0
SOLID
  5
367
330
361
100
AcDbEntity
  8
치수문자_일반주서
 62
     0
100
AcDbTrace
 10
238.2493111341605
 20
-16.92349241699159
 30
0.0
 11
238.2493111341605
 21
-15.82282575032492
 31
0.0
 12
241.5513111341605
 22
-16.37315908365825
 32
0.0
 13
241.5513111341605
 23
-16.37315908365825
 33
0.0
  0
SOLID
  5
368
330
361
100
AcDbEntity
  8
치수문자_일반주서
 62
     0
100
AcDbTrace
 10
140.0783111341605
 20
-15.82282575032492
 30
0.0
 11
140.0783111341605
 21
-16.92349241699159
 31
0.0
 12
136.7763111341605
 22
-16.37315908365825
 32
0.0
 13
136.7763111341605
 23
-16.37315908365825
 33
0.0
  0
MTEXT
  5
369
330
361
100
AcDbEntity
  8
치수문자_일반주서
 62
     0
100
AcDbMText
 10
187.0304194008215
 20
-11.99815908365825
 30
0.0
 40
3.5
 41
0.0
 71
     2
 72
     1
  1
\A1;104.78 [4 1/8]
  7
SLDTEXTSTYLE0
 73
     1
 44
1.0
  0
POINT
  5
36A
330
361
100
AcDbEntity
  8
Defpoints
 62
     0
100
AcDbPoint
 10
241.5513111341605
 20
-46.45521330433481
 30
0.0
  0
POINT
  5
36B
330
361
100
AcDbEntity
  8
Defpoints
 62
     0
100
AcDbPoint
 10
136.7763111341605
 20
-46.73302580433482
 30
0.0
  0
POINT
  5
36C
330
361
100
AcDbEntity
  8
Defpoints
 62
     0
100
AcDbPoint
 10
136.7763111341605
 20
-16.37315908365825
 30
0.0
  0
ENDBLK
  5
363
330
361
100
AcDbEntity
  8
0
100
AcDbBlockEnd
  0
ENDSEC
  0
SECTION
  2
ENTITIES
  0
LINE
  5
96
330
1F
100
AcDbEntity
  8
0
  6
Continuous
 62
     1
370
    15
100
AcDbLine
 10
38.60501855560641
 20
-5.357812500000004
 30
0.0
 11
41.87338067141394
 21
-5.357812500000004
 31
0.0
  0
LINE
  5
97
330
1F
100
AcDbEntity
  8
외형선
  6
Continuous
370
    15
100
AcDbLine
 10
27.29651758750262
 20
5.357812499999999
 30
0.0
 11
26.9875
 21
5.357812499999999
 31
0.0
  0
LINE
  5
98
330
1F
100
AcDbEntity
  8
0
  6
Continuous
 62
     1
370
    15
100
AcDbLine
 10
41.87338067141394
 20
5.357812499999999
 30
0.0
 11
38.6050185556065
 21
5.357812499999999
 31
0.0
  0
LINE
  5
99
330
1F
100
AcDbEntity
  8
외형선
  6
Continuous
370
    15
100
AcDbLine
 10
26.9875
 20
-5.357812500000004
 30
0.0
 11
27.29651758750254
 21
-5.357812500000004
 31
0.0
  0
LINE
  5
9A
330
1F
100
AcDbEntity
  8
외형선
  6
Continuous
370
    15
100
AcDbLine
 10
22.28460583936523
 20
-6.350000000000011
 30
0.0
 11
25.9875
 21
-5.357812500000002
 31
0.0
  0
LINE
  5
9B
330
1F
100
AcDbEntity
  8
외형선
  6
Continuous
370
    15
100
AcDbLine
 10
25.9875
 20
5.357812499999997
 30
0.0
 11
22.28460583936523
 21
6.350000000000006
 31
0.0
  0
LINE
  5
9C
330
1F
100
AcDbEntity
  8
외형선
  6
Continuous
370
    15
100
AcDbLine
 10
-22.28460583936519
 20
-6.350000000000007
 30
0.0
 11
22.28460583936522
 21
-6.350000000000007
 31
0.0
  0
LINE
  5
9D
330
1F
100
AcDbEntity
  8
외형선
  6
Continuous
370
    15
100
AcDbLine
 10
22.28460583936523
 20
6.350000000000001
 30
0.0
 11
5.727700000000027
 21
6.350000000000001
 31
0.0
  0
LINE
  5
A0
330
1F
100
AcDbEntity
  8
외형선
  6
Continuous
370
    15
100
AcDbLine
 10
25.9875
 20
-5.357812500000002
 30
0.0
 11
26.9875
 21
-5.357812500000002
 31
0.0
  0
LINE
  5
A1
330
1F
100
AcDbEntity
  8
외형선
  6
Continuous
370
    15
100
AcDbLine
 10
26.9875
 20
5.357812499999997
 30
0.0
 11
25.9875
 21
5.357812499999997
 31
0.0
  0
SPLINE
  5
A2
330
1F
100
AcDbEntity
  8
0
  6
Continuous
 62
     1
370
    15
100
AcDbSpline
210
0.0
220
0.0
230
1.0
 70
     8
 71
     3
 72
    18
 73
    14
 74
     0
 42
0.000000001
 43
0.00000001
 40
0.0
 40
0.0
 40
0.0
 40
0.0
 40
0.0988998141888755
 40
0.197798590640442
 40
0.2966964191024772
 40
0.3955933894562061
 40
0.4944895917037181
 40
0.5933851159553363
 40
0.6922800524169632
 40
0.7829197531722207
 40
0.8735574966951118
 40
0.9642008073836422
 40
1.0
 40
1.0
 40
1.0
 40
1.0
 10
26.9875
 20
0.1787995736417485
 30
0.0
 10
27.66486779825416
 20
-0.2128833509591116
 30
0.0
 10
29.01959628726849
 20
-0.9962450903049382
 30
0.0
 10
31.05167331560682
 20
-2.126000915372372
 30
0.0
 10
33.08372793263571
 20
-3.153598958041609
 30
0.0
 10
35.11575895240346
 20
-4.030764672570412
 30
0.0
 10
37.14777984205975
 20
-4.715316475639092
 30
0.0
 10
39.17975123026482
 20
-5.174929946356212
 30
0.0
 10
41.1552914125561
 20
-5.380597282916742
 30
0.0
 10
43.07385670793946
 20
-5.350674269756071
 30
0.0
 10
44.93600533518298
 20
-5.095910711710929
 30
0.0
 10
46.42258434125017
 20
-4.761799592680866
 30
0.0
 10
47.28851007438342
 20
-4.456869496344055
 30
0.0
 10
47.53367638556556
 20
-4.370535779690534
 30
0.0
  0
SPLINE
  5
A3
330
1F
100
AcDbEntity
  8
외형선
  6
Continuous
370
    15
100
AcDbSpline
210
0.0
220
0.0
230
1.0
 70
    24
 71
     3
 72
    20
 73
    16
 74
     0
 42
0.000000001
 43
0.00000001
 40
0.0
 40
0.0
 40
0.0
 40
0.0
 40
0.1075839250875204
 40
0.1836115471856437
 40
0.2618439754750892
 40
0.3378715975732116
 40
0.4161040258626565
 40
0.4921316479607795
 40
0.5703640762502256
 40
0.646391698348348
 40
0.7246241266377927
 40
0.8006517487359147
 40
0.8788841770253589
 40
0.9549117991234499
 40
0.9999999999999999
 40
0.9999999999999999
 40
0.9999999999999999
 40
0.9999999999999999
 10
26.9875
 20
5.088099780335481
 30
0.0
 10
26.98750000000001
 20
4.873250515261762
 30
0.0
 10
26.98750000000003
 20
4.506571144344662
 30
0.0
 10
26.98749999999995
 20
3.91544394917186
 30
0.0
 10
26.98750000000004
 20
3.379637172854367
 30
0.0
 10
26.98750000000001
 20
2.833004531137326
 30
0.0
 10
26.9875000000001
 20
2.302304211736979
 30
0.0
 10
26.9875
 20
1.792610560065329
 30
0.0
 10
26.98750000000007
 20
1.327655283503039
 30
0.0
 10
26.98749999999991
 20
0.9120996770709654
 30
0.0
 10
26.9875000000001
 20
0.5655764094249743
 30
0.0
 10
26.98749999999994
 20
0.2902200406915202
 30
0.0
 10
26.98749999999998
 20
0.10412615479297
 30
0.0
 10
26.98749999999998
 20
0.0056034451039254
 30
0.0
 10
26.9875
 20
0.0076365761488191
 30
0.0
 10
26.9875
 20
0.00839345678348
 30
0.0
  0
SPLINE
  5
A4
330
1F
100
AcDbEntity
  8
0
  6
Continuous
 62
     1
370
    15
100
AcDbSpline
210
0.0
220
0.0
230
1.0
 70
     8
 71
     3
 72
    54
 73
    50
 74
     0
 42
0.000000001
 43
0.00000001
 40
0.0
 40
0.0
 40
0.0
 40
0.0
 40
0.0625000000000005
 40
0.0625000000000005
 40
0.0937500000000008
 40
0.0937500000000008
 40
0.1250000000000011
 40
0.1250000000000011
 40
0.1562500000000014
 40
0.1562500000000014
 40
0.1875000000000017
 40
0.1875000000000017
 40
0.250000000000001
 40
0.250000000000001
 40
0.3125000000000004
 40
0.3125000000000004
 40
0.3437499999999994
 40
0.3437499999999994
 40
0.3749999999999984
 40
0.3749999999999984
 40
0.4374999999999966
 40
0.4374999999999966
 40
0.4687499999999962
 40
0.4687499999999962
 40
0.4999999999999959
 40
0.4999999999999959
 40
0.5624999999999952
 40
0.5624999999999952
 40
0.5937499999999942
 40
0.5937499999999942
 40
0.6249999999999933
 40
0.6249999999999933
 40
0.6874999999999915
 40
0.6874999999999915
 40
0.7187499999999911
 40
0.7187499999999911
 40
0.7499999999999908
 40
0.7499999999999908
 40
0.8124999999999913
 40
0.8124999999999913
 40
0.8437499999999922
 40
0.8437499999999922
 40
0.874999999999993
 40
0.874999999999993
 40
0.937499999999996
 40
0.937499999999996
 40
0.9687499999999981
 40
0.9687499999999981
 40
1.0
 40
1.0
 40
1.0
 40
1.0
 10
52.38749999999998
 20
-5.357812499999993
 30
0.0
 10
51.86163457204561
 20
-5.311986332735613
 30
0.0
 10
51.32815462218506
 20
-5.259618513988735
 30
0.0
 10
50.53393334673965
 20
-5.143149368872088
 30
0.0
 10
50.27143946963568
 20
-5.098131636371328
 30
0.0
 10
49.74312343370909
 20
-4.995619074555299
 30
0.0
 10
49.47760541910915
 20
-4.938116058010604
 30
0.0
 10
48.94675585839474
 20
-4.81118905161625
 30
0.0
 10
48.68142786599717
 20
-4.741765932186488
 30
0.0
 10
48.1538650093764
 20
-4.591833053498785
 30
0.0
 10
47.89088418778009
 20
-4.511272669929079
 30
0.0
 10
47.09595598009056
 20
-4.252765849083082
 30
0.0
 10
46.56454192212738
 20
-4.058563459454977
 30
0.0
 10
45.51093927406979
 20
-3.633794736856256
 30
0.0
 10
44.97726897410971
 20
-3.401653579630341
 30
0.0
 10
44.18390088760347
 20
-3.031293311073479
 30
0.0
 10
43.92155832976766
 20
-2.904334168453544
 30
0.0
 10
43.39258590291707
 20
-2.642967605562852
 30
0.0
 10
43.12692709686117
 20
-2.508703877995144
 30
0.0
 10
42.33080027832526
 20
-2.097348551935179
 30
0.0
 10
41.80573339955284
 20
-1.812525921847103
 30
0.0
 10
41.01024495173028
 20
-1.372730619950173
 30
0.0
 10
40.74445696215454
 20
-1.224158591805822
 30
0.0
 10
40.21454692449569
 20
-0.9247000547176065
 30
0.0
 10
39.95162898543793
 20
-0.774046089522571
 30
0.0
 10
39.16016694540657
 20
-0.3192995971279539
 30
0.0
 10
38.62640637606328
 20
-0.0119226564065047
 30
0.0
 10
37.83403721032301
 20
0.4454136187664571
 30
0.0
 10
37.57151025374205
 20
0.5971968340115923
 30
0.0
 10
37.04197862763492
 20
0.8997950236999214
 30
0.0
 10
36.77622834816562
 20
1.05036650113407
 30
0.0
 10
35.9803964836113
 20
1.497413304630627
 30
0.0
 10
35.45544533924394
 20
1.788548107488829
 30
0.0
 10
34.65954368880088
 20
2.211610295861865
 30
0.0
 10
34.39380753151884
 20
2.350173676505907
 30
0.0
 10
33.86437840383231
 20
2.620877910605621
 30
0.0
 10
33.60191434717407
 20
2.752822797068686
 30
0.0
 10
32.80933681490447
 20
3.138995633236185
 30
0.0
 10
32.27558611371367
 20
3.383160861798672
 30
0.0
 10
31.48436098692289
 20
3.721541370847655
 30
0.0
 10
31.22131402665594
 20
3.829852333441765
 30
0.0
 10
30.69132073701449
 20
4.03739620813125
 30
0.0
 10
30.42552835892191
 20
4.136461280441467
 30
0.0
 10
29.63013869773334
 20
4.417897860495185
 30
0.0
 10
29.10501500856257
 20
4.584297809508315
 30
0.0
 10
28.30884744795135
 20
4.800073912543979
 30
0.0
 10
28.04321248899063
 20
4.866233419904039
 30
0.0
 10
27.51436174390183
 20
4.986337994360552
 30
0.0
 10
27.25201592613383
 20
5.040246028723629
 30
0.0
 10
26.9875
 20
5.088099780335476
 30
0.0
  0
LINE
  5
A5
330
1F
100
AcDbEntity
  8
0
  6
Continuous
 62
     1
370
    15
100
AcDbLine
 10
52.3875
 20
-4.852470854059304
 30
0.0
 11
52.3875
 21
0.4590646040593636
 31
0.0
  0
SPLINE
  5
A6
330
1F
100
AcDbEntity
  8
0
  6
Continuous
 62
     1
370
    15
100
AcDbSpline
210
0.0
220
0.0
230
1.0
 70
     8
 71
     3
 72
    20
 73
    16
 74
     0
 42
0.000000001
 43
0.00000001
 40
0.0
 40
0.0
 40
0.0
 40
0.0
 40
0.0686704519637824
 40
0.1496553949989864
 40
0.2306395617568597
 40
0.3116230258381715
 40
0.3926058609426585
 40
0.4735881408586923
 40
0.554569939452907
 40
0.628791798061919
 40
0.7030120539579611
 40
0.7772368686221556
 40
0.851472391393363
 40
0.9257247431246134
 40
1.0
 40
1.0
 40
1.0
 40
1.0
 10
27.29651758750262
 20
5.341289512465751
 30
0.0
 10
27.87087945494858
 20
5.330154121267655
 30
0.0
 10
29.12260198897697
 20
5.305886458531167
 30
0.0
 10
31.05167329348401
 20
4.960435369396992
 30
0.0
 10
33.08372793753314
 20
4.385604968921279
 30
0.0
 10
35.1157589549362
 20
3.594368043253391
 30
0.0
 10
37.14777982703178
 20
2.63334184435876
 30
0.0
 10
39.17975128784348
 20
1.546041856729991
 30
0.0
 10
41.15529120486308
 20
0.417397872337009
 30
0.0
 10
43.07385741147787
 20
-0.6957918278668128
 30
0.0
 10
44.93600270186643
 20
-1.747986528722169
 30
0.0
 10
46.7982596476938
 20
-2.731033125173513
 30
0.0
 10
48.66084821108485
 20
-3.600723028311005
 30
0.0
 10
50.52393094023462
 20
-4.339876169906489
 30
0.0
 10
51.766246452297
 20
-4.681588393656299
 30
0.0
 10
52.3875
 20
-4.852470854059304
 30
0.0
  0
SPLINE
  5
A7
330
1F
100
AcDbEntity
  8
0
  6
Continuous
 62
     1
370
    15
100
AcDbSpline
210
0.0
220
0.0
230
1.0
 70
     8
 71
     3
 72
    17
 73
    13
 74
     0
 42
0.000000001
 43
0.00000001
 40
0.0
 40
0.0
 40
0.0
 40
0.0
 40
0.1046396320161699
 40
0.2092773957024962
 40
0.3139133843532987
 40
0.4185476915111711
 40
0.5231804109541149
 40
0.6278116366826356
 40
0.7324414629067253
 40
0.8283554250420857
 40
0.9242524140697971
 40
1.0
 40
1.0
 40
1.0
 40
1.0
 10
52.3875
 20
0.4590646040593635
 30
0.0
 10
51.71003460363476
 20
0.8465906456511252
 30
0.0
 10
50.35511590697904
 20
1.621635809597122
 30
0.0
 10
48.322764777428
 20
2.700877306264692
 30
0.0
 10
46.29045406016662
 20
3.652691627982757
 30
0.0
 10
44.25818415445693
 20
4.429586298370543
 30
0.0
 10
42.22594564589167
 20
4.995142809780051
 30
0.0
 10
40.19376269095631
 20
5.321653720616816
 30
0.0
 10
38.2179559619506
 20
5.393590322221097
 30
0.0
 10
36.29896366376609
 20
5.224693865396733
 30
0.0
 10
34.56696129043661
 20
4.896104432169547
 30
0.0
 10
33.45587224377541
 20
4.540119075575913
 30
0.0
 10
32.96554324235655
 20
4.383021005945213
 30
0.0
  0
SPLINE
  5
A8
330
1F
100
AcDbEntity
  8
0
  6
Continuous
 62
     1
370
    15
100
AcDbSpline
210
0.0
220
0.0
230
1.0
 70
     8
 71
     3
 72
    14
 73
    10
 74
     0
 42
0.000000001
 43
0.00000001
 40
0.0
 40
0.0
 40
0.0
 40
0.0
 40
0.0381657296087338
 40
0.1984981079772324
 40
0.3588021136390118
 40
0.5190910065788334
 40
0.6793780870192327
 40
0.839676660011601
 40
1.0
 40
1.0
 40
1.0
 40
1.0
 10
38.60501855560641
 20
-5.335940764323635
 30
0.0
 10
38.45720291582173
 20
-5.342725254156491
 30
0.0
 10
37.68842094499345
 20
-5.378011056608559
 30
0.0
 10
36.29897057978676
 20
-5.215954129894269
 30
0.0
 10
34.43658454156188
 20
-4.861775653288904
 30
0.0
 10
32.57443182998565
 20
-4.293306734446644
 30
0.0
 10
30.71229670394832
 20
-3.556381003191276
 30
0.0
 10
28.85000937096911
 20
-2.680078723781297
 30
0.0
 10
27.60836842789276
 20
-2.012383352348883
 30
0.0
 10
26.9875
 20
-1.678509877988881
 30
0.0
  0
LINE
  5
A9
330
1F
100
AcDbEntity
  8
외형선
  6
Continuous
370
    15
100
AcDbLine
 10
26.9875
 20
-1.678509877988878
 30
0.0
 11
26.9875
 21
0.1787995736417466
 31
0.0
  0
LINE
  5
AA
330
1F
100
AcDbEntity
  8
0
  6
Continuous
 62
     1
370
    15
100
AcDbLine
 10
52.38749999999998
 20
-5.357812499999993
 30
0.0
 11
52.3875
 21
-4.852470854059304
 31
0.0
  0
LINE
  5
AB
330
1F
100
AcDbEntity
  8
외형선
  6
Continuous
370
    15
100
AcDbLine
 10
26.9875
 20
5.088099780335481
 30
0.0
 11
26.9875
 21
5.357812499999999
 31
0.0
  0
SPLINE
  5
AC
330
1F
100
AcDbEntity
  8
0
  6
Continuous
 62
     1
370
    15
100
AcDbSpline
210
0.0
220
0.0
230
1.0
 70
     8
 71
     3
 72
    13
 73
     9
 74
     0
 42
0.000000001
 43
0.00000001
 40
0.0
 40
0.0
 40
0.0
 40
0.0
 40
0.1141855884908949
 40
0.2912974409643891
 40
0.4684201720297487
 40
0.6455684558589336
 40
0.8227568986481252
 40
1.0
 40
1.0
 40
1.0
 40
1.0
 10
41.87338067141395
 20
5.33311934858606
 30
0.0
 10
42.27354927573701
 20
5.334209890101413
 30
0.0
 10
43.29441444737726
 20
5.336991957058252
 30
0.0
 10
44.93599791278258
 20
5.097233935061636
 30
0.0
 10
46.79826093071286
 20
4.653543063655321
 30
0.0
 10
48.66084786884247
 20
4.012515138186074
 30
0.0
 10
50.52393102583407
 20
3.219130983059175
 30
0.0
 10
51.76624648083313
 20
2.587404940417319
 30
0.0
 10
52.3875
 20
2.271493208367801
 30
0.0
  0
LINE
  5
AD
330
1F
100
AcDbEntity
  8
0
  6
Continuous
 62
     1
370
    15
100
AcDbLine
 10
52.3875
 20
0.4590646040593635
 30
0.0
 11
52.3875
 21
2.271493208367801
 31
0.0
  0
SPLINE
  5
AE
330
1F
100
AcDbEntity
  8
0
  6
Continuous
 62
     1
370
    15
100
AcDbSpline
210
0.0
220
0.0
230
1.0
 70
     8
 71
     3
 72
    10
 73
     6
 74
     0
 42
0.000000001
 43
0.00000001
 40
0.0
 40
0.0
 40
0.0
 40
0.0
 40
0.3399270145585045
 40
0.6798504623262294
 40
0.9999999999999999
 40
0.9999999999999999
 40
0.9999999999999999
 40
0.9999999999999999
 10
26.9875
 20
-5.354828241654613
 30
0.0
 10
27.66486777414297
 20
-5.342156291118946
 30
0.0
 10
29.01959621493521
 20
-5.316812523012028
 30
0.0
 10
31.01227700690089
 20
-4.979383256057353
 30
0.0
 10
32.32758883150752
 20
-4.577798308197679
 30
0.0
 10
32.96554324235651
 20
-4.383021005945221
 30
0.0
  0
SPLINE
  5
AF
330
1F
100
AcDbEntity
  8
외형선
  6
Continuous
370
    15
100
AcDbSpline
210
0.0
220
0.0
230
1.0
 70
    24
 71
     3
 72
    15
 73
    11
 74
     0
 42
0.000000001
 43
0.00000001
 40
0.0
 40
0.0
 40
0.0
 40
0.0
 40
0.1058404657403568
 40
0.242632776934454
 40
0.3755699024818744
 40
0.5123622136759713
 40
0.6452993392233378
 40
0.7820916504174902
 40
0.8900318836567671
 40
1.0
 40
1.0
 40
1.0
 40
1.0
 10
26.98750000000001
 20
-1.75107184503667
 30
0.0
 10
26.98749999999998
 20
-1.839923485704286
 30
0.0
 10
26.98749999999995
 20
-2.043610423016637
 30
0.0
 10
26.98750000000007
 20
-2.437744293377659
 30
0.0
 10
26.98749999999995
 20
-2.908851595940995
 30
0.0
 10
26.98749999999994
 20
-3.416792241669841
 30
0.0
 10
26.98750000000005
 20
-3.953747982408539
 30
0.0
 10
26.98750000000001
 20
-4.4614552691533
 30
0.0
 10
26.98749999999994
 20
-4.934614283055419
 30
0.0
 10
26.98749999999997
 20
-5.213890595038793
 30
0.0
 10
26.9875
 20
-5.354828241654615
 30
0.0
  0
SPLINE
  5
B0
330
1F
100
AcDbEntity
  8
0
  6
Continuous
 62
     1
370
    15
100
AcDbSpline
210
0.0
220
0.0
230
1.0
 70
     8
 71
     3
 72
    10
 73
     6
 74
     0
 42
0.000000001
 43
0.00000001
 40
0.0
 40
0.0
 40
0.0
 40
0.0
 40
0.4187192326966447
 40
0.8374309892045505
 40
1.0
 40
1.0
 40
1.0
 40
1.0
 10
52.38749999999998
 20
5.357812500000005
 30
0.0
 10
51.71003468839987
 20
5.277419281363255
 30
0.0
 10
50.35511616127285
 20
5.156039657864083
 30
0.0
 10
48.73717592323464
 20
4.795484270386442
 30
0.0
 10
47.7967022478999
 20
4.463408638976744
 30
0.0
 10
47.53367638556558
 20
4.370535779690528
 30
0.0
  0
LINE
  5
B1
330
1F
100
AcDbEntity
  8
0
  6
Continuous
 62
     1
370
    15
100
AcDbLine
 10
52.3875
 20
2.263570326405841
 30
0.0
 11
52.38749999999998
 21
5.357812500000005
 31
0.0
  0
LINE
  5
B2
330
1F
100
AcDbEntity
  8
외형선
  6
Continuous
370
    15
100
AcDbLine
 10
26.9875
 20
-5.357812500000004
 30
0.0
 11
26.9875
 21
-5.354828241654615
 31
0.0
  0
LINE
  5
B3
330
1F
100
AcDbEntity
  8
외형선
  6
Continuous
370
    15
100
AcDbLine
 10
25.9875
 20
-0.0000000000000027
 30
0.0
 11
25.9875
 21
5.357812499999997
 31
0.0
  0
LINE
  5
B4
330
1F
100
AcDbEntity
  8
외형선
  6
Continuous
370
    15
100
AcDbLine
 10
25.9875
 20
-5.357812500000002
 30
0.0
 11
25.9875
 21
-0.0000000000000027
 31
0.0
  0
LINE
  5
B5
330
1F
100
AcDbEntity
  8
외형선
  6
Continuous
370
    15
100
AcDbLine
 10
22.28460583936523
 20
-0.0000000000000027
 30
0.0
 11
22.28460583936523
 21
6.350000000000006
 31
0.0
  0
LINE
  5
B6
330
1F
100
AcDbEntity
  8
외형선
  6
Continuous
370
    15
100
AcDbLine
 10
22.28460583936523
 20
-6.350000000000011
 30
0.0
 11
22.28460583936523
 21
-0.0000000000000027
 31
0.0
  0
SPLINE
  5
BB
330
1F
100
AcDbEntity
  8
외형선
  6
Continuous
370
    15
100
AcDbSpline
210
0.0
220
0.0
230
1.0
 70
     8
 71
     3
 72
     8
 73
     4
 74
     0
 42
0.000000001
 43
0.00000001
 40
0.0
 40
0.0
 40
0.0
 40
0.0
 40
1.0
 40
1.0
 40
1.0
 40
1.0
 10
26.98750000000003
 20
5.088099780335465
 30
0.0
 10
26.82118697610092
 20
5.118187579780319
 30
0.0
 10
26.65441803333603
 20
5.1458487454725
 30
0.0
 10
26.48755431907806
 20
5.171015099559386
 30
0.0
  0
LINE
  5
BC
330
1F
100
AcDbEntity
  8
외형선
  6
Continuous
370
    15
100
AcDbLine
 10
26.48755431907806
 20
0.4665563279128835
 30
0.0
 11
26.48755431907806
 21
5.171018543053748
 31
0.0
  0
SPLINE
  5
BD
330
1F
100
AcDbEntity
  8
외형선
  6
Continuous
370
    15
100
AcDbSpline
210
0.0
220
0.0
230
1.0
 70
     8
 71
     3
 72
     8
 73
     4
 74
     0
 42
0.000000001
 43
0.00000001
 40
0.0
 40
0.0
 40
0.0
 40
0.0
 40
1.0
 40
1.0
 40
1.0
 40
1.0
 10
26.98750000000001
 20
0.1787995736417476
 30
0.0
 10
26.8211869761009
 20
0.2747864965126243
 30
0.0
 10
26.65441803333601
 20
0.3707748408632913
 30
0.0
 10
26.48755431907806
 20
0.4665558753971932
 30
0.0
  0
SPLINE
  5
BE
330
1F
100
AcDbEntity
  8
외형선
  6
Continuous
370
    15
100
AcDbSpline
210
0.0
220
0.0
230
1.0
 70
     8
 71
     3
 72
     8
 73
     4
 74
     0
 42
0.000000001
 43
0.00000001
 40
0.0
 40
0.0
 40
0.0
 40
0.0
 40
1.0
 40
1.0
 40
1.0
 40
1.0
 10
26.98750000000003
 20
-1.678509877988903
 30
0.0
 10
26.82118697610092
 20
-1.587304143811423
 30
0.0
 10
26.65441803333603
 20
-1.495205530043779
 30
0.0
 10
26.48755431907806
 20
-1.402411360936934
 30
0.0
  0
LINE
  5
BF
330
1F
100
AcDbEntity
  8
외형선
  6
Continuous
370
    15
100
AcDbLine
 10
26.48755431907806
 20
-5.337460068051161
 30
0.0
 11
26.48755431907806
 21
-1.402398663914961
 31
0.0
  0
SPLINE
  5
C0
330
1F
100
AcDbEntity
  8
외형선
  6
Continuous
370
    15
100
AcDbSpline
210
0.0
220
0.0
230
1.0
 70
     8
 71
     3
 72
     8
 73
     4
 74
     0
 42
0.000000001
 43
0.00000001
 40
0.0
 40
0.0
 40
0.0
 40
0.0
 40
1.0
 40
1.0
 40
1.0
 40
1.0
 10
26.98750000000001
 20
-5.354828241654612
 30
0.0
 10
26.8211869761009
 20
-5.351623204983035
 30
0.0
 10
26.65441803333601
 20
-5.345832480141641
 30
0.0
 10
26.48755431907806
 20
-5.337460107606297
 30
0.0
  0
SPLINE
  5
C1
330
1F
100
AcDbEntity
  8
외형선
  6
Continuous
370
    15
100
AcDbSpline
210
0.0
220
0.0
230
1.0
 70
    24
 71
     3
 72
    21
 73
    17
 74
     0
 42
0.000000001
 43
0.00000001
 40
0.0
 40
0.0
 40
0.0
 40
0.0
 40
0.0005858996364978
 40
0.0777754844042685
 40
0.1549650691720393
 40
0.2321546539398259
 40
0.3093442387076123
 40
0.3865338234753895
 40
0.4637234082431668
 40
0.540912993010945
 40
0.6181025777787231
 40
0.6952921625464962
 40
0.7724817473142693
 40
0.8496713320820546
 40
0.9268609168498397
 40
1.0
 40
1.0
 40
1.0
 40
1.0
 10
26.9875
 20
-0.0026803584078203
 30
0.0
 10
26.9875
 20
-0.0027873855296901
 30
0.0
 10
26.98750000000071
 20
-0.0169947441441664
 30
0.0
 10
26.98749999999966
 20
0.0409223454850291
 30
0.0
 10
26.98750000000004
 20
0.1723666606416394
 30
0.0
 10
26.98749999999995
 20
0.403447711695743
 30
0.0
 10
26.98749999999995
 20
0.7094943439627005
 30
0.0
 10
26.98749999999997
 20
1.088860541023078
 30
0.0
 10
26.98750000000003
 20
1.527019974974704
 30
0.0
 10
26.98749999999993
 20
2.014037072778266
 30
0.0
 10
26.9875
 20
2.534349572543136
 30
0.0
 10
26.98749999999998
 20
3.074216005894153
 30
0.0
 10
26.9875
 20
3.618157194806455
 30
0.0
 10
26.98750000000001
 20
4.149353557585731
 30
0.0
 10
26.9875
 20
4.649177179191888
 30
0.0
 10
26.98750000000003
 20
4.944444167979408
 30
0.0
 10
26.98750000000004
 20
5.088099780335498
 30
0.0
  0
SPLINE
  5
C2
330
1F
100
AcDbEntity
  8
외형선
  6
Continuous
370
    15
100
AcDbSpline
210
0.0
220
0.0
230
1.0
 70
    24
 71
     3
 72
    15
 73
    11
 74
     0
 42
0.000000001
 43
0.00000001
 40
0.0
 40
0.0
 40
0.0
 40
0.0
 40
0.1390216469680822
 40
0.2780432939361643
 40
0.412756665391394
 40
0.5474700368466239
 40
0.6821834083018813
 40
0.8168967797571385
 40
0.9516101512123797
 40
1.0
 40
1.0
 40
1.0
 40
1.0
 10
26.98750000000001
 20
-5.354828241654611
 30
0.0
 10
26.9875
 20
-5.175689797646009
 30
0.0
 10
26.98749999999997
 20
-4.817412909628803
 30
0.0
 10
26.98750000000001
 20
-4.261338638898017
 30
0.0
 10
26.9875
 20
-3.714328810673059
 30
0.0
 10
26.98749999999997
 20
-3.188784837101375
 30
0.0
 10
26.98749999999995
 20
-2.693969529894786
 30
0.0
 10
26.98749999999998
 20
-2.248302312919839
 30
0.0
 10
26.9875
 20
-1.930069620727085
 30
0.0
 10
26.9875
 20
-1.78848840932199
 30
0.0
 10
26.98749999999998
 20
-1.7510718450367
 30
0.0
  0
LINE
  5
C3
330
1F
100
AcDbEntity
  8
중심선
 48
0.8
100
AcDbLine
 10
-55.38750000000001
 20
-0.0000000000000066
 30
0.0
 11
55.38750000000001
 21
0.0000000000000066
 31
0.0
  0
LINE
  5
C4
330
1F
100
AcDbEntity
  8
참조1
100
AcDbLine
 10
12.89338065701562
 20
0.0010749287238892
 30
0.0
 11
12.89338065701562
 21
-39.99892507127611
 31
0.0
  0
LINE
  5
C5
330
1F
100
AcDbEntity
  8
참조1
100
AcDbLine
 10
12.89338065701562
 20
-39.99892507127611
 30
0.0
 11
-29.25297615729306
 21
-39.9989250712761
 31
0.0
  0
CIRCLE
  5
C6
330
1F
100
AcDbEntity
  8
해칭선
100
AcDbCircle
 10
0.0
 20
0.0
 30
0.0
 40
3.000000000000005
  0
INSERT
  5
C7
330
1F
100
AcDbEntity
  8
0
  6
Continuous
 62
     7
100
AcDbBlockReference
 66
     1
  2
블럭10
 10
-13.9402729321252
 20
-52.04717430164393
 30
0.0
  0
ATTRIB
  5
C8
330
C7
100
AcDbEntity
  8
FORMAT
 62
     2
100
AcDbText
 10
-23.12156822086649
 20
-49.97180738881174
 30
0.0
 40
4.233333333333333
  1
E2053027 [ 4 FLUTE ]
 41
0.75
  7
SLDTEXTSTYLE0
 11
-23.12156822086649
 21
-52.08847405547841
 31
0.0
100
AcDbAttribute
  2
AUTOATTR0
 70
     0
 74
     1
  0
SEQEND
  5
C9
330
C7
100
AcDbEntity
  8
0
  6
Continuous
 62
     7
  0
HATCH
  5
CA
330
1F
100
AcDbEntity
  8
중심선
100
AcDbHatch
 10
0.0
 20
0.0
 30
0.0
210
0.0
220
0.0
230
1.0
  2
SOLID
 70
     1
 71
     0
 91
        1
 92
        0
 93
        4
 72
     1
 10
-8.225363627744372
 20
-35.8
 11
-11.67163887158165
 21
-35.8
 72
     1
 10
-11.67163887158165
 20
-35.8
 11
-13.79986873078568
 21
-38.33632558057257
 72
     1
 10
-13.79986873078568
 20
-38.33632558057257
 11
-10.35356040183524
 21
-38.33628615127008
 72
     1
 10
-10.35356040183524
 20
-38.33628615127008
 11
-8.225363627744372
 21
-35.8
 97
        0
 75
     0
 76
     1
 98
        1
 10
-12.89338065701562
 20
-0.0010749287238958
  0
HATCH
  5
CB
330
1F
100
AcDbEntity
  8
중심선
100
AcDbHatch
 10
0.0
 20
0.0
 30
0.0
210
0.0
220
0.0
230
1.0
  2
SOLID
 70
     1
 71
     0
 91
        1
 92
        0
 93
        4
 72
     1
 10
-3.212599636708392
 20
-35.8
 11
-6.658874880545646
 21
-35.79999999999998
 72
     1
 10
-6.658874880545646
 20
-35.79999999999998
 11
-11.19001288890309
 21
-41.20000000000002
 72
     1
 10
-11.19001288890309
 20
-41.20000000000002
 11
-7.743737645065809
 21
-41.20000000000002
 72
     1
 10
-7.743737645065808
 20
-41.20000000000002
 11
-3.212599636708392
 21
-35.8
 97
        0
 75
     0
 76
     1
 98
        1
 10
-12.89338065701562
 20
-0.0010749287238958
  0
HATCH
  5
CC
330
1F
100
AcDbEntity
  8
중심선
100
AcDbHatch
 10
0.0
 20
0.0
 30
0.0
210
0.0
220
0.0
230
1.0
  2
SOLID
 70
     1
 71
     0
 91
        1
 92
        0
 93
        4
 72
     1
 10
1.800164354327476
 20
-35.79999999999998
 11
-1.646110889509611
 21
-35.79999999999998
 72
     1
 10
-1.646110889509611
 20
-35.79999999999998
 11
-8.69454779139889
 21
-44.20000000000002
 72
     1
 10
-8.69454779139889
 20
-44.20000000000002
 11
-5.248272547561608
 21
-44.20000000000002
 72
     1
 10
-5.248272547561607
 20
-44.20000000000002
 11
1.800164354327476
 21
-35.79999999999998
 97
        0
 75
     0
 76
     1
 98
        1
 10
-12.89338065701562
 20
-0.0010749287238958
  0
HATCH
  5
CD
330
1F
100
AcDbEntity
  8
중심선
100
AcDbHatch
 10
0.0
 20
0.0
 30
0.0
210
0.0
220
0.0
230
1.0
  2
SOLID
 70
     1
 71
     0
 91
        1
 92
        0
 93
        6
 72
     3
 10
6.600054785339676
 20
-40.00000000005127
 11
3.960054785062283
 21
1.540882976769353E-10
 40
0.3939339440162628
 50
17.09539180608436
 51
320.0019657685078
 73
     0
 72
     1
 10
8.28305444104027
 20
-38.5878940046383
 11
10.58835631474131
 21
-36.65356729459035
 72
     3
 10
6.600054785286829
 20
-40.00000000000015
 11
6.600054785286829
 21
-1.278976924368180E-13
 40
0.636358354079598
 50
39.99873849337431
 51
368.4976242363724
 73
     1
 72
     1
 10
13.02538727718744
 20
-39.03999999993002
 11
5.280122092122753
 21
-39.03999999993002
 72
     1
 10
5.280122092122753
 20
-39.03999999993002
 11
5.280097047676819
 21
-40.95999999992991
 72
     1
 10
5.280097047676819
 20
-40.95999999992991
 11
9.721476817148854
 21
-40.95999999992988
 97
        0
 75
     0
 76
     1
 98
        1
 10
-12.89338065701562
 20
-0.0010749287238958
  0
DIMENSION
  5
CE
330
1F
100
AcDbEntity
  8
치수문자_일반주서
100
AcDbDimension
  2
_D
 10
67.48972915005355
 20
-5.357812499999934
 30
0.0
 11
67.48972915005342
 21
28.36806250000009
 31
0.0
 70
   160
  1
%%c<>
 71
     2
 42
10.715625
 52
-270.0
  3
SLDDIMSTYLE2
100
AcDbAlignedDimension
 13
52.38749999999998
 23
5.357812500000005
 33
0.0
 14
52.38749999999998
 24
-5.357812499999993
 34
0.0
 50
90.0000000000002
100
AcDbRotatedDimension
1001
ACAD
1000
DSTYLE
1002
{
1070
   171
1070
     6
1070
   273
1070
     5
1002
}
  0
DIMENSION
  5
E2
330
1F
100
AcDbEntity
  8
치수문자_일반주서
100
AcDbDimension
  2
_D_1
 10
26.98750000000001
 20
20.71954973390218
 30
0.0
 11
3.834304342380371
 21
20.71954973390218
 31
0.0
 70
   160
  1
<>
 71
     2
 42
25.39999999999997
  3
SLDDIMSTYLE2
100
AcDbAlignedDimension
 13
52.38749999999998
 23
5.357812500000005
 33
0.0
 14
26.98750000000001
 24
5.354828241654605
 34
0.0
 50
-0.0000000000000641
100
AcDbRotatedDimension
1001
ACAD
1000
DSTYLE
1002
{
1070
   171
1070
     6
1070
   273
1070
     5
1002
}
  0
DIMENSION
  5
F7
330
1F
100
AcDbEntity
  8
치수문자_일반주서
100
AcDbDimension
  2
_D_2
 10
-52.38749999999995
 20
35.43986672067656
 30
0.0
 11
-2.133391733338975
 21
35.43986672067656
 31
0.0
 70
   160
  1
<>
 71
     2
 42
104.7749999999999
  3
SLDDIMSTYLE2
100
AcDbAlignedDimension
 13
52.38749999999998
 23
5.357812500000005
 33
0.0
 14
-52.38749999999995
 24
5.357812499999993
 34
0.0
100
AcDbRotatedDimension
1001
ACAD
1000
DSTYLE
1002
{
1070
   171
1070
     6
1070
   273
1070
     5
1002
}
  0
DIMENSION
  5
10A
330
1F
100
AcDbEntity
  8
치수문자_일반주서
100
AcDbDimension
  2
_D_3
 10
-64.59375
 20
-6.350000000000165
 30
0.0
 11
-64.59375000000003
 21
-0.0000000000000087
 31
0.0
 70
   160
  1
%%c<>
 71
     2
 42
12.70000000000001
 52
-270.0
  3
SLDDIMSTYLE2
100
AcDbAlignedDimension
 13
-22.28460583936519
 23
6.350000000000001
 33
0.0
 14
-22.28460583936519
 24
-6.350000000000007
 34
0.0
 50
90.0000000000002
100
AcDbRotatedDimension
1001
ACAD
1000
DSTYLE
1002
{
1070
   171
1070
     6
1070
   273
1070
     5
1002
}
  0
LINE
  5
11F
330
1F
100
AcDbEntity
  8
참조1
100
AcDbLine
 10
68.7193644723612
 20
7.441074928723896
 30
0.0
 11
68.7193644723612
 21
-7.438925071276109
 31
0.0
  0
LINE
  5
120
330
1F
100
AcDbEntity
  8
참조1
100
AcDbLine
 10
81.41936447236121
 20
5.441074928723896
 30
0.0
 11
68.7193644723612
 21
5.441074928723896
 31
0.0
  0
SOLID
  5
121
330
1F
100
AcDbEntity
  8
참조1
100
AcDbTrace
 10
68.7193644723612
 20
5.441074928723896
 30
0.0
 11
75.0693644723612
 21
4.425074928723896
 31
0.0
 12
75.0693644723612
 22
6.457074928723896
 32
0.0
 13
75.0693644723612
 23
6.457074928723896
 33
0.0
  0
LINE
  5
122
330
1F
100
AcDbEntity
  8
참조1
100
AcDbLine
 10
81.41936447236121
 20
-5.438925071276109
 30
0.0
 11
68.7193644723612
 21
-5.438925071276109
 31
0.0
  0
SOLID
  5
123
330
1F
100
AcDbEntity
  8
참조1
100
AcDbTrace
 10
68.7193644723612
 20
-5.438925071276109
 30
0.0
 11
75.0693644723612
 21
-6.454925071276109
 31
0.0
 12
75.0693644723612
 22
-4.422925071276109
 32
0.0
 13
75.0693644723612
 23
-4.422925071276109
 33
0.0
  0
MTEXT
  5
124
330
1F
100
AcDbEntity
  8
참조1
100
AcDbMText
 10
78.1037146049872
 20
11.01136670591223
 30
0.0
 40
3.5
 41
0.0
 71
     1
 72
     1
  1
A
  7
SLDTEXTSTYLE0
 73
     1
 44
1.0
  0
MTEXT
  5
125
330
1F
100
AcDbEntity
  8
참조1
100
AcDbMText
 10
78.1037146049872
 20
0.1313667059122219
 30
0.0
 40
3.5
 41
0.0
 71
     1
 72
     1
  1
A
  7
SLDTEXTSTYLE0
 73
     1
 44
1.0
  0
INSERT
  5
12C
330
1F
100
AcDbEntity
  8
해칭선
100
AcDbBlockReference
  2
SW_DOWELSYMBOL_0
 10
0.0
 20
0.0
 30
0.0
  0
LINE
  5
316
330
1F
100
AcDbEntity
  8
0
  6
Continuous
 62
     1
370
    15
100
AcDbLine
 10
-38.60501855560639
 20
5.357812500000008
 30
0.0
 11
-41.87338067141393
 21
5.357812500000008
 31
0.0
  0
LINE
  5
317
330
1F
100
AcDbEntity
  8
외형선
  6
Continuous
370
    15
100
AcDbLine
 10
-27.29651758750261
 20
-5.357812499999995
 30
0.0
 11
-26.98749999999998
 21
-5.357812499999995
 31
0.0
  0
LINE
  5
318
330
1F
100
AcDbEntity
  8
0
  6
Continuous
 62
     1
370
    15
100
AcDbLine
 10
-41.87338067141393
 20
-5.357812499999995
 30
0.0
 11
-38.6050185556065
 21
-5.357812499999995
 31
0.0
  0
LINE
  5
319
330
1F
100
AcDbEntity
  8
외형선
  6
Continuous
370
    15
100
AcDbLine
 10
-26.98749999999998
 20
5.357812500000008
 30
0.0
 11
-27.29651758750253
 21
5.357812500000008
 31
0.0
  0
LINE
  5
31A
330
1F
100
AcDbEntity
  8
외형선
  6
Continuous
370
    15
100
AcDbLine
 10
-22.28460583936521
 20
6.350000000000015
 30
0.0
 11
-25.98749999999998
 21
5.357812500000008
 31
0.0
  0
LINE
  5
31B
330
1F
100
AcDbEntity
  8
외형선
  6
Continuous
370
    15
100
AcDbLine
 10
-25.98749999999998
 20
-5.357812499999995
 30
0.0
 11
-22.28460583936521
 21
-6.350000000000002
 31
0.0
  0
LINE
  5
31E
330
1F
100
AcDbEntity
  8
외형선
  6
Continuous
370
    15
100
AcDbLine
 10
-25.98749999999998
 20
5.357812500000008
 30
0.0
 11
-26.98749999999998
 21
5.357812500000008
 31
0.0
  0
LINE
  5
31F
330
1F
100
AcDbEntity
  8
외형선
  6
Continuous
370
    15
100
AcDbLine
 10
-26.98749999999998
 20
-5.357812499999995
 30
0.0
 11
-25.98749999999998
 21
-5.357812499999995
 31
0.0
  0
SPLINE
  5
320
330
1F
100
AcDbEntity
  8
0
  6
Continuous
 62
     1
370
    15
100
AcDbSpline
210
0.0
220
0.0
230
1.0
 70
     8
 71
     3
 72
    18
 73
    14
 74
     0
 42
0.000000001
 43
0.00000001
 40
0.0
 40
0.0
 40
0.0
 40
0.0
 40
0.0988998141888755
 40
0.197798590640442
 40
0.2966964191024772
 40
0.3955933894562061
 40
0.4944895917037181
 40
0.5933851159553363
 40
0.6922800524169632
 40
0.7829197531722207
 40
0.8735574966951118
 40
0.9642008073836422
 40
1.0
 40
1.0
 40
1.0
 40
1.0
 10
-26.98749999999998
 20
-0.1787995736417478
 30
0.0
 10
-27.66486779825416
 20
0.2128833509591168
 30
0.0
 10
-29.01959628726848
 20
0.996245090304938
 30
0.0
 10
-31.05167331560681
 20
2.126000915372372
 30
0.0
 10
-33.08372793263569
 20
3.153598958041612
 30
0.0
 10
-35.11575895240346
 20
4.030764672570412
 30
0.0
 10
-37.14777984205974
 20
4.715316475639091
 30
0.0
 10
-39.17975123026482
 20
5.174929946356214
 30
0.0
 10
-41.15529141255609
 20
5.380597282916745
 30
0.0
 10
-43.07385670793945
 20
5.350674269756076
 30
0.0
 10
-44.93600533518295
 20
5.095910711710927
 30
0.0
 10
-46.42258434125016
 20
4.761799592680865
 30
0.0
 10
-47.28851007438342
 20
4.456869496344054
 30
0.0
 10
-47.53367638556553
 20
4.370535779690534
 30
0.0
  0
SPLINE
  5
321
330
1F
100
AcDbEntity
  8
외형선
  6
Continuous
370
    15
100
AcDbSpline
210
0.0
220
0.0
230
1.0
 70
    24
 71
     3
 72
    20
 73
    16
 74
     0
 42
0.000000001
 43
0.00000001
 40
0.0
 40
0.0
 40
0.0
 40
0.0
 40
0.1075839250875204
 40
0.1836115471856437
 40
0.2618439754750892
 40
0.3378715975732116
 40
0.4161040258626565
 40
0.4921316479607795
 40
0.5703640762502256
 40
0.646391698348348
 40
0.7246241266377927
 40
0.8006517487359147
 40
0.8788841770253589
 40
0.9549117991234499
 40
0.9999999999999999
 40
0.9999999999999999
 40
0.9999999999999999
 40
0.9999999999999999
 10
-26.98749999999998
 20
-5.088099780335484
 30
0.0
 10
-26.9875
 20
-4.87325051526176
 30
0.0
 10
-26.9875
 20
-4.506571144344663
 30
0.0
 10
-26.98749999999995
 20
-3.91544394917186
 30
0.0
 10
-26.98750000000003
 20
-3.379637172854367
 30
0.0
 10
-26.9875
 20
-2.83300453113732
 30
0.0
 10
-26.98750000000009
 20
-2.302304211736975
 30
0.0
 10
-26.98749999999998
 20
-1.792610560065328
 30
0.0
 10
-26.98750000000006
 20
-1.327655283503035
 30
0.0
 10
-26.98749999999989
 20
-0.9120996770709631
 30
0.0
 10
-26.98750000000009
 20
-0.5655764094249711
 30
0.0
 10
-26.98749999999992
 20
-0.2902200406915163
 30
0.0
 10
-26.98749999999998
 20
-0.1041261547929657
 30
0.0
 10
-26.98749999999998
 20
-0.0056034451039231
 30
0.0
 10
-26.98749999999998
 20
-0.0076365761488126
 30
0.0
 10
-26.98749999999998
 20
-0.0083934567834809
 30
0.0
  0
SPLINE
  5
322
330
1F
100
AcDbEntity
  8
0
  6
Continuous
 62
     1
370
    15
100
AcDbSpline
210
0.0
220
0.0
230
1.0
 70
     8
 71
     3
 72
    54
 73
    50
 74
     0
 42
0.000000001
 43
0.00000001
 40
0.0
 40
0.0
 40
0.0
 40
0.0
 40
0.0625000000000005
 40
0.0625000000000005
 40
0.0937500000000008
 40
0.0937500000000008
 40
0.1250000000000011
 40
0.1250000000000011
 40
0.1562500000000014
 40
0.1562500000000014
 40
0.1875000000000017
 40
0.1875000000000017
 40
0.250000000000001
 40
0.250000000000001
 40
0.3125000000000004
 40
0.3125000000000004
 40
0.3437499999999994
 40
0.3437499999999994
 40
0.3749999999999984
 40
0.3749999999999984
 40
0.4374999999999966
 40
0.4374999999999966
 40
0.4687499999999962
 40
0.4687499999999962
 40
0.4999999999999959
 40
0.4999999999999959
 40
0.5624999999999952
 40
0.5624999999999952
 40
0.5937499999999942
 40
0.5937499999999942
 40
0.6249999999999933
 40
0.6249999999999933
 40
0.6874999999999915
 40
0.6874999999999915
 40
0.7187499999999911
 40
0.7187499999999911
 40
0.7499999999999908
 40
0.7499999999999908
 40
0.8124999999999913
 40
0.8124999999999913
 40
0.8437499999999922
 40
0.8437499999999922
 40
0.874999999999993
 40
0.874999999999993
 40
0.937499999999996
 40
0.937499999999996
 40
0.9687499999999981
 40
0.9687499999999981
 40
1.0
 40
1.0
 40
1.0
 40
1.0
 10
-52.38749999999995
 20
5.357812499999993
 30
0.0
 10
-51.8616345720456
 20
5.311986332735613
 30
0.0
 10
-51.32815462218505
 20
5.25961851398874
 30
0.0
 10
-50.53393334673964
 20
5.143149368872087
 30
0.0
 10
-50.27143946963567
 20
5.098131636371327
 30
0.0
 10
-49.74312343370908
 20
4.995619074555299
 30
0.0
 10
-49.47760541910915
 20
4.938116058010606
 30
0.0
 10
-48.94675585839473
 20
4.811189051616252
 30
0.0
 10
-48.68142786599716
 20
4.741765932186488
 30
0.0
 10
-48.1538650093764
 20
4.591833053498788
 30
0.0
 10
-47.89088418778007
 20
4.511272669929084
 30
0.0
 10
-47.09595598009056
 20
4.252765849083082
 30
0.0
 10
-46.56454192212737
 20
4.058563459454979
 30
0.0
 10
-45.51093927406978
 20
3.633794736856259
 30
0.0
 10
-44.9772689741097
 20
3.401653579630348
 30
0.0
 10
-44.18390088760346
 20
3.031293311073483
 30
0.0
 10
-43.92155832976763
 20
2.904334168453544
 30
0.0
 10
-43.39258590291706
 20
2.642967605562859
 30
0.0
 10
-43.12692709686115
 20
2.508703877995145
 30
0.0
 10
-42.33080027832525
 20
2.097348551935184
 30
0.0
 10
-41.80573339955284
 20
1.812525921847104
 30
0.0
 10
-41.01024495173026
 20
1.372730619950175
 30
0.0
 10
-40.74445696215454
 20
1.224158591805824
 30
0.0
 10
-40.21454692449569
 20
0.9247000547176107
 30
0.0
 10
-39.9516289854379
 20
0.7740460895225703
 30
0.0
 10
-39.16016694540655
 20
0.319299597127958
 30
0.0
 10
-38.62640637606327
 20
0.0119226564065109
 30
0.0
 10
-37.834037210323
 20
-0.4454136187664524
 30
0.0
 10
-37.57151025374204
 20
-0.5971968340115914
 30
0.0
 10
-37.0419786276349
 20
-0.8997950236999166
 30
0.0
 10
-36.7762283481656
 20
-1.050366501134065
 30
0.0
 10
-35.98039648361128
 20
-1.497413304630627
 30
0.0
 10
-35.45544533924393
 20
-1.788548107488823
 30
0.0
 10
-34.65954368880087
 20
-2.21161029586186
 30
0.0
 10
-34.39380753151882
 20
-2.350173676505904
 30
0.0
 10
-33.86437840383231
 20
-2.620877910605615
 30
0.0
 10
-33.60191434717407
 20
-2.752822797068682
 30
0.0
 10
-32.80933681490446
 20
-3.138995633236178
 30
0.0
 10
-32.27558611371366
 20
-3.383160861798672
 30
0.0
 10
-31.48436098692289
 20
-3.721541370847654
 30
0.0
 10
-31.22131402665593
 20
-3.829852333441764
 30
0.0
 10
-30.69132073701447
 20
-4.037396208131249
 30
0.0
 10
-30.42552835892189
 20
-4.136461280441467
 30
0.0
 10
-29.63013869773334
 20
-4.417897860495182
 30
0.0
 10
-29.10501500856255
 20
-4.584297809508315
 30
0.0
 10
-28.30884744795133
 20
-4.80007391254398
 30
0.0
 10
-28.04321248899063
 20
-4.866233419904035
 30
0.0
 10
-27.51436174390181
 20
-4.986337994360555
 30
0.0
 10
-27.25201592613382
 20
-5.04024602872363
 30
0.0
 10
-26.98749999999998
 20
-5.08809978033547
 30
0.0
  0
LINE
  5
323
330
1F
100
AcDbEntity
  8
0
  6
Continuous
 62
     1
370
    15
100
AcDbLine
 10
-52.38749999999998
 20
4.852470854059304
 30
0.0
 11
-52.38749999999998
 21
-0.4590646040593647
 31
0.0
  0
SPLINE
  5
324
330
1F
100
AcDbEntity
  8
0
  6
Continuous
 62
     1
370
    15
100
AcDbSpline
210
0.0
220
0.0
230
1.0
 70
     8
 71
     3
 72
    20
 73
    16
 74
     0
 42
0.000000001
 43
0.00000001
 40
0.0
 40
0.0
 40
0.0
 40
0.0
 40
0.0686704519637824
 40
0.1496553949989864
 40
0.2306395617568597
 40
0.3116230258381715
 40
0.3926058609426585
 40
0.4735881408586923
 40
0.554569939452907
 40
0.628791798061919
 40
0.7030120539579611
 40
0.7772368686221556
 40
0.851472391393363
 40
0.9257247431246134
 40
1.0
 40
1.0
 40
1.0
 40
1.0
 10
-27.29651758750261
 20
-5.34128951246575
 30
0.0
 10
-27.87087945494857
 20
-5.330154121267655
 30
0.0
 10
-29.12260198897695
 20
-5.305886458531163
 30
0.0
 10
-31.05167329348401
 20
-4.960435369396991
 30
0.0
 10
-33.08372793753312
 20
-4.385604968921279
 30
0.0
 10
-35.11575895493618
 20
-3.59436804325339
 30
0.0
 10
-37.14777982703176
 20
-2.633341844358754
 30
0.0
 10
-39.17975128784345
 20
-1.546041856729986
 30
0.0
 10
-41.15529120486305
 20
-0.4173978723370062
 30
0.0
 10
-43.07385741147785
 20
0.6957918278668125
 30
0.0
 10
-44.93600270186641
 20
1.747986528722172
 30
0.0
 10
-46.79825964769378
 20
2.731033125173517
 30
0.0
 10
-48.66084821108483
 20
3.600723028311009
 30
0.0
 10
-50.5239309402346
 20
4.339876169906488
 30
0.0
 10
-51.76624645229699
 20
4.681588393656297
 30
0.0
 10
-52.38749999999998
 20
4.852470854059304
 30
0.0
  0
SPLINE
  5
325
330
1F
100
AcDbEntity
  8
0
  6
Continuous
 62
     1
370
    15
100
AcDbSpline
210
0.0
220
0.0
230
1.0
 70
     8
 71
     3
 72
    17
 73
    13
 74
     0
 42
0.000000001
 43
0.00000001
 40
0.0
 40
0.0
 40
0.0
 40
0.0
 40
0.1046396320161699
 40
0.2092773957024962
 40
0.3139133843532987
 40
0.4185476915111711
 40
0.5231804109541149
 40
0.6278116366826356
 40
0.7324414629067253
 40
0.8283554250420857
 40
0.9242524140697971
 40
1.0
 40
1.0
 40
1.0
 40
1.0
 10
-52.38749999999998
 20
-0.4590646040593647
 30
0.0
 10
-51.71003460363473
 20
-0.8465906456511199
 30
0.0
 10
-50.35511590697902
 20
-1.621635809597124
 30
0.0
 10
-48.32276477742797
 20
-2.700877306264687
 30
0.0
 10
-46.2904540601666
 20
-3.652691627982755
 30
0.0
 10
-44.25818415445692
 20
-4.429586298370539
 30
0.0
 10
-42.22594564589166
 20
-4.99514280978005
 30
0.0
 10
-40.1937626909563
 20
-5.321653720616816
 30
0.0
 10
-38.21795596195059
 20
-5.393590322221095
 30
0.0
 10
-36.29896366376607
 20
-5.224693865396731
 30
0.0
 10
-34.5669612904366
 20
-4.896104432169545
 30
0.0
 10
-33.45587224377541
 20
-4.54011907557591
 30
0.0
 10
-32.96554324235654
 20
-4.383021005945211
 30
0.0
  0
SPLINE
  5
326
330
1F
100
AcDbEntity
  8
0
  6
Continuous
 62
     1
370
    15
100
AcDbSpline
210
0.0
220
0.0
230
1.0
 70
     8
 71
     3
 72
    14
 73
    10
 74
     0
 42
0.000000001
 43
0.00000001
 40
0.0
 40
0.0
 40
0.0
 40
0.0
 40
0.0381657296087338
 40
0.1984981079772324
 40
0.3588021136390118
 40
0.5190910065788334
 40
0.6793780870192327
 40
0.839676660011601
 40
1.0
 40
1.0
 40
1.0
 40
1.0
 10
-38.60501855560639
 20
5.335940764323637
 30
0.0
 10
-38.45720291582173
 20
5.34272525415649
 30
0.0
 10
-37.68842094499345
 20
5.378011056608563
 30
0.0
 10
-36.29897057978675
 20
5.21595412989427
 30
0.0
 10
-34.43658454156186
 20
4.861775653288908
 30
0.0
 10
-32.57443182998562
 20
4.293306734446644
 30
0.0
 10
-30.7122967039483
 20
3.556381003191276
 30
0.0
 10
-28.8500093709691
 20
2.680078723781299
 30
0.0
 10
-27.60836842789274
 20
2.012383352348884
 30
0.0
 10
-26.98749999999998
 20
1.678509877988886
 30
0.0
  0
LINE
  5
327
330
1F
100
AcDbEntity
  8
외형선
  6
Continuous
370
    15
100
AcDbLine
 10
-26.98749999999998
 20
1.678509877988879
 30
0.0
 11
-26.98749999999998
 21
-0.1787995736417407
 31
0.0
  0
LINE
  5
328
330
1F
100
AcDbEntity
  8
0
  6
Continuous
 62
     1
370
    15
100
AcDbLine
 10
-52.38749999999995
 20
5.357812499999993
 30
0.0
 11
-52.38749999999998
 21
4.852470854059304
 31
0.0
  0
LINE
  5
329
330
1F
100
AcDbEntity
  8
외형선
  6
Continuous
370
    15
100
AcDbLine
 10
-26.98749999999998
 20
-5.088099780335484
 30
0.0
 11
-26.98749999999998
 21
-5.357812499999995
 31
0.0
  0
SPLINE
  5
32A
330
1F
100
AcDbEntity
  8
0
  6
Continuous
 62
     1
370
    15
100
AcDbSpline
210
0.0
220
0.0
230
1.0
 70
     8
 71
     3
 72
    13
 73
     9
 74
     0
 42
0.000000001
 43
0.00000001
 40
0.0
 40
0.0
 40
0.0
 40
0.0
 40
0.1141855884908949
 40
0.2912974409643891
 40
0.4684201720297487
 40
0.6455684558589336
 40
0.8227568986481252
 40
1.0
 40
1.0
 40
1.0
 40
1.0
 10
-41.87338067141393
 20
-5.333119348586053
 30
0.0
 10
-42.27354927573699
 20
-5.334209890101406
 30
0.0
 10
-43.29441444737724
 20
-5.336991957058246
 30
0.0
 10
-44.93599791278256
 20
-5.097233935061639
 30
0.0
 10
-46.79826093071286
 20
-4.653543063655321
 30
0.0
 10
-48.66084786884246
 20
-4.012515138186076
 30
0.0
 10
-50.52393102583405
 20
-3.219130983059174
 30
0.0
 10
-51.76624648083313
 20
-2.587404940417315
 30
0.0
 10
-52.38749999999998
 20
-2.271493208367801
 30
0.0
  0
LINE
  5
32B
330
1F
100
AcDbEntity
  8
0
  6
Continuous
 62
     1
370
    15
100
AcDbLine
 10
-52.38749999999998
 20
-0.4590646040593647
 30
0.0
 11
-52.38749999999998
 21
-2.271493208367801
 31
0.0
  0
SPLINE
  5
32C
330
1F
100
AcDbEntity
  8
0
  6
Continuous
 62
     1
370
    15
100
AcDbSpline
210
0.0
220
0.0
230
1.0
 70
     8
 71
     3
 72
    10
 73
     6
 74
     0
 42
0.000000001
 43
0.00000001
 40
0.0
 40
0.0
 40
0.0
 40
0.0
 40
0.3399270145585045
 40
0.6798504623262294
 40
0.9999999999999999
 40
0.9999999999999999
 40
0.9999999999999999
 40
0.9999999999999999
 10
-26.98749999999998
 20
5.354828241654615
 30
0.0
 10
-27.66486777414294
 20
5.342156291118946
 30
0.0
 10
-29.0195962149352
 20
5.316812523012032
 30
0.0
 10
-31.01227700690088
 20
4.979383256057353
 30
0.0
 10
-32.32758883150751
 20
4.577798308197678
 30
0.0
 10
-32.96554324235651
 20
4.383021005945223
 30
0.0
  0
SPLINE
  5
32D
330
1F
100
AcDbEntity
  8
외형선
  6
Continuous
370
    15
100
AcDbSpline
210
0.0
220
0.0
230
1.0
 70
    24
 71
     3
 72
    15
 73
    11
 74
     0
 42
0.000000001
 43
0.00000001
 40
0.0
 40
0.0
 40
0.0
 40
0.0
 40
0.1058404657403568
 40
0.242632776934454
 40
0.3755699024818744
 40
0.5123622136759713
 40
0.6452993392233378
 40
0.7820916504174902
 40
0.8900318836567671
 40
1.0
 40
1.0
 40
1.0
 40
1.0
 10
-26.9875
 20
1.751071845036676
 30
0.0
 10
-26.98749999999998
 20
1.839923485704289
 30
0.0
 10
-26.98749999999995
 20
2.043610423016645
 30
0.0
 10
-26.98750000000006
 20
2.437744293377662
 30
0.0
 10
-26.98749999999995
 20
2.908851595941001
 30
0.0
 10
-26.98749999999992
 20
3.416792241669846
 30
0.0
 10
-26.98750000000003
 20
3.953747982408543
 30
0.0
 10
-26.9875
 20
4.461455269153304
 30
0.0
 10
-26.98749999999992
 20
4.934614283055423
 30
0.0
 10
-26.98749999999995
 20
5.213890595038797
 30
0.0
 10
-26.98749999999998
 20
5.354828241654615
 30
0.0
  0
SPLINE
  5
32E
330
1F
100
AcDbEntity
  8
0
  6
Continuous
 62
     1
370
    15
100
AcDbSpline
210
0.0
220
0.0
230
1.0
 70
     8
 71
     3
 72
    10
 73
     6
 74
     0
 42
0.000000001
 43
0.00000001
 40
0.0
 40
0.0
 40
0.0
 40
0.0
 40
0.4187192326966447
 40
0.8374309892045505
 40
1.0
 40
1.0
 40
1.0
 40
1.0
 10
-52.38749999999995
 20
-5.357812500000002
 30
0.0
 10
-51.71003468839987
 20
-5.277419281363252
 30
0.0
 10
-50.35511616127283
 20
-5.156039657864086
 30
0.0
 10
-48.73717592323461
 20
-4.79548427038644
 30
0.0
 10
-47.79670224789989
 20
-4.463408638976746
 30
0.0
 10
-47.53367638556556
 20
-4.370535779690528
 30
0.0
  0
LINE
  5
32F
330
1F
100
AcDbEntity
  8
0
  6
Continuous
 62
     1
370
    15
100
AcDbLine
 10
-52.38749999999998
 20
-2.263570326405841
 30
0.0
 11
-52.38749999999995
 21
-5.357812500000002
 31
0.0
  0
LINE
  5
330
330
1F
100
AcDbEntity
  8
외형선
  6
Continuous
370
    15
100
AcDbLine
 10
-26.98749999999998
 20
5.357812500000008
 30
0.0
 11
-26.98749999999998
 21
5.354828241654615
 31
0.0
  0
LINE
  5
331
330
1F
100
AcDbEntity
  8
외형선
  6
Continuous
370
    15
100
AcDbLine
 10
-25.98749999999998
 20
0.0000000000000064
 30
0.0
 11
-25.98749999999998
 21
-5.357812499999995
 31
0.0
  0
LINE
  5
332
330
1F
100
AcDbEntity
  8
외형선
  6
Continuous
370
    15
100
AcDbLine
 10
-25.98749999999998
 20
5.357812500000008
 30
0.0
 11
-25.98749999999998
 21
0.0000000000000064
 31
0.0
  0
LINE
  5
333
330
1F
100
AcDbEntity
  8
외형선
  6
Continuous
370
    15
100
AcDbLine
 10
-22.28460583936521
 20
0.0000000000000064
 30
0.0
 11
-22.28460583936521
 21
-6.350000000000002
 31
0.0
  0
LINE
  5
334
330
1F
100
AcDbEntity
  8
외형선
  6
Continuous
370
    15
100
AcDbLine
 10
-22.28460583936521
 20
6.350000000000015
 30
0.0
 11
-22.28460583936521
 21
0.0000000000000064
 31
0.0
  0
SPLINE
  5
335
330
1F
100
AcDbEntity
  8
외형선
  6
Continuous
370
    15
100
AcDbSpline
210
0.0
220
0.0
230
1.0
 70
     8
 71
     3
 72
     8
 73
     4
 74
     0
 42
0.000000001
 43
0.00000001
 40
0.0
 40
0.0
 40
0.0
 40
0.0
 40
1.0
 40
1.0
 40
1.0
 40
1.0
 10
-26.9875
 20
-5.088099780335463
 30
0.0
 10
-26.8211869761009
 20
-5.118187579780312
 30
0.0
 10
-26.65441803333601
 20
-5.1458487454725
 30
0.0
 10
-26.48755431907804
 20
-5.171015099559384
 30
0.0
  0
LINE
  5
336
330
1F
100
AcDbEntity
  8
외형선
  6
Continuous
370
    15
100
AcDbLine
 10
-26.48755431907804
 20
-0.4665563279128839
 30
0.0
 11
-26.48755431907804
 21
-5.171018543053749
 31
0.0
  0
SPLINE
  5
337
330
1F
100
AcDbEntity
  8
외형선
  6
Continuous
370
    15
100
AcDbSpline
210
0.0
220
0.0
230
1.0
 70
     8
 71
     3
 72
     8
 73
     4
 74
     0
 42
0.000000001
 43
0.00000001
 40
0.0
 40
0.0
 40
0.0
 40
0.0
 40
1.0
 40
1.0
 40
1.0
 40
1.0
 10
-26.9875
 20
-0.1787995736417478
 30
0.0
 10
-26.8211869761009
 20
-0.274786496512619
 30
0.0
 10
-26.65441803333601
 20
-0.3707748408632916
 30
0.0
 10
-26.48755431907804
 20
-0.4665558753971915
 30
0.0
  0
SPLINE
  5
338
330
1F
100
AcDbEntity
  8
외형선
  6
Continuous
370
    15
100
AcDbSpline
210
0.0
220
0.0
230
1.0
 70
     8
 71
     3
 72
     8
 73
     4
 74
     0
 42
0.000000001
 43
0.00000001
 40
0.0
 40
0.0
 40
0.0
 40
0.0
 40
1.0
 40
1.0
 40
1.0
 40
1.0
 10
-26.9875
 20
1.678509877988908
 30
0.0
 10
-26.8211869761009
 20
1.587304143811422
 30
0.0
 10
-26.65441803333601
 20
1.495205530043783
 30
0.0
 10
-26.48755431907804
 20
1.402411360936937
 30
0.0
  0
LINE
  5
339
330
1F
100
AcDbEntity
  8
외형선
  6
Continuous
370
    15
100
AcDbLine
 10
-26.48755431907804
 20
5.337460068051164
 30
0.0
 11
-26.48755431907804
 21
1.402398663914965
 31
0.0
  0
SPLINE
  5
33A
330
1F
100
AcDbEntity
  8
외형선
  6
Continuous
370
    15
100
AcDbSpline
210
0.0
220
0.0
230
1.0
 70
     8
 71
     3
 72
     8
 73
     4
 74
     0
 42
0.000000001
 43
0.00000001
 40
0.0
 40
0.0
 40
0.0
 40
0.0
 40
1.0
 40
1.0
 40
1.0
 40
1.0
 10
-26.9875
 20
5.354828241654615
 30
0.0
 10
-26.8211869761009
 20
5.351623204983034
 30
0.0
 10
-26.65441803333601
 20
5.345832480141644
 30
0.0
 10
-26.48755431907804
 20
5.337460107606296
 30
0.0
  0
SPLINE
  5
33B
330
1F
100
AcDbEntity
  8
외형선
  6
Continuous
370
    15
100
AcDbSpline
210
0.0
220
0.0
230
1.0
 70
    24
 71
     3
 72
    21
 73
    17
 74
     0
 42
0.000000001
 43
0.00000001
 40
0.0
 40
0.0
 40
0.0
 40
0.0
 40
0.0005858996364978
 40
0.0777754844042685
 40
0.1549650691720393
 40
0.2321546539398259
 40
0.3093442387076123
 40
0.3865338234753895
 40
0.4637234082431668
 40
0.540912993010945
 40
0.6181025777787231
 40
0.6952921625464962
 40
0.7724817473142693
 40
0.8496713320820546
 40
0.9268609168498397
 40
1.0
 40
1.0
 40
1.0
 40
1.0
 10
-26.98749999999998
 20
0.0026803584078217
 30
0.0
 10
-26.98749999999998
 20
0.0027873855296925
 30
0.0
 10
-26.98750000000069
 20
0.01699474414417
 30
0.0
 10
-26.98749999999963
 20
-0.0409223454850298
 30
0.0
 10
-26.98750000000003
 20
-0.1723666606416365
 30
0.0
 10
-26.98749999999995
 20
-0.4034477116957411
 30
0.0
 10
-26.98749999999995
 20
-0.7094943439626966
 30
0.0
 10
-26.98749999999995
 20
-1.088860541023075
 30
0.0
 10
-26.9875
 20
-1.5270199749747
 30
0.0
 10
-26.98749999999992
 20
-2.014037072778266
 30
0.0
 10
-26.98749999999998
 20
-2.534349572543136
 30
0.0
 10
-26.98749999999998
 20
-3.074216005894151
 30
0.0
 10
-26.98749999999998
 20
-3.618157194806451
 30
0.0
 10
-26.9875
 20
-4.149353557585727
 30
0.0
 10
-26.98749999999998
 20
-4.649177179191882
 30
0.0
 10
-26.9875
 20
-4.944444167979406
 30
0.0
 10
-26.98750000000003
 20
-5.088099780335498
 30
0.0
  0
SPLINE
  5
33C
330
1F
100
AcDbEntity
  8
외형선
  6
Continuous
370
    15
100
AcDbSpline
210
0.0
220
0.0
230
1.0
 70
    24
 71
     3
 72
    15
 73
    11
 74
     0
 42
0.000000001
 43
0.00000001
 40
0.0
 40
0.0
 40
0.0
 40
0.0
 40
0.1390216469680822
 40
0.2780432939361643
 40
0.412756665391394
 40
0.5474700368466239
 40
0.6821834083018813
 40
0.8168967797571385
 40
0.9516101512123797
 40
1.0
 40
1.0
 40
1.0
 40
1.0
 10
-26.9875
 20
5.354828241654615
 30
0.0
 10
-26.98749999999998
 20
5.175689797646014
 30
0.0
 10
-26.98749999999995
 20
4.817412909628806
 30
0.0
 10
-26.9875
 20
4.261338638898017
 30
0.0
 10
-26.98749999999998
 20
3.714328810673066
 30
0.0
 10
-26.98749999999995
 20
3.18878483710138
 30
0.0
 10
-26.98749999999995
 20
2.693969529894786
 30
0.0
 10
-26.98749999999998
 20
2.24830231291984
 30
0.0
 10
-26.98749999999998
 20
1.930069620727088
 30
0.0
 10
-26.98749999999998
 20
1.788488409321992
 30
0.0
 10
-26.98749999999998
 20
1.751071845036704
 30
0.0
  0
LINE
  5
3BB
330
1F
100
AcDbEntity
  8
외형선
  6
Continuous
370
    15
100
AcDbLine
 10
-4.203700000000026
 20
4.826000000000001
 30
0.0
 11
4.203700000000026
 21
4.826000000000001
 31
0.0
  0
LINE
  5
3BC
330
1F
100
AcDbEntity
  8
외형선
  6
Continuous
370
    15
100
AcDbLine
 10
-4.203700000000026
 20
4.826000000000001
 30
0.0
 11
-5.727700000000027
 21
6.350000000000001
 31
0.0
  0
LINE
  5
3BD
330
1F
100
AcDbEntity
  8
외형선
  6
Continuous
370
    15
100
AcDbLine
 10
4.203700000000026
 20
4.826000000000001
 30
0.0
 11
5.727700000000027
 21
6.350000000000001
 31
0.0
  0
LINE
  5
3BE
330
1F
100
AcDbEntity
  8
외형선
  6
Continuous
370
    15
100
AcDbLine
 10
-5.727700000000024
 20
6.350000000000001
 30
0.0
 11
-22.2846058393652
 21
6.350000000000001
 31
0.0
  0
ENDSEC
  0
SECTION
  2
OBJECTS
  0
DICTIONARY
  5
C
330
0
100
AcDbDictionary
281
     1
  3
ACAD_GROUP
350
D
  3
ACAD_IMAGE_VARS
350
150
  3
ACAD_LAYOUT
350
1A
  3
ACAD_MLINESTYLE
350
17
  3
ACAD_PLOTSETTINGS
350
19
  3
ACAD_PLOTSTYLENAME
350
E
  3
ACAD_SCALELIST
350
47
  3
APPDATA
350
14E
  3
DWGPROPS
350
3E2
  0
DICTIONARY
  5
1D7
330
2
100
AcDbDictionary
280
     1
281
     1
  3
ACAD_LAYERSTATES
360
1D8
  0
DICTIONARY
  5
D
102
{ACAD_REACTORS
330
C
102
}
330
C
100
AcDbDictionary
281
     1
  0
RASTERVARIABLES
  5
150
102
{ACAD_REACTORS
330
C
102
}
330
C
100
AcDbRasterVariables
 90
        0
 70
     1
 71
     1
 72
     1
  0
DICTIONARY
  5
1A
102
{ACAD_REACTORS
330
C
102
}
330
C
100
AcDbDictionary
281
     1
  3
Layout1
350
1E
  3
Layout2
350
26
  3
Model
350
22
  0
DICTIONARY
  5
17
102
{ACAD_REACTORS
330
C
102
}
330
C
100
AcDbDictionary
281
     1
  3
Standard
350
18
  0
DICTIONARY
  5
19
102
{ACAD_REACTORS
330
C
102
}
330
C
100
AcDbDictionary
281
     1
  0
ACDBDICTIONARYWDFLT
  5
E
102
{ACAD_REACTORS
330
C
102
}
330
C
100
AcDbDictionary
281
     1
  3
Normal
350
F
100
AcDbDictionaryWithDefault
340
F
  0
DICTIONARY
  5
47
102
{ACAD_REACTORS
330
C
102
}
330
C
100
AcDbDictionary
281
     1
  3
A0
350
48
  3
A1
350
49
  3
A2
350
4A
  3
A3
350
4B
  3
A4
350
4C
  3
A5
350
4D
  3
A6
350
4E
  3
A7
350
4F
  3
A8
350
50
  3
A9
350
51
  3
B0
350
52
  3
B1
350
53
  3
B2
350
54
  3
B3
350
55
  3
B4
350
56
  3
B5
350
57
  3
B6
350
58
  3
B7
350
59
  3
B8
350
5A
  3
B9
350
5B
  3
C0
350
5C
  3
C1
350
5D
  3
C2
350
5E
  3
C3
350
5F
  3
C4
350
60
  3
C5
350
61
  3
C6
350
62
  3
C7
350
63
  3
C8
350
64
  3
C9
350
65
  3
D0
350
66
  3
D1
350
67
  3
D2
350
68
  0
DICTIONARY
  5
14E
102
{ACAD_REACTORS
330
C
102
}
330
C
100
AcDbDictionary
281
     1
  0
XRECORD
  5
3E2
102
{ACAD_REACTORS
330
C
102
}
330
C
100
AcDbXrecord
280
     1
  1
DWGPROPS COOKIE
  2

  3

  4

  6

  7

  8
12016016
  9

300
=
301
=
302
=
303
=
304
=
305
=
306
=
307
=
308
=
309
=
 40
0.0
 41
2458313.098142546
 42
2458319.121881204
  1

 90
        0
  0
DICTIONARY
  5
1D8
102
{ACAD_REACTORS
330
1D7
102
}
330
1D7
100
AcDbDictionary
281
     1
  0
LAYOUT
  5
1E
102
{ACAD_REACTORS
330
1A
102
}
330
1A
100
AcDbPlotSettings
  1

  2
none_device
  4

  6

 40
0.0
 41
0.0
 42
0.0
 43
0.0
 44
0.0
 45
0.0
 46
0.0
 47
0.0
 48
0.0
 49
0.0
140
0.0
141
0.0
142
1.0
143
1.0
 70
   688
 72
     1
 73
     0
 74
     5
  7

 75
    16
147
1.0
148
0.0
149
0.0
100
AcDbLayout
  1
Layout1
 70
     1
 71
     1
 10
0.0
 20
0.0
 11
420.0
 21
297.0
 12
0.0
 22
0.0
 32
0.0
 14
1.000000000000000E+20
 24
1.000000000000000E+20
 34
1.000000000000000E+20
 15
-1.000000000000000E+20
 25
-1.000000000000000E+20
 35
-1.000000000000000E+20
146
0.0
 13
0.0
 23
0.0
 33
0.0
 16
1.0
 26
0.0
 36
0.0
 17
0.0
 27
1.0
 37
0.0
 76
     0
330
1B
  0
LAYOUT
  5
26
102
{ACAD_REACTORS
330
1A
102
}
330
1A
100
AcDbPlotSettings
  1

  2
none_device
  4

  6

 40
0.0
 41
0.0
 42
0.0
 43
0.0
 44
0.0
 45
0.0
 46
0.0
 47
0.0
 48
0.0
 49
0.0
140
0.0
141
0.0
142
1.0
143
1.0
 70
   688
 72
     1
 73
     0
 74
     5
  7

 75
    16
147
1.0
148
0.0
149
0.0
100
AcDbLayout
  1
Layout2
 70
     1
 71
     2
 10
0.0
 20
0.0
 11
0.0
 21
0.0
 12
0.0
 22
0.0
 32
0.0
 14
0.0
 24
0.0
 34
0.0
 15
0.0
 25
0.0
 35
0.0
146
0.0
 13
0.0
 23
0.0
 33
0.0
 16
1.0
 26
0.0
 36
0.0
 17
0.0
 27
1.0
 37
0.0
 76
     0
330
23
  0
LAYOUT
  5
22
102
{ACAD_REACTORS
330
1A
102
}
330
1A
100
AcDbPlotSettings
  1

  2
none_device
  4
ANSI_A_(11.00_x_8.50_Inches)
  6

 40
6.35
 41
19.05
 42
6.35000508
 43
19.05000254
 44
279.4
 45
215.9
 46
61.47075058006796
 47
81.77925259486548
 48
0.0
 49
0.0
140
0.0
141
0.0
142
0.0418462529351176
143
1.0
 70
  1696
 72
     0
 73
     0
 74
     0
  7

 75
     0
147
0.0235690232323232
148
0.0
149
0.0
100
AcDbLayout
  1
Model
 70
     1
 71
     0
 10
0.0
 20
0.0
 11
420.0
 21
297.0
 12
0.0
 22
0.0
 32
0.0
 14
-68.96875000000007
 24
-49.97180738881174
 34
0.0
 15
81.41936447236121
 25
44.77431250000009
 35
0.0
146
0.0
 13
0.0
 23
0.0
 33
0.0
 16
1.0
 26
0.0
 36
0.0
 17
0.0
 27
1.0
 37
0.0
 76
     0
330
1F
331
29
  0
MLINESTYLE
  5
18
102
{ACAD_REACTORS
330
17
102
}
330
17
100
AcDbMlineStyle
  2
Standard
 70
     0
  3

 62
   256
 51
90.0
 52
90.0
 71
     2
 49
0.5
 62
   256
  6
BYLAYER
 49
-0.5
 62
   256
  6
BYLAYER
  0
ACDBPLACEHOLDER
  5
F
102
{ACAD_REACTORS
330
E
102
}
330
E
  0
SCALE
  5
48
102
{ACAD_REACTORS
330
47
102
}
330
47
100
AcDbScale
 70
     0
300
1:1
140
1.0
141
1.0
290
     1
  0
SCALE
  5
49
102
{ACAD_REACTORS
330
47
102
}
330
47
100
AcDbScale
 70
     0
300
1:2
140
1.0
141
2.0
290
     0
  0
SCALE
  5
4A
102
{ACAD_REACTORS
330
47
102
}
330
47
100
AcDbScale
 70
     0
300
1:4
140
1.0
141
4.0
290
     0
  0
SCALE
  5
4B
102
{ACAD_REACTORS
330
47
102
}
330
47
100
AcDbScale
 70
     0
300
1:5
140
1.0
141
5.0
290
     0
  0
SCALE
  5
4C
102
{ACAD_REACTORS
330
47
102
}
330
47
100
AcDbScale
 70
     0
300
1:8
140
1.0
141
8.0
290
     0
  0
SCALE
  5
4D
102
{ACAD_REACTORS
330
47
102
}
330
47
100
AcDbScale
 70
     0
300
1:10
140
1.0
141
10.0
290
     0
  0
SCALE
  5
4E
102
{ACAD_REACTORS
330
47
102
}
330
47
100
AcDbScale
 70
     0
300
1:16
140
1.0
141
16.0
290
     0
  0
SCALE
  5
4F
102
{ACAD_REACTORS
330
47
102
}
330
47
100
AcDbScale
 70
     0
300
1:20
140
1.0
141
20.0
290
     0
  0
SCALE
  5
50
102
{ACAD_REACTORS
330
47
102
}
330
47
100
AcDbScale
 70
     0
300
1:30
140
1.0
141
30.0
290
     0
  0
SCALE
  5
51
102
{ACAD_REACTORS
330
47
102
}
330
47
100
AcDbScale
 70
     0
300
1:40
140
1.0
141
40.0
290
     0
  0
SCALE
  5
52
102
{ACAD_REACTORS
330
47
102
}
330
47
100
AcDbScale
 70
     0
300
1:50
140
1.0
141
50.0
290
     0
  0
SCALE
  5
53
102
{ACAD_REACTORS
330
47
102
}
330
47
100
AcDbScale
 70
     0
300
1:100
140
1.0
141
100.0
290
     0
  0
SCALE
  5
54
102
{ACAD_REACTORS
330
47
102
}
330
47
100
AcDbScale
 70
     0
300
2:1
140
2.0
141
1.0
290
     0
  0
SCALE
  5
55
102
{ACAD_REACTORS
330
47
102
}
330
47
100
AcDbScale
 70
     0
300
4:1
140
4.0
141
1.0
290
     0
  0
SCALE
  5
56
102
{ACAD_REACTORS
330
47
102
}
330
47
100
AcDbScale
 70
     0
300
8:1
140
8.0
141
1.0
290
     0
  0
SCALE
  5
57
102
{ACAD_REACTORS
330
47
102
}
330
47
100
AcDbScale
 70
     0
300
10:1
140
10.0
141
1.0
290
     0
  0
SCALE
  5
58
102
{ACAD_REACTORS
330
47
102
}
330
47
100
AcDbScale
 70
     0
300
100:1
140
100.0
141
1.0
290
     0
  0
SCALE
  5
59
102
{ACAD_REACTORS
330
47
102
}
330
47
100
AcDbScale
 70
     0
300
1/128" = 1'-0"
140
0.0078125
141
12.0
290
     0
  0
SCALE
  5
5A
102
{ACAD_REACTORS
330
47
102
}
330
47
100
AcDbScale
 70
     0
300
1/64" = 1'-0"
140
0.015625
141
12.0
290
     0
  0
SCALE
  5
5B
102
{ACAD_REACTORS
330
47
102
}
330
47
100
AcDbScale
 70
     0
300
1/32" = 1'-0"
140
0.03125
141
12.0
290
     0
  0
SCALE
  5
5C
102
{ACAD_REACTORS
330
47
102
}
330
47
100
AcDbScale
 70
     0
300
1/16" = 1'-0"
140
0.0625
141
12.0
290
     0
  0
SCALE
  5
5D
102
{ACAD_REACTORS
330
47
102
}
330
47
100
AcDbScale
 70
     0
300
3/32" = 1'-0"
140
0.09375
141
12.0
290
     0
  0
SCALE
  5
5E
102
{ACAD_REACTORS
330
47
102
}
330
47
100
AcDbScale
 70
     0
300
1/8" = 1'-0"
140
0.125
141
12.0
290
     0
  0
SCALE
  5
5F
102
{ACAD_REACTORS
330
47
102
}
330
47
100
AcDbScale
 70
     0
300
3/16" = 1'-0"
140
0.1875
141
12.0
290
     0
  0
SCALE
  5
60
102
{ACAD_REACTORS
330
47
102
}
330
47
100
AcDbScale
 70
     0
300
1/4" = 1'-0"
140
0.25
141
12.0
290
     0
  0
SCALE
  5
61
102
{ACAD_REACTORS
330
47
102
}
330
47
100
AcDbScale
 70
     0
300
3/8" = 1'-0"
140
0.375
141
12.0
290
     0
  0
SCALE
  5
62
102
{ACAD_REACTORS
330
47
102
}
330
47
100
AcDbScale
 70
     0
300
1/2" = 1'-0"
140
0.5
141
12.0
290
     0
  0
SCALE
  5
63
102
{ACAD_REACTORS
330
47
102
}
330
47
100
AcDbScale
 70
     0
300
3/4" = 1'-0"
140
0.75
141
12.0
290
     0
  0
SCALE
  5
64
102
{ACAD_REACTORS
330
47
102
}
330
47
100
AcDbScale
 70
     0
300
1" = 1'-0"
140
1.0
141
12.0
290
     0
  0
SCALE
  5
65
102
{ACAD_REACTORS
330
47
102
}
330
47
100
AcDbScale
 70
     0
300
1-1/2" = 1'-0"
140
1.5
141
12.0
290
     0
  0
SCALE
  5
66
102
{ACAD_REACTORS
330
47
102
}
330
47
100
AcDbScale
 70
     0
300
3" = 1'-0"
140
3.0
141
12.0
290
     0
  0
SCALE
  5
67
102
{ACAD_REACTORS
330
47
102
}
330
47
100
AcDbScale
 70
     0
300
6" = 1'-0"
140
6.0
141
12.0
290
     0
  0
SCALE
  5
68
102
{ACAD_REACTORS
330
47
102
}
330
47
100
AcDbScale
 70
     0
300
1'-0" = 1'-0"
140
12.0
141
12.0
290
     0
  0
ENDSEC
  0
EOF
