  0
SECTION
  2
HEADER
  9
$ACADVER
  1
AC1015
  9
$ACADMAINTVER
 70
     6
  9
$DWGCODEPAGE
  3
ANSI_949
  9
$INSBASE
 10
0.0
 20
0.0
 30
0.0
  9
$EXTMIN
 10
-68.96875000000007
 20
-49.97180738881174
 30
0.0
  9
$EXTMAX
 10
81.41936447236121
 20
49.57185845482397
 30
0.0
  9
$LIMMIN
 10
0.0
 20
0.0
  9
$LIMMAX
 10
420.0
 20
297.0
  9
$ORTHOMODE
 70
     1
  9
$REGENMODE
 70
     1
  9
$FILLMODE
 70
     1
  9
$QTEXTMODE
 70
     0
  9
$MIRRTEXT
 70
     1
  9
$LTSCALE
 40
1.0
  9
$ATTMODE
 70
     1
  9
$TEXTSIZE
 40
3.5
  9
$TRACEWID
 40
1.0
  9
$TEXTSTYLE
  7
Standard
  9
$CLAYER
  8
0
  9
$CELTYPE
  6
ByLayer
  9
$CECOLOR
 62
   256
  9
$CELTSCALE
 40
1.0
  9
$DISPSILH
 70
     0
  9
$DIMSCALE
 40
1.0
  9
$DIMASZ
 40
3.302
  9
$DIMEXO
 40
1.0
  9
$DIMDLI
 40
3.75
  9
$DIMRND
 40
0.0
  9
$DIMDLE
 40
0.0
  9
$DIMEXE
 40
1.0
  9
$DIMTP
 40
0.0
  9
$DIMTM
 40
0.0
  9
$DIMTXT
 40
3.5
  9
$DIMCEN
 40
2.5
  9
$DIMTSZ
 40
0.0
  9
$DIMTOL
 70
     0
  9
$DIMLIM
 70
     0
  9
$DIMTIH
 70
     1
  9
$DIMTOH
 70
     1
  9
$DIMSE1
 70
     0
  9
$DIMSE2
 70
     0
  9
$DIMTAD
 70
     1
  9
$DIMZIN
 70
     0
  9
$DIMBLK
  1

  9
$DIMASO
 70
     1
  9
$DIMSHO
 70
     1
  9
$DIMPOST
  1

  9
$DIMAPOST
  1

  9
$DIMALT
 70
     0
  9
$DIMALTD
 70
     3
  9
$DIMALTF
 40
0.0393700787401575
  9
$DIMLFAC
 40
1.0
  9
$DIMTOFL
 70
     1
  9
$DIMTVP
 40
0.0
  9
$DIMTIX
 70
     0
  9
$DIMSOXD
 70
     0
  9
$DIMSAH
 70
     0
  9
$DIMBLK1
  1

  9
$DIMBLK2
  1

  9
$DIMSTYLE
  2
ISO-25
  9
$DIMCLRD
 70
     0
  9
$DIMCLRE
 70
     0
  9
$DIMCLRT
 70
     0
  9
$DIMTFAC
 40
1.0
  9
$DIMGAP
 40
1.524
  9
$DIMJUST
 70
     0
  9
$DIMSD1
 70
     0
  9
$DIMSD2
 70
     0
  9
$DIMTOLJ
 70
     0
  9
$DIMTZIN
 70
     0
  9
$DIMALTZ
 70
     0
  9
$DIMALTTZ
 70
     0
  9
$DIMUPT
 70
     0
  9
$DIMDEC
 70
     2
  9
$DIMTDEC
 70
     2
  9
$DIMALTU
 70
     2
  9
$DIMALTTD
 70
     3
  9
$DIMTXSTY
  7
Standard
  9
$DIMAUNIT
 70
     0
  9
$DIMADEC
 70
     2
  9
$DIMALTRND
 40
0.0
  9
$DIMAZIN
 70
     0
  9
$DIMDSEP
 70
    44
  9
$DIMATFIT
 70
     3
  9
$DIMFRAC
 70
     0
  9
$DIMLDRBLK
  1

  9
$DIMLUNIT
 70
     2
  9
$DIMLWD
 70
    -2
  9
$DIMLWE
 70
    -2
  9
$DIMTMOVE
 70
     0
  9
$LUNITS
 70
     2
  9
$LUPREC
 70
     2
  9
$SKETCHINC
 40
1.0
  9
$FILLETRAD
 40
10.0
  9
$AUNITS
 70
     0
  9
$AUPREC
 70
     2
  9
$MENU
  1
.
  9
$ELEVATION
 40
0.0
  9
$PELEVATION
 40
0.0
  9
$THICKNESS
 40
0.0
  9
$LIMCHECK
 70
     0
  9
$CHAMFERA
 40
0.0
  9
$CHAMFERB
 40
0.0
  9
$CHAMFERC
 40
0.0
  9
$CHAMFERD
 40
0.0
  9
$SKPOLY
 70
     0
  9
$TDCREATE
 40
2458313.473566146
  9
$TDUCREATE
 40
2458313.098566146
  9
$TDUPDATE
 40
2458319.496780926
  9
$TDUUPDATE
 40
2458319.121780926
  9
$TDINDWG
 40
0.0017786806
  9
$TDUSRTIMER
 40
2458319.121743079
  9
$USRTIMER
 70
     1
  9
$ANGBASE
 50
0.0
  9
$ANGDIR
 70
     0
  9
$PDMODE
 70
     0
  9
$PDSIZE
 40
-1.0
  9
$PLINEWID
 40
0.0
  9
$SPLFRAME
 70
     0
  9
$SPLINETYPE
 70
     6
  9
$SPLINESEGS
 70
     8
  9
$HANDSEED
  5
3E3
  9
$SURFTAB1
 70
     6
  9
$SURFTAB2
 70
     6
  9
$SURFTYPE
 70
     6
  9
$SURFU
 70
     6
  9
$SURFV
 70
     6
  9
$UCSBASE
  2

  9
$UCSNAME
  2

  9
$UCSORG
 10
0.0
 20
0.0
 30
0.0
  9
$UCSXDIR
 10
1.0
 20
0.0
 30
0.0
  9
$UCSYDIR
 10
0.0
 20
1.0
 30
0.0
  9
$UCSORTHOREF
  2

  9
$UCSORTHOVIEW
 70
     0
  9
$UCSORGTOP
 10
0.0
 20
0.0
 30
0.0
  9
$UCSORGBOTTOM
 10
0.0
 20
0.0
 30
0.0
  9
$UCSORGLEFT
 10
0.0
 20
0.0
 30
0.0
  9
$UCSORGRIGHT
 10
0.0
 20
0.0
 30
0.0
  9
$UCSORGFRONT
 10
0.0
 20
0.0
 30
0.0
  9
$UCSORGBACK
 10
0.0
 20
0.0
 30
0.0
  9
$PUCSBASE
  2

  9
$PUCSNAME
  2

  9
$PUCSORG
 10
0.0
 20
0.0
 30
0.0
  9
$PUCSXDIR
 10
1.0
 20
0.0
 30
0.0
  9
$PUCSYDIR
 10
0.0
 20
1.0
 30
0.0
  9
$PUCSORTHOREF
  2

  9
$PUCSORTHOVIEW
 70
     0
  9
$PUCSORGTOP
 10
0.0
 20
0.0
 30
0.0
  9
$PUCSORGBOTTOM
 10
0.0
 20
0.0
 30
0.0
  9
$PUCSORGLEFT
 10
0.0
 20
0.0
 30
0.0
  9
$PUCSORGRIGHT
 10
0.0
 20
0.0
 30
0.0
  9
$PUCSORGFRONT
 10
0.0
 20
0.0
 30
0.0
  9
$PUCSORGBACK
 10
0.0
 20
0.0
 30
0.0
  9
$USERI1
 70
     0
  9
$USERI2
 70
     0
  9
$USERI3
 70
     0
  9
$USERI4
 70
     0
  9
$USERI5
 70
     0
  9
$USERR1
 40
0.0
  9
$USERR2
 40
0.0
  9
$USERR3
 40
0.0
  9
$USERR4
 40
0.0
  9
$USERR5
 40
0.0
  9
$WORLDVIEW
 70
     1
  9
$SHADEDGE
 70
     3
  9
$SHADEDIF
 70
    70
  9
$TILEMODE
 70
     1
  9
$MAXACTVP
 70
    64
  9
$PINSBASE
 10
0.0
 20
0.0
 30
0.0
  9
$PLIMCHECK
 70
     0
  9
$PEXTMIN
 10
1.000000000000000E+20
 20
1.000000000000000E+20
 30
1.000000000000000E+20
  9
$PEXTMAX
 10
-1.000000000000000E+20
 20
-1.000000000000000E+20
 30
-1.000000000000000E+20
  9
$PLIMMIN
 10
0.0
 20
0.0
  9
$PLIMMAX
 10
0.0
 20
0.0
  9
$UNITMODE
 70
     0
  9
$VISRETAIN
 70
     1
  9
$PLINEGEN
 70
     0
  9
$PSLTSCALE
 70
     1
  9
$TREEDEPTH
 70
  3020
  9
$CMLSTYLE
  2
Standard
  9
$CMLJUST
 70
     0
  9
$CMLSCALE
 40
20.0
  9
$PROXYGRAPHICS
 70
     1
  9
$MEASUREMENT
 70
     1
  9
$CELWEIGHT
370
    -1
  9
$ENDCAPS
280
     0
  9
$JOINSTYLE
280
     0
  9
$LWDISPLAY
290
     1
  9
$INSUNITS
 70
     4
  9
$HYPERLINKBASE
  1

  9
$STYLESHEET
  1

  9
$XEDIT
290
     1
  9
$CEPSNTYPE
380
     0
  9
$PSTYLEMODE
290
     1
  9
$FINGERPRINTGUID
  2
{64E1863D-8D6C-4C1B-90F5-9F86FDAC6F49}
  9
$VERSIONGUID
  2
{FAEB1C32-E019-11D5-929B-00C0DF256EC4}
  9
$EXTNAMES
290
     1
  9
$PSVPSCALE
 40
0.0
  9
$OLESTARTUP
290
     0
  0
ENDSEC
  0
SECTION
  2
CLASSES
  0
CLASS
  1
ACDBDICTIONARYWDFLT
  2
AcDbDictionaryWithDefault
  3
ObjectDBX Classes
 90
        0
280
     0
281
     0
  0
CLASS
  1
VISUALSTYLE
  2
AcDbVisualStyle
  3
ObjectDBX Classes
 90
     4095
280
     0
281
     0
  0
CLASS
  1
MATERIAL
  2
AcDbMaterial
  3
ObjectDBX Classes
 90
     1153
280
     0
281
     0
  0
CLASS
  1
SCALE
  2
AcDbScale
  3
ObjectDBX Classes
 90
     1153
280
     0
281
     0
  0
CLASS
  1
SUN
  2
AcDbSun
  3
SCENEOE
 90
     1153
280
     0
281
     0
  0
CLASS
  1
ACDBPLACEHOLDER
  2
AcDbPlaceHolder
  3
ObjectDBX Classes
 90
        0
280
     0
281
     0
  0
CLASS
  1
LAYOUT
  2
AcDbLayout
  3
ObjectDBX Classes
 90
        0
280
     0
281
     0
  0
CLASS
  1
TABLESTYLE
  2
AcDbTableStyle
  3
ObjectDBX Classes
 90
     4095
280
     0
281
     0
  0
CLASS
  1
MLEADERSTYLE
  2
AcDbMLeaderStyle
  3
ACDB_MLEADERSTYLE_CLASS
 90
     4095
280
     0
281
     0
  0
CLASS
  1
RASTERVARIABLES
  2
AcDbRasterVariables
  3
ISM
 90
        0
280
     0
281
     0
  0
ENDSEC
  0
SECTION
  2
TABLES
  0
TABLE
  2
VPORT
  5
8
330
0
100
AcDbSymbolTable
 70
     1
  0
VPORT
  5
29
330
8
100
AcDbSymbolTableRecord
100
AcDbViewportTableRecord
  2
*Active
 70
     0
 10
0.0
 20
0.0
 11
1.0
 21
1.0
 12
-0.1089396307620198
 22
-8.59374933776885
 13
0.0
 23
0.0
 14
10.0
 24
10.0
 15
10.0
 25
10.0
 16
0.0
 26
0.0
 36
1.0
 17
0.0
 27
0.0
 37
0.0
 40
130.1116883068836
 41
1.632093933463796
 42
50.0
 43
0.0
 44
0.0
 50
0.0
 51
0.0
 71
    16
 72
  2000
 73
     1
 74
     3
 75
     0
 76
     0
 77
     0
 78
     0
281
     0
 65
     1
110
0.0
120
0.0
130
0.0
111
1.0
121
0.0
131
0.0
112
0.0
122
1.0
132
0.0
 79
     0
146
0.0
  0
ENDTAB
  0
TABLE
  2
LTYPE
  5
5
330
0
100
AcDbSymbolTable
 70
     6
  0
LTYPE
  5
14
330
5
100
AcDbSymbolTableRecord
100
AcDbLinetypeTableRecord
  2
ByBlock
 70
     0
  3

 72
    65
 73
     0
 40
0.0
  0
LTYPE
  5
15
330
5
100
AcDbSymbolTableRecord
100
AcDbLinetypeTableRecord
  2
ByLayer
 70
     0
  3

 72
    65
 73
     0
 40
0.0
  0
LTYPE
  5
16
330
5
100
AcDbSymbolTableRecord
100
AcDbLinetypeTableRecord
  2
Continuous
 70
     0
  3
Solid line
 72
    65
 73
     0
 40
0.0
  0
LTYPE
  5
6A
330
5
100
AcDbSymbolTableRecord
100
AcDbLinetypeTableRecord
  2
HIDDEN
 70
     0
  3
Hidden __ __ __ __ __ __ __ __ __ __ __ __ __ __
 72
    65
 73
     2
 40
1.905
 49
1.27
 74
     0
 49
-0.635
 74
     0
  0
LTYPE
  5
6B
330
5
100
AcDbSymbolTableRecord
100
AcDbLinetypeTableRecord
  2
PHANTOM
 70
     0
  3
Phantom ______  __  __  ______  __  __  ______
 72
    65
 73
     6
 40
12.7
 49
6.35
 74
     0
 49
-1.27
 74
     0
 49
1.27
 74
     0
 49
-1.27
 74
     0
 49
1.27
 74
     0
 49
-1.27
 74
     0
  0
LTYPE
  5
6C
330
5
100
AcDbSymbolTableRecord
100
AcDbLinetypeTableRecord
  2
CENTER
 70
     0
  3
Center ____ _ ____ _ ____ _ ____ _ ____ _ ____
 72
    65
 73
     4
 40
10.16
 49
6.35
 74
     0
 49
-1.27
 74
     0
 49
1.27
 74
     0
 49
-1.27
 74
     0
  0
LTYPE
  5
6D
330
5
100
AcDbSymbolTableRecord
100
AcDbLinetypeTableRecord
  2
CENTERX2
 70
     0
  3
Center (2x) ________  __  ________  __  _____
 72
    65
 73
     4
 40
20.32
 49
12.7
 74
     0
 49
-2.54
 74
     0
 49
2.54
 74
     0
 49
-2.54
 74
     0
  0
LTYPE
  5
6E
330
5
100
AcDbSymbolTableRecord
100
AcDbLinetypeTableRecord
  2
DOT2
 70
     0
  3
Dot (.5x) ........................................
 72
    65
 73
     2
 40
0.635
 49
0.0
 74
     0
 49
-0.635
 74
     0
  0
ENDTAB
  0
TABLE
  2
LAYER
  5
2
102
{ACAD_XDICTIONARY
360
1D7
102
}
330
0
100
AcDbSymbolTable
 70
    18
  0
LAYER
  5
10
330
2
100
AcDbSymbolTableRecord
100
AcDbLayerTableRecord
  2
0
 70
     0
 62
     7
  6
Continuous
370
    -3
390
F
  0
LAYER
  5
6F
330
2
100
AcDbSymbolTableRecord
100
AcDbLayerTableRecord
  2
FORMAT
 70
     0
 62
     2
  6
Continuous
370
    -3
390
F
  0
LAYER
  5
70
330
2
100
AcDbSymbolTableRecord
100
AcDbLayerTableRecord
  2
외형선
 70
     0
 62
     4
  6
Continuous
370
    30
390
F
  0
LAYER
  5
71
330
2
100
AcDbSymbolTableRecord
100
AcDbLayerTableRecord
  2
숨은선
 70
     0
 62
     2
  6
HIDDEN
370
    15
390
F
  0
LAYER
  5
72
330
2
100
AcDbSymbolTableRecord
100
AcDbLayerTableRecord
  2
중심선
 70
     0
 62
     1
  6
CENTERX2
370
    -3
390
F
  0
LAYER
  5
73
330
2
100
AcDbSymbolTableRecord
100
AcDbLayerTableRecord
  2
파단선
 70
     0
 62
     4
  6
Continuous
370
    -3
390
F
  0
LAYER
  5
74
330
2
100
AcDbSymbolTableRecord
100
AcDbLayerTableRecord
  2
해칭선
 70
     0
 62
   100
  6
Continuous
370
    -3
390
F
  0
LAYER
  5
75
330
2
100
AcDbSymbolTableRecord
100
AcDbLayerTableRecord
  2
가는실선
 70
     0
 62
     4
  6
Continuous
370
    -3
390
F
  0
LAYER
  5
76
330
2
100
AcDbSymbolTableRecord
100
AcDbLayerTableRecord
  2
치수_보조선
 70
     0
 62
     4
  6
Continuous
370
    -3
390
F
  0
LAYER
  5
77
330
2
100
AcDbSymbolTableRecord
100
AcDbLayerTableRecord
  2
치수문자_일반주서
 70
     0
 62
     7
  6
Continuous
370
    15
390
F
  0
LAYER
  5
78
330
2
100
AcDbSymbolTableRecord
100
AcDbLayerTableRecord
  2
개별주서
 70
     0
 62
   100
  6
Continuous
370
    30
390
F
  0
LAYER
  5
79
330
2
100
AcDbSymbolTableRecord
100
AcDbLayerTableRecord
  2
중간선
 70
     0
 62
     2
  6
Continuous
370
    15
390
F
  0
LAYER
  5
7A
330
2
100
AcDbSymbolTableRecord
100
AcDbLayerTableRecord
  2
윤곽선
 70
     0
 62
     3
  6
Continuous
370
    40
390
F
  0
LAYER
  5
7B
330
2
100
AcDbSymbolTableRecord
100
AcDbLayerTableRecord
  2
중심마크
 70
     0
 62
   100
  6
Continuous
370
    30
390
F
  0
LAYER
  5
7C
330
2
100
AcDbSymbolTableRecord
100
AcDbLayerTableRecord
  2
가상선
 70
     0
 62
     4
  6
PHANTOM
370
    -3
390
F
  0
LAYER
  5
7D
330
2
100
AcDbSymbolTableRecord
100
AcDbLayerTableRecord
  2
특수지정선
 70
     0
 62
     5
  6
CENTERX2
370
    60
390
F
  0
LAYER
  5
7E
330
2
100
AcDbSymbolTableRecord
100
AcDbLayerTableRecord
  2
참조1
 70
     0
 62
    -4
  6
Continuous
370
    -3
390
F
  0
LAYER
  5
152
330
2
100
AcDbSymbolTableRecord
100
AcDbLayerTableRecord
  2
Defpoints
 70
     0
 62
     7
  6
Continuous
290
     0
370
    -3
390
F
  0
ENDTAB
  0
TABLE
  2
STYLE
  5
3
330
0
100
AcDbSymbolTable
 70
     2
  0
STYLE
  5
11
330
3
100
AcDbSymbolTableRecord
100
AcDbTextStyleTableRecord
  2
Standard
 70
     0
 40
0.0
 41
1.0
 50
0.0
 71
     0
 42
3.5
  3
txt
  4

  0
STYLE
  5
94
330
3
100
AcDbSymbolTableRecord
100
AcDbTextStyleTableRecord
  2
SLDTEXTSTYLE0
 70
     0
 40
0.0
 41
0.75
 50
0.0
 71
     0
 42
3.5
  3
TXT
  4

  0
ENDTAB
  0
TABLE
  2
VIEW
  5
6
330
0
100
AcDbSymbolTable
 70
     0
  0
ENDTAB
  0
TABLE
  2
UCS
  5
7
330
0
100
AcDbSymbolTable
 70
     0
  0
ENDTAB
  0
TABLE
  2
APPID
  5
9
330
0
100
AcDbSymbolTable
 70
     1
  0
APPID
  5
12
330
9
100
AcDbSymbolTableRecord
100
AcDbRegAppTableRecord
  2
ACAD
 70
     0
  0
ENDTAB
  0
TABLE
  2
DIMSTYLE
  5
A
330
0
100
AcDbSymbolTable
 70
     4
100
AcDbDimStyleTable
  0
DIMSTYLE
105
27
330
A
100
AcDbSymbolTableRecord
100
AcDbDimStyleTableRecord
  2
ISO-25
 70
     0
 41
2.5
 42
0.625
 43
3.75
 44
1.25
 73
     0
 74
     0
 77
     1
 78
     8
140
2.5
141
2.5
143
0.03937007874016
147
0.625
171
     3
172
     1
178
     0
271
     2
272
     2
274
     3
278
    44
283
     0
284
     8
340
11
  0
DIMSTYLE
105
CF
330
A
100
AcDbSymbolTableRecord
100
AcDbDimStyleTableRecord
  2
SLDDIMSTYLE0
 70
     0
 41
3.302
 44
0.0
 45
0.000000001
 73
     0
 74
     0
 77
     1
 78
    12
 79
     3
140
3.5
143
0.0393700787401575
147
0.875
148
0.000000001
170
     1
173
     1
178
     0
271
     2
272
     2
276
     2
284
    12
340
94
  0
DIMSTYLE
105
E3
330
A
100
AcDbSymbolTableRecord
100
AcDbDimStyleTableRecord
  2
SLDDIMSTYLE1
 70
     0
 41
3.302
 44
0.0
 45
0.000000001
 73
     0
 74
     0
 77
     1
 78
     4
 79
     1
140
3.5
143
0.0393700787401575
147
0.875
148
0.000000001
170
     1
173
     1
178
     0
271
     2
272
     2
276
     2
284
    12
340
94
  0
DIMSTYLE
105
10B
102
{ACAD_REACTORS
330
10A
330
CE
330
E2
330
F7
102
}
330
A
100
AcDbSymbolTableRecord
100
AcDbDimStyleTableRecord
  2
SLDDIMSTYLE2
 70
     0
 41
3.302
 44
0.0
 45
0.000000001
 73
     0
 74
     0
 77
     1
 78
     4
 79
     1
140
3.5
143
0.0393700787401575
147
0.875
148
0.000000001
170
     1
172
     1
173
     1
178
     0
271
     2
272
     2
276
     2
284
    12
289
     0
340
94
  0
ENDTAB
  0
TABLE
  2
BLOCK_RECORD
  5
1
330
0
100
AcDbSymbolTable
 70
    19
  0
BLOCK_RECORD
  5
1F
330
1
100
AcDbSymbolTableRecord
100
AcDbBlockTableRecord
  2
*Model_Space
340
22
  0
BLOCK_RECORD
  5
1B
330
1
100
AcDbSymbolTableRecord
100
AcDbBlockTableRecord
  2
*Paper_Space
340
1E
  0
BLOCK_RECORD
  5
23
330
1
100
AcDbSymbolTableRecord
100
AcDbBlockTableRecord
  2
*Paper_Space0
340
26
  0
BLOCK_RECORD
  5
7F
330
1
100
AcDbSymbolTableRecord
100
AcDbBlockTableRecord
  2
블럭10
340
0
102
{BLKREFS
331
C7
102
}
  0
BLOCK_RECORD
  5
D0
330
1
100
AcDbSymbolTableRecord
100
AcDbBlockTableRecord
  2
_D
340
0
  0
BLOCK_RECORD
  5
E4
330
1
100
AcDbSymbolTableRecord
100
AcDbBlockTableRecord
  2
_D_1
340
0
  0
BLOCK_RECORD
  5
F8
330
1
100
AcDbSymbolTableRecord
100
AcDbBlockTableRecord
  2
_D_2
340
0
  0
BLOCK_RECORD
  5
10C
330
1
100
AcDbSymbolTableRecord
100
AcDbBlockTableRecord
  2
_D_3
340
0
  0
BLOCK_RECORD
  5
126
330
1
100
AcDbSymbolTableRecord
100
AcDbBlockTableRecord
  2
SW_DOWELSYMBOL_0
340
0
102
{BLKREFS
331
12C
102
}
  0
BLOCK_RECORD
  5
1DB
330
1
100
AcDbSymbolTableRecord
100
AcDbBlockTableRecord
  2
*D7
340
0
  0
BLOCK_RECORD
  5
1EA
330
1
100
AcDbSymbolTableRecord
100
AcDbBlockTableRecord
  2
*D8
340
0
  0
BLOCK_RECORD
  5
1F9
330
1
100
AcDbSymbolTableRecord
100
AcDbBlockTableRecord
  2
*D9
340
0
  0
BLOCK_RECORD
  5
232
330
1
100
AcDbSymbolTableRecord
100
AcDbBlockTableRecord
  2
*D10
340
0
  0
BLOCK_RECORD
  5
241
330
1
100
AcDbSymbolTableRecord
100
AcDbBlockTableRecord
  2
*D11
340
0
  0
BLOCK_RECORD
  5
250
330
1
100
AcDbSymbolTableRecord
100
AcDbBlockTableRecord
  2
*D12
340
0
  0
BLOCK_RECORD
  5
2EB
330
1
100
AcDbSymbolTableRecord
100
AcDbBlockTableRecord
  2
*D13
340
0
  0
BLOCK_RECORD
  5
2FA
330
1
100
AcDbSymbolTableRecord
100
AcDbBlockTableRecord
  2
*D14
340
0
  0
BLOCK_RECORD
  5
309
330
1
100
AcDbSymbolTableRecord
100
AcDbBlockTableRecord
  2
*D15
340
0
  0
BLOCK_RECORD
  5
343
330
1
100
AcDbSymbolTableRecord
100
AcDbBlockTableRecord
  2
*D16
340
0
  0
BLOCK_RECORD
  5
352
330
1
100
AcDbSymbolTableRecord
100
AcDbBlockTableRecord
  2
*D17
340
0
  0
BLOCK_RECORD
  5
361
330
1
100
AcDbSymbolTableRecord
100
AcDbBlockTableRecord
  2
*D18
340
0
  0
ENDTAB
  0
ENDSEC
  0
SECTION
  2
BLOCKS
  0
BLOCK
  5
20
330
1F
100
AcDbEntity
  8
0
100
AcDbBlockBegin
  2
*Model_Space
 70
     0
 10
0.0
 20
0.0
 30
0.0
  3
*Model_Space
  1
*Model_Space
  0
ENDBLK
  5
21
330
1F
100
AcDbEntity
  8
0
100
AcDbBlockEnd
  0
BLOCK
  5
1C
330
1B
100
AcDbEntity
 67
     1
  8
0
100
AcDbBlockBegin
  2
*Paper_Space
 70
     0
 10
0.0
 20
0.0
 30
0.0
  3
*Paper_Space
  1
*Paper_Space
  0
ENDBLK
  5
1D
330
1B
100
AcDbEntity
 67
     1
  8
0
100
AcDbBlockEnd
  0
BLOCK
  5
24
330
23
100
AcDbEntity
  8
0
100
AcDbBlockBegin
  2
*Paper_Space0
 70
     0
 10
0.0
 20
0.0
 30
0.0
  3
*Paper_Space0
  1
*Paper_Space0
  0
ENDBLK
  5
25
330
23
100
AcDbEntity
  8
0
100
AcDbBlockEnd
  0
BLOCK
  5
80
330
7F
100
AcDbEntity
  8
0
100
AcDbBlockBegin
  2
블럭10
 70
     2
 10
0.0
 20
0.0
 30
0.0
  3
블럭10
  1
블럭10
  0
ELLIPSE
  5
82
330
7F
100
AcDbEntity
  8
중심선
100
AcDbEllipse
 10
20.54032771741204
 20
12.0471743016438
 30
0.0
 11
6.600054785286829
 21
-1.261213355974178E-13
 31
0.0
210
0.0
220
0.0
230
1.0
 40
0.636358354079598
 41
0.9219305317359503
 42
6.513795318482858
  0
ELLIPSE
  5
83
330
7F
100
AcDbEntity
  8
중심선
100
AcDbEllipse
 10
20.54032771746488
 20
12.04717430159265
 30
0.0
 11
3.960054785062283
 21
1.540847449632565E-10
 31
0.0
210
0.0
220
0.0
230
1.0
 40
0.3939339440162632
 41
1.131841032648279
 42
5.62031148352944
  0
LINE
  5
84
330
7F
100
AcDbEntity
  8
중심선
100
AcDbLine
 10
2.268634060543552
 20
16.24717430164393
 30
0.0
 11
5.714909304380834
 21
16.24717430164393
 31
0.0
  0
LINE
  5
85
330
7F
100
AcDbEntity
  8
중심선
100
AcDbLine
 10
5.245725140726316
 20
7.84717430164391
 30
0.0
 11
8.692000384563599
 21
7.84717430164391
 31
0.0
  0
LINE
  5
86
330
7F
100
AcDbEntity
  8
중심선
100
AcDbLine
 10
15.74043728645272
 20
16.24717430164393
 30
0.0
 11
8.692000384563599
 21
7.84717430164391
 31
0.0
  0
LINE
  5
87
330
7F
100
AcDbEntity
  8
중심선
100
AcDbLine
 10
0.1404042013395286
 20
13.71084872107135
 30
0.0
 11
3.58671253028996
 21
13.71088815037384
 31
0.0
  0
LINE
  5
88
330
7F
100
AcDbEntity
  8
중심선
100
AcDbLine
 10
2.750260043222114
 20
10.84717430164391
 30
0.0
 11
6.196535287059397
 21
10.84717430164391
 31
0.0
  0
LINE
  5
89
330
7F
100
AcDbEntity
  8
중심선
100
AcDbLine
 10
12.29416204261559
 20
16.24717430164393
 30
0.0
 11
5.245725140726316
 21
7.84717430164391
 31
0.0
  0
LINE
  5
8A
330
7F
100
AcDbEntity
  8
중심선
100
AcDbLine
 10
10.72767329541681
 20
16.24717430164393
 30
0.0
 11
6.196535287059397
 21
10.84717430164391
 31
0.0
  0
LINE
  5
8B
330
7F
100
AcDbEntity
  8
중심선
100
AcDbLine
 10
7.28139805157953
 20
16.24717430164393
 30
0.0
 11
2.750260043222114
 21
10.84717430164391
 31
0.0
  0
LINE
  5
8C
330
7F
100
AcDbEntity
  8
중심선
100
AcDbLine
 10
5.714909304380834
 20
16.24717430164393
 30
0.0
 11
3.58671253028996
 21
13.71088815037384
 31
0.0
  0
LINE
  5
8D
330
7F
100
AcDbEntity
  8
중심선
100
AcDbLine
 10
2.268634060543552
 20
16.24717430164393
 30
0.0
 11
0.1404042013395286
 21
13.71084872107135
 31
0.0
  0
LINE
  5
8E
330
7F
100
AcDbEntity
  8
중심선
100
AcDbLine
 10
7.28139805157953
 20
16.24717430164393
 30
0.0
 11
10.72767329541681
 21
16.24717430164393
 31
0.0
  0
LINE
  5
8F
330
7F
100
AcDbEntity
  8
중심선
100
AcDbLine
 10
12.29416204261559
 20
16.24717430164393
 30
0.0
 11
15.74043728645272
 21
16.24717430164393
 31
0.0
  0
LINE
  5
90
330
7F
100
AcDbEntity
  8
중심선
100
AcDbLine
 10
19.22036997980202
 20
11.08717430171403
 30
0.0
 11
23.66174974927406
 21
11.08717430171406
 31
0.0
  0
LINE
  5
91
330
7F
100
AcDbEntity
  8
중심선
100
AcDbLine
 10
19.22039502424796
 20
13.00717430171391
 30
0.0
 11
19.22036997980202
 21
11.08717430171403
 31
0.0
  0
LINE
  5
92
330
7F
100
AcDbEntity
  8
중심선
100
AcDbLine
 10
19.22039502424796
 20
13.00717430171391
 30
0.0
 11
26.96566020931264
 21
13.00717430171391
 31
0.0
  0
LINE
  5
93
330
7F
100
AcDbEntity
  8
중심선
100
AcDbLine
 10
22.22332737316547
 20
13.45928029700563
 30
0.0
 11
24.52862924686651
 21
15.39360700705356
 31
0.0
  0
ATTDEF
  5
95
330
7F
100
AcDbEntity
  8
FORMAT
 62
     2
100
AcDbText
 10
4.408487351596664
 20
2.075366912832191
 30
0.0
 40
4.233333333333333
  1
E1053029
 41
0.75
  7
SLDTEXTSTYLE0
 11
4.408487351596664
 21
-0.0412997538344756
 31
0.0
100
AcDbAttributeDefinition
  3

  2
AUTOATTR0
 70
     0
 74
     1
  0
ENDBLK
  5
81
330
7F
100
AcDbEntity
  8
0
100
AcDbBlockEnd
  0
BLOCK
  5
D1
330
D0
100
AcDbEntity
  8
0
100
AcDbBlockBegin
  2
_D
 70
     0
 10
0.0
 20
0.0
 30
0.0
  3
_D
  1
_D
  0
LINE
  5
D3
330
D0
100
AcDbEntity
  8
치수문자_일반주서
 62
     0
370
    -2
100
AcDbLine
 10
52.44999999999998
 20
5.754687500000006
 30
0.0
 11
67.2806210795603
 21
5.75468750000006
 31
0.0
  0
LINE
  5
D4
330
D0
100
AcDbEntity
  8
치수문자_일반주서
 62
     0
370
    -2
100
AcDbLine
 10
52.44999999999998
 20
-5.754687499999993
 30
0.0
 11
67.28062107956035
 21
-5.754687499999939
 31
0.0
  0
LINE
  5
D5
330
D0
100
AcDbEntity
  8
치수문자_일반주서
 62
     0
370
    -2
100
AcDbLine
 10
67.2806210795603
 20
5.75468750000006
 30
0.0
 11
67.28062107956015
 21
49.57185845482397
 31
0.0
  0
LINE
  5
D6
330
D0
100
AcDbEntity
  8
치수문자_일반주서
 62
     0
370
    -2
100
AcDbLine
 10
67.2806210795603
 20
5.75468750000006
 30
0.0
 11
67.28062107956035
 21
-5.754687499999939
 31
0.0
  0
LINE
  5
D7
330
D0
100
AcDbEntity
  8
치수문자_일반주서
 62
     0
370
    -2
100
AcDbLine
 10
67.28062107956029
 20
9.05668750000006
 30
0.0
 11
67.28062107956028
 21
12.35868750000006
 31
0.0
  0
LINE
  5
D8
330
D0
100
AcDbEntity
  8
치수문자_일반주서
 62
     0
370
    -2
100
AcDbLine
 10
67.28062107956036
 20
-9.056687499999938
 30
0.0
 11
67.28062107956038
 21
-12.35868749999994
 31
0.0
  0
SOLID
  5
D9
330
D0
100
AcDbEntity
  8
치수문자_일반주서
 62
     0
100
AcDbTrace
 10
66.73028774622696
 20
9.056687500000058
 30
0.0
 11
67.83095441289362
 21
9.056687500000061
 31
0.0
 12
67.2806210795603
 22
5.75468750000006
 32
0.0
 13
67.2806210795603
 23
5.75468750000006
 33
0.0
  0
SOLID
  5
DA
330
D0
100
AcDbEntity
  8
치수문자_일반주서
 62
     0
100
AcDbTrace
 10
67.83095441289369
 20
-9.056687499999937
 30
0.0
 11
66.73028774622703
 21
-9.05668749999994
 31
0.0
 12
67.28062107956035
 22
-5.754687499999939
 32
0.0
 13
67.28062107956035
 23
-5.754687499999939
 33
0.0
  0
MTEXT
  5
DB
330
D0
100
AcDbEntity
  8
치수문자_일반주서
 62
     0
100
AcDbMText
 10
62.90562107956021
 20
33.82185845482395
 30
0.0
 40
3.5
 41
0.0
 71
     2
 72
     1
  1
\A1;%%c11.51 [29/64]
  7
SLDTEXTSTYLE0
 11
-3.704159795436852E-15
 21
1.0
 31
0.0
 73
     1
 44
1.0
  0
POINT
  5
DC
330
D0
100
AcDbEntity
  8
Defpoints
 62
     0
100
AcDbPoint
 10
52.38749999999998
 20
5.754687500000006
 30
0.0
  0
POINT
  5
25C
330
D0
100
AcDbEntity
  8
Defpoints
 62
     0
100
AcDbPoint
 10
52.38749999999998
 20
-5.754687499999993
 30
0.0
  0
POINT
  5
25D
330
D0
100
AcDbEntity
  8
Defpoints
 62
     0
100
AcDbPoint
 10
67.28062107956035
 20
-5.754687499999937
 30
0.0
  0
ENDBLK
  5
D2
330
D0
100
AcDbEntity
  8
0
100
AcDbBlockEnd
  0
BLOCK
  5
E5
330
E4
100
AcDbEntity
  8
0
100
AcDbBlockBegin
  2
_D_1
 70
     0
 10
0.0
 20
0.0
 30
0.0
  3
_D_1
  1
_D_1
  0
LINE
  5
E7
330
E4
100
AcDbEntity
  8
치수문자_일반주서
 62
     0
370
    -2
100
AcDbLine
 10
52.38749999999998
 20
5.817187500000006
 30
0.0
 11
52.38749999999998
 21
21.38915829707533
 31
0.0
  0
LINE
  5
E8
330
E4
100
AcDbEntity
  8
치수문자_일반주서
 62
     0
370
    -2
100
AcDbLine
 10
26.9875
 20
5.747829631231709
 30
0.0
 11
26.9875
 21
21.38915829707533
 31
0.0
  0
LINE
  5
E9
330
E4
100
AcDbEntity
  8
치수문자_일반주서
 62
     0
370
    -2
100
AcDbLine
 10
26.9875
 20
21.38915829707533
 30
0.0
 11
-3.732013696563108
 21
21.38915829707533
 31
0.0
  0
LINE
  5
EA
330
E4
100
AcDbEntity
  8
치수문자_일반주서
 62
     0
370
    -2
100
AcDbLine
 10
52.38749999999998
 20
21.38915829707533
 30
0.0
 11
26.9875
 21
21.38915829707533
 31
0.0
  0
LINE
  5
EB
330
E4
100
AcDbEntity
  8
치수문자_일반주서
 62
     0
370
    -2
100
AcDbLine
 10
55.68949999999998
 20
21.38915829707533
 30
0.0
 11
58.99149999999998
 21
21.38915829707533
 31
0.0
  0
LINE
  5
EC
330
E4
100
AcDbEntity
  8
치수문자_일반주서
 62
     0
370
    -2
100
AcDbLine
 10
23.6855
 20
21.38915829707533
 30
0.0
 11
20.3835
 21
21.38915829707533
 31
0.0
  0
SOLID
  5
ED
330
E4
100
AcDbEntity
  8
치수문자_일반주서
 62
     0
100
AcDbTrace
 10
55.68949999999998
 20
21.93949163040866
 30
0.0
 11
55.68949999999998
 21
20.83882496374199
 31
0.0
 12
52.38749999999998
 22
21.38915829707533
 32
0.0
 13
52.38749999999998
 23
21.38915829707533
 33
0.0
  0
SOLID
  5
EE
330
E4
100
AcDbEntity
  8
치수문자_일반주서
 62
     0
100
AcDbTrace
 10
23.6855
 20
20.83882496374199
 30
0.0
 11
23.6855
 21
21.93949163040866
 31
0.0
 12
26.9875
 22
21.38915829707533
 32
0.0
 13
26.9875
 23
21.38915829707533
 33
0.0
  0
MTEXT
  5
EF
330
E4
100
AcDbEntity
  8
치수문자_일반주서
 62
     0
100
AcDbMText
 10
6.111736303436892
 20
25.76415829707533
 30
0.0
 40
3.5
 41
0.0
 71
     2
 72
     1
  1
\A1;25.40 [1]
  7
SLDTEXTSTYLE0
 73
     1
 44
1.0
  0
POINT
  5
F0
330
E4
100
AcDbEntity
  8
Defpoints
 62
     0
100
AcDbPoint
 10
52.38749999999998
 20
5.754687500000006
 30
0.0
  0
POINT
  5
25E
330
E4
100
AcDbEntity
  8
Defpoints
 62
     0
100
AcDbPoint
 10
26.9875
 20
5.685329631231709
 30
0.0
  0
POINT
  5
25F
330
E4
100
AcDbEntity
  8
Defpoints
 62
     0
100
AcDbPoint
 10
26.9875
 20
21.38915829707533
 30
0.0
  0
ENDBLK
  5
E6
330
E4
100
AcDbEntity
  8
0
100
AcDbBlockEnd
  0
BLOCK
  5
F9
330
F8
100
AcDbEntity
  8
0
100
AcDbBlockBegin
  2
_D_2
 70
     0
 10
0.0
 20
0.0
 30
0.0
  3
_D_2
  1
_D_2
  0
LINE
  5
FB
330
F8
100
AcDbEntity
  8
치수문자_일반주서
 62
     0
370
    -2
100
AcDbLine
 10
52.38749999999998
 20
5.817187500000006
 30
0.0
 11
52.38749999999998
 21
38.79493851792343
 31
0.0
  0
LINE
  5
FC
330
F8
100
AcDbEntity
  8
치수문자_일반주서
 62
     0
370
    -2
100
AcDbLine
 10
-52.38749999999998
 20
5.817187499999988
 30
0.0
 11
-52.38749999999998
 21
38.79493851792343
 31
0.0
  0
LINE
  5
FD
330
F8
100
AcDbEntity
  8
치수문자_일반주서
 62
     0
370
    -2
100
AcDbLine
 10
49.08549999999998
 20
38.79493851792343
 30
0.0
 11
-49.08549999999998
 21
38.79493851792343
 31
0.0
  0
SOLID
  5
FE
330
F8
100
AcDbEntity
  8
치수문자_일반주서
 62
     0
100
AcDbTrace
 10
49.08549999999998
 20
38.24460518459009
 30
0.0
 11
49.08549999999998
 21
39.34527185125676
 31
0.0
 12
52.38749999999998
 22
38.79493851792343
 32
0.0
 13
52.38749999999998
 23
38.79493851792343
 33
0.0
  0
SOLID
  5
FF
330
F8
100
AcDbEntity
  8
치수문자_일반주서
 62
     0
100
AcDbTrace
 10
-49.08549999999998
 20
39.34527185125676
 30
0.0
 11
-49.08549999999998
 21
38.24460518459009
 31
0.0
 12
-52.38749999999998
 22
38.79493851792343
 32
0.0
 13
-52.38749999999998
 23
38.79493851792343
 33
0.0
  0
MTEXT
  5
100
330
F8
100
AcDbEntity
  8
치수문자_일반주서
 62
     0
100
AcDbMText
 10
2.630580259267269
 20
43.16993851792343
 30
0.0
 40
3.5
 41
0.0
 71
     2
 72
     1
  1
\A1;104.78 [4 1/8]
  7
SLDTEXTSTYLE0
 73
     1
 44
1.0
  0
POINT
  5
101
330
F8
100
AcDbEntity
  8
Defpoints
 62
     0
100
AcDbPoint
 10
52.38749999999998
 20
5.754687500000006
 30
0.0
  0
POINT
  5
102
330
F8
100
AcDbEntity
  8
Defpoints
 62
     0
100
AcDbPoint
 10
-52.38749999999998
 20
5.754687499999988
 30
0.0
  0
POINT
  5
103
330
F8
100
AcDbEntity
  8
Defpoints
 62
     0
100
AcDbPoint
 10
-52.38749999999998
 20
38.79493851792343
 30
0.0
  0
ENDBLK
  5
FA
330
F8
100
AcDbEntity
  8
0
100
AcDbBlockEnd
  0
BLOCK
  5
10D
330
10C
100
AcDbEntity
  8
0
100
AcDbBlockBegin
  2
_D_3
 70
     0
 10
0.0
 20
0.0
 30
0.0
  3
_D_3
  1
_D_3
  0
LINE
  5
10F
330
10C
100
AcDbEntity
  8
치수문자_일반주서
 62
     0
370
    -2
100
AcDbLine
 10
-23.82826350361909
 20
6.350000000000008
 30
0.0
 11
-64.59375000000004
 21
6.349999999999854
 31
0.0
  0
LINE
  5
110
330
10C
100
AcDbEntity
  8
치수문자_일반주서
 62
     0
370
    -2
100
AcDbLine
 10
-23.8282635036191
 20
-6.350000000000007
 30
0.0
 11
-64.59375
 21
-6.35000000000016
 31
0.0
  0
LINE
  5
111
330
10C
100
AcDbEntity
  8
치수문자_일반주서
 62
     0
370
    -2
100
AcDbLine
 10
-64.59375000000003
 20
3.047999999999854
 30
0.0
 11
-64.59375000000001
 21
-3.048000000000161
 31
0.0
  0
SOLID
  5
112
330
10C
100
AcDbEntity
  8
치수문자_일반주서
 62
     0
100
AcDbTrace
 10
-64.0434166666667
 20
3.047999999999856
 30
0.0
 11
-65.14408333333336
 21
3.047999999999853
 31
0.0
 12
-64.59375000000004
 22
6.349999999999854
 32
0.0
 13
-64.59375000000004
 23
6.349999999999854
 33
0.0
  0
SOLID
  5
113
330
10C
100
AcDbEntity
  8
치수문자_일반주서
 62
     0
100
AcDbTrace
 10
-65.14408333333334
 20
-3.048000000000163
 30
0.0
 11
-64.04341666666669
 21
-3.048000000000159
 31
0.0
 12
-64.59375
 22
-6.35000000000016
 32
0.0
 13
-64.59375
 23
-6.35000000000016
 33
0.0
  0
MTEXT
  5
114
330
10C
100
AcDbEntity
  8
치수문자_일반주서
 62
     0
100
AcDbMText
 10
-68.96875000000003
 20
-0.0000000000000232
 30
0.0
 40
3.5
 41
0.0
 71
     2
 72
     1
  1
\A1;%%c12.70 [1/2]
  7
SLDTEXTSTYLE0
 11
-3.356894814614643E-15
 21
1.0
 31
0.0
 73
     1
 44
1.0
  0
POINT
  5
115
330
10C
100
AcDbEntity
  8
Defpoints
 62
     0
100
AcDbPoint
 10
-23.76576350361909
 20
6.350000000000008
 30
0.0
  0
POINT
  5
116
330
10C
100
AcDbEntity
  8
Defpoints
 62
     0
100
AcDbPoint
 10
-23.7657635036191
 20
-6.350000000000007
 30
0.0
  0
POINT
  5
117
330
10C
100
AcDbEntity
  8
Defpoints
 62
     0
100
AcDbPoint
 10
-64.59375
 20
-6.35000000000016
 30
0.0
  0
ENDBLK
  5
10E
330
10C
100
AcDbEntity
  8
0
100
AcDbBlockEnd
  0
BLOCK
  5
127
330
126
100
AcDbEntity
  8
0
100
AcDbBlockBegin
  2
SW_DOWELSYMBOL_0
 70
     0
 10
0.0
 20
0.0
 30
0.0
  3
SW_DOWELSYMBOL_0
  1
SW_DOWELSYMBOL_0
  0
CIRCLE
  5
129
330
126
100
AcDbEntity
  8
해칭선
 62
     0
100
AcDbCircle
 10
0.0
 20
0.0
 30
0.0
 40
3.000000000000008
  0
HATCH
  5
12A
330
126
100
AcDbEntity
  8
0
  6
Continuous
 62
     0
370
     0
100
AcDbHatch
 10
0.0
 20
0.0
 30
0.0
210
0.0
220
0.0
230
1.0
  2
SOLID
 70
     1
 71
     0
 91
        1
 92
        0
 93
        3
 72
     2
 10
0.0
 20
0.0
 40
3.000000000000008
 50
0.0
 51
90.0
 73
     1
 72
     1
 10
0.0
 20
3.000000000000008
 11
0.0
 21
0.0
 72
     1
 10
0.0
 20
0.0
 11
3.00000000000001
 21
0.0
 97
        0
 75
     0
 76
     1
 98
        1
 10
0.0
 20
0.0
  0
HATCH
  5
12B
330
126
100
AcDbEntity
  8
0
  6
Continuous
 62
     0
370
     0
100
AcDbHatch
 10
0.0
 20
0.0
 30
0.0
210
0.0
220
0.0
230
1.0
  2
SOLID
 70
     1
 71
     0
 91
        1
 92
        0
 93
        3
 72
     2
 10
0.0
 20
0.0
 40
3.000000000000008
 50
180.0
 51
270.0000000000007
 73
     1
 72
     1
 10
0.0
 20
-3.000000000000008
 11
0.0
 21
0.0
 72
     1
 10
0.0
 20
0.0
 11
-3.00000000000001
 21
0.0
 97
        0
 75
     0
 76
     1
 98
        1
 10
0.0
 20
0.0
  0
ENDBLK
  5
128
330
126
100
AcDbEntity
  8
0
100
AcDbBlockEnd
  0
BLOCK
  5
1DC
330
1DB
100
AcDbEntity
  8
0
100
AcDbBlockBegin
  2
*D7
 70
     1
 10
0.0
 20
0.0
 30
0.0
  3
*D7
  1
*D8
  0
LINE
  5
1DE
330
1DB
100
AcDbEntity
  8
치수문자_일반주서
 62
     0
370
    -2
100
AcDbLine
 10
107.8375
 20
17.71649999999995
 30
0.0
 11
122.6822114742192
 21
17.7165
 31
0.0
  0
LINE
  5
1DF
330
1DB
100
AcDbEntity
  8
치수문자_일반주서
 62
     0
370
    -2
100
AcDbLine
 10
107.8375
 20
6.603999999999948
 30
0.0
 11
122.6822114742193
 21
6.604000000000006
 31
0.0
  0
LINE
  5
1E0
330
1DB
100
AcDbEntity
  8
치수문자_일반주서
 62
     0
370
    -2
100
AcDbLine
 10
122.6822114742192
 20
17.7165
 30
0.0
 11
122.6822114742191
 21
51.4455
 31
0.0
  0
LINE
  5
1E1
330
1DB
100
AcDbEntity
  8
치수문자_일반주서
 62
     0
370
    -2
100
AcDbLine
 10
122.6822114742192
 20
17.7165
 30
0.0
 11
122.6822114742193
 21
6.604000000000006
 31
0.0
  0
LINE
  5
1E2
330
1DB
100
AcDbEntity
  8
치수문자_일반주서
 62
     0
370
    -2
100
AcDbLine
 10
122.6822114742192
 20
21.0185
 30
0.0
 11
122.6822114742192
 21
24.3205
 31
0.0
  0
LINE
  5
1E3
330
1DB
100
AcDbEntity
  8
치수문자_일반주서
 62
     0
370
    -2
100
AcDbLine
 10
122.6822114742193
 20
3.302000000000007
 30
0.0
 11
122.6822114742193
 21
0.0000000000000071
 31
0.0
  0
SOLID
  5
1E4
330
1DB
100
AcDbEntity
  8
치수문자_일반주서
 62
     0
100
AcDbTrace
 10
122.1318781408859
 20
21.0185
 30
0.0
 11
123.2325448075525
 21
21.01850000000001
 31
0.0
 12
122.6822114742192
 22
17.7165
 32
0.0
 13
122.6822114742192
 23
17.7165
 33
0.0
  0
SOLID
  5
1E5
330
1DB
100
AcDbEntity
  8
치수문자_일반주서
 62
     0
100
AcDbTrace
 10
123.2325448075526
 20
3.302000000000009
 30
0.0
 11
122.1318781408859
 21
3.302000000000004
 31
0.0
 12
122.6822114742193
 22
6.604000000000006
 32
0.0
 13
122.6822114742193
 23
6.604000000000006
 33
0.0
  0
MTEXT
  5
1E6
330
1DB
100
AcDbEntity
  8
치수문자_일반주서
 62
     0
100
AcDbMText
 10
118.3072114742191
 20
37.88299999999999
 30
0.0
 40
3.5
 41
0.0
 71
     2
 72
     1
  1
\A1;%%c11.11 [7/16]
  7
SLDTEXTSTYLE0
 11
-3.836451216702453E-15
 21
1.0
 31
0.0
 73
     1
 44
1.0
  0
POINT
  5
1E7
330
1DB
100
AcDbEntity
  8
Defpoints
 62
     0
100
AcDbPoint
 10
107.775
 20
17.71649999999995
 30
0.0
  0
POINT
  5
1E8
330
1DB
100
AcDbEntity
  8
Defpoints
 62
     0
100
AcDbPoint
 10
107.775
 20
6.603999999999948
 30
0.0
  0
POINT
  5
1E9
330
1DB
100
AcDbEntity
  8
Defpoints
 62
     0
100
AcDbPoint
 10
122.6822114742193
 20
6.604000000000004
 30
0.0
  0
ENDBLK
  5
1DD
330
1DB
100
AcDbEntity
  8
0
100
AcDbBlockEnd
  0
BLOCK
  5
1EB
330
1EA
100
AcDbEntity
  8
0
100
AcDbBlockBegin
  2
*D8
 70
     1
 10
0.0
 20
0.0
 30
0.0
  3
*D8
  1
*D9
  0
LINE
  5
1ED
330
1EA
100
AcDbEntity
  8
치수문자_일반주서
 62
     0
370
    -2
100
AcDbLine
 10
107.775
 20
17.77899999999995
 30
0.0
 11
107.775
 21
29.36098416691316
 31
0.0
  0
LINE
  5
1EE
330
1EA
100
AcDbEntity
  8
치수문자_일반주서
 62
     0
370
    -2
100
AcDbLine
 10
82.375
 20
17.76742680899624
 30
0.0
 11
82.375
 21
29.36098416691316
 31
0.0
  0
LINE
  5
1EF
330
1EA
100
AcDbEntity
  8
치수문자_일반주서
 62
     0
370
    -2
100
AcDbLine
 10
82.375
 20
29.36098416691316
 30
0.0
 11
56.0835
 21
29.36098416691316
 31
0.0
  0
LINE
  5
1F0
330
1EA
100
AcDbEntity
  8
치수문자_일반주서
 62
     0
370
    -2
100
AcDbLine
 10
107.775
 20
29.36098416691316
 30
0.0
 11
82.375
 21
29.36098416691316
 31
0.0
  0
LINE
  5
1F1
330
1EA
100
AcDbEntity
  8
치수문자_일반주서
 62
     0
370
    -2
100
AcDbLine
 10
111.077
 20
29.36098416691316
 30
0.0
 11
114.379
 21
29.36098416691316
 31
0.0
  0
LINE
  5
1F2
330
1EA
100
AcDbEntity
  8
치수문자_일반주서
 62
     0
370
    -2
100
AcDbLine
 10
79.07300000000001
 20
29.36098416691316
 30
0.0
 11
75.77100000000002
 21
29.36098416691316
 31
0.0
  0
SOLID
  5
1F3
330
1EA
100
AcDbEntity
  8
치수문자_일반주서
 62
     0
100
AcDbTrace
 10
111.077
 20
29.9113175002465
 30
0.0
 11
111.077
 21
28.81065083357983
 31
0.0
 12
107.775
 22
29.36098416691316
 32
0.0
 13
107.775
 23
29.36098416691316
 33
0.0
  0
SOLID
  5
1F4
330
1EA
100
AcDbEntity
  8
치수문자_일반주서
 62
     0
100
AcDbTrace
 10
79.07300000000001
 20
28.81065083357983
 30
0.0
 11
79.07300000000001
 21
29.9113175002465
 31
0.0
 12
82.375
 22
29.36098416691316
 32
0.0
 13
82.375
 23
29.36098416691316
 33
0.0
  0
MTEXT
  5
1F5
330
1EA
100
AcDbEntity
  8
치수문자_일반주서
 62
     0
100
AcDbMText
 10
65.92725
 20
33.73598416691316
 30
0.0
 40
3.5
 41
0.0
 71
     2
 72
     1
  1
\A1;25.40 [1]
  7
SLDTEXTSTYLE0
 73
     1
 44
1.0
  0
POINT
  5
1F6
330
1EA
100
AcDbEntity
  8
Defpoints
 62
     0
100
AcDbPoint
 10
107.775
 20
17.71649999999995
 30
0.0
  0
POINT
  5
1F7
330
1EA
100
AcDbEntity
  8
Defpoints
 62
     0
100
AcDbPoint
 10
82.375
 20
17.70492680899624
 30
0.0
  0
POINT
  5
1F8
330
1EA
100
AcDbEntity
  8
Defpoints
 62
     0
100
AcDbPoint
 10
82.375
 20
29.36098416691316
 30
0.0
  0
ENDBLK
  5
1EC
330
1EA
100
AcDbEntity
  8
0
100
AcDbBlockEnd
  0
BLOCK
  5
1FA
330
1F9
100
AcDbEntity
  8
0
100
AcDbBlockBegin
  2
*D9
 70
     1
 10
0.0
 20
0.0
 30
0.0
  3
*D9
  1
*D10
  0
LINE
  5
1FC
330
1F9
100
AcDbEntity
  8
치수문자_일반주서
 62
     0
370
    -2
100
AcDbLine
 10
107.775
 20
17.77899999999995
 30
0.0
 11
107.775
 21
44.32000899671632
 31
0.0
  0
LINE
  5
1FD
330
1F9
100
AcDbEntity
  8
치수문자_일반주서
 62
     0
370
    -2
100
AcDbLine
 10
3.000000000000007
 20
17.30274999999994
 30
0.0
 11
2.999999999999993
 21
44.32000899671632
 31
0.0
  0
LINE
  5
1FE
330
1F9
100
AcDbEntity
  8
치수문자_일반주서
 62
     0
370
    -2
100
AcDbLine
 10
104.473
 20
44.32000899671632
 30
0.0
 11
6.301999999999992
 21
44.32000899671632
 31
0.0
  0
SOLID
  5
1FF
330
1F9
100
AcDbEntity
  8
치수문자_일반주서
 62
     0
100
AcDbTrace
 10
104.473
 20
43.76967566338298
 30
0.0
 11
104.473
 21
44.87034233004965
 31
0.0
 12
107.775
 22
44.32000899671632
 32
0.0
 13
107.775
 23
44.32000899671632
 33
0.0
  0
SOLID
  5
200
330
1F9
100
AcDbEntity
  8
치수문자_일반주서
 62
     0
100
AcDbTrace
 10
6.301999999999992
 20
44.87034233004965
 30
0.0
 11
6.301999999999992
 21
43.76967566338298
 31
0.0
 12
2.999999999999993
 22
44.32000899671632
 32
0.0
 13
2.999999999999993
 23
44.32000899671632
 33
0.0
  0
MTEXT
  5
201
330
1F9
100
AcDbEntity
  8
치수문자_일반주서
 62
     0
100
AcDbMText
 10
57.80037870642498
 20
48.69500899671632
 30
0.0
 40
3.5
 41
0.0
 71
     2
 72
     1
  1
\A1;104.78 [4 1/8]
  7
SLDTEXTSTYLE0
 73
     1
 44
1.0
  0
POINT
  5
202
330
1F9
100
AcDbEntity
  8
Defpoints
 62
     0
100
AcDbPoint
 10
107.775
 20
17.71649999999995
 30
0.0
  0
POINT
  5
203
330
1F9
100
AcDbEntity
  8
Defpoints
 62
     0
100
AcDbPoint
 10
3.000000000000007
 20
17.24024999999994
 30
0.0
  0
POINT
  5
204
330
1F9
100
AcDbEntity
  8
Defpoints
 62
     0
100
AcDbPoint
 10
3.000000000000007
 20
44.32000899671632
 30
0.0
  0
ENDBLK
  5
1FB
330
1F9
100
AcDbEntity
  8
0
100
AcDbBlockEnd
  0
BLOCK
  5
233
330
232
100
AcDbEntity
  8
0
100
AcDbBlockBegin
  2
*D10
 70
     1
 10
0.0
 20
0.0
 30
0.0
  3
*D10
  1
*D11
  0
LINE
  5
235
330
232
100
AcDbEntity
  8
치수문자_일반주서
 62
     0
370
    -2
100
AcDbLine
 10
197.7428248040488
 20
-32.61303821219594
 30
0.0
 11
212.5875362782681
 21
-32.61303821219588
 31
0.0
  0
LINE
  5
236
330
232
100
AcDbEntity
  8
치수문자_일반주서
 62
     0
370
    -2
100
AcDbLine
 10
197.7428248040488
 20
-43.72553821219594
 30
0.0
 11
212.5875362782681
 21
-43.72553821219588
 31
0.0
  0
LINE
  5
237
330
232
100
AcDbEntity
  8
치수문자_일반주서
 62
     0
370
    -2
100
AcDbLine
 10
212.5875362782681
 20
-32.61303821219588
 30
0.0
 11
212.587536278268
 21
1.115961787804117
 31
0.0
  0
LINE
  5
238
330
232
100
AcDbEntity
  8
치수문자_일반주서
 62
     0
370
    -2
100
AcDbLine
 10
212.5875362782681
 20
-32.61303821219588
 30
0.0
 11
212.5875362782681
 21
-43.72553821219588
 31
0.0
  0
LINE
  5
239
330
232
100
AcDbEntity
  8
치수문자_일반주서
 62
     0
370
    -2
100
AcDbLine
 10
212.5875362782681
 20
-29.31103821219588
 30
0.0
 11
212.5875362782681
 21
-26.00903821219588
 31
0.0
  0
LINE
  5
23A
330
232
100
AcDbEntity
  8
치수문자_일반주서
 62
     0
370
    -2
100
AcDbLine
 10
212.5875362782681
 20
-47.02753821219588
 30
0.0
 11
212.5875362782681
 21
-50.32953821219588
 31
0.0
  0
SOLID
  5
23B
330
232
100
AcDbEntity
  8
치수문자_일반주서
 62
     0
100
AcDbTrace
 10
212.0372029449347
 20
-29.31103821219588
 30
0.0
 11
213.1378696116014
 21
-29.31103821219588
 31
0.0
 12
212.5875362782681
 22
-32.61303821219588
 32
0.0
 13
212.5875362782681
 23
-32.61303821219588
 33
0.0
  0
SOLID
  5
23C
330
232
100
AcDbEntity
  8
치수문자_일반주서
 62
     0
100
AcDbTrace
 10
213.1378696116014
 20
-47.02753821219588
 30
0.0
 11
212.0372029449348
 21
-47.02753821219588
 31
0.0
 12
212.5875362782681
 22
-43.72553821219588
 32
0.0
 13
212.5875362782681
 23
-43.72553821219588
 33
0.0
  0
MTEXT
  5
23D
330
232
100
AcDbEntity
  8
치수문자_일반주서
 62
     0
100
AcDbMText
 10
208.212536278268
 20
-12.44653821219589
 30
0.0
 40
3.5
 41
0.0
 71
     2
 72
     1
  1
\A1;%%c11.11 [7/16]
  7
SLDTEXTSTYLE0
 11
-2.557634144468303E-15
 21
1.0
 31
0.0
 73
     1
 44
1.0
  0
POINT
  5
23E
330
232
100
AcDbEntity
  8
Defpoints
 62
     0
100
AcDbPoint
 10
197.6803248040488
 20
-32.61303821219594
 30
0.0
  0
POINT
  5
23F
330
232
100
AcDbEntity
  8
Defpoints
 62
     0
100
AcDbPoint
 10
197.6803248040488
 20
-43.72553821219594
 30
0.0
  0
POINT
  5
240
330
232
100
AcDbEntity
  8
Defpoints
 62
     0
100
AcDbPoint
 10
212.5875362782681
 20
-43.72553821219588
 30
0.0
  0
ENDBLK
  5
234
330
232
100
AcDbEntity
  8
0
100
AcDbBlockEnd
  0
BLOCK
  5
242
330
241
100
AcDbEntity
  8
0
100
AcDbBlockBegin
  2
*D11
 70
     1
 10
0.0
 20
0.0
 30
0.0
  3
*D11
  1
*D12
  0
LINE
  5
244
330
241
100
AcDbEntity
  8
치수문자_일반주서
 62
     0
370
    -2
100
AcDbLine
 10
197.6803248040488
 20
-32.55053821219594
 30
0.0
 11
197.6803248040488
 21
-20.96855404528272
 31
0.0
  0
LINE
  5
245
330
241
100
AcDbEntity
  8
치수문자_일반주서
 62
     0
370
    -2
100
AcDbLine
 10
172.2803248040489
 20
-32.56211140319964
 30
0.0
 11
172.2803248040489
 21
-20.96855404528272
 31
0.0
  0
LINE
  5
246
330
241
100
AcDbEntity
  8
치수문자_일반주서
 62
     0
370
    -2
100
AcDbLine
 10
172.2803248040489
 20
-20.96855404528272
 30
0.0
 11
145.9888248040489
 21
-20.96855404528272
 31
0.0
  0
LINE
  5
247
330
241
100
AcDbEntity
  8
치수문자_일반주서
 62
     0
370
    -2
100
AcDbLine
 10
197.6803248040488
 20
-20.96855404528272
 30
0.0
 11
172.2803248040489
 21
-20.96855404528272
 31
0.0
  0
LINE
  5
248
330
241
100
AcDbEntity
  8
치수문자_일반주서
 62
     0
370
    -2
100
AcDbLine
 10
200.9823248040488
 20
-20.96855404528272
 30
0.0
 11
204.2843248040488
 21
-20.96855404528272
 31
0.0
  0
LINE
  5
249
330
241
100
AcDbEntity
  8
치수문자_일반주서
 62
     0
370
    -2
100
AcDbLine
 10
168.9783248040489
 20
-20.96855404528272
 30
0.0
 11
165.6763248040489
 21
-20.96855404528272
 31
0.0
  0
SOLID
  5
24A
330
241
100
AcDbEntity
  8
치수문자_일반주서
 62
     0
100
AcDbTrace
 10
200.9823248040488
 20
-20.41822071194939
 30
0.0
 11
200.9823248040488
 21
-21.51888737861606
 31
0.0
 12
197.6803248040488
 22
-20.96855404528272
 32
0.0
 13
197.6803248040488
 23
-20.96855404528272
 33
0.0
  0
SOLID
  5
24B
330
241
100
AcDbEntity
  8
치수문자_일반주서
 62
     0
100
AcDbTrace
 10
168.9783248040489
 20
-21.51888737861606
 30
0.0
 11
168.9783248040489
 21
-20.41822071194939
 31
0.0
 12
172.2803248040489
 22
-20.96855404528272
 32
0.0
 13
172.2803248040489
 23
-20.96855404528272
 33
0.0
  0
MTEXT
  5
24C
330
241
100
AcDbEntity
  8
치수문자_일반주서
 62
     0
100
AcDbMText
 10
155.8325748040489
 20
-16.59355404528272
 30
0.0
 40
3.5
 41
0.0
 71
     2
 72
     1
  1
\A1;25.40 [1]
  7
SLDTEXTSTYLE0
 73
     1
 44
1.0
  0
POINT
  5
24D
330
241
100
AcDbEntity
  8
Defpoints
 62
     0
100
AcDbPoint
 10
197.6803248040488
 20
-32.61303821219594
 30
0.0
  0
POINT
  5
24E
330
241
100
AcDbEntity
  8
Defpoints
 62
     0
100
AcDbPoint
 10
172.2803248040489
 20
-32.62461140319964
 30
0.0
  0
POINT
  5
24F
330
241
100
AcDbEntity
  8
Defpoints
 62
     0
100
AcDbPoint
 10
172.2803248040489
 20
-20.96855404528272
 30
0.0
  0
ENDBLK
  5
243
330
241
100
AcDbEntity
  8
0
100
AcDbBlockEnd
  0
BLOCK
  5
251
330
250
100
AcDbEntity
  8
0
100
AcDbBlockBegin
  2
*D12
 70
     1
 10
0.0
 20
0.0
 30
0.0
  3
*D12
  1
*D13
  0
LINE
  5
253
330
250
100
AcDbEntity
  8
치수문자_일반주서
 62
     0
370
    -2
100
AcDbLine
 10
197.6803248040488
 20
-32.55053821219594
 30
0.0
 11
197.6803248040488
 21
-6.009529215479567
 31
0.0
  0
LINE
  5
254
330
250
100
AcDbEntity
  8
치수문자_일반주서
 62
     0
370
    -2
100
AcDbLine
 10
92.90532480404886
 20
-33.02678821219594
 30
0.0
 11
92.90532480404886
 21
-6.009529215479567
 31
0.0
  0
LINE
  5
255
330
250
100
AcDbEntity
  8
치수문자_일반주서
 62
     0
370
    -2
100
AcDbLine
 10
194.3783248040488
 20
-6.009529215479567
 30
0.0
 11
96.20732480404885
 21
-6.009529215479567
 31
0.0
  0
SOLID
  5
256
330
250
100
AcDbEntity
  8
치수문자_일반주서
 62
     0
100
AcDbTrace
 10
194.3783248040488
 20
-6.559862548812901
 30
0.0
 11
194.3783248040488
 21
-5.459195882146234
 31
0.0
 12
197.6803248040488
 22
-6.009529215479567
 32
0.0
 13
197.6803248040488
 23
-6.009529215479567
 33
0.0
  0
SOLID
  5
257
330
250
100
AcDbEntity
  8
치수문자_일반주서
 62
     0
100
AcDbTrace
 10
96.20732480404885
 20
-5.459195882146234
 30
0.0
 11
96.20732480404885
 21
-6.559862548812901
 31
0.0
 12
92.90532480404886
 22
-6.009529215479567
 32
0.0
 13
92.90532480404886
 23
-6.009529215479567
 33
0.0
  0
MTEXT
  5
258
330
250
100
AcDbEntity
  8
치수문자_일반주서
 62
     0
100
AcDbMText
 10
147.7057035104738
 20
-1.634529215479567
 30
0.0
 40
3.5
 41
0.0
 71
     2
 72
     1
  1
\A1;104.78 [4 1/8]
  7
SLDTEXTSTYLE0
 73
     1
 44
1.0
  0
POINT
  5
259
330
250
100
AcDbEntity
  8
Defpoints
 62
     0
100
AcDbPoint
 10
197.6803248040488
 20
-32.61303821219594
 30
0.0
  0
POINT
  5
25A
330
250
100
AcDbEntity
  8
Defpoints
 62
     0
100
AcDbPoint
 10
92.90532480404886
 20
-33.08928821219594
 30
0.0
  0
POINT
  5
25B
330
250
100
AcDbEntity
  8
Defpoints
 62
     0
100
AcDbPoint
 10
92.90532480404886
 20
-6.009529215479567
 30
0.0
  0
ENDBLK
  5
252
330
250
100
AcDbEntity
  8
0
100
AcDbBlockEnd
  0
BLOCK
  5
2EC
330
2EB
100
AcDbEntity
  8
0
100
AcDbBlockBegin
  2
*D13
 70
     1
 10
0.0
 20
0.0
 30
0.0
  3
*D13
  1
*D15
  0
LINE
  5
2EE
330
2EB
100
AcDbEntity
  8
치수문자_일반주서
 62
     0
370
    -2
100
AcDbLine
 10
107.8375
 20
18.11337499999994
 30
0.0
 11
122.6681210795603
 21
18.11337499999999
 31
0.0
  0
LINE
  5
2EF
330
2EB
100
AcDbEntity
  8
치수문자_일반주서
 62
     0
370
    -2
100
AcDbLine
 10
107.8375
 20
6.603999999999939
 30
0.0
 11
122.6681210795604
 21
6.603999999999992
 31
0.0
  0
LINE
  5
2F0
330
2EB
100
AcDbEntity
  8
치수문자_일반주서
 62
     0
370
    -2
100
AcDbLine
 10
122.6681210795603
 20
18.11337499999999
 30
0.0
 11
122.6681210795602
 21
61.93054595482389
 31
0.0
  0
LINE
  5
2F1
330
2EB
100
AcDbEntity
  8
치수문자_일반주서
 62
     0
370
    -2
100
AcDbLine
 10
122.6681210795603
 20
18.11337499999999
 30
0.0
 11
122.6681210795604
 21
6.603999999999992
 31
0.0
  0
LINE
  5
2F2
330
2EB
100
AcDbEntity
  8
치수문자_일반주서
 62
     0
370
    -2
100
AcDbLine
 10
122.6681210795603
 20
21.41537499999999
 30
0.0
 11
122.6681210795603
 21
24.71737499999999
 31
0.0
  0
LINE
  5
2F3
330
2EB
100
AcDbEntity
  8
치수문자_일반주서
 62
     0
370
    -2
100
AcDbLine
 10
122.6681210795604
 20
3.301999999999992
 30
0.0
 11
122.6681210795604
 21
-0.0000000000000071
 31
0.0
  0
SOLID
  5
2F4
330
2EB
100
AcDbEntity
  8
치수문자_일반주서
 62
     0
100
AcDbTrace
 10
122.117787746227
 20
21.41537499999999
 30
0.0
 11
123.2184544128936
 21
21.41537499999999
 31
0.0
 12
122.6681210795603
 22
18.11337499999999
 32
0.0
 13
122.6681210795603
 23
18.11337499999999
 33
0.0
  0
SOLID
  5
2F5
330
2EB
100
AcDbEntity
  8
치수문자_일반주서
 62
     0
100
AcDbTrace
 10
123.2184544128937
 20
3.301999999999995
 30
0.0
 11
122.117787746227
 21
3.30199999999999
 31
0.0
 12
122.6681210795604
 22
6.603999999999992
 32
0.0
 13
122.6681210795604
 23
6.603999999999992
 33
0.0
  0
MTEXT
  5
2F6
330
2EB
100
AcDbEntity
  8
치수문자_일반주서
 62
     0
100
AcDbMText
 10
118.2931210795602
 20
46.18054595482388
 30
0.0
 40
3.5
 41
0.0
 71
     2
 72
     1
  1
\A1;%%c11.51 [29/64]
  7
SLDTEXTSTYLE0
 11
-3.704159795436853E-15
 21
1.0
 31
0.0
 73
     1
 44
1.0
  0
POINT
  5
2F7
330
2EB
100
AcDbEntity
  8
Defpoints
 62
     0
100
AcDbPoint
 10
107.775
 20
18.11337499999994
 30
0.0
  0
POINT
  5
2F8
330
2EB
100
AcDbEntity
  8
Defpoints
 62
     0
100
AcDbPoint
 10
107.775
 20
6.603999999999939
 30
0.0
  0
POINT
  5
2F9
330
2EB
100
AcDbEntity
  8
Defpoints
 62
     0
100
AcDbPoint
 10
122.6681210795604
 20
6.603999999999995
 30
0.0
  0
ENDBLK
  5
2ED
330
2EB
100
AcDbEntity
  8
0
100
AcDbBlockEnd
  0
BLOCK
  5
2FB
330
2FA
100
AcDbEntity
  8
0
100
AcDbBlockBegin
  2
*D14
 70
     1
 10
0.0
 20
0.0
 30
0.0
  3
*D14
  1
*D16
  0
LINE
  5
2FD
330
2FA
100
AcDbEntity
  8
치수문자_일반주서
 62
     0
370
    -2
100
AcDbLine
 10
107.775
 20
18.17587499999994
 30
0.0
 11
107.775
 21
33.74784579707526
 31
0.0
  0
LINE
  5
2FE
330
2FA
100
AcDbEntity
  8
치수문자_일반주서
 62
     0
370
    -2
100
AcDbLine
 10
82.375
 20
18.10651713123164
 30
0.0
 11
82.375
 21
33.74784579707526
 31
0.0
  0
LINE
  5
2FF
330
2FA
100
AcDbEntity
  8
치수문자_일반주서
 62
     0
370
    -2
100
AcDbLine
 10
82.375
 20
33.74784579707526
 30
0.0
 11
51.6554863034369
 21
33.74784579707526
 31
0.0
  0
LINE
  5
300
330
2FA
100
AcDbEntity
  8
치수문자_일반주서
 62
     0
370
    -2
100
AcDbLine
 10
107.775
 20
33.74784579707526
 30
0.0
 11
82.375
 21
33.74784579707526
 31
0.0
  0
LINE
  5
301
330
2FA
100
AcDbEntity
  8
치수문자_일반주서
 62
     0
370
    -2
100
AcDbLine
 10
111.077
 20
33.74784579707526
 30
0.0
 11
114.379
 21
33.74784579707526
 31
0.0
  0
LINE
  5
302
330
2FA
100
AcDbEntity
  8
치수문자_일반주서
 62
     0
370
    -2
100
AcDbLine
 10
79.07300000000001
 20
33.74784579707526
 30
0.0
 11
75.77100000000002
 21
33.74784579707526
 31
0.0
  0
SOLID
  5
303
330
2FA
100
AcDbEntity
  8
치수문자_일반주서
 62
     0
100
AcDbTrace
 10
111.077
 20
34.29817913040859
 30
0.0
 11
111.077
 21
33.19751246374192
 31
0.0
 12
107.775
 22
33.74784579707526
 32
0.0
 13
107.775
 23
33.74784579707526
 33
0.0
  0
SOLID
  5
304
330
2FA
100
AcDbEntity
  8
치수문자_일반주서
 62
     0
100
AcDbTrace
 10
79.07300000000001
 20
33.19751246374192
 30
0.0
 11
79.07300000000001
 21
34.29817913040859
 31
0.0
 12
82.375
 22
33.74784579707526
 32
0.0
 13
82.375
 23
33.74784579707526
 33
0.0
  0
MTEXT
  5
305
330
2FA
100
AcDbEntity
  8
치수문자_일반주서
 62
     0
100
AcDbMText
 10
61.4992363034369
 20
38.12284579707526
 30
0.0
 40
3.5
 41
0.0
 71
     2
 72
     1
  1
\A1;25.40 [1]
  7
SLDTEXTSTYLE0
 73
     1
 44
1.0
  0
POINT
  5
306
330
2FA
100
AcDbEntity
  8
Defpoints
 62
     0
100
AcDbPoint
 10
107.775
 20
18.11337499999994
 30
0.0
  0
POINT
  5
307
330
2FA
100
AcDbEntity
  8
Defpoints
 62
     0
100
AcDbPoint
 10
82.375
 20
18.04401713123164
 30
0.0
  0
POINT
  5
308
330
2FA
100
AcDbEntity
  8
Defpoints
 62
     0
100
AcDbPoint
 10
82.375
 20
33.74784579707526
 30
0.0
  0
ENDBLK
  5
2FC
330
2FA
100
AcDbEntity
  8
0
100
AcDbBlockEnd
  0
BLOCK
  5
30A
330
309
100
AcDbEntity
  8
0
100
AcDbBlockBegin
  2
*D15
 70
     1
 10
0.0
 20
0.0
 30
0.0
  3
*D15
  1
*D17
  0
LINE
  5
30C
330
309
100
AcDbEntity
  8
치수문자_일반주서
 62
     0
370
    -2
100
AcDbLine
 10
107.775
 20
18.17587499999994
 30
0.0
 11
107.775
 21
51.15362601792336
 31
0.0
  0
LINE
  5
30D
330
309
100
AcDbEntity
  8
치수문자_일반주서
 62
     0
370
    -2
100
AcDbLine
 10
3.000000000000007
 20
17.50118749999993
 30
0.0
 11
2.999999999999993
 21
51.15362601792336
 31
0.0
  0
LINE
  5
30E
330
309
100
AcDbEntity
  8
치수문자_일반주서
 62
     0
370
    -2
100
AcDbLine
 10
104.473
 20
51.15362601792336
 30
0.0
 11
6.301999999999992
 21
51.15362601792336
 31
0.0
  0
SOLID
  5
30F
330
309
100
AcDbEntity
  8
치수문자_일반주서
 62
     0
100
AcDbTrace
 10
104.473
 20
50.60329268459002
 30
0.0
 11
104.473
 21
51.70395935125669
 31
0.0
 12
107.775
 22
51.15362601792336
 32
0.0
 13
107.775
 23
51.15362601792336
 33
0.0
  0
SOLID
  5
310
330
309
100
AcDbEntity
  8
치수문자_일반주서
 62
     0
100
AcDbTrace
 10
6.301999999999992
 20
51.70395935125669
 30
0.0
 11
6.301999999999992
 21
50.60329268459002
 31
0.0
 12
2.999999999999993
 22
51.15362601792336
 32
0.0
 13
2.999999999999993
 23
51.15362601792336
 33
0.0
  0
MTEXT
  5
311
330
309
100
AcDbEntity
  8
치수문자_일반주서
 62
     0
100
AcDbMText
 10
58.01808025926728
 20
55.52862601792336
 30
0.0
 40
3.5
 41
0.0
 71
     2
 72
     1
  1
\A1;104.78 [4 1/8]
  7
SLDTEXTSTYLE0
 73
     1
 44
1.0
  0
POINT
  5
312
330
309
100
AcDbEntity
  8
Defpoints
 62
     0
100
AcDbPoint
 10
107.775
 20
18.11337499999994
 30
0.0
  0
POINT
  5
313
330
309
100
AcDbEntity
  8
Defpoints
 62
     0
100
AcDbPoint
 10
3.000000000000007
 20
17.43868749999993
 30
0.0
  0
POINT
  5
314
330
309
100
AcDbEntity
  8
Defpoints
 62
     0
100
AcDbPoint
 10
3.000000000000007
 20
51.15362601792336
 30
0.0
  0
ENDBLK
  5
30B
330
309
100
AcDbEntity
  8
0
100
AcDbBlockEnd
  0
BLOCK
  5
344
330
343
100
AcDbEntity
  8
0
100
AcDbBlockBegin
  2
*D16
 70
     1
 10
0.0
 20
0.0
 30
0.0
  3
*D16
  1
*D18
  0
LINE
  5
346
330
343
100
AcDbEntity
  8
치수문자_일반주서
 62
     0
370
    -2
100
AcDbLine
 10
256.3706046826058
 20
-41.58964961929162
 30
0.0
 11
271.2012257621661
 21
-41.58964961929156
 31
0.0
  0
LINE
  5
347
330
343
100
AcDbEntity
  8
치수문자_일반주서
 62
     0
370
    -2
100
AcDbLine
 10
256.3706046826058
 20
-53.09902461929161
 30
0.0
 11
271.2012257621662
 21
-53.09902461929155
 31
0.0
  0
LINE
  5
348
330
343
100
AcDbEntity
  8
치수문자_일반주서
 62
     0
370
    -2
100
AcDbLine
 10
271.2012257621661
 20
-41.58964961929156
 30
0.0
 11
271.201225762166
 21
2.227521335532344
 31
0.0
  0
LINE
  5
349
330
343
100
AcDbEntity
  8
치수문자_일반주서
 62
     0
370
    -2
100
AcDbLine
 10
271.2012257621661
 20
-41.58964961929156
 30
0.0
 11
271.2012257621662
 21
-53.09902461929155
 31
0.0
  0
LINE
  5
34A
330
343
100
AcDbEntity
  8
치수문자_일반주서
 62
     0
370
    -2
100
AcDbLine
 10
271.2012257621661
 20
-38.28764961929156
 30
0.0
 11
271.2012257621661
 21
-34.98564961929156
 31
0.0
  0
LINE
  5
34B
330
343
100
AcDbEntity
  8
치수문자_일반주서
 62
     0
370
    -2
100
AcDbLine
 10
271.2012257621662
 20
-56.40102461929155
 30
0.0
 11
271.2012257621662
 21
-59.70302461929155
 31
0.0
  0
SOLID
  5
34C
330
343
100
AcDbEntity
  8
치수문자_일반주서
 62
     0
100
AcDbTrace
 10
270.6508924288328
 20
-38.28764961929156
 30
0.0
 11
271.7515590954995
 21
-38.28764961929156
 31
0.0
 12
271.2012257621661
 22
-41.58964961929156
 32
0.0
 13
271.2012257621661
 23
-41.58964961929156
 33
0.0
  0
SOLID
  5
34D
330
343
100
AcDbEntity
  8
치수문자_일반주서
 62
     0
100
AcDbTrace
 10
271.7515590954995
 20
-56.40102461929155
 30
0.0
 11
270.6508924288328
 21
-56.40102461929155
 31
0.0
 12
271.2012257621662
 22
-53.09902461929155
 32
0.0
 13
271.2012257621662
 23
-53.09902461929155
 33
0.0
  0
MTEXT
  5
34E
330
343
100
AcDbEntity
  8
치수문자_일반주서
 62
     0
100
AcDbMText
 10
266.826225762166
 20
-13.52247866446768
 30
0.0
 40
3.5
 41
0.0
 71
     2
 72
     1
  1
\A1;%%c11.51 [29/64]
  7
SLDTEXTSTYLE0
 11
-4.938879727249139E-15
 21
1.0
 31
0.0
 73
     1
 44
1.0
  0
POINT
  5
34F
330
343
100
AcDbEntity
  8
Defpoints
 62
     0
100
AcDbPoint
 10
256.3081046826058
 20
-41.58964961929162
 30
0.0
  0
POINT
  5
350
330
343
100
AcDbEntity
  8
Defpoints
 62
     0
100
AcDbPoint
 10
256.3081046826058
 20
-53.09902461929161
 30
0.0
  0
POINT
  5
351
330
343
100
AcDbEntity
  8
Defpoints
 62
     0
100
AcDbPoint
 10
271.2012257621661
 20
-53.09902461929155
 30
0.0
  0
ENDBLK
  5
345
330
343
100
AcDbEntity
  8
0
100
AcDbBlockEnd
  0
BLOCK
  5
353
330
352
100
AcDbEntity
  8
0
100
AcDbBlockBegin
  2
*D17
 70
     1
 10
0.0
 20
0.0
 30
0.0
  3
*D17
  1
*D19
  0
LINE
  5
355
330
352
100
AcDbEntity
  8
치수문자_일반주서
 62
     0
370
    -2
100
AcDbLine
 10
256.3081046826058
 20
-41.52714961929162
 30
0.0
 11
256.3081046826058
 21
-25.9551788222163
 31
0.0
  0
LINE
  5
356
330
352
100
AcDbEntity
  8
치수문자_일반주서
 62
     0
370
    -2
100
AcDbLine
 10
230.9081046826058
 20
-41.59650748805991
 30
0.0
 11
230.9081046826058
 21
-25.9551788222163
 31
0.0
  0
LINE
  5
357
330
352
100
AcDbEntity
  8
치수문자_일반주서
 62
     0
370
    -2
100
AcDbLine
 10
230.9081046826058
 20
-25.9551788222163
 30
0.0
 11
200.1885909860427
 21
-25.9551788222163
 31
0.0
  0
LINE
  5
358
330
352
100
AcDbEntity
  8
치수문자_일반주서
 62
     0
370
    -2
100
AcDbLine
 10
256.3081046826058
 20
-25.9551788222163
 30
0.0
 11
230.9081046826058
 21
-25.9551788222163
 31
0.0
  0
LINE
  5
359
330
352
100
AcDbEntity
  8
치수문자_일반주서
 62
     0
370
    -2
100
AcDbLine
 10
259.6101046826058
 20
-25.9551788222163
 30
0.0
 11
262.9121046826058
 21
-25.9551788222163
 31
0.0
  0
LINE
  5
35A
330
352
100
AcDbEntity
  8
치수문자_일반주서
 62
     0
370
    -2
100
AcDbLine
 10
227.6061046826058
 20
-25.9551788222163
 30
0.0
 11
224.3041046826058
 21
-25.9551788222163
 31
0.0
  0
SOLID
  5
35B
330
352
100
AcDbEntity
  8
치수문자_일반주서
 62
     0
100
AcDbTrace
 10
259.6101046826058
 20
-25.40484548888296
 30
0.0
 11
259.6101046826058
 21
-26.50551215554963
 31
0.0
 12
256.3081046826058
 22
-25.9551788222163
 32
0.0
 13
256.3081046826058
 23
-25.9551788222163
 33
0.0
  0
SOLID
  5
35C
330
352
100
AcDbEntity
  8
치수문자_일반주서
 62
     0
100
AcDbTrace
 10
227.6061046826058
 20
-26.50551215554963
 30
0.0
 11
227.6061046826058
 21
-25.40484548888296
 31
0.0
 12
230.9081046826058
 22
-25.9551788222163
 32
0.0
 13
230.9081046826058
 23
-25.9551788222163
 33
0.0
  0
MTEXT
  5
35D
330
352
100
AcDbEntity
  8
치수문자_일반주서
 62
     0
100
AcDbMText
 10
210.0323409860427
 20
-21.5801788222163
 30
0.0
 40
3.5
 41
0.0
 71
     2
 72
     1
  1
\A1;25.40 [1]
  7
SLDTEXTSTYLE0
 73
     1
 44
1.0
  0
POINT
  5
35E
330
352
100
AcDbEntity
  8
Defpoints
 62
     0
100
AcDbPoint
 10
256.3081046826058
 20
-41.58964961929162
 30
0.0
  0
POINT
  5
35F
330
352
100
AcDbEntity
  8
Defpoints
 62
     0
100
AcDbPoint
 10
230.9081046826058
 20
-41.65900748805991
 30
0.0
  0
POINT
  5
360
330
352
100
AcDbEntity
  8
Defpoints
 62
     0
100
AcDbPoint
 10
230.9081046826058
 20
-25.9551788222163
 30
0.0
  0
ENDBLK
  5
354
330
352
100
AcDbEntity
  8
0
100
AcDbBlockEnd
  0
BLOCK
  5
362
330
361
100
AcDbEntity
  8
0
100
AcDbBlockBegin
  2
*D18
 70
     1
 10
0.0
 20
0.0
 30
0.0
  3
*D18
  1
*D20
  0
LINE
  5
364
330
361
100
AcDbEntity
  8
치수문자_일반주서
 62
     0
370
    -2
100
AcDbLine
 10
256.3081046826058
 20
-41.52714961929162
 30
0.0
 11
256.3081046826058
 21
-8.549398601368196
 31
0.0
  0
LINE
  5
365
330
361
100
AcDbEntity
  8
치수문자_일반주서
 62
     0
370
    -2
100
AcDbLine
 10
151.5331046826058
 20
-42.20183711929162
 30
0.0
 11
151.5331046826058
 21
-8.549398601368196
 31
0.0
  0
LINE
  5
366
330
361
100
AcDbEntity
  8
치수문자_일반주서
 62
     0
370
    -2
100
AcDbLine
 10
253.0061046826058
 20
-8.549398601368196
 30
0.0
 11
154.8351046826058
 21
-8.549398601368196
 31
0.0
  0
SOLID
  5
367
330
361
100
AcDbEntity
  8
치수문자_일반주서
 62
     0
100
AcDbTrace
 10
253.0061046826058
 20
-9.099731934701529
 30
0.0
 11
253.0061046826058
 21
-7.999065268034863
 31
0.0
 12
256.3081046826058
 22
-8.549398601368196
 32
0.0
 13
256.3081046826058
 23
-8.549398601368196
 33
0.0
  0
SOLID
  5
368
330
361
100
AcDbEntity
  8
치수문자_일반주서
 62
     0
100
AcDbTrace
 10
154.8351046826058
 20
-7.999065268034863
 30
0.0
 11
154.8351046826058
 21
-9.099731934701529
 31
0.0
 12
151.5331046826058
 22
-8.549398601368196
 32
0.0
 13
151.5331046826058
 23
-8.549398601368196
 33
0.0
  0
MTEXT
  5
369
330
361
100
AcDbEntity
  8
치수문자_일반주서
 62
     0
100
AcDbMText
 10
206.5511849418731
 20
-4.174398601368196
 30
0.0
 40
3.5
 41
0.0
 71
     2
 72
     1
  1
\A1;104.78 [4 1/8]
  7
SLDTEXTSTYLE0
 73
     1
 44
1.0
  0
POINT
  5
36A
330
361
100
AcDbEntity
  8
Defpoints
 62
     0
100
AcDbPoint
 10
256.3081046826058
 20
-41.58964961929162
 30
0.0
  0
POINT
  5
36B
330
361
100
AcDbEntity
  8
Defpoints
 62
     0
100
AcDbPoint
 10
151.5331046826058
 20
-42.26433711929162
 30
0.0
  0
POINT
  5
36C
330
361
100
AcDbEntity
  8
Defpoints
 62
     0
100
AcDbPoint
 10
151.5331046826058
 20
-8.549398601368196
 30
0.0
  0
ENDBLK
  5
363
330
361
100
AcDbEntity
  8
0
100
AcDbBlockEnd
  0
ENDSEC
  0
SECTION
  2
ENTITIES
  0
LINE
  5
96
330
1F
100
AcDbEntity
  8
0
  6
Continuous
 62
     1
370
    15
100
AcDbLine
 10
28.43229033285853
 20
-1.703483515461278
 30
0.0
 11
28.47393115804102
 21
-1.72634691958947
 31
0.0
  0
LINE
  5
97
330
1F
100
AcDbEntity
  8
0
  6
Continuous
 62
     1
370
    15
100
AcDbLine
 10
41.09485431130275
 20
5.754687499999998
 30
0.0
 11
37.58693571886263
 21
5.754687499999998
 31
0.0
  0
LINE
  5
98
330
1F
100
AcDbEntity
  8
0
  6
Continuous
 62
     1
370
    15
100
AcDbLine
 10
37.58693571886257
 20
-5.754687500000004
 30
0.0
 11
41.09485431130273
 21
-5.754687500000004
 31
0.0
  0
LINE
  5
99
330
1F
100
AcDbEntity
  8
외형선
  6
Continuous
370
    15
100
AcDbLine
 10
23.76576350361911
 20
-6.350000000000011
 30
0.0
 11
25.9875
 21
-5.754687500000002
 31
0.0
  0
LINE
  5
9A
330
1F
100
AcDbEntity
  8
외형선
  6
Continuous
370
    15
100
AcDbLine
 10
25.9875
 20
5.754687499999997
 30
0.0
 11
23.76576350361911
 21
6.350000000000006
 31
0.0
  0
LINE
  5
9B
330
1F
100
AcDbEntity
  8
외형선
  6
Continuous
370
    15
100
AcDbLine
 10
-23.7657635036191
 20
-6.350000000000007
 30
0.0
 11
23.76576350361911
 21
-6.350000000000007
 31
0.0
  0
LINE
  5
9C
330
1F
100
AcDbEntity
  8
외형선
  6
Continuous
370
    15
100
AcDbLine
 10
23.76576350361911
 20
6.350000000000001
 30
0.0
 11
5.727700000000027
 21
6.350000000000001
 31
0.0
  0
LINE
  5
9F
330
1F
100
AcDbEntity
  8
외형선
  6
Continuous
370
    15
100
AcDbLine
 10
25.9875
 20
-5.754687500000002
 30
0.0
 11
26.48742648226703
 21
-5.754687500000002
 31
0.0
  0
LINE
  5
A0
330
1F
100
AcDbEntity
  8
외형선
  6
Continuous
370
    15
100
AcDbLine
 10
26.48742648226703
 20
5.754687499999997
 30
0.0
 11
25.9875
 21
5.754687499999997
 31
0.0
  0
SPLINE
  5
A1
330
1F
100
AcDbEntity
  8
0
  6
Continuous
 62
     1
370
    15
100
AcDbSpline
210
0.0
220
0.0
230
1.0
 70
     8
 71
     3
 72
    18
 73
    14
 74
     0
 42
0.000000001
 43
0.00000001
 40
0.0
 40
0.0
 40
0.0
 40
0.0
 40
0.1005840210839691
 40
0.2011649942198414
 40
0.3017482815653441
 40
0.4023392406333322
 40
0.5029432135494601
 40
0.6035655163753851
 40
0.7042114285427731
 40
0.7964965810836284
 40
0.8887163044490988
 40
0.9809030338001788
 40
1.0
 40
1.0
 40
1.0
 40
1.0
 10
26.98750000000003
 20
-0.8907610268164234
 30
0.0
 10
27.66467072240625
 20
-1.273504790706663
 30
0.0
 10
29.01899164724755
 20
-2.038980720391201
 30
0.0
 10
31.05045688194356
 20
-3.092911057185148
 30
0.0
 10
33.08198079958289
 20
-4.021401068332961
 30
0.0
 10
35.1136892647447
 20
-4.782684970549687
 30
0.0
 10
37.14571563480311
 20
-5.346018856496181
 30
0.0
 10
39.17817675378163
 20
-5.688197415837633
 30
0.0
 10
41.15475450827979
 20
-5.790651592188457
 30
0.0
 10
43.07474435122771
 20
-5.676867510151468
 30
0.0
 10
44.93741346115439
 20
-5.354940577465777
 30
0.0
 10
46.30729559022149
 20
-5.018772157479642
 30
0.0
 10
47.05641259389168
 20
-4.74688468125816
 30
0.0
 10
47.1849656764253
 20
-4.700227119089211
 30
0.0
  0
SPLINE
  5
A2
330
1F
100
AcDbEntity
  8
외형선
  6
Continuous
370
    15
100
AcDbSpline
210
0.0
220
0.0
230
1.0
 70
    24
 71
     3
 72
    24
 73
    20
 74
     0
 42
0.000000001
 43
0.00000001
 40
0.0
 40
0.0
 40
0.0
 40
0.0
 40
0.125
 40
0.125
 40
0.1874999999999999
 40
0.1874999999999999
 40
0.2499999999999998
 40
0.2499999999999998
 40
0.3749999999999999
 40
0.3749999999999999
 40
0.4999999999999999
 40
0.4999999999999999
 40
0.6249999999999998
 40
0.6249999999999998
 40
0.7499999999999999
 40
0.7499999999999999
 40
0.875
 40
0.875
 40
1.0
 40
1.0
 40
1.0
 40
1.0
 10
26.9875
 20
5.029549065231618
 30
0.0
 10
26.9875
 20
4.855605211065216
 30
0.0
 10
26.98750000000005
 20
4.677411117558231
 30
0.0
 10
26.98750000000004
 20
4.417659945969982
 30
0.0
 10
26.9875
 20
4.329764005658813
 30
0.0
 10
26.98750000000001
 20
4.135665089087781
 30
0.0
 10
26.98750000000001
 20
4.031550050659727
 30
0.0
 10
26.9875
 20
3.696398934625728
 30
0.0
 10
26.9875
 20
3.442045575226333
 30
0.0
 10
26.98749999999998
 20
2.871252554666482
 30
0.0
 10
26.98750000000001
 20
2.554351593312345
 30
0.0
 10
26.98749999999998
 20
1.879629165518221
 30
0.0
 10
26.98749999999997
 20
1.521736622071804
 30
0.0
 10
26.9875
 20
0.8187254614758792
 30
0.0
 10
26.98750000000001
 20
0.4745921572012019
 30
0.0
 10
26.9875
 20
-0.1263334316692137
 30
0.0
 10
26.98749999999998
 20
-0.3816050470074918
 30
0.0
 10
26.98749999999998
 20
-0.7508588708476162
 30
0.0
 10
26.98750000000003
 20
-0.8645010696143323
 30
0.0
 10
26.98750000000003
 20
-0.9079055428118415
 30
0.0
  0
SPLINE
  5
A3
330
1F
100
AcDbEntity
  8
0
  6
Continuous
 62
     1
370
    15
100
AcDbSpline
210
0.0
220
0.0
230
1.0
 70
     8
 71
     3
 72
    50
 73
    46
 74
     0
 42
0.000000001
 43
0.00000001
 40
0.0
 40
0.0
 40
0.0
 40
0.0
 40
0.0624999999999972
 40
0.0624999999999972
 40
0.1249999999999945
 40
0.1249999999999945
 40
0.1562499999999931
 40
0.1562499999999931
 40
0.1874999999999918
 40
0.1874999999999918
 40
0.2499999999999891
 40
0.2499999999999891
 40
0.2812499999999883
 40
0.2812499999999883
 40
0.3124999999999876
 40
0.3124999999999876
 40
0.3437499999999868
 40
0.3437499999999868
 40
0.3749999999999861
 40
0.3749999999999861
 40
0.4374999999999859
 40
0.4374999999999859
 40
0.4999999999999857
 40
0.4999999999999857
 40
0.5624999999999855
 40
0.5624999999999855
 40
0.593749999999986
 40
0.593749999999986
 40
0.6249999999999865
 40
0.6249999999999865
 40
0.6874999999999887
 40
0.6874999999999887
 40
0.7187499999999898
 40
0.7187499999999898
 40
0.7499999999999909
 40
0.7499999999999909
 40
0.7812499999999921
 40
0.7812499999999921
 40
0.8124999999999933
 40
0.8124999999999933
 40
0.8749999999999956
 40
0.8749999999999956
 40
0.9374999999999978
 40
0.9374999999999978
 40
1.0
 40
1.0
 40
1.0
 40
1.0
 10
52.38749999999998
 20
-5.754687499999993
 30
0.0
 10
51.86164139978698
 20
-5.707402200428637
 30
0.0
 10
51.32869494132235
 20
-5.656868710130389
 30
0.0
 10
50.2687517047415
 20
-5.508520410843592
 30
0.0
 10
49.74366159834412
 20
-5.41100040883593
 30
0.0
 10
48.94757409825823
 20
-5.230538887462916
 30
0.0
 10
48.68192550745596
 20
-5.164751496393392
 30
0.0
 10
48.15258150434259
 20
-5.022563907454829
 30
0.0
 10
47.89005306929038
 20
-4.946290661133304
 30
0.0
 10
47.09789884894806
 20
-4.701635647892719
 30
0.0
 10
46.56452794559726
 20
-4.517323904542485
 30
0.0
 10
45.77170305482735
 20
-4.214248816186238
 30
0.0
 10
45.50932622053828
 20
-4.108920593745574
 30
0.0
 10
44.98034849208315
 20
-3.889251690623076
 30
0.0
 10
44.71477156114587
 20
-3.775034067287272
 30
0.0
 10
44.1839646628581
 20
-3.53889057119848
 30
0.0
 10
43.91873736559175
 20
-3.416965908047847
 30
0.0
 10
43.39114714092965
 20
-3.166613115547569
 30
0.0
 10
43.12829985202706
 20
-3.03812024842702
 30
0.0
 10
42.33377000069915
 20
-2.642442871659564
 30
0.0
 10
41.80065725321014
 20
-2.36572557072137
 30
0.0
 10
40.74772544985537
 20
-1.797017835103714
 30
0.0
 10
40.21615551497121
 20
-1.502936932007337
 30
0.0
 10
39.15572157978771
 20
-0.9050206548614044
 30
0.0
 10
38.63083095157334
 20
-0.6019784144597604
 30
0.0
 10
37.83492613394034
 20
-0.1438906341001467
 30
0.0
 10
37.56922589984377
 20
0.00919596669528
 30
0.0
 10
37.03955516661512
 20
0.3146939929555177
 30
0.0
 10
36.7767273925446
 20
0.4668856923112626
 30
0.0
 10
35.98530269503068
 20
0.9220684348168345
 30
0.0
 10
35.45197234241708
 20
1.223983506564491
 30
0.0
 10
34.65853580076232
 20
1.665963009092333
 30
0.0
 10
34.39616279126126
 20
1.811298489615458
 30
0.0
 10
33.86759079054928
 20
2.098543784469582
 30
0.0
 10
33.60210551801747
 20
2.240315365690361
 30
0.0
 10
33.07125663209619
 20
2.5187891634713
 30
0.0
 10
32.80589569026662
 20
2.655489983501879
 30
0.0
 10
32.27781708937245
 20
2.92254927435472
 30
0.0
 10
32.01527678505836
 20
3.052890358137533
 30
0.0
 10
31.2212339550641
 20
3.434882339104997
 30
0.0
 10
30.68799540350194
 20
3.676622177890569
 30
0.0
 10
29.63392665316481
 20
4.125246865513512
 30
0.0
 10
29.10360636527007
 20
4.33351793144581
 30
0.0
 10
28.04276125714916
 20
4.711660575160247
 30
0.0
 10
27.51794156389796
 20
4.880964287976252
 30
0.0
 10
26.98749999999997
 20
5.029549065231632
 30
0.0
  0
LINE
  5
A4
330
1F
100
AcDbEntity
  8
0
  6
Continuous
 62
     1
370
    15
100
AcDbLine
 10
52.3875
 20
-5.211913139545177
 30
0.0
 11
52.3875
 21
0.4930693895452415
 31
0.0
  0
SPLINE
  5
A5
330
1F
100
AcDbEntity
  8
0
  6
Continuous
 62
     1
370
    15
100
AcDbSpline
210
0.0
220
0.0
230
1.0
 70
     8
 71
     3
 72
    50
 73
    46
 74
     0
 42
0.000000001
 43
0.00000001
 40
0.0
 40
0.0
 40
0.0
 40
0.0
 40
0.0625000000000022
 40
0.0625000000000022
 40
0.1250000000000044
 40
0.1250000000000044
 40
0.1562500000000055
 40
0.1562500000000055
 40
0.1875000000000066
 40
0.1875000000000066
 40
0.2500000000000075
 40
0.2500000000000075
 40
0.2812500000000073
 40
0.2812500000000073
 40
0.3125000000000072
 40
0.3125000000000072
 40
0.343750000000007
 40
0.343750000000007
 40
0.3750000000000068
 40
0.3750000000000068
 40
0.4375000000000065
 40
0.4375000000000065
 40
0.5000000000000062
 40
0.5000000000000062
 40
0.5625000000000059
 40
0.5625000000000059
 40
0.5937500000000058
 40
0.5937500000000058
 40
0.6250000000000057
 40
0.6250000000000057
 40
0.6875000000000053
 40
0.6875000000000053
 40
0.7187500000000052
 40
0.7187500000000052
 40
0.7500000000000049
 40
0.7500000000000049
 40
0.7812500000000048
 40
0.7812500000000048
 40
0.8125000000000047
 40
0.8125000000000047
 40
0.8750000000000031
 40
0.8750000000000031
 40
0.9375000000000016
 40
0.9375000000000016
 40
1.0
 40
1.0
 40
1.0
 40
1.0
 10
52.3875
 20
-5.211913139545176
 30
0.0
 10
51.86164139978695
 20
-5.082654354336769
 30
0.0
 10
51.32869494132242
 20
-4.930734431763746
 30
0.0
 10
50.26875170474153
 20
-4.586988746416485
 30
0.0
 10
49.74366159834416
 20
-4.395548255331581
 30
0.0
 10
48.94757409825826
 20
-4.080735537621877
 30
0.0
 10
48.68192550745599
 20
-3.971320584798586
 30
0.0
 10
48.15258150434262
 20
-3.744598704450347
 30
0.0
 10
47.89005306929042
 20
-3.627475537681323
 30
0.0
 10
47.09789884894812
 20
-3.264333946940277
 30
0.0
 10
46.56452794559729
 20
-3.006542452741558
 30
0.0
 10
45.77170305482739
 20
-2.603607429498358
 30
0.0
 10
45.5093262205383
 20
-2.466733378259389
 30
0.0
 10
44.98034849208319
 20
-2.187337734186723
 30
0.0
 10
44.71477156114592
 20
-2.044985573259766
 30
0.0
 10
44.18396466285808
 20
-1.756310686325322
 30
0.0
 10
43.91873736559178
 20
-1.609989423923572
 30
0.0
 10
43.39114714092968
 20
-1.314790288530812
 30
0.0
 10
43.1282998520271
 20
-1.165827063759099
 30
0.0
 10
42.33377000069917
 20
-0.7145868831415861
 30
0.0
 10
41.80065725321014
 20
-0.4087993211949384
 30
0.0
 10
40.74772544985534
 20
0.2011056437597327
 30
0.0
 10
40.21615551497122
 20
0.5074785840997521
 30
0.0
 10
39.15572157978775
 20
1.11283701606349
 30
0.0
 10
38.63083095157337
 20
1.411082318681136
 30
0.0
 10
37.83492613394042
 20
1.849229635518829
 30
0.0
 10
37.56922589984382
 20
1.993545175236558
 30
0.0
 10
37.03955516661519
 20
2.277343424356197
 30
0.0
 10
36.77672739254466
 20
2.416629512798875
 30
0.0
 10
35.98530269503065
 20
2.826928997866925
 30
0.0
 10
35.45197234241709
 20
3.09059860349556
 30
0.0
 10
34.65853580076237
 20
3.463779982102658
 30
0.0
 10
34.39616279126135
 20
3.584325049725552
 30
0.0
 10
33.86759079054932
 20
3.818182409679213
 30
0.0
 10
33.6021055180175
 20
3.931372274577348
 30
0.0
 10
33.07125663209623
 20
4.149163343275679
 30
0.0
 10
32.80589569026668
 20
4.253763459414112
 30
0.0
 10
32.27781708937248
 20
4.45342546103084
 30
0.0
 10
32.01527678505842
 20
4.548484209092313
 30
0.0
 10
31.22123395506424
 20
4.819715617166534
 30
0.0
 10
30.68799540350203
 20
4.981229570266807
 30
0.0
 10
29.63392665316491
 20
5.259715455283263
 30
0.0
 10
29.10360636527018
 20
5.377580863705933
 30
0.0
 10
28.0427612571492
 20
5.566824488569264
 30
0.0
 10
27.51794156389807
 20
5.638000300930903
 30
0.0
 10
26.98750000000001
 20
5.685329631231711
 30
0.0
  0
SPLINE
  5
A6
330
1F
100
AcDbEntity
  8
0
  6
Continuous
 62
     1
370
    15
100
AcDbSpline
210
0.0
220
0.0
230
1.0
 70
     8
 71
     3
 72
    18
 73
    14
 74
     0
 42
0.000000001
 43
0.00000001
 40
0.0
 40
0.0
 40
0.0
 40
0.0
 40
0.0974006641725862
 40
0.1947783064129945
 40
0.2921380344839625
 40
0.3894849919442447
 40
0.4868243479278198
 40
0.5841612868144047
 40
0.6815009978350435
 40
0.7707387210624702
 40
0.8600344811915305
 40
0.9493517895908025
 40
1.0
 40
1.0
 40
1.0
 40
1.0
 10
52.38750000000001
 20
0.493069389545242
 30
0.0
 10
51.70981616283647
 20
0.8807704376888883
 30
0.0
 10
50.35460866802627
 20
1.656080895717742
 30
0.0
 10
48.32212953979917
 20
2.74506688218913
 30
0.0
 10
46.29008991184377
 20
3.721713330239146
 30
0.0
 10
44.25837410090523
 20
4.543787986400211
 30
0.0
 10
42.22684093285263
 20
5.177716992775531
 30
0.0
 10
40.19539475679756
 20
5.59735721277536
 30
0.0
 10
38.22020180761002
 20
5.779366121607135
 30
0.0
 10
36.30125317782483
 20
5.741487619633429
 30
0.0
 10
34.43772009733531
 20
5.497103773356931
 30
0.0
 10
32.8425117308129
 20
5.148759616098488
 30
0.0
 10
31.86886381598915
 20
4.819484753811365
 30
0.0
 10
31.5165375796827
 20
4.700332675145483
 30
0.0
  0
LINE
  5
A7
330
1F
100
AcDbEntity
  8
0
  6
Continuous
 62
     1
370
    15
100
AcDbLine
 10
52.38749999999998
 20
-5.754687499999993
 30
0.0
 11
52.3875
 21
-5.211913139545177
 31
0.0
  0
LINE
  5
A8
330
1F
100
AcDbEntity
  8
외형선
  6
Continuous
370
    15
100
AcDbLine
 10
26.98749999999995
 20
5.029549065231623
 30
0.0
 11
26.9875
 21
5.685329631231709
 31
0.0
  0
SPLINE
  5
A9
330
1F
100
AcDbEntity
  8
0
  6
Continuous
 62
     1
370
    15
100
AcDbSpline
210
0.0
220
0.0
230
1.0
 70
     8
 71
     3
 72
    14
 73
    10
 74
     0
 42
0.000000001
 43
0.00000001
 40
0.0
 40
0.0
 40
0.0
 40
0.0
 40
0.0102878345886397
 40
0.1753383526157585
 40
0.3402718516100853
 40
0.5051463413378404
 40
0.6700202832201709
 40
0.8349521423116784
 40
0.9999999999999999
 40
0.9999999999999999
 40
0.9999999999999999
 40
0.9999999999999999
 10
41.09485431130275
 20
5.748259699341116
 30
0.0
 10
41.13358547961268
 20
5.750388159086993
 30
0.0
 10
41.79369127620529
 20
5.786664075290296
 30
0.0
 10
43.07474731746994
 20
5.659416139241286
 30
0.0
 10
44.93741067045671
 20
5.367555677067822
 30
0.0
 10
46.79930505683108
 20
4.865025696427596
 30
0.0
 10
48.66119114989538
 20
4.197967723952479
 30
0.0
 10
50.52383518447557
 20
3.388932366503855
 30
0.0
 10
51.76613282549084
 20
2.756219571568237
 30
0.0
 10
52.3875
 20
2.439751964543193
 30
0.0
  0
LINE
  5
AA
330
1F
100
AcDbEntity
  8
0
  6
Continuous
 62
     1
370
    15
100
AcDbLine
 10
52.3875
 20
0.4930693895452418
 30
0.0
 11
52.3875
 21
2.439751964543193
 31
0.0
  0
SPLINE
  5
AB
330
1F
100
AcDbEntity
  8
0
  6
Continuous
 62
     1
370
    15
100
AcDbSpline
210
0.0
220
0.0
230
1.0
 70
     8
 71
     3
 72
    13
 73
     9
 74
     0
 42
0.000000001
 43
0.00000001
 40
0.0
 40
0.0
 40
0.0
 40
0.0
 40
0.1212702080549949
 40
0.2970896256183553
 40
0.4729514707764037
 40
0.6486846593716772
 40
0.8243467513486429
 40
0.9999999999999999
 40
0.9999999999999999
 40
0.9999999999999999
 40
0.9999999999999999
 10
37.58693571886257
 20
-5.733225424338023
 30
0.0
 10
37.15849818557032
 20
-5.732510826012005
 30
0.0
 10
36.1089053102211
 20
-5.730760192014187
 30
0.0
 10
34.43771313142162
 20
-5.497160559741689
 30
0.0
 10
32.573933175931
 20
-5.073709500826539
 30
0.0
 10
30.71112175692525
 20
-4.464050106072251
 30
0.0
 10
28.84917106147714
 20
-3.708015074380125
 30
0.0
 10
27.60804660661211
 20
-3.100291798662171
 30
0.0
 10
26.98749999999997
 20
-2.796437809622055
 30
0.0
  0
LINE
  5
AC
330
1F
100
AcDbEntity
  8
외형선
  6
Continuous
370
    15
100
AcDbLine
 10
26.98749999999995
 20
-2.796437809622069
 30
0.0
 11
26.9875
 21
-0.8907610268164253
 31
0.0
  0
SPLINE
  5
AD
330
1F
100
AcDbEntity
  8
0
  6
Continuous
 62
     1
370
    15
100
AcDbSpline
210
0.0
220
0.0
230
1.0
 70
     8
 71
     3
 72
    10
 73
     6
 74
     0
 42
0.000000001
 43
0.00000001
 40
0.0
 40
0.0
 40
0.0
 40
0.0
 40
0.3907625351291882
 40
0.7814327083770916
 40
1.0
 40
1.0
 40
1.0
 40
1.0
 10
52.3875
 20
5.754687500000006
 30
0.0
 10
51.7098167221173
 20
5.675257149657751
 30
0.0
 10
50.35461034573665
 20
5.558734894515857
 30
0.0
 10
48.62045186847467
 20
5.185379888243173
 30
0.0
 10
47.56398056695002
 20
4.828323177906839
 30
0.0
 10
47.1849656764253
 20
4.700227119089206
 30
0.0
  0
LINE
  5
AE
330
1F
100
AcDbEntity
  8
0
  6
Continuous
 62
     1
370
    15
100
AcDbLine
 10
52.3875
 20
2.430478851353332
 30
0.0
 11
52.38749999999998
 21
5.754687500000006
 31
0.0
  0
SPLINE
  5
AF
330
1F
100
AcDbEntity
  8
0
  6
Continuous
 62
     1
370
    15
100
AcDbSpline
210
0.0
220
0.0
230
1.0
 70
     8
 71
     3
 72
    10
 73
     6
 74
     0
 42
0.000000001
 43
0.00000001
 40
0.0
 40
0.0
 40
0.0
 40
0.0
 40
0.4485506515602608
 40
0.8970877109108416
 40
1.0
 40
1.0
 40
1.0
 40
1.0
 10
26.9875
 20
-5.685329631231711
 30
0.0
 10
27.66467102519675
 20
-5.599073965122566
 30
0.0
 10
29.0189925556099
 20
-5.426565246667287
 30
0.0
 10
30.52865940918898
 20
-5.059111858645018
 30
0.0
 10
31.36117272019816
 20
-4.756758334801987
 30
0.0
 10
31.51653757968262
 20
-4.700332675145487
 30
0.0
  0
SPLINE
  5
B0
330
1F
100
AcDbEntity
  8
외형선
  6
Continuous
370
    15
100
AcDbSpline
210
0.0
220
0.0
230
1.0
 70
    24
 71
     3
 72
    13
 73
     9
 74
     0
 42
0.000000001
 43
0.00000001
 40
0.0
 40
0.0
 40
0.0
 40
0.0
 40
0.1283754487967096
 40
0.3223328117651414
 40
0.5108239198302896
 40
0.7047812827988188
 40
0.8511370309325836
 40
1.0
 40
1.0
 40
1.0
 40
1.0
 10
26.98750000000001
 20
-2.868999776669861
 30
0.0
 10
26.98749999999997
 20
-2.966068515467981
 30
0.0
 10
26.98749999999988
 20
-3.209794553464866
 30
0.0
 10
26.98750000000001
 20
-3.664375166306392
 30
0.0
 10
26.98750000000005
 20
-4.210925440898625
 30
0.0
 10
26.98750000000003
 20
-4.73986801803015
 30
0.0
 10
26.9874999999999
 20
-5.237108325651477
 30
0.0
 10
26.9875
 20
-5.535078998496568
 30
0.0
 10
26.98750000000001
 20
-5.685329631231716
 30
0.0
  0
LINE
  5
B1
330
1F
100
AcDbEntity
  8
외형선
  6
Continuous
370
    15
100
AcDbLine
 10
25.9875
 20
-0.0000000000000027
 30
0.0
 11
25.9875
 21
5.754687499999997
 31
0.0
  0
LINE
  5
B2
330
1F
100
AcDbEntity
  8
외형선
  6
Continuous
370
    15
100
AcDbLine
 10
25.9875
 20
-5.754687500000002
 30
0.0
 11
25.9875
 21
-0.0000000000000027
 31
0.0
  0
LINE
  5
B3
330
1F
100
AcDbEntity
  8
외형선
  6
Continuous
370
    15
100
AcDbLine
 10
23.76576350361911
 20
-0.0000000000000027
 30
0.0
 11
23.76576350361911
 21
6.350000000000006
 31
0.0
  0
LINE
  5
B4
330
1F
100
AcDbEntity
  8
외형선
  6
Continuous
370
    15
100
AcDbLine
 10
23.76576350361911
 20
-6.350000000000011
 30
0.0
 11
23.76576350361911
 21
-0.0000000000000027
 31
0.0
  0
LINE
  5
B9
330
1F
100
AcDbEntity
  8
외형선
  6
Continuous
370
    15
100
AcDbLine
 10
26.48742648226703
 20
5.722787445738239
 30
0.0
 11
26.48742648226703
 21
5.754687499999997
 31
0.0
  0
SPLINE
  5
BA
330
1F
100
AcDbEntity
  8
외형선
  6
Continuous
370
    15
100
AcDbSpline
210
0.0
220
0.0
230
1.0
 70
     8
 71
     3
 72
     8
 73
     4
 74
     0
 42
0.000000001
 43
0.00000001
 40
0.0
 40
0.0
 40
0.0
 40
0.0
 40
1.0
 40
1.0
 40
1.0
 40
1.0
 10
26.98749999999998
 20
5.685329631231711
 30
0.0
 10
26.82090607229603
 20
5.700194188549705
 30
0.0
 10
26.65411042893727
 20
5.712688444956981
 30
0.0
 10
26.48742648226703
 20
5.722787635493756
 30
0.0
  0
SPLINE
  5
BB
330
1F
100
AcDbEntity
  8
외형선
  6
Continuous
370
    15
100
AcDbSpline
210
0.0
220
0.0
230
1.0
 70
     8
 71
     3
 72
     8
 73
     4
 74
     0
 42
0.000000001
 43
0.00000001
 40
0.0
 40
0.0
 40
0.0
 40
0.0
 40
1.0
 40
1.0
 40
1.0
 40
1.0
 10
26.98750000000003
 20
5.029549065231611
 30
0.0
 10
26.82090607229606
 20
5.076214566815026
 30
0.0
 10
26.65411042893729
 20
5.120796690950166
 30
0.0
 10
26.48742648226704
 20
5.163210512904454
 30
0.0
  0
LINE
  5
BC
330
1F
100
AcDbEntity
  8
외형선
  6
Continuous
370
    15
100
AcDbLine
 10
26.48742648226703
 20
-0.6050884840724502
 30
0.0
 11
26.48742648226703
 21
5.163217771752994
 31
0.0
  0
SPLINE
  5
BD
330
1F
100
AcDbEntity
  8
외형선
  6
Continuous
370
    15
100
AcDbSpline
210
0.0
220
0.0
230
1.0
 70
     8
 71
     3
 72
     8
 73
     4
 74
     0
 42
0.000000001
 43
0.00000001
 40
0.0
 40
0.0
 40
0.0
 40
0.0
 40
1.0
 40
1.0
 40
1.0
 40
1.0
 10
26.98749999999998
 20
-0.8907610268164022
 30
0.0
 10
26.82090607229603
 20
-0.7958871991219103
 30
0.0
 10
26.65411042893727
 20
-0.700602792708471
 30
0.0
 10
26.48742648226703
 20
-0.6050866894057917
 30
0.0
  0
SPLINE
  5
BE
330
1F
100
AcDbEntity
  8
외형선
  6
Continuous
370
    15
100
AcDbSpline
210
0.0
220
0.0
230
1.0
 70
     8
 71
     3
 72
     8
 73
     4
 74
     0
 42
0.000000001
 43
0.00000001
 40
0.0
 40
0.0
 40
0.0
 40
0.0
 40
1.0
 40
1.0
 40
1.0
 40
1.0
 10
26.98750000000003
 20
-2.796437809622081
 30
0.0
 10
26.82090607229606
 20
-2.712507307373887
 30
0.0
 10
26.65411042893729
 20
-2.627374124910568
 30
0.0
 10
26.48742648226704
 20
-2.541197635385537
 30
0.0
  0
LINE
  5
BF
330
1F
100
AcDbEntity
  8
외형선
  6
Continuous
370
    15
100
AcDbLine
 10
26.48742648226703
 20
-5.754687500000002
 30
0.0
 11
26.48742648226703
 21
-2.541182886789178
 31
0.0
  0
SPLINE
  5
C0
330
1F
100
AcDbEntity
  8
외형선
  6
Continuous
370
    15
100
AcDbSpline
210
0.0
220
0.0
230
1.0
 70
     8
 71
     3
 72
     8
 73
     4
 74
     0
 42
0.000000001
 43
0.00000001
 40
0.0
 40
0.0
 40
0.0
 40
0.0
 40
1.0
 40
1.0
 40
1.0
 40
1.0
 10
26.98749999999998
 20
-5.685329631231712
 30
0.0
 10
26.82090607229603
 20
-5.700194188549707
 30
0.0
 10
26.65411042893727
 20
-5.712688444956981
 30
0.0
 10
26.48742648226703
 20
-5.722787635493757
 30
0.0
  0
SPLINE
  5
C1
330
1F
100
AcDbEntity
  8
외형선
  6
Continuous
370
    15
100
AcDbSpline
210
0.0
220
0.0
230
1.0
 70
    24
 71
     3
 72
    21
 73
    17
 74
     0
 42
0.000000001
 43
0.00000001
 40
0.0
 40
0.0
 40
0.0
 40
0.0
 40
0.0379924251622229
 40
0.1106207875132333
 40
0.1853553772926159
 40
0.2579837396436651
 40
0.3327183294230906
 40
0.40534669177412
 40
0.4800812815535242
 40
0.5527096439045546
 40
0.6274442336839596
 40
0.7000725960349841
 40
0.7748071858143829
 40
0.8474355481654172
 40
0.9221701379448266
 40
1.0
 40
1.0
 40
1.0
 40
1.0
 10
26.9875
 20
-0.9020931403681693
 30
0.0
 10
26.98749999999998
 20
-0.8948683936664833
 30
0.0
 10
26.98749999999988
 20
-0.873832432779237
 30
0.0
 10
26.98749999999998
 20
-0.7340800535978169
 30
0.0
 10
26.9875
 20
-0.4942111795420427
 30
0.0
 10
26.98749999999991
 20
-0.1611388490427842
 30
0.0
 10
26.98749999999995
 20
0.243494744644447
 30
0.0
 10
26.98750000000004
 20
0.7171883309642937
 30
0.0
 10
26.98749999999986
 20
1.237564357243091
 30
0.0
 10
26.98750000000004
 20
1.79937020045111
 30
0.0
 10
26.98749999999995
 20
2.376594448235115
 30
0.0
 10
26.98749999999993
 20
2.96316926330286
 30
0.0
 10
26.98750000000003
 20
3.532405780605337
 30
0.0
 10
26.98749999999997
 20
4.076666206463881
 30
0.0
 10
26.98749999999998
 20
4.589186273580837
 30
0.0
 10
26.98749999999997
 20
4.880789424640811
 30
0.0
 10
26.98749999999997
 20
5.029549065231656
 30
0.0
  0
SPLINE
  5
C2
330
1F
100
AcDbEntity
  8
외형선
  6
Continuous
370
    15
100
AcDbSpline
210
0.0
220
0.0
230
1.0
 70
    24
 71
     3
 72
    13
 73
     9
 74
     0
 42
0.000000001
 43
0.00000001
 40
0.0
 40
0.0
 40
0.0
 40
0.0
 40
0.1843814852722837
 40
0.3738680893830497
 40
0.5623567097841103
 40
0.7563115129459228
 40
0.9448001333470842
 40
0.9999999999999999
 40
0.9999999999999999
 40
0.9999999999999999
 40
0.9999999999999999
 10
26.98749999999998
 20
-5.68532963123171
 30
0.0
 10
26.98750000000003
 20
-5.49890024852602
 30
0.0
 10
26.98750000000011
 20
-5.120879662488825
 30
0.0
 10
26.98749999999993
 20
-4.550096612612524
 30
0.0
 10
26.98750000000001
 20
-3.986724012285819
 30
0.0
 10
26.9875
 20
-3.462457101578945
 30
0.0
 10
26.98749999999988
 20
-3.08328914653627
 30
0.0
 10
26.98749999999997
 20
-2.908575573100388
 30
0.0
 10
26.98749999999997
 20
-2.868999776669861
 30
0.0
  0
LINE
  5
C3
330
1F
100
AcDbEntity
  8
중심선
 48
0.8
100
AcDbLine
 10
-55.38750000000001
 20
-0.0000000000000066
 30
0.0
 11
55.38750000000001
 21
0.0000000000000066
 31
0.0
  0
LINE
  5
C4
330
1F
100
AcDbEntity
  8
참조1
100
AcDbLine
 10
12.89338065701562
 20
0.0010749287238892
 30
0.0
 11
12.89338065701562
 21
-39.99892507127611
 31
0.0
  0
LINE
  5
C5
330
1F
100
AcDbEntity
  8
참조1
100
AcDbLine
 10
12.89338065701562
 20
-39.99892507127611
 30
0.0
 11
-29.25297615729306
 21
-39.9989250712761
 31
0.0
  0
CIRCLE
  5
C6
330
1F
100
AcDbEntity
  8
해칭선
100
AcDbCircle
 10
0.0
 20
0.0
 30
0.0
 40
3.000000000000005
  0
INSERT
  5
C7
330
1F
100
AcDbEntity
  8
0
  6
Continuous
 62
     7
100
AcDbBlockReference
 66
     1
  2
블럭10
 10
-13.9402729321252
 20
-52.04717430164393
 30
0.0
  0
ATTRIB
  5
C8
330
C7
100
AcDbEntity
  8
FORMAT
 62
     2
100
AcDbText
 10
-23.12156822086649
 20
-49.97180738881174
 30
0.0
 40
4.233333333333333
  1
E2053029 [ 4 FLUTE ]
 41
0.75
  7
SLDTEXTSTYLE0
 11
-23.12156822086649
 21
-52.08847405547841
 31
0.0
100
AcDbAttribute
  2
AUTOATTR0
 70
     0
 74
     1
  0
SEQEND
  5
C9
330
C7
100
AcDbEntity
  8
0
  6
Continuous
 62
     7
  0
HATCH
  5
CA
330
1F
100
AcDbEntity
  8
중심선
100
AcDbHatch
 10
0.0
 20
0.0
 30
0.0
210
0.0
220
0.0
230
1.0
  2
SOLID
 70
     1
 71
     0
 91
        1
 92
        0
 93
        4
 72
     1
 10
-8.225363627744372
 20
-35.8
 11
-11.67163887158165
 21
-35.8
 72
     1
 10
-11.67163887158165
 20
-35.8
 11
-13.79986873078568
 21
-38.33632558057257
 72
     1
 10
-13.79986873078568
 20
-38.33632558057257
 11
-10.35356040183524
 21
-38.33628615127008
 72
     1
 10
-10.35356040183524
 20
-38.33628615127008
 11
-8.225363627744372
 21
-35.8
 97
        0
 75
     0
 76
     1
 98
        1
 10
-12.89338065701562
 20
-0.0010749287238958
  0
HATCH
  5
CB
330
1F
100
AcDbEntity
  8
중심선
100
AcDbHatch
 10
0.0
 20
0.0
 30
0.0
210
0.0
220
0.0
230
1.0
  2
SOLID
 70
     1
 71
     0
 91
        1
 92
        0
 93
        4
 72
     1
 10
-3.212599636708392
 20
-35.8
 11
-6.658874880545646
 21
-35.79999999999998
 72
     1
 10
-6.658874880545646
 20
-35.79999999999998
 11
-11.19001288890309
 21
-41.20000000000002
 72
     1
 10
-11.19001288890309
 20
-41.20000000000002
 11
-7.743737645065809
 21
-41.20000000000002
 72
     1
 10
-7.743737645065808
 20
-41.20000000000002
 11
-3.212599636708392
 21
-35.8
 97
        0
 75
     0
 76
     1
 98
        1
 10
-12.89338065701562
 20
-0.0010749287238958
  0
HATCH
  5
CC
330
1F
100
AcDbEntity
  8
중심선
100
AcDbHatch
 10
0.0
 20
0.0
 30
0.0
210
0.0
220
0.0
230
1.0
  2
SOLID
 70
     1
 71
     0
 91
        1
 92
        0
 93
        4
 72
     1
 10
1.800164354327476
 20
-35.79999999999998
 11
-1.646110889509611
 21
-35.79999999999998
 72
     1
 10
-1.646110889509611
 20
-35.79999999999998
 11
-8.69454779139889
 21
-44.20000000000002
 72
     1
 10
-8.69454779139889
 20
-44.20000000000002
 11
-5.248272547561608
 21
-44.20000000000002
 72
     1
 10
-5.248272547561607
 20
-44.20000000000002
 11
1.800164354327476
 21
-35.79999999999998
 97
        0
 75
     0
 76
     1
 98
        1
 10
-12.89338065701562
 20
-0.0010749287238958
  0
HATCH
  5
CD
330
1F
100
AcDbEntity
  8
중심선
100
AcDbHatch
 10
0.0
 20
0.0
 30
0.0
210
0.0
220
0.0
230
1.0
  2
SOLID
 70
     1
 71
     0
 91
        1
 92
        0
 93
        6
 72
     3
 10
6.600054785339676
 20
-40.00000000005127
 11
3.960054785062283
 21
1.540882976769353E-10
 40
0.3939339440162628
 50
17.09539180608436
 51
320.0019657685078
 73
     0
 72
     1
 10
8.28305444104027
 20
-38.5878940046383
 11
10.58835631474131
 21
-36.65356729459035
 72
     3
 10
6.600054785286829
 20
-40.00000000000015
 11
6.600054785286829
 21
-1.278976924368180E-13
 40
0.636358354079598
 50
39.99873849337431
 51
368.4976242363724
 73
     1
 72
     1
 10
13.02538727718744
 20
-39.03999999993002
 11
5.280122092122753
 21
-39.03999999993002
 72
     1
 10
5.280122092122753
 20
-39.03999999993002
 11
5.280097047676819
 21
-40.95999999992991
 72
     1
 10
5.280097047676819
 20
-40.95999999992991
 11
9.721476817148854
 21
-40.95999999992988
 97
        0
 75
     0
 76
     1
 98
        1
 10
-12.89338065701562
 20
-0.0010749287238958
  0
DIMENSION
  5
CE
330
1F
100
AcDbEntity
  8
치수문자_일반주서
100
AcDbDimension
  2
_D
 10
67.28062107956035
 20
-5.754687499999939
 30
0.0
 11
67.2806210795602
 21
33.82185845482397
 31
0.0
 70
   160
  1
%%c<>
 71
     2
 42
11.509375
 52
-270.0
  3
SLDDIMSTYLE2
100
AcDbAlignedDimension
 13
52.38749999999998
 23
5.754687500000006
 33
0.0
 14
52.38749999999998
 24
-5.754687499999993
 34
0.0
 50
90.0000000000002
100
AcDbRotatedDimension
1001
ACAD
1000
DSTYLE
1002
{
1070
   171
1070
     6
1070
   273
1070
     5
1002
}
  0
DIMENSION
  5
E2
330
1F
100
AcDbEntity
  8
치수문자_일반주서
100
AcDbDimension
  2
_D_1
 10
26.9875
 20
21.38915829707533
 30
0.0
 11
6.111736303436892
 21
21.38915829707533
 31
0.0
 70
   160
  1
<>
 71
     2
 42
25.39999999999998
  3
SLDDIMSTYLE2
100
AcDbAlignedDimension
 13
52.38749999999998
 23
5.754687500000006
 33
0.0
 14
26.9875
 24
5.685329631231709
 34
0.0
100
AcDbRotatedDimension
1001
ACAD
1000
DSTYLE
1002
{
1070
   171
1070
     6
1070
   273
1070
     5
1002
}
  0
DIMENSION
  5
F7
330
1F
100
AcDbEntity
  8
치수문자_일반주서
100
AcDbDimension
  2
_D_2
 10
-52.38749999999998
 20
38.79493851792343
 30
0.0
 11
2.630580259267269
 21
38.79493851792343
 31
0.0
 70
   160
  1
<>
 71
     2
 42
104.775
  3
SLDDIMSTYLE2
100
AcDbAlignedDimension
 13
52.38749999999998
 23
5.754687500000006
 33
0.0
 14
-52.38749999999998
 24
5.754687499999988
 34
0.0
100
AcDbRotatedDimension
1001
ACAD
1000
DSTYLE
1002
{
1070
   171
1070
     6
1070
   273
1070
     5
1002
}
  0
DIMENSION
  5
10A
330
1F
100
AcDbEntity
  8
치수문자_일반주서
100
AcDbDimension
  2
_D_3
 10
-64.59375
 20
-6.35000000000016
 30
0.0
 11
-64.59375000000003
 21
-0.0000000000000087
 31
0.0
 70
   160
  1
%%c<>
 71
     2
 42
12.70000000000001
 52
-270.0
  3
SLDDIMSTYLE2
100
AcDbAlignedDimension
 13
-23.76576350361909
 23
6.350000000000008
 33
0.0
 14
-23.7657635036191
 24
-6.350000000000007
 34
0.0
 50
90.0000000000002
100
AcDbRotatedDimension
1001
ACAD
1000
DSTYLE
1002
{
1070
   171
1070
     6
1070
   273
1070
     5
1002
}
  0
LINE
  5
11F
330
1F
100
AcDbEntity
  8
참조1
100
AcDbLine
 10
68.7193644723612
 20
7.441074928723896
 30
0.0
 11
68.7193644723612
 21
-7.438925071276109
 31
0.0
  0
LINE
  5
120
330
1F
100
AcDbEntity
  8
참조1
100
AcDbLine
 10
81.41936447236121
 20
5.441074928723896
 30
0.0
 11
68.7193644723612
 21
5.441074928723896
 31
0.0
  0
SOLID
  5
121
330
1F
100
AcDbEntity
  8
참조1
100
AcDbTrace
 10
68.7193644723612
 20
5.441074928723896
 30
0.0
 11
75.0693644723612
 21
4.425074928723896
 31
0.0
 12
75.0693644723612
 22
6.457074928723896
 32
0.0
 13
75.0693644723612
 23
6.457074928723896
 33
0.0
  0
LINE
  5
122
330
1F
100
AcDbEntity
  8
참조1
100
AcDbLine
 10
81.41936447236121
 20
-5.438925071276109
 30
0.0
 11
68.7193644723612
 21
-5.438925071276109
 31
0.0
  0
SOLID
  5
123
330
1F
100
AcDbEntity
  8
참조1
100
AcDbTrace
 10
68.7193644723612
 20
-5.438925071276109
 30
0.0
 11
75.0693644723612
 21
-6.454925071276109
 31
0.0
 12
75.0693644723612
 22
-4.422925071276109
 32
0.0
 13
75.0693644723612
 23
-4.422925071276109
 33
0.0
  0
MTEXT
  5
124
330
1F
100
AcDbEntity
  8
참조1
100
AcDbMText
 10
78.1037146049872
 20
11.01136670591223
 30
0.0
 40
3.5
 41
0.0
 71
     1
 72
     1
  1
A
  7
SLDTEXTSTYLE0
 73
     1
 44
1.0
  0
MTEXT
  5
125
330
1F
100
AcDbEntity
  8
참조1
100
AcDbMText
 10
78.1037146049872
 20
0.1313667059122219
 30
0.0
 40
3.5
 41
0.0
 71
     1
 72
     1
  1
A
  7
SLDTEXTSTYLE0
 73
     1
 44
1.0
  0
INSERT
  5
12C
330
1F
100
AcDbEntity
  8
해칭선
100
AcDbBlockReference
  2
SW_DOWELSYMBOL_0
 10
0.0
 20
0.0
 30
0.0
  0
LINE
  5
316
330
1F
100
AcDbEntity
  8
0
  6
Continuous
 62
     1
370
    15
100
AcDbLine
 10
-28.43229033285851
 20
1.703483515461279
 30
0.0
 11
-28.473931158041
 21
1.726346919589467
 31
0.0
  0
LINE
  5
317
330
1F
100
AcDbEntity
  8
0
  6
Continuous
 62
     1
370
    15
100
AcDbLine
 10
-41.09485431130275
 20
-5.754687500000004
 30
0.0
 11
-37.58693571886263
 21
-5.754687500000004
 31
0.0
  0
LINE
  5
318
330
1F
100
AcDbEntity
  8
0
  6
Continuous
 62
     1
370
    15
100
AcDbLine
 10
-37.58693571886254
 20
5.754687500000002
 30
0.0
 11
-41.09485431130272
 21
5.754687500000002
 31
0.0
  0
LINE
  5
319
330
1F
100
AcDbEntity
  8
외형선
  6
Continuous
370
    15
100
AcDbLine
 10
-23.76576350361909
 20
6.350000000000008
 30
0.0
 11
-25.98749999999998
 21
5.754687500000002
 31
0.0
  0
LINE
  5
31A
330
1F
100
AcDbEntity
  8
외형선
  6
Continuous
370
    15
100
AcDbLine
 10
-25.98749999999998
 20
-5.754687499999997
 30
0.0
 11
-23.76576350361909
 21
-6.350000000000009
 31
0.0
  0
LINE
  5
31D
330
1F
100
AcDbEntity
  8
외형선
  6
Continuous
370
    15
100
AcDbLine
 10
-25.98749999999998
 20
5.754687500000002
 30
0.0
 11
-26.487426482267
 21
5.754687500000002
 31
0.0
  0
LINE
  5
31E
330
1F
100
AcDbEntity
  8
외형선
  6
Continuous
370
    15
100
AcDbLine
 10
-26.487426482267
 20
-5.754687499999997
 30
0.0
 11
-25.98749999999998
 21
-5.754687499999997
 31
0.0
  0
SPLINE
  5
31F
330
1F
100
AcDbEntity
  8
0
  6
Continuous
 62
     1
370
    15
100
AcDbSpline
210
0.0
220
0.0
230
1.0
 70
     8
 71
     3
 72
    18
 73
    14
 74
     0
 42
0.000000001
 43
0.00000001
 40
0.0
 40
0.0
 40
0.0
 40
0.0
 40
0.1005840210839691
 40
0.2011649942198414
 40
0.3017482815653441
 40
0.4023392406333322
 40
0.5029432135494601
 40
0.6035655163753851
 40
0.7042114285427731
 40
0.7964965810836284
 40
0.8887163044490988
 40
0.9809030338001788
 40
1.0
 40
1.0
 40
1.0
 40
1.0
 10
-26.9875
 20
0.8907610268164199
 30
0.0
 10
-27.66467072240624
 20
1.273504790706659
 30
0.0
 10
-29.01899164724755
 20
2.038980720391201
 30
0.0
 10
-31.05045688194354
 20
3.092911057185148
 30
0.0
 10
-33.08198079958287
 20
4.021401068332962
 30
0.0
 10
-35.11368926474469
 20
4.782684970549687
 30
0.0
 10
-37.1457156348031
 20
5.346018856496179
 30
0.0
 10
-39.17817675378162
 20
5.688197415837634
 30
0.0
 10
-41.15475450827977
 20
5.790651592188452
 30
0.0
 10
-43.0747443512277
 20
5.676867510151467
 30
0.0
 10
-44.93741346115439
 20
5.354940577465775
 30
0.0
 10
-46.30729559022148
 20
5.018772157479638
 30
0.0
 10
-47.05641259389167
 20
4.746884681258158
 30
0.0
 10
-47.18496567642529
 20
4.700227119089212
 30
0.0
  0
SPLINE
  5
320
330
1F
100
AcDbEntity
  8
외형선
  6
Continuous
370
    15
100
AcDbSpline
210
0.0
220
0.0
230
1.0
 70
    24
 71
     3
 72
    24
 73
    20
 74
     0
 42
0.000000001
 43
0.00000001
 40
0.0
 40
0.0
 40
0.0
 40
0.0
 40
0.125
 40
0.125
 40
0.1874999999999999
 40
0.1874999999999999
 40
0.2499999999999998
 40
0.2499999999999998
 40
0.3749999999999999
 40
0.3749999999999999
 40
0.4999999999999999
 40
0.4999999999999999
 40
0.6249999999999998
 40
0.6249999999999998
 40
0.7499999999999999
 40
0.7499999999999999
 40
0.875
 40
0.875
 40
1.0
 40
1.0
 40
1.0
 40
1.0
 10
-26.98749999999998
 20
-5.029549065231621
 30
0.0
 10
-26.98749999999998
 20
-4.855605211065218
 30
0.0
 10
-26.98750000000003
 20
-4.677411117558237
 30
0.0
 10
-26.98750000000003
 20
-4.417659945969988
 30
0.0
 10
-26.98749999999998
 20
-4.329764005658817
 30
0.0
 10
-26.9875
 20
-4.135665089087781
 30
0.0
 10
-26.9875
 20
-4.031550050659733
 30
0.0
 10
-26.98749999999998
 20
-3.696398934625734
 30
0.0
 10
-26.98749999999998
 20
-3.442045575226331
 30
0.0
 10
-26.98749999999998
 20
-2.871252554666484
 30
0.0
 10
-26.9875
 20
-2.554351593312348
 30
0.0
 10
-26.98749999999998
 20
-1.879629165518225
 30
0.0
 10
-26.98749999999995
 20
-1.521736622071807
 30
0.0
 10
-26.98749999999998
 20
-0.8187254614758792
 30
0.0
 10
-26.9875
 20
-0.4745921572012015
 30
0.0
 10
-26.98749999999998
 20
0.1263334316692089
 30
0.0
 10
-26.98749999999998
 20
0.3816050470074892
 30
0.0
 10
-26.98749999999998
 20
0.7508588708476147
 30
0.0
 10
-26.9875
 20
0.8645010696143338
 30
0.0
 10
-26.9875
 20
0.9079055428118388
 30
0.0
  0
SPLINE
  5
321
330
1F
100
AcDbEntity
  8
0
  6
Continuous
 62
     1
370
    15
100
AcDbSpline
210
0.0
220
0.0
230
1.0
 70
     8
 71
     3
 72
    50
 73
    46
 74
     0
 42
0.000000001
 43
0.00000001
 40
0.0
 40
0.0
 40
0.0
 40
0.0
 40
0.0624999999999972
 40
0.0624999999999972
 40
0.1249999999999945
 40
0.1249999999999945
 40
0.1562499999999931
 40
0.1562499999999931
 40
0.1874999999999918
 40
0.1874999999999918
 40
0.2499999999999891
 40
0.2499999999999891
 40
0.2812499999999883
 40
0.2812499999999883
 40
0.3124999999999876
 40
0.3124999999999876
 40
0.3437499999999868
 40
0.3437499999999868
 40
0.3749999999999861
 40
0.3749999999999861
 40
0.4374999999999859
 40
0.4374999999999859
 40
0.4999999999999857
 40
0.4999999999999857
 40
0.5624999999999855
 40
0.5624999999999855
 40
0.593749999999986
 40
0.593749999999986
 40
0.6249999999999865
 40
0.6249999999999865
 40
0.6874999999999887
 40
0.6874999999999887
 40
0.7187499999999898
 40
0.7187499999999898
 40
0.7499999999999909
 40
0.7499999999999909
 40
0.7812499999999921
 40
0.7812499999999921
 40
0.8124999999999933
 40
0.8124999999999933
 40
0.8749999999999956
 40
0.8749999999999956
 40
0.9374999999999978
 40
0.9374999999999978
 40
1.0
 40
1.0
 40
1.0
 40
1.0
 10
-52.38749999999998
 20
5.754687499999988
 30
0.0
 10
-51.86164139978697
 20
5.707402200428638
 30
0.0
 10
-51.32869494132233
 20
5.656868710130389
 30
0.0
 10
-50.2687517047415
 20
5.508520410843587
 30
0.0
 10
-49.74366159834411
 20
5.411000408835931
 30
0.0
 10
-48.94757409825822
 20
5.230538887462912
 30
0.0
 10
-48.68192550745595
 20
5.164751496393392
 30
0.0
 10
-48.15258150434257
 20
5.022563907454823
 30
0.0
 10
-47.89005306929038
 20
4.946290661133303
 30
0.0
 10
-47.09789884894806
 20
4.701635647892714
 30
0.0
 10
-46.56452794559726
 20
4.517323904542486
 30
0.0
 10
-45.77170305482735
 20
4.214248816186241
 30
0.0
 10
-45.50932622053826
 20
4.108920593745572
 30
0.0
 10
-44.98034849208315
 20
3.889251690623076
 30
0.0
 10
-44.71477156114585
 20
3.775034067287272
 30
0.0
 10
-44.1839646628581
 20
3.538890571198479
 30
0.0
 10
-43.91873736559173
 20
3.416965908047842
 30
0.0
 10
-43.39114714092963
 20
3.166613115547569
 30
0.0
 10
-43.12829985202705
 20
3.03812024842702
 30
0.0
 10
-42.33377000069913
 20
2.642442871659568
 30
0.0
 10
-41.80065725321014
 20
2.365725570721366
 30
0.0
 10
-40.74772544985534
 20
1.797017835103716
 30
0.0
 10
-40.2161555149712
 20
1.502936932007336
 30
0.0
 10
-39.15572157978769
 20
0.9050206548614022
 30
0.0
 10
-38.63083095157332
 20
0.6019784144597573
 30
0.0
 10
-37.83492613394031
 20
0.1438906341001449
 30
0.0
 10
-37.56922589984375
 20
-0.009195966695281
 30
0.0
 10
-37.03955516661511
 20
-0.3146939929555195
 30
0.0
 10
-36.77672739254458
 20
-0.4668856923112663
 30
0.0
 10
-35.98530269503066
 20
-0.9220684348168369
 30
0.0
 10
-35.45197234241706
 20
-1.223983506564495
 30
0.0
 10
-34.6585358007623
 20
-1.665963009092338
 30
0.0
 10
-34.39616279126124
 20
-1.811298489615461
 30
0.0
 10
-33.86759079054928
 20
-2.098543784469584
 30
0.0
 10
-33.60210551801745
 20
-2.240315365690364
 30
0.0
 10
-33.07125663209617
 20
-2.518789163471297
 30
0.0
 10
-32.80589569026662
 20
-2.655489983501881
 30
0.0
 10
-32.27781708937243
 20
-2.922549274354723
 30
0.0
 10
-32.01527678505834
 20
-3.052890358137532
 30
0.0
 10
-31.22123395506409
 20
-3.434882339105002
 30
0.0
 10
-30.68799540350192
 20
-3.676622177890565
 30
0.0
 10
-29.63392665316479
 20
-4.125246865513518
 30
0.0
 10
-29.10360636527005
 20
-4.333517931445813
 30
0.0
 10
-28.04276125714915
 20
-4.711660575160253
 30
0.0
 10
-27.51794156389794
 20
-4.880964287976256
 30
0.0
 10
-26.98749999999995
 20
-5.029549065231635
 30
0.0
  0
LINE
  5
322
330
1F
100
AcDbEntity
  8
0
  6
Continuous
 62
     1
370
    15
100
AcDbLine
 10
-52.38749999999998
 20
5.211913139545174
 30
0.0
 11
-52.38749999999998
 21
-0.4930693895452414
 31
0.0
  0
SPLINE
  5
323
330
1F
100
AcDbEntity
  8
0
  6
Continuous
 62
     1
370
    15
100
AcDbSpline
210
0.0
220
0.0
230
1.0
 70
     8
 71
     3
 72
    50
 73
    46
 74
     0
 42
0.000000001
 43
0.00000001
 40
0.0
 40
0.0
 40
0.0
 40
0.0
 40
0.0625000000000022
 40
0.0625000000000022
 40
0.1250000000000044
 40
0.1250000000000044
 40
0.1562500000000055
 40
0.1562500000000055
 40
0.1875000000000066
 40
0.1875000000000066
 40
0.2500000000000075
 40
0.2500000000000075
 40
0.2812500000000073
 40
0.2812500000000073
 40
0.3125000000000072
 40
0.3125000000000072
 40
0.343750000000007
 40
0.343750000000007
 40
0.3750000000000068
 40
0.3750000000000068
 40
0.4375000000000065
 40
0.4375000000000065
 40
0.5000000000000062
 40
0.5000000000000062
 40
0.5625000000000059
 40
0.5625000000000059
 40
0.5937500000000058
 40
0.5937500000000058
 40
0.6250000000000057
 40
0.6250000000000057
 40
0.6875000000000053
 40
0.6875000000000053
 40
0.7187500000000052
 40
0.7187500000000052
 40
0.7500000000000049
 40
0.7500000000000049
 40
0.7812500000000048
 40
0.7812500000000048
 40
0.8125000000000047
 40
0.8125000000000047
 40
0.8750000000000031
 40
0.8750000000000031
 40
0.9375000000000016
 40
0.9375000000000016
 40
1.0
 40
1.0
 40
1.0
 40
1.0
 10
-52.38749999999998
 20
5.211913139545174
 30
0.0
 10
-51.86164139978694
 20
5.082654354336767
 30
0.0
 10
-51.32869494132239
 20
4.930734431763745
 30
0.0
 10
-50.26875170474153
 20
4.58698874641648
 30
0.0
 10
-49.74366159834414
 20
4.395548255331582
 30
0.0
 10
-48.94757409825825
 20
4.080735537621876
 30
0.0
 10
-48.68192550745598
 20
3.97132058479859
 30
0.0
 10
-48.1525815043426
 20
3.744598704450346
 30
0.0
 10
-47.89005306929041
 20
3.62747553768132
 30
0.0
 10
-47.09789884894811
 20
3.264333946940276
 30
0.0
 10
-46.56452794559728
 20
3.006542452741555
 30
0.0
 10
-45.77170305482738
 20
2.603607429498353
 30
0.0
 10
-45.50932622053829
 20
2.466733378259391
 30
0.0
 10
-44.98034849208317
 20
2.187337734186726
 30
0.0
 10
-44.7147715611459
 20
2.044985573259765
 30
0.0
 10
-44.18396466285807
 20
1.75631068632532
 30
0.0
 10
-43.91873736559176
 20
1.609989423923572
 30
0.0
 10
-43.39114714092965
 20
1.314790288530815
 30
0.0
 10
-43.12829985202708
 20
1.165827063759095
 30
0.0
 10
-42.33377000069915
 20
0.7145868831415847
 30
0.0
 10
-41.80065725321014
 20
0.4087993211949332
 30
0.0
 10
-40.74772544985534
 20
-0.2011056437597325
 30
0.0
 10
-40.2161555149712
 20
-0.5074785840997513
 30
0.0
 10
-39.15572157978774
 20
-1.112837016063495
 30
0.0
 10
-38.63083095157335
 20
-1.411082318681139
 30
0.0
 10
-37.83492613394042
 20
-1.849229635518832
 30
0.0
 10
-37.56922589984381
 20
-1.993545175236563
 30
0.0
 10
-37.03955516661517
 20
-2.277343424356197
 30
0.0
 10
-36.77672739254464
 20
-2.416629512798878
 30
0.0
 10
-35.98530269503063
 20
-2.82692899786693
 30
0.0
 10
-35.45197234241709
 20
-3.090598603495565
 30
0.0
 10
-34.65853580076236
 20
-3.463779982102658
 30
0.0
 10
-34.39616279126135
 20
-3.58432504972555
 30
0.0
 10
-33.86759079054931
 20
-3.81818240967921
 30
0.0
 10
-33.60210551801747
 20
-3.931372274577349
 30
0.0
 10
-33.0712566320962
 20
-4.149163343275682
 30
0.0
 10
-32.80589569026667
 20
-4.253763459414118
 30
0.0
 10
-32.27781708937248
 20
-4.45342546103084
 30
0.0
 10
-32.0152767850584
 20
-4.548484209092316
 30
0.0
 10
-31.22123395506423
 20
-4.819715617166538
 30
0.0
 10
-30.68799540350201
 20
-4.981229570266806
 30
0.0
 10
-29.6339266531649
 20
-5.259715455283264
 30
0.0
 10
-29.10360636527016
 20
-5.377580863705931
 30
0.0
 10
-28.0427612571492
 20
-5.566824488569268
 30
0.0
 10
-27.51794156389806
 20
-5.638000300930906
 30
0.0
 10
-26.9875
 20
-5.685329631231711
 30
0.0
  0
SPLINE
  5
324
330
1F
100
AcDbEntity
  8
0
  6
Continuous
 62
     1
370
    15
100
AcDbSpline
210
0.0
220
0.0
230
1.0
 70
     8
 71
     3
 72
    18
 73
    14
 74
     0
 42
0.000000001
 43
0.00000001
 40
0.0
 40
0.0
 40
0.0
 40
0.0
 40
0.0974006641725862
 40
0.1947783064129945
 40
0.2921380344839625
 40
0.3894849919442447
 40
0.4868243479278198
 40
0.5841612868144047
 40
0.6815009978350435
 40
0.7707387210624702
 40
0.8600344811915305
 40
0.9493517895908025
 40
1.0
 40
1.0
 40
1.0
 40
1.0
 10
-52.38749999999998
 20
-0.4930693895452414
 30
0.0
 10
-51.70981616283645
 20
-0.8807704376888885
 30
0.0
 10
-50.35460866802625
 20
-1.656080895717744
 30
0.0
 10
-48.32212953979916
 20
-2.745066882189129
 30
0.0
 10
-46.29008991184377
 20
-3.721713330239148
 30
0.0
 10
-44.25837410090522
 20
-4.543787986400212
 30
0.0
 10
-42.2268409328526
 20
-5.17771699277553
 30
0.0
 10
-40.19539475679755
 20
-5.597357212775365
 30
0.0
 10
-38.22020180761
 20
-5.779366121607141
 30
0.0
 10
-36.30125317782483
 20
-5.741487619633433
 30
0.0
 10
-34.43772009733529
 20
-5.497103773356934
 30
0.0
 10
-32.84251173081289
 20
-5.148759616098489
 30
0.0
 10
-31.86886381598912
 20
-4.819484753811367
 30
0.0
 10
-31.51653757968267
 20
-4.700332675145483
 30
0.0
  0
LINE
  5
325
330
1F
100
AcDbEntity
  8
0
  6
Continuous
 62
     1
370
    15
100
AcDbLine
 10
-52.38749999999998
 20
5.754687499999988
 30
0.0
 11
-52.38749999999998
 21
5.211913139545174
 31
0.0
  0
LINE
  5
326
330
1F
100
AcDbEntity
  8
외형선
  6
Continuous
370
    15
100
AcDbLine
 10
-26.98749999999995
 20
-5.029549065231621
 30
0.0
 11
-26.98749999999998
 21
-5.685329631231711
 31
0.0
  0
SPLINE
  5
327
330
1F
100
AcDbEntity
  8
0
  6
Continuous
 62
     1
370
    15
100
AcDbSpline
210
0.0
220
0.0
230
1.0
 70
     8
 71
     3
 72
    14
 73
    10
 74
     0
 42
0.000000001
 43
0.00000001
 40
0.0
 40
0.0
 40
0.0
 40
0.0
 40
0.0102878345886397
 40
0.1753383526157585
 40
0.3402718516100853
 40
0.5051463413378404
 40
0.6700202832201709
 40
0.8349521423116784
 40
0.9999999999999999
 40
0.9999999999999999
 40
0.9999999999999999
 40
0.9999999999999999
 10
-41.09485431130275
 20
-5.74825969934112
 30
0.0
 10
-41.13358547961268
 20
-5.750388159086996
 30
0.0
 10
-41.79369127620526
 20
-5.786664075290298
 30
0.0
 10
-43.07474731746992
 20
-5.659416139241288
 30
0.0
 10
-44.93741067045669
 20
-5.367555677067828
 30
0.0
 10
-46.79930505683108
 20
-4.865025696427595
 30
0.0
 10
-48.66119114989538
 20
-4.197967723952481
 30
0.0
 10
-50.52383518447555
 20
-3.388932366503852
 30
0.0
 10
-51.76613282549084
 20
-2.756219571568238
 30
0.0
 10
-52.38749999999998
 20
-2.439751964543192
 30
0.0
  0
LINE
  5
328
330
1F
100
AcDbEntity
  8
0
  6
Continuous
 62
     1
370
    15
100
AcDbLine
 10
-52.38749999999998
 20
-0.4930693895452414
 30
0.0
 11
-52.38749999999998
 21
-2.439751964543192
 31
0.0
  0
SPLINE
  5
329
330
1F
100
AcDbEntity
  8
0
  6
Continuous
 62
     1
370
    15
100
AcDbSpline
210
0.0
220
0.0
230
1.0
 70
     8
 71
     3
 72
    13
 73
     9
 74
     0
 42
0.000000001
 43
0.00000001
 40
0.0
 40
0.0
 40
0.0
 40
0.0
 40
0.1212702080549949
 40
0.2970896256183553
 40
0.4729514707764037
 40
0.6486846593716772
 40
0.8243467513486429
 40
0.9999999999999999
 40
0.9999999999999999
 40
0.9999999999999999
 40
0.9999999999999999
 10
-37.58693571886254
 20
5.733225424338023
 30
0.0
 10
-37.15849818557032
 20
5.732510826012002
 30
0.0
 10
-36.10890531022107
 20
5.730760192014187
 30
0.0
 10
-34.43771313142161
 20
5.497160559741686
 30
0.0
 10
-32.57393317593098
 20
5.073709500826538
 30
0.0
 10
-30.71112175692524
 20
4.464050106072249
 30
0.0
 10
-28.84917106147713
 20
3.708015074380128
 30
0.0
 10
-27.6080466066121
 20
3.100291798662169
 30
0.0
 10
-26.98749999999995
 20
2.796437809622055
 30
0.0
  0
LINE
  5
32A
330
1F
100
AcDbEntity
  8
외형선
  6
Continuous
370
    15
100
AcDbLine
 10
-26.98749999999995
 20
2.796437809622069
 30
0.0
 11
-26.98749999999998
 21
0.8907610268164199
 31
0.0
  0
SPLINE
  5
32B
330
1F
100
AcDbEntity
  8
0
  6
Continuous
 62
     1
370
    15
100
AcDbSpline
210
0.0
220
0.0
230
1.0
 70
     8
 71
     3
 72
    10
 73
     6
 74
     0
 42
0.000000001
 43
0.00000001
 40
0.0
 40
0.0
 40
0.0
 40
0.0
 40
0.3907625351291882
 40
0.7814327083770916
 40
1.0
 40
1.0
 40
1.0
 40
1.0
 10
-52.38749999999998
 20
-5.754687500000004
 30
0.0
 10
-51.70981672211729
 20
-5.675257149657754
 30
0.0
 10
-50.35461034573665
 20
-5.558734894515859
 30
0.0
 10
-48.62045186847467
 20
-5.185379888243177
 30
0.0
 10
-47.56398056695001
 20
-4.82832317790684
 30
0.0
 10
-47.18496567642529
 20
-4.700227119089207
 30
0.0
  0
LINE
  5
32C
330
1F
100
AcDbEntity
  8
0
  6
Continuous
 62
     1
370
    15
100
AcDbLine
 10
-52.38749999999998
 20
-2.430478851353329
 30
0.0
 11
-52.38749999999998
 21
-5.754687500000004
 31
0.0
  0
SPLINE
  5
32D
330
1F
100
AcDbEntity
  8
0
  6
Continuous
 62
     1
370
    15
100
AcDbSpline
210
0.0
220
0.0
230
1.0
 70
     8
 71
     3
 72
    10
 73
     6
 74
     0
 42
0.000000001
 43
0.00000001
 40
0.0
 40
0.0
 40
0.0
 40
0.0
 40
0.4485506515602608
 40
0.8970877109108416
 40
1.0
 40
1.0
 40
1.0
 40
1.0
 10
-26.98749999999998
 20
5.685329631231709
 30
0.0
 10
-27.66467102519675
 20
5.599073965122563
 30
0.0
 10
-29.01899255560988
 20
5.426565246667287
 30
0.0
 10
-30.52865940918897
 20
5.059111858645017
 30
0.0
 10
-31.36117272019813
 20
4.756758334801986
 30
0.0
 10
-31.51653757968261
 20
4.700332675145488
 30
0.0
  0
SPLINE
  5
32E
330
1F
100
AcDbEntity
  8
외형선
  6
Continuous
370
    15
100
AcDbSpline
210
0.0
220
0.0
230
1.0
 70
    24
 71
     3
 72
    13
 73
     9
 74
     0
 42
0.000000001
 43
0.00000001
 40
0.0
 40
0.0
 40
0.0
 40
0.0
 40
0.1283754487967096
 40
0.3223328117651414
 40
0.5108239198302896
 40
0.7047812827988188
 40
0.8511370309325836
 40
1.0
 40
1.0
 40
1.0
 40
1.0
 10
-26.9875
 20
2.868999776669859
 30
0.0
 10
-26.98749999999995
 20
2.966068515467981
 30
0.0
 10
-26.98749999999986
 20
3.209794553464867
 30
0.0
 10
-26.9875
 20
3.664375166306392
 30
0.0
 10
-26.98750000000003
 20
4.210925440898619
 30
0.0
 10
-26.9875
 20
4.73986801803015
 30
0.0
 10
-26.98749999999989
 20
5.237108325651476
 30
0.0
 10
-26.98749999999998
 20
5.535078998496565
 30
0.0
 10
-26.9875
 20
5.685329631231716
 30
0.0
  0
LINE
  5
32F
330
1F
100
AcDbEntity
  8
외형선
  6
Continuous
370
    15
100
AcDbLine
 10
-25.98749999999998
 20
-0.0000000000000007
 30
0.0
 11
-25.98749999999998
 21
-5.754687499999997
 31
0.0
  0
LINE
  5
330
330
1F
100
AcDbEntity
  8
외형선
  6
Continuous
370
    15
100
AcDbLine
 10
-25.98749999999998
 20
5.754687500000002
 30
0.0
 11
-25.98749999999998
 21
-0.0000000000000007
 31
0.0
  0
LINE
  5
331
330
1F
100
AcDbEntity
  8
외형선
  6
Continuous
370
    15
100
AcDbLine
 10
-23.76576350361909
 20
-0.0000000000000007
 30
0.0
 11
-23.76576350361909
 21
-6.350000000000009
 31
0.0
  0
LINE
  5
332
330
1F
100
AcDbEntity
  8
외형선
  6
Continuous
370
    15
100
AcDbLine
 10
-23.76576350361909
 20
6.350000000000008
 30
0.0
 11
-23.76576350361909
 21
-0.0000000000000007
 31
0.0
  0
LINE
  5
333
330
1F
100
AcDbEntity
  8
외형선
  6
Continuous
370
    15
100
AcDbLine
 10
-26.487426482267
 20
-5.722787445738242
 30
0.0
 11
-26.487426482267
 21
-5.754687499999997
 31
0.0
  0
SPLINE
  5
334
330
1F
100
AcDbEntity
  8
외형선
  6
Continuous
370
    15
100
AcDbSpline
210
0.0
220
0.0
230
1.0
 70
     8
 71
     3
 72
     8
 73
     4
 74
     0
 42
0.000000001
 43
0.00000001
 40
0.0
 40
0.0
 40
0.0
 40
0.0
 40
1.0
 40
1.0
 40
1.0
 40
1.0
 10
-26.98749999999998
 20
-5.685329631231711
 30
0.0
 10
-26.82090607229602
 20
-5.700194188549703
 30
0.0
 10
-26.65411042893725
 20
-5.712688444956982
 30
0.0
 10
-26.487426482267
 20
-5.72278763549376
 30
0.0
  0
SPLINE
  5
335
330
1F
100
AcDbEntity
  8
외형선
  6
Continuous
370
    15
100
AcDbSpline
210
0.0
220
0.0
230
1.0
 70
     8
 71
     3
 72
     8
 73
     4
 74
     0
 42
0.000000001
 43
0.00000001
 40
0.0
 40
0.0
 40
0.0
 40
0.0
 40
1.0
 40
1.0
 40
1.0
 40
1.0
 10
-26.9875
 20
-5.029549065231614
 30
0.0
 10
-26.82090607229605
 20
-5.076214566815026
 30
0.0
 10
-26.65411042893728
 20
-5.120796690950166
 30
0.0
 10
-26.48742648226703
 20
-5.163210512904457
 30
0.0
  0
LINE
  5
336
330
1F
100
AcDbEntity
  8
외형선
  6
Continuous
370
    15
100
AcDbLine
 10
-26.487426482267
 20
0.6050884840724529
 30
0.0
 11
-26.487426482267
 21
-5.163217771752998
 31
0.0
  0
SPLINE
  5
337
330
1F
100
AcDbEntity
  8
외형선
  6
Continuous
370
    15
100
AcDbSpline
210
0.0
220
0.0
230
1.0
 70
     8
 71
     3
 72
     8
 73
     4
 74
     0
 42
0.000000001
 43
0.00000001
 40
0.0
 40
0.0
 40
0.0
 40
0.0
 40
1.0
 40
1.0
 40
1.0
 40
1.0
 10
-26.98749999999998
 20
0.8907610268163986
 30
0.0
 10
-26.82090607229602
 20
0.7958871991219063
 30
0.0
 10
-26.65411042893725
 20
0.7006027927084653
 30
0.0
 10
-26.487426482267
 20
0.605086689405794
 30
0.0
  0
SPLINE
  5
338
330
1F
100
AcDbEntity
  8
외형선
  6
Continuous
370
    15
100
AcDbSpline
210
0.0
220
0.0
230
1.0
 70
     8
 71
     3
 72
     8
 73
     4
 74
     0
 42
0.000000001
 43
0.00000001
 40
0.0
 40
0.0
 40
0.0
 40
0.0
 40
1.0
 40
1.0
 40
1.0
 40
1.0
 10
-26.9875
 20
2.796437809622077
 30
0.0
 10
-26.82090607229605
 20
2.712507307373883
 30
0.0
 10
-26.65411042893728
 20
2.627374124910566
 30
0.0
 10
-26.48742648226703
 20
2.541197635385536
 30
0.0
  0
LINE
  5
339
330
1F
100
AcDbEntity
  8
외형선
  6
Continuous
370
    15
100
AcDbLine
 10
-26.487426482267
 20
5.754687500000002
 30
0.0
 11
-26.487426482267
 21
2.541182886789179
 31
0.0
  0
SPLINE
  5
33A
330
1F
100
AcDbEntity
  8
외형선
  6
Continuous
370
    15
100
AcDbSpline
210
0.0
220
0.0
230
1.0
 70
     8
 71
     3
 72
     8
 73
     4
 74
     0
 42
0.000000001
 43
0.00000001
 40
0.0
 40
0.0
 40
0.0
 40
0.0
 40
1.0
 40
1.0
 40
1.0
 40
1.0
 10
-26.98749999999998
 20
5.685329631231709
 30
0.0
 10
-26.82090607229602
 20
5.700194188549708
 30
0.0
 10
-26.65411042893725
 20
5.712688444956981
 30
0.0
 10
-26.487426482267
 20
5.722787635493758
 30
0.0
  0
SPLINE
  5
33B
330
1F
100
AcDbEntity
  8
외형선
  6
Continuous
370
    15
100
AcDbSpline
210
0.0
220
0.0
230
1.0
 70
    24
 71
     3
 72
    21
 73
    17
 74
     0
 42
0.000000001
 43
0.00000001
 40
0.0
 40
0.0
 40
0.0
 40
0.0
 40
0.0379924251622229
 40
0.1106207875132333
 40
0.1853553772926159
 40
0.2579837396436651
 40
0.3327183294230906
 40
0.40534669177412
 40
0.4800812815535242
 40
0.5527096439045546
 40
0.6274442336839596
 40
0.7000725960349841
 40
0.7748071858143829
 40
0.8474355481654172
 40
0.9221701379448266
 40
1.0
 40
1.0
 40
1.0
 40
1.0
 10
-26.98749999999998
 20
0.9020931403681651
 30
0.0
 10
-26.98749999999998
 20
0.8948683936664843
 30
0.0
 10
-26.98749999999986
 20
0.8738324327792377
 30
0.0
 10
-26.98749999999998
 20
0.734080053597814
 30
0.0
 10
-26.98749999999998
 20
0.494211179542041
 30
0.0
 10
-26.98749999999989
 20
0.161138849042785
 30
0.0
 10
-26.98749999999995
 20
-0.2434947446444518
 30
0.0
 10
-26.98750000000003
 20
-0.7171883309642915
 30
0.0
 10
-26.98749999999983
 20
-1.237564357243095
 30
0.0
 10
-26.98750000000003
 20
-1.799370200451109
 30
0.0
 10
-26.98749999999995
 20
-2.376594448235118
 30
0.0
 10
-26.98749999999992
 20
-2.96316926330286
 30
0.0
 10
-26.9875
 20
-3.532405780605338
 30
0.0
 10
-26.98749999999995
 20
-4.076666206463885
 30
0.0
 10
-26.98749999999998
 20
-4.589186273580837
 30
0.0
 10
-26.98749999999995
 20
-4.880789424640811
 30
0.0
 10
-26.98749999999995
 20
-5.029549065231657
 30
0.0
  0
SPLINE
  5
33C
330
1F
100
AcDbEntity
  8
외형선
  6
Continuous
370
    15
100
AcDbSpline
210
0.0
220
0.0
230
1.0
 70
    24
 71
     3
 72
    13
 73
     9
 74
     0
 42
0.000000001
 43
0.00000001
 40
0.0
 40
0.0
 40
0.0
 40
0.0
 40
0.1843814852722837
 40
0.3738680893830497
 40
0.5623567097841103
 40
0.7563115129459228
 40
0.9448001333470842
 40
0.9999999999999999
 40
0.9999999999999999
 40
0.9999999999999999
 40
0.9999999999999999
 10
-26.98749999999998
 20
5.685329631231709
 30
0.0
 10
-26.9875
 20
5.498900248526019
 30
0.0
 10
-26.98750000000009
 20
5.120879662488824
 30
0.0
 10
-26.98749999999992
 20
4.55009661261252
 30
0.0
 10
-26.9875
 20
3.986724012285819
 30
0.0
 10
-26.98749999999998
 20
3.462457101578948
 30
0.0
 10
-26.98749999999986
 20
3.083289146536273
 30
0.0
 10
-26.98749999999995
 20
2.908575573100385
 30
0.0
 10
-26.98749999999995
 20
2.868999776669859
 30
0.0
  0
LINE
  5
3BB
330
1F
100
AcDbEntity
  8
외형선
  6
Continuous
370
    15
100
AcDbLine
 10
-4.203700000000026
 20
4.826000000000001
 30
0.0
 11
4.203700000000026
 21
4.826000000000001
 31
0.0
  0
LINE
  5
3BC
330
1F
100
AcDbEntity
  8
외형선
  6
Continuous
370
    15
100
AcDbLine
 10
-4.203700000000026
 20
4.826000000000001
 30
0.0
 11
-5.727700000000027
 21
6.350000000000001
 31
0.0
  0
LINE
  5
3BD
330
1F
100
AcDbEntity
  8
외형선
  6
Continuous
370
    15
100
AcDbLine
 10
4.203700000000026
 20
4.826000000000001
 30
0.0
 11
5.727700000000027
 21
6.350000000000001
 31
0.0
  0
LINE
  5
3BE
330
1F
100
AcDbEntity
  8
외형선
  6
Continuous
370
    15
100
AcDbLine
 10
-5.727700000000026
 20
6.350000000000001
 30
0.0
 11
-23.76576350361911
 21
6.350000000000001
 31
0.0
  0
ENDSEC
  0
SECTION
  2
OBJECTS
  0
DICTIONARY
  5
C
330
0
100
AcDbDictionary
281
     1
  3
ACAD_GROUP
350
D
  3
ACAD_IMAGE_VARS
350
150
  3
ACAD_LAYOUT
350
1A
  3
ACAD_MLINESTYLE
350
17
  3
ACAD_PLOTSETTINGS
350
19
  3
ACAD_PLOTSTYLENAME
350
E
  3
ACAD_SCALELIST
350
47
  3
APPDATA
350
14E
  3
DWGPROPS
350
3E2
  0
DICTIONARY
  5
1D7
330
2
100
AcDbDictionary
280
     1
281
     1
  3
ACAD_LAYERSTATES
360
1D8
  0
DICTIONARY
  5
D
102
{ACAD_REACTORS
330
C
102
}
330
C
100
AcDbDictionary
281
     1
  0
RASTERVARIABLES
  5
150
102
{ACAD_REACTORS
330
C
102
}
330
C
100
AcDbRasterVariables
 90
        0
 70
     1
 71
     1
 72
     1
  0
DICTIONARY
  5
1A
102
{ACAD_REACTORS
330
C
102
}
330
C
100
AcDbDictionary
281
     1
  3
Layout1
350
1E
  3
Layout2
350
26
  3
Model
350
22
  0
DICTIONARY
  5
17
102
{ACAD_REACTORS
330
C
102
}
330
C
100
AcDbDictionary
281
     1
  3
Standard
350
18
  0
DICTIONARY
  5
19
102
{ACAD_REACTORS
330
C
102
}
330
C
100
AcDbDictionary
281
     1
  0
ACDBDICTIONARYWDFLT
  5
E
102
{ACAD_REACTORS
330
C
102
}
330
C
100
AcDbDictionary
281
     1
  3
Normal
350
F
100
AcDbDictionaryWithDefault
340
F
  0
DICTIONARY
  5
47
102
{ACAD_REACTORS
330
C
102
}
330
C
100
AcDbDictionary
281
     1
  3
A0
350
48
  3
A1
350
49
  3
A2
350
4A
  3
A3
350
4B
  3
A4
350
4C
  3
A5
350
4D
  3
A6
350
4E
  3
A7
350
4F
  3
A8
350
50
  3
A9
350
51
  3
B0
350
52
  3
B1
350
53
  3
B2
350
54
  3
B3
350
55
  3
B4
350
56
  3
B5
350
57
  3
B6
350
58
  3
B7
350
59
  3
B8
350
5A
  3
B9
350
5B
  3
C0
350
5C
  3
C1
350
5D
  3
C2
350
5E
  3
C3
350
5F
  3
C4
350
60
  3
C5
350
61
  3
C6
350
62
  3
C7
350
63
  3
C8
350
64
  3
C9
350
65
  3
D0
350
66
  3
D1
350
67
  3
D2
350
68
  0
DICTIONARY
  5
14E
102
{ACAD_REACTORS
330
C
102
}
330
C
100
AcDbDictionary
281
     1
  0
XRECORD
  5
3E2
102
{ACAD_REACTORS
330
C
102
}
330
C
100
AcDbXrecord
280
     1
  1
DWGPROPS COOKIE
  2

  3

  4

  6

  7

  8
12016016
  9

300
=
301
=
302
=
303
=
304
=
305
=
306
=
307
=
308
=
309
=
 40
0.0
 41
2458313.098566146
 42
2458319.121780926
  1

 90
        0
  0
DICTIONARY
  5
1D8
102
{ACAD_REACTORS
330
1D7
102
}
330
1D7
100
AcDbDictionary
281
     1
  0
LAYOUT
  5
1E
102
{ACAD_REACTORS
330
1A
102
}
330
1A
100
AcDbPlotSettings
  1

  2
none_device
  4

  6

 40
0.0
 41
0.0
 42
0.0
 43
0.0
 44
0.0
 45
0.0
 46
0.0
 47
0.0
 48
0.0
 49
0.0
140
0.0
141
0.0
142
1.0
143
1.0
 70
   688
 72
     1
 73
     0
 74
     5
  7

 75
    16
147
1.0
148
0.0
149
0.0
100
AcDbLayout
  1
Layout1
 70
     1
 71
     1
 10
0.0
 20
0.0
 11
420.0
 21
297.0
 12
0.0
 22
0.0
 32
0.0
 14
1.000000000000000E+20
 24
1.000000000000000E+20
 34
1.000000000000000E+20
 15
-1.000000000000000E+20
 25
-1.000000000000000E+20
 35
-1.000000000000000E+20
146
0.0
 13
0.0
 23
0.0
 33
0.0
 16
1.0
 26
0.0
 36
0.0
 17
0.0
 27
1.0
 37
0.0
 76
     0
330
1B
  0
LAYOUT
  5
26
102
{ACAD_REACTORS
330
1A
102
}
330
1A
100
AcDbPlotSettings
  1

  2
none_device
  4

  6

 40
0.0
 41
0.0
 42
0.0
 43
0.0
 44
0.0
 45
0.0
 46
0.0
 47
0.0
 48
0.0
 49
0.0
140
0.0
141
0.0
142
1.0
143
1.0
 70
   688
 72
     1
 73
     0
 74
     5
  7

 75
    16
147
1.0
148
0.0
149
0.0
100
AcDbLayout
  1
Layout2
 70
     1
 71
     2
 10
0.0
 20
0.0
 11
0.0
 21
0.0
 12
0.0
 22
0.0
 32
0.0
 14
0.0
 24
0.0
 34
0.0
 15
0.0
 25
0.0
 35
0.0
146
0.0
 13
0.0
 23
0.0
 33
0.0
 16
1.0
 26
0.0
 36
0.0
 17
0.0
 27
1.0
 37
0.0
 76
     0
330
23
  0
LAYOUT
  5
22
102
{ACAD_REACTORS
330
1A
102
}
330
1A
100
AcDbPlotSettings
  1

  2
none_device
  4
ANSI_A_(11.00_x_8.50_Inches)
  6

 40
6.35
 41
19.05
 42
6.35000508
 43
19.05000254
 44
279.4
 45
215.9
 46
61.47075058006796
 47
79.58833375924048
 48
0.0
 49
0.0
140
0.0
141
0.0
142
0.0418462529351176
143
1.0
 70
  1696
 72
     0
 73
     0
 74
     0
  7

 75
     0
147
0.0235690232323232
148
0.0
149
0.0
100
AcDbLayout
  1
Model
 70
     1
 71
     0
 10
0.0
 20
0.0
 11
420.0
 21
297.0
 12
0.0
 22
0.0
 32
0.0
 14
-68.96875000000007
 24
-49.97180738881174
 34
0.0
 15
81.41936447236121
 25
49.57185845482397
 35
0.0
146
0.0
 13
0.0
 23
0.0
 33
0.0
 16
1.0
 26
0.0
 36
0.0
 17
0.0
 27
1.0
 37
0.0
 76
     0
330
1F
331
29
  0
MLINESTYLE
  5
18
102
{ACAD_REACTORS
330
17
102
}
330
17
100
AcDbMlineStyle
  2
Standard
 70
     0
  3

 62
   256
 51
90.0
 52
90.0
 71
     2
 49
0.5
 62
   256
  6
BYLAYER
 49
-0.5
 62
   256
  6
BYLAYER
  0
ACDBPLACEHOLDER
  5
F
102
{ACAD_REACTORS
330
E
102
}
330
E
  0
SCALE
  5
48
102
{ACAD_REACTORS
330
47
102
}
330
47
100
AcDbScale
 70
     0
300
1:1
140
1.0
141
1.0
290
     1
  0
SCALE
  5
49
102
{ACAD_REACTORS
330
47
102
}
330
47
100
AcDbScale
 70
     0
300
1:2
140
1.0
141
2.0
290
     0
  0
SCALE
  5
4A
102
{ACAD_REACTORS
330
47
102
}
330
47
100
AcDbScale
 70
     0
300
1:4
140
1.0
141
4.0
290
     0
  0
SCALE
  5
4B
102
{ACAD_REACTORS
330
47
102
}
330
47
100
AcDbScale
 70
     0
300
1:5
140
1.0
141
5.0
290
     0
  0
SCALE
  5
4C
102
{ACAD_REACTORS
330
47
102
}
330
47
100
AcDbScale
 70
     0
300
1:8
140
1.0
141
8.0
290
     0
  0
SCALE
  5
4D
102
{ACAD_REACTORS
330
47
102
}
330
47
100
AcDbScale
 70
     0
300
1:10
140
1.0
141
10.0
290
     0
  0
SCALE
  5
4E
102
{ACAD_REACTORS
330
47
102
}
330
47
100
AcDbScale
 70
     0
300
1:16
140
1.0
141
16.0
290
     0
  0
SCALE
  5
4F
102
{ACAD_REACTORS
330
47
102
}
330
47
100
AcDbScale
 70
     0
300
1:20
140
1.0
141
20.0
290
     0
  0
SCALE
  5
50
102
{ACAD_REACTORS
330
47
102
}
330
47
100
AcDbScale
 70
     0
300
1:30
140
1.0
141
30.0
290
     0
  0
SCALE
  5
51
102
{ACAD_REACTORS
330
47
102
}
330
47
100
AcDbScale
 70
     0
300
1:40
140
1.0
141
40.0
290
     0
  0
SCALE
  5
52
102
{ACAD_REACTORS
330
47
102
}
330
47
100
AcDbScale
 70
     0
300
1:50
140
1.0
141
50.0
290
     0
  0
SCALE
  5
53
102
{ACAD_REACTORS
330
47
102
}
330
47
100
AcDbScale
 70
     0
300
1:100
140
1.0
141
100.0
290
     0
  0
SCALE
  5
54
102
{ACAD_REACTORS
330
47
102
}
330
47
100
AcDbScale
 70
     0
300
2:1
140
2.0
141
1.0
290
     0
  0
SCALE
  5
55
102
{ACAD_REACTORS
330
47
102
}
330
47
100
AcDbScale
 70
     0
300
4:1
140
4.0
141
1.0
290
     0
  0
SCALE
  5
56
102
{ACAD_REACTORS
330
47
102
}
330
47
100
AcDbScale
 70
     0
300
8:1
140
8.0
141
1.0
290
     0
  0
SCALE
  5
57
102
{ACAD_REACTORS
330
47
102
}
330
47
100
AcDbScale
 70
     0
300
10:1
140
10.0
141
1.0
290
     0
  0
SCALE
  5
58
102
{ACAD_REACTORS
330
47
102
}
330
47
100
AcDbScale
 70
     0
300
100:1
140
100.0
141
1.0
290
     0
  0
SCALE
  5
59
102
{ACAD_REACTORS
330
47
102
}
330
47
100
AcDbScale
 70
     0
300
1/128" = 1'-0"
140
0.0078125
141
12.0
290
     0
  0
SCALE
  5
5A
102
{ACAD_REACTORS
330
47
102
}
330
47
100
AcDbScale
 70
     0
300
1/64" = 1'-0"
140
0.015625
141
12.0
290
     0
  0
SCALE
  5
5B
102
{ACAD_REACTORS
330
47
102
}
330
47
100
AcDbScale
 70
     0
300
1/32" = 1'-0"
140
0.03125
141
12.0
290
     0
  0
SCALE
  5
5C
102
{ACAD_REACTORS
330
47
102
}
330
47
100
AcDbScale
 70
     0
300
1/16" = 1'-0"
140
0.0625
141
12.0
290
     0
  0
SCALE
  5
5D
102
{ACAD_REACTORS
330
47
102
}
330
47
100
AcDbScale
 70
     0
300
3/32" = 1'-0"
140
0.09375
141
12.0
290
     0
  0
SCALE
  5
5E
102
{ACAD_REACTORS
330
47
102
}
330
47
100
AcDbScale
 70
     0
300
1/8" = 1'-0"
140
0.125
141
12.0
290
     0
  0
SCALE
  5
5F
102
{ACAD_REACTORS
330
47
102
}
330
47
100
AcDbScale
 70
     0
300
3/16" = 1'-0"
140
0.1875
141
12.0
290
     0
  0
SCALE
  5
60
102
{ACAD_REACTORS
330
47
102
}
330
47
100
AcDbScale
 70
     0
300
1/4" = 1'-0"
140
0.25
141
12.0
290
     0
  0
SCALE
  5
61
102
{ACAD_REACTORS
330
47
102
}
330
47
100
AcDbScale
 70
     0
300
3/8" = 1'-0"
140
0.375
141
12.0
290
     0
  0
SCALE
  5
62
102
{ACAD_REACTORS
330
47
102
}
330
47
100
AcDbScale
 70
     0
300
1/2" = 1'-0"
140
0.5
141
12.0
290
     0
  0
SCALE
  5
63
102
{ACAD_REACTORS
330
47
102
}
330
47
100
AcDbScale
 70
     0
300
3/4" = 1'-0"
140
0.75
141
12.0
290
     0
  0
SCALE
  5
64
102
{ACAD_REACTORS
330
47
102
}
330
47
100
AcDbScale
 70
     0
300
1" = 1'-0"
140
1.0
141
12.0
290
     0
  0
SCALE
  5
65
102
{ACAD_REACTORS
330
47
102
}
330
47
100
AcDbScale
 70
     0
300
1-1/2" = 1'-0"
140
1.5
141
12.0
290
     0
  0
SCALE
  5
66
102
{ACAD_REACTORS
330
47
102
}
330
47
100
AcDbScale
 70
     0
300
3" = 1'-0"
140
3.0
141
12.0
290
     0
  0
SCALE
  5
67
102
{ACAD_REACTORS
330
47
102
}
330
47
100
AcDbScale
 70
     0
300
6" = 1'-0"
140
6.0
141
12.0
290
     0
  0
SCALE
  5
68
102
{ACAD_REACTORS
330
47
102
}
330
47
100
AcDbScale
 70
     0
300
1'-0" = 1'-0"
140
12.0
141
12.0
290
     0
  0
ENDSEC
  0
EOF
