  0
SECTION
  2
HEADER
  9
$ACADVER
  1
AC1015
  9
$ACADMAINTVER
 70
     6
  9
$DWGCODEPAGE
  3
ANSI_949
  9
$INSBASE
 10
0.0
 20
0.0
 30
0.0
  9
$EXTMIN
 10
-87.38375000000008
 20
-49.97180738881174
 30
0.0
  9
$EXTMAX
 10
90.92567858371592
 20
45.99064162728175
 30
0.0
  9
$LIMMIN
 10
0.0
 20
0.0
  9
$LIMMAX
 10
420.0
 20
297.0
  9
$ORTHOMODE
 70
     1
  9
$REGENMODE
 70
     1
  9
$FILLMODE
 70
     1
  9
$QTEXTMODE
 70
     0
  9
$MIRRTEXT
 70
     1
  9
$LTSCALE
 40
1.0
  9
$ATTMODE
 70
     1
  9
$TEXTSIZE
 40
3.5
  9
$TRACEWID
 40
1.0
  9
$TEXTSTYLE
  7
Standard
  9
$CLAYER
  8
0
  9
$CELTYPE
  6
ByLayer
  9
$CECOLOR
 62
   256
  9
$CELTSCALE
 40
1.0
  9
$DISPSILH
 70
     0
  9
$DIMSCALE
 40
1.0
  9
$DIMASZ
 40
3.302
  9
$DIMEXO
 40
1.0
  9
$DIMDLI
 40
3.75
  9
$DIMRND
 40
0.0
  9
$DIMDLE
 40
0.0
  9
$DIMEXE
 40
1.0
  9
$DIMTP
 40
0.0
  9
$DIMTM
 40
0.0
  9
$DIMTXT
 40
3.5
  9
$DIMCEN
 40
2.5
  9
$DIMTSZ
 40
0.0
  9
$DIMTOL
 70
     0
  9
$DIMLIM
 70
     0
  9
$DIMTIH
 70
     1
  9
$DIMTOH
 70
     1
  9
$DIMSE1
 70
     0
  9
$DIMSE2
 70
     0
  9
$DIMTAD
 70
     1
  9
$DIMZIN
 70
     0
  9
$DIMBLK
  1

  9
$DIMASO
 70
     1
  9
$DIMSHO
 70
     1
  9
$DIMPOST
  1

  9
$DIMAPOST
  1

  9
$DIMALT
 70
     0
  9
$DIMALTD
 70
     3
  9
$DIMALTF
 40
0.0393700787401575
  9
$DIMLFAC
 40
1.0
  9
$DIMTOFL
 70
     1
  9
$DIMTVP
 40
0.0
  9
$DIMTIX
 70
     0
  9
$DIMSOXD
 70
     0
  9
$DIMSAH
 70
     0
  9
$DIMBLK1
  1

  9
$DIMBLK2
  1

  9
$DIMSTYLE
  2
ISO-25
  9
$DIMCLRD
 70
     0
  9
$DIMCLRE
 70
     0
  9
$DIMCLRT
 70
     0
  9
$DIMTFAC
 40
1.0
  9
$DIMGAP
 40
1.524
  9
$DIMJUST
 70
     0
  9
$DIMSD1
 70
     0
  9
$DIMSD2
 70
     0
  9
$DIMTOLJ
 70
     0
  9
$DIMTZIN
 70
     0
  9
$DIMALTZ
 70
     0
  9
$DIMALTTZ
 70
     0
  9
$DIMUPT
 70
     0
  9
$DIMDEC
 70
     2
  9
$DIMTDEC
 70
     2
  9
$DIMALTU
 70
     2
  9
$DIMALTTD
 70
     3
  9
$DIMTXSTY
  7
Standard
  9
$DIMAUNIT
 70
     0
  9
$DIMADEC
 70
     2
  9
$DIMALTRND
 40
0.0
  9
$DIMAZIN
 70
     0
  9
$DIMDSEP
 70
    44
  9
$DIMATFIT
 70
     3
  9
$DIMFRAC
 70
     0
  9
$DIMLDRBLK
  1

  9
$DIMLUNIT
 70
     2
  9
$DIMLWD
 70
    -2
  9
$DIMLWE
 70
    -2
  9
$DIMTMOVE
 70
     0
  9
$LUNITS
 70
     2
  9
$LUPREC
 70
     2
  9
$SKETCHINC
 40
1.0
  9
$FILLETRAD
 40
10.0
  9
$AUNITS
 70
     0
  9
$AUPREC
 70
     2
  9
$MENU
  1
.
  9
$ELEVATION
 40
0.0
  9
$PELEVATION
 40
0.0
  9
$THICKNESS
 40
0.0
  9
$LIMCHECK
 70
     0
  9
$CHAMFERA
 40
0.0
  9
$CHAMFERB
 40
0.0
  9
$CHAMFERC
 40
0.0
  9
$CHAMFERD
 40
0.0
  9
$SKPOLY
 70
     0
  9
$TDCREATE
 40
2458313.474836713
  9
$TDUCREATE
 40
2458313.099836713
  9
$TDUPDATE
 40
2458319.496492072
  9
$TDUUPDATE
 40
2458319.121492072
  9
$TDINDWG
 40
0.000669456
  9
$TDUSRTIMER
 40
2458319.121452384
  9
$USRTIMER
 70
     1
  9
$ANGBASE
 50
0.0
  9
$ANGDIR
 70
     0
  9
$PDMODE
 70
     0
  9
$PDSIZE
 40
-1.0
  9
$PLINEWID
 40
0.0
  9
$SPLFRAME
 70
     0
  9
$SPLINETYPE
 70
     6
  9
$SPLINESEGS
 70
     8
  9
$HANDSEED
  5
305
  9
$SURFTAB1
 70
     6
  9
$SURFTAB2
 70
     6
  9
$SURFTYPE
 70
     6
  9
$SURFU
 70
     6
  9
$SURFV
 70
     6
  9
$UCSBASE
  2

  9
$UCSNAME
  2

  9
$UCSORG
 10
0.0
 20
0.0
 30
0.0
  9
$UCSXDIR
 10
1.0
 20
0.0
 30
0.0
  9
$UCSYDIR
 10
0.0
 20
1.0
 30
0.0
  9
$UCSORTHOREF
  2

  9
$UCSORTHOVIEW
 70
     0
  9
$UCSORGTOP
 10
0.0
 20
0.0
 30
0.0
  9
$UCSORGBOTTOM
 10
0.0
 20
0.0
 30
0.0
  9
$UCSORGLEFT
 10
0.0
 20
0.0
 30
0.0
  9
$UCSORGRIGHT
 10
0.0
 20
0.0
 30
0.0
  9
$UCSORGFRONT
 10
0.0
 20
0.0
 30
0.0
  9
$UCSORGBACK
 10
0.0
 20
0.0
 30
0.0
  9
$PUCSBASE
  2

  9
$PUCSNAME
  2

  9
$PUCSORG
 10
0.0
 20
0.0
 30
0.0
  9
$PUCSXDIR
 10
1.0
 20
0.0
 30
0.0
  9
$PUCSYDIR
 10
0.0
 20
1.0
 30
0.0
  9
$PUCSORTHOREF
  2

  9
$PUCSORTHOVIEW
 70
     0
  9
$PUCSORGTOP
 10
0.0
 20
0.0
 30
0.0
  9
$PUCSORGBOTTOM
 10
0.0
 20
0.0
 30
0.0
  9
$PUCSORGLEFT
 10
0.0
 20
0.0
 30
0.0
  9
$PUCSORGRIGHT
 10
0.0
 20
0.0
 30
0.0
  9
$PUCSORGFRONT
 10
0.0
 20
0.0
 30
0.0
  9
$PUCSORGBACK
 10
0.0
 20
0.0
 30
0.0
  9
$USERI1
 70
     0
  9
$USERI2
 70
     0
  9
$USERI3
 70
     0
  9
$USERI4
 70
     0
  9
$USERI5
 70
     0
  9
$USERR1
 40
0.0
  9
$USERR2
 40
0.0
  9
$USERR3
 40
0.0
  9
$USERR4
 40
0.0
  9
$USERR5
 40
0.0
  9
$WORLDVIEW
 70
     1
  9
$SHADEDGE
 70
     3
  9
$SHADEDIF
 70
    70
  9
$TILEMODE
 70
     1
  9
$MAXACTVP
 70
    64
  9
$PINSBASE
 10
0.0
 20
0.0
 30
0.0
  9
$PLIMCHECK
 70
     0
  9
$PEXTMIN
 10
1.000000000000000E+20
 20
1.000000000000000E+20
 30
1.000000000000000E+20
  9
$PEXTMAX
 10
-1.000000000000000E+20
 20
-1.000000000000000E+20
 30
-1.000000000000000E+20
  9
$PLIMMIN
 10
0.0
 20
0.0
  9
$PLIMMAX
 10
0.0
 20
0.0
  9
$UNITMODE
 70
     0
  9
$VISRETAIN
 70
     1
  9
$PLINEGEN
 70
     0
  9
$PSLTSCALE
 70
     1
  9
$TREEDEPTH
 70
  3020
  9
$CMLSTYLE
  2
Standard
  9
$CMLJUST
 70
     0
  9
$CMLSCALE
 40
20.0
  9
$PROXYGRAPHICS
 70
     1
  9
$MEASUREMENT
 70
     1
  9
$CELWEIGHT
370
    -1
  9
$ENDCAPS
280
     0
  9
$JOINSTYLE
280
     0
  9
$LWDISPLAY
290
     1
  9
$INSUNITS
 70
     4
  9
$HYPERLINKBASE
  1

  9
$STYLESHEET
  1

  9
$XEDIT
290
     1
  9
$CEPSNTYPE
380
     0
  9
$PSTYLEMODE
290
     1
  9
$FINGERPRINTGUID
  2
{43C46902-C3A0-44B5-99C9-0B82FE11327E}
  9
$VERSIONGUID
  2
{FAEB1C32-E019-11D5-929B-00C0DF256EC4}
  9
$EXTNAMES
290
     1
  9
$PSVPSCALE
 40
0.0
  9
$OLESTARTUP
290
     0
  0
ENDSEC
  0
SECTION
  2
CLASSES
  0
CLASS
  1
ACDBDICTIONARYWDFLT
  2
AcDbDictionaryWithDefault
  3
ObjectDBX Classes
 90
        0
280
     0
281
     0
  0
CLASS
  1
VISUALSTYLE
  2
AcDbVisualStyle
  3
ObjectDBX Classes
 90
     4095
280
     0
281
     0
  0
CLASS
  1
MATERIAL
  2
AcDbMaterial
  3
ObjectDBX Classes
 90
     1153
280
     0
281
     0
  0
CLASS
  1
SCALE
  2
AcDbScale
  3
ObjectDBX Classes
 90
     1153
280
     0
281
     0
  0
CLASS
  1
SUN
  2
AcDbSun
  3
SCENEOE
 90
     1153
280
     0
281
     0
  0
CLASS
  1
ACDBPLACEHOLDER
  2
AcDbPlaceHolder
  3
ObjectDBX Classes
 90
        0
280
     0
281
     0
  0
CLASS
  1
LAYOUT
  2
AcDbLayout
  3
ObjectDBX Classes
 90
        0
280
     0
281
     0
  0
CLASS
  1
TABLESTYLE
  2
AcDbTableStyle
  3
ObjectDBX Classes
 90
     4095
280
     0
281
     0
  0
CLASS
  1
MLEADERSTYLE
  2
AcDbMLeaderStyle
  3
ACDB_MLEADERSTYLE_CLASS
 90
     4095
280
     0
281
     0
  0
CLASS
  1
RASTERVARIABLES
  2
AcDbRasterVariables
  3
ISM
 90
        0
280
     0
281
     0
  0
ENDSEC
  0
SECTION
  2
TABLES
  0
TABLE
  2
VPORT
  5
8
330
0
100
AcDbSymbolTable
 70
     1
  0
VPORT
  5
29
330
8
100
AcDbSymbolTableRecord
100
AcDbViewportTableRecord
  2
*Active
 70
     0
 10
0.0
 20
0.0
 11
1.0
 21
1.0
 12
3.718544102552741
 22
-9.335744324916671
 13
0.0
 23
0.0
 14
10.0
 24
10.0
 15
10.0
 25
10.0
 16
0.0
 26
0.0
 36
1.0
 17
0.0
 27
0.0
 37
0.0
 40
150.2008616808058
 41
1.632093933463796
 42
50.0
 43
0.0
 44
0.0
 50
0.0
 51
0.0
 71
    16
 72
  2000
 73
     1
 74
     3
 75
     0
 76
     0
 77
     0
 78
     0
281
     0
 65
     1
110
0.0
120
0.0
130
0.0
111
1.0
121
0.0
131
0.0
112
0.0
122
1.0
132
0.0
 79
     0
146
0.0
  0
ENDTAB
  0
TABLE
  2
LTYPE
  5
5
330
0
100
AcDbSymbolTable
 70
     6
  0
LTYPE
  5
14
330
5
100
AcDbSymbolTableRecord
100
AcDbLinetypeTableRecord
  2
ByBlock
 70
     0
  3

 72
    65
 73
     0
 40
0.0
  0
LTYPE
  5
15
330
5
100
AcDbSymbolTableRecord
100
AcDbLinetypeTableRecord
  2
ByLayer
 70
     0
  3

 72
    65
 73
     0
 40
0.0
  0
LTYPE
  5
16
330
5
100
AcDbSymbolTableRecord
100
AcDbLinetypeTableRecord
  2
Continuous
 70
     0
  3
Solid line
 72
    65
 73
     0
 40
0.0
  0
LTYPE
  5
6A
330
5
100
AcDbSymbolTableRecord
100
AcDbLinetypeTableRecord
  2
HIDDEN
 70
     0
  3
Hidden __ __ __ __ __ __ __ __ __ __ __ __ __ __
 72
    65
 73
     2
 40
1.905
 49
1.27
 74
     0
 49
-0.635
 74
     0
  0
LTYPE
  5
6B
330
5
100
AcDbSymbolTableRecord
100
AcDbLinetypeTableRecord
  2
PHANTOM
 70
     0
  3
Phantom ______  __  __  ______  __  __  ______
 72
    65
 73
     6
 40
12.7
 49
6.35
 74
     0
 49
-1.27
 74
     0
 49
1.27
 74
     0
 49
-1.27
 74
     0
 49
1.27
 74
     0
 49
-1.27
 74
     0
  0
LTYPE
  5
6C
330
5
100
AcDbSymbolTableRecord
100
AcDbLinetypeTableRecord
  2
CENTER
 70
     0
  3
Center ____ _ ____ _ ____ _ ____ _ ____ _ ____
 72
    65
 73
     4
 40
10.16
 49
6.35
 74
     0
 49
-1.27
 74
     0
 49
1.27
 74
     0
 49
-1.27
 74
     0
  0
LTYPE
  5
6D
330
5
100
AcDbSymbolTableRecord
100
AcDbLinetypeTableRecord
  2
CENTERX2
 70
     0
  3
Center (2x) ________  __  ________  __  _____
 72
    65
 73
     4
 40
20.32
 49
12.7
 74
     0
 49
-2.54
 74
     0
 49
2.54
 74
     0
 49
-2.54
 74
     0
  0
LTYPE
  5
6E
330
5
100
AcDbSymbolTableRecord
100
AcDbLinetypeTableRecord
  2
DOT2
 70
     0
  3
Dot (.5x) ........................................
 72
    65
 73
     2
 40
0.635
 49
0.0
 74
     0
 49
-0.635
 74
     0
  0
ENDTAB
  0
TABLE
  2
LAYER
  5
2
102
{ACAD_XDICTIONARY
360
176
102
}
330
0
100
AcDbSymbolTable
 70
    18
  0
LAYER
  5
10
330
2
100
AcDbSymbolTableRecord
100
AcDbLayerTableRecord
  2
0
 70
     0
 62
     7
  6
Continuous
370
    -3
390
F
  0
LAYER
  5
6F
330
2
100
AcDbSymbolTableRecord
100
AcDbLayerTableRecord
  2
FORMAT
 70
     0
 62
     2
  6
Continuous
370
    -3
390
F
  0
LAYER
  5
70
330
2
100
AcDbSymbolTableRecord
100
AcDbLayerTableRecord
  2
외형선
 70
     0
 62
     4
  6
Continuous
370
    30
390
F
  0
LAYER
  5
71
330
2
100
AcDbSymbolTableRecord
100
AcDbLayerTableRecord
  2
숨은선
 70
     0
 62
     2
  6
HIDDEN
370
    15
390
F
  0
LAYER
  5
72
330
2
100
AcDbSymbolTableRecord
100
AcDbLayerTableRecord
  2
중심선
 70
     0
 62
     1
  6
CENTERX2
370
    -3
390
F
  0
LAYER
  5
73
330
2
100
AcDbSymbolTableRecord
100
AcDbLayerTableRecord
  2
파단선
 70
     0
 62
     4
  6
Continuous
370
    -3
390
F
  0
LAYER
  5
74
330
2
100
AcDbSymbolTableRecord
100
AcDbLayerTableRecord
  2
해칭선
 70
     0
 62
   100
  6
Continuous
370
    -3
390
F
  0
LAYER
  5
75
330
2
100
AcDbSymbolTableRecord
100
AcDbLayerTableRecord
  2
가는실선
 70
     0
 62
     4
  6
Continuous
370
    -3
390
F
  0
LAYER
  5
76
330
2
100
AcDbSymbolTableRecord
100
AcDbLayerTableRecord
  2
치수_보조선
 70
     0
 62
     4
  6
Continuous
370
    -3
390
F
  0
LAYER
  5
77
330
2
100
AcDbSymbolTableRecord
100
AcDbLayerTableRecord
  2
치수문자_일반주서
 70
     0
 62
     7
  6
Continuous
370
    15
390
F
  0
LAYER
  5
78
330
2
100
AcDbSymbolTableRecord
100
AcDbLayerTableRecord
  2
개별주서
 70
     0
 62
   100
  6
Continuous
370
    30
390
F
  0
LAYER
  5
79
330
2
100
AcDbSymbolTableRecord
100
AcDbLayerTableRecord
  2
중간선
 70
     0
 62
     2
  6
Continuous
370
    15
390
F
  0
LAYER
  5
7A
330
2
100
AcDbSymbolTableRecord
100
AcDbLayerTableRecord
  2
윤곽선
 70
     0
 62
     3
  6
Continuous
370
    40
390
F
  0
LAYER
  5
7B
330
2
100
AcDbSymbolTableRecord
100
AcDbLayerTableRecord
  2
중심마크
 70
     0
 62
   100
  6
Continuous
370
    30
390
F
  0
LAYER
  5
7C
330
2
100
AcDbSymbolTableRecord
100
AcDbLayerTableRecord
  2
가상선
 70
     0
 62
     4
  6
PHANTOM
370
    -3
390
F
  0
LAYER
  5
7D
330
2
100
AcDbSymbolTableRecord
100
AcDbLayerTableRecord
  2
특수지정선
 70
     0
 62
     5
  6
CENTERX2
370
    60
390
F
  0
LAYER
  5
7E
330
2
100
AcDbSymbolTableRecord
100
AcDbLayerTableRecord
  2
참조1
 70
     0
 62
    -4
  6
Continuous
370
    -3
390
F
  0
LAYER
  5
17D
330
2
100
AcDbSymbolTableRecord
100
AcDbLayerTableRecord
  2
Defpoints
 70
     0
 62
     7
  6
Continuous
290
     0
370
    -3
390
F
  0
ENDTAB
  0
TABLE
  2
STYLE
  5
3
330
0
100
AcDbSymbolTable
 70
     2
  0
STYLE
  5
11
330
3
100
AcDbSymbolTableRecord
100
AcDbTextStyleTableRecord
  2
Standard
 70
     0
 40
0.0
 41
1.0
 50
0.0
 71
     0
 42
3.5
  3
txt
  4

  0
STYLE
  5
94
330
3
100
AcDbSymbolTableRecord
100
AcDbTextStyleTableRecord
  2
SLDTEXTSTYLE0
 70
     0
 40
0.0
 41
0.75
 50
0.0
 71
     0
 42
3.5
  3
TXT
  4

  0
ENDTAB
  0
TABLE
  2
VIEW
  5
6
330
0
100
AcDbSymbolTable
 70
     0
  0
ENDTAB
  0
TABLE
  2
UCS
  5
7
330
0
100
AcDbSymbolTable
 70
     0
  0
ENDTAB
  0
TABLE
  2
APPID
  5
9
330
0
100
AcDbSymbolTable
 70
     1
  0
APPID
  5
12
330
9
100
AcDbSymbolTableRecord
100
AcDbRegAppTableRecord
  2
ACAD
 70
     0
  0
ENDTAB
  0
TABLE
  2
DIMSTYLE
  5
A
330
0
100
AcDbSymbolTable
 70
     3
100
AcDbDimStyleTable
  0
DIMSTYLE
105
27
330
A
100
AcDbSymbolTableRecord
100
AcDbDimStyleTableRecord
  2
ISO-25
 70
     0
 41
2.5
 42
0.625
 43
3.75
 44
1.25
 73
     0
 74
     0
 77
     1
 78
     8
140
2.5
141
2.5
143
0.03937007874016
147
0.625
171
     3
172
     1
178
     0
271
     2
272
     2
274
     3
278
    44
283
     0
284
     8
340
11
  0
DIMSTYLE
105
CF
330
A
100
AcDbSymbolTableRecord
100
AcDbDimStyleTableRecord
  2
SLDDIMSTYLE0
 70
     0
 41
3.302
 44
0.0
 45
0.000000001
 73
     0
 74
     0
 77
     1
 78
    12
 79
     3
140
3.5
143
0.0393700787401575
147
0.875
148
0.000000001
170
     1
173
     1
178
     0
271
     2
272
     2
276
     2
284
    12
340
94
  0
DIMSTYLE
105
10A
102
{ACAD_REACTORS
330
109
330
CE
330
E2
330
F6
102
}
330
A
100
AcDbSymbolTableRecord
100
AcDbDimStyleTableRecord
  2
SLDDIMSTYLE1
 70
     0
 41
3.302
 44
0.0
 45
0.000000001
 73
     0
 74
     0
 77
     1
 78
    12
 79
     3
140
3.5
143
0.0393700787401575
147
0.875
148
0.000000001
170
     1
172
     1
173
     1
178
     0
271
     2
272
     2
276
     2
284
    12
289
     0
340
94
  0
ENDTAB
  0
TABLE
  2
BLOCK_RECORD
  5
1
330
0
100
AcDbSymbolTable
 70
    13
  0
BLOCK_RECORD
  5
1F
330
1
100
AcDbSymbolTableRecord
100
AcDbBlockTableRecord
  2
*Model_Space
340
22
  0
BLOCK_RECORD
  5
1B
330
1
100
AcDbSymbolTableRecord
100
AcDbBlockTableRecord
  2
*Paper_Space
340
1E
  0
BLOCK_RECORD
  5
23
330
1
100
AcDbSymbolTableRecord
100
AcDbBlockTableRecord
  2
*Paper_Space0
340
26
  0
BLOCK_RECORD
  5
7F
330
1
100
AcDbSymbolTableRecord
100
AcDbBlockTableRecord
  2
블럭10
340
0
102
{BLKREFS
331
C7
102
}
  0
BLOCK_RECORD
  5
D0
330
1
100
AcDbSymbolTableRecord
100
AcDbBlockTableRecord
  2
_D
340
0
  0
BLOCK_RECORD
  5
E3
330
1
100
AcDbSymbolTableRecord
100
AcDbBlockTableRecord
  2
_D_1
340
0
  0
BLOCK_RECORD
  5
F7
330
1
100
AcDbSymbolTableRecord
100
AcDbBlockTableRecord
  2
_D_2
340
0
  0
BLOCK_RECORD
  5
10B
330
1
100
AcDbSymbolTableRecord
100
AcDbBlockTableRecord
  2
_D_3
340
0
  0
BLOCK_RECORD
  5
125
330
1
100
AcDbSymbolTableRecord
100
AcDbBlockTableRecord
  2
SW_DOWELSYMBOL_0
340
0
102
{BLKREFS
331
12B
102
}
  0
BLOCK_RECORD
  5
20D
330
1
100
AcDbSymbolTableRecord
100
AcDbBlockTableRecord
  2
*D7
340
0
  0
BLOCK_RECORD
  5
21C
330
1
100
AcDbSymbolTableRecord
100
AcDbBlockTableRecord
  2
*D8
340
0
  0
BLOCK_RECORD
  5
22B
330
1
100
AcDbSymbolTableRecord
100
AcDbBlockTableRecord
  2
*D9
340
0
  0
BLOCK_RECORD
  5
265
330
1
100
AcDbSymbolTableRecord
100
AcDbBlockTableRecord
  2
*D10
340
0
  0
BLOCK_RECORD
  5
274
330
1
100
AcDbSymbolTableRecord
100
AcDbBlockTableRecord
  2
*D11
340
0
  0
BLOCK_RECORD
  5
283
330
1
100
AcDbSymbolTableRecord
100
AcDbBlockTableRecord
  2
*D12
340
0
  0
ENDTAB
  0
ENDSEC
  0
SECTION
  2
BLOCKS
  0
BLOCK
  5
20
330
1F
100
AcDbEntity
  8
0
100
AcDbBlockBegin
  2
*Model_Space
 70
     0
 10
0.0
 20
0.0
 30
0.0
  3
*Model_Space
  1
*Model_Space
  0
ENDBLK
  5
21
330
1F
100
AcDbEntity
  8
0
100
AcDbBlockEnd
  0
BLOCK
  5
1C
330
1B
100
AcDbEntity
 67
     1
  8
0
100
AcDbBlockBegin
  2
*Paper_Space
 70
     0
 10
0.0
 20
0.0
 30
0.0
  3
*Paper_Space
  1
*Paper_Space
  0
ENDBLK
  5
1D
330
1B
100
AcDbEntity
 67
     1
  8
0
100
AcDbBlockEnd
  0
BLOCK
  5
24
330
23
100
AcDbEntity
  8
0
100
AcDbBlockBegin
  2
*Paper_Space0
 70
     0
 10
0.0
 20
0.0
 30
0.0
  3
*Paper_Space0
  1
*Paper_Space0
  0
ENDBLK
  5
25
330
23
100
AcDbEntity
  8
0
100
AcDbBlockEnd
  0
BLOCK
  5
80
330
7F
100
AcDbEntity
  8
0
100
AcDbBlockBegin
  2
블럭10
 70
     2
 10
0.0
 20
0.0
 30
0.0
  3
블럭10
  1
블럭10
  0
ELLIPSE
  5
82
330
7F
100
AcDbEntity
  8
중심선
100
AcDbEllipse
 10
20.54032771741204
 20
12.0471743016438
 30
0.0
 11
6.600054785286829
 21
-1.261213355974178E-13
 31
0.0
210
0.0
220
0.0
230
1.0
 40
0.636358354079598
 41
0.9219305317359503
 42
6.513795318482858
  0
ELLIPSE
  5
83
330
7F
100
AcDbEntity
  8
중심선
100
AcDbEllipse
 10
20.54032771746488
 20
12.04717430159265
 30
0.0
 11
3.960054785062283
 21
1.540847449632565E-10
 31
0.0
210
0.0
220
0.0
230
1.0
 40
0.3939339440162632
 41
1.131841032648279
 42
5.62031148352944
  0
LINE
  5
84
330
7F
100
AcDbEntity
  8
중심선
100
AcDbLine
 10
2.268634060543552
 20
16.24717430164393
 30
0.0
 11
5.714909304380834
 21
16.24717430164393
 31
0.0
  0
LINE
  5
85
330
7F
100
AcDbEntity
  8
중심선
100
AcDbLine
 10
5.245725140726316
 20
7.84717430164391
 30
0.0
 11
8.692000384563599
 21
7.84717430164391
 31
0.0
  0
LINE
  5
86
330
7F
100
AcDbEntity
  8
중심선
100
AcDbLine
 10
15.74043728645272
 20
16.24717430164393
 30
0.0
 11
8.692000384563599
 21
7.84717430164391
 31
0.0
  0
LINE
  5
87
330
7F
100
AcDbEntity
  8
중심선
100
AcDbLine
 10
0.1404042013395286
 20
13.71084872107135
 30
0.0
 11
3.58671253028996
 21
13.71088815037384
 31
0.0
  0
LINE
  5
88
330
7F
100
AcDbEntity
  8
중심선
100
AcDbLine
 10
2.750260043222114
 20
10.84717430164391
 30
0.0
 11
6.196535287059397
 21
10.84717430164391
 31
0.0
  0
LINE
  5
89
330
7F
100
AcDbEntity
  8
중심선
100
AcDbLine
 10
12.29416204261559
 20
16.24717430164393
 30
0.0
 11
5.245725140726316
 21
7.84717430164391
 31
0.0
  0
LINE
  5
8A
330
7F
100
AcDbEntity
  8
중심선
100
AcDbLine
 10
10.72767329541681
 20
16.24717430164393
 30
0.0
 11
6.196535287059397
 21
10.84717430164391
 31
0.0
  0
LINE
  5
8B
330
7F
100
AcDbEntity
  8
중심선
100
AcDbLine
 10
7.28139805157953
 20
16.24717430164393
 30
0.0
 11
2.750260043222114
 21
10.84717430164391
 31
0.0
  0
LINE
  5
8C
330
7F
100
AcDbEntity
  8
중심선
100
AcDbLine
 10
5.714909304380834
 20
16.24717430164393
 30
0.0
 11
3.58671253028996
 21
13.71088815037384
 31
0.0
  0
LINE
  5
8D
330
7F
100
AcDbEntity
  8
중심선
100
AcDbLine
 10
2.268634060543552
 20
16.24717430164393
 30
0.0
 11
0.1404042013395286
 21
13.71084872107135
 31
0.0
  0
LINE
  5
8E
330
7F
100
AcDbEntity
  8
중심선
100
AcDbLine
 10
7.28139805157953
 20
16.24717430164393
 30
0.0
 11
10.72767329541681
 21
16.24717430164393
 31
0.0
  0
LINE
  5
8F
330
7F
100
AcDbEntity
  8
중심선
100
AcDbLine
 10
12.29416204261559
 20
16.24717430164393
 30
0.0
 11
15.74043728645272
 21
16.24717430164393
 31
0.0
  0
LINE
  5
90
330
7F
100
AcDbEntity
  8
중심선
100
AcDbLine
 10
19.22036997980202
 20
11.08717430171403
 30
0.0
 11
23.66174974927406
 21
11.08717430171406
 31
0.0
  0
LINE
  5
91
330
7F
100
AcDbEntity
  8
중심선
100
AcDbLine
 10
19.22039502424796
 20
13.00717430171391
 30
0.0
 11
19.22036997980202
 21
11.08717430171403
 31
0.0
  0
LINE
  5
92
330
7F
100
AcDbEntity
  8
중심선
100
AcDbLine
 10
19.22039502424796
 20
13.00717430171391
 30
0.0
 11
26.96566020931264
 21
13.00717430171391
 31
0.0
  0
LINE
  5
93
330
7F
100
AcDbEntity
  8
중심선
100
AcDbLine
 10
22.22332737316547
 20
13.45928029700563
 30
0.0
 11
24.52862924686651
 21
15.39360700705356
 31
0.0
  0
ATTDEF
  5
95
330
7F
100
AcDbEntity
  8
FORMAT
 62
     2
100
AcDbText
 10
4.408487351596664
 20
2.075366912832191
 30
0.0
 40
4.233333333333333
  1
E1053044
 41
0.75
  7
SLDTEXTSTYLE0
 11
4.408487351596664
 21
-0.0412997538344756
 31
0.0
100
AcDbAttributeDefinition
  3

  2
AUTOATTR0
 70
     0
 74
     1
  0
ENDBLK
  5
81
330
7F
100
AcDbEntity
  8
0
100
AcDbBlockEnd
  0
BLOCK
  5
D1
330
D0
100
AcDbEntity
  8
0
100
AcDbBlockBegin
  2
_D
 70
     0
 10
0.0
 20
0.0
 30
0.0
  3
_D
  1
_D
  0
LINE
  5
D3
330
D0
100
AcDbEntity
  8
치수문자_일반주서
 62
     0
370
    -2
100
AcDbLine
 10
71.5
 20
8.731250000000006
 30
0.0
 11
90.37534525038252
 21
8.731250000000077
 31
0.0
  0
LINE
  5
D4
330
D0
100
AcDbEntity
  8
치수문자_일반주서
 62
     0
370
    -2
100
AcDbLine
 10
71.5
 20
-8.731249999999989
 30
0.0
 11
90.37534525038258
 21
-8.731249999999921
 31
0.0
  0
LINE
  5
D5
330
D0
100
AcDbEntity
  8
치수문자_일반주서
 62
     0
370
    -2
100
AcDbLine
 10
90.37534525038252
 20
8.731250000000077
 30
0.0
 11
90.3753452503824
 21
45.99064162728175
 31
0.0
  0
LINE
  5
D6
330
D0
100
AcDbEntity
  8
치수문자_일반주서
 62
     0
370
    -2
100
AcDbLine
 10
90.37534525038252
 20
8.731250000000077
 30
0.0
 11
90.37534525038258
 21
-8.731249999999921
 31
0.0
  0
LINE
  5
D7
330
D0
100
AcDbEntity
  8
치수문자_일반주서
 62
     0
370
    -2
100
AcDbLine
 10
90.37534525038251
 20
12.03325000000008
 30
0.0
 11
90.3753452503825
 21
15.33525000000008
 31
0.0
  0
LINE
  5
D8
330
D0
100
AcDbEntity
  8
치수문자_일반주서
 62
     0
370
    -2
100
AcDbLine
 10
90.3753452503826
 20
-12.03324999999992
 30
0.0
 11
90.37534525038261
 21
-15.33524999999992
 31
0.0
  0
SOLID
  5
D9
330
D0
100
AcDbEntity
  8
치수문자_일반주서
 62
     0
100
AcDbTrace
 10
89.82501191704918
 20
12.03325000000008
 30
0.0
 11
90.92567858371584
 21
12.03325000000008
 31
0.0
 12
90.37534525038252
 22
8.731250000000077
 32
0.0
 13
90.37534525038252
 23
8.731250000000077
 33
0.0
  0
SOLID
  5
DA
330
D0
100
AcDbEntity
  8
치수문자_일반주서
 62
     0
100
AcDbTrace
 10
90.92567858371592
 20
-12.03324999999992
 30
0.0
 11
89.82501191704927
 21
-12.03324999999992
 31
0.0
 12
90.37534525038258
 22
-8.731249999999921
 32
0.0
 13
90.37534525038258
 23
-8.731249999999921
 33
0.0
  0
MTEXT
  5
DB
330
D0
100
AcDbEntity
  8
치수문자_일반주서
 62
     0
100
AcDbMText
 10
86.00034525038245
 20
30.67814162728173
 30
0.0
 40
3.5
 41
0.0
 71
     2
 72
     1
  1
\A1;%%c17.46 [11/16]
  7
SLDTEXTSTYLE0
 11
-3.255170729323294E-15
 21
1.0
 31
0.0
 73
     1
 44
1.0
  0
POINT
  5
DC
330
D0
100
AcDbEntity
  8
Defpoints
 62
     0
100
AcDbPoint
 10
71.4375
 20
8.731250000000006
 30
0.0
  0
POINT
  5
17E
330
D0
100
AcDbEntity
  8
Defpoints
 62
     0
100
AcDbPoint
 10
71.4375
 20
-8.731249999999989
 30
0.0
  0
POINT
  5
17F
330
D0
100
AcDbEntity
  8
Defpoints
 62
     0
100
AcDbPoint
 10
90.37534525038258
 20
-8.731249999999918
 30
0.0
  0
ENDBLK
  5
D2
330
D0
100
AcDbEntity
  8
0
100
AcDbBlockEnd
  0
BLOCK
  5
E4
330
E3
100
AcDbEntity
  8
0
100
AcDbBlockBegin
  2
_D_1
 70
     0
 10
0.0
 20
0.0
 30
0.0
  3
_D_1
  1
_D_1
  0
LINE
  5
E6
330
E3
100
AcDbEntity
  8
치수문자_일반주서
 62
     0
370
    -2
100
AcDbLine
 10
71.4375
 20
8.793750000000006
 30
0.0
 11
71.4375
 21
25.16892030937553
 31
0.0
  0
LINE
  5
E7
330
E3
100
AcDbEntity
  8
치수문자_일반주서
 62
     0
370
    -2
100
AcDbLine
 10
30.16250000000002
 20
8.79091997580476
 30
0.0
 11
30.16250000000002
 21
25.16892030937553
 31
0.0
  0
LINE
  5
E8
330
E3
100
AcDbEntity
  8
치수문자_일반주서
 62
     0
370
    -2
100
AcDbLine
 10
30.16250000000002
 20
25.16892030937553
 30
0.0
 11
-11.52283011434088
 21
25.16892030937553
 31
0.0
  0
LINE
  5
E9
330
E3
100
AcDbEntity
  8
치수문자_일반주서
 62
     0
370
    -2
100
AcDbLine
 10
71.4375
 20
25.16892030937553
 30
0.0
 11
30.16250000000002
 21
25.16892030937553
 31
0.0
  0
LINE
  5
EA
330
E3
100
AcDbEntity
  8
치수문자_일반주서
 62
     0
370
    -2
100
AcDbLine
 10
74.73949999999999
 20
25.16892030937553
 30
0.0
 11
78.04149999999998
 21
25.16892030937553
 31
0.0
  0
LINE
  5
EB
330
E3
100
AcDbEntity
  8
치수문자_일반주서
 62
     0
370
    -2
100
AcDbLine
 10
26.86050000000002
 20
25.16892030937553
 30
0.0
 11
23.55850000000002
 21
25.16892030937553
 31
0.0
  0
SOLID
  5
EC
330
E3
100
AcDbEntity
  8
치수문자_일반주서
 62
     0
100
AcDbTrace
 10
74.73949999999999
 20
25.71925364270886
 30
0.0
 11
74.73949999999999
 21
24.61858697604219
 31
0.0
 12
71.4375
 22
25.16892030937553
 32
0.0
 13
71.4375
 23
25.16892030937553
 33
0.0
  0
SOLID
  5
ED
330
E3
100
AcDbEntity
  8
치수문자_일반주서
 62
     0
100
AcDbTrace
 10
26.86050000000002
 20
24.61858697604219
 30
0.0
 11
26.86050000000002
 21
25.71925364270886
 31
0.0
 12
30.16250000000002
 22
25.16892030937553
 32
0.0
 13
30.16250000000002
 23
25.16892030937553
 33
0.0
  0
MTEXT
  5
EE
330
E3
100
AcDbEntity
  8
치수문자_일반주서
 62
     0
100
AcDbMText
 10
3.352169885659123
 20
29.54392030937553
 30
0.0
 40
3.5
 41
0.0
 71
     2
 72
     1
  1
\A1;41.28 [1 5/8]
  7
SLDTEXTSTYLE0
 73
     1
 44
1.0
  0
POINT
  5
EF
330
E3
100
AcDbEntity
  8
Defpoints
 62
     0
100
AcDbPoint
 10
71.4375
 20
8.731250000000006
 30
0.0
  0
POINT
  5
180
330
E3
100
AcDbEntity
  8
Defpoints
 62
     0
100
AcDbPoint
 10
30.16250000000002
 20
8.72841997580476
 30
0.0
  0
POINT
  5
181
330
E3
100
AcDbEntity
  8
Defpoints
 62
     0
100
AcDbPoint
 10
30.16250000000002
 20
25.16892030937553
 30
0.0
  0
ENDBLK
  5
E5
330
E3
100
AcDbEntity
  8
0
100
AcDbBlockEnd
  0
BLOCK
  5
F8
330
F7
100
AcDbEntity
  8
0
100
AcDbBlockBegin
  2
_D_2
 70
     0
 10
0.0
 20
0.0
 30
0.0
  3
_D_2
  1
_D_2
  0
LINE
  5
FA
330
F7
100
AcDbEntity
  8
치수문자_일반주서
 62
     0
370
    -2
100
AcDbLine
 10
71.4375
 20
8.793750000000006
 30
0.0
 11
71.4375
 21
41.24349882829743
 31
0.0
  0
LINE
  5
FB
330
F7
100
AcDbEntity
  8
치수문자_일반주서
 62
     0
370
    -2
100
AcDbLine
 10
-71.4375
 20
8.793749999999996
 30
0.0
 11
-71.4375
 21
41.24349882829743
 31
0.0
  0
LINE
  5
FC
330
F7
100
AcDbEntity
  8
치수문자_일반주서
 62
     0
370
    -2
100
AcDbLine
 10
68.13550000000001
 20
41.24349882829743
 30
0.0
 11
-68.13550000000001
 21
41.24349882829743
 31
0.0
  0
SOLID
  5
FD
330
F7
100
AcDbEntity
  8
치수문자_일반주서
 62
     0
100
AcDbTrace
 10
68.13550000000001
 20
40.69316549496409
 30
0.0
 11
68.13550000000001
 21
41.79383216163076
 31
0.0
 12
71.4375
 22
41.24349882829743
 32
0.0
 13
71.4375
 23
41.24349882829743
 33
0.0
  0
SOLID
  5
FE
330
F7
100
AcDbEntity
  8
치수문자_일반주서
 62
     0
100
AcDbTrace
 10
-68.13550000000001
 20
41.79383216163076
 30
0.0
 11
-68.13550000000001
 21
40.69316549496409
 31
0.0
 12
-71.4375
 22
41.24349882829743
 32
0.0
 13
-71.4375
 23
41.24349882829743
 33
0.0
  0
MTEXT
  5
FF
330
F7
100
AcDbEntity
  8
치수문자_일반주서
 62
     0
100
AcDbMText
 10
-1.240566834032848
 20
45.61849882829743
 30
0.0
 40
3.5
 41
0.0
 71
     2
 72
     1
  1
\A1;142.88 [5 5/8]
  7
SLDTEXTSTYLE0
 73
     1
 44
1.0
  0
POINT
  5
100
330
F7
100
AcDbEntity
  8
Defpoints
 62
     0
100
AcDbPoint
 10
71.4375
 20
8.731250000000006
 30
0.0
  0
POINT
  5
101
330
F7
100
AcDbEntity
  8
Defpoints
 62
     0
100
AcDbPoint
 10
-71.4375
 20
8.731249999999996
 30
0.0
  0
POINT
  5
102
330
F7
100
AcDbEntity
  8
Defpoints
 62
     0
100
AcDbPoint
 10
-71.4375
 20
41.24349882829743
 30
0.0
  0
ENDBLK
  5
F9
330
F7
100
AcDbEntity
  8
0
100
AcDbBlockEnd
  0
BLOCK
  5
10C
330
10B
100
AcDbEntity
  8
0
100
AcDbBlockBegin
  2
_D_3
 70
     0
 10
0.0
 20
0.0
 30
0.0
  3
_D_3
  1
_D_3
  0
LINE
  5
10E
330
10B
100
AcDbEntity
  8
치수문자_일반주서
 62
     0
370
    -2
100
AcDbLine
 10
-26.26268467149214
 20
9.525
 30
0.0
 11
-83.00875000000005
 21
9.524999999999787
 31
0.0
  0
LINE
  5
10F
330
10B
100
AcDbEntity
  8
치수문자_일반주서
 62
     0
370
    -2
100
AcDbLine
 10
-26.26268467149214
 20
-9.52500000000001
 30
0.0
 11
-83.00874999999998
 21
-9.525000000000222
 31
0.0
  0
LINE
  5
110
330
10B
100
AcDbEntity
  8
치수문자_일반주서
 62
     0
370
    -2
100
AcDbLine
 10
-83.00875000000003
 20
6.222999999999788
 30
0.0
 11
-83.00874999999999
 21
-6.223000000000223
 31
0.0
  0
SOLID
  5
111
330
10B
100
AcDbEntity
  8
치수문자_일반주서
 62
     0
100
AcDbTrace
 10
-82.45841666666671
 20
6.222999999999789
 30
0.0
 11
-83.55908333333336
 21
6.222999999999786
 31
0.0
 12
-83.00875000000005
 22
9.524999999999787
 32
0.0
 13
-83.00875000000005
 23
9.524999999999787
 33
0.0
  0
SOLID
  5
112
330
10B
100
AcDbEntity
  8
치수문자_일반주서
 62
     0
100
AcDbTrace
 10
-83.55908333333332
 20
-6.223000000000225
 30
0.0
 11
-82.45841666666666
 21
-6.223000000000221
 31
0.0
 12
-83.00874999999998
 22
-9.525000000000222
 32
0.0
 13
-83.00874999999998
 23
-9.525000000000222
 33
0.0
  0
MTEXT
  5
113
330
10B
100
AcDbEntity
  8
치수문자_일반주서
 62
     0
100
AcDbMText
 10
-87.38375000000002
 20
-0.0000000000000134
 30
0.0
 40
3.5
 41
0.0
 71
     2
 72
     1
  1
\A1;%%c19.05 [3/4]
  7
SLDTEXTSTYLE0
 11
-3.729883127349606E-15
 21
1.0
 31
0.0
 73
     1
 44
1.0
  0
POINT
  5
114
330
10B
100
AcDbEntity
  8
Defpoints
 62
     0
100
AcDbPoint
 10
-26.20018467149214
 20
9.525
 30
0.0
  0
POINT
  5
115
330
10B
100
AcDbEntity
  8
Defpoints
 62
     0
100
AcDbPoint
 10
-26.20018467149214
 20
-9.52500000000001
 30
0.0
  0
POINT
  5
116
330
10B
100
AcDbEntity
  8
Defpoints
 62
     0
100
AcDbPoint
 10
-83.00874999999998
 20
-9.52500000000022
 30
0.0
  0
ENDBLK
  5
10D
330
10B
100
AcDbEntity
  8
0
100
AcDbBlockEnd
  0
BLOCK
  5
126
330
125
100
AcDbEntity
  8
0
100
AcDbBlockBegin
  2
SW_DOWELSYMBOL_0
 70
     0
 10
0.0
 20
0.0
 30
0.0
  3
SW_DOWELSYMBOL_0
  1
SW_DOWELSYMBOL_0
  0
CIRCLE
  5
128
330
125
100
AcDbEntity
  8
해칭선
 62
     0
100
AcDbCircle
 10
0.0
 20
0.0
 30
0.0
 40
3.000000000000008
  0
HATCH
  5
129
330
125
100
AcDbEntity
  8
0
  6
Continuous
 62
     0
370
     0
100
AcDbHatch
 10
0.0
 20
0.0
 30
0.0
210
0.0
220
0.0
230
1.0
  2
SOLID
 70
     1
 71
     0
 91
        1
 92
        0
 93
        3
 72
     2
 10
0.0
 20
0.0
 40
3.000000000000008
 50
0.0
 51
90.0
 73
     1
 72
     1
 10
0.0
 20
3.000000000000008
 11
0.0
 21
0.0
 72
     1
 10
0.0
 20
0.0
 11
3.00000000000001
 21
0.0
 97
        0
 75
     0
 76
     1
 98
        1
 10
0.0
 20
0.0
  0
HATCH
  5
12A
330
125
100
AcDbEntity
  8
0
  6
Continuous
 62
     0
370
     0
100
AcDbHatch
 10
0.0
 20
0.0
 30
0.0
210
0.0
220
0.0
230
1.0
  2
SOLID
 70
     1
 71
     0
 91
        1
 92
        0
 93
        3
 72
     2
 10
0.0
 20
0.0
 40
3.000000000000008
 50
180.0
 51
270.0000000000007
 73
     1
 72
     1
 10
0.0
 20
-3.000000000000008
 11
0.0
 21
0.0
 72
     1
 10
0.0
 20
0.0
 11
-3.00000000000001
 21
0.0
 97
        0
 75
     0
 76
     1
 98
        1
 10
0.0
 20
0.0
  0
ENDBLK
  5
127
330
125
100
AcDbEntity
  8
0
100
AcDbBlockEnd
  0
BLOCK
  5
20E
330
20D
100
AcDbEntity
  8
0
100
AcDbBlockBegin
  2
*D7
 70
     1
 10
0.0
 20
0.0
 30
0.0
  3
*D7
  1
*D9
  0
LINE
  5
210
330
20D
100
AcDbEntity
  8
치수문자_일반주서
 62
     0
370
    -2
100
AcDbLine
 10
145.9375
 20
24.06649999999993
 30
0.0
 11
164.8128452503825
 21
24.0665
 31
0.0
  0
LINE
  5
211
330
20D
100
AcDbEntity
  8
치수문자_일반주서
 62
     0
370
    -2
100
AcDbLine
 10
145.9375
 20
6.603999999999932
 30
0.0
 11
164.8128452503826
 21
6.603999999999999
 31
0.0
  0
LINE
  5
212
330
20D
100
AcDbEntity
  8
치수문자_일반주서
 62
     0
370
    -2
100
AcDbLine
 10
164.8128452503825
 20
24.0665
 30
0.0
 11
164.8128452503824
 21
61.32589162728166
 31
0.0
  0
LINE
  5
213
330
20D
100
AcDbEntity
  8
치수문자_일반주서
 62
     0
370
    -2
100
AcDbLine
 10
164.8128452503825
 20
24.0665
 30
0.0
 11
164.8128452503826
 21
6.603999999999999
 31
0.0
  0
LINE
  5
214
330
20D
100
AcDbEntity
  8
치수문자_일반주서
 62
     0
370
    -2
100
AcDbLine
 10
164.8128452503825
 20
27.3685
 30
0.0
 11
164.8128452503825
 21
30.6705
 31
0.0
  0
LINE
  5
215
330
20D
100
AcDbEntity
  8
치수문자_일반주서
 62
     0
370
    -2
100
AcDbLine
 10
164.8128452503826
 20
3.302
 30
0.0
 11
164.8128452503826
 21
0.0
 31
0.0
  0
SOLID
  5
216
330
20D
100
AcDbEntity
  8
치수문자_일반주서
 62
     0
100
AcDbTrace
 10
164.2625119170492
 20
27.36849999999999
 30
0.0
 11
165.3631785837159
 21
27.3685
 31
0.0
 12
164.8128452503825
 22
24.0665
 32
0.0
 13
164.8128452503825
 23
24.0665
 33
0.0
  0
SOLID
  5
217
330
20D
100
AcDbEntity
  8
치수문자_일반주서
 62
     0
100
AcDbTrace
 10
165.3631785837159
 20
3.302000000000001
 30
0.0
 11
164.2625119170493
 21
3.301999999999998
 31
0.0
 12
164.8128452503826
 22
6.603999999999999
 32
0.0
 13
164.8128452503826
 23
6.603999999999999
 33
0.0
  0
MTEXT
  5
218
330
20D
100
AcDbEntity
  8
치수문자_일반주서
 62
     0
100
AcDbMText
 10
160.4378452503825
 20
46.01339162728165
 30
0.0
 40
3.5
 41
0.0
 71
     2
 72
     1
  1
\A1;%%c17.46 [11/16]
  7
SLDTEXTSTYLE0
 11
-3.255170729323294E-15
 21
1.0
 31
0.0
 73
     1
 44
1.0
  0
POINT
  5
219
330
20D
100
AcDbEntity
  8
Defpoints
 62
     0
100
AcDbPoint
 10
145.875
 20
24.06649999999993
 30
0.0
  0
POINT
  5
21A
330
20D
100
AcDbEntity
  8
Defpoints
 62
     0
100
AcDbPoint
 10
145.875
 20
6.603999999999932
 30
0.0
  0
POINT
  5
21B
330
20D
100
AcDbEntity
  8
Defpoints
 62
     0
100
AcDbPoint
 10
164.8128452503826
 20
6.604000000000003
 30
0.0
  0
ENDBLK
  5
20F
330
20D
100
AcDbEntity
  8
0
100
AcDbBlockEnd
  0
BLOCK
  5
21D
330
21C
100
AcDbEntity
  8
0
100
AcDbBlockBegin
  2
*D8
 70
     1
 10
0.0
 20
0.0
 30
0.0
  3
*D8
  1
*D10
  0
LINE
  5
21F
330
21C
100
AcDbEntity
  8
치수문자_일반주서
 62
     0
370
    -2
100
AcDbLine
 10
145.875
 20
24.12899999999993
 30
0.0
 11
145.875
 21
40.50417030937545
 31
0.0
  0
LINE
  5
220
330
21C
100
AcDbEntity
  8
치수문자_일반주서
 62
     0
370
    -2
100
AcDbLine
 10
104.6
 20
24.12616997580468
 30
0.0
 11
104.6
 21
40.50417030937545
 31
0.0
  0
LINE
  5
221
330
21C
100
AcDbEntity
  8
치수문자_일반주서
 62
     0
370
    -2
100
AcDbLine
 10
104.6
 20
40.50417030937545
 30
0.0
 11
62.91466988565912
 21
40.50417030937545
 31
0.0
  0
LINE
  5
222
330
21C
100
AcDbEntity
  8
치수문자_일반주서
 62
     0
370
    -2
100
AcDbLine
 10
145.875
 20
40.50417030937545
 30
0.0
 11
104.6
 21
40.50417030937545
 31
0.0
  0
LINE
  5
223
330
21C
100
AcDbEntity
  8
치수문자_일반주서
 62
     0
370
    -2
100
AcDbLine
 10
149.177
 20
40.50417030937545
 30
0.0
 11
152.479
 21
40.50417030937545
 31
0.0
  0
LINE
  5
224
330
21C
100
AcDbEntity
  8
치수문자_일반주서
 62
     0
370
    -2
100
AcDbLine
 10
101.298
 20
40.50417030937545
 30
0.0
 11
97.99600000000004
 21
40.50417030937545
 31
0.0
  0
SOLID
  5
225
330
21C
100
AcDbEntity
  8
치수문자_일반주서
 62
     0
100
AcDbTrace
 10
149.177
 20
41.05450364270878
 30
0.0
 11
149.177
 21
39.95383697604211
 31
0.0
 12
145.875
 22
40.50417030937545
 32
0.0
 13
145.875
 23
40.50417030937545
 33
0.0
  0
SOLID
  5
226
330
21C
100
AcDbEntity
  8
치수문자_일반주서
 62
     0
100
AcDbTrace
 10
101.298
 20
39.95383697604211
 30
0.0
 11
101.298
 21
41.05450364270878
 31
0.0
 12
104.6
 22
40.50417030937545
 32
0.0
 13
104.6
 23
40.50417030937545
 33
0.0
  0
MTEXT
  5
227
330
21C
100
AcDbEntity
  8
치수문자_일반주서
 62
     0
100
AcDbMText
 10
77.78966988565912
 20
44.87917030937545
 30
0.0
 40
3.5
 41
0.0
 71
     2
 72
     1
  1
\A1;41.28 [1 5/8]
  7
SLDTEXTSTYLE0
 73
     1
 44
1.0
  0
POINT
  5
228
330
21C
100
AcDbEntity
  8
Defpoints
 62
     0
100
AcDbPoint
 10
145.875
 20
24.06649999999993
 30
0.0
  0
POINT
  5
229
330
21C
100
AcDbEntity
  8
Defpoints
 62
     0
100
AcDbPoint
 10
104.6
 20
24.06366997580468
 30
0.0
  0
POINT
  5
22A
330
21C
100
AcDbEntity
  8
Defpoints
 62
     0
100
AcDbPoint
 10
104.6
 20
40.50417030937545
 30
0.0
  0
ENDBLK
  5
21E
330
21C
100
AcDbEntity
  8
0
100
AcDbBlockEnd
  0
BLOCK
  5
22C
330
22B
100
AcDbEntity
  8
0
100
AcDbBlockBegin
  2
*D9
 70
     1
 10
0.0
 20
0.0
 30
0.0
  3
*D9
  1
*D11
  0
LINE
  5
22E
330
22B
100
AcDbEntity
  8
치수문자_일반주서
 62
     0
370
    -2
100
AcDbLine
 10
145.875
 20
24.12899999999993
 30
0.0
 11
145.875
 21
56.57874882829734
 31
0.0
  0
LINE
  5
22F
330
22B
100
AcDbEntity
  8
치수문자_일반주서
 62
     0
370
    -2
100
AcDbLine
 10
3.000000000000007
 20
23.01774999999992
 30
0.0
 11
3.0
 21
56.57874882829734
 31
0.0
  0
LINE
  5
230
330
22B
100
AcDbEntity
  8
치수문자_일반주서
 62
     0
370
    -2
100
AcDbLine
 10
142.573
 20
56.57874882829734
 30
0.0
 11
6.302
 21
56.57874882829734
 31
0.0
  0
SOLID
  5
231
330
22B
100
AcDbEntity
  8
치수문자_일반주서
 62
     0
100
AcDbTrace
 10
142.573
 20
56.02841549496401
 30
0.0
 11
142.573
 21
57.12908216163068
 31
0.0
 12
145.875
 22
56.57874882829734
 32
0.0
 13
145.875
 23
56.57874882829734
 33
0.0
  0
SOLID
  5
232
330
22B
100
AcDbEntity
  8
치수문자_일반주서
 62
     0
100
AcDbTrace
 10
6.302
 20
57.12908216163068
 30
0.0
 11
6.302
 21
56.02841549496401
 31
0.0
 12
3.0
 22
56.57874882829734
 32
0.0
 13
3.0
 23
56.57874882829734
 33
0.0
  0
MTEXT
  5
233
330
22B
100
AcDbEntity
  8
치수문자_일반주서
 62
     0
100
AcDbMText
 10
73.19693316596715
 20
60.95374882829734
 30
0.0
 40
3.5
 41
0.0
 71
     2
 72
     1
  1
\A1;142.88 [5 5/8]
  7
SLDTEXTSTYLE0
 73
     1
 44
1.0
  0
POINT
  5
234
330
22B
100
AcDbEntity
  8
Defpoints
 62
     0
100
AcDbPoint
 10
145.875
 20
24.06649999999993
 30
0.0
  0
POINT
  5
235
330
22B
100
AcDbEntity
  8
Defpoints
 62
     0
100
AcDbPoint
 10
3.000000000000007
 20
22.95524999999992
 30
0.0
  0
POINT
  5
236
330
22B
100
AcDbEntity
  8
Defpoints
 62
     0
100
AcDbPoint
 10
3.000000000000007
 20
56.57874882829734
 30
0.0
  0
ENDBLK
  5
22D
330
22B
100
AcDbEntity
  8
0
100
AcDbBlockEnd
  0
BLOCK
  5
266
330
265
100
AcDbEntity
  8
0
100
AcDbBlockBegin
  2
*D10
 70
     1
 10
0.0
 20
0.0
 30
0.0
  3
*D10
  1
*D12
  0
LINE
  5
268
330
265
100
AcDbEntity
  8
치수문자_일반주서
 62
     0
370
    -2
100
AcDbLine
 10
352.8618691310548
 20
14.46915486776315
 30
0.0
 11
371.7372143814374
 21
14.46915486776322
 31
0.0
  0
LINE
  5
269
330
265
100
AcDbEntity
  8
치수문자_일반주서
 62
     0
370
    -2
100
AcDbLine
 10
352.8618691310548
 20
-2.993345132236847
 30
0.0
 11
371.7372143814374
 21
-2.993345132236776
 31
0.0
  0
LINE
  5
26A
330
265
100
AcDbEntity
  8
치수문자_일반주서
 62
     0
370
    -2
100
AcDbLine
 10
371.7372143814374
 20
14.46915486776322
 30
0.0
 11
371.7372143814372
 21
51.72854649504488
 31
0.0
  0
LINE
  5
26B
330
265
100
AcDbEntity
  8
치수문자_일반주서
 62
     0
370
    -2
100
AcDbLine
 10
371.7372143814374
 20
14.46915486776322
 30
0.0
 11
371.7372143814374
 21
-2.993345132236776
 31
0.0
  0
LINE
  5
26C
330
265
100
AcDbEntity
  8
치수문자_일반주서
 62
     0
370
    -2
100
AcDbLine
 10
371.7372143814374
 20
17.77115486776322
 30
0.0
 11
371.7372143814374
 21
21.07315486776322
 31
0.0
  0
LINE
  5
26D
330
265
100
AcDbEntity
  8
치수문자_일반주서
 62
     0
370
    -2
100
AcDbLine
 10
371.7372143814374
 20
-6.295345132236775
 30
0.0
 11
371.7372143814374
 21
-9.597345132236775
 31
0.0
  0
SOLID
  5
26E
330
265
100
AcDbEntity
  8
치수문자_일반주서
 62
     0
100
AcDbTrace
 10
371.186881048104
 20
17.77115486776322
 30
0.0
 11
372.2875477147707
 21
17.77115486776322
 31
0.0
 12
371.7372143814374
 22
14.46915486776322
 32
0.0
 13
371.7372143814374
 23
14.46915486776322
 33
0.0
  0
SOLID
  5
26F
330
265
100
AcDbEntity
  8
치수문자_일반주서
 62
     0
100
AcDbTrace
 10
372.2875477147708
 20
-6.295345132236774
 30
0.0
 11
371.1868810481041
 21
-6.295345132236777
 31
0.0
 12
371.7372143814374
 22
-2.993345132236776
 32
0.0
 13
371.7372143814374
 23
-2.993345132236776
 33
0.0
  0
MTEXT
  5
270
330
265
100
AcDbEntity
  8
치수문자_일반주서
 62
     0
100
AcDbMText
 10
367.3622143814373
 20
36.41604649504487
 30
0.0
 40
3.5
 41
0.0
 71
     2
 72
     1
  1
\A1;%%c17.46 [11/16]
  7
SLDTEXTSTYLE0
 11
-3.255170729323294E-15
 21
1.0
 31
0.0
 73
     1
 44
1.0
  0
POINT
  5
271
330
265
100
AcDbEntity
  8
Defpoints
 62
     0
100
AcDbPoint
 10
352.7993691310548
 20
14.46915486776315
 30
0.0
  0
POINT
  5
272
330
265
100
AcDbEntity
  8
Defpoints
 62
     0
100
AcDbPoint
 10
352.7993691310548
 20
-2.993345132236847
 30
0.0
  0
POINT
  5
273
330
265
100
AcDbEntity
  8
Defpoints
 62
     0
100
AcDbPoint
 10
371.7372143814374
 20
-2.993345132236776
 30
0.0
  0
ENDBLK
  5
267
330
265
100
AcDbEntity
  8
0
100
AcDbBlockEnd
  0
BLOCK
  5
275
330
274
100
AcDbEntity
  8
0
100
AcDbBlockBegin
  2
*D11
 70
     1
 10
0.0
 20
0.0
 30
0.0
  3
*D11
  1
*D13
  0
LINE
  5
277
330
274
100
AcDbEntity
  8
치수문자_일반주서
 62
     0
370
    -2
100
AcDbLine
 10
352.7993691310548
 20
14.53165486776315
 30
0.0
 11
352.7993691310548
 21
30.90682517713867
 31
0.0
  0
LINE
  5
278
330
274
100
AcDbEntity
  8
치수문자_일반주서
 62
     0
370
    -2
100
AcDbLine
 10
311.5243691310549
 20
14.5288248435679
 30
0.0
 11
311.5243691310549
 21
30.90682517713867
 31
0.0
  0
LINE
  5
279
330
274
100
AcDbEntity
  8
치수문자_일반주서
 62
     0
370
    -2
100
AcDbLine
 10
311.5243691310549
 20
30.90682517713867
 30
0.0
 11
269.839039016714
 21
30.90682517713867
 31
0.0
  0
LINE
  5
27A
330
274
100
AcDbEntity
  8
치수문자_일반주서
 62
     0
370
    -2
100
AcDbLine
 10
352.7993691310548
 20
30.90682517713867
 30
0.0
 11
311.5243691310549
 21
30.90682517713867
 31
0.0
  0
LINE
  5
27B
330
274
100
AcDbEntity
  8
치수문자_일반주서
 62
     0
370
    -2
100
AcDbLine
 10
356.1013691310549
 20
30.90682517713867
 30
0.0
 11
359.4033691310549
 21
30.90682517713867
 31
0.0
  0
LINE
  5
27C
330
274
100
AcDbEntity
  8
치수문자_일반주서
 62
     0
370
    -2
100
AcDbLine
 10
308.2223691310548
 20
30.90682517713867
 30
0.0
 11
304.9203691310548
 21
30.90682517713867
 31
0.0
  0
SOLID
  5
27D
330
274
100
AcDbEntity
  8
치수문자_일반주서
 62
     0
100
AcDbTrace
 10
356.1013691310549
 20
31.457158510472
 30
0.0
 11
356.1013691310549
 21
30.35649184380533
 31
0.0
 12
352.7993691310548
 22
30.90682517713867
 32
0.0
 13
352.7993691310548
 23
30.90682517713867
 33
0.0
  0
SOLID
  5
27E
330
274
100
AcDbEntity
  8
치수문자_일반주서
 62
     0
100
AcDbTrace
 10
308.2223691310548
 20
30.35649184380533
 30
0.0
 11
308.2223691310548
 21
31.457158510472
 31
0.0
 12
311.5243691310549
 22
30.90682517713867
 32
0.0
 13
311.5243691310549
 23
30.90682517713867
 33
0.0
  0
MTEXT
  5
27F
330
274
100
AcDbEntity
  8
치수문자_일반주서
 62
     0
100
AcDbMText
 10
284.714039016714
 20
35.28182517713867
 30
0.0
 40
3.5
 41
0.0
 71
     2
 72
     1
  1
\A1;41.28 [1 5/8]
  7
SLDTEXTSTYLE0
 73
     1
 44
1.0
  0
POINT
  5
280
330
274
100
AcDbEntity
  8
Defpoints
 62
     0
100
AcDbPoint
 10
352.7993691310548
 20
14.46915486776315
 30
0.0
  0
POINT
  5
281
330
274
100
AcDbEntity
  8
Defpoints
 62
     0
100
AcDbPoint
 10
311.5243691310549
 20
14.4663248435679
 30
0.0
  0
POINT
  5
282
330
274
100
AcDbEntity
  8
Defpoints
 62
     0
100
AcDbPoint
 10
311.5243691310549
 20
30.90682517713867
 30
0.0
  0
ENDBLK
  5
276
330
274
100
AcDbEntity
  8
0
100
AcDbBlockEnd
  0
BLOCK
  5
284
330
283
100
AcDbEntity
  8
0
100
AcDbBlockBegin
  2
*D12
 70
     1
 10
0.0
 20
0.0
 30
0.0
  3
*D12
  1
*D14
  0
LINE
  5
286
330
283
100
AcDbEntity
  8
치수문자_일반주서
 62
     0
370
    -2
100
AcDbLine
 10
352.7993691310548
 20
14.53165486776315
 30
0.0
 11
352.7993691310548
 21
46.98140369606057
 31
0.0
  0
LINE
  5
287
330
283
100
AcDbEntity
  8
치수문자_일반주서
 62
     0
370
    -2
100
AcDbLine
 10
209.9243691310548
 20
13.42040486776314
 30
0.0
 11
209.9243691310548
 21
46.98140369606057
 31
0.0
  0
LINE
  5
288
330
283
100
AcDbEntity
  8
치수문자_일반주서
 62
     0
370
    -2
100
AcDbLine
 10
349.4973691310548
 20
46.98140369606057
 30
0.0
 11
213.2263691310548
 21
46.98140369606057
 31
0.0
  0
SOLID
  5
289
330
283
100
AcDbEntity
  8
치수문자_일반주서
 62
     0
100
AcDbTrace
 10
349.4973691310548
 20
46.43107036272723
 30
0.0
 11
349.4973691310548
 21
47.5317370293939
 31
0.0
 12
352.7993691310548
 22
46.98140369606057
 32
0.0
 13
352.7993691310548
 23
46.98140369606057
 33
0.0
  0
SOLID
  5
28A
330
283
100
AcDbEntity
  8
치수문자_일반주서
 62
     0
100
AcDbTrace
 10
213.2263691310548
 20
47.5317370293939
 30
0.0
 11
213.2263691310548
 21
46.43107036272723
 31
0.0
 12
209.9243691310548
 22
46.98140369606057
 32
0.0
 13
209.9243691310548
 23
46.98140369606057
 33
0.0
  0
MTEXT
  5
28B
330
283
100
AcDbEntity
  8
치수문자_일반주서
 62
     0
100
AcDbMText
 10
280.121302297022
 20
51.35640369606057
 30
0.0
 40
3.5
 41
0.0
 71
     2
 72
     1
  1
\A1;142.88 [5 5/8]
  7
SLDTEXTSTYLE0
 73
     1
 44
1.0
  0
POINT
  5
28C
330
283
100
AcDbEntity
  8
Defpoints
 62
     0
100
AcDbPoint
 10
352.7993691310548
 20
14.46915486776315
 30
0.0
  0
POINT
  5
28D
330
283
100
AcDbEntity
  8
Defpoints
 62
     0
100
AcDbPoint
 10
209.9243691310548
 20
13.35790486776314
 30
0.0
  0
POINT
  5
28E
330
283
100
AcDbEntity
  8
Defpoints
 62
     0
100
AcDbPoint
 10
209.9243691310548
 20
46.98140369606057
 30
0.0
  0
ENDBLK
  5
285
330
283
100
AcDbEntity
  8
0
100
AcDbBlockEnd
  0
ENDSEC
  0
SECTION
  2
ENTITIES
  0
LINE
  5
96
330
1F
100
AcDbEntity
  8
0
  6
Continuous
 62
     1
370
    15
100
AcDbLine
 10
48.9796302890298
 20
-8.731250000000008
 30
0.0
 11
54.30280378926166
 21
-8.731250000000008
 31
0.0
  0
LINE
  5
97
330
1F
100
AcDbEntity
  8
외형선
  6
Continuous
370
    15
100
AcDbLine
 10
30.54681225791519
 20
8.731249999999998
 30
0.0
 11
30.1625
 21
8.731249999999998
 31
0.0
  0
LINE
  5
98
330
1F
100
AcDbEntity
  8
0
  6
Continuous
 62
     1
370
    15
100
AcDbLine
 10
54.30280378926172
 20
8.731249999999998
 30
0.0
 11
48.97963028902994
 21
8.731249999999998
 31
0.0
  0
LINE
  5
99
330
1F
100
AcDbEntity
  8
외형선
  6
Continuous
370
    15
100
AcDbLine
 10
30.1625
 20
-8.731250000000008
 30
0.0
 11
30.54681225791514
 21
-8.731250000000008
 31
0.0
  0
LINE
  5
9A
330
1F
100
AcDbEntity
  8
외형선
  6
Continuous
370
    15
100
AcDbLine
 10
26.20018467149217
 20
-9.525000000000018
 30
0.0
 11
29.1625
 21
-8.731250000000006
 31
0.0
  0
LINE
  5
9B
330
1F
100
AcDbEntity
  8
외형선
  6
Continuous
370
    15
100
AcDbLine
 10
29.1625
 20
8.731249999999996
 30
0.0
 11
26.20018467149217
 21
9.525000000000007
 31
0.0
  0
LINE
  5
9C
330
1F
100
AcDbEntity
  8
외형선
  6
Continuous
370
    15
100
AcDbLine
 10
-26.20018467149213
 20
-9.525000000000011
 30
0.0
 11
26.20018467149217
 21
-9.525000000000011
 31
0.0
  0
LINE
  5
9D
330
1F
100
AcDbEntity
  8
외형선
  6
Continuous
370
    15
100
AcDbLine
 10
26.20018467149217
 20
9.525
 30
0.0
 11
7.696199999999976
 21
9.525
 31
0.0
  0
LINE
  5
A0
330
1F
100
AcDbEntity
  8
외형선
  6
Continuous
370
    15
100
AcDbLine
 10
29.1625
 20
-8.731250000000006
 30
0.0
 11
30.1625
 21
-8.731250000000006
 31
0.0
  0
LINE
  5
A1
330
1F
100
AcDbEntity
  8
외형선
  6
Continuous
370
    15
100
AcDbLine
 10
30.1625
 20
8.731249999999996
 30
0.0
 11
29.1625
 21
8.731249999999996
 31
0.0
  0
LINE
  5
A2
330
1F
100
AcDbEntity
  8
0
  6
Continuous
 62
     1
370
    15
100
AcDbLine
 10
71.43750000000001
 20
-7.907730280689235
 30
0.0
 11
71.43750000000001
 21
0.748105280689332
 31
0.0
  0
SPLINE
  5
A3
330
1F
100
AcDbEntity
  8
0
  6
Continuous
 62
     1
370
    15
100
AcDbSpline
210
0.0
220
0.0
230
1.0
 70
     8
 71
     3
 72
    21
 73
    17
 74
     0
 42
0.000000001
 43
0.00000001
 40
0.0
 40
0.0
 40
0.0
 40
0.0
 40
0.061259712459139
 40
0.1319189082409193
 40
0.2025787752849352
 40
0.2732392008748958
 40
0.3439000721895282
 40
0.4145612763237559
 40
0.485222700309912
 40
0.5558842311389749
 40
0.6299133735540009
 40
0.7039408033850795
 40
0.7779648473294875
 40
0.8519838359399226
 40
0.9259961055190581
 40
1.0
 40
1.0
 40
1.0
 40
1.0
 10
30.5468122579152
 20
8.712911001781231
 30
0.0
 10
31.38178053932027
 20
8.697241634947435
 30
0.0
 10
33.17983181440945
 20
8.663498646569556
 30
0.0
 10
35.94098325026727
 20
8.226585437166428
 30
0.0
 10
38.83027141740709
 20
7.501047470065412
 30
0.0
 10
41.71958682028284
 20
6.494249070979213
 30
0.0
 10
44.60892536823098
 20
5.253356043319333
 30
0.0
 10
47.49827530926707
 20
3.820702211836557
 30
0.0
 10
50.38765450675055
 20
2.249169244696793
 30
0.0
 10
53.32287011117933
 20
0.5695028021643079
 30
0.0
 10
56.30423559566293
 20
-1.15939114863583
 30
0.0
 10
59.33134594606148
 20
-2.868175168602513
 30
0.0
 10
62.35831092381602
 20
-4.464039135391495
 30
0.0
 10
65.38502092457415
 20
-5.875567420830844
 30
0.0
 10
68.41140869616271
 20
-7.075151817002526
 30
0.0
 10
70.42884094905443
 20
-7.630214595040534
 30
0.0
 10
71.43750000000006
 20
-7.907730280689235
 30
0.0
  0
SPLINE
  5
A4
330
1F
100
AcDbEntity
  8
0
  6
Continuous
 62
     1
370
    15
100
AcDbSpline
210
0.0
220
0.0
230
1.0
 70
     8
 71
     3
 72
    18
 73
    14
 74
     0
 42
0.000000001
 43
0.00000001
 40
0.0
 40
0.0
 40
0.0
 40
0.0
 40
0.0911760984364821
 40
0.1823541971191802
 40
0.2735341525883752
 40
0.3647158210371073
 40
0.4558990583377849
 40
0.5470837200689211
 40
0.6382696615419917
 40
0.7294567378283978
 40
0.824988433278242
 40
0.9205239447461421
 40
1.0
 40
1.0
 40
1.0
 40
1.0
 10
71.43750000000001
 20
0.7481052806893318
 30
0.0
 10
70.47456521592706
 20
1.299420575901274
 30
0.0
 10
68.54867452265422
 20
2.402063261231082
 30
0.0
 10
65.6597920384494
 20
3.96132521037672
 30
0.0
 10
62.77083986654374
 20
5.378418938197186
 30
0.0
 10
59.88182262729322
 20
6.599311020163707
 30
0.0
 10
56.9927446689789
 20
7.580187156307303
 30
0.0
 10
54.10361683952338
 20
8.285359240616563
 30
0.0
 10
51.21442432937259
 20
8.688514620415772
 30
0.0
 10
48.27937390982879
 20
8.77897578338944
 30
0.0
 10
45.29814357190125
 20
8.525387052257175
 30
0.0
 10
42.44063900449669
 20
7.98970139125068
 30
0.0
 10
40.59213491570711
 20
7.402099296492135
 30
0.0
 10
39.75269432415355
 20
7.135258096078455
 30
0.0
  0
SPLINE
  5
A5
330
1F
100
AcDbEntity
  8
0
  6
Continuous
 62
     1
370
    15
100
AcDbSpline
210
0.0
220
0.0
230
1.0
 70
     8
 71
     3
 72
    19
 73
    15
 74
     0
 42
0.000000001
 43
0.00000001
 40
0.0
 40
0.0
 40
0.0
 40
0.0
 40
0.0866477611942316
 40
0.173296483619468
 40
0.2599460292074152
 40
0.3465962597351213
 40
0.4332470368508961
 40
0.5198982221002819
 40
0.6065496769520673
 40
0.6932012628243273
 40
0.7839825198359148
 40
0.8747616767215466
 40
0.9655366815254707
 40
0.9999999999999999
 40
0.9999999999999999
 40
0.9999999999999999
 40
0.9999999999999999
 10
30.16250000000002
 20
0.2222865008773728
 30
0.0
 10
31.12557227897687
 20
-0.3343371682046509
 30
0.0
 10
33.05172752081805
 20
-1.447590681299491
 30
0.0
 10
35.94098322160887
 20
-3.066956864611178
 30
0.0
 10
38.83027142525165
 20
-4.57414984272587
 30
0.0
 10
41.71958681756335
 20
-5.915050271668535
 30
0.0
 10
44.60892537126435
 20
-7.040694680911257
 30
0.0
 10
47.49827529985299
 20
-7.910062896505162
 30
0.0
 10
50.38765454137342
 20
-8.49191375326009
 30
0.0
 10
53.32286997950129
 20
-8.767861392398563
 30
0.0
 10
56.30423611319107
 20
-8.716014230938034
 30
0.0
 10
59.33134401770822
 20
-8.297117596614205
 30
0.0
 10
61.73246106148338
 20
-7.755979029217693
 30
0.0
 10
63.12450396960142
 20
-7.265326333793312
 30
0.0
 10
63.50756896773318
 20
-7.130307597833392
 30
0.0
  0
SPLINE
  5
A6
330
1F
100
AcDbEntity
  8
외형선
  6
Continuous
370
    15
100
AcDbSpline
210
0.0
220
0.0
230
1.0
 70
    24
 71
     3
 72
    20
 73
    16
 74
     0
 42
0.000000001
 43
0.00000001
 40
0.0
 40
0.0
 40
0.0
 40
0.0
 40
0.1044418148346274
 40
0.180303608674148
 40
0.2583653996742583
 40
0.3342271935137786
 40
0.4122889845138884
 40
0.4881507783534088
 40
0.5662125693535185
 40
0.6420743631930387
 40
0.7201361541931476
 40
0.7959979480326682
 40
0.8740597390327778
 40
0.9499215328722981
 40
0.9999999999999999
 40
0.9999999999999999
 40
0.9999999999999999
 40
0.9999999999999999
 10
30.16249999999997
 20
8.26980425515182
 30
0.0
 10
30.16249999999993
 20
7.931311899667322
 30
0.0
 10
30.16249999999986
 20
7.346954060816053
 30
0.0
 10
30.1625000000001
 20
6.398691913773342
 30
0.0
 10
30.16250000000003
 20
5.527334936291664
 30
0.0
 10
30.16250000000004
 20
4.636198643438498
 30
0.0
 10
30.16249999999994
 20
3.768913026165293
 30
0.0
 10
30.16250000000006
 20
2.93377140301255
 30
0.0
 10
30.1625
 20
2.169653071762166
 30
0.0
 10
30.16249999999999
 20
1.484238842651108
 30
0.0
 10
30.16250000000006
 20
0.9098333392261367
 30
0.0
 10
30.16249999999996
 20
0.4502756152321658
 30
0.0
 10
30.16250000000006
 20
0.134585673960496
 30
0.0
 10
30.1625
 20
-0.0391042131791182
 30
0.0
 10
30.16249999999997
 20
-0.0417230312114588
 30
0.0
 10
30.16249999999999
 20
-0.0427643693168335
 30
0.0
  0
SPLINE
  5
A7
330
1F
100
AcDbEntity
  8
0
  6
Continuous
 62
     1
370
    15
100
AcDbSpline
210
0.0
220
0.0
230
1.0
 70
     8
 71
     3
 72
    62
 73
    58
 74
     0
 42
0.000000001
 43
0.00000001
 40
0.0
 40
0.0
 40
0.0
 40
0.0
 40
0.0624999999999996
 40
0.0624999999999996
 40
0.0937499999999994
 40
0.0937499999999994
 40
0.1249999999999992
 40
0.1249999999999992
 40
0.156249999999999
 40
0.156249999999999
 40
0.1874999999999989
 40
0.1874999999999989
 40
0.2187499999999987
 40
0.2187499999999987
 40
0.2499999999999985
 40
0.2499999999999985
 40
0.2812499999999983
 40
0.2812499999999983
 40
0.3124999999999981
 40
0.3124999999999981
 40
0.3437499999999979
 40
0.3437499999999979
 40
0.3749999999999977
 40
0.3749999999999977
 40
0.4374999999999973
 40
0.4374999999999973
 40
0.4687499999999975
 40
0.4687499999999975
 40
0.4999999999999977
 40
0.4999999999999977
 40
0.5312499999999978
 40
0.5312499999999978
 40
0.562499999999998
 40
0.562499999999998
 40
0.5937499999999981
 40
0.5937499999999981
 40
0.6249999999999982
 40
0.6249999999999982
 40
0.6562499999999984
 40
0.6562499999999984
 40
0.6874999999999986
 40
0.6874999999999986
 40
0.7187499999999987
 40
0.7187499999999987
 40
0.7499999999999988
 40
0.7499999999999988
 40
0.8124999999999991
 40
0.8124999999999991
 40
0.8749999999999994
 40
0.8749999999999994
 40
0.9062499999999996
 40
0.9062499999999996
 40
0.9374999999999997
 40
0.9374999999999997
 40
0.9687499999999999
 40
0.9687499999999999
 40
1.0
 40
1.0
 40
1.0
 40
1.0
 10
71.4375
 20
-8.731249999999989
 30
0.0
 10
70.58129599420111
 20
-8.6566658480791
 30
0.0
 10
69.71493145854198
 20
-8.571652148807607
 30
0.0
 10
68.42828443230935
 20
-8.382973446260586
 30
0.0
 10
67.99943624514631
 20
-8.309863292480477
 30
0.0
 10
67.13802077241951
 20
-8.143439455741978
 30
0.0
 10
66.70672548834082
 20
-8.050186395696382
 30
0.0
 10
65.84765798854924
 20
-7.844667739309493
 30
0.0
 10
65.4198844360725
 20
-7.732435685348851
 30
0.0
 10
64.55899232672745
 20
-7.489030359831347
 30
0.0
 10
64.12756578639264
 20
-7.357984720907949
 30
0.0
 10
63.26745464701801
 20
-7.078652374515368
 30
0.0
 10
62.840038533401
 20
-6.930537644712113
 30
0.0
 10
61.97993080692947
 20
-6.617275322950313
 30
0.0
 10
61.54850451210771
 20
-6.452249153104209
 30
0.0
 10
60.68760996302751
 20
-6.107191349051293
 30
0.0
 10
60.2598337318807
 20
-5.927413191193569
 30
0.0
 10
59.40077061471138
 20
-5.553462012198422
 30
0.0
 10
58.96947606692187
 20
-5.359263313923589
 30
0.0
 10
58.10805913009587
 20
-4.958499971942209
 30
0.0
 10
57.67920558829481
 20
-4.752147204753994
 30
0.0
 10
56.82144625205906
 20
-4.328447458755063
 30
0.0
 10
56.39041481875694
 20
-4.110738340210363
 30
0.0
 10
55.09789815783024
 20
-3.443520252196083
 30
0.0
 10
54.24209356680042
 20
-2.980850190917126
 30
0.0
 10
52.94957837229092
 20
-2.266984476029848
 30
0.0
 10
52.51854448818358
 20
-2.025947605255595
 30
0.0
 10
51.66077445970352
 20
-1.540359445746685
 30
0.0
 10
51.23193161719658
 20
-1.295415214901898
 30
0.0
 10
50.37051761221473
 20
-0.8022682611264482
 30
0.0
 10
49.93922159367798
 20
-0.5543078202229152
 30
0.0
 10
49.08014971487685
 20
-0.0583197792581413
 30
0.0
 10
48.65237883107291
 20
0.1897058278858876
 30
0.0
 10
47.79148916510145
 20
0.6857245453708879
 30
0.0
 10
47.36006238108665
 20
0.9333897712884748
 30
0.0
 10
46.49994783243629
 20
1.425333825689351
 30
0.0
 10
46.07253170881717
 20
1.669375563431203
 30
0.0
 10
45.21242739887616
 20
2.15382227373453
 30
0.0
 10
44.78100135140041
 20
2.393980872148439
 30
0.0
 10
43.92010436622331
 20
2.86754542712114
 30
0.0
 10
43.49232544640961
 20
3.100651274177559
 30
0.0
 10
42.63326671547519
 20
3.559429080017975
 30
0.0
 10
42.20197290580603
 20
3.785089661801011
 30
0.0
 10
41.34055450852665
 20
4.226470550860074
 30
0.0
 10
40.91169560210561
 20
4.44198370763592
 30
0.0
 10
39.62506462502236
 20
5.071645204114033
 30
0.0
 10
38.75869910153808
 20
5.470121682976209
 30
0.0
 10
37.04626588005428
 20
6.207311339045048
 30
0.0
 10
36.17992754770026
 20
6.548905887315278
 30
0.0
 10
34.8932644938844
 20
7.009632741213494
 30
0.0
 10
34.46442698605145
 20
7.15490760142837
 30
0.0
 10
33.60301445246046
 20
7.428159638693181
 30
0.0
 10
33.17171770129683
 20
7.555981175806417
 30
0.0
 10
32.31264144709884
 20
7.792671497610856
 30
0.0
 10
31.88487322197058
 20
7.901572034234786
 30
0.0
 10
31.02398600301112
 20
8.10040305972448
 30
0.0
 10
30.59255897714933
 20
8.190168787583922
 30
0.0
 10
30.16250000000002
 20
8.269804255151817
 30
0.0
  0
SPLINE
  5
A8
330
1F
100
AcDbEntity
  8
0
  6
Continuous
 62
     1
370
    15
100
AcDbSpline
210
0.0
220
0.0
230
1.0
 70
     8
 71
     3
 72
    14
 73
    10
 74
     0
 42
0.000000001
 43
0.00000001
 40
0.0
 40
0.0
 40
0.0
 40
0.0
 40
0.0347791532864669
 40
0.1956453596443812
 40
0.3565179918104541
 40
0.5173934119950491
 40
0.6782679792314464
 40
0.8391380535250115
 40
0.9999999999999999
 40
0.9999999999999999
 40
0.9999999999999999
 40
0.9999999999999999
 10
48.97963028902981
 20
-8.70337421932265
 30
0.0
 10
48.76149479604175
 20
-8.711863318725447
 30
0.0
 10
47.5344034800072
 20
-8.759617583817443
 30
0.0
 10
45.29813703960633
 20
-8.513000090694533
 30
0.0
 10
42.27100168276976
 20
-7.943486195107396
 30
0.0
 10
39.24377727393421
 20
-7.029419534739358
 30
0.0
 10
36.21657990440343
 20
-5.84002911600365
 30
0.0
 10
33.18947892766346
 20
-4.423518730885533
 30
0.0
 10
31.17147598248881
 20
-3.341766577928763
 30
0.0
 10
30.1625
 20
-2.800904165438847
 30
0.0
  0
LINE
  5
A9
330
1F
100
AcDbEntity
  8
외형선
  6
Continuous
370
    15
100
AcDbLine
 10
30.16249999999997
 20
-2.800904165438833
 30
0.0
 11
30.16250000000002
 21
0.2222865008773789
 31
0.0
  0
LINE
  5
AA
330
1F
100
AcDbEntity
  8
0
  6
Continuous
 62
     1
370
    15
100
AcDbLine
 10
71.4375
 20
-8.731249999999989
 30
0.0
 11
71.43750000000001
 21
-7.907730280689235
 31
0.0
  0
LINE
  5
AB
330
1F
100
AcDbEntity
  8
외형선
  6
Continuous
370
    15
100
AcDbLine
 10
30.16249999999997
 20
8.26980425515182
 30
0.0
 11
30.1625
 21
8.731249999999998
 31
0.0
  0
SPLINE
  5
AC
330
1F
100
AcDbEntity
  8
0
  6
Continuous
 62
     1
370
    15
100
AcDbSpline
210
0.0
220
0.0
230
1.0
 70
     8
 71
     3
 72
    13
 73
     9
 74
     0
 42
0.000000001
 43
0.00000001
 40
0.0
 40
0.0
 40
0.0
 40
0.0
 40
0.1168029918180916
 40
0.2934665075416049
 40
0.4701219429813039
 40
0.6467653140676298
 40
0.823392650453111
 40
1.0
 40
1.0
 40
1.0
 40
1.0
 10
54.30280378926172
 20
8.692111264451944
 30
0.0
 10
54.96995093575678
 20
8.692842971115718
 30
0.0
 10
56.6461523758977
 20
8.694681377785104
 30
0.0
 10
59.33134918376427
 20
8.299826594897802
 30
0.0
 10
62.35831005665403
 20
7.575151423312353
 30
0.0
 10
65.38502115578814
 20
6.531549422709405
 30
0.0
 10
68.411408638369
 20
5.241510037552749
 30
0.0
 10
70.4288409297906
 20
4.214945741292965
 30
0.0
 10
71.43750000000006
 20
3.701692635858639
 30
0.0
  0
LINE
  5
AD
330
1F
100
AcDbEntity
  8
0
  6
Continuous
 62
     1
370
    15
100
AcDbLine
 10
71.43750000000001
 20
0.748105280689332
 30
0.0
 11
71.43750000000001
 21
3.701692635858638
 31
0.0
  0
SPLINE
  5
AE
330
1F
100
AcDbEntity
  8
0
  6
Continuous
 62
     1
370
    15
100
AcDbSpline
210
0.0
220
0.0
230
1.0
 70
     8
 71
     3
 72
    11
 73
     7
 74
     0
 42
0.000000001
 43
0.00000001
 40
0.0
 40
0.0
 40
0.0
 40
0.0
 40
0.3012686946153174
 40
0.6025407313690362
 40
0.9038156302065741
 40
1.0
 40
1.0
 40
1.0
 40
1.0
 10
30.16250000000002
 20
-8.728419975804776
 30
0.0
 10
31.12557226201822
 20
-8.712786680885264
 30
0.0
 10
33.05172746994195
 20
-8.68151991761755
 30
0.0
 10
35.94098342511685
 20
-8.216443315924595
 30
0.0
 10
38.17464281060165
 20
-7.696485105268287
 30
0.0
 10
39.44521767801051
 20
-7.244610799097734
 30
0.0
 10
39.75269432415347
 20
-7.135258096078469
 30
0.0
  0
SPLINE
  5
AF
330
1F
100
AcDbEntity
  8
외형선
  6
Continuous
370
    15
100
AcDbSpline
210
0.0
220
0.0
230
1.0
 70
    24
 71
     3
 72
    15
 73
    11
 74
     0
 42
0.000000001
 43
0.00000001
 40
0.0
 40
0.0
 40
0.0
 40
0.0
 40
0.0943764300009667
 40
0.2321341669323078
 40
0.3660095098496862
 40
0.5037672467810284
 40
0.6376425896984064
 40
0.7754003266297488
 40
0.886605190455136
 40
1.0
 40
1.0
 40
1.0
 40
1.0
 10
30.1625
 20
-2.90014476160915
 30
0.0
 10
30.16250000000002
 20
-3.026351993763659
 30
0.0
 10
30.1625
 20
-3.336779191494272
 30
0.0
 10
30.16250000000006
 20
-3.952794253695302
 30
0.0
 10
30.16249999999993
 20
-4.713502551012517
 30
0.0
 10
30.16250000000009
 20
-5.536895215815954
 30
0.0
 10
30.1625
 20
-6.409415175364138
 30
0.0
 10
30.1625
 20
-7.241914589473749
 30
0.0
 10
30.16249999999996
 20
-8.025505755437859
 30
0.0
 10
30.16249999999997
 20
-8.492597120184673
 30
0.0
 10
30.16250000000002
 20
-8.728419975804776
 30
0.0
  0
SPLINE
  5
B0
330
1F
100
AcDbEntity
  8
0
  6
Continuous
 62
     1
370
    15
100
AcDbSpline
210
0.0
220
0.0
230
1.0
 70
     8
 71
     3
 72
    10
 73
     6
 74
     0
 42
0.000000001
 43
0.00000001
 40
0.0
 40
0.0
 40
0.0
 40
0.0
 40
0.364292991747563
 40
0.7285939754545405
 40
1.0
 40
1.0
 40
1.0
 40
1.0
 10
71.4375
 20
8.731250000000006
 30
0.0
 10
70.4745651459051
 20
8.619177353414141
 30
0.0
 10
68.54867431258678
 20
8.459247051400942
 30
0.0
 10
65.9053628035458
 20
7.908072776620807
 30
0.0
 10
64.22498308166149
 20
7.363013057431398
 30
0.0
 10
63.50756896773318
 20
7.130307597833383
 30
0.0
  0
LINE
  5
B1
330
1F
100
AcDbEntity
  8
0
  6
Continuous
 62
     1
370
    15
100
AcDbLine
 10
71.43750000000001
 20
3.668667450143144
 30
0.0
 11
71.4375
 21
8.731250000000006
 31
0.0
  0
LINE
  5
B2
330
1F
100
AcDbEntity
  8
외형선
  6
Continuous
370
    15
100
AcDbLine
 10
30.1625
 20
-8.731250000000008
 30
0.0
 11
30.16250000000002
 21
-8.728419975804776
 31
0.0
  0
LINE
  5
B3
330
1F
100
AcDbEntity
  8
외형선
  6
Continuous
370
    15
100
AcDbLine
 10
29.1625
 20
-0.000000000000005
 30
0.0
 11
29.1625
 21
8.731249999999996
 31
0.0
  0
LINE
  5
B4
330
1F
100
AcDbEntity
  8
외형선
  6
Continuous
370
    15
100
AcDbLine
 10
29.1625
 20
-8.731250000000006
 30
0.0
 11
29.1625
 21
-0.000000000000005
 31
0.0
  0
LINE
  5
B5
330
1F
100
AcDbEntity
  8
외형선
  6
Continuous
370
    15
100
AcDbLine
 10
26.20018467149217
 20
-0.000000000000005
 30
0.0
 11
26.20018467149217
 21
9.525000000000007
 31
0.0
  0
LINE
  5
B6
330
1F
100
AcDbEntity
  8
외형선
  6
Continuous
370
    15
100
AcDbLine
 10
26.20018467149217
 20
-9.525000000000018
 30
0.0
 11
26.20018467149217
 21
-0.000000000000005
 31
0.0
  0
SPLINE
  5
BB
330
1F
100
AcDbEntity
  8
외형선
  6
Continuous
370
    15
100
AcDbSpline
210
0.0
220
0.0
230
1.0
 70
     8
 71
     3
 72
     8
 73
     4
 74
     0
 42
0.000000001
 43
0.00000001
 40
0.0
 40
0.0
 40
0.0
 40
0.0
 40
1.0
 40
1.0
 40
1.0
 40
1.0
 10
30.16250000000003
 20
8.269804255151818
 30
0.0
 10
29.99555805365393
 20
8.300717456969137
 30
0.0
 10
29.82882217736981
 20
8.330106478056676
 30
0.0
 10
29.66242853781991
 20
8.357952199173868
 30
0.0
  0
LINE
  5
BC
330
1F
100
AcDbEntity
  8
외형선
  6
Continuous
370
    15
100
AcDbLine
 10
29.6624285378199
 20
0.5109637219121116
 30
0.0
 11
29.66242853781991
 21
8.357951458708122
 31
0.0
  0
SPLINE
  5
BD
330
1F
100
AcDbEntity
  8
외형선
  6
Continuous
370
    15
100
AcDbSpline
210
0.0
220
0.0
230
1.0
 70
     8
 71
     3
 72
     8
 73
     4
 74
     0
 42
0.000000001
 43
0.00000001
 40
0.0
 40
0.0
 40
0.0
 40
0.0
 40
1.0
 40
1.0
 40
1.0
 40
1.0
 10
30.1625
 20
0.2222865008773866
 30
0.0
 10
29.9955580536539
 20
0.3186208958873165
 30
0.0
 10
29.82882217736979
 20
0.4148750183563494
 30
0.0
 10
29.6624285378199
 20
0.5109701343690569
 30
0.0
  0
SPLINE
  5
BE
330
1F
100
AcDbEntity
  8
외형선
  6
Continuous
370
    15
100
AcDbSpline
210
0.0
220
0.0
230
1.0
 70
     8
 71
     3
 72
     8
 73
     4
 74
     0
 42
0.000000001
 43
0.00000001
 40
0.0
 40
0.0
 40
0.0
 40
0.0
 40
1.0
 40
1.0
 40
1.0
 40
1.0
 10
30.16250000000003
 20
-2.800904165438854
 30
0.0
 10
29.99555805365393
 20
-2.709631450333601
 30
0.0
 10
29.82882217736981
 20
-2.617884381040001
 30
0.0
 10
29.66242853781991
 20
-2.525739812178704
 30
0.0
  0
LINE
  5
BF
330
1F
100
AcDbEntity
  8
외형선
  6
Continuous
370
    15
100
AcDbLine
 10
29.6624285378199
 20
-8.716286057570036
 30
0.0
 11
29.66242853781991
 21
-2.525742262460402
 31
0.0
  0
SPLINE
  5
C0
330
1F
100
AcDbEntity
  8
외형선
  6
Continuous
370
    15
100
AcDbSpline
210
0.0
220
0.0
230
1.0
 70
     8
 71
     3
 72
     8
 73
     4
 74
     0
 42
0.000000001
 43
0.00000001
 40
0.0
 40
0.0
 40
0.0
 40
0.0
 40
1.0
 40
1.0
 40
1.0
 40
1.0
 10
30.1625
 20
-8.728419975804774
 30
0.0
 10
29.9955580536539
 20
-8.72596662965046
 30
0.0
 10
29.82882217736979
 20
-8.721919014035793
 30
0.0
 10
29.6624285378199
 20
-8.716285681658386
 30
0.0
  0
SPLINE
  5
C1
330
1F
100
AcDbEntity
  8
외형선
  6
Continuous
370
    15
100
AcDbSpline
210
0.0
220
0.0
230
1.0
 70
    24
 71
     3
 72
    21
 73
    17
 74
     0
 42
0.000000001
 43
0.00000001
 40
0.0
 40
0.0
 40
0.0
 40
0.0
 40
0.0032941801598384
 40
0.0803043038094561
 40
0.1573144274590737
 40
0.2343245511087049
 40
0.3113346747583361
 40
0.38834479840796
 40
0.4653549220575839
 40
0.5423650457072087
 40
0.6193751693568333
 40
0.6963852930064521
 40
0.7733954166560711
 40
0.8504055403057029
 40
0.9274156639553348
 40
1.0
 40
1.0
 40
1.0
 40
1.0
 10
30.16249999999994
 20
-0.0571079673016383
 30
0.0
 10
30.16249999999993
 20
-0.0580169206519806
 30
0.0
 10
30.16250000000018
 20
-0.0801750487605802
 30
0.0
 10
30.16249999999992
 20
0.0189076004489377
 30
0.0
 10
30.16250000000006
 20
0.2414823507961812
 30
0.0
 10
30.16250000000004
 20
0.6248607524529146
 30
0.0
 10
30.16250000000004
 20
1.130064346020759
 30
0.0
 10
30.1625000000001
 20
1.753822502953201
 30
0.0
 10
30.16250000000013
 20
2.472443507745833
 30
0.0
 10
30.1625000000001
 20
3.269535523305042
 30
0.0
 10
30.16250000000002
 20
4.119696016028542
 30
0.0
 10
30.16250000000004
 20
5.000413133301197
 30
0.0
 10
30.16249999999999
 20
5.886493538632871
 30
0.0
 10
30.16250000000002
 20
6.750465977786699
 30
0.0
 10
30.1625
 20
7.560813500907013
 30
0.0
 10
30.16249999999997
 20
8.038181687446828
 30
0.0
 10
30.1625
 20
8.26980425515185
 30
0.0
  0
SPLINE
  5
C2
330
1F
100
AcDbEntity
  8
외형선
  6
Continuous
370
    15
100
AcDbSpline
210
0.0
220
0.0
230
1.0
 70
    24
 71
     3
 72
    15
 73
    11
 74
     0
 42
0.000000001
 43
0.00000001
 40
0.0
 40
0.0
 40
0.0
 40
0.0
 40
0.1404764433105919
 40
0.2809528866211838
 40
0.4167475998360017
 40
0.5525423130508197
 40
0.6883370262656615
 40
0.8241317394805032
 40
0.9599264526953323
 40
1.0
 40
1.0
 40
1.0
 40
1.0
 10
30.16250000000002
 20
-8.728419975804774
 30
0.0
 10
30.1625
 20
-8.435096765404072
 30
0.0
 10
30.16249999999994
 20
-7.84845034460266
 30
0.0
 10
30.16249999999997
 20
-6.940242435700398
 30
0.0
 10
30.16249999999996
 20
-6.048845161705482
 30
0.0
 10
30.16250000000004
 20
-5.194500548525055
 30
0.0
 10
30.16250000000004
 20
-4.391231230628327
 30
0.0
 10
30.16250000000006
 20
-3.670102481422166
 30
0.0
 10
30.1625000000001
 20
-3.167648979437478
 30
0.0
 10
30.16250000000007
 20
-2.949778893844738
 30
0.0
 10
30.16250000000009
 20
-2.90013476160915
 30
0.0
  0
LINE
  5
C3
330
1F
100
AcDbEntity
  8
중심선
100
AcDbLine
 10
-74.4375
 20
-0.0000000000000089
 30
0.0
 11
74.43750000000001
 21
0.0000000000000089
 31
0.0
  0
LINE
  5
C4
330
1F
100
AcDbEntity
  8
참조1
100
AcDbLine
 10
31.94338065701562
 20
0.0010749287238892
 30
0.0
 11
31.94338065701562
 21
-39.99892507127611
 31
0.0
  0
LINE
  5
C5
330
1F
100
AcDbEntity
  8
참조1
100
AcDbLine
 10
31.94338065701562
 20
-39.99892507127611
 30
0.0
 11
-29.25297615729306
 21
-39.9989250712761
 31
0.0
  0
CIRCLE
  5
C6
330
1F
100
AcDbEntity
  8
해칭선
100
AcDbCircle
 10
0.0
 20
0.0
 30
0.0
 40
3.000000000000004
  0
INSERT
  5
C7
330
1F
100
AcDbEntity
  8
0
  6
Continuous
 62
     7
100
AcDbBlockReference
 66
     1
  2
블럭10
 10
-13.94027293212519
 20
-52.04717430164393
 30
0.0
  0
ATTRIB
  5
C8
330
C7
100
AcDbEntity
  8
FORMAT
 62
     2
100
AcDbText
 10
-23.12156822086647
 20
-49.97180738881174
 30
0.0
 40
4.233333333333333
  1
E2053044 [ 4 FLUTE ]
 41
0.75
  7
SLDTEXTSTYLE0
 11
-23.12156822086647
 21
-52.08847405547841
 31
0.0
100
AcDbAttribute
  2
AUTOATTR0
 70
     0
 74
     1
  0
SEQEND
  5
C9
330
C7
100
AcDbEntity
  8
0
  6
Continuous
 62
     7
  0
HATCH
  5
CA
330
1F
100
AcDbEntity
  8
중심선
100
AcDbHatch
 10
0.0
 20
0.0
 30
0.0
210
0.0
220
0.0
230
1.0
  2
SOLID
 70
     1
 71
     0
 91
        1
 92
        0
 93
        4
 72
     1
 10
-8.22536362774435
 20
-35.8
 11
-11.67163887158163
 21
-35.8
 72
     1
 10
-11.67163887158163
 20
-35.8
 11
-13.79986873078568
 21
-38.3363255805726
 72
     1
 10
-13.79986873078568
 20
-38.3363255805726
 11
-10.35356040183522
 21
-38.33628615127011
 72
     1
 10
-10.35356040183522
 20
-38.33628615127011
 11
-8.22536362774435
 21
-35.8
 97
        0
 75
     0
 76
     1
 98
        1
 10
-31.94338065701561
 20
-0.0010749287238981
  0
HATCH
  5
CB
330
1F
100
AcDbEntity
  8
중심선
100
AcDbHatch
 10
0.0
 20
0.0
 30
0.0
210
0.0
220
0.0
230
1.0
  2
SOLID
 70
     1
 71
     0
 91
        1
 92
        0
 93
        4
 72
     1
 10
-3.212599636708369
 20
-35.79999999999998
 11
-6.658874880545625
 21
-35.79999999999998
 72
     1
 10
-6.658874880545625
 20
-35.79999999999998
 11
-11.19001288890307
 21
-41.20000000000002
 72
     1
 10
-11.19001288890307
 20
-41.20000000000002
 11
-7.743737645065785
 21
-41.20000000000002
 72
     1
 10
-7.743737645065785
 20
-41.20000000000002
 11
-3.212599636708369
 21
-35.79999999999998
 97
        0
 75
     0
 76
     1
 98
        1
 10
-31.94338065701561
 20
-0.0010749287238981
  0
HATCH
  5
CC
330
1F
100
AcDbEntity
  8
중심선
100
AcDbHatch
 10
0.0
 20
0.0
 30
0.0
210
0.0
220
0.0
230
1.0
  2
SOLID
 70
     1
 71
     0
 91
        1
 92
        0
 93
        4
 72
     1
 10
1.800164354327471
 20
-35.79999999999998
 11
-1.64611088950959
 21
-35.79999999999998
 72
     1
 10
-1.64611088950959
 20
-35.79999999999998
 11
-8.694547791398868
 21
-44.20000000000002
 72
     1
 10
-8.694547791398868
 20
-44.20000000000002
 11
-5.248272547561584
 21
-44.20000000000002
 72
     1
 10
-5.248272547561584
 20
-44.20000000000002
 11
1.800164354327471
 21
-35.79999999999998
 97
        0
 75
     0
 76
     1
 98
        1
 10
-31.94338065701561
 20
-0.0010749287238981
  0
HATCH
  5
CD
330
1F
100
AcDbEntity
  8
중심선
100
AcDbHatch
 10
0.0
 20
0.0
 30
0.0
210
0.0
220
0.0
230
1.0
  2
SOLID
 70
     1
 71
     0
 91
        1
 92
        0
 93
        6
 72
     3
 10
6.600054785339665
 20
-40.00000000005127
 11
3.960054785062283
 21
1.540882976769353E-10
 40
0.3939339440162628
 50
17.0953918060842
 51
320.001965768509
 73
     0
 72
     1
 10
8.283054441040349
 20
-38.58789400463827
 11
10.58835631474133
 21
-36.65356729459038
 72
     3
 10
6.600054785286822
 20
-40.00000000000015
 11
6.600054785286829
 21
-1.278976924368180E-13
 40
0.636358354079598
 50
39.99873849337385
 51
368.4976242363724
 73
     1
 72
     1
 10
13.02538727718746
 20
-39.03999999993002
 11
5.280122092122717
 21
-39.03999999993002
 72
     1
 10
5.280122092122717
 20
-39.03999999993002
 11
5.280097047676811
 21
-40.95999999992991
 72
     1
 10
5.280097047676811
 20
-40.95999999992991
 11
9.721476817148876
 21
-40.95999999992988
 97
        0
 75
     0
 76
     1
 98
        1
 10
-31.94338065701561
 20
-0.0010749287238981
  0
DIMENSION
  5
CE
330
1F
100
AcDbEntity
  8
치수문자_일반주서
100
AcDbDimension
  2
_D
 10
90.37534525038258
 20
-8.731249999999921
 30
0.0
 11
90.37534525038245
 21
30.67814162728174
 31
0.0
 70
   160
  1
%%c<>
 71
     2
 42
17.4625
 52
-270.0
  3
SLDDIMSTYLE1
100
AcDbAlignedDimension
 13
71.4375
 23
8.731250000000006
 33
0.0
 14
71.4375
 24
-8.731249999999989
 34
0.0
 50
90.0000000000002
100
AcDbRotatedDimension
1001
ACAD
1000
DSTYLE
1002
{
1070
   171
1070
     6
1070
   273
1070
     7
1002
}
  0
DIMENSION
  5
E2
330
1F
100
AcDbEntity
  8
치수문자_일반주서
100
AcDbDimension
  2
_D_1
 10
30.16250000000002
 20
25.16892030937553
 30
0.0
 11
3.352169885659123
 21
25.16892030937553
 31
0.0
 70
   160
  1
<>
 71
     2
 42
41.27499999999998
  3
SLDDIMSTYLE1
100
AcDbAlignedDimension
 13
71.4375
 23
8.731250000000006
 33
0.0
 14
30.16250000000002
 24
8.72841997580476
 34
0.0
 50
0.0000000000000099
100
AcDbRotatedDimension
1001
ACAD
1000
DSTYLE
1002
{
1070
   171
1070
     6
1070
   273
1070
     7
1002
}
  0
DIMENSION
  5
F6
330
1F
100
AcDbEntity
  8
치수문자_일반주서
100
AcDbDimension
  2
_D_2
 10
-71.4375
 20
41.24349882829743
 30
0.0
 11
-1.240566834032848
 21
41.24349882829743
 31
0.0
 70
   160
  1
<>
 71
     2
 42
142.875
  3
SLDDIMSTYLE1
100
AcDbAlignedDimension
 13
71.4375
 23
8.731250000000006
 33
0.0
 14
-71.4375
 24
8.731249999999996
 34
0.0
 50
0.0000000000000057
100
AcDbRotatedDimension
1001
ACAD
1000
DSTYLE
1002
{
1070
   171
1070
     6
1070
   273
1070
     7
1002
}
  0
DIMENSION
  5
109
330
1F
100
AcDbEntity
  8
치수문자_일반주서
100
AcDbDimension
  2
_D_3
 10
-83.00874999999998
 20
-9.525000000000222
 30
0.0
 11
-83.00875000000002
 21
0.0000000000000029
 31
0.0
 70
   160
  1
%%c<>
 71
     2
 42
19.05000000000001
 52
-270.0
  3
SLDDIMSTYLE1
100
AcDbAlignedDimension
 13
-26.20018467149214
 23
9.525
 33
0.0
 14
-26.20018467149214
 24
-9.52500000000001
 34
0.0
 50
90.0000000000002
100
AcDbRotatedDimension
1001
ACAD
1000
DSTYLE
1002
{
1070
   171
1070
     6
1070
   273
1070
     7
1002
}
  0
LINE
  5
11E
330
1F
100
AcDbEntity
  8
참조1
100
AcDbLine
 10
68.7193644723612
 20
7.441074928723896
 30
0.0
 11
68.7193644723612
 21
-7.438925071276109
 31
0.0
  0
LINE
  5
11F
330
1F
100
AcDbEntity
  8
참조1
100
AcDbLine
 10
81.41936447236121
 20
5.441074928723896
 30
0.0
 11
68.7193644723612
 21
5.441074928723896
 31
0.0
  0
SOLID
  5
120
330
1F
100
AcDbEntity
  8
참조1
100
AcDbTrace
 10
68.7193644723612
 20
5.441074928723896
 30
0.0
 11
75.0693644723612
 21
4.425074928723896
 31
0.0
 12
75.0693644723612
 22
6.457074928723896
 32
0.0
 13
75.0693644723612
 23
6.457074928723896
 33
0.0
  0
LINE
  5
121
330
1F
100
AcDbEntity
  8
참조1
100
AcDbLine
 10
81.41936447236121
 20
-5.438925071276109
 30
0.0
 11
68.7193644723612
 21
-5.438925071276109
 31
0.0
  0
SOLID
  5
122
330
1F
100
AcDbEntity
  8
참조1
100
AcDbTrace
 10
68.7193644723612
 20
-5.438925071276109
 30
0.0
 11
75.0693644723612
 21
-6.454925071276109
 31
0.0
 12
75.0693644723612
 22
-4.422925071276109
 32
0.0
 13
75.0693644723612
 23
-4.422925071276109
 33
0.0
  0
MTEXT
  5
123
330
1F
100
AcDbEntity
  8
참조1
100
AcDbMText
 10
78.1037146049872
 20
11.01136670591223
 30
0.0
 40
3.5
 41
0.0
 71
     1
 72
     1
  1
A
  7
SLDTEXTSTYLE0
 73
     1
 44
1.0
  0
MTEXT
  5
124
330
1F
100
AcDbEntity
  8
참조1
100
AcDbMText
 10
78.1037146049872
 20
0.1313667059122219
 30
0.0
 40
3.5
 41
0.0
 71
     1
 72
     1
  1
A
  7
SLDTEXTSTYLE0
 73
     1
 44
1.0
  0
INSERT
  5
12B
330
1F
100
AcDbEntity
  8
해칭선
100
AcDbBlockReference
  2
SW_DOWELSYMBOL_0
 10
0.0
 20
0.0
 30
0.0
  0
LINE
  5
238
330
1F
100
AcDbEntity
  8
0
  6
Continuous
 62
     1
370
    15
100
AcDbLine
 10
-48.97963028902979
 20
8.731250000000014
 30
0.0
 11
-54.30280378926159
 21
8.731250000000014
 31
0.0
  0
LINE
  5
239
330
1F
100
AcDbEntity
  8
외형선
  6
Continuous
370
    15
100
AcDbLine
 10
-30.54681225791512
 20
-8.731249999999996
 30
0.0
 11
-30.16249999999997
 21
-8.73125
 31
0.0
  0
LINE
  5
23A
330
1F
100
AcDbEntity
  8
0
  6
Continuous
 62
     1
370
    15
100
AcDbLine
 10
-54.3028037892617
 20
-8.731249999999996
 30
0.0
 11
-48.9796302890299
 21
-8.731249999999996
 31
0.0
  0
LINE
  5
23B
330
1F
100
AcDbEntity
  8
외형선
  6
Continuous
370
    15
100
AcDbLine
 10
-30.16249999999997
 20
8.73125000000001
 30
0.0
 11
-30.54681225791512
 21
8.73125000000001
 31
0.0
  0
LINE
  5
23C
330
1F
100
AcDbEntity
  8
외형선
  6
Continuous
370
    15
100
AcDbLine
 10
-26.20018467149214
 20
9.52500000000002
 30
0.0
 11
-29.16249999999997
 21
8.73125000000001
 31
0.0
  0
LINE
  5
23D
330
1F
100
AcDbEntity
  8
외형선
  6
Continuous
370
    15
100
AcDbLine
 10
-29.16249999999997
 20
-8.731249999999996
 30
0.0
 11
-26.20018467149214
 21
-9.52500000000001
 31
0.0
  0
LINE
  5
240
330
1F
100
AcDbEntity
  8
외형선
  6
Continuous
370
    15
100
AcDbLine
 10
-29.16249999999997
 20
8.73125000000001
 30
0.0
 11
-30.16249999999997
 21
8.73125000000001
 31
0.0
  0
LINE
  5
241
330
1F
100
AcDbEntity
  8
외형선
  6
Continuous
370
    15
100
AcDbLine
 10
-30.16249999999997
 20
-8.731249999999996
 30
0.0
 11
-29.16249999999997
 21
-8.731249999999996
 31
0.0
  0
LINE
  5
242
330
1F
100
AcDbEntity
  8
0
  6
Continuous
 62
     1
370
    15
100
AcDbLine
 10
-71.4375
 20
7.907730280689243
 30
0.0
 11
-71.4375
 21
-0.7481052806893226
 31
0.0
  0
SPLINE
  5
243
330
1F
100
AcDbEntity
  8
0
  6
Continuous
 62
     1
370
    15
100
AcDbSpline
210
0.0
220
0.0
230
1.0
 70
     8
 71
     3
 72
    21
 73
    17
 74
     0
 42
0.000000001
 43
0.00000001
 40
0.0
 40
0.0
 40
0.0
 40
0.0
 40
0.061259712459139
 40
0.1319189082409193
 40
0.2025787752849352
 40
0.2732392008748958
 40
0.3439000721895282
 40
0.4145612763237559
 40
0.485222700309912
 40
0.5558842311389749
 40
0.6299133735540009
 40
0.7039408033850795
 40
0.7779648473294875
 40
0.8519838359399226
 40
0.9259961055190581
 40
1.0
 40
1.0
 40
1.0
 40
1.0
 10
-30.54681225791518
 20
-8.71291100178123
 30
0.0
 10
-31.38178053932023
 20
-8.697241634947432
 30
0.0
 10
-33.17983181440945
 20
-8.66349864656955
 30
0.0
 10
-35.94098325026721
 20
-8.226585437166424
 30
0.0
 10
-38.83027141740706
 20
-7.501047470065409
 30
0.0
 10
-41.71958682028281
 20
-6.494249070979208
 30
0.0
 10
-44.60892536823098
 20
-5.253356043319329
 30
0.0
 10
-47.49827530926706
 20
-3.820702211836553
 30
0.0
 10
-50.38765450675055
 20
-2.249169244696786
 30
0.0
 10
-53.32287011117933
 20
-0.5695028021643033
 30
0.0
 10
-56.30423559566293
 20
1.159391148635836
 30
0.0
 10
-59.33134594606145
 20
2.868175168602519
 30
0.0
 10
-62.35831092381602
 20
4.464039135391502
 30
0.0
 10
-65.38502092457412
 20
5.875567420830851
 30
0.0
 10
-68.41140869616265
 20
7.075151817002535
 30
0.0
 10
-70.4288409490544
 20
7.630214595040542
 30
0.0
 10
-71.4375
 20
7.907730280689243
 30
0.0
  0
SPLINE
  5
244
330
1F
100
AcDbEntity
  8
0
  6
Continuous
 62
     1
370
    15
100
AcDbSpline
210
0.0
220
0.0
230
1.0
 70
     8
 71
     3
 72
    18
 73
    14
 74
     0
 42
0.000000001
 43
0.00000001
 40
0.0
 40
0.0
 40
0.0
 40
0.0
 40
0.0911760984364821
 40
0.1823541971191802
 40
0.2735341525883752
 40
0.3647158210371073
 40
0.4558990583377849
 40
0.5470837200689211
 40
0.6382696615419917
 40
0.7294567378283978
 40
0.824988433278242
 40
0.9205239447461421
 40
1.0
 40
1.0
 40
1.0
 40
1.0
 10
-71.4375
 20
-0.7481052806893226
 30
0.0
 10
-70.47456521592699
 20
-1.299420575901265
 30
0.0
 10
-68.54867452265421
 20
-2.402063261231075
 30
0.0
 10
-65.65979203844938
 20
-3.961325210376711
 30
0.0
 10
-62.77083986654372
 20
-5.378418938197179
 30
0.0
 10
-59.88182262729322
 20
-6.5993110201637
 30
0.0
 10
-56.99274466897884
 20
-7.580187156307295
 30
0.0
 10
-54.1036168395234
 20
-8.285359240616557
 30
0.0
 10
-51.21442432937255
 20
-8.688514620415766
 30
0.0
 10
-48.27937390982879
 20
-8.778975783389434
 30
0.0
 10
-45.29814357190122
 20
-8.525387052257173
 30
0.0
 10
-42.44063900449669
 20
-7.989701391250676
 30
0.0
 10
-40.59213491570711
 20
-7.402099296492132
 30
0.0
 10
-39.75269432415354
 20
-7.135258096078452
 30
0.0
  0
SPLINE
  5
245
330
1F
100
AcDbEntity
  8
0
  6
Continuous
 62
     1
370
    15
100
AcDbSpline
210
0.0
220
0.0
230
1.0
 70
     8
 71
     3
 72
    19
 73
    15
 74
     0
 42
0.000000001
 43
0.00000001
 40
0.0
 40
0.0
 40
0.0
 40
0.0
 40
0.0866477611942316
 40
0.173296483619468
 40
0.2599460292074152
 40
0.3465962597351213
 40
0.4332470368508961
 40
0.5198982221002819
 40
0.6065496769520673
 40
0.6932012628243273
 40
0.7839825198359148
 40
0.8747616767215466
 40
0.9655366815254707
 40
0.9999999999999999
 40
0.9999999999999999
 40
0.9999999999999999
 40
0.9999999999999999
 10
-30.16250000000002
 20
-0.2222865008773697
 30
0.0
 10
-31.12557227897685
 20
0.334337168204654
 30
0.0
 10
-33.05172752081802
 20
1.447590681299494
 30
0.0
 10
-35.94098322160886
 20
3.066956864611182
 30
0.0
 10
-38.83027142525162
 20
4.574149842725873
 30
0.0
 10
-41.71958681756331
 20
5.915050271668539
 30
0.0
 10
-44.60892537126432
 20
7.040694680911262
 30
0.0
 10
-47.49827529985293
 20
7.910062896505167
 30
0.0
 10
-50.38765454137342
 20
8.491913753260093
 30
0.0
 10
-53.32286997950126
 20
8.767861392398569
 30
0.0
 10
-56.304236113191
 20
8.71601423093804
 30
0.0
 10
-59.33134401770815
 20
8.29711759661421
 30
0.0
 10
-61.73246106148338
 20
7.7559790292177
 30
0.0
 10
-63.12450396960139
 20
7.26532633379332
 30
0.0
 10
-63.50756896773316
 20
7.130307597833401
 30
0.0
  0
SPLINE
  5
246
330
1F
100
AcDbEntity
  8
외형선
  6
Continuous
370
    15
100
AcDbSpline
210
0.0
220
0.0
230
1.0
 70
    24
 71
     3
 72
    20
 73
    16
 74
     0
 42
0.000000001
 43
0.00000001
 40
0.0
 40
0.0
 40
0.0
 40
0.0
 40
0.1044418148346274
 40
0.180303608674148
 40
0.2583653996742583
 40
0.3342271935137786
 40
0.4122889845138884
 40
0.4881507783534088
 40
0.5662125693535185
 40
0.6420743631930387
 40
0.7201361541931476
 40
0.7959979480326682
 40
0.8740597390327778
 40
0.9499215328722981
 40
0.9999999999999999
 40
0.9999999999999999
 40
0.9999999999999999
 40
0.9999999999999999
 10
-30.16249999999991
 20
-8.269804255151822
 30
0.0
 10
-30.16249999999991
 20
-7.931311899667319
 30
0.0
 10
-30.1624999999998
 20
-7.346954060816051
 30
0.0
 10
-30.16250000000008
 20
-6.398691913773339
 30
0.0
 10
-30.16250000000002
 20
-5.527334936291661
 30
0.0
 10
-30.16250000000002
 20
-4.636198643438496
 30
0.0
 10
-30.16249999999991
 20
-3.768913026165292
 30
0.0
 10
-30.16250000000002
 20
-2.933771403012548
 30
0.0
 10
-30.16249999999997
 20
-2.169653071762164
 30
0.0
 10
-30.16249999999997
 20
-1.484238842651104
 30
0.0
 10
-30.16250000000002
 20
-0.9098333392261336
 30
0.0
 10
-30.16249999999991
 20
-0.4502756152321629
 30
0.0
 10
-30.16250000000002
 20
-0.1345856739604935
 30
0.0
 10
-30.16249999999997
 20
0.0391042131791212
 30
0.0
 10
-30.16249999999991
 20
0.0417230312114617
 30
0.0
 10
-30.16249999999997
 20
0.0427643693168372
 30
0.0
  0
SPLINE
  5
247
330
1F
100
AcDbEntity
  8
0
  6
Continuous
 62
     1
370
    15
100
AcDbSpline
210
0.0
220
0.0
230
1.0
 70
     8
 71
     3
 72
    62
 73
    58
 74
     0
 42
0.000000001
 43
0.00000001
 40
0.0
 40
0.0
 40
0.0
 40
0.0
 40
0.0624999999999996
 40
0.0624999999999996
 40
0.0937499999999994
 40
0.0937499999999994
 40
0.1249999999999992
 40
0.1249999999999992
 40
0.156249999999999
 40
0.156249999999999
 40
0.1874999999999989
 40
0.1874999999999989
 40
0.2187499999999987
 40
0.2187499999999987
 40
0.2499999999999985
 40
0.2499999999999985
 40
0.2812499999999983
 40
0.2812499999999983
 40
0.3124999999999981
 40
0.3124999999999981
 40
0.3437499999999979
 40
0.3437499999999979
 40
0.3749999999999977
 40
0.3749999999999977
 40
0.4374999999999973
 40
0.4374999999999973
 40
0.4687499999999975
 40
0.4687499999999975
 40
0.4999999999999977
 40
0.4999999999999977
 40
0.5312499999999978
 40
0.5312499999999978
 40
0.562499999999998
 40
0.562499999999998
 40
0.5937499999999981
 40
0.5937499999999981
 40
0.6249999999999982
 40
0.6249999999999982
 40
0.6562499999999984
 40
0.6562499999999984
 40
0.6874999999999986
 40
0.6874999999999986
 40
0.7187499999999987
 40
0.7187499999999987
 40
0.7499999999999988
 40
0.7499999999999988
 40
0.8124999999999991
 40
0.8124999999999991
 40
0.8749999999999994
 40
0.8749999999999994
 40
0.9062499999999996
 40
0.9062499999999996
 40
0.9374999999999997
 40
0.9374999999999997
 40
0.9687499999999999
 40
0.9687499999999999
 40
1.0
 40
1.0
 40
1.0
 40
1.0
 10
-71.4375
 20
8.731249999999996
 30
0.0
 10
-70.58129599420113
 20
8.656665848079108
 30
0.0
 10
-69.71493145854197
 20
8.571652148807612
 30
0.0
 10
-68.42828443230928
 20
8.382973446260593
 30
0.0
 10
-67.99943624514628
 20
8.309863292480482
 30
0.0
 10
-67.13802077241951
 20
8.143439455741984
 30
0.0
 10
-66.7067254883408
 20
8.05018639569639
 30
0.0
 10
-65.84765798854926
 20
7.8446677393095
 30
0.0
 10
-65.4198844360725
 20
7.732435685348859
 30
0.0
 10
-64.55899232672743
 20
7.489030359831355
 30
0.0
 10
-64.12756578639261
 20
7.357984720907957
 30
0.0
 10
-63.26745464701798
 20
7.078652374515375
 30
0.0
 10
-62.84003853340096
 20
6.930537644712121
 30
0.0
 10
-61.97993080692947
 20
6.61727532295032
 30
0.0
 10
-61.54850451210768
 20
6.452249153104217
 30
0.0
 10
-60.68760996302751
 20
6.107191349051302
 30
0.0
 10
-60.25983373188069
 20
5.927413191193576
 30
0.0
 10
-59.40077061471135
 20
5.55346201219843
 30
0.0
 10
-58.96947606692186
 20
5.359263313923595
 30
0.0
 10
-58.10805913009585
 20
4.958499971942215
 30
0.0
 10
-57.67920558829474
 20
4.752147204754001
 30
0.0
 10
-56.82144625205899
 20
4.32844745875507
 30
0.0
 10
-56.39041481875688
 20
4.11073834021037
 30
0.0
 10
-55.09789815783017
 20
3.443520252196089
 30
0.0
 10
-54.24209356680035
 20
2.980850190917131
 30
0.0
 10
-52.94957837229089
 20
2.266984476029852
 30
0.0
 10
-52.51854448818358
 20
2.0259476052556
 30
0.0
 10
-51.66077445970348
 20
1.540359445746691
 30
0.0
 10
-51.23193161719655
 20
1.295415214901904
 30
0.0
 10
-50.37051761221471
 20
0.8022682611264532
 30
0.0
 10
-49.93922159367798
 20
0.55430782022292
 30
0.0
 10
-49.08014971487682
 20
0.0583197792581466
 30
0.0
 10
-48.65237883107289
 20
-0.1897058278858829
 30
0.0
 10
-47.79148916510144
 20
-0.6857245453708843
 30
0.0
 10
-47.36006238108661
 20
-0.9333897712884708
 30
0.0
 10
-46.49994783243625
 20
-1.425333825689346
 30
0.0
 10
-46.07253170881711
 20
-1.669375563431199
 30
0.0
 10
-45.21242739887612
 20
-2.153822273734526
 30
0.0
 10
-44.78100135140039
 20
-2.393980872148437
 30
0.0
 10
-43.92010436622331
 20
-2.867545427121137
 30
0.0
 10
-43.49232544640961
 20
-3.100651274177555
 30
0.0
 10
-42.63326671547514
 20
-3.559429080017971
 30
0.0
 10
-42.20197290580597
 20
-3.785089661801007
 30
0.0
 10
-41.34055450852662
 20
-4.226470550860071
 30
0.0
 10
-40.91169560210557
 20
-4.441983707635917
 30
0.0
 10
-39.62506462502233
 20
-5.071645204114027
 30
0.0
 10
-38.75869910153807
 20
-5.470121682976206
 30
0.0
 10
-37.04626588005425
 20
-6.207311339045042
 30
0.0
 10
-36.17992754770023
 20
-6.548905887315271
 30
0.0
 10
-34.89326449388437
 20
-7.00963274121349
 30
0.0
 10
-34.46442698605142
 20
-7.154907601428366
 30
0.0
 10
-33.60301445246046
 20
-7.428159638693177
 30
0.0
 10
-33.17171770129681
 20
-7.555981175806412
 30
0.0
 10
-32.31264144709883
 20
-7.792671497610851
 30
0.0
 10
-31.88487322197057
 20
-7.901572034234782
 30
0.0
 10
-31.02398600301109
 20
-8.100403059724478
 30
0.0
 10
-30.59255897714934
 20
-8.190168787583918
 30
0.0
 10
-30.16250000000002
 20
-8.269804255151815
 30
0.0
  0
SPLINE
  5
248
330
1F
100
AcDbEntity
  8
0
  6
Continuous
 62
     1
370
    15
100
AcDbSpline
210
0.0
220
0.0
230
1.0
 70
     8
 71
     3
 72
    14
 73
    10
 74
     0
 42
0.000000001
 43
0.00000001
 40
0.0
 40
0.0
 40
0.0
 40
0.0
 40
0.0347791532864669
 40
0.1956453596443812
 40
0.3565179918104541
 40
0.5173934119950491
 40
0.6782679792314464
 40
0.8391380535250115
 40
0.9999999999999999
 40
0.9999999999999999
 40
0.9999999999999999
 40
0.9999999999999999
 10
-48.97963028902979
 20
8.703374219322654
 30
0.0
 10
-48.76149479604169
 20
8.711863318725452
 30
0.0
 10
-47.5344034800072
 20
8.759617583817448
 30
0.0
 10
-45.29813703960633
 20
8.513000090694536
 30
0.0
 10
-42.27100168276974
 20
7.943486195107401
 30
0.0
 10
-39.2437772739342
 20
7.029419534739363
 30
0.0
 10
-36.21657990440337
 20
5.840029116003654
 30
0.0
 10
-33.18947892766346
 20
4.423518730885537
 30
0.0
 10
-31.1714759824888
 20
3.341766577928766
 30
0.0
 10
-30.16249999999997
 20
2.800904165438851
 30
0.0
  0
LINE
  5
249
330
1F
100
AcDbEntity
  8
외형선
  6
Continuous
370
    15
100
AcDbLine
 10
-30.16249999999991
 20
2.800904165438836
 30
0.0
 11
-30.16250000000002
 21
-0.2222865008773768
 31
0.0
  0
LINE
  5
24A
330
1F
100
AcDbEntity
  8
0
  6
Continuous
 62
     1
370
    15
100
AcDbLine
 10
-71.4375
 20
8.731249999999996
 30
0.0
 11
-71.4375
 21
7.907730280689243
 31
0.0
  0
LINE
  5
24B
330
1F
100
AcDbEntity
  8
외형선
  6
Continuous
370
    15
100
AcDbLine
 10
-30.16249999999991
 20
-8.269804255151822
 30
0.0
 11
-30.16249999999997
 21
-8.73125
 31
0.0
  0
SPLINE
  5
24C
330
1F
100
AcDbEntity
  8
0
  6
Continuous
 62
     1
370
    15
100
AcDbSpline
210
0.0
220
0.0
230
1.0
 70
     8
 71
     3
 72
    13
 73
     9
 74
     0
 42
0.000000001
 43
0.00000001
 40
0.0
 40
0.0
 40
0.0
 40
0.0
 40
0.1168029918180916
 40
0.2934665075416049
 40
0.4701219429813039
 40
0.6467653140676298
 40
0.823392650453111
 40
1.0
 40
1.0
 40
1.0
 40
1.0
 10
-54.3028037892617
 20
-8.692111264451938
 30
0.0
 10
-54.96995093575674
 20
-8.692842971115716
 30
0.0
 10
-56.64615237589771
 20
-8.694681377785102
 30
0.0
 10
-59.33134918376425
 20
-8.299826594897798
 30
0.0
 10
-62.35831005665398
 20
-7.575151423312345
 30
0.0
 10
-65.38502115578808
 20
-6.531549422709396
 30
0.0
 10
-68.41140863836893
 20
-5.241510037552739
 30
0.0
 10
-70.42884092979057
 20
-4.214945741292958
 30
0.0
 10
-71.4375
 20
-3.701692635858632
 30
0.0
  0
LINE
  5
24D
330
1F
100
AcDbEntity
  8
0
  6
Continuous
 62
     1
370
    15
100
AcDbLine
 10
-71.4375
 20
-0.7481052806893226
 30
0.0
 11
-71.4375
 21
-3.701692635858632
 31
0.0
  0
SPLINE
  5
24E
330
1F
100
AcDbEntity
  8
0
  6
Continuous
 62
     1
370
    15
100
AcDbSpline
210
0.0
220
0.0
230
1.0
 70
     8
 71
     3
 72
    11
 73
     7
 74
     0
 42
0.000000001
 43
0.00000001
 40
0.0
 40
0.0
 40
0.0
 40
0.0
 40
0.3012686946153174
 40
0.6025407313690362
 40
0.9038156302065741
 40
1.0
 40
1.0
 40
1.0
 40
1.0
 10
-30.16250000000002
 20
8.72841997580478
 30
0.0
 10
-31.12557226201818
 20
8.712786680885266
 30
0.0
 10
-33.05172746994191
 20
8.681519917617553
 30
0.0
 10
-35.94098342511683
 20
8.216443315924597
 30
0.0
 10
-38.17464281060165
 20
7.696485105268291
 30
0.0
 10
-39.44521767801047
 20
7.244610799097739
 30
0.0
 10
-39.75269432415342
 20
7.135258096078473
 30
0.0
  0
SPLINE
  5
24F
330
1F
100
AcDbEntity
  8
외형선
  6
Continuous
370
    15
100
AcDbSpline
210
0.0
220
0.0
230
1.0
 70
    24
 71
     3
 72
    15
 73
    11
 74
     0
 42
0.000000001
 43
0.00000001
 40
0.0
 40
0.0
 40
0.0
 40
0.0
 40
0.0943764300009667
 40
0.2321341669323078
 40
0.3660095098496862
 40
0.5037672467810284
 40
0.6376425896984064
 40
0.7754003266297488
 40
0.886605190455136
 40
1.0
 40
1.0
 40
1.0
 40
1.0
 10
-30.16249999999997
 20
2.900144761609151
 30
0.0
 10
-30.16250000000002
 20
3.026351993763661
 30
0.0
 10
-30.16249999999997
 20
3.336779191494276
 30
0.0
 10
-30.16250000000002
 20
3.952794253695305
 30
0.0
 10
-30.16249999999991
 20
4.713502551012521
 30
0.0
 10
-30.16250000000002
 20
5.536895215815957
 30
0.0
 10
-30.16249999999997
 20
6.409415175364142
 30
0.0
 10
-30.16249999999997
 20
7.241914589473755
 30
0.0
 10
-30.16249999999991
 20
8.025505755437862
 30
0.0
 10
-30.16249999999991
 20
8.492597120184676
 30
0.0
 10
-30.16250000000002
 20
8.72841997580478
 30
0.0
  0
SPLINE
  5
250
330
1F
100
AcDbEntity
  8
0
  6
Continuous
 62
     1
370
    15
100
AcDbSpline
210
0.0
220
0.0
230
1.0
 70
     8
 71
     3
 72
    10
 73
     6
 74
     0
 42
0.000000001
 43
0.00000001
 40
0.0
 40
0.0
 40
0.0
 40
0.0
 40
0.364292991747563
 40
0.7285939754545405
 40
1.0
 40
1.0
 40
1.0
 40
1.0
 10
-71.4375
 20
-8.73125
 30
0.0
 10
-70.4745651459051
 20
-8.619177353414134
 30
0.0
 10
-68.54867431258674
 20
-8.459247051400933
 30
0.0
 10
-65.90536280354581
 20
-7.908072776620799
 30
0.0
 10
-64.22498308166143
 20
-7.363013057431392
 30
0.0
 10
-63.50756896773316
 20
-7.130307597833376
 30
0.0
  0
LINE
  5
251
330
1F
100
AcDbEntity
  8
0
  6
Continuous
 62
     1
370
    15
100
AcDbLine
 10
-71.4375
 20
-3.668667450143137
 30
0.0
 11
-71.4375
 21
-8.73125
 31
0.0
  0
LINE
  5
252
330
1F
100
AcDbEntity
  8
외형선
  6
Continuous
370
    15
100
AcDbLine
 10
-30.16249999999997
 20
8.73125000000001
 30
0.0
 11
-30.16250000000002
 21
8.72841997580478
 31
0.0
  0
LINE
  5
253
330
1F
100
AcDbEntity
  8
외형선
  6
Continuous
370
    15
100
AcDbLine
 10
-29.16249999999997
 20
0.0000000000000077
 30
0.0
 11
-29.16249999999997
 21
-8.731249999999996
 31
0.0
  0
LINE
  5
254
330
1F
100
AcDbEntity
  8
외형선
  6
Continuous
370
    15
100
AcDbLine
 10
-29.16249999999997
 20
8.73125000000001
 30
0.0
 11
-29.16249999999997
 21
0.0000000000000077
 31
0.0
  0
LINE
  5
255
330
1F
100
AcDbEntity
  8
외형선
  6
Continuous
370
    15
100
AcDbLine
 10
-26.20018467149214
 20
0.0000000000000068
 30
0.0
 11
-26.20018467149214
 21
-9.52500000000001
 31
0.0
  0
LINE
  5
256
330
1F
100
AcDbEntity
  8
외형선
  6
Continuous
370
    15
100
AcDbLine
 10
-26.20018467149214
 20
9.52500000000002
 30
0.0
 11
-26.20018467149214
 21
0.0000000000000068
 31
0.0
  0
SPLINE
  5
257
330
1F
100
AcDbEntity
  8
외형선
  6
Continuous
370
    15
100
AcDbSpline
210
0.0
220
0.0
230
1.0
 70
     8
 71
     3
 72
     8
 73
     4
 74
     0
 42
0.000000001
 43
0.00000001
 40
0.0
 40
0.0
 40
0.0
 40
0.0
 40
1.0
 40
1.0
 40
1.0
 40
1.0
 10
-30.16250000000002
 20
-8.269804255151818
 30
0.0
 10
-29.99555805365389
 20
-8.300717456969135
 30
0.0
 10
-29.82882217736977
 20
-8.330106478056674
 30
0.0
 10
-29.66242853781989
 20
-8.35795219917387
 30
0.0
  0
LINE
  5
258
330
1F
100
AcDbEntity
  8
외형선
  6
Continuous
370
    15
100
AcDbLine
 10
-29.66242853781989
 20
-0.5109637219121085
 30
0.0
 11
-29.66242853781989
 21
-8.357951458708122
 31
0.0
  0
SPLINE
  5
259
330
1F
100
AcDbEntity
  8
외형선
  6
Continuous
370
    15
100
AcDbSpline
210
0.0
220
0.0
230
1.0
 70
     8
 71
     3
 72
     8
 73
     4
 74
     0
 42
0.000000001
 43
0.00000001
 40
0.0
 40
0.0
 40
0.0
 40
0.0
 40
1.0
 40
1.0
 40
1.0
 40
1.0
 10
-30.16249999999997
 20
-0.2222865008773839
 30
0.0
 10
-29.99555805365389
 20
-0.3186208958873132
 30
0.0
 10
-29.82882217736977
 20
-0.4148750183563473
 30
0.0
 10
-29.66242853781989
 20
-0.5109701343690544
 30
0.0
  0
SPLINE
  5
25A
330
1F
100
AcDbEntity
  8
외형선
  6
Continuous
370
    15
100
AcDbSpline
210
0.0
220
0.0
230
1.0
 70
     8
 71
     3
 72
     8
 73
     4
 74
     0
 42
0.000000001
 43
0.00000001
 40
0.0
 40
0.0
 40
0.0
 40
0.0
 40
1.0
 40
1.0
 40
1.0
 40
1.0
 10
-30.16250000000002
 20
2.800904165438858
 30
0.0
 10
-29.99555805365389
 20
2.709631450333603
 30
0.0
 10
-29.82882217736977
 20
2.617884381040003
 30
0.0
 10
-29.66242853781989
 20
2.525739812178706
 30
0.0
  0
LINE
  5
25B
330
1F
100
AcDbEntity
  8
외형선
  6
Continuous
370
    15
100
AcDbLine
 10
-29.66242853781989
 20
8.716286057570038
 30
0.0
 11
-29.66242853781989
 21
2.525742262460404
 31
0.0
  0
SPLINE
  5
25C
330
1F
100
AcDbEntity
  8
외형선
  6
Continuous
370
    15
100
AcDbSpline
210
0.0
220
0.0
230
1.0
 70
     8
 71
     3
 72
     8
 73
     4
 74
     0
 42
0.000000001
 43
0.00000001
 40
0.0
 40
0.0
 40
0.0
 40
0.0
 40
1.0
 40
1.0
 40
1.0
 40
1.0
 10
-30.16249999999997
 20
8.728419975804776
 30
0.0
 10
-29.99555805365389
 20
8.725966629650461
 30
0.0
 10
-29.82882217736977
 20
8.721919014035795
 30
0.0
 10
-29.66242853781989
 20
8.716285681658388
 30
0.0
  0
SPLINE
  5
25D
330
1F
100
AcDbEntity
  8
외형선
  6
Continuous
370
    15
100
AcDbSpline
210
0.0
220
0.0
230
1.0
 70
    24
 71
     3
 72
    21
 73
    17
 74
     0
 42
0.000000001
 43
0.00000001
 40
0.0
 40
0.0
 40
0.0
 40
0.0
 40
0.0032941801598384
 40
0.0803043038094561
 40
0.1573144274590737
 40
0.2343245511087049
 40
0.3113346747583361
 40
0.38834479840796
 40
0.4653549220575839
 40
0.5423650457072087
 40
0.6193751693568333
 40
0.6963852930064521
 40
0.7733954166560711
 40
0.8504055403057029
 40
0.9274156639553348
 40
1.0
 40
1.0
 40
1.0
 40
1.0
 10
-30.16249999999991
 20
0.0571079673016405
 30
0.0
 10
-30.16249999999991
 20
0.0580169206519839
 30
0.0
 10
-30.16250000000014
 20
0.0801750487605825
 30
0.0
 10
-30.16249999999991
 20
-0.0189076004489349
 30
0.0
 10
-30.16250000000002
 20
-0.2414823507961786
 30
0.0
 10
-30.16250000000002
 20
-0.6248607524529118
 30
0.0
 10
-30.16250000000002
 20
-1.130064346020757
 30
0.0
 10
-30.16250000000008
 20
-1.7538225029532
 30
0.0
 10
-30.16250000000014
 20
-2.472443507745832
 30
0.0
 10
-30.16250000000008
 20
-3.26953552330504
 30
0.0
 10
-30.16250000000002
 20
-4.11969601602854
 30
0.0
 10
-30.16250000000002
 20
-5.000413133301196
 30
0.0
 10
-30.16249999999997
 20
-5.886493538632868
 30
0.0
 10
-30.16250000000002
 20
-6.750465977786698
 30
0.0
 10
-30.16249999999997
 20
-7.560813500907011
 30
0.0
 10
-30.16249999999991
 20
-8.038181687446826
 30
0.0
 10
-30.16249999999997
 20
-8.26980425515185
 30
0.0
  0
SPLINE
  5
25E
330
1F
100
AcDbEntity
  8
외형선
  6
Continuous
370
    15
100
AcDbSpline
210
0.0
220
0.0
230
1.0
 70
    24
 71
     3
 72
    15
 73
    11
 74
     0
 42
0.000000001
 43
0.00000001
 40
0.0
 40
0.0
 40
0.0
 40
0.0
 40
0.1404764433105919
 40
0.2809528866211838
 40
0.4167475998360017
 40
0.5525423130508197
 40
0.6883370262656615
 40
0.8241317394805032
 40
0.9599264526953323
 40
1.0
 40
1.0
 40
1.0
 40
1.0
 10
-30.16250000000002
 20
8.728419975804776
 30
0.0
 10
-30.16249999999997
 20
8.435096765404076
 30
0.0
 10
-30.16249999999991
 20
7.848450344602664
 30
0.0
 10
-30.16249999999991
 20
6.940242435700402
 30
0.0
 10
-30.16249999999991
 20
6.048845161705485
 30
0.0
 10
-30.16250000000002
 20
5.19450054852506
 30
0.0
 10
-30.16250000000002
 20
4.391231230628332
 30
0.0
 10
-30.16250000000002
 20
3.670102481422169
 30
0.0
 10
-30.16250000000008
 20
3.16764897943748
 30
0.0
 10
-30.16250000000002
 20
2.94977889384474
 30
0.0
 10
-30.16250000000002
 20
2.900134761609152
 30
0.0
  0
LINE
  5
2DD
330
1F
100
AcDbEntity
  8
외형선
  6
Continuous
370
    15
100
AcDbLine
 10
-5.791200000000003
 20
7.619999999999999
 30
0.0
 11
5.791200000000003
 21
7.619999999999999
 31
0.0
  0
LINE
  5
2DE
330
1F
100
AcDbEntity
  8
외형선
  6
Continuous
370
    15
100
AcDbLine
 10
5.791200000000003
 20
7.619999999999999
 30
0.0
 11
7.696199999999976
 21
9.525
 31
0.0
  0
LINE
  5
2DF
330
1F
100
AcDbEntity
  8
외형선
  6
Continuous
370
    15
100
AcDbLine
 10
-5.791200000000003
 20
7.619999999999999
 30
0.0
 11
-7.696199999999976
 21
9.525
 31
0.0
  0
LINE
  5
2E0
330
1F
100
AcDbEntity
  8
외형선
  6
Continuous
370
    15
100
AcDbLine
 10
-7.69619999999998
 20
9.525
 30
0.0
 11
-26.20018467149213
 21
9.525
 31
0.0
  0
ENDSEC
  0
SECTION
  2
OBJECTS
  0
DICTIONARY
  5
C
330
0
100
AcDbDictionary
281
     1
  3
ACAD_GROUP
350
D
  3
ACAD_IMAGE_VARS
350
14F
  3
ACAD_LAYOUT
350
1A
  3
ACAD_MLINESTYLE
350
17
  3
ACAD_PLOTSETTINGS
350
19
  3
ACAD_PLOTSTYLENAME
350
E
  3
ACAD_SCALELIST
350
47
  3
APPDATA
350
14D
  3
DWGPROPS
350
304
  0
DICTIONARY
  5
176
330
2
100
AcDbDictionary
280
     1
281
     1
  3
ACAD_LAYERSTATES
360
177
  0
DICTIONARY
  5
D
102
{ACAD_REACTORS
330
C
102
}
330
C
100
AcDbDictionary
281
     1
  0
RASTERVARIABLES
  5
14F
102
{ACAD_REACTORS
330
C
102
}
330
C
100
AcDbRasterVariables
 90
        0
 70
     1
 71
     1
 72
     1
  0
DICTIONARY
  5
1A
102
{ACAD_REACTORS
330
C
102
}
330
C
100
AcDbDictionary
281
     1
  3
Layout1
350
1E
  3
Layout2
350
26
  3
Model
350
22
  0
DICTIONARY
  5
17
102
{ACAD_REACTORS
330
C
102
}
330
C
100
AcDbDictionary
281
     1
  3
Standard
350
18
  0
DICTIONARY
  5
19
102
{ACAD_REACTORS
330
C
102
}
330
C
100
AcDbDictionary
281
     1
  0
ACDBDICTIONARYWDFLT
  5
E
102
{ACAD_REACTORS
330
C
102
}
330
C
100
AcDbDictionary
281
     1
  3
Normal
350
F
100
AcDbDictionaryWithDefault
340
F
  0
DICTIONARY
  5
47
102
{ACAD_REACTORS
330
C
102
}
330
C
100
AcDbDictionary
281
     1
  3
A0
350
48
  3
A1
350
49
  3
A2
350
4A
  3
A3
350
4B
  3
A4
350
4C
  3
A5
350
4D
  3
A6
350
4E
  3
A7
350
4F
  3
A8
350
50
  3
A9
350
51
  3
B0
350
52
  3
B1
350
53
  3
B2
350
54
  3
B3
350
55
  3
B4
350
56
  3
B5
350
57
  3
B6
350
58
  3
B7
350
59
  3
B8
350
5A
  3
B9
350
5B
  3
C0
350
5C
  3
C1
350
5D
  3
C2
350
5E
  3
C3
350
5F
  3
C4
350
60
  3
C5
350
61
  3
C6
350
62
  3
C7
350
63
  3
C8
350
64
  3
C9
350
65
  3
D0
350
66
  3
D1
350
67
  3
D2
350
68
  0
DICTIONARY
  5
14D
102
{ACAD_REACTORS
330
C
102
}
330
C
100
AcDbDictionary
281
     1
  0
XRECORD
  5
304
102
{ACAD_REACTORS
330
C
102
}
330
C
100
AcDbXrecord
280
     1
  1
DWGPROPS COOKIE
  2

  3

  4

  6

  7

  8
12016016
  9

300
=
301
=
302
=
303
=
304
=
305
=
306
=
307
=
308
=
309
=
 40
0.0
 41
2458313.099836713
 42
2458319.121492072
  1

 90
        0
  0
DICTIONARY
  5
177
102
{ACAD_REACTORS
330
176
102
}
330
176
100
AcDbDictionary
281
     1
  0
LAYOUT
  5
1E
102
{ACAD_REACTORS
330
1A
102
}
330
1A
100
AcDbPlotSettings
  1

  2
none_device
  4

  6

 40
0.0
 41
0.0
 42
0.0
 43
0.0
 44
0.0
 45
0.0
 46
0.0
 47
0.0
 48
0.0
 49
0.0
140
0.0
141
0.0
142
1.0
143
1.0
 70
   688
 72
     1
 73
     0
 74
     5
  7

 75
    16
147
1.0
148
0.0
149
0.0
100
AcDbLayout
  1
Layout1
 70
     1
 71
     1
 10
0.0
 20
0.0
 11
420.0
 21
297.0
 12
0.0
 22
0.0
 32
0.0
 14
1.000000000000000E+20
 24
1.000000000000000E+20
 34
1.000000000000000E+20
 15
-1.000000000000000E+20
 25
-1.000000000000000E+20
 35
-1.000000000000000E+20
146
0.0
 13
0.0
 23
0.0
 33
0.0
 16
1.0
 26
0.0
 36
0.0
 17
0.0
 27
1.0
 37
0.0
 76
     0
330
1B
  0
LAYOUT
  5
26
102
{ACAD_REACTORS
330
1A
102
}
330
1A
100
AcDbPlotSettings
  1

  2
none_device
  4

  6

 40
0.0
 41
0.0
 42
0.0
 43
0.0
 44
0.0
 45
0.0
 46
0.0
 47
0.0
 48
0.0
 49
0.0
140
0.0
141
0.0
142
1.0
143
1.0
 70
   688
 72
     1
 73
     0
 74
     5
  7

 75
    16
147
1.0
148
0.0
149
0.0
100
AcDbLayout
  1
Layout2
 70
     1
 71
     2
 10
0.0
 20
0.0
 11
0.0
 21
0.0
 12
0.0
 22
0.0
 32
0.0
 14
0.0
 24
0.0
 34
0.0
 15
0.0
 25
0.0
 35
0.0
146
0.0
 13
0.0
 23
0.0
 33
0.0
 16
1.0
 26
0.0
 36
0.0
 17
0.0
 27
1.0
 37
0.0
 76
     0
330
23
  0
LAYOUT
  5
22
102
{ACAD_REACTORS
330
1A
102
}
330
1A
100
AcDbPlotSettings
  1

  2
none_device
  4
ANSI_A_(11.00_x_8.50_Inches)
  6

 40
6.35
 41
19.05
 42
6.35000508
 43
19.05000254
 44
279.4
 45
215.9
 46
40.61099338347624
 47
71.05968794797184
 48
0.0
 49
0.0
140
0.0
141
0.0
142
0.0289994960496331
143
1.0
 70
  1696
 72
     0
 73
     0
 74
     0
  7

 75
     0
147
0.0235690232323232
148
0.0
149
0.0
100
AcDbLayout
  1
Model
 70
     1
 71
     0
 10
0.0
 20
0.0
 11
420.0
 21
297.0
 12
0.0
 22
0.0
 32
0.0
 14
-87.38375000000008
 24
-49.97180738881174
 34
0.0
 15
90.92567858371592
 25
45.99064162728175
 35
0.0
146
0.0
 13
0.0
 23
0.0
 33
0.0
 16
1.0
 26
0.0
 36
0.0
 17
0.0
 27
1.0
 37
0.0
 76
     0
330
1F
331
29
  0
MLINESTYLE
  5
18
102
{ACAD_REACTORS
330
17
102
}
330
17
100
AcDbMlineStyle
  2
Standard
 70
     0
  3

 62
   256
 51
90.0
 52
90.0
 71
     2
 49
0.5
 62
   256
  6
BYLAYER
 49
-0.5
 62
   256
  6
BYLAYER
  0
ACDBPLACEHOLDER
  5
F
102
{ACAD_REACTORS
330
E
102
}
330
E
  0
SCALE
  5
48
102
{ACAD_REACTORS
330
47
102
}
330
47
100
AcDbScale
 70
     0
300
1:1
140
1.0
141
1.0
290
     1
  0
SCALE
  5
49
102
{ACAD_REACTORS
330
47
102
}
330
47
100
AcDbScale
 70
     0
300
1:2
140
1.0
141
2.0
290
     0
  0
SCALE
  5
4A
102
{ACAD_REACTORS
330
47
102
}
330
47
100
AcDbScale
 70
     0
300
1:4
140
1.0
141
4.0
290
     0
  0
SCALE
  5
4B
102
{ACAD_REACTORS
330
47
102
}
330
47
100
AcDbScale
 70
     0
300
1:5
140
1.0
141
5.0
290
     0
  0
SCALE
  5
4C
102
{ACAD_REACTORS
330
47
102
}
330
47
100
AcDbScale
 70
     0
300
1:8
140
1.0
141
8.0
290
     0
  0
SCALE
  5
4D
102
{ACAD_REACTORS
330
47
102
}
330
47
100
AcDbScale
 70
     0
300
1:10
140
1.0
141
10.0
290
     0
  0
SCALE
  5
4E
102
{ACAD_REACTORS
330
47
102
}
330
47
100
AcDbScale
 70
     0
300
1:16
140
1.0
141
16.0
290
     0
  0
SCALE
  5
4F
102
{ACAD_REACTORS
330
47
102
}
330
47
100
AcDbScale
 70
     0
300
1:20
140
1.0
141
20.0
290
     0
  0
SCALE
  5
50
102
{ACAD_REACTORS
330
47
102
}
330
47
100
AcDbScale
 70
     0
300
1:30
140
1.0
141
30.0
290
     0
  0
SCALE
  5
51
102
{ACAD_REACTORS
330
47
102
}
330
47
100
AcDbScale
 70
     0
300
1:40
140
1.0
141
40.0
290
     0
  0
SCALE
  5
52
102
{ACAD_REACTORS
330
47
102
}
330
47
100
AcDbScale
 70
     0
300
1:50
140
1.0
141
50.0
290
     0
  0
SCALE
  5
53
102
{ACAD_REACTORS
330
47
102
}
330
47
100
AcDbScale
 70
     0
300
1:100
140
1.0
141
100.0
290
     0
  0
SCALE
  5
54
102
{ACAD_REACTORS
330
47
102
}
330
47
100
AcDbScale
 70
     0
300
2:1
140
2.0
141
1.0
290
     0
  0
SCALE
  5
55
102
{ACAD_REACTORS
330
47
102
}
330
47
100
AcDbScale
 70
     0
300
4:1
140
4.0
141
1.0
290
     0
  0
SCALE
  5
56
102
{ACAD_REACTORS
330
47
102
}
330
47
100
AcDbScale
 70
     0
300
8:1
140
8.0
141
1.0
290
     0
  0
SCALE
  5
57
102
{ACAD_REACTORS
330
47
102
}
330
47
100
AcDbScale
 70
     0
300
10:1
140
10.0
141
1.0
290
     0
  0
SCALE
  5
58
102
{ACAD_REACTORS
330
47
102
}
330
47
100
AcDbScale
 70
     0
300
100:1
140
100.0
141
1.0
290
     0
  0
SCALE
  5
59
102
{ACAD_REACTORS
330
47
102
}
330
47
100
AcDbScale
 70
     0
300
1/128" = 1'-0"
140
0.0078125
141
12.0
290
     0
  0
SCALE
  5
5A
102
{ACAD_REACTORS
330
47
102
}
330
47
100
AcDbScale
 70
     0
300
1/64" = 1'-0"
140
0.015625
141
12.0
290
     0
  0
SCALE
  5
5B
102
{ACAD_REACTORS
330
47
102
}
330
47
100
AcDbScale
 70
     0
300
1/32" = 1'-0"
140
0.03125
141
12.0
290
     0
  0
SCALE
  5
5C
102
{ACAD_REACTORS
330
47
102
}
330
47
100
AcDbScale
 70
     0
300
1/16" = 1'-0"
140
0.0625
141
12.0
290
     0
  0
SCALE
  5
5D
102
{ACAD_REACTORS
330
47
102
}
330
47
100
AcDbScale
 70
     0
300
3/32" = 1'-0"
140
0.09375
141
12.0
290
     0
  0
SCALE
  5
5E
102
{ACAD_REACTORS
330
47
102
}
330
47
100
AcDbScale
 70
     0
300
1/8" = 1'-0"
140
0.125
141
12.0
290
     0
  0
SCALE
  5
5F
102
{ACAD_REACTORS
330
47
102
}
330
47
100
AcDbScale
 70
     0
300
3/16" = 1'-0"
140
0.1875
141
12.0
290
     0
  0
SCALE
  5
60
102
{ACAD_REACTORS
330
47
102
}
330
47
100
AcDbScale
 70
     0
300
1/4" = 1'-0"
140
0.25
141
12.0
290
     0
  0
SCALE
  5
61
102
{ACAD_REACTORS
330
47
102
}
330
47
100
AcDbScale
 70
     0
300
3/8" = 1'-0"
140
0.375
141
12.0
290
     0
  0
SCALE
  5
62
102
{ACAD_REACTORS
330
47
102
}
330
47
100
AcDbScale
 70
     0
300
1/2" = 1'-0"
140
0.5
141
12.0
290
     0
  0
SCALE
  5
63
102
{ACAD_REACTORS
330
47
102
}
330
47
100
AcDbScale
 70
     0
300
3/4" = 1'-0"
140
0.75
141
12.0
290
     0
  0
SCALE
  5
64
102
{ACAD_REACTORS
330
47
102
}
330
47
100
AcDbScale
 70
     0
300
1" = 1'-0"
140
1.0
141
12.0
290
     0
  0
SCALE
  5
65
102
{ACAD_REACTORS
330
47
102
}
330
47
100
AcDbScale
 70
     0
300
1-1/2" = 1'-0"
140
1.5
141
12.0
290
     0
  0
SCALE
  5
66
102
{ACAD_REACTORS
330
47
102
}
330
47
100
AcDbScale
 70
     0
300
3" = 1'-0"
140
3.0
141
12.0
290
     0
  0
SCALE
  5
67
102
{ACAD_REACTORS
330
47
102
}
330
47
100
AcDbScale
 70
     0
300
6" = 1'-0"
140
6.0
141
12.0
290
     0
  0
SCALE
  5
68
102
{ACAD_REACTORS
330
47
102
}
330
47
100
AcDbScale
 70
     0
300
1'-0" = 1'-0"
140
12.0
141
12.0
290
     0
  0
ENDSEC
  0
EOF
