  0
SECTION
  2
HEADER
  9
$ACADVER
  1
AC1015
  9
$ACADMAINTVER
 70
     6
  9
$DWGCODEPAGE
  3
ANSI_949
  9
$INSBASE
 10
0.0
 20
0.0
 30
0.0
  9
$EXTMIN
 10
1.000000000000000E+20
 20
1.000000000000000E+20
 30
1.000000000000000E+20
  9
$EXTMAX
 10
-1.000000000000000E+20
 20
-1.000000000000000E+20
 30
-1.000000000000000E+20
  9
$LIMMIN
 10
0.0
 20
0.0
  9
$LIMMAX
 10
420.0
 20
297.0
  9
$ORTHOMODE
 70
     1
  9
$REGENMODE
 70
     1
  9
$FILLMODE
 70
     1
  9
$QTEXTMODE
 70
     0
  9
$MIRRTEXT
 70
     1
  9
$LTSCALE
 40
1.0
  9
$ATTMODE
 70
     1
  9
$TEXTSIZE
 40
3.5
  9
$TRACEWID
 40
1.0
  9
$TEXTSTYLE
  7
Standard
  9
$CLAYER
  8
0
  9
$CELTYPE
  6
ByLayer
  9
$CECOLOR
 62
   256
  9
$CELTSCALE
 40
1.0
  9
$DISPSILH
 70
     0
  9
$DIMSCALE
 40
1.0
  9
$DIMASZ
 40
3.302
  9
$DIMEXO
 40
1.0
  9
$DIMDLI
 40
3.75
  9
$DIMRND
 40
0.0
  9
$DIMDLE
 40
0.0
  9
$DIMEXE
 40
1.0
  9
$DIMTP
 40
0.0
  9
$DIMTM
 40
0.0
  9
$DIMTXT
 40
3.5
  9
$DIMCEN
 40
2.5
  9
$DIMTSZ
 40
0.0
  9
$DIMTOL
 70
     0
  9
$DIMLIM
 70
     0
  9
$DIMTIH
 70
     1
  9
$DIMTOH
 70
     1
  9
$DIMSE1
 70
     0
  9
$DIMSE2
 70
     0
  9
$DIMTAD
 70
     1
  9
$DIMZIN
 70
     0
  9
$DIMBLK
  1

  9
$DIMASO
 70
     1
  9
$DIMSHO
 70
     1
  9
$DIMPOST
  1

  9
$DIMAPOST
  1

  9
$DIMALT
 70
     0
  9
$DIMALTD
 70
     3
  9
$DIMALTF
 40
0.0393700787401575
  9
$DIMLFAC
 40
1.0
  9
$DIMTOFL
 70
     1
  9
$DIMTVP
 40
0.0
  9
$DIMTIX
 70
     0
  9
$DIMSOXD
 70
     0
  9
$DIMSAH
 70
     0
  9
$DIMBLK1
  1

  9
$DIMBLK2
  1

  9
$DIMSTYLE
  2
ISO-25
  9
$DIMCLRD
 70
     0
  9
$DIMCLRE
 70
     0
  9
$DIMCLRT
 70
     0
  9
$DIMTFAC
 40
1.0
  9
$DIMGAP
 40
1.524
  9
$DIMJUST
 70
     0
  9
$DIMSD1
 70
     0
  9
$DIMSD2
 70
     0
  9
$DIMTOLJ
 70
     0
  9
$DIMTZIN
 70
     0
  9
$DIMALTZ
 70
     0
  9
$DIMALTTZ
 70
     0
  9
$DIMUPT
 70
     0
  9
$DIMDEC
 70
     2
  9
$DIMTDEC
 70
     2
  9
$DIMALTU
 70
     2
  9
$DIMALTTD
 70
     3
  9
$DIMTXSTY
  7
Standard
  9
$DIMAUNIT
 70
     0
  9
$DIMADEC
 70
     2
  9
$DIMALTRND
 40
0.0
  9
$DIMAZIN
 70
     0
  9
$DIMDSEP
 70
    44
  9
$DIMATFIT
 70
     3
  9
$DIMFRAC
 70
     0
  9
$DIMLDRBLK
  1

  9
$DIMLUNIT
 70
     2
  9
$DIMLWD
 70
    -2
  9
$DIMLWE
 70
    -2
  9
$DIMTMOVE
 70
     0
  9
$LUNITS
 70
     2
  9
$LUPREC
 70
     2
  9
$SKETCHINC
 40
1.0
  9
$FILLETRAD
 40
10.0
  9
$AUNITS
 70
     0
  9
$AUPREC
 70
     2
  9
$MENU
  1
.
  9
$ELEVATION
 40
0.0
  9
$PELEVATION
 40
0.0
  9
$THICKNESS
 40
0.0
  9
$LIMCHECK
 70
     0
  9
$CHAMFERA
 40
0.0
  9
$CHAMFERB
 40
0.0
  9
$CHAMFERC
 40
0.0
  9
$CHAMFERD
 40
0.0
  9
$SKPOLY
 70
     0
  9
$TDCREATE
 40
2458320.372567639
  9
$TDUCREATE
 40
2458319.997567639
  9
$TDUPDATE
 40
2458331.400657037
  9
$TDUUPDATE
 40
2458331.025657037
  9
$TDINDWG
 40
0.0002034144
  9
$TDUSRTIMER
 40
2458331.024115706
  9
$USRTIMER
 70
     1
  9
$ANGBASE
 50
0.0
  9
$ANGDIR
 70
     0
  9
$PDMODE
 70
     0
  9
$PDSIZE
 40
-1.0
  9
$PLINEWID
 40
0.0
  9
$SPLFRAME
 70
     0
  9
$SPLINETYPE
 70
     6
  9
$SPLINESEGS
 70
     8
  9
$HANDSEED
  5
1D0
  9
$SURFTAB1
 70
     6
  9
$SURFTAB2
 70
     6
  9
$SURFTYPE
 70
     6
  9
$SURFU
 70
     6
  9
$SURFV
 70
     6
  9
$UCSBASE
  2

  9
$UCSNAME
  2

  9
$UCSORG
 10
0.0
 20
0.0
 30
0.0
  9
$UCSXDIR
 10
1.0
 20
0.0
 30
0.0
  9
$UCSYDIR
 10
0.0
 20
1.0
 30
0.0
  9
$UCSORTHOREF
  2

  9
$UCSORTHOVIEW
 70
     0
  9
$UCSORGTOP
 10
0.0
 20
0.0
 30
0.0
  9
$UCSORGBOTTOM
 10
0.0
 20
0.0
 30
0.0
  9
$UCSORGLEFT
 10
0.0
 20
0.0
 30
0.0
  9
$UCSORGRIGHT
 10
0.0
 20
0.0
 30
0.0
  9
$UCSORGFRONT
 10
0.0
 20
0.0
 30
0.0
  9
$UCSORGBACK
 10
0.0
 20
0.0
 30
0.0
  9
$PUCSBASE
  2

  9
$PUCSNAME
  2

  9
$PUCSORG
 10
0.0
 20
0.0
 30
0.0
  9
$PUCSXDIR
 10
1.0
 20
0.0
 30
0.0
  9
$PUCSYDIR
 10
0.0
 20
1.0
 30
0.0
  9
$PUCSORTHOREF
  2

  9
$PUCSORTHOVIEW
 70
     0
  9
$PUCSORGTOP
 10
0.0
 20
0.0
 30
0.0
  9
$PUCSORGBOTTOM
 10
0.0
 20
0.0
 30
0.0
  9
$PUCSORGLEFT
 10
0.0
 20
0.0
 30
0.0
  9
$PUCSORGRIGHT
 10
0.0
 20
0.0
 30
0.0
  9
$PUCSORGFRONT
 10
0.0
 20
0.0
 30
0.0
  9
$PUCSORGBACK
 10
0.0
 20
0.0
 30
0.0
  9
$USERI1
 70
     0
  9
$USERI2
 70
     0
  9
$USERI3
 70
     0
  9
$USERI4
 70
     0
  9
$USERI5
 70
     0
  9
$USERR1
 40
0.0
  9
$USERR2
 40
0.0
  9
$USERR3
 40
0.0
  9
$USERR4
 40
0.0
  9
$USERR5
 40
0.0
  9
$WORLDVIEW
 70
     1
  9
$SHADEDGE
 70
     3
  9
$SHADEDIF
 70
    70
  9
$TILEMODE
 70
     1
  9
$MAXACTVP
 70
    64
  9
$PINSBASE
 10
0.0
 20
0.0
 30
0.0
  9
$PLIMCHECK
 70
     0
  9
$PEXTMIN
 10
1.000000000000000E+20
 20
1.000000000000000E+20
 30
1.000000000000000E+20
  9
$PEXTMAX
 10
-1.000000000000000E+20
 20
-1.000000000000000E+20
 30
-1.000000000000000E+20
  9
$PLIMMIN
 10
0.0
 20
0.0
  9
$PLIMMAX
 10
0.0
 20
0.0
  9
$UNITMODE
 70
     0
  9
$VISRETAIN
 70
     1
  9
$PLINEGEN
 70
     0
  9
$PSLTSCALE
 70
     1
  9
$TREEDEPTH
 70
  3020
  9
$CMLSTYLE
  2
Standard
  9
$CMLJUST
 70
     0
  9
$CMLSCALE
 40
20.0
  9
$PROXYGRAPHICS
 70
     1
  9
$MEASUREMENT
 70
     1
  9
$CELWEIGHT
370
    -1
  9
$ENDCAPS
280
     0
  9
$JOINSTYLE
280
     0
  9
$LWDISPLAY
290
     1
  9
$INSUNITS
 70
     4
  9
$HYPERLINKBASE
  1

  9
$STYLESHEET
  1

  9
$XEDIT
290
     1
  9
$CEPSNTYPE
380
     0
  9
$PSTYLEMODE
290
     1
  9
$FINGERPRINTGUID
  2
{1BA91222-2F91-4213-A201-75AD96132892}
  9
$VERSIONGUID
  2
{FAEB1C32-E019-11D5-929B-00C0DF256EC4}
  9
$EXTNAMES
290
     1
  9
$PSVPSCALE
 40
0.0
  9
$OLESTARTUP
290
     0
  0
ENDSEC
  0
SECTION
  2
CLASSES
  0
CLASS
  1
ACDBDICTIONARYWDFLT
  2
AcDbDictionaryWithDefault
  3
ObjectDBX Classes
 90
        0
280
     0
281
     0
  0
CLASS
  1
VISUALSTYLE
  2
AcDbVisualStyle
  3
ObjectDBX Classes
 90
     4095
280
     0
281
     0
  0
CLASS
  1
MATERIAL
  2
AcDbMaterial
  3
ObjectDBX Classes
 90
     1153
280
     0
281
     0
  0
CLASS
  1
SCALE
  2
AcDbScale
  3
ObjectDBX Classes
 90
     1153
280
     0
281
     0
  0
CLASS
  1
SUN
  2
AcDbSun
  3
SCENEOE
 90
     1153
280
     0
281
     0
  0
CLASS
  1
ACDBPLACEHOLDER
  2
AcDbPlaceHolder
  3
ObjectDBX Classes
 90
        0
280
     0
281
     0
  0
CLASS
  1
LAYOUT
  2
AcDbLayout
  3
ObjectDBX Classes
 90
        0
280
     0
281
     0
  0
CLASS
  1
TABLESTYLE
  2
AcDbTableStyle
  3
ObjectDBX Classes
 90
     4095
280
     0
281
     0
  0
CLASS
  1
MLEADERSTYLE
  2
AcDbMLeaderStyle
  3
ACDB_MLEADERSTYLE_CLASS
 90
     4095
280
     0
281
     0
  0
CLASS
  1
RASTERVARIABLES
  2
AcDbRasterVariables
  3
ISM
 90
        0
280
     0
281
     0
  0
ENDSEC
  0
SECTION
  2
TABLES
  0
TABLE
  2
VPORT
  5
8
330
0
100
AcDbSymbolTable
 70
     1
  0
VPORT
  5
29
330
8
100
AcDbSymbolTableRecord
100
AcDbViewportTableRecord
  2
*Active
 70
     0
 10
0.0
 20
0.0
 11
1.0
 21
1.0
 12
3.065805763254858
 22
-0.0693735895045577
 13
0.0
 23
0.0
 14
10.0
 24
10.0
 15
10.0
 25
10.0
 16
0.0
 26
0.0
 36
1.0
 17
0.0
 27
0.0
 37
0.0
 40
133.0121953512792
 41
1.516441005802708
 42
50.0
 43
0.0
 44
0.0
 50
0.0
 51
0.0
 71
    16
 72
  2000
 73
     1
 74
     3
 75
     0
 76
     0
 77
     0
 78
     0
281
     0
 65
     1
110
0.0
120
0.0
130
0.0
111
1.0
121
0.0
131
0.0
112
0.0
122
1.0
132
0.0
 79
     0
146
0.0
  0
ENDTAB
  0
TABLE
  2
LTYPE
  5
5
330
0
100
AcDbSymbolTable
 70
     6
  0
LTYPE
  5
14
330
5
100
AcDbSymbolTableRecord
100
AcDbLinetypeTableRecord
  2
ByBlock
 70
     0
  3

 72
    65
 73
     0
 40
0.0
  0
LTYPE
  5
15
330
5
100
AcDbSymbolTableRecord
100
AcDbLinetypeTableRecord
  2
ByLayer
 70
     0
  3

 72
    65
 73
     0
 40
0.0
  0
LTYPE
  5
16
330
5
100
AcDbSymbolTableRecord
100
AcDbLinetypeTableRecord
  2
Continuous
 70
     0
  3
Solid line
 72
    65
 73
     0
 40
0.0
  0
LTYPE
  5
6A
330
5
100
AcDbSymbolTableRecord
100
AcDbLinetypeTableRecord
  2
HIDDEN
 70
     0
  3
Hidden __ __ __ __ __ __ __ __ __ __ __ __ __ __
 72
    65
 73
     2
 40
1.905
 49
1.27
 74
     0
 49
-0.635
 74
     0
  0
LTYPE
  5
6B
330
5
100
AcDbSymbolTableRecord
100
AcDbLinetypeTableRecord
  2
PHANTOM
 70
     0
  3
Phantom ______  __  __  ______  __  __  ______
 72
    65
 73
     6
 40
12.7
 49
6.35
 74
     0
 49
-1.27
 74
     0
 49
1.27
 74
     0
 49
-1.27
 74
     0
 49
1.27
 74
     0
 49
-1.27
 74
     0
  0
LTYPE
  5
6C
330
5
100
AcDbSymbolTableRecord
100
AcDbLinetypeTableRecord
  2
CENTER
 70
     0
  3
Center ____ _ ____ _ ____ _ ____ _ ____ _ ____
 72
    65
 73
     4
 40
10.16
 49
6.35
 74
     0
 49
-1.27
 74
     0
 49
1.27
 74
     0
 49
-1.27
 74
     0
  0
LTYPE
  5
6D
330
5
100
AcDbSymbolTableRecord
100
AcDbLinetypeTableRecord
  2
CENTERX2
 70
     0
  3
Center (2x) ________  __  ________  __  _____
 72
    65
 73
     4
 40
20.32
 49
12.7
 74
     0
 49
-2.54
 74
     0
 49
2.54
 74
     0
 49
-2.54
 74
     0
  0
LTYPE
  5
6E
330
5
100
AcDbSymbolTableRecord
100
AcDbLinetypeTableRecord
  2
DOT2
 70
     0
  3
Dot (.5x) ........................................
 72
    65
 73
     2
 40
0.635
 49
0.0
 74
     0
 49
-0.635
 74
     0
  0
ENDTAB
  0
TABLE
  2
LAYER
  5
2
102
{ACAD_XDICTIONARY
360
1BA
102
}
330
0
100
AcDbSymbolTable
 70
    18
  0
LAYER
  5
10
330
2
100
AcDbSymbolTableRecord
100
AcDbLayerTableRecord
  2
0
 70
     0
 62
     7
  6
Continuous
370
    -3
390
F
  0
LAYER
  5
6F
330
2
100
AcDbSymbolTableRecord
100
AcDbLayerTableRecord
  2
FORMAT
 70
     0
 62
     2
  6
Continuous
370
    -3
390
F
  0
LAYER
  5
70
330
2
100
AcDbSymbolTableRecord
100
AcDbLayerTableRecord
  2
외형선
 70
     0
 62
     4
  6
Continuous
370
    30
390
F
  0
LAYER
  5
71
330
2
100
AcDbSymbolTableRecord
100
AcDbLayerTableRecord
  2
숨은선
 70
     0
 62
     2
  6
HIDDEN
370
    15
390
F
  0
LAYER
  5
72
330
2
100
AcDbSymbolTableRecord
100
AcDbLayerTableRecord
  2
중심선
 70
     0
 62
     1
  6
CENTERX2
370
    -3
390
F
  0
LAYER
  5
73
330
2
100
AcDbSymbolTableRecord
100
AcDbLayerTableRecord
  2
파단선
 70
     0
 62
     4
  6
Continuous
370
    -3
390
F
  0
LAYER
  5
74
330
2
100
AcDbSymbolTableRecord
100
AcDbLayerTableRecord
  2
해칭선
 70
     0
 62
   100
  6
Continuous
370
    -3
390
F
  0
LAYER
  5
75
330
2
100
AcDbSymbolTableRecord
100
AcDbLayerTableRecord
  2
가는실선
 70
     0
 62
     4
  6
Continuous
370
    -3
390
F
  0
LAYER
  5
76
330
2
100
AcDbSymbolTableRecord
100
AcDbLayerTableRecord
  2
치수_보조선
 70
     0
 62
     4
  6
Continuous
370
    -3
390
F
  0
LAYER
  5
77
330
2
100
AcDbSymbolTableRecord
100
AcDbLayerTableRecord
  2
치수문자_일반주서
 70
     0
 62
     7
  6
Continuous
370
    15
390
F
  0
LAYER
  5
78
330
2
100
AcDbSymbolTableRecord
100
AcDbLayerTableRecord
  2
개별주서
 70
     0
 62
   100
  6
Continuous
370
    30
390
F
  0
LAYER
  5
79
330
2
100
AcDbSymbolTableRecord
100
AcDbLayerTableRecord
  2
중간선
 70
     0
 62
     2
  6
Continuous
370
    15
390
F
  0
LAYER
  5
7A
330
2
100
AcDbSymbolTableRecord
100
AcDbLayerTableRecord
  2
윤곽선
 70
     0
 62
     3
  6
Continuous
370
    40
390
F
  0
LAYER
  5
7B
330
2
100
AcDbSymbolTableRecord
100
AcDbLayerTableRecord
  2
중심마크
 70
     0
 62
   100
  6
Continuous
370
    30
390
F
  0
LAYER
  5
7C
330
2
100
AcDbSymbolTableRecord
100
AcDbLayerTableRecord
  2
가상선
 70
     0
 62
     4
  6
PHANTOM
370
    -3
390
F
  0
LAYER
  5
7D
330
2
100
AcDbSymbolTableRecord
100
AcDbLayerTableRecord
  2
특수지정선
 70
     0
 62
     5
  6
CENTERX2
370
    60
390
F
  0
LAYER
  5
7E
330
2
100
AcDbSymbolTableRecord
100
AcDbLayerTableRecord
  2
참조1
 70
     0
 62
    -4
  6
Continuous
370
    -3
390
F
  0
LAYER
  5
14D
330
2
100
AcDbSymbolTableRecord
100
AcDbLayerTableRecord
  2
Defpoints
 70
     0
 62
     7
  6
Continuous
290
     0
370
    -3
390
F
  0
ENDTAB
  0
TABLE
  2
STYLE
  5
3
330
0
100
AcDbSymbolTable
 70
     2
  0
STYLE
  5
11
330
3
100
AcDbSymbolTableRecord
100
AcDbTextStyleTableRecord
  2
Standard
 70
     0
 40
0.0
 41
1.0
 50
0.0
 71
     0
 42
3.5
  3
txt
  4

  0
STYLE
  5
94
330
3
100
AcDbSymbolTableRecord
100
AcDbTextStyleTableRecord
  2
SLDTEXTSTYLE0
 70
     0
 40
0.0
 41
0.75
 50
0.0
 71
     0
 42
3.5
  3
TXT
  4

  0
ENDTAB
  0
TABLE
  2
VIEW
  5
6
330
0
100
AcDbSymbolTable
 70
     0
  0
ENDTAB
  0
TABLE
  2
UCS
  5
7
330
0
100
AcDbSymbolTable
 70
     0
  0
ENDTAB
  0
TABLE
  2
APPID
  5
9
330
0
100
AcDbSymbolTable
 70
     1
  0
APPID
  5
12
330
9
100
AcDbSymbolTableRecord
100
AcDbRegAppTableRecord
  2
ACAD
 70
     0
  0
ENDTAB
  0
TABLE
  2
DIMSTYLE
  5
A
330
0
100
AcDbSymbolTable
 70
     3
100
AcDbDimStyleTable
  0
DIMSTYLE
105
27
330
A
100
AcDbSymbolTableRecord
100
AcDbDimStyleTableRecord
  2
ISO-25
 70
     0
 41
2.5
 42
0.625
 43
3.75
 44
1.25
 73
     0
 74
     0
 77
     1
 78
     8
140
2.5
141
2.5
143
0.03937007874016
147
0.625
171
     3
172
     1
178
     0
271
     2
272
     2
274
     3
278
    44
283
     0
284
     8
340
11
  0
DIMSTYLE
105
CB
102
{ACAD_REACTORS
330
CA
330
DF
102
}
330
A
100
AcDbSymbolTableRecord
100
AcDbDimStyleTableRecord
  2
SLDDIMSTYLE0
 70
     0
 41
3.302
 44
0.0
 45
0.000000001
 73
     0
 74
     0
 77
     1
 78
    12
 79
     3
140
3.5
143
0.0393700787401575
147
0.875
148
0.000000001
170
     1
173
     1
178
     0
271
     2
272
     2
276
     2
284
    12
340
94
  0
DIMSTYLE
105
F3
102
{ACAD_REACTORS
330
F2
330
107
102
}
330
A
100
AcDbSymbolTableRecord
100
AcDbDimStyleTableRecord
  2
SLDDIMSTYLE1
 70
     0
 41
3.302
 44
0.0
 45
0.000000001
 73
     0
 74
     0
 77
     1
 78
    12
 79
     3
140
3.5
143
0.0393700787401575
147
0.875
148
0.000000001
170
     1
172
     1
173
     1
178
     0
271
     2
272
     2
276
     2
284
    12
289
     0
340
94
  0
ENDTAB
  0
TABLE
  2
BLOCK_RECORD
  5
1
330
0
100
AcDbSymbolTable
 70
     8
  0
BLOCK_RECORD
  5
1F
330
1
100
AcDbSymbolTableRecord
100
AcDbBlockTableRecord
  2
*Model_Space
340
22
  0
BLOCK_RECORD
  5
1B
330
1
100
AcDbSymbolTableRecord
100
AcDbBlockTableRecord
  2
*Paper_Space
340
1E
  0
BLOCK_RECORD
  5
23
330
1
100
AcDbSymbolTableRecord
100
AcDbBlockTableRecord
  2
*Paper_Space0
340
26
  0
BLOCK_RECORD
  5
7F
330
1
100
AcDbSymbolTableRecord
100
AcDbBlockTableRecord
  2
블럭10
340
0
102
{BLKREFS
331
C3
102
}
  0
BLOCK_RECORD
  5
CC
330
1
100
AcDbSymbolTableRecord
100
AcDbBlockTableRecord
  2
_D
340
0
  0
BLOCK_RECORD
  5
E0
330
1
100
AcDbSymbolTableRecord
100
AcDbBlockTableRecord
  2
_D_1
340
0
  0
BLOCK_RECORD
  5
F4
330
1
100
AcDbSymbolTableRecord
100
AcDbBlockTableRecord
  2
_D_2
340
0
  0
BLOCK_RECORD
  5
108
330
1
100
AcDbSymbolTableRecord
100
AcDbBlockTableRecord
  2
_D_3
340
0
  0
BLOCK_RECORD
  5
122
330
1
100
AcDbSymbolTableRecord
100
AcDbBlockTableRecord
  2
SW_DOWELSYMBOL_0
340
0
102
{BLKREFS
331
128
102
}
  0
ENDTAB
  0
ENDSEC
  0
SECTION
  2
BLOCKS
  0
BLOCK
  5
20
330
1F
100
AcDbEntity
  8
0
100
AcDbBlockBegin
  2
*Model_Space
 70
     0
 10
0.0
 20
0.0
 30
0.0
  3
*Model_Space
  1
*Model_Space
  0
ENDBLK
  5
21
330
1F
100
AcDbEntity
  8
0
100
AcDbBlockEnd
  0
BLOCK
  5
1C
330
1B
100
AcDbEntity
 67
     1
  8
0
100
AcDbBlockBegin
  2
*Paper_Space
 70
     0
 10
0.0
 20
0.0
 30
0.0
  3
*Paper_Space
  1
*Paper_Space
  0
ENDBLK
  5
1D
330
1B
100
AcDbEntity
 67
     1
  8
0
100
AcDbBlockEnd
  0
BLOCK
  5
24
330
23
100
AcDbEntity
  8
0
100
AcDbBlockBegin
  2
*Paper_Space0
 70
     0
 10
0.0
 20
0.0
 30
0.0
  3
*Paper_Space0
  1
*Paper_Space0
  0
ENDBLK
  5
25
330
23
100
AcDbEntity
  8
0
100
AcDbBlockEnd
  0
BLOCK
  5
80
330
7F
100
AcDbEntity
  8
0
100
AcDbBlockBegin
  2
블럭10
 70
     2
 10
0.0
 20
0.0
 30
0.0
  3
블럭10
  1
블럭10
  0
ELLIPSE
  5
82
330
7F
100
AcDbEntity
  8
중심선
100
AcDbEllipse
 10
20.54032771741204
 20
12.0471743016438
 30
0.0
 11
6.600054785286829
 21
-1.261213355974178E-13
 31
0.0
210
0.0
220
0.0
230
1.0
 40
0.636358354079598
 41
0.9219305317359503
 42
6.513795318482858
  0
ELLIPSE
  5
83
330
7F
100
AcDbEntity
  8
중심선
100
AcDbEllipse
 10
20.54032771746488
 20
12.04717430159265
 30
0.0
 11
3.960054785062283
 21
1.540847449632565E-10
 31
0.0
210
0.0
220
0.0
230
1.0
 40
0.3939339440162632
 41
1.131841032648279
 42
5.62031148352944
  0
LINE
  5
84
330
7F
100
AcDbEntity
  8
중심선
100
AcDbLine
 10
2.268634060543552
 20
16.24717430164393
 30
0.0
 11
5.714909304380834
 21
16.24717430164393
 31
0.0
  0
LINE
  5
85
330
7F
100
AcDbEntity
  8
중심선
100
AcDbLine
 10
5.245725140726316
 20
7.84717430164391
 30
0.0
 11
8.692000384563599
 21
7.84717430164391
 31
0.0
  0
LINE
  5
86
330
7F
100
AcDbEntity
  8
중심선
100
AcDbLine
 10
15.74043728645272
 20
16.24717430164393
 30
0.0
 11
8.692000384563599
 21
7.84717430164391
 31
0.0
  0
LINE
  5
87
330
7F
100
AcDbEntity
  8
중심선
100
AcDbLine
 10
0.1404042013395286
 20
13.71084872107135
 30
0.0
 11
3.58671253028996
 21
13.71088815037384
 31
0.0
  0
LINE
  5
88
330
7F
100
AcDbEntity
  8
중심선
100
AcDbLine
 10
2.750260043222114
 20
10.84717430164391
 30
0.0
 11
6.196535287059397
 21
10.84717430164391
 31
0.0
  0
LINE
  5
89
330
7F
100
AcDbEntity
  8
중심선
100
AcDbLine
 10
12.29416204261559
 20
16.24717430164393
 30
0.0
 11
5.245725140726316
 21
7.84717430164391
 31
0.0
  0
LINE
  5
8A
330
7F
100
AcDbEntity
  8
중심선
100
AcDbLine
 10
10.72767329541681
 20
16.24717430164393
 30
0.0
 11
6.196535287059397
 21
10.84717430164391
 31
0.0
  0
LINE
  5
8B
330
7F
100
AcDbEntity
  8
중심선
100
AcDbLine
 10
7.28139805157953
 20
16.24717430164393
 30
0.0
 11
2.750260043222114
 21
10.84717430164391
 31
0.0
  0
LINE
  5
8C
330
7F
100
AcDbEntity
  8
중심선
100
AcDbLine
 10
5.714909304380834
 20
16.24717430164393
 30
0.0
 11
3.58671253028996
 21
13.71088815037384
 31
0.0
  0
LINE
  5
8D
330
7F
100
AcDbEntity
  8
중심선
100
AcDbLine
 10
2.268634060543552
 20
16.24717430164393
 30
0.0
 11
0.1404042013395286
 21
13.71084872107135
 31
0.0
  0
LINE
  5
8E
330
7F
100
AcDbEntity
  8
중심선
100
AcDbLine
 10
7.28139805157953
 20
16.24717430164393
 30
0.0
 11
10.72767329541681
 21
16.24717430164393
 31
0.0
  0
LINE
  5
8F
330
7F
100
AcDbEntity
  8
중심선
100
AcDbLine
 10
12.29416204261559
 20
16.24717430164393
 30
0.0
 11
15.74043728645272
 21
16.24717430164393
 31
0.0
  0
LINE
  5
90
330
7F
100
AcDbEntity
  8
중심선
100
AcDbLine
 10
19.22036997980202
 20
11.08717430171403
 30
0.0
 11
23.66174974927406
 21
11.08717430171406
 31
0.0
  0
LINE
  5
91
330
7F
100
AcDbEntity
  8
중심선
100
AcDbLine
 10
19.22039502424796
 20
13.00717430171391
 30
0.0
 11
19.22036997980202
 21
11.08717430171403
 31
0.0
  0
LINE
  5
92
330
7F
100
AcDbEntity
  8
중심선
100
AcDbLine
 10
19.22039502424796
 20
13.00717430171391
 30
0.0
 11
26.96566020931264
 21
13.00717430171391
 31
0.0
  0
LINE
  5
93
330
7F
100
AcDbEntity
  8
중심선
100
AcDbLine
 10
22.22332737316547
 20
13.45928029700563
 30
0.0
 11
24.52862924686651
 21
15.39360700705356
 31
0.0
  0
ATTDEF
  5
95
330
7F
100
AcDbEntity
  8
FORMAT
 62
     2
100
AcDbText
 10
4.408487351596664
 20
2.075366912832191
 30
0.0
 40
4.233333333333333
  1
E2069008
 41
0.75
  7
SLDTEXTSTYLE0
 11
4.408487351596664
 21
-0.0412997538344756
 31
0.0
100
AcDbAttributeDefinition
  3

  2
AUTOATTR0
 70
     0
 74
     1
  0
ENDBLK
  5
81
330
7F
100
AcDbEntity
  8
0
100
AcDbBlockEnd
  0
BLOCK
  5
CD
330
CC
100
AcDbEntity
  8
0
100
AcDbBlockBegin
  2
_D
 70
     0
 10
0.0
 20
0.0
 30
0.0
  3
_D
  1
_D
  0
LINE
  5
CF
330
CC
100
AcDbEntity
  8
치수문자_일반주서
 62
     0
370
    -2
100
AcDbLine
 10
38.89375000000001
 20
1.377514629548141
 30
0.0
 11
38.89375000000001
 21
22.82277225922702
 31
0.0
  0
LINE
  5
D0
330
CC
100
AcDbEntity
  8
치수문자_일반주서
 62
     0
370
    -2
100
AcDbLine
 10
29.36874999999998
 20
1.649999999999994
 30
0.0
 11
29.36874999999998
 21
22.82277225922702
 31
0.0
  0
LINE
  5
D1
330
CC
100
AcDbEntity
  8
치수문자_일반주서
 62
     0
370
    -2
100
AcDbLine
 10
35.59175000000001
 20
22.82277225922702
 30
0.0
 11
32.67074999999998
 21
22.82277225922702
 31
0.0
  0
SOLID
  5
D2
330
CC
100
AcDbEntity
  8
치수문자_일반주서
 62
     0
100
AcDbTrace
 10
35.59175000000001
 20
22.27243892589368
 30
0.0
 11
35.59175000000001
 21
23.37310559256035
 31
0.0
 12
38.89375000000001
 22
22.82277225922702
 32
0.0
 13
38.89375000000001
 23
22.82277225922702
 33
0.0
  0
SOLID
  5
D3
330
CC
100
AcDbEntity
  8
치수문자_일반주서
 62
     0
100
AcDbTrace
 10
32.67074999999998
 20
23.37310559256035
 30
0.0
 11
32.67074999999998
 21
22.27243892589368
 31
0.0
 12
29.36874999999998
 22
22.82277225922702
 32
0.0
 13
29.36874999999998
 23
22.82277225922702
 33
0.0
  0
MTEXT
  5
D4
330
CC
100
AcDbEntity
  8
치수문자_일반주서
 62
     0
100
AcDbMText
 10
34.13124999999999
 20
27.19777225922702
 30
0.0
 40
3.5
 41
0.0
 71
     2
 72
     1
  1
\A1;9.53 [3/8]
  7
SLDTEXTSTYLE0
 73
     1
 44
1.0
  0
POINT
  5
D5
330
CC
100
AcDbEntity
  8
Defpoints
 62
     0
100
AcDbPoint
 10
38.89375000000001
 20
1.315014629548141
 30
0.0
  0
POINT
  5
D6
330
CC
100
AcDbEntity
  8
Defpoints
 62
     0
100
AcDbPoint
 10
29.36874999999998
 20
1.587499999999994
 30
0.0
  0
POINT
  5
D7
330
CC
100
AcDbEntity
  8
Defpoints
 62
     0
100
AcDbPoint
 10
29.36874999999998
 20
22.82277225922702
 30
0.0
  0
ENDBLK
  5
CE
330
CC
100
AcDbEntity
  8
0
100
AcDbBlockEnd
  0
BLOCK
  5
E1
330
E0
100
AcDbEntity
  8
0
100
AcDbBlockBegin
  2
_D_1
 70
     0
 10
0.0
 20
0.0
 30
0.0
  3
_D_1
  1
_D_1
  0
LINE
  5
E3
330
E0
100
AcDbEntity
  8
치수문자_일반주서
 62
     0
370
    -2
100
AcDbLine
 10
38.89375000000001
 20
1.377514629548141
 30
0.0
 11
38.89375000000001
 21
35.75282056895202
 31
0.0
  0
LINE
  5
E4
330
E0
100
AcDbEntity
  8
치수문자_일반주서
 62
     0
370
    -2
100
AcDbLine
 10
-38.89375000000003
 20
3.87250000000001
 30
0.0
 11
-38.89375000000003
 21
35.75282056895202
 31
0.0
  0
LINE
  5
E5
330
E0
100
AcDbEntity
  8
치수문자_일반주서
 62
     0
370
    -2
100
AcDbLine
 10
35.59175000000001
 20
35.75282056895202
 30
0.0
 11
-35.59175000000003
 21
35.75282056895202
 31
0.0
  0
SOLID
  5
E6
330
E0
100
AcDbEntity
  8
치수문자_일반주서
 62
     0
100
AcDbTrace
 10
35.59175000000001
 20
35.20248723561868
 30
0.0
 11
35.59175000000001
 21
36.30315390228535
 31
0.0
 12
38.89375000000001
 22
35.75282056895202
 32
0.0
 13
38.89375000000001
 23
35.75282056895202
 33
0.0
  0
SOLID
  5
E7
330
E0
100
AcDbEntity
  8
치수문자_일반주서
 62
     0
100
AcDbTrace
 10
-35.59175000000003
 20
36.30315390228535
 30
0.0
 11
-35.59175000000003
 21
35.20248723561868
 31
0.0
 12
-38.89375000000003
 22
35.75282056895202
 32
0.0
 13
-38.89375000000003
 23
35.75282056895202
 33
0.0
  0
MTEXT
  5
E8
330
E0
100
AcDbEntity
  8
치수문자_일반주서
 62
     0
100
AcDbMText
 10
-0.0000000000000053
 20
40.12782056895202
 30
0.0
 40
3.5
 41
0.0
 71
     2
 72
     1
  1
\A1;77.79 [3 1/16]
  7
SLDTEXTSTYLE0
 73
     1
 44
1.0
  0
POINT
  5
E9
330
E0
100
AcDbEntity
  8
Defpoints
 62
     0
100
AcDbPoint
 10
38.89375000000001
 20
1.315014629548141
 30
0.0
  0
POINT
  5
EA
330
E0
100
AcDbEntity
  8
Defpoints
 62
     0
100
AcDbPoint
 10
-38.89375000000003
 20
3.81000000000001
 30
0.0
  0
POINT
  5
EB
330
E0
100
AcDbEntity
  8
Defpoints
 62
     0
100
AcDbPoint
 10
-38.89375000000003
 20
35.75282056895202
 30
0.0
  0
ENDBLK
  5
E2
330
E0
100
AcDbEntity
  8
0
100
AcDbBlockEnd
  0
BLOCK
  5
F5
330
F4
100
AcDbEntity
  8
0
100
AcDbBlockBegin
  2
_D_2
 70
     0
 10
0.0
 20
0.0
 30
0.0
  3
_D_2
  1
_D_2
  0
LINE
  5
F7
330
F4
100
AcDbEntity
  8
치수문자_일반주서
 62
     0
370
    -2
100
AcDbLine
 10
30.63471009191471
 20
1.587499999999981
 30
0.0
 11
57.89375000000003
 21
1.587500000000084
 31
0.0
  0
LINE
  5
F8
330
F4
100
AcDbEntity
  8
치수문자_일반주서
 62
     0
370
    -2
100
AcDbLine
 10
30.63471009191472
 20
-1.587499999999976
 30
0.0
 11
57.89375000000004
 21
-1.587499999999874
 31
0.0
  0
LINE
  5
F9
330
F4
100
AcDbEntity
  8
치수문자_일반주서
 62
     0
370
    -2
100
AcDbLine
 10
57.89375000000003
 20
1.587500000000084
 30
0.0
 11
57.89374999999988
 21
32.69150000000008
 31
0.0
  0
LINE
  5
FA
330
F4
100
AcDbEntity
  8
치수문자_일반주서
 62
     0
370
    -2
100
AcDbLine
 10
57.89375000000003
 20
1.587500000000084
 30
0.0
 11
57.89375000000004
 21
-1.587499999999874
 31
0.0
  0
LINE
  5
FB
330
F4
100
AcDbEntity
  8
치수문자_일반주서
 62
     0
370
    -2
100
AcDbLine
 10
57.89375000000001
 20
4.889500000000083
 30
0.0
 11
57.89375
 21
8.191500000000083
 31
0.0
  0
LINE
  5
FC
330
F4
100
AcDbEntity
  8
치수문자_일반주서
 62
     0
370
    -2
100
AcDbLine
 10
57.89375000000005
 20
-4.889499999999874
 30
0.0
 11
57.89375000000007
 21
-8.191499999999873
 31
0.0
  0
SOLID
  5
FD
330
F4
100
AcDbEntity
  8
치수문자_일반주서
 62
     0
100
AcDbTrace
 10
57.34341666666668
 20
4.889500000000081
 30
0.0
 11
58.44408333333335
 21
4.889500000000086
 31
0.0
 12
57.89375000000003
 22
1.587500000000084
 32
0.0
 13
57.89375000000003
 23
1.587500000000084
 33
0.0
  0
SOLID
  5
FE
330
F4
100
AcDbEntity
  8
치수문자_일반주서
 62
     0
100
AcDbTrace
 10
58.44408333333339
 20
-4.889499999999871
 30
0.0
 11
57.34341666666672
 21
-4.889499999999877
 31
0.0
 12
57.89375000000004
 22
-1.587499999999874
 32
0.0
 13
57.89375000000004
 23
-1.587499999999874
 33
0.0
  0
MTEXT
  5
FF
330
F4
100
AcDbEntity
  8
치수문자_일반주서
 62
     0
100
AcDbMText
 10
53.51874999999994
 20
20.44150000000007
 30
0.0
 40
3.5
 41
0.0
 71
     2
 72
     1
  1
\A1;%%c3.18 [1/8]
  7
SLDTEXTSTYLE0
 11
-4.475859752819589E-15
 21
1.0
 31
0.0
 73
     1
 44
1.0
  0
POINT
  5
100
330
F4
100
AcDbEntity
  8
Defpoints
 62
     0
100
AcDbPoint
 10
30.57221009191471
 20
1.58749999999998
 30
0.0
  0
POINT
  5
101
330
F4
100
AcDbEntity
  8
Defpoints
 62
     0
100
AcDbPoint
 10
30.57221009191472
 20
-1.587499999999976
 30
0.0
  0
POINT
  5
102
330
F4
100
AcDbEntity
  8
Defpoints
 62
     0
100
AcDbPoint
 10
57.89375000000004
 20
-1.587499999999874
 30
0.0
  0
ENDBLK
  5
F6
330
F4
100
AcDbEntity
  8
0
100
AcDbBlockEnd
  0
BLOCK
  5
109
330
108
100
AcDbEntity
  8
0
100
AcDbBlockBegin
  2
_D_3
 70
     0
 10
0.0
 20
0.0
 30
0.0
  3
_D_3
  1
_D_3
  0
LINE
  5
10B
330
108
100
AcDbEntity
  8
치수문자_일반주서
 62
     0
370
    -2
100
AcDbLine
 10
-16.58198868596876
 20
4.762500000000007
 30
0.0
 11
-51.89375000000006
 21
4.762499999999876
 31
0.0
  0
LINE
  5
10C
330
108
100
AcDbEntity
  8
치수문자_일반주서
 62
     0
370
    -2
100
AcDbLine
 10
-16.58198868596877
 20
-4.762500000000003
 30
0.0
 11
-51.89375000000003
 21
-4.762500000000134
 31
0.0
  0
LINE
  5
10D
330
108
100
AcDbEntity
  8
치수문자_일반주서
 62
     0
370
    -2
100
AcDbLine
 10
-51.89375000000005
 20
1.460499999999876
 30
0.0
 11
-51.89375000000004
 21
-1.460500000000135
 31
0.0
  0
SOLID
  5
10E
330
108
100
AcDbEntity
  8
치수문자_일반주서
 62
     0
100
AcDbTrace
 10
-51.34341666666671
 20
1.460499999999878
 30
0.0
 11
-52.44408333333338
 21
1.460499999999874
 31
0.0
 12
-51.89375000000006
 22
4.762499999999876
 32
0.0
 13
-51.89375000000006
 23
4.762499999999876
 33
0.0
  0
SOLID
  5
10F
330
108
100
AcDbEntity
  8
치수문자_일반주서
 62
     0
100
AcDbTrace
 10
-52.44408333333337
 20
-1.460500000000137
 30
0.0
 11
-51.34341666666671
 21
-1.460500000000133
 31
0.0
 12
-51.89375000000003
 22
-4.762500000000134
 32
0.0
 13
-51.89375000000003
 23
-4.762500000000134
 33
0.0
  0
MTEXT
  5
110
330
108
100
AcDbEntity
  8
치수문자_일반주서
 62
     0
100
AcDbMText
 10
-56.26875000000005
 20
-0.0000000000000135
 30
0.0
 40
3.5
 41
0.0
 71
     2
 72
     1
  1
\A1;%%c9.53 [3/8]
  7
SLDTEXTSTYLE0
 11
-3.729883127349603E-15
 21
1.0
 31
0.0
 73
     1
 44
1.0
  0
POINT
  5
111
330
108
100
AcDbEntity
  8
Defpoints
 62
     0
100
AcDbPoint
 10
-16.51948868596876
 20
4.762500000000007
 30
0.0
  0
POINT
  5
112
330
108
100
AcDbEntity
  8
Defpoints
 62
     0
100
AcDbPoint
 10
-16.51948868596877
 20
-4.762500000000003
 30
0.0
  0
POINT
  5
113
330
108
100
AcDbEntity
  8
Defpoints
 62
     0
100
AcDbPoint
 10
-51.89375000000003
 20
-4.762500000000135
 30
0.0
  0
ENDBLK
  5
10A
330
108
100
AcDbEntity
  8
0
100
AcDbBlockEnd
  0
BLOCK
  5
123
330
122
100
AcDbEntity
  8
0
100
AcDbBlockBegin
  2
SW_DOWELSYMBOL_0
 70
     0
 10
0.0
 20
0.0
 30
0.0
  3
SW_DOWELSYMBOL_0
  1
SW_DOWELSYMBOL_0
  0
CIRCLE
  5
125
330
122
100
AcDbEntity
  8
해칭선
 62
     0
100
AcDbCircle
 10
0.0
 20
0.0
 30
0.0
 40
3.000000000000001
  0
HATCH
  5
126
330
122
100
AcDbEntity
  8
0
  6
Continuous
 62
     0
370
     0
100
AcDbHatch
 10
0.0
 20
0.0
 30
0.0
210
0.0
220
0.0
230
1.0
  2
SOLID
 70
     1
 71
     0
 91
        1
 92
        0
 93
        3
 72
     2
 10
-0.0000000000000139
 20
0.0
 40
3.000000000000001
 50
0.0
 51
90.0
 73
     1
 72
     1
 10
-0.0000000000000139
 20
3.000000000000001
 11
-0.0000000000000139
 21
0.0
 72
     1
 10
-0.0000000000000139
 20
0.0
 11
2.999999999999988
 21
0.0
 97
        0
 75
     0
 76
     1
 98
        1
 10
0.0
 20
0.0
  0
HATCH
  5
127
330
122
100
AcDbEntity
  8
0
  6
Continuous
 62
     0
370
     0
100
AcDbHatch
 10
0.0
 20
0.0
 30
0.0
210
0.0
220
0.0
230
1.0
  2
SOLID
 70
     1
 71
     0
 91
        1
 92
        0
 93
        3
 72
     2
 10
-0.0000000000000139
 20
0.0
 40
3.000000000000001
 50
180.0
 51
270.0000000000008
 73
     1
 72
     1
 10
-0.0000000000000139
 20
-3.000000000000001
 11
-0.0000000000000139
 21
0.0
 72
     1
 10
-0.0000000000000139
 20
0.0
 11
-3.000000000000015
 21
0.0
 97
        0
 75
     0
 76
     1
 98
        1
 10
0.0
 20
0.0
  0
ENDBLK
  5
124
330
122
100
AcDbEntity
  8
0
100
AcDbBlockEnd
  0
ENDSEC
  0
SECTION
  2
ENTITIES
  0
LINE
  5
96
330
1F
100
AcDbEntity
  8
외형선
  6
Continuous
 62
     1
370
    15
100
AcDbLine
 10
33.92250506779159
 20
-1.587499999999976
 30
0.0
 11
34.8904572277188
 21
-1.587499999999976
 31
0.0
  0
LINE
  5
97
330
1F
100
AcDbEntity
  8
외형선
  6
Continuous
 62
     1
370
    15
100
AcDbLine
 10
30.57205048350765
 20
1.58749999999998
 30
0.0
 11
29.60387056008965
 21
1.58749999999998
 31
0.0
  0
ARC
  5
98
330
1F
100
AcDbEntity
  8
외형선
  6
Continuous
 62
     1
370
    15
100
AcDbCircle
 10
37.30625000000005
 20
0.0000000000000067
 30
0.0
 40
1.58749999999995
100
AcDbArc
 50
310.346330251666
 51
0.0
  0
ARC
  5
99
330
1F
100
AcDbEntity
  8
외형선
  6
Continuous
 62
     1
370
    15
100
AcDbCircle
 10
37.30625000000005
 20
0.0000000000000067
 30
0.0
 40
1.587499999999953
100
AcDbArc
 50
0.0
 51
49.49555462379218
  0
LINE
  5
9A
330
1F
100
AcDbEntity
  8
외형선
  6
Continuous
 62
     1
370
    15
100
AcDbLine
 10
34.89045722771881
 20
1.58749999999998
 30
0.0
 11
33.92250506779158
 21
1.58749999999998
 31
0.0
  0
LINE
  5
9B
330
1F
100
AcDbEntity
  8
외형선
  6
Continuous
 62
     1
370
    15
100
AcDbLine
 10
29.60387056008965
 20
-1.587499999999976
 30
0.0
 11
33.78388289343864
 21
-1.587499999999965
 31
0.0
  0
LINE
  5
9C
330
1F
100
AcDbEntity
  8
외형선
  6
Continuous
370
    15
100
AcDbLine
 10
-16.51948868596877
 20
-4.762500000000003
 30
0.0
 11
16.51948868596876
 21
-4.762500000000003
 31
0.0
  0
LINE
  5
9D
330
1F
100
AcDbEntity
  8
외형선
  6
Continuous
370
    15
100
AcDbLine
 10
16.51948868596876
 20
4.762500000000006
 30
0.0
 11
4.838700000000021
 21
4.762500000000006
 31
0.0
  0
LINE
  5
9E
330
1F
100
AcDbEntity
  8
외형선
  6
Continuous
370
    15
100
AcDbLine
 10
16.51948868596876
 20
-4.762500000000006
 30
0.0
 11
28.36874999999995
 21
-1.587499999999998
 31
0.0
  0
LINE
  5
9F
330
1F
100
AcDbEntity
  8
외형선
  6
Continuous
370
    15
100
AcDbLine
 10
28.36874999999995
 20
1.587500000000002
 30
0.0
 11
16.51948868596876
 21
4.76250000000001
 31
0.0
  0
LINE
  5
A2
330
1F
100
AcDbEntity
  8
외형선
  6
Continuous
370
    15
100
AcDbLine
 10
28.36874999999995
 20
-1.587499999999998
 30
0.0
 11
29.36874999999995
 21
-1.587499999999998
 31
0.0
  0
LINE
  5
A3
330
1F
100
AcDbEntity
  8
외형선
  6
Continuous
370
    15
100
AcDbLine
 10
29.36874999999995
 20
1.587500000000002
 30
0.0
 11
28.36874999999995
 21
1.587500000000002
 31
0.0
  0
SPLINE
  5
A4
330
1F
100
AcDbEntity
  8
외형선
  6
Continuous
 62
     1
370
    15
100
AcDbSpline
210
0.0
220
0.0
230
1.0
 70
     8
 71
     3
 72
    11
 73
     7
 74
     0
 42
0.000000001
 43
0.00000001
 40
0.0
 40
0.0
 40
0.0
 40
0.0
 40
0.2258102139884237
 40
0.4838722459978884
 40
0.7419355213902504
 40
1.0
 40
1.0
 40
1.0
 40
1.0
 10
33.92250506779159
 20
1.578794708152354
 30
0.0
 10
34.17719935591022
 20
1.570520411572083
 30
0.0
 10
34.72296517871354
 20
1.552790024626195
 30
0.0
 10
35.55980501702241
 20
1.333544302007621
 30
0.0
 10
36.43302560657993
 20
0.9902666962838885
 30
0.0
 10
37.01517474981699
 20
0.6834095397791737
 30
0.0
 10
37.30625000000005
 20
0.52998060384806
 30
0.0
  0
SPLINE
  5
A5
330
1F
100
AcDbEntity
  8
외형선
  6
Continuous
 62
     1
370
    15
100
AcDbSpline
210
0.0
220
0.0
230
1.0
 70
     8
 71
     3
 72
    28
 73
    24
 74
     0
 42
0.000000001
 43
0.00000001
 40
0.0
 40
0.0
 40
0.0
 40
0.0
 40
0.1250000000000001
 40
0.1250000000000001
 40
0.1875000000000042
 40
0.1875000000000042
 40
0.2500000000000083
 40
0.2500000000000083
 40
0.3750000000000095
 40
0.3750000000000095
 40
0.4375000000000102
 40
0.4375000000000102
 40
0.5000000000000108
 40
0.5000000000000108
 40
0.5625000000000114
 40
0.5625000000000114
 40
0.625000000000012
 40
0.625000000000012
 40
0.750000000000008
 40
0.750000000000008
 40
0.875000000000004
 40
0.875000000000004
 40
1.0
 40
1.0
 40
1.0
 40
1.0
 10
37.30625000000005
 20
0.5299806038480505
 30
0.0
 10
37.46746874670273
 20
0.4421843894080562
 30
0.0
 10
37.62937786776783
 20
0.352150745583977
 30
0.0
 10
37.87093661781593
 20
0.2261473928196741
 30
0.0
 10
37.94927125983496
 20
0.1864123724320762
 30
0.0
 10
38.10156090943617
 20
0.1110169409280351
 30
0.0
 10
38.17632614880777
 20
0.0753513635773928
 30
0.0
 10
38.38597064299452
 20
-0.0254996094225081
 30
0.0
 10
38.50897287875125
 20
-0.0848771654416044
 30
0.0
 10
38.6467702190144
 20
-0.1908305530841891
 30
0.0
 10
38.68500647477676
 20
-0.2291750304162
 30
0.0
 10
38.74096451028353
 20
-0.3208275956356648
 30
0.0
 10
38.75811155950149
 20
-0.3735940727270027
 30
0.0
 10
38.76356231114838
 20
-0.4997648600146261
 30
0.0
 10
38.75110690105117
 20
-0.573804562955472
 30
0.0
 10
38.69521215663504
 20
-0.7308492207037953
 30
0.0
 10
38.65131301644688
 20
-0.8147760480989689
 30
0.0
 10
38.49132329283587
 20
-1.045085397997318
 30
0.0
 10
38.35373856684974
 20
-1.162981339735095
 30
0.0
 10
38.07349867901231
 20
-1.302774912758427
 30
0.0
 10
37.92622439991554
 20
-1.32934157392277
 30
0.0
 10
37.62430510117522
 20
-1.318580631663662
 30
0.0
 10
37.46744995857321
 20
-1.281370498073589
 30
0.0
 10
37.30625000000005
 20
-1.221917740792799
 30
0.0
  0
SPLINE
  5
A6
330
1F
100
AcDbEntity
  8
외형선
  6
Continuous
 62
     1
370
    15
100
AcDbSpline
210
0.0
220
0.0
230
1.0
 70
     8
 71
     3
 72
    15
 73
    11
 74
     0
 42
0.000000001
 43
0.00000001
 40
0.0
 40
0.0
 40
0.0
 40
0.0
 40
0.1320199195460457
 40
0.2640352309449114
 40
0.3960455447497204
 40
0.5280504735331917
 40
0.6600496320397399
 40
0.7897109155751194
 40
0.9193713267134873
 40
0.9999999999999999
 40
0.9999999999999999
 40
0.9999999999999999
 40
0.9999999999999999
 10
37.30625000000006
 20
-1.221917740792818
 30
0.0
 10
37.00989219476561
 20
-1.100288648996414
 30
0.0
 10
36.41718692864763
 20
-0.8570347108595809
 30
0.0
 10
35.52815319810287
 20
-0.3694208142021056
 30
0.0
 10
34.63915915826793
 20
0.1475122832958305
 30
0.0
 10
33.75020971827129
 20
0.6510917185722392
 30
0.0
 10
32.86653719985084
 20
1.085797731623336
 30
0.0
 10
31.9881492339873
 20
1.400890728689841
 30
0.0
 10
31.22506735697569
 20
1.573819286621321
 30
0.0
 10
30.75303594330096
 20
1.57013496833611
 30
0.0
 10
30.57205048350765
 20
1.568722333457252
 30
0.0
  0
SPLINE
  5
A7
330
1F
100
AcDbEntity
  8
외형선
  6
Continuous
 62
     1
370
    15
100
AcDbSpline
210
0.0
220
0.0
230
1.0
 70
     8
 71
     3
 72
    36
 73
    32
 74
     0
 42
0.000000001
 43
0.00000001
 40
0.0
 40
0.0
 40
0.0
 40
0.0
 40
0.0625
 40
0.0625
 40
0.125
 40
0.125
 40
0.1875
 40
0.1875
 40
0.25
 40
0.25
 40
0.3125
 40
0.3125
 40
0.375
 40
0.375
 40
0.5
 40
0.5
 40
0.5625
 40
0.5625
 40
0.625
 40
0.625
 40
0.6875
 40
0.6875
 40
0.75
 40
0.75
 40
0.8125
 40
0.8125
 40
0.875
 40
0.875
 40
0.9375
 40
0.9375
 40
1.0
 40
1.0
 40
1.0
 40
1.0
 10
29.36874999999997
 20
1.581662114051194
 30
0.0
 10
29.53209963116451
 20
1.589809840975981
 30
0.0
 10
29.69895470217354
 20
1.589432927708357
 30
0.0
 10
30.03163829005835
 20
1.571339162726988
 30
0.0
 10
30.19522394423218
 20
1.553756906893049
 30
0.0
 10
30.5250077562056
 20
1.501952838362
 30
0.0
 10
30.69238146468411
 20
1.467579543642051
 30
0.0
 10
31.02397283854578
 20
1.383471510010547
 30
0.0
 10
31.18657097079986
 20
1.333985091717303
 30
0.0
 10
31.51837866610662
 20
1.22045098968886
 30
0.0
 10
31.68571368303171
 20
1.156522054139067
 30
0.0
 10
32.01513255100892
 20
1.017534453352076
 30
0.0
 10
32.17903576718821
 20
0.9422787916390664
 30
0.0
 10
32.67815916113774
 20
0.7012440380677819
 30
0.0
 10
33.0059019046298
 20
0.5225283320529148
 30
0.0
 10
33.50479775640005
 20
0.2420286448630435
 30
0.0
 10
33.66810974708754
 20
0.1472703578356359
 30
0.0
 10
33.99823809860409
 20
-0.0434754641321241
 30
0.0
 10
34.16563977655963
 20
-0.1395777295229534
 30
0.0
 10
34.49699404660268
 20
-0.3285725700479156
 30
0.0
 10
34.65963628363079
 20
-0.4212303451145263
 30
0.0
 10
34.99163947261177
 20
-0.6022317572974608
 30
0.0
 10
35.15892508423153
 20
-0.6901537051230671
 30
0.0
 10
35.48795867975418
 20
-0.8566375579962766
 30
0.0
 10
35.65222329020629
 20
-0.9356588144881643
 30
0.0
 10
35.98501653520051
 20
-1.083343635711767
 30
0.0
 10
36.15073801586547
 20
-1.151557107266897
 30
0.0
 10
36.47839712118888
 20
-1.274371993985499
 30
0.0
 10
36.64545162240359
 20
-1.329585094826128
 30
0.0
 10
36.97794150977447
 20
-1.424743782697755
 30
0.0
 10
37.14102379261699
 20
-1.464554034259955
 30
0.0
 10
37.30625000000005
 20
-1.496421334232034
 30
0.0
  0
SPLINE
  5
A8
330
1F
100
AcDbEntity
  8
외형선
  6
Continuous
 62
     1
370
    15
100
AcDbSpline
210
0.0
220
0.0
230
1.0
 70
     8
 71
     3
 72
    12
 73
     8
 74
     0
 42
0.000000001
 43
0.00000001
 40
0.0
 40
0.0
 40
0.0
 40
0.0
 40
0.2048462817059159
 40
0.4156845792301909
 40
0.6187321073251292
 40
0.8279526816175102
 40
1.0
 40
1.0
 40
1.0
 40
1.0
 10
37.30625000000005
 20
-1.496421334232005
 30
0.0
 10
37.37916410582572
 20
-1.506518268340326
 30
0.0
 10
37.52712514835812
 20
-1.527007484797561
 30
0.0
 10
37.75019181257196
 20
-1.503531962344679
 30
0.0
 10
37.96949287340779
 20
-1.438488211862701
 30
0.0
 10
38.16723602892176
 20
-1.340902357956172
 30
0.0
 10
38.28097476048693
 20
-1.249650310150874
 30
0.0
 10
38.33229941734364
 20
-1.208472780063913
 30
0.0
  0
SPLINE
  5
A9
330
1F
100
AcDbEntity
  8
외형선
  6
Continuous
 62
     1
370
    15
100
AcDbSpline
210
0.0
220
0.0
230
1.0
 70
     8
 71
     3
 72
    16
 73
    12
 74
     0
 42
0.000000001
 43
0.00000001
 40
0.0
 40
0.0
 40
0.0
 40
0.0
 40
0.0207386036174035
 40
0.1442517985727838
 40
0.2677603177916705
 40
0.3912637987980748
 40
0.5147618811478282
 40
0.6360726535254586
 40
0.7573826096906341
 40
0.87869173128588
 40
1.0
 40
1.0
 40
1.0
 40
1.0
 10
36.56645319248078
 20
-1.292815074788087
 30
0.0
 10
36.51669473322832
 20
-1.312088480164383
 30
0.0
 10
36.17058911426788
 20
-1.446148778603183
 30
0.0
 10
35.52815347737935
 20
-1.564816158136003
 30
0.0
 10
34.63915908429736
 20
-1.610615994551467
 30
0.0
 10
33.7502097348927
 20
-1.47774620557748
 30
0.0
 10
32.86653720738438
 20
-1.196605936788528
 30
0.0
 10
31.98814918853243
 20
-0.7947578715536661
 30
0.0
 10
31.11500867182347
 20
-0.3173350636999309
 30
0.0
 10
30.24187671407649
 20
0.1967105605637592
 30
0.0
 10
29.65979155595092
 20
0.5142605754203972
 30
0.0
 10
29.36874999999997
 20
0.6730350247015574
 30
0.0
  0
SPLINE
  5
AA
330
1F
100
AcDbEntity
  8
외형선
  6
Continuous
 62
     1
370
    15
100
AcDbSpline
210
0.0
220
0.0
230
1.0
 70
     8
 71
     3
 72
    13
 73
     9
 74
     0
 42
0.000000001
 43
0.00000001
 40
0.0
 40
0.0
 40
0.0
 40
0.0
 40
0.1951894900350603
 40
0.3903883551815959
 40
0.5855960309080108
 40
0.7808119491414727
 40
0.9760355384886061
 40
1.0
 40
1.0
 40
1.0
 40
1.0
 10
29.36874999999997
 20
0.1360191419435227
 30
0.0
 10
29.66502585334034
 20
-0.0358740936122635
 30
0.0
 10
30.25759179039353
 20
-0.3796688208970803
 30
0.0
 10
31.14647172893858
 20
-0.8587258275164078
 30
0.0
 10
32.03540062940263
 20
-1.252021527013538
 30
0.0
 10
32.92436910055118
 20
-1.49994751274934
 30
0.0
 10
33.55342295628255
 20
-1.607296150999833
 30
0.0
 10
33.8861293216823
 20
-1.581603734156154
 30
0.0
 10
33.9225050677916
 20
-1.578794708152349
 30
0.0
  0
SPLINE
  5
AC
330
1F
100
AcDbEntity
  8
외형선
  6
Continuous
 62
     1
370
    15
100
AcDbSpline
210
0.0
220
0.0
230
1.0
 70
     8
 71
     3
 72
     9
 73
     5
 74
     0
 42
0.000000001
 43
0.00000001
 40
0.0
 40
0.0
 40
0.0
 40
0.0
 40
0.2743913807481602
 40
1.0
 40
1.0
 40
1.0
 40
1.0
 10
30.57205048350766
 20
-1.568722333457248
 30
0.0
 10
30.46199192355121
 20
-1.573886460792733
 30
0.0
 10
30.06089127798299
 20
-1.592706757995234
 30
0.0
 10
29.65979147455068
 20
-1.502919529116572
 30
0.0
 10
29.36874999999995
 20
-1.437769141943477
 30
0.0
  0
LINE
  5
AD
330
1F
100
AcDbEntity
  8
외형선
  6
Continuous
370
    15
100
AcDbLine
 10
29.36874999999995
 20
0.1360191419435229
 30
0.0
 11
29.36874999999995
 21
0.6730350247015573
 31
0.0
  0
SPLINE
  5
AE
330
1F
100
AcDbEntity
  8
외형선
  6
Continuous
 62
     1
370
    15
100
AcDbSpline
210
0.0
220
0.0
230
1.0
 70
     8
 71
     3
 72
    28
 73
    24
 74
     0
 42
0.000000001
 43
0.00000001
 40
0.0
 40
0.0
 40
0.0
 40
0.0
 40
0.1250000000000003
 40
0.1250000000000003
 40
0.1875000000000045
 40
0.1875000000000045
 40
0.2500000000000087
 40
0.2500000000000087
 40
0.3750000000000099
 40
0.3750000000000099
 40
0.4375000000000106
 40
0.4375000000000106
 40
0.5000000000000112
 40
0.5000000000000112
 40
0.5625000000000118
 40
0.5625000000000118
 40
0.6250000000000124
 40
0.6250000000000124
 40
0.7500000000000083
 40
0.7500000000000083
 40
0.8750000000000042
 40
0.8750000000000042
 40
1.0
 40
1.0
 40
1.0
 40
1.0
 10
37.30625000000005
 20
1.496421334232009
 30
0.0
 10
37.46746874670274
 20
1.527515712319288
 30
0.0
 10
37.62937786776781
 20
1.525160014182286
 30
0.0
 10
37.87093661781589
 20
1.469264195688435
 30
0.0
 10
37.94927125983493
 20
1.442348522419809
 30
0.0
 10
38.10156090943614
 20
1.372498076312296
 30
0.0
 10
38.17632614880779
 20
1.328904429803947
 30
0.0
 10
38.38597064299452
 20
1.178080480312455
 30
0.0
 10
38.50897287875122
 20
1.04900896420056
 30
0.0
 10
38.64677021901437
 20
0.8338153247246155
 30
0.0
 10
38.68500647477673
 20
0.7585163971838941
 30
0.0
 10
38.74096451028353
 20
0.6062191550606398
 30
0.0
 10
38.75811155950155
 20
0.5303932369018834
 30
0.0
 10
38.76356231114839
 20
0.3940398677240985
 30
0.0
 10
38.75110690105117
 20
0.3343545048869521
 30
0.0
 10
38.69521215663505
 20
0.2555379031655137
 30
0.0
 10
38.65131301644688
 20
0.2363109828401272
 30
0.0
 10
38.49132329283587
 20
0.2419063476209365
 30
0.0
 10
38.35373856684977
 20
0.3231208631436264
 30
0.0
 10
38.07349867901234
 20
0.5179497829835767
 30
0.0
 10
37.92622439991555
 20
0.6344697222116871
 30
0.0
 10
37.6243051011752
 20
0.8451361875646674
 30
0.0
 10
37.4674499585732
 20
0.9417637232651542
 30
0.0
 10
37.30625000000005
 20
1.013446241660429
 30
0.0
  0
LINE
  5
AF
330
1F
100
AcDbEntity
  8
외형선
  6
Continuous
 62
     1
370
    15
100
AcDbLine
 10
29.36874999999997
 20
-1.58166211405119
 30
0.0
 11
29.60387056008964
 21
-1.571414767981725
 31
0.0
  0
LINE
  5
B1
330
1F
100
AcDbEntity
  8
외형선
  6
Continuous
 62
     1
370
    15
100
AcDbLine
 10
36.56645319248078
 20
1.292815074788093
 30
0.0
 11
37.30625000000005
 21
1.496421334232038
 31
0.0
  0
SPLINE
  5
B2
330
1F
100
AcDbEntity
  8
외형선
  6
Continuous
 62
     1
370
    15
100
AcDbSpline
210
0.0
220
0.0
230
1.0
 70
     8
 71
     3
 72
    10
 73
     6
 74
     0
 42
0.000000001
 43
0.00000001
 40
0.0
 40
0.0
 40
0.0
 40
0.0
 40
0.368022640057493
 40
0.7360324343073515
 40
1.0
 40
1.0
 40
1.0
 40
1.0
 10
37.30625000000006
 20
1.013446241660451
 30
0.0
 10
37.00989224604028
 20
1.133736754129348
 30
0.0
 10
36.41718708246995
 20
1.374313580334196
 30
0.0
 10
35.61192284971072
 20
1.564593712947457
 30
0.0
 10
35.10301886908656
 20
1.568921592640914
 30
0.0
 10
34.8904572277188
 20
1.570729283769907
 30
0.0
  0
LINE
  5
B3
330
1F
100
AcDbEntity
  8
외형선
  6
Continuous
370
    15
100
AcDbLine
 10
29.36874999999995
 20
-1.58166211405119
 30
0.0
 11
29.36874999999995
 21
-1.437769141943477
 31
0.0
  0
LINE
  5
B4
330
1F
100
AcDbEntity
  8
외형선
  6
Continuous
370
    15
100
AcDbLine
 10
16.51948868596876
 20
0.000000000000002
 30
0.0
 11
16.51948868596876
 21
4.762500000000006
 31
0.0
  0
LINE
  5
B5
330
1F
100
AcDbEntity
  8
외형선
  6
Continuous
370
    15
100
AcDbLine
 10
16.51948868596876
 20
-4.762500000000003
 30
0.0
 11
16.51948868596876
 21
0.000000000000002
 31
0.0
  0
LINE
  5
B8
330
1F
100
AcDbEntity
  8
외형선
  6
Continuous
370
    15
100
AcDbLine
 10
28.36874999999995
 20
0.000000000000002
 30
0.0
 11
28.36874999999995
 21
1.587500000000002
 31
0.0
  0
LINE
  5
B9
330
1F
100
AcDbEntity
  8
외형선
  6
Continuous
370
    15
100
AcDbLine
 10
28.36874999999995
 20
-1.587499999999998
 30
0.0
 11
28.36874999999995
 21
0.000000000000002
 31
0.0
  0
LINE
  5
BC
330
1F
100
AcDbEntity
  8
외형선
  6
Continuous
370
    15
100
AcDbLine
 10
29.36874999999995
 20
0.000000000000002
 30
0.0
 11
29.36874999999995
 21
1.587500000000002
 31
0.0
  0
LINE
  5
BD
330
1F
100
AcDbEntity
  8
외형선
  6
Continuous
370
    15
100
AcDbLine
 10
29.36874999999995
 20
-1.587499999999998
 30
0.0
 11
29.36874999999995
 21
0.000000000000002
 31
0.0
  0
LINE
  5
C0
330
1F
100
AcDbEntity
  8
참조1
100
AcDbLine
 10
-0.0000000000000036
 20
0.000000000000002
 30
0.0
 11
0.0
 21
-39.99999999999999
 31
0.0
  0
LINE
  5
C1
330
1F
100
AcDbEntity
  8
참조1
100
AcDbLine
 10
0.0
 20
-39.99999999999999
 30
0.0
 11
-15.15885681430869
 21
-39.99999999999999
 31
0.0
  0
CIRCLE
  5
C2
330
1F
100
AcDbEntity
  8
해칭선
100
AcDbCircle
 10
0.0
 20
0.0
 30
0.0
 40
3.000000000000001
  0
INSERT
  5
C3
330
1F
100
AcDbEntity
  8
0
  6
Continuous
 62
     7
100
AcDbBlockReference
 66
     1
  2
블럭10
 10
-13.94027293212521
 20
-52.04717430164392
 30
0.0
  0
ATTRIB
  5
C4
330
C3
100
AcDbEntity
  8
FORMAT
 62
     2
100
AcDbText
 10
-23.12156822086649
 20
-49.97180738881173
 30
0.0
 40
4.233333333333333
  1
E2069008 [ 4 FLUTE ]
 41
0.75
  7
SLDTEXTSTYLE0
 11
-23.12156822086649
 21
-52.0884740554784
 31
0.0
100
AcDbAttribute
  2
AUTOATTR0
 70
     0
 74
     1
  0
SEQEND
  5
C5
330
C3
100
AcDbEntity
  8
0
  6
Continuous
 62
     7
  0
HATCH
  5
C6
330
1F
100
AcDbEntity
  8
중심선
100
AcDbHatch
 10
0.0
 20
0.0
 30
0.0
210
0.0
220
0.0
230
1.0
  2
SOLID
 70
     1
 71
     0
 91
        1
 92
        0
 93
        4
 72
     1
 10
-8.225363627744361
 20
-35.79999999999999
 11
-11.67163887158164
 21
-35.79999999999999
 72
     1
 10
-11.67163887158164
 20
-35.79999999999999
 11
-13.79986873078566
 21
-38.33632558057259
 72
     1
 10
-13.79986873078566
 20
-38.33632558057259
 11
-10.35356040183524
 21
-38.3362861512701
 72
     1
 10
-10.35356040183524
 20
-38.3362861512701
 11
-8.225363627744361
 21
-35.79999999999999
 97
        0
 75
     0
 76
     1
 98
        1
 10
14.51948868596879
 20
-0.0010749287238912
  0
HATCH
  5
C7
330
1F
100
AcDbEntity
  8
중심선
100
AcDbHatch
 10
0.0
 20
0.0
 30
0.0
210
0.0
220
0.0
230
1.0
  2
SOLID
 70
     1
 71
     0
 91
        1
 92
        0
 93
        4
 72
     1
 10
-3.212599636708383
 20
-35.80000000000002
 11
-6.658874880545635
 21
-35.79999999999997
 72
     1
 10
-6.658874880545635
 20
-35.79999999999997
 11
-11.19001288890308
 21
-41.20000000000001
 72
     1
 10
-11.19001288890308
 20
-41.20000000000001
 11
-7.743737645065796
 21
-41.20000000000001
 72
     1
 10
-7.743737645065796
 20
-41.20000000000001
 11
-3.212599636708383
 21
-35.80000000000002
 97
        0
 75
     0
 76
     1
 98
        1
 10
14.51948868596879
 20
-0.0010749287238912
  0
HATCH
  5
C8
330
1F
100
AcDbEntity
  8
중심선
100
AcDbHatch
 10
0.0
 20
0.0
 30
0.0
210
0.0
220
0.0
230
1.0
  2
SOLID
 70
     1
 71
     0
 91
        1
 92
        0
 93
        4
 72
     1
 10
1.800164354327487
 20
-35.80000000000002
 11
-1.646110889509629
 21
-35.79999999999999
 72
     1
 10
-1.646110889509629
 20
-35.79999999999999
 11
-8.694547791398879
 21
-44.20000000000001
 72
     1
 10
-8.694547791398879
 20
-44.20000000000001
 11
-5.248272547561594
 21
-44.20000000000001
 72
     1
 10
-5.248272547561594
 20
-44.20000000000001
 11
1.800164354327487
 21
-35.80000000000002
 97
        0
 75
     0
 76
     1
 98
        1
 10
14.51948868596879
 20
-0.0010749287238912
  0
HATCH
  5
C9
330
1F
100
AcDbEntity
  8
중심선
100
AcDbHatch
 10
0.0
 20
0.0
 30
0.0
210
0.0
220
0.0
230
1.0
  2
SOLID
 70
     1
 71
     0
 91
        1
 92
        0
 93
        6
 72
     3
 10
6.600054785339686
 20
-40.00000000005127
 11
3.960054785062284
 21
1.540882976769353E-10
 40
0.3939339440162627
 50
17.09539180608437
 51
320.0019657685081
 73
     0
 72
     1
 10
8.283054441040282
 20
-38.58789400463829
 11
10.58835631474132
 21
-36.6535672945904
 72
     3
 10
6.600054785286839
 20
-40.00000000000014
 11
6.60005478528683
 21
-1.278976924368180E-13
 40
0.636358354079598
 50
39.99873849337382
 51
368.4976242363725
 73
     1
 72
     1
 10
13.02538727718745
 20
-39.03999999993002
 11
5.280122092122761
 21
-39.03999999992999
 72
     1
 10
5.280122092122761
 20
-39.03999999992999
 11
5.280097047676827
 21
-40.95999999992991
 72
     1
 10
5.280097047676827
 20
-40.95999999992991
 11
9.721476817148865
 21
-40.95999999992988
 97
        0
 75
     0
 76
     1
 98
        1
 10
14.51948868596879
 20
-0.0010749287238912
  0
DIMENSION
  5
CA
330
1F
100
AcDbEntity
  8
치수문자_일반주서
100
AcDbDimension
  2
_D
 10
29.36874999999998
 20
22.82277225922702
 30
0.0
 11
34.13124999999999
 21
22.82277225922702
 31
0.0
 70
   160
  1
<>
 71
     2
 42
9.52500000000003
  3
SLDDIMSTYLE0
100
AcDbAlignedDimension
 13
38.89375000000001
 23
1.315014629548141
 33
0.0
 14
29.36874999999998
 24
1.587499999999994
 34
0.0
100
AcDbRotatedDimension
1001
ACAD
1000
DSTYLE
1002
{
1070
   171
1070
     6
1070
   273
1070
     7
1002
}
  0
DIMENSION
  5
DF
330
1F
100
AcDbEntity
  8
치수문자_일반주서
100
AcDbDimension
  2
_D_1
 10
-38.89375000000003
 20
35.75282056895202
 30
0.0
 11
-0.0000000000000053
 21
35.75282056895202
 31
0.0
 70
   160
  1
<>
 71
     2
 42
77.78750000000004
  3
SLDDIMSTYLE0
100
AcDbAlignedDimension
 13
38.89375000000001
 23
1.315014629548141
 33
0.0
 14
-38.89375000000003
 24
3.81000000000001
 34
0.0
 50
0.0000000000000052
100
AcDbRotatedDimension
1001
ACAD
1000
DSTYLE
1002
{
1070
   171
1070
     6
1070
   273
1070
     7
1002
}
  0
DIMENSION
  5
F2
330
1F
100
AcDbEntity
  8
치수문자_일반주서
100
AcDbDimension
  2
_D_2
 10
57.89375000000004
 20
-1.587499999999874
 30
0.0
 11
57.89374999999994
 21
20.44150000000008
 31
0.0
 70
   160
  1
%%c<>
 71
     2
 42
3.174999999999957
 52
-270.0
  3
SLDDIMSTYLE1
100
AcDbAlignedDimension
 13
30.57221009191471
 23
1.58749999999998
 33
0.0
 14
30.57221009191472
 24
-1.587499999999976
 34
0.0
 50
90.0000000000002
100
AcDbRotatedDimension
1001
ACAD
1000
DSTYLE
1002
{
1070
   171
1070
     6
1070
   273
1070
     7
1002
}
  0
DIMENSION
  5
107
330
1F
100
AcDbEntity
  8
치수문자_일반주서
100
AcDbDimension
  2
_D_3
 10
-51.89375000000003
 20
-4.762500000000134
 30
0.0
 11
-51.89375000000005
 21
0.0000000000000028
 31
0.0
 70
   160
  1
%%c<>
 71
     2
 42
9.52500000000001
 52
-270.0
  3
SLDDIMSTYLE1
100
AcDbAlignedDimension
 13
-16.51948868596876
 23
4.762500000000007
 33
0.0
 14
-16.51948868596877
 24
-4.762500000000003
 34
0.0
 50
90.0000000000002
100
AcDbRotatedDimension
1001
ACAD
1000
DSTYLE
1002
{
1070
   171
1070
     6
1070
   273
1070
     7
1002
}
  0
LINE
  5
11B
330
1F
100
AcDbEntity
  8
참조1
100
AcDbLine
 10
82.81348381534556
 20
7.440000000000004
 30
0.0
 11
82.81348381534556
 21
-7.44
 31
0.0
  0
LINE
  5
11C
330
1F
100
AcDbEntity
  8
참조1
100
AcDbLine
 10
95.51348381534558
 20
5.440000000000004
 30
0.0
 11
82.81348381534556
 21
5.440000000000004
 31
0.0
  0
SOLID
  5
11D
330
1F
100
AcDbEntity
  8
참조1
100
AcDbTrace
 10
82.81348381534556
 20
5.440000000000004
 30
0.0
 11
89.16348381534556
 21
4.424000000000004
 31
0.0
 12
89.16348381534556
 22
6.456000000000004
 32
0.0
 13
89.16348381534556
 23
6.456000000000004
 33
0.0
  0
LINE
  5
11E
330
1F
100
AcDbEntity
  8
참조1
100
AcDbLine
 10
95.51348381534558
 20
-5.44
 30
0.0
 11
82.81348381534556
 21
-5.44
 31
0.0
  0
SOLID
  5
11F
330
1F
100
AcDbEntity
  8
참조1
100
AcDbTrace
 10
82.81348381534556
 20
-5.44
 30
0.0
 11
89.16348381534556
 21
-6.456
 31
0.0
 12
89.16348381534556
 22
-4.424
 32
0.0
 13
89.16348381534556
 23
-4.424
 33
0.0
  0
MTEXT
  5
120
330
1F
100
AcDbEntity
  8
참조1
100
AcDbMText
 10
92.21097390781586
 20
10.98821664464994
 30
0.0
 40
3.5
 41
0.0
 71
     1
 72
     1
  1
A
  7
SLDTEXTSTYLE0
 73
     1
 44
1.0
  0
MTEXT
  5
121
330
1F
100
AcDbEntity
  8
참조1
100
AcDbMText
 10
92.21097390781586
 20
0.1082166446499347
 30
0.0
 40
3.5
 41
0.0
 71
     1
 72
     1
  1
A
  7
SLDTEXTSTYLE0
 73
     1
 44
1.0
  0
INSERT
  5
128
330
1F
100
AcDbEntity
  8
해칭선
100
AcDbBlockReference
  2
SW_DOWELSYMBOL_0
 10
0.0
 20
0.0
 30
0.0
  0
LINE
  5
16D
330
1F
100
AcDbEntity
  8
외형선
  6
Continuous
 62
     1
370
    15
100
AcDbLine
 10
33.92250506779159
 20
1.578794708152354
 30
0.0
 11
30.57205048350765
 21
1.58749999999998
 31
0.0
  0
LINE
  5
16E
330
1F
100
AcDbEntity
  8
외형선
  6
Continuous
 62
     1
370
    15
100
AcDbLine
 10
-33.9225050677916
 20
1.587499999999981
 30
0.0
 11
-34.8904572277188
 21
1.587499999999981
 31
0.0
  0
LINE
  5
16F
330
1F
100
AcDbEntity
  8
외형선
  6
Continuous
 62
     1
370
    15
100
AcDbLine
 10
-30.57205048350765
 20
-1.587499999999977
 30
0.0
 11
-29.60387056008965
 21
-1.587499999999977
 31
0.0
  0
ARC
  5
170
330
1F
100
AcDbEntity
  8
외형선
  6
Continuous
 62
     1
370
    15
100
AcDbCircle
 10
-37.30625000000006
 20
-0.0000000000000022
 30
0.0
 40
1.58749999999995
100
AcDbArc
 50
130.3463302516658
 51
180.0
  0
ARC
  5
171
330
1F
100
AcDbEntity
  8
외형선
  6
Continuous
 62
     1
370
    15
100
AcDbCircle
 10
-37.30625000000006
 20
-0.0000000000000022
 30
0.0
 40
1.587499999999953
100
AcDbArc
 50
180.0
 51
229.4955546237924
  0
LINE
  5
172
330
1F
100
AcDbEntity
  8
외형선
  6
Continuous
 62
     1
370
    15
100
AcDbLine
 10
-34.89045722771881
 20
-1.587499999999976
 30
0.0
 11
-33.92250506779158
 21
-1.587499999999976
 31
0.0
  0
LINE
  5
173
330
1F
100
AcDbEntity
  8
외형선
  6
Continuous
 62
     1
370
    15
100
AcDbLine
 10
-29.60387056008965
 20
1.58749999999998
 30
0.0
 11
-33.78388289343864
 21
1.587499999999969
 31
0.0
  0
LINE
  5
174
330
1F
100
AcDbEntity
  8
외형선
  6
Continuous
370
    15
100
AcDbLine
 10
-16.51948868596876
 20
4.762500000000007
 30
0.0
 11
-28.36874999999996
 21
1.587500000000001
 31
0.0
  0
LINE
  5
175
330
1F
100
AcDbEntity
  8
외형선
  6
Continuous
370
    15
100
AcDbLine
 10
-28.36874999999996
 20
-1.587499999999998
 30
0.0
 11
-16.51948868596876
 21
-4.762500000000009
 31
0.0
  0
LINE
  5
176
330
1F
100
AcDbEntity
  8
외형선
  6
Continuous
370
    15
100
AcDbLine
 10
-28.36874999999996
 20
1.587500000000001
 30
0.0
 11
-29.36874999999996
 21
1.587500000000001
 31
0.0
  0
LINE
  5
177
330
1F
100
AcDbEntity
  8
외형선
  6
Continuous
370
    15
100
AcDbLine
 10
-29.36874999999996
 20
-1.587499999999998
 30
0.0
 11
-28.36874999999996
 21
-1.587499999999998
 31
0.0
  0
SPLINE
  5
178
330
1F
100
AcDbEntity
  8
외형선
  6
Continuous
 62
     1
370
    15
100
AcDbSpline
210
0.0
220
0.0
230
1.0
 70
     8
 71
     3
 72
    11
 73
     7
 74
     0
 42
0.000000001
 43
0.00000001
 40
0.0
 40
0.0
 40
0.0
 40
0.0
 40
0.2258102139884237
 40
0.4838722459978884
 40
0.7419355213902504
 40
1.0
 40
1.0
 40
1.0
 40
1.0
 10
-33.9225050677916
 20
-1.57879470815235
 30
0.0
 10
-34.17719935591022
 20
-1.570520411572079
 30
0.0
 10
-34.72296517871353
 20
-1.552790024626191
 30
0.0
 10
-35.55980501702241
 20
-1.333544302007617
 30
0.0
 10
-36.43302560657992
 20
-0.990266696283884
 30
0.0
 10
-37.01517474981699
 20
-0.6834095397791691
 30
0.0
 10
-37.30625000000006
 20
-0.5299806038480553
 30
0.0
  0
SPLINE
  5
179
330
1F
100
AcDbEntity
  8
외형선
  6
Continuous
 62
     1
370
    15
100
AcDbSpline
210
0.0
220
0.0
230
1.0
 70
     8
 71
     3
 72
    28
 73
    24
 74
     0
 42
0.000000001
 43
0.00000001
 40
0.0
 40
0.0
 40
0.0
 40
0.0
 40
0.1250000000000001
 40
0.1250000000000001
 40
0.1875000000000042
 40
0.1875000000000042
 40
0.2500000000000083
 40
0.2500000000000083
 40
0.3750000000000095
 40
0.3750000000000095
 40
0.4375000000000102
 40
0.4375000000000102
 40
0.5000000000000108
 40
0.5000000000000108
 40
0.5625000000000114
 40
0.5625000000000114
 40
0.625000000000012
 40
0.625000000000012
 40
0.750000000000008
 40
0.750000000000008
 40
0.875000000000004
 40
0.875000000000004
 40
1.0
 40
1.0
 40
1.0
 40
1.0
 10
-37.30625000000006
 20
-0.5299806038480458
 30
0.0
 10
-37.46746874670273
 20
-0.4421843894080515
 30
0.0
 10
-37.62937786776784
 20
-0.3521507455839724
 30
0.0
 10
-37.87093661781593
 20
-0.2261473928196695
 30
0.0
 10
-37.94927125983497
 20
-0.1864123724320716
 30
0.0
 10
-38.10156090943617
 20
-0.1110169409280304
 30
0.0
 10
-38.17632614880778
 20
-0.0753513635773881
 30
0.0
 10
-38.38597064299451
 20
0.0254996094225128
 30
0.0
 10
-38.50897287875125
 20
0.0848771654416091
 30
0.0
 10
-38.64677021901439
 20
0.1908305530841938
 30
0.0
 10
-38.68500647477676
 20
0.2291750304162048
 30
0.0
 10
-38.74096451028354
 20
0.3208275956356695
 30
0.0
 10
-38.75811155950149
 20
0.3735940727270075
 30
0.0
 10
-38.76356231114838
 20
0.4997648600146308
 30
0.0
 10
-38.75110690105117
 20
0.5738045629554769
 30
0.0
 10
-38.69521215663504
 20
0.7308492207038002
 30
0.0
 10
-38.65131301644687
 20
0.8147760480989737
 30
0.0
 10
-38.49132329283587
 20
1.045085397997322
 30
0.0
 10
-38.35373856684974
 20
1.1629813397351
 30
0.0
 10
-38.07349867901231
 20
1.302774912758431
 30
0.0
 10
-37.92622439991553
 20
1.329341573922775
 30
0.0
 10
-37.62430510117523
 20
1.318580631663667
 30
0.0
 10
-37.46744995857322
 20
1.281370498073594
 30
0.0
 10
-37.30625000000006
 20
1.221917740792804
 30
0.0
  0
SPLINE
  5
17A
330
1F
100
AcDbEntity
  8
외형선
  6
Continuous
 62
     1
370
    15
100
AcDbSpline
210
0.0
220
0.0
230
1.0
 70
     8
 71
     3
 72
    15
 73
    11
 74
     0
 42
0.000000001
 43
0.00000001
 40
0.0
 40
0.0
 40
0.0
 40
0.0
 40
0.1320199195460457
 40
0.2640352309449114
 40
0.3960455447497204
 40
0.5280504735331917
 40
0.6600496320397399
 40
0.7897109155751194
 40
0.9193713267134873
 40
0.9999999999999999
 40
0.9999999999999999
 40
0.9999999999999999
 40
0.9999999999999999
 10
-37.30625000000006
 20
1.221917740792823
 30
0.0
 10
-37.00989219476561
 20
1.100288648996418
 30
0.0
 10
-36.41718692864763
 20
0.8570347108595855
 30
0.0
 10
-35.52815319810287
 20
0.3694208142021099
 30
0.0
 10
-34.63915915826792
 20
-0.1475122832958263
 30
0.0
 10
-33.75020971827129
 20
-0.651091718572235
 30
0.0
 10
-32.86653719985085
 20
-1.085797731623332
 30
0.0
 10
-31.98814923398731
 20
-1.400890728689837
 30
0.0
 10
-31.22506735697569
 20
-1.573819286621317
 30
0.0
 10
-30.75303594330096
 20
-1.570134968336106
 30
0.0
 10
-30.57205048350765
 20
-1.568722333457248
 30
0.0
  0
SPLINE
  5
17B
330
1F
100
AcDbEntity
  8
외형선
  6
Continuous
 62
     1
370
    15
100
AcDbSpline
210
0.0
220
0.0
230
1.0
 70
     8
 71
     3
 72
    36
 73
    32
 74
     0
 42
0.000000001
 43
0.00000001
 40
0.0
 40
0.0
 40
0.0
 40
0.0
 40
0.0625
 40
0.0625
 40
0.125
 40
0.125
 40
0.1875
 40
0.1875
 40
0.25
 40
0.25
 40
0.3125
 40
0.3125
 40
0.375
 40
0.375
 40
0.5
 40
0.5
 40
0.5625
 40
0.5625
 40
0.625
 40
0.625
 40
0.6875
 40
0.6875
 40
0.75
 40
0.75
 40
0.8125
 40
0.8125
 40
0.875
 40
0.875
 40
0.9375
 40
0.9375
 40
1.0
 40
1.0
 40
1.0
 40
1.0
 10
-29.36874999999997
 20
-1.58166211405119
 30
0.0
 10
-29.53209963116451
 20
-1.589809840975978
 30
0.0
 10
-29.69895470217354
 20
-1.589432927708354
 30
0.0
 10
-30.03163829005835
 20
-1.571339162726985
 30
0.0
 10
-30.19522394423218
 20
-1.553756906893045
 30
0.0
 10
-30.5250077562056
 20
-1.501952838361996
 30
0.0
 10
-30.69238146468411
 20
-1.467579543642047
 30
0.0
 10
-31.02397283854578
 20
-1.383471510010544
 30
0.0
 10
-31.18657097079986
 20
-1.333985091717299
 30
0.0
 10
-31.51837866610662
 20
-1.220450989688856
 30
0.0
 10
-31.68571368303171
 20
-1.156522054139063
 30
0.0
 10
-32.01513255100892
 20
-1.017534453352072
 30
0.0
 10
-32.1790357671882
 20
-0.9422787916390624
 30
0.0
 10
-32.67815916113774
 20
-0.7012440380677778
 30
0.0
 10
-33.0059019046298
 20
-0.5225283320529107
 30
0.0
 10
-33.50479775640005
 20
-0.2420286448630394
 30
0.0
 10
-33.66810974708754
 20
-0.1472703578356318
 30
0.0
 10
-33.9982380986041
 20
0.0434754641321283
 30
0.0
 10
-34.16563977655963
 20
0.1395777295229576
 30
0.0
 10
-34.49699404660268
 20
0.3285725700479198
 30
0.0
 10
-34.65963628363079
 20
0.4212303451145305
 30
0.0
 10
-34.99163947261177
 20
0.6022317572974653
 30
0.0
 10
-35.15892508423153
 20
0.6901537051230715
 30
0.0
 10
-35.48795867975418
 20
0.856637557996281
 30
0.0
 10
-35.6522232902063
 20
0.9356588144881688
 30
0.0
 10
-35.98501653520051
 20
1.083343635711771
 30
0.0
 10
-36.15073801586547
 20
1.151557107266902
 30
0.0
 10
-36.47839712118888
 20
1.274371993985503
 30
0.0
 10
-36.64545162240359
 20
1.329585094826133
 30
0.0
 10
-36.97794150977447
 20
1.42474378269776
 30
0.0
 10
-37.14102379261699
 20
1.46455403425996
 30
0.0
 10
-37.30625000000006
 20
1.496421334232038
 30
0.0
  0
SPLINE
  5
17C
330
1F
100
AcDbEntity
  8
외형선
  6
Continuous
 62
     1
370
    15
100
AcDbSpline
210
0.0
220
0.0
230
1.0
 70
     8
 71
     3
 72
    12
 73
     8
 74
     0
 42
0.000000001
 43
0.00000001
 40
0.0
 40
0.0
 40
0.0
 40
0.0
 40
0.2048462817059159
 40
0.4156845792301909
 40
0.6187321073251292
 40
0.8279526816175102
 40
1.0
 40
1.0
 40
1.0
 40
1.0
 10
-37.30625000000006
 20
1.496421334232009
 30
0.0
 10
-37.37916410582573
 20
1.50651826834033
 30
0.0
 10
-37.52712514835812
 20
1.527007484797566
 30
0.0
 10
-37.75019181257195
 20
1.503531962344684
 30
0.0
 10
-37.96949287340779
 20
1.438488211862706
 30
0.0
 10
-38.16723602892176
 20
1.340902357956177
 30
0.0
 10
-38.28097476048693
 20
1.249650310150879
 30
0.0
 10
-38.33229941734364
 20
1.208472780063917
 30
0.0
  0
SPLINE
  5
17D
330
1F
100
AcDbEntity
  8
외형선
  6
Continuous
 62
     1
370
    15
100
AcDbSpline
210
0.0
220
0.0
230
1.0
 70
     8
 71
     3
 72
    16
 73
    12
 74
     0
 42
0.000000001
 43
0.00000001
 40
0.0
 40
0.0
 40
0.0
 40
0.0
 40
0.0207386036174035
 40
0.1442517985727838
 40
0.2677603177916705
 40
0.3912637987980748
 40
0.5147618811478282
 40
0.6360726535254586
 40
0.7573826096906341
 40
0.87869173128588
 40
1.0
 40
1.0
 40
1.0
 40
1.0
 10
-36.56645319248077
 20
1.292815074788092
 30
0.0
 10
-36.51669473322833
 20
1.312088480164388
 30
0.0
 10
-36.17058911426788
 20
1.446148778603187
 30
0.0
 10
-35.52815347737935
 20
1.564816158136008
 30
0.0
 10
-34.63915908429735
 20
1.610615994551471
 30
0.0
 10
-33.7502097348927
 20
1.477746205577484
 30
0.0
 10
-32.86653720738438
 20
1.196605936788532
 30
0.0
 10
-31.98814918853243
 20
0.7947578715536701
 30
0.0
 10
-31.11500867182347
 20
0.3173350636999347
 30
0.0
 10
-30.24187671407649
 20
-0.1967105605637555
 30
0.0
 10
-29.65979155595092
 20
-0.5142605754203934
 30
0.0
 10
-29.36874999999997
 20
-0.6730350247015537
 30
0.0
  0
SPLINE
  5
17E
330
1F
100
AcDbEntity
  8
외형선
  6
Continuous
 62
     1
370
    15
100
AcDbSpline
210
0.0
220
0.0
230
1.0
 70
     8
 71
     3
 72
    13
 73
     9
 74
     0
 42
0.000000001
 43
0.00000001
 40
0.0
 40
0.0
 40
0.0
 40
0.0
 40
0.1951894900350603
 40
0.3903883551815959
 40
0.5855960309080108
 40
0.7808119491414727
 40
0.9760355384886061
 40
1.0
 40
1.0
 40
1.0
 40
1.0
 10
-29.36874999999997
 20
-0.1360191419435191
 30
0.0
 10
-29.66502585334033
 20
0.0358740936122672
 30
0.0
 10
-30.25759179039353
 20
0.379668820897084
 30
0.0
 10
-31.14647172893859
 20
0.8587258275164117
 30
0.0
 10
-32.03540062940262
 20
1.252021527013542
 30
0.0
 10
-32.92436910055118
 20
1.499947512749344
 30
0.0
 10
-33.55342295628255
 20
1.607296150999837
 30
0.0
 10
-33.8861293216823
 20
1.581603734156158
 30
0.0
 10
-33.92250506779161
 20
1.578794708152353
 30
0.0
  0
SPLINE
  5
17F
330
1F
100
AcDbEntity
  8
외형선
  6
Continuous
 62
     1
370
    15
100
AcDbSpline
210
0.0
220
0.0
230
1.0
 70
     8
 71
     3
 72
     9
 73
     5
 74
     0
 42
0.000000001
 43
0.00000001
 40
0.0
 40
0.0
 40
0.0
 40
0.0
 40
0.2743913807481602
 40
1.0
 40
1.0
 40
1.0
 40
1.0
 10
-30.57205048350766
 20
1.568722333457252
 30
0.0
 10
-30.46199192355121
 20
1.573886460792737
 30
0.0
 10
-30.06089127798298
 20
1.592706757995238
 30
0.0
 10
-29.65979147455068
 20
1.502919529116576
 30
0.0
 10
-29.36874999999996
 20
1.437769141943481
 30
0.0
  0
LINE
  5
180
330
1F
100
AcDbEntity
  8
외형선
  6
Continuous
370
    15
100
AcDbLine
 10
-29.36874999999996
 20
-0.1360191419435193
 30
0.0
 11
-29.36874999999996
 21
-0.6730350247015536
 31
0.0
  0
SPLINE
  5
181
330
1F
100
AcDbEntity
  8
외형선
  6
Continuous
 62
     1
370
    15
100
AcDbSpline
210
0.0
220
0.0
230
1.0
 70
     8
 71
     3
 72
    28
 73
    24
 74
     0
 42
0.000000001
 43
0.00000001
 40
0.0
 40
0.0
 40
0.0
 40
0.0
 40
0.1250000000000003
 40
0.1250000000000003
 40
0.1875000000000045
 40
0.1875000000000045
 40
0.2500000000000087
 40
0.2500000000000087
 40
0.3750000000000099
 40
0.3750000000000099
 40
0.4375000000000106
 40
0.4375000000000106
 40
0.5000000000000112
 40
0.5000000000000112
 40
0.5625000000000118
 40
0.5625000000000118
 40
0.6250000000000124
 40
0.6250000000000124
 40
0.7500000000000083
 40
0.7500000000000083
 40
0.8750000000000042
 40
0.8750000000000042
 40
1.0
 40
1.0
 40
1.0
 40
1.0
 10
-37.30625000000006
 20
-1.496421334232004
 30
0.0
 10
-37.46746874670274
 20
-1.527515712319284
 30
0.0
 10
-37.62937786776782
 20
-1.525160014182281
 30
0.0
 10
-37.87093661781589
 20
-1.46926419568843
 30
0.0
 10
-37.94927125983494
 20
-1.442348522419804
 30
0.0
 10
-38.10156090943614
 20
-1.372498076312292
 30
0.0
 10
-38.1763261488078
 20
-1.328904429803943
 30
0.0
 10
-38.38597064299451
 20
-1.17808048031245
 30
0.0
 10
-38.50897287875122
 20
-1.049008964200556
 30
0.0
 10
-38.64677021901436
 20
-0.8338153247246106
 30
0.0
 10
-38.68500647477673
 20
-0.7585163971838892
 30
0.0
 10
-38.74096451028354
 20
-0.606219155060635
 30
0.0
 10
-38.75811155950155
 20
-0.5303932369018786
 30
0.0
 10
-38.7635623111484
 20
-0.3940398677240938
 30
0.0
 10
-38.75110690105117
 20
-0.3343545048869474
 30
0.0
 10
-38.69521215663506
 20
-0.255537903165509
 30
0.0
 10
-38.65131301644687
 20
-0.2363109828401225
 30
0.0
 10
-38.49132329283587
 20
-0.2419063476209318
 30
0.0
 10
-38.35373856684977
 20
-0.3231208631436217
 30
0.0
 10
-38.07349867901234
 20
-0.517949782983572
 30
0.0
 10
-37.92622439991555
 20
-0.6344697222116823
 30
0.0
 10
-37.6243051011752
 20
-0.8451361875646627
 30
0.0
 10
-37.46744995857321
 20
-0.9417637232651496
 30
0.0
 10
-37.30625000000006
 20
-1.013446241660424
 30
0.0
  0
LINE
  5
182
330
1F
100
AcDbEntity
  8
외형선
  6
Continuous
 62
     1
370
    15
100
AcDbLine
 10
-29.36874999999997
 20
1.581662114051194
 30
0.0
 11
-29.60387056008964
 21
1.571414767981729
 31
0.0
  0
LINE
  5
183
330
1F
100
AcDbEntity
  8
외형선
  6
Continuous
 62
     1
370
    15
100
AcDbLine
 10
-36.56645319248077
 20
-1.292815074788089
 30
0.0
 11
-37.30625000000006
 21
-1.496421334232033
 31
0.0
  0
SPLINE
  5
184
330
1F
100
AcDbEntity
  8
외형선
  6
Continuous
 62
     1
370
    15
100
AcDbSpline
210
0.0
220
0.0
230
1.0
 70
     8
 71
     3
 72
    10
 73
     6
 74
     0
 42
0.000000001
 43
0.00000001
 40
0.0
 40
0.0
 40
0.0
 40
0.0
 40
0.368022640057493
 40
0.7360324343073515
 40
1.0
 40
1.0
 40
1.0
 40
1.0
 10
-37.30625000000006
 20
-1.013446241660447
 30
0.0
 10
-37.00989224604029
 20
-1.133736754129344
 30
0.0
 10
-36.41718708246994
 20
-1.374313580334192
 30
0.0
 10
-35.61192284971072
 20
-1.564593712947452
 30
0.0
 10
-35.10301886908656
 20
-1.568921592640909
 30
0.0
 10
-34.8904572277188
 20
-1.570729283769903
 30
0.0
  0
LINE
  5
185
330
1F
100
AcDbEntity
  8
외형선
  6
Continuous
370
    15
100
AcDbLine
 10
-29.36874999999996
 20
1.581662114051194
 30
0.0
 11
-29.36874999999996
 21
1.43776914194348
 31
0.0
  0
LINE
  5
186
330
1F
100
AcDbEntity
  8
외형선
  6
Continuous
370
    15
100
AcDbLine
 10
-16.51948868596876
 20
0.0000000000000001
 30
0.0
 11
-16.51948868596876
 21
-4.762500000000006
 31
0.0
  0
LINE
  5
187
330
1F
100
AcDbEntity
  8
외형선
  6
Continuous
370
    15
100
AcDbLine
 10
-16.51948868596876
 20
4.762500000000004
 30
0.0
 11
-16.51948868596876
 21
0.0000000000000001
 31
0.0
  0
LINE
  5
188
330
1F
100
AcDbEntity
  8
외형선
  6
Continuous
370
    15
100
AcDbLine
 10
-28.36874999999996
 20
0.0000000000000015
 30
0.0
 11
-28.36874999999996
 21
-1.587499999999998
 31
0.0
  0
LINE
  5
189
330
1F
100
AcDbEntity
  8
외형선
  6
Continuous
370
    15
100
AcDbLine
 10
-28.36874999999996
 20
1.587500000000001
 30
0.0
 11
-28.36874999999996
 21
0.0000000000000015
 31
0.0
  0
LINE
  5
18A
330
1F
100
AcDbEntity
  8
외형선
  6
Continuous
370
    15
100
AcDbLine
 10
-29.36874999999996
 20
0.0000000000000016
 30
0.0
 11
-29.36874999999996
 21
-1.587499999999998
 31
0.0
  0
LINE
  5
18B
330
1F
100
AcDbEntity
  8
외형선
  6
Continuous
370
    15
100
AcDbLine
 10
-29.36874999999996
 20
1.587500000000001
 30
0.0
 11
-29.36874999999996
 21
0.0000000000000016
 31
0.0
  0
LINE
  5
18C
330
1F
100
AcDbEntity
  8
외형선
  6
Continuous
 62
     1
370
    15
100
AcDbLine
 10
-33.9225050677916
 20
-1.57879470815235
 30
0.0
 11
-30.57205048350765
 21
-1.587499999999977
 31
0.0
  0
LINE
  5
1C9
330
1F
100
AcDbEntity
  8
0
100
AcDbLine
 10
0.0
 20
-4.762500000000003
 30
0.0
 11
0.0
 21
-4.762500000000003
 31
0.0
  0
LINE
  5
1CA
330
1F
100
AcDbEntity
  8
외형선
  6
Continuous
370
    15
100
AcDbLine
 10
-3.568700000000035
 20
3.492500000000021
 30
0.0
 11
3.568700000000035
 21
3.492500000000021
 31
0.0
  0
LINE
  5
1CB
330
1F
100
AcDbEntity
  8
외형선
  6
Continuous
370
    15
100
AcDbLine
 10
3.568700000000035
 20
3.492500000000021
 30
0.0
 11
4.838700000000017
 21
4.762500000000003
 31
0.0
  0
LINE
  5
1CC
330
1F
100
AcDbEntity
  8
외형선
  6
Continuous
370
    15
100
AcDbLine
 10
-3.568700000000035
 20
3.492500000000021
 30
0.0
 11
-4.838700000000017
 21
4.762500000000003
 31
0.0
  0
LINE
  5
1CE
330
1F
100
AcDbEntity
  8
외형선
  6
Continuous
370
    15
100
AcDbLine
 10
-4.838700000000021
 20
4.762500000000006
 30
0.0
 11
-16.51948868596876
 21
4.762500000000006
 31
0.0
  0
ENDSEC
  0
SECTION
  2
OBJECTS
  0
DICTIONARY
  5
C
330
0
100
AcDbDictionary
281
     1
  3
ACAD_GROUP
350
D
  3
ACAD_IMAGE_VARS
350
14C
  3
ACAD_LAYOUT
350
1A
  3
ACAD_MLINESTYLE
350
17
  3
ACAD_PLOTSETTINGS
350
19
  3
ACAD_PLOTSTYLENAME
350
E
  3
ACAD_SCALELIST
350
47
  3
APPDATA
350
14A
  3
DWGPROPS
350
1CF
  0
DICTIONARY
  5
1BA
330
2
100
AcDbDictionary
280
     1
281
     1
  3
ACAD_LAYERSTATES
360
1BB
  0
DICTIONARY
  5
D
102
{ACAD_REACTORS
330
C
102
}
330
C
100
AcDbDictionary
281
     1
  0
RASTERVARIABLES
  5
14C
102
{ACAD_REACTORS
330
C
102
}
330
C
100
AcDbRasterVariables
 90
        0
 70
     1
 71
     1
 72
     1
  0
DICTIONARY
  5
1A
102
{ACAD_REACTORS
330
C
102
}
330
C
100
AcDbDictionary
281
     1
  3
Layout1
350
1E
  3
Layout2
350
26
  3
Model
350
22
  0
DICTIONARY
  5
17
102
{ACAD_REACTORS
330
C
102
}
330
C
100
AcDbDictionary
281
     1
  3
Standard
350
18
  0
DICTIONARY
  5
19
102
{ACAD_REACTORS
330
C
102
}
330
C
100
AcDbDictionary
281
     1
  0
ACDBDICTIONARYWDFLT
  5
E
102
{ACAD_REACTORS
330
C
102
}
330
C
100
AcDbDictionary
281
     1
  3
Normal
350
F
100
AcDbDictionaryWithDefault
340
F
  0
DICTIONARY
  5
47
102
{ACAD_REACTORS
330
C
102
}
330
C
100
AcDbDictionary
281
     1
  3
A0
350
48
  3
A1
350
49
  3
A2
350
4A
  3
A3
350
4B
  3
A4
350
4C
  3
A5
350
4D
  3
A6
350
4E
  3
A7
350
4F
  3
A8
350
50
  3
A9
350
51
  3
B0
350
52
  3
B1
350
53
  3
B2
350
54
  3
B3
350
55
  3
B4
350
56
  3
B5
350
57
  3
B6
350
58
  3
B7
350
59
  3
B8
350
5A
  3
B9
350
5B
  3
C0
350
5C
  3
C1
350
5D
  3
C2
350
5E
  3
C3
350
5F
  3
C4
350
60
  3
C5
350
61
  3
C6
350
62
  3
C7
350
63
  3
C8
350
64
  3
C9
350
65
  3
D0
350
66
  3
D1
350
67
  3
D2
350
68
  0
DICTIONARY
  5
14A
102
{ACAD_REACTORS
330
C
102
}
330
C
100
AcDbDictionary
281
     1
  0
XRECORD
  5
1CF
102
{ACAD_REACTORS
330
C
102
}
330
C
100
AcDbXrecord
280
     1
  1
DWGPROPS COOKIE
  2

  3

  4

  6

  7

  8
12016016
  9

300
=
301
=
302
=
303
=
304
=
305
=
306
=
307
=
308
=
309
=
 40
0.0
 41
2458319.997567639
 42
2458331.025657037
  1

 90
        0
  0
DICTIONARY
  5
1BB
102
{ACAD_REACTORS
330
1BA
102
}
330
1BA
100
AcDbDictionary
281
     1
  0
LAYOUT
  5
1E
102
{ACAD_REACTORS
330
1A
102
}
330
1A
100
AcDbPlotSettings
  1

  2
none_device
  4

  6

 40
0.0
 41
0.0
 42
0.0
 43
0.0
 44
0.0
 45
0.0
 46
0.0
 47
0.0
 48
0.0
 49
0.0
140
0.0
141
0.0
142
1.0
143
1.0
 70
   688
 72
     1
 73
     0
 74
     5
  7

 75
    16
147
1.0
148
0.0
149
0.0
100
AcDbLayout
  1
Layout1
 70
     1
 71
     1
 10
0.0
 20
0.0
 11
420.0
 21
297.0
 12
0.0
 22
0.0
 32
0.0
 14
1.000000000000000E+20
 24
1.000000000000000E+20
 34
1.000000000000000E+20
 15
-1.000000000000000E+20
 25
-1.000000000000000E+20
 35
-1.000000000000000E+20
146
0.0
 13
0.0
 23
0.0
 33
0.0
 16
1.0
 26
0.0
 36
0.0
 17
0.0
 27
1.0
 37
0.0
 76
     0
330
1B
  0
LAYOUT
  5
26
102
{ACAD_REACTORS
330
1A
102
}
330
1A
100
AcDbPlotSettings
  1

  2
none_device
  4

  6

 40
0.0
 41
0.0
 42
0.0
 43
0.0
 44
0.0
 45
0.0
 46
0.0
 47
0.0
 48
0.0
 49
0.0
140
0.0
141
0.0
142
1.0
143
1.0
 70
   688
 72
     1
 73
     0
 74
     5
  7

 75
    16
147
1.0
148
0.0
149
0.0
100
AcDbLayout
  1
Layout2
 70
     1
 71
     2
 10
0.0
 20
0.0
 11
0.0
 21
0.0
 12
0.0
 22
0.0
 32
0.0
 14
0.0
 24
0.0
 34
0.0
 15
0.0
 25
0.0
 35
0.0
146
0.0
 13
0.0
 23
0.0
 33
0.0
 16
1.0
 26
0.0
 36
0.0
 17
0.0
 27
1.0
 37
0.0
 76
     0
330
23
  0
LAYOUT
  5
22
102
{ACAD_REACTORS
330
1A
102
}
330
1A
100
AcDbPlotSettings
  1

  2
none_device
  4
ANSI_A_(11.00_x_8.50_Inches)
  6

 40
6.35
 41
19.05
 42
6.35000508
 43
19.05000254
 44
279.4
 45
215.9
 46
130.0385306089228
 47
92.54371273076146
 48
0.0
 49
0.0
140
0.0
141
0.0
142
0.0688368650264312
143
1.0
 70
  1696
 72
     0
 73
     0
 74
     0
  7

 75
     0
147
0.0235690232323232
148
0.0
149
0.0
100
AcDbLayout
  1
Model
 70
     1
 71
     0
 10
0.0
 20
0.0
 11
420.0
 21
297.0
 12
0.0
 22
0.0
 32
0.0
 14
1.000000000000000E+20
 24
1.000000000000000E+20
 34
1.000000000000000E+20
 15
-1.000000000000000E+20
 25
-1.000000000000000E+20
 35
-1.000000000000000E+20
146
0.0
 13
0.0
 23
0.0
 33
0.0
 16
1.0
 26
0.0
 36
0.0
 17
0.0
 27
1.0
 37
0.0
 76
     0
330
1F
331
29
  0
MLINESTYLE
  5
18
102
{ACAD_REACTORS
330
17
102
}
330
17
100
AcDbMlineStyle
  2
Standard
 70
     0
  3

 62
   256
 51
90.0
 52
90.0
 71
     2
 49
0.5
 62
   256
  6
BYLAYER
 49
-0.5
 62
   256
  6
BYLAYER
  0
ACDBPLACEHOLDER
  5
F
102
{ACAD_REACTORS
330
E
102
}
330
E
  0
SCALE
  5
48
102
{ACAD_REACTORS
330
47
102
}
330
47
100
AcDbScale
 70
     0
300
1:1
140
1.0
141
1.0
290
     1
  0
SCALE
  5
49
102
{ACAD_REACTORS
330
47
102
}
330
47
100
AcDbScale
 70
     0
300
1:2
140
1.0
141
2.0
290
     0
  0
SCALE
  5
4A
102
{ACAD_REACTORS
330
47
102
}
330
47
100
AcDbScale
 70
     0
300
1:4
140
1.0
141
4.0
290
     0
  0
SCALE
  5
4B
102
{ACAD_REACTORS
330
47
102
}
330
47
100
AcDbScale
 70
     0
300
1:5
140
1.0
141
5.0
290
     0
  0
SCALE
  5
4C
102
{ACAD_REACTORS
330
47
102
}
330
47
100
AcDbScale
 70
     0
300
1:8
140
1.0
141
8.0
290
     0
  0
SCALE
  5
4D
102
{ACAD_REACTORS
330
47
102
}
330
47
100
AcDbScale
 70
     0
300
1:10
140
1.0
141
10.0
290
     0
  0
SCALE
  5
4E
102
{ACAD_REACTORS
330
47
102
}
330
47
100
AcDbScale
 70
     0
300
1:16
140
1.0
141
16.0
290
     0
  0
SCALE
  5
4F
102
{ACAD_REACTORS
330
47
102
}
330
47
100
AcDbScale
 70
     0
300
1:20
140
1.0
141
20.0
290
     0
  0
SCALE
  5
50
102
{ACAD_REACTORS
330
47
102
}
330
47
100
AcDbScale
 70
     0
300
1:30
140
1.0
141
30.0
290
     0
  0
SCALE
  5
51
102
{ACAD_REACTORS
330
47
102
}
330
47
100
AcDbScale
 70
     0
300
1:40
140
1.0
141
40.0
290
     0
  0
SCALE
  5
52
102
{ACAD_REACTORS
330
47
102
}
330
47
100
AcDbScale
 70
     0
300
1:50
140
1.0
141
50.0
290
     0
  0
SCALE
  5
53
102
{ACAD_REACTORS
330
47
102
}
330
47
100
AcDbScale
 70
     0
300
1:100
140
1.0
141
100.0
290
     0
  0
SCALE
  5
54
102
{ACAD_REACTORS
330
47
102
}
330
47
100
AcDbScale
 70
     0
300
2:1
140
2.0
141
1.0
290
     0
  0
SCALE
  5
55
102
{ACAD_REACTORS
330
47
102
}
330
47
100
AcDbScale
 70
     0
300
4:1
140
4.0
141
1.0
290
     0
  0
SCALE
  5
56
102
{ACAD_REACTORS
330
47
102
}
330
47
100
AcDbScale
 70
     0
300
8:1
140
8.0
141
1.0
290
     0
  0
SCALE
  5
57
102
{ACAD_REACTORS
330
47
102
}
330
47
100
AcDbScale
 70
     0
300
10:1
140
10.0
141
1.0
290
     0
  0
SCALE
  5
58
102
{ACAD_REACTORS
330
47
102
}
330
47
100
AcDbScale
 70
     0
300
100:1
140
100.0
141
1.0
290
     0
  0
SCALE
  5
59
102
{ACAD_REACTORS
330
47
102
}
330
47
100
AcDbScale
 70
     0
300
1/128" = 1'-0"
140
0.0078125
141
12.0
290
     0
  0
SCALE
  5
5A
102
{ACAD_REACTORS
330
47
102
}
330
47
100
AcDbScale
 70
     0
300
1/64" = 1'-0"
140
0.015625
141
12.0
290
     0
  0
SCALE
  5
5B
102
{ACAD_REACTORS
330
47
102
}
330
47
100
AcDbScale
 70
     0
300
1/32" = 1'-0"
140
0.03125
141
12.0
290
     0
  0
SCALE
  5
5C
102
{ACAD_REACTORS
330
47
102
}
330
47
100
AcDbScale
 70
     0
300
1/16" = 1'-0"
140
0.0625
141
12.0
290
     0
  0
SCALE
  5
5D
102
{ACAD_REACTORS
330
47
102
}
330
47
100
AcDbScale
 70
     0
300
3/32" = 1'-0"
140
0.09375
141
12.0
290
     0
  0
SCALE
  5
5E
102
{ACAD_REACTORS
330
47
102
}
330
47
100
AcDbScale
 70
     0
300
1/8" = 1'-0"
140
0.125
141
12.0
290
     0
  0
SCALE
  5
5F
102
{ACAD_REACTORS
330
47
102
}
330
47
100
AcDbScale
 70
     0
300
3/16" = 1'-0"
140
0.1875
141
12.0
290
     0
  0
SCALE
  5
60
102
{ACAD_REACTORS
330
47
102
}
330
47
100
AcDbScale
 70
     0
300
1/4" = 1'-0"
140
0.25
141
12.0
290
     0
  0
SCALE
  5
61
102
{ACAD_REACTORS
330
47
102
}
330
47
100
AcDbScale
 70
     0
300
3/8" = 1'-0"
140
0.375
141
12.0
290
     0
  0
SCALE
  5
62
102
{ACAD_REACTORS
330
47
102
}
330
47
100
AcDbScale
 70
     0
300
1/2" = 1'-0"
140
0.5
141
12.0
290
     0
  0
SCALE
  5
63
102
{ACAD_REACTORS
330
47
102
}
330
47
100
AcDbScale
 70
     0
300
3/4" = 1'-0"
140
0.75
141
12.0
290
     0
  0
SCALE
  5
64
102
{ACAD_REACTORS
330
47
102
}
330
47
100
AcDbScale
 70
     0
300
1" = 1'-0"
140
1.0
141
12.0
290
     0
  0
SCALE
  5
65
102
{ACAD_REACTORS
330
47
102
}
330
47
100
AcDbScale
 70
     0
300
1-1/2" = 1'-0"
140
1.5
141
12.0
290
     0
  0
SCALE
  5
66
102
{ACAD_REACTORS
330
47
102
}
330
47
100
AcDbScale
 70
     0
300
3" = 1'-0"
140
3.0
141
12.0
290
     0
  0
SCALE
  5
67
102
{ACAD_REACTORS
330
47
102
}
330
47
100
AcDbScale
 70
     0
300
6" = 1'-0"
140
6.0
141
12.0
290
     0
  0
SCALE
  5
68
102
{ACAD_REACTORS
330
47
102
}
330
47
100
AcDbScale
 70
     0
300
1'-0" = 1'-0"
140
12.0
141
12.0
290
     0
  0
ENDSEC
  0
EOF
