  0
SECTION
  2
HEADER
  9
$ACADVER
  1
AC1015
  9
$ACADMAINTVER
 70
     6
  9
$DWGCODEPAGE
  3
ANSI_949
  9
$INSBASE
 10
0.0
 20
0.0
 30
0.0
  9
$EXTMIN
 10
1.000000000000000E+20
 20
1.000000000000000E+20
 30
1.000000000000000E+20
  9
$EXTMAX
 10
-1.000000000000000E+20
 20
-1.000000000000000E+20
 30
-1.000000000000000E+20
  9
$LIMMIN
 10
0.0
 20
0.0
  9
$LIMMAX
 10
420.0
 20
297.0
  9
$ORTHOMODE
 70
     1
  9
$REGENMODE
 70
     1
  9
$FILLMODE
 70
     1
  9
$QTEXTMODE
 70
     0
  9
$MIRRTEXT
 70
     1
  9
$LTSCALE
 40
1.0
  9
$ATTMODE
 70
     1
  9
$TEXTSIZE
 40
3.5
  9
$TRACEWID
 40
1.0
  9
$TEXTSTYLE
  7
Standard
  9
$CLAYER
  8
0
  9
$CELTYPE
  6
ByLayer
  9
$CECOLOR
 62
   256
  9
$CELTSCALE
 40
1.0
  9
$DISPSILH
 70
     0
  9
$DIMSCALE
 40
1.0
  9
$DIMASZ
 40
3.302
  9
$DIMEXO
 40
1.0
  9
$DIMDLI
 40
3.75
  9
$DIMRND
 40
0.0
  9
$DIMDLE
 40
0.0
  9
$DIMEXE
 40
1.0
  9
$DIMTP
 40
0.0
  9
$DIMTM
 40
0.0
  9
$DIMTXT
 40
3.5
  9
$DIMCEN
 40
2.5
  9
$DIMTSZ
 40
0.0
  9
$DIMTOL
 70
     0
  9
$DIMLIM
 70
     0
  9
$DIMTIH
 70
     1
  9
$DIMTOH
 70
     1
  9
$DIMSE1
 70
     0
  9
$DIMSE2
 70
     0
  9
$DIMTAD
 70
     1
  9
$DIMZIN
 70
     0
  9
$DIMBLK
  1

  9
$DIMASO
 70
     1
  9
$DIMSHO
 70
     1
  9
$DIMPOST
  1

  9
$DIMAPOST
  1

  9
$DIMALT
 70
     0
  9
$DIMALTD
 70
     3
  9
$DIMALTF
 40
0.0393700787401575
  9
$DIMLFAC
 40
1.0
  9
$DIMTOFL
 70
     1
  9
$DIMTVP
 40
0.0
  9
$DIMTIX
 70
     0
  9
$DIMSOXD
 70
     0
  9
$DIMSAH
 70
     0
  9
$DIMBLK1
  1

  9
$DIMBLK2
  1

  9
$DIMSTYLE
  2
ISO-25
  9
$DIMCLRD
 70
     0
  9
$DIMCLRE
 70
     0
  9
$DIMCLRT
 70
     0
  9
$DIMTFAC
 40
1.0
  9
$DIMGAP
 40
1.524
  9
$DIMJUST
 70
     0
  9
$DIMSD1
 70
     0
  9
$DIMSD2
 70
     0
  9
$DIMTOLJ
 70
     0
  9
$DIMTZIN
 70
     0
  9
$DIMALTZ
 70
     0
  9
$DIMALTTZ
 70
     0
  9
$DIMUPT
 70
     0
  9
$DIMDEC
 70
     2
  9
$DIMTDEC
 70
     2
  9
$DIMALTU
 70
     2
  9
$DIMALTTD
 70
     3
  9
$DIMTXSTY
  7
Standard
  9
$DIMAUNIT
 70
     0
  9
$DIMADEC
 70
     2
  9
$DIMALTRND
 40
0.0
  9
$DIMAZIN
 70
     0
  9
$DIMDSEP
 70
    44
  9
$DIMATFIT
 70
     3
  9
$DIMFRAC
 70
     0
  9
$DIMLDRBLK
  1

  9
$DIMLUNIT
 70
     2
  9
$DIMLWD
 70
    -2
  9
$DIMLWE
 70
    -2
  9
$DIMTMOVE
 70
     0
  9
$LUNITS
 70
     2
  9
$LUPREC
 70
     2
  9
$SKETCHINC
 40
1.0
  9
$FILLETRAD
 40
10.0
  9
$AUNITS
 70
     0
  9
$AUPREC
 70
     2
  9
$MENU
  1
.
  9
$ELEVATION
 40
0.0
  9
$PELEVATION
 40
0.0
  9
$THICKNESS
 40
0.0
  9
$LIMCHECK
 70
     0
  9
$CHAMFERA
 40
0.0
  9
$CHAMFERB
 40
0.0
  9
$CHAMFERC
 40
0.0
  9
$CHAMFERD
 40
0.0
  9
$SKPOLY
 70
     0
  9
$TDCREATE
 40
2458320.372778704
  9
$TDUCREATE
 40
2458319.997778704
  9
$TDUPDATE
 40
2458331.395471192
  9
$TDUUPDATE
 40
2458331.020471192
  9
$TDINDWG
 40
0.0001675579
  9
$TDUSRTIMER
 40
2458331.0203039
  9
$USRTIMER
 70
     1
  9
$ANGBASE
 50
0.0
  9
$ANGDIR
 70
     0
  9
$PDMODE
 70
     0
  9
$PDSIZE
 40
-1.0
  9
$PLINEWID
 40
0.0
  9
$SPLFRAME
 70
     0
  9
$SPLINETYPE
 70
     6
  9
$SPLINESEGS
 70
     8
  9
$HANDSEED
  5
1B0
  9
$SURFTAB1
 70
     6
  9
$SURFTAB2
 70
     6
  9
$SURFTYPE
 70
     6
  9
$SURFU
 70
     6
  9
$SURFV
 70
     6
  9
$UCSBASE
  2

  9
$UCSNAME
  2

  9
$UCSORG
 10
0.0
 20
0.0
 30
0.0
  9
$UCSXDIR
 10
1.0
 20
0.0
 30
0.0
  9
$UCSYDIR
 10
0.0
 20
1.0
 30
0.0
  9
$UCSORTHOREF
  2

  9
$UCSORTHOVIEW
 70
     0
  9
$UCSORGTOP
 10
0.0
 20
0.0
 30
0.0
  9
$UCSORGBOTTOM
 10
0.0
 20
0.0
 30
0.0
  9
$UCSORGLEFT
 10
0.0
 20
0.0
 30
0.0
  9
$UCSORGRIGHT
 10
0.0
 20
0.0
 30
0.0
  9
$UCSORGFRONT
 10
0.0
 20
0.0
 30
0.0
  9
$UCSORGBACK
 10
0.0
 20
0.0
 30
0.0
  9
$PUCSBASE
  2

  9
$PUCSNAME
  2

  9
$PUCSORG
 10
0.0
 20
0.0
 30
0.0
  9
$PUCSXDIR
 10
1.0
 20
0.0
 30
0.0
  9
$PUCSYDIR
 10
0.0
 20
1.0
 30
0.0
  9
$PUCSORTHOREF
  2

  9
$PUCSORTHOVIEW
 70
     0
  9
$PUCSORGTOP
 10
0.0
 20
0.0
 30
0.0
  9
$PUCSORGBOTTOM
 10
0.0
 20
0.0
 30
0.0
  9
$PUCSORGLEFT
 10
0.0
 20
0.0
 30
0.0
  9
$PUCSORGRIGHT
 10
0.0
 20
0.0
 30
0.0
  9
$PUCSORGFRONT
 10
0.0
 20
0.0
 30
0.0
  9
$PUCSORGBACK
 10
0.0
 20
0.0
 30
0.0
  9
$USERI1
 70
     0
  9
$USERI2
 70
     0
  9
$USERI3
 70
     0
  9
$USERI4
 70
     0
  9
$USERI5
 70
     0
  9
$USERR1
 40
0.0
  9
$USERR2
 40
0.0
  9
$USERR3
 40
0.0
  9
$USERR4
 40
0.0
  9
$USERR5
 40
0.0
  9
$WORLDVIEW
 70
     1
  9
$SHADEDGE
 70
     3
  9
$SHADEDIF
 70
    70
  9
$TILEMODE
 70
     1
  9
$MAXACTVP
 70
    64
  9
$PINSBASE
 10
0.0
 20
0.0
 30
0.0
  9
$PLIMCHECK
 70
     0
  9
$PEXTMIN
 10
1.000000000000000E+20
 20
1.000000000000000E+20
 30
1.000000000000000E+20
  9
$PEXTMAX
 10
-1.000000000000000E+20
 20
-1.000000000000000E+20
 30
-1.000000000000000E+20
  9
$PLIMMIN
 10
0.0
 20
0.0
  9
$PLIMMAX
 10
0.0
 20
0.0
  9
$UNITMODE
 70
     0
  9
$VISRETAIN
 70
     1
  9
$PLINEGEN
 70
     0
  9
$PSLTSCALE
 70
     1
  9
$TREEDEPTH
 70
  3020
  9
$CMLSTYLE
  2
Standard
  9
$CMLJUST
 70
     0
  9
$CMLSCALE
 40
20.0
  9
$PROXYGRAPHICS
 70
     1
  9
$MEASUREMENT
 70
     1
  9
$CELWEIGHT
370
    -1
  9
$ENDCAPS
280
     0
  9
$JOINSTYLE
280
     0
  9
$LWDISPLAY
290
     1
  9
$INSUNITS
 70
     4
  9
$HYPERLINKBASE
  1

  9
$STYLESHEET
  1

  9
$XEDIT
290
     1
  9
$CEPSNTYPE
380
     0
  9
$PSTYLEMODE
290
     1
  9
$FINGERPRINTGUID
  2
{ECF4BBFA-45A2-4143-B3BA-5D183B2C1B3E}
  9
$VERSIONGUID
  2
{FAEB1C32-E019-11D5-929B-00C0DF256EC4}
  9
$EXTNAMES
290
     1
  9
$PSVPSCALE
 40
0.0
  9
$OLESTARTUP
290
     0
  0
ENDSEC
  0
SECTION
  2
CLASSES
  0
CLASS
  1
ACDBDICTIONARYWDFLT
  2
AcDbDictionaryWithDefault
  3
ObjectDBX Classes
 90
        0
280
     0
281
     0
  0
CLASS
  1
VISUALSTYLE
  2
AcDbVisualStyle
  3
ObjectDBX Classes
 90
     4095
280
     0
281
     0
  0
CLASS
  1
MATERIAL
  2
AcDbMaterial
  3
ObjectDBX Classes
 90
     1153
280
     0
281
     0
  0
CLASS
  1
SCALE
  2
AcDbScale
  3
ObjectDBX Classes
 90
     1153
280
     0
281
     0
  0
CLASS
  1
SUN
  2
AcDbSun
  3
SCENEOE
 90
     1153
280
     0
281
     0
  0
CLASS
  1
ACDBPLACEHOLDER
  2
AcDbPlaceHolder
  3
ObjectDBX Classes
 90
        0
280
     0
281
     0
  0
CLASS
  1
LAYOUT
  2
AcDbLayout
  3
ObjectDBX Classes
 90
        0
280
     0
281
     0
  0
CLASS
  1
TABLESTYLE
  2
AcDbTableStyle
  3
ObjectDBX Classes
 90
     4095
280
     0
281
     0
  0
CLASS
  1
MLEADERSTYLE
  2
AcDbMLeaderStyle
  3
ACDB_MLEADERSTYLE_CLASS
 90
     4095
280
     0
281
     0
  0
CLASS
  1
RASTERVARIABLES
  2
AcDbRasterVariables
  3
ISM
 90
        0
280
     0
281
     0
  0
ENDSEC
  0
SECTION
  2
TABLES
  0
TABLE
  2
VPORT
  5
8
330
0
100
AcDbSymbolTable
 70
     1
  0
VPORT
  5
29
330
8
100
AcDbSymbolTableRecord
100
AcDbViewportTableRecord
  2
*Active
 70
     0
 10
0.0
 20
0.0
 11
1.0
 21
1.0
 12
7.650365828809926
 22
2.221618727845398
 13
0.0
 23
0.0
 14
10.0
 24
10.0
 15
10.0
 25
10.0
 16
0.0
 26
0.0
 36
1.0
 17
0.0
 27
0.0
 37
0.0
 40
85.1278050248187
 41
1.516441005802708
 42
50.0
 43
0.0
 44
0.0
 50
0.0
 51
0.0
 71
    16
 72
  2000
 73
     1
 74
     3
 75
     0
 76
     0
 77
     0
 78
     0
281
     0
 65
     1
110
0.0
120
0.0
130
0.0
111
1.0
121
0.0
131
0.0
112
0.0
122
1.0
132
0.0
 79
     0
146
0.0
  0
ENDTAB
  0
TABLE
  2
LTYPE
  5
5
330
0
100
AcDbSymbolTable
 70
     6
  0
LTYPE
  5
14
330
5
100
AcDbSymbolTableRecord
100
AcDbLinetypeTableRecord
  2
ByBlock
 70
     0
  3

 72
    65
 73
     0
 40
0.0
  0
LTYPE
  5
15
330
5
100
AcDbSymbolTableRecord
100
AcDbLinetypeTableRecord
  2
ByLayer
 70
     0
  3

 72
    65
 73
     0
 40
0.0
  0
LTYPE
  5
16
330
5
100
AcDbSymbolTableRecord
100
AcDbLinetypeTableRecord
  2
Continuous
 70
     0
  3
Solid line
 72
    65
 73
     0
 40
0.0
  0
LTYPE
  5
6A
330
5
100
AcDbSymbolTableRecord
100
AcDbLinetypeTableRecord
  2
HIDDEN
 70
     0
  3
Hidden __ __ __ __ __ __ __ __ __ __ __ __ __ __
 72
    65
 73
     2
 40
1.905
 49
1.27
 74
     0
 49
-0.635
 74
     0
  0
LTYPE
  5
6B
330
5
100
AcDbSymbolTableRecord
100
AcDbLinetypeTableRecord
  2
PHANTOM
 70
     0
  3
Phantom ______  __  __  ______  __  __  ______
 72
    65
 73
     6
 40
12.7
 49
6.35
 74
     0
 49
-1.27
 74
     0
 49
1.27
 74
     0
 49
-1.27
 74
     0
 49
1.27
 74
     0
 49
-1.27
 74
     0
  0
LTYPE
  5
6C
330
5
100
AcDbSymbolTableRecord
100
AcDbLinetypeTableRecord
  2
CENTER
 70
     0
  3
Center ____ _ ____ _ ____ _ ____ _ ____ _ ____
 72
    65
 73
     4
 40
10.16
 49
6.35
 74
     0
 49
-1.27
 74
     0
 49
1.27
 74
     0
 49
-1.27
 74
     0
  0
LTYPE
  5
6D
330
5
100
AcDbSymbolTableRecord
100
AcDbLinetypeTableRecord
  2
CENTERX2
 70
     0
  3
Center (2x) ________  __  ________  __  _____
 72
    65
 73
     4
 40
20.32
 49
12.7
 74
     0
 49
-2.54
 74
     0
 49
2.54
 74
     0
 49
-2.54
 74
     0
  0
LTYPE
  5
6E
330
5
100
AcDbSymbolTableRecord
100
AcDbLinetypeTableRecord
  2
DOT2
 70
     0
  3
Dot (.5x) ........................................
 72
    65
 73
     2
 40
0.635
 49
0.0
 74
     0
 49
-0.635
 74
     0
  0
ENDTAB
  0
TABLE
  2
LAYER
  5
2
102
{ACAD_XDICTIONARY
360
199
102
}
330
0
100
AcDbSymbolTable
 70
    18
  0
LAYER
  5
10
330
2
100
AcDbSymbolTableRecord
100
AcDbLayerTableRecord
  2
0
 70
     0
 62
     7
  6
Continuous
370
    -3
390
F
  0
LAYER
  5
6F
330
2
100
AcDbSymbolTableRecord
100
AcDbLayerTableRecord
  2
FORMAT
 70
     0
 62
     2
  6
Continuous
370
    -3
390
F
  0
LAYER
  5
70
330
2
100
AcDbSymbolTableRecord
100
AcDbLayerTableRecord
  2
외형선
 70
     0
 62
     4
  6
Continuous
370
    30
390
F
  0
LAYER
  5
71
330
2
100
AcDbSymbolTableRecord
100
AcDbLayerTableRecord
  2
숨은선
 70
     0
 62
     2
  6
HIDDEN
370
    15
390
F
  0
LAYER
  5
72
330
2
100
AcDbSymbolTableRecord
100
AcDbLayerTableRecord
  2
중심선
 70
     0
 62
     1
  6
CENTERX2
370
    -3
390
F
  0
LAYER
  5
73
330
2
100
AcDbSymbolTableRecord
100
AcDbLayerTableRecord
  2
파단선
 70
     0
 62
     4
  6
Continuous
370
    -3
390
F
  0
LAYER
  5
74
330
2
100
AcDbSymbolTableRecord
100
AcDbLayerTableRecord
  2
해칭선
 70
     0
 62
   100
  6
Continuous
370
    -3
390
F
  0
LAYER
  5
75
330
2
100
AcDbSymbolTableRecord
100
AcDbLayerTableRecord
  2
가는실선
 70
     0
 62
     4
  6
Continuous
370
    -3
390
F
  0
LAYER
  5
76
330
2
100
AcDbSymbolTableRecord
100
AcDbLayerTableRecord
  2
치수_보조선
 70
     0
 62
     4
  6
Continuous
370
    -3
390
F
  0
LAYER
  5
77
330
2
100
AcDbSymbolTableRecord
100
AcDbLayerTableRecord
  2
치수문자_일반주서
 70
     0
 62
     7
  6
Continuous
370
    15
390
F
  0
LAYER
  5
78
330
2
100
AcDbSymbolTableRecord
100
AcDbLayerTableRecord
  2
개별주서
 70
     0
 62
   100
  6
Continuous
370
    30
390
F
  0
LAYER
  5
79
330
2
100
AcDbSymbolTableRecord
100
AcDbLayerTableRecord
  2
중간선
 70
     0
 62
     2
  6
Continuous
370
    15
390
F
  0
LAYER
  5
7A
330
2
100
AcDbSymbolTableRecord
100
AcDbLayerTableRecord
  2
윤곽선
 70
     0
 62
     3
  6
Continuous
370
    40
390
F
  0
LAYER
  5
7B
330
2
100
AcDbSymbolTableRecord
100
AcDbLayerTableRecord
  2
중심마크
 70
     0
 62
   100
  6
Continuous
370
    30
390
F
  0
LAYER
  5
7C
330
2
100
AcDbSymbolTableRecord
100
AcDbLayerTableRecord
  2
가상선
 70
     0
 62
     4
  6
PHANTOM
370
    -3
390
F
  0
LAYER
  5
7D
330
2
100
AcDbSymbolTableRecord
100
AcDbLayerTableRecord
  2
특수지정선
 70
     0
 62
     5
  6
CENTERX2
370
    60
390
F
  0
LAYER
  5
7E
330
2
100
AcDbSymbolTableRecord
100
AcDbLayerTableRecord
  2
참조1
 70
     0
 62
    -4
  6
Continuous
370
    -3
390
F
  0
LAYER
  5
14C
330
2
100
AcDbSymbolTableRecord
100
AcDbLayerTableRecord
  2
Defpoints
 70
     0
 62
     7
  6
Continuous
290
     0
370
    -3
390
F
  0
ENDTAB
  0
TABLE
  2
STYLE
  5
3
330
0
100
AcDbSymbolTable
 70
     2
  0
STYLE
  5
11
330
3
100
AcDbSymbolTableRecord
100
AcDbTextStyleTableRecord
  2
Standard
 70
     0
 40
0.0
 41
1.0
 50
0.0
 71
     0
 42
3.5
  3
txt
  4

  0
STYLE
  5
94
330
3
100
AcDbSymbolTableRecord
100
AcDbTextStyleTableRecord
  2
SLDTEXTSTYLE0
 70
     0
 40
0.0
 41
0.75
 50
0.0
 71
     0
 42
3.5
  3
TXT
  4

  0
ENDTAB
  0
TABLE
  2
VIEW
  5
6
330
0
100
AcDbSymbolTable
 70
     0
  0
ENDTAB
  0
TABLE
  2
UCS
  5
7
330
0
100
AcDbSymbolTable
 70
     0
  0
ENDTAB
  0
TABLE
  2
APPID
  5
9
330
0
100
AcDbSymbolTable
 70
     1
  0
APPID
  5
12
330
9
100
AcDbSymbolTableRecord
100
AcDbRegAppTableRecord
  2
ACAD
 70
     0
  0
ENDTAB
  0
TABLE
  2
DIMSTYLE
  5
A
330
0
100
AcDbSymbolTable
 70
     4
100
AcDbDimStyleTable
  0
DIMSTYLE
105
27
330
A
100
AcDbSymbolTableRecord
100
AcDbDimStyleTableRecord
  2
ISO-25
 70
     0
 41
2.5
 42
0.625
 43
3.75
 44
1.25
 73
     0
 74
     0
 77
     1
 78
     8
140
2.5
141
2.5
143
0.03937007874016
147
0.625
171
     3
172
     1
178
     0
271
     2
272
     2
274
     3
278
    44
283
     0
284
     8
340
11
  0
DIMSTYLE
105
C9
102
{ACAD_REACTORS
330
C8
102
}
330
A
100
AcDbSymbolTableRecord
100
AcDbDimStyleTableRecord
  2
SLDDIMSTYLE0
 70
     0
 41
3.302
 44
0.0
 45
0.000000001
 73
     0
 74
     0
 77
     1
 78
     4
 79
     1
140
3.5
143
0.0393700787401575
147
0.875
148
0.000000001
170
     1
173
     1
178
     0
271
     2
272
     2
276
     2
284
    12
340
94
  0
DIMSTYLE
105
DE
102
{ACAD_REACTORS
330
DD
102
}
330
A
100
AcDbSymbolTableRecord
100
AcDbDimStyleTableRecord
  2
SLDDIMSTYLE1
 70
     0
 41
3.302
 44
0.0
 45
0.000000001
 73
     0
 74
     0
 77
     1
 78
    12
 79
     3
140
3.5
143
0.0393700787401575
147
0.875
148
0.000000001
170
     1
173
     1
178
     0
271
     2
272
     2
276
     2
284
    12
340
94
  0
DIMSTYLE
105
F2
102
{ACAD_REACTORS
330
F1
330
106
102
}
330
A
100
AcDbSymbolTableRecord
100
AcDbDimStyleTableRecord
  2
SLDDIMSTYLE2
 70
     0
 41
3.302
 44
0.0
 45
0.000000001
 73
     0
 74
     0
 77
     1
 78
    12
 79
     3
140
3.5
143
0.0393700787401575
147
0.875
148
0.000000001
170
     1
172
     1
173
     1
178
     0
271
     2
272
     2
276
     2
284
    12
289
     0
340
94
  0
ENDTAB
  0
TABLE
  2
BLOCK_RECORD
  5
1
330
0
100
AcDbSymbolTable
 70
     8
  0
BLOCK_RECORD
  5
1F
330
1
100
AcDbSymbolTableRecord
100
AcDbBlockTableRecord
  2
*Model_Space
340
22
  0
BLOCK_RECORD
  5
1B
330
1
100
AcDbSymbolTableRecord
100
AcDbBlockTableRecord
  2
*Paper_Space
340
1E
  0
BLOCK_RECORD
  5
23
330
1
100
AcDbSymbolTableRecord
100
AcDbBlockTableRecord
  2
*Paper_Space0
340
26
  0
BLOCK_RECORD
  5
7F
330
1
100
AcDbSymbolTableRecord
100
AcDbBlockTableRecord
  2
블럭10
340
0
102
{BLKREFS
331
C1
102
}
  0
BLOCK_RECORD
  5
CA
330
1
100
AcDbSymbolTableRecord
100
AcDbBlockTableRecord
  2
_D
340
0
  0
BLOCK_RECORD
  5
DF
330
1
100
AcDbSymbolTableRecord
100
AcDbBlockTableRecord
  2
_D_1
340
0
  0
BLOCK_RECORD
  5
F3
330
1
100
AcDbSymbolTableRecord
100
AcDbBlockTableRecord
  2
_D_2
340
0
  0
BLOCK_RECORD
  5
107
330
1
100
AcDbSymbolTableRecord
100
AcDbBlockTableRecord
  2
_D_3
340
0
  0
BLOCK_RECORD
  5
121
330
1
100
AcDbSymbolTableRecord
100
AcDbBlockTableRecord
  2
SW_DOWELSYMBOL_0
340
0
102
{BLKREFS
331
127
102
}
  0
ENDTAB
  0
ENDSEC
  0
SECTION
  2
BLOCKS
  0
BLOCK
  5
20
330
1F
100
AcDbEntity
  8
0
100
AcDbBlockBegin
  2
*Model_Space
 70
     0
 10
0.0
 20
0.0
 30
0.0
  3
*Model_Space
  1
*Model_Space
  0
ENDBLK
  5
21
330
1F
100
AcDbEntity
  8
0
100
AcDbBlockEnd
  0
BLOCK
  5
1C
330
1B
100
AcDbEntity
 67
     1
  8
0
100
AcDbBlockBegin
  2
*Paper_Space
 70
     0
 10
0.0
 20
0.0
 30
0.0
  3
*Paper_Space
  1
*Paper_Space
  0
ENDBLK
  5
1D
330
1B
100
AcDbEntity
 67
     1
  8
0
100
AcDbBlockEnd
  0
BLOCK
  5
24
330
23
100
AcDbEntity
  8
0
100
AcDbBlockBegin
  2
*Paper_Space0
 70
     0
 10
0.0
 20
0.0
 30
0.0
  3
*Paper_Space0
  1
*Paper_Space0
  0
ENDBLK
  5
25
330
23
100
AcDbEntity
  8
0
100
AcDbBlockEnd
  0
BLOCK
  5
80
330
7F
100
AcDbEntity
  8
0
100
AcDbBlockBegin
  2
블럭10
 70
     2
 10
0.0
 20
0.0
 30
0.0
  3
블럭10
  1
블럭10
  0
ELLIPSE
  5
82
330
7F
100
AcDbEntity
  8
중심선
100
AcDbEllipse
 10
20.54032771741204
 20
12.0471743016438
 30
0.0
 11
6.600054785286829
 21
-1.261213355974178E-13
 31
0.0
210
0.0
220
0.0
230
1.0
 40
0.636358354079598
 41
0.9219305317359503
 42
6.513795318482858
  0
ELLIPSE
  5
83
330
7F
100
AcDbEntity
  8
중심선
100
AcDbEllipse
 10
20.54032771746488
 20
12.04717430159265
 30
0.0
 11
3.960054785062283
 21
1.540847449632565E-10
 31
0.0
210
0.0
220
0.0
230
1.0
 40
0.3939339440162632
 41
1.131841032648279
 42
5.62031148352944
  0
LINE
  5
84
330
7F
100
AcDbEntity
  8
중심선
100
AcDbLine
 10
2.268634060543552
 20
16.24717430164393
 30
0.0
 11
5.714909304380834
 21
16.24717430164393
 31
0.0
  0
LINE
  5
85
330
7F
100
AcDbEntity
  8
중심선
100
AcDbLine
 10
5.245725140726316
 20
7.84717430164391
 30
0.0
 11
8.692000384563599
 21
7.84717430164391
 31
0.0
  0
LINE
  5
86
330
7F
100
AcDbEntity
  8
중심선
100
AcDbLine
 10
15.74043728645272
 20
16.24717430164393
 30
0.0
 11
8.692000384563599
 21
7.84717430164391
 31
0.0
  0
LINE
  5
87
330
7F
100
AcDbEntity
  8
중심선
100
AcDbLine
 10
0.1404042013395286
 20
13.71084872107135
 30
0.0
 11
3.58671253028996
 21
13.71088815037384
 31
0.0
  0
LINE
  5
88
330
7F
100
AcDbEntity
  8
중심선
100
AcDbLine
 10
2.750260043222114
 20
10.84717430164391
 30
0.0
 11
6.196535287059397
 21
10.84717430164391
 31
0.0
  0
LINE
  5
89
330
7F
100
AcDbEntity
  8
중심선
100
AcDbLine
 10
12.29416204261559
 20
16.24717430164393
 30
0.0
 11
5.245725140726316
 21
7.84717430164391
 31
0.0
  0
LINE
  5
8A
330
7F
100
AcDbEntity
  8
중심선
100
AcDbLine
 10
10.72767329541681
 20
16.24717430164393
 30
0.0
 11
6.196535287059397
 21
10.84717430164391
 31
0.0
  0
LINE
  5
8B
330
7F
100
AcDbEntity
  8
중심선
100
AcDbLine
 10
7.28139805157953
 20
16.24717430164393
 30
0.0
 11
2.750260043222114
 21
10.84717430164391
 31
0.0
  0
LINE
  5
8C
330
7F
100
AcDbEntity
  8
중심선
100
AcDbLine
 10
5.714909304380834
 20
16.24717430164393
 30
0.0
 11
3.58671253028996
 21
13.71088815037384
 31
0.0
  0
LINE
  5
8D
330
7F
100
AcDbEntity
  8
중심선
100
AcDbLine
 10
2.268634060543552
 20
16.24717430164393
 30
0.0
 11
0.1404042013395286
 21
13.71084872107135
 31
0.0
  0
LINE
  5
8E
330
7F
100
AcDbEntity
  8
중심선
100
AcDbLine
 10
7.28139805157953
 20
16.24717430164393
 30
0.0
 11
10.72767329541681
 21
16.24717430164393
 31
0.0
  0
LINE
  5
8F
330
7F
100
AcDbEntity
  8
중심선
100
AcDbLine
 10
12.29416204261559
 20
16.24717430164393
 30
0.0
 11
15.74043728645272
 21
16.24717430164393
 31
0.0
  0
LINE
  5
90
330
7F
100
AcDbEntity
  8
중심선
100
AcDbLine
 10
19.22036997980202
 20
11.08717430171403
 30
0.0
 11
23.66174974927406
 21
11.08717430171406
 31
0.0
  0
LINE
  5
91
330
7F
100
AcDbEntity
  8
중심선
100
AcDbLine
 10
19.22039502424796
 20
13.00717430171391
 30
0.0
 11
19.22036997980202
 21
11.08717430171403
 31
0.0
  0
LINE
  5
92
330
7F
100
AcDbEntity
  8
중심선
100
AcDbLine
 10
19.22039502424796
 20
13.00717430171391
 30
0.0
 11
26.96566020931264
 21
13.00717430171391
 31
0.0
  0
LINE
  5
93
330
7F
100
AcDbEntity
  8
중심선
100
AcDbLine
 10
22.22332737316547
 20
13.45928029700563
 30
0.0
 11
24.52862924686651
 21
15.39360700705356
 31
0.0
  0
ATTDEF
  5
95
330
7F
100
AcDbEntity
  8
FORMAT
 62
     2
100
AcDbText
 10
4.408487351596664
 20
2.075366912832191
 30
0.0
 40
4.233333333333333
  1
E2069012
 41
0.75
  7
SLDTEXTSTYLE0
 11
4.408487351596664
 21
-0.0412997538344756
 31
0.0
100
AcDbAttributeDefinition
  3

  2
AUTOATTR0
 70
     0
 74
     1
  0
ENDBLK
  5
81
330
7F
100
AcDbEntity
  8
0
100
AcDbBlockEnd
  0
BLOCK
  5
CB
330
CA
100
AcDbEntity
  8
0
100
AcDbBlockBegin
  2
_D
 70
     0
 10
0.0
 20
0.0
 30
0.0
  3
_D
  1
_D
  0
LINE
  5
CD
330
CA
100
AcDbEntity
  8
치수문자_일반주서
 62
     0
370
    -2
100
AcDbLine
 10
41.27499999999999
 20
1.377514629548138
 30
0.0
 11
41.27499999999999
 21
22.82277225922702
 31
0.0
  0
LINE
  5
CE
330
CA
100
AcDbEntity
  8
치수문자_일반주서
 62
     0
370
    -2
100
AcDbLine
 10
28.57499999999998
 20
2.44375
 30
0.0
 11
28.57499999999998
 21
22.82277225922702
 31
0.0
  0
LINE
  5
CF
330
CA
100
AcDbEntity
  8
치수문자_일반주서
 62
     0
370
    -2
100
AcDbLine
 10
37.97299999999999
 20
22.82277225922702
 30
0.0
 11
31.87699999999998
 21
22.82277225922702
 31
0.0
  0
SOLID
  5
D0
330
CA
100
AcDbEntity
  8
치수문자_일반주서
 62
     0
100
AcDbTrace
 10
37.97299999999999
 20
22.27243892589368
 30
0.0
 11
37.97299999999999
 21
23.37310559256035
 31
0.0
 12
41.27499999999999
 22
22.82277225922702
 32
0.0
 13
41.27499999999999
 23
22.82277225922702
 33
0.0
  0
SOLID
  5
D1
330
CA
100
AcDbEntity
  8
치수문자_일반주서
 62
     0
100
AcDbTrace
 10
31.87699999999998
 20
23.37310559256035
 30
0.0
 11
31.87699999999998
 21
22.27243892589368
 31
0.0
 12
28.57499999999998
 22
22.82277225922702
 32
0.0
 13
28.57499999999998
 23
22.82277225922702
 33
0.0
  0
MTEXT
  5
D2
330
CA
100
AcDbEntity
  8
치수문자_일반주서
 62
     0
100
AcDbMText
 10
34.92499999999998
 20
27.19777225922702
 30
0.0
 40
3.5
 41
0.0
 71
     2
 72
     1
  1
\A1;12.70 [1/2]
  7
SLDTEXTSTYLE0
 73
     1
 44
1.0
  0
POINT
  5
D3
330
CA
100
AcDbEntity
  8
Defpoints
 62
     0
100
AcDbPoint
 10
41.27499999999999
 20
1.315014629548138
 30
0.0
  0
POINT
  5
D4
330
CA
100
AcDbEntity
  8
Defpoints
 62
     0
100
AcDbPoint
 10
28.57499999999998
 20
2.38125
 30
0.0
  0
POINT
  5
D5
330
CA
100
AcDbEntity
  8
Defpoints
 62
     0
100
AcDbPoint
 10
28.57499999999998
 20
22.82277225922702
 30
0.0
  0
ENDBLK
  5
CC
330
CA
100
AcDbEntity
  8
0
100
AcDbBlockEnd
  0
BLOCK
  5
E0
330
DF
100
AcDbEntity
  8
0
100
AcDbBlockBegin
  2
_D_1
 70
     0
 10
0.0
 20
0.0
 30
0.0
  3
_D_1
  1
_D_1
  0
LINE
  5
E2
330
DF
100
AcDbEntity
  8
치수문자_일반주서
 62
     0
370
    -2
100
AcDbLine
 10
41.27499999999999
 20
1.377514629548138
 30
0.0
 11
41.27499999999999
 21
35.75282056895201
 31
0.0
  0
LINE
  5
E3
330
DF
100
AcDbEntity
  8
치수문자_일반주서
 62
     0
370
    -2
100
AcDbLine
 10
-41.27500000000002
 20
3.872500000000006
 30
0.0
 11
-41.27500000000002
 21
35.75282056895201
 31
0.0
  0
LINE
  5
E4
330
DF
100
AcDbEntity
  8
치수문자_일반주서
 62
     0
370
    -2
100
AcDbLine
 10
37.97299999999999
 20
35.75282056895201
 30
0.0
 11
-37.97300000000002
 21
35.75282056895201
 31
0.0
  0
SOLID
  5
E5
330
DF
100
AcDbEntity
  8
치수문자_일반주서
 62
     0
100
AcDbTrace
 10
37.97299999999999
 20
35.20248723561868
 30
0.0
 11
37.97299999999999
 21
36.30315390228535
 31
0.0
 12
41.27499999999999
 22
35.75282056895201
 32
0.0
 13
41.27499999999999
 23
35.75282056895201
 33
0.0
  0
SOLID
  5
E6
330
DF
100
AcDbEntity
  8
치수문자_일반주서
 62
     0
100
AcDbTrace
 10
-37.97300000000002
 20
36.30315390228535
 30
0.0
 11
-37.97300000000002
 21
35.20248723561868
 31
0.0
 12
-41.27500000000002
 22
35.75282056895201
 32
0.0
 13
-41.27500000000002
 23
35.75282056895201
 33
0.0
  0
MTEXT
  5
E7
330
DF
100
AcDbEntity
  8
치수문자_일반주서
 62
     0
100
AcDbMText
 10
-0.0000000000000124
 20
40.12782056895201
 30
0.0
 40
3.5
 41
0.0
 71
     2
 72
     1
  1
\A1;82.55 [3 1/4]
  7
SLDTEXTSTYLE0
 73
     1
 44
1.0
  0
POINT
  5
E8
330
DF
100
AcDbEntity
  8
Defpoints
 62
     0
100
AcDbPoint
 10
41.27499999999999
 20
1.315014629548138
 30
0.0
  0
POINT
  5
E9
330
DF
100
AcDbEntity
  8
Defpoints
 62
     0
100
AcDbPoint
 10
-41.27500000000002
 20
3.810000000000006
 30
0.0
  0
POINT
  5
EA
330
DF
100
AcDbEntity
  8
Defpoints
 62
     0
100
AcDbPoint
 10
-41.27500000000002
 20
35.75282056895201
 30
0.0
  0
ENDBLK
  5
E1
330
DF
100
AcDbEntity
  8
0
100
AcDbBlockEnd
  0
BLOCK
  5
F4
330
F3
100
AcDbEntity
  8
0
100
AcDbBlockBegin
  2
_D_2
 70
     0
 10
0.0
 20
0.0
 30
0.0
  3
_D_2
  1
_D_2
  0
LINE
  5
F6
330
F3
100
AcDbEntity
  8
치수문자_일반주서
 62
     0
370
    -2
100
AcDbLine
 10
30.44336463762091
 20
2.381249999999986
 30
0.0
 11
57.70240454570622
 21
2.38125000000009
 31
0.0
  0
LINE
  5
F7
330
F3
100
AcDbEntity
  8
치수문자_일반주서
 62
     0
370
    -2
100
AcDbLine
 10
30.44336463762094
 20
-2.381249999999988
 30
0.0
 11
57.70240454570624
 21
-2.381249999999884
 31
0.0
  0
LINE
  5
F8
330
F3
100
AcDbEntity
  8
치수문자_일반주서
 62
     0
370
    -2
100
AcDbLine
 10
57.70240454570622
 20
2.38125000000009
 30
0.0
 11
57.70240454570612
 21
36.98525000000009
 31
0.0
  0
LINE
  5
F9
330
F3
100
AcDbEntity
  8
치수문자_일반주서
 62
     0
370
    -2
100
AcDbLine
 10
57.70240454570622
 20
2.38125000000009
 30
0.0
 11
57.70240454570624
 21
-2.381249999999884
 31
0.0
  0
LINE
  5
FA
330
F3
100
AcDbEntity
  8
치수문자_일반주서
 62
     0
370
    -2
100
AcDbLine
 10
57.70240454570622
 20
5.68325000000009
 30
0.0
 11
57.70240454570621
 21
8.98525000000009
 31
0.0
  0
LINE
  5
FB
330
F3
100
AcDbEntity
  8
치수문자_일반주서
 62
     0
370
    -2
100
AcDbLine
 10
57.70240454570624
 20
-5.683249999999884
 30
0.0
 11
57.70240454570625
 21
-8.985249999999883
 31
0.0
  0
SOLID
  5
FC
330
F3
100
AcDbEntity
  8
치수문자_일반주서
 62
     0
100
AcDbTrace
 10
57.15207121237288
 20
5.683250000000088
 30
0.0
 11
58.25273787903955
 21
5.683250000000092
 31
0.0
 12
57.70240454570622
 22
2.38125000000009
 32
0.0
 13
57.70240454570622
 23
2.38125000000009
 33
0.0
  0
SOLID
  5
FD
330
F3
100
AcDbEntity
  8
치수문자_일반주서
 62
     0
100
AcDbTrace
 10
58.25273787903958
 20
-5.683249999999882
 30
0.0
 11
57.15207121237291
 21
-5.683249999999886
 31
0.0
 12
57.70240454570624
 22
-2.381249999999884
 32
0.0
 13
57.70240454570624
 23
-2.381249999999884
 33
0.0
  0
MTEXT
  5
FE
330
F3
100
AcDbEntity
  8
치수문자_일반주서
 62
     0
100
AcDbMText
 10
53.32740454570616
 20
22.98525000000008
 30
0.0
 40
3.5
 41
0.0
 71
     2
 72
     1
  1
\A1;%%c4.76 [3/16]
  7
SLDTEXTSTYLE0
 11
-2.983906501879702E-15
 21
1.0
 31
0.0
 73
     1
 44
1.0
  0
POINT
  5
FF
330
F3
100
AcDbEntity
  8
Defpoints
 62
     0
100
AcDbPoint
 10
30.38086463762091
 20
2.381249999999985
 30
0.0
  0
POINT
  5
100
330
F3
100
AcDbEntity
  8
Defpoints
 62
     0
100
AcDbPoint
 10
30.38086463762094
 20
-2.381249999999989
 30
0.0
  0
POINT
  5
101
330
F3
100
AcDbEntity
  8
Defpoints
 62
     0
100
AcDbPoint
 10
57.70240454570624
 20
-2.381249999999886
 30
0.0
  0
ENDBLK
  5
F5
330
F3
100
AcDbEntity
  8
0
100
AcDbBlockEnd
  0
BLOCK
  5
108
330
107
100
AcDbEntity
  8
0
100
AcDbBlockBegin
  2
_D_3
 70
     0
 10
0.0
 20
0.0
 30
0.0
  3
_D_3
  1
_D_3
  0
LINE
  5
10A
330
107
100
AcDbEntity
  8
치수문자_일반주서
 62
     0
370
    -2
100
AcDbLine
 10
-18.75055401447656
 20
4.762500000000004
 30
0.0
 11
-54.27500000000006
 21
4.762499999999871
 31
0.0
  0
LINE
  5
10B
330
107
100
AcDbEntity
  8
치수문자_일반주서
 62
     0
370
    -2
100
AcDbLine
 10
-18.75055401447656
 20
-4.762500000000006
 30
0.0
 11
-54.27500000000002
 21
-4.762500000000139
 31
0.0
  0
LINE
  5
10C
330
107
100
AcDbEntity
  8
치수문자_일반주서
 62
     0
370
    -2
100
AcDbLine
 10
-54.27500000000004
 20
1.460499999999871
 30
0.0
 11
-54.27500000000003
 21
-1.460500000000139
 31
0.0
  0
SOLID
  5
10D
330
107
100
AcDbEntity
  8
치수문자_일반주서
 62
     0
100
AcDbTrace
 10
-53.72466666666671
 20
1.460499999999873
 30
0.0
 11
-54.82533333333338
 21
1.460499999999869
 31
0.0
 12
-54.27500000000006
 22
4.762499999999871
 32
0.0
 13
-54.27500000000006
 23
4.762499999999871
 33
0.0
  0
SOLID
  5
10E
330
107
100
AcDbEntity
  8
치수문자_일반주서
 62
     0
100
AcDbTrace
 10
-54.82533333333337
 20
-1.460500000000141
 30
0.0
 11
-53.7246666666667
 21
-1.460500000000137
 31
0.0
 12
-54.27500000000002
 22
-4.762500000000139
 32
0.0
 13
-54.27500000000002
 23
-4.762500000000139
 33
0.0
  0
MTEXT
  5
10F
330
107
100
AcDbEntity
  8
치수문자_일반주서
 62
     0
100
AcDbMText
 10
-58.65000000000004
 20
-0.0000000000000169
 30
0.0
 40
3.5
 41
0.0
 71
     2
 72
     1
  1
\A1;%%c9.53 [3/8]
  7
SLDTEXTSTYLE0
 11
-3.729883127349603E-15
 21
1.0
 31
0.0
 73
     1
 44
1.0
  0
POINT
  5
110
330
107
100
AcDbEntity
  8
Defpoints
 62
     0
100
AcDbPoint
 10
-18.68805401447656
 20
4.762500000000004
 30
0.0
  0
POINT
  5
111
330
107
100
AcDbEntity
  8
Defpoints
 62
     0
100
AcDbPoint
 10
-18.68805401447656
 20
-4.762500000000006
 30
0.0
  0
POINT
  5
112
330
107
100
AcDbEntity
  8
Defpoints
 62
     0
100
AcDbPoint
 10
-54.27500000000003
 20
-4.762500000000139
 30
0.0
  0
ENDBLK
  5
109
330
107
100
AcDbEntity
  8
0
100
AcDbBlockEnd
  0
BLOCK
  5
122
330
121
100
AcDbEntity
  8
0
100
AcDbBlockBegin
  2
SW_DOWELSYMBOL_0
 70
     0
 10
0.0
 20
0.0
 30
0.0
  3
SW_DOWELSYMBOL_0
  1
SW_DOWELSYMBOL_0
  0
CIRCLE
  5
124
330
121
100
AcDbEntity
  8
해칭선
 62
     0
100
AcDbCircle
 10
0.0
 20
0.0
 30
0.0
 40
3.000000000000001
  0
HATCH
  5
125
330
121
100
AcDbEntity
  8
0
  6
Continuous
 62
     0
370
     0
100
AcDbHatch
 10
0.0
 20
0.0
 30
0.0
210
0.0
220
0.0
230
1.0
  2
SOLID
 70
     1
 71
     0
 91
        1
 92
        0
 93
        3
 72
     2
 10
0.0
 20
0.0
 40
3.000000000000001
 50
0.0
 51
90.0
 73
     1
 72
     1
 10
0.0
 20
3.000000000000001
 11
0.0
 21
0.0
 72
     1
 10
0.0
 20
0.0
 11
3.000000000000001
 21
0.0
 97
        0
 75
     0
 76
     1
 98
        1
 10
0.0
 20
0.0
  0
HATCH
  5
126
330
121
100
AcDbEntity
  8
0
  6
Continuous
 62
     0
370
     0
100
AcDbHatch
 10
0.0
 20
0.0
 30
0.0
210
0.0
220
0.0
230
1.0
  2
SOLID
 70
     1
 71
     0
 91
        1
 92
        0
 93
        3
 72
     2
 10
0.0
 20
0.0
 40
3.000000000000001
 50
180.0
 51
270.0000000000008
 73
     1
 72
     1
 10
0.0
 20
-3.000000000000001
 11
0.0
 21
0.0
 72
     1
 10
0.0
 20
0.0
 11
-3.000000000000001
 21
0.0
 97
        0
 75
     0
 76
     1
 98
        1
 10
0.0
 20
0.0
  0
ENDBLK
  5
123
330
121
100
AcDbEntity
  8
0
100
AcDbBlockEnd
  0
ENDSEC
  0
SECTION
  2
ENTITIES
  0
LINE
  5
96
330
1F
100
AcDbEntity
  8
외형선
  6
Continuous
 62
     1
370
    15
100
AcDbLine
 10
35.40855877611854
 20
-2.381249999999989
 30
0.0
 11
36.85945011334908
 21
-2.381249999999989
 31
0.0
  0
LINE
  5
97
330
1F
100
AcDbEntity
  8
외형선
  6
Continuous
 62
     1
370
    15
100
AcDbLine
 10
30.38142844462069
 20
2.381249999999985
 30
0.0
 11
28.92824173773097
 21
2.381249999999985
 31
0.0
  0
ARC
  5
98
330
1F
100
AcDbEntity
  8
외형선
  6
Continuous
 62
     1
370
    15
100
AcDbCircle
 10
38.89375000000003
 20
0.0000000000000001
 30
0.0
 40
2.381249999999973
100
AcDbArc
 50
332.3854589715959
 51
0.0
  0
ARC
  5
99
330
1F
100
AcDbEntity
  8
외형선
  6
Continuous
 62
     1
370
    15
100
AcDbCircle
 10
38.89375000000003
 20
0.0000000000000001
 30
0.0
 40
2.381249999999973
100
AcDbArc
 50
0.0
 51
27.60572523396904
  0
LINE
  5
9A
330
1F
100
AcDbEntity
  8
외형선
  6
Continuous
 62
     1
370
    15
100
AcDbLine
 10
36.85945011334908
 20
2.381249999999985
 30
0.0
 11
35.40855877611851
 21
2.381249999999985
 31
0.0
  0
LINE
  5
9B
330
1F
100
AcDbEntity
  8
외형선
  6
Continuous
 62
     1
370
    15
100
AcDbLine
 10
28.92824173773097
 20
-2.381249999999989
 30
0.0
 11
30.38142844462071
 21
-2.381249999999989
 31
0.0
  0
LINE
  5
9C
330
1F
100
AcDbEntity
  8
외형선
  6
Continuous
370
    15
100
AcDbLine
 10
-18.68805401447656
 20
-4.762500000000006
 30
0.0
 11
18.68805401447656
 21
-4.762500000000006
 31
0.0
  0
LINE
  5
9D
330
1F
100
AcDbEntity
  8
외형선
  6
Continuous
370
    15
100
AcDbLine
 10
18.68805401447656
 20
4.762500000000004
 30
0.0
 11
4.838700000000024
 21
4.762500000000004
 31
0.0
  0
LINE
  5
9E
330
1F
100
AcDbEntity
  8
외형선
  6
Continuous
370
    15
100
AcDbLine
 10
18.68805401447656
 20
-4.762500000000009
 30
0.0
 11
27.57499999999996
 21
-2.381250000000001
 31
0.0
  0
LINE
  5
9F
330
1F
100
AcDbEntity
  8
외형선
  6
Continuous
370
    15
100
AcDbLine
 10
27.57499999999996
 20
2.381249999999998
 30
0.0
 11
18.68805401447656
 21
4.762500000000007
 31
0.0
  0
LINE
  5
A2
330
1F
100
AcDbEntity
  8
외형선
  6
Continuous
370
    15
100
AcDbLine
 10
27.57499999999996
 20
-2.381250000000001
 30
0.0
 11
28.57499999999996
 21
-2.381250000000001
 31
0.0
  0
LINE
  5
A3
330
1F
100
AcDbEntity
  8
외형선
  6
Continuous
370
    15
100
AcDbLine
 10
28.57499999999996
 20
2.381249999999998
 30
0.0
 11
27.57499999999996
 21
2.381249999999998
 31
0.0
  0
SPLINE
  5
A4
330
1F
100
AcDbEntity
  8
외형선
  6
Continuous
 62
     1
370
    15
100
AcDbSpline
210
0.0
220
0.0
230
1.0
 70
     8
 71
     3
 72
    38
 73
    34
 74
     0
 42
0.000000001
 43
0.00000001
 40
0.0
 40
0.0
 40
0.0
 40
0.0
 40
0.0625
 40
0.0625
 40
0.125
 40
0.125
 40
0.1875
 40
0.1875
 40
0.25
 40
0.25
 40
0.3125
 40
0.3125
 40
0.375
 40
0.375
 40
0.4375
 40
0.4375
 40
0.5
 40
0.5
 40
0.5625
 40
0.5625
 40
0.625
 40
0.625
 40
0.6875
 40
0.6875
 40
0.75
 40
0.75
 40
0.8125
 40
0.8125
 40
0.875
 40
0.875
 40
0.9375
 40
0.9375
 40
1.0
 40
1.0
 40
1.0
 40
1.0
 10
28.57499999999995
 20
2.372493171076806
 30
0.0
 10
28.7877623181784
 20
2.383090258505686
 30
0.0
 10
29.0041139722068
 20
2.384087427572986
 30
0.0
 10
29.43615376148483
 20
2.366553617851222
 30
0.0
 10
29.64998020747414
 20
2.348110195877932
 30
0.0
 10
30.07775076427162
 20
2.292380841746615
 30
0.0
 10
30.29455824838137
 20
2.254910238260546
 30
0.0
 10
30.72612086222722
 20
2.16196180238759
 30
0.0
 10
30.93847755105764
 20
2.106749420608762
 30
0.0
 10
31.36803247262414
 20
1.97927657334889
 30
0.0
 10
31.58505432725388
 20
1.906949733143892
 30
0.0
 10
32.01566434548194
 20
1.747717291448045
 30
0.0
 10
32.22761209194076
 20
1.661098652755575
 30
0.0
 10
32.65848331725181
 20
1.474124831244741
 30
0.0
 10
32.87547728133905
 20
1.373980120903422
 30
0.0
 10
33.30466278071555
 20
1.164075989719528
 30
0.0
 10
33.51726389379397
 20
1.054299318891417
 30
0.0
 10
33.94897854167138
 20
0.8259380429450628
 30
0.0
 10
34.16570245848813
 20
0.7077447821952296
 30
0.0
 10
34.59299672753032
 20
0.4677061178430913
 30
0.0
 10
34.80731112929794
 20
0.3451732990117656
 30
0.0
 10
35.23939322057003
 20
0.0976278436935577
 30
0.0
 10
35.4550706028956
 20
-0.026979195615047
 30
0.0
 10
35.8811526373667
 20
-0.2739526989253853
 30
0.0
 10
36.09763051931907
 20
-0.397487503867776
 30
0.0
 10
36.52960272283511
 20
-0.6401169067490212
 30
0.0
 10
36.74299713727483
 20
-0.7588256211175827
 30
0.0
 10
37.17121952595366
 20
-0.9894013914423933
 30
0.0
 10
37.38809778325641
 20
-1.101609375230269
 30
0.0
 10
37.81948317233626
 20
-1.315709377157682
 30
0.0
 10
38.03165164545011
 20
-1.417262076949437
 30
0.0
 10
38.46155118853049
 20
-1.608916805996149
 30
0.0
 10
38.67858809711997
 20
-1.698849400449857
 30
0.0
 10
38.89375000000007
 20
-1.781238826242462
 30
0.0
  0
SPLINE
  5
A5
330
1F
100
AcDbEntity
  8
외형선
  6
Continuous
 62
     1
370
    15
100
AcDbSpline
210
0.0
220
0.0
230
1.0
 70
     8
 71
     3
 72
    16
 73
    12
 74
     0
 42
0.000000001
 43
0.00000001
 40
0.0
 40
0.0
 40
0.0
 40
0.0
 40
0.1298271249521651
 40
0.2634616199720717
 40
0.3916915369181673
 40
0.5238381863788034
 40
0.649637034322173
 40
0.7785771898978716
 40
0.8826923085299183
 40
0.9891526939204676
 40
0.9999999999999999
 40
0.9999999999999999
 40
0.9999999999999999
 40
0.9999999999999999
 10
38.89375000000005
 20
-1.781238826242781
 30
0.0
 10
39.00339922461573
 20
-1.81813802376109
 30
0.0
 10
39.22591329751517
 20
-1.89301854166076
 30
0.0
 10
39.56067914528153
 20
-1.928476258570149
 30
0.0
 10
39.89116206943251
 20
-1.901420128002236
 30
0.0
 10
40.19923589180209
 20
-1.811094516079542
 30
0.0
 10
40.47954352392868
 20
-1.666222363558704
 30
0.0
 10
40.70763617477157
 20
-1.489462042508577
 30
0.0
 10
40.87639899814904
 20
-1.303052219298744
 30
0.0
 10
40.97737730690039
 20
-1.168899618107403
 30
0.0
 10
40.99948302900701
 20
-1.108588461921583
 30
0.0
 10
41.00152711947365
 20
-1.103011559307955
 30
0.0
  0
LINE
  5
A6
330
1F
100
AcDbEntity
  8
외형선
  6
Continuous
 62
     1
370
    15
100
AcDbLine
 10
39.37976257552506
 20
-1.897241279763451
 30
0.0
 11
38.89375000000004
 21
-2.097618042705574
 31
0.0
  0
SPLINE
  5
A7
330
1F
100
AcDbEntity
  8
외형선
  6
Continuous
 62
     1
370
    15
100
AcDbSpline
210
0.0
220
0.0
230
1.0
 70
     8
 71
     3
 72
    38
 73
    34
 74
     0
 42
0.000000001
 43
0.00000001
 40
0.0
 40
0.0
 40
0.0
 40
0.0
 40
0.0625
 40
0.0625
 40
0.125
 40
0.125
 40
0.1875
 40
0.1875
 40
0.25
 40
0.25
 40
0.3125
 40
0.3125
 40
0.375
 40
0.375
 40
0.4375
 40
0.4375
 40
0.5
 40
0.5
 40
0.5625
 40
0.5625
 40
0.625
 40
0.625
 40
0.6875
 40
0.6875
 40
0.75
 40
0.75
 40
0.8125
 40
0.8125
 40
0.875
 40
0.875
 40
0.9375
 40
0.9375
 40
1.0
 40
1.0
 40
1.0
 40
1.0
 10
28.57499999999996
 20
1.009552537052346
 30
0.0
 10
28.7877623181784
 20
0.8975376758936903
 30
0.0
 10
29.00411397220676
 20
0.7807853047736815
 30
0.0
 10
29.43615376148483
 20
0.5419524293372562
 30
0.0
 10
29.64998020747413
 20
0.4202412489090969
 30
0.0
 10
30.07775076427165
 20
0.1743866530529389
 30
0.0
 10
30.29455824838139
 20
0.0496876655492127
 30
0.0
 10
30.72612086222716
 20
-0.1987133856657419
 30
0.0
 10
30.93847755105764
 20
-0.3219522428974051
 30
0.0
 10
31.36803247262414
 20
-0.5657408143384992
 30
0.0
 10
31.58505432725388
 20
-0.686238083753965
 30
0.0
 10
32.01566434548195
 20
-0.9200268918302758
 30
0.0
 10
32.22761209194074
 20
-1.033055497939172
 30
0.0
 10
32.65848331725181
 20
-1.251015264772404
 30
0.0
 10
32.87547728133904
 20
-1.355566164920394
 30
0.0
 10
33.30466278071556
 20
-1.552034685579222
 30
0.0
 10
33.51726389379392
 20
-1.644070705266792
 30
0.0
 10
33.94897854167139
 20
-1.814920486467967
 30
0.0
 10
34.1657024584881
 20
-1.893347395638794
 30
0.0
 10
34.59299672753029
 20
-2.03349985995144
 30
0.0
 10
34.80731112929796
 20
-2.095675302771933
 30
0.0
 10
35.23939322057003
 20
-2.202727481108666
 30
0.0
 10
35.45507060289559
 20
-2.247397339927288
 30
0.0
 10
35.8811526373667
 20
-2.317875761862988
 30
0.0
 10
36.09763051931904
 20
-2.344002132391463
 30
0.0
 10
36.52960272283508
 20
-2.376819517390602
 30
0.0
 10
36.74299713727476
 20
-2.383528080547942
 30
0.0
 10
37.1712195259536
 20
-2.377618141246385
 30
0.0
 10
37.38809778325636
 20
-2.364917540300701
 30
0.0
 10
37.81948317233618
 20
-2.320347471004669
 30
0.0
 10
38.03165164545007
 20
-2.288660564307359
 30
0.0
 10
38.46155118853049
 20
-2.20670177475011
 30
0.0
 10
38.67858809711991
 20
-2.156377392485966
 30
0.0
 10
38.89375000000001
 20
-2.097618042705596
 30
0.0
  0
SPLINE
  5
A8
330
1F
100
AcDbEntity
  8
외형선
  6
Continuous
 62
     1
370
    15
100
AcDbSpline
210
0.0
220
0.0
230
1.0
 70
     8
 71
     3
 72
    13
 73
     9
 74
     0
 42
0.000000001
 43
0.00000001
 40
0.0
 40
0.0
 40
0.0
 40
0.0
 40
0.1691321425550661
 40
0.3382612571614448
 40
0.5073874599542869
 40
0.6765108674741263
 40
0.8456315966511615
 40
1.0
 40
1.0
 40
1.0
 40
1.0
 10
28.57499999999995
 20
0.2040287129152752
 30
0.0
 10
28.96026270892128
 20
-0.0191161766224981
 30
0.0
 10
29.73078122946051
 20
-0.4654019607668318
 30
0.0
 10
30.88654349114666
 20
-1.102519869427625
 30
0.0
 10
32.04228287514444
 20
-1.653614695790625
 30
0.0
 10
33.19799672727817
 20
-2.071860788115223
 30
0.0
 10
34.3201002051297
 20
-2.336126494337145
 30
0.0
 10
35.05694014692327
 20
-2.36268325686077
 30
0.0
 10
35.40855877611854
 20
-2.37535609380239
 30
0.0
  0
SPLINE
  5
A9
330
1F
100
AcDbEntity
  8
외형선
  6
Continuous
 62
     1
370
    15
100
AcDbSpline
210
0.0
220
0.0
230
1.0
 70
     8
 71
     3
 72
    11
 73
     7
 74
     0
 42
0.000000001
 43
0.00000001
 40
0.0
 40
0.0
 40
0.0
 40
0.0
 40
0.2122371556269941
 40
0.4748085792638302
 40
0.7373957571158078
 40
1.0
 40
1.0
 40
1.0
 40
1.0
 10
32.89826732381262
 20
-1.939617910936087
 30
0.0
 10
32.59242091171377
 20
-2.036357779179681
 30
0.0
 10
31.90819340229119
 20
-2.252780390306444
 30
0.0
 10
30.8455472240433
 20
-2.391506015580112
 30
0.0
 10
29.71030688860337
 20
-2.387712286949467
 30
0.0
 10
28.9534438271122
 20
-2.233674905970953
 30
0.0
 10
28.57499999999996
 20
-2.156653712915236
 30
0.0
  0
SPLINE
  5
AA
330
1F
100
AcDbEntity
  8
외형선
  6
Continuous
 62
     1
370
    15
100
AcDbSpline
210
0.0
220
0.0
230
1.0
 70
     8
 71
     3
 72
    13
 73
     9
 74
     0
 42
0.000000001
 43
0.00000001
 40
0.0
 40
0.0
 40
0.0
 40
0.0
 40
0.0499922388434688
 40
0.2427478782778112
 40
0.4320747006875358
 40
0.6213916880724007
 40
0.8106997998418868
 40
1.0
 40
1.0
 40
1.0
 40
1.0
 10
32.8982673238126
 20
1.939617910936086
 30
0.0
 10
32.99817946332111
 20
1.976803059703356
 30
0.0
 10
33.48332396656752
 20
2.15736340617959
 30
0.0
 10
34.34685077628161
 20
2.325381505097408
 30
0.0
 10
35.48879117000335
 20
2.413325221075752
 30
0.0
 10
36.62383559246481
 20
2.305561441503927
 30
0.0
 10
37.75881522836234
 20
2.035863983520853
 30
0.0
 10
38.51544367976481
 20
1.732192983987859
 30
0.0
 10
38.89375000000007
 20
1.58036065706102
 30
0.0
  0
SPLINE
  5
AB
330
1F
100
AcDbEntity
  8
외형선
  6
Continuous
 62
     1
370
    15
100
AcDbSpline
210
0.0
220
0.0
230
1.0
 70
     8
 71
     3
 72
    38
 73
    34
 74
     0
 42
0.000000001
 43
0.00000001
 40
0.0
 40
0.0
 40
0.0
 40
0.0
 40
0.0625
 40
0.0625
 40
0.125
 40
0.125
 40
0.1875
 40
0.1875
 40
0.25
 40
0.25
 40
0.3125
 40
0.3125
 40
0.375
 40
0.375
 40
0.4375
 40
0.4375
 40
0.5
 40
0.5
 40
0.5625
 40
0.5625
 40
0.625
 40
0.625
 40
0.6875
 40
0.6875
 40
0.75
 40
0.75
 40
0.8125
 40
0.8125
 40
0.875
 40
0.875
 40
0.9375
 40
0.9375
 40
1.0
 40
1.0
 40
1.0
 40
1.0
 10
38.89375000000005
 20
1.580360657061273
 30
0.0
 10
39.01472215632672
 20
1.528150203599861
 30
0.0
 10
39.13495910179475
 20
1.470021391584095
 30
0.0
 10
39.37632902895059
 20
1.345786656430046
 30
0.0
 10
39.49852250736115
 20
1.279273296366329
 30
0.0
 10
39.74030751938983
 20
1.141587612722373
 30
0.0
 10
39.85803661579107
 20
1.071539873567311
 30
0.0
 10
40.08687497759765
 20
0.9280936825008131
 30
0.0
 10
40.19901256328495
 20
0.8539469359245935
 30
0.0
 10
40.40853202831227
 20
0.7032893657654999
 30
0.0
 10
40.50610222561346
 20
0.6270364208827596
 30
0.0
 10
40.68502464585189
 20
0.4672038123285261
 30
0.0
 10
40.76663610937528
 20
0.3829785842040839
 30
0.0
 10
40.9044919316558
 20
0.2040084199070004
 30
0.0
 10
40.96186269573019
 20
0.1083627939607329
 30
0.0
 10
41.04584560819233
 20
-0.1048251163513427
 30
0.0
 10
41.07156165700044
 20
-0.2208793864578392
 30
0.0
 10
41.0797081494554
 20
-0.4731470315929555
 30
0.0
 10
41.06099782896056
 20
-0.6097130021038556
 30
0.0
 10
40.97712597711757
 20
-0.8724685871400273
 30
0.0
 10
40.91128350260843
 20
-0.9999880643613765
 30
0.0
 10
40.75123149621828
 20
-1.211414906502702
 30
0.0
 10
40.65836300203516
 20
-1.2950726559863
 30
0.0
 10
40.46380703882451
 20
-1.416518381043556
 30
0.0
 10
40.35985079378654
 20
-1.455723412082538
 30
0.0
 10
40.14974892176958
 20
-1.497664314924648
 30
0.0
 10
40.04128862877701
 20
-1.501245911261448
 30
0.0
 10
39.82068269779759
 20
-1.48112718371343
 30
0.0
 10
39.70980872019782
 20
-1.457789949816549
 30
0.0
 10
39.48330270142971
 20
-1.391044648948542
 30
0.0
 10
39.36680236428877
 20
-1.34710171297651
 30
0.0
 10
39.13281682537242
 20
-1.245824725297309
 30
0.0
 10
39.01470683718559
 20
-1.188574250791159
 30
0.0
 10
38.89375000000004
 20
-1.127098092188914
 30
0.0
  0
SPLINE
  5
AC
330
1F
100
AcDbEntity
  8
외형선
  6
Continuous
 62
     1
370
    15
100
AcDbSpline
210
0.0
220
0.0
230
1.0
 70
     8
 71
     3
 72
    15
 73
    11
 74
     0
 42
0.000000001
 43
0.00000001
 40
0.0
 40
0.0
 40
0.0
 40
0.0
 40
0.1357516699188826
 40
0.2715047589885429
 40
0.4072593630515023
 40
0.5430155777373669
 40
0.678773498449598
 40
0.8121206448456453
 40
0.9454751226186769
 40
1.0
 40
1.0
 40
1.0
 40
1.0
 10
38.89375000000003
 20
-1.127098092188907
 30
0.0
 10
38.50856443321796
 20
-0.9226320465218082
 30
0.0
 10
37.73818927291593
 20
-0.5136978176953222
 30
0.0
 10
36.58261738141742
 20
0.1632624137982173
 30
0.0
 10
35.42702947133757
 20
0.8213972489539773
 30
0.0
 10
34.27142772933983
 20
1.416362533639199
 30
0.0
 10
33.12264427323881
 20
1.900536605194077
 30
0.0
 10
31.98070896474523
 20
2.22558556808377
 30
0.0
 10
31.06924629925698
 20
2.383188561292891
 30
0.0
 10
30.53614184954944
 20
2.364823964060638
 30
0.0
 10
30.38142844462069
 20
2.359494334248871
 30
0.0
  0
LINE
  5
AD
330
1F
100
AcDbEntity
  8
외형선
  6
Continuous
370
    15
100
AcDbLine
 10
28.57499999999996
 20
0.2040287129152753
 30
0.0
 11
28.57499999999996
 21
1.009552537052346
 31
0.0
  0
LWPOLYLINE
  5
AE
330
1F
100
AcDbEntity
  8
외형선
  6
Continuous
 62
     1
370
    15
100
AcDbPolyline
 90
       35
 70
   128
 43
0.0
 10
39.37058702205034
 20
1.903456435866684
 10
39.39328915036704
 20
1.907143141960388
 10
39.56421384075782
 20
1.918109132485434
 10
39.72549204248496
 20
1.912557683740946
 10
39.88528708323201
 20
1.891254762137908
 10
40.04458162478592
 20
1.853561999795109
 10
40.19934206641877
 20
1.800094001391979
 10
40.33899126474033
 20
1.736248435444594
 10
40.47174418863803
 20
1.660061119407206
 10
40.59768936158657
 20
1.571521102329624
 10
40.71353190275261
 20
1.473205039905991
 10
40.87312129035948
 20
1.301414917392983
 10
40.93969188876049
 20
1.210702349787418
 10
40.99512643444039
 20
1.119834284160341
 10
41.04459493531775
 20
1.014225600282026
 10
41.07215776680501
 20
0.9173751875712434
 10
41.07538526542694
 20
0.8546699584837955
 10
41.06047585276319
 20
0.8066953860857562
 10
41.02739967473713
 20
0.7798940176237292
 10
40.97416905235309
 20
0.7758670591804899
 10
40.91636680264481
 20
0.7915548331204465
 10
40.84622717411791
 20
0.8245910598633103
 10
40.76823877912027
 20
0.8719376415685473
 10
40.68168639421775
 20
0.9326134436870501
 10
40.54993708081867
 20
1.034695593011639
 10
40.4069519454211
 20
1.152276453014716
 10
40.20659246973787
 20
1.319599534688877
 10
39.99375412510197
 20
1.491324114228596
 10
39.8524544127261
 20
1.598574128544415
 10
39.70795683682758
 20
1.700943609967855
 10
39.55831906190851
 20
1.797974387937
 10
39.40569050232243
 20
1.886551527474948
 10
39.1542816119016
 20
2.00762340492101
 10
38.89375000000004
 20
2.097618042705578
 10
38.89375000000004
 20
2.097618042705578
  0
LINE
  5
AF
330
1F
100
AcDbEntity
  8
외형선
  6
Continuous
 62
     1
370
    15
100
AcDbLine
 10
28.57499999999995
 20
-2.372493171076809
 30
0.0
 11
28.92824173773098
 21
-2.361459882847283
 31
0.0
  0
SPLINE
  5
B0
330
1F
100
AcDbEntity
  8
외형선
  6
Continuous
 62
     1
370
    15
100
AcDbSpline
210
0.0
220
0.0
230
1.0
 70
     8
 71
     3
 72
     9
 73
     5
 74
     0
 42
0.000000001
 43
0.00000001
 40
0.0
 40
0.0
 40
0.0
 40
0.0
 40
0.5680373004368539
 40
1.0
 40
1.0
 40
1.0
 40
1.0
 10
38.89375000000005
 20
2.09761804270559
 30
0.0
 10
38.50856450395798
 20
2.191428119364667
 30
0.0
 10
37.83046555562161
 20
2.356575859815744
 30
0.0
 10
37.15236448317837
 20
2.361951846161489
 30
0.0
 10
36.8594501133491
 20
2.364274071736212
 30
0.0
  0
LINE
  5
B1
330
1F
100
AcDbEntity
  8
외형선
  6
Continuous
370
    15
100
AcDbLine
 10
28.57499999999996
 20
-2.372493171076809
 30
0.0
 11
28.57499999999996
 21
-2.156653712915236
 31
0.0
  0
LINE
  5
B2
330
1F
100
AcDbEntity
  8
외형선
  6
Continuous
370
    15
100
AcDbLine
 10
18.68805401447656
 20
-0.0000000000000015
 30
0.0
 11
18.68805401447656
 21
4.762500000000004
 31
0.0
  0
LINE
  5
B3
330
1F
100
AcDbEntity
  8
외형선
  6
Continuous
370
    15
100
AcDbLine
 10
18.68805401447656
 20
-4.762500000000006
 30
0.0
 11
18.68805401447656
 21
-0.0000000000000015
 31
0.0
  0
LINE
  5
B6
330
1F
100
AcDbEntity
  8
외형선
  6
Continuous
370
    15
100
AcDbLine
 10
27.57499999999996
 20
-0.0000000000000015
 30
0.0
 11
27.57499999999996
 21
2.381249999999997
 31
0.0
  0
LINE
  5
B7
330
1F
100
AcDbEntity
  8
외형선
  6
Continuous
370
    15
100
AcDbLine
 10
27.57499999999996
 20
-2.38125
 30
0.0
 11
27.57499999999996
 21
-0.0000000000000015
 31
0.0
  0
LINE
  5
BA
330
1F
100
AcDbEntity
  8
외형선
  6
Continuous
370
    15
100
AcDbLine
 10
28.57499999999996
 20
-0.0000000000000015
 30
0.0
 11
28.57499999999996
 21
2.381249999999998
 31
0.0
  0
LINE
  5
BB
330
1F
100
AcDbEntity
  8
외형선
  6
Continuous
370
    15
100
AcDbLine
 10
28.57499999999996
 20
-2.38125
 30
0.0
 11
28.57499999999996
 21
-0.0000000000000015
 31
0.0
  0
LINE
  5
BC
330
1F
100
AcDbEntity
  8
중심선
 62
     1
100
AcDbLine
 10
-44.27500000000002
 20
-0.0000000000000054
 30
0.0
 11
44.27500000000001
 21
0.0000000000000054
 31
0.0
  0
LINE
  5
BE
330
1F
100
AcDbEntity
  8
참조1
100
AcDbLine
 10
-0.0000000000000036
 20
-0.0000000000000055
 30
0.0
 11
0.0000000000000018
 21
-40.00000000000001
 31
0.0
  0
LINE
  5
BF
330
1F
100
AcDbEntity
  8
참조1
100
AcDbLine
 10
0.0000000000000018
 20
-40.00000000000001
 30
0.0
 11
-17.54010681430869
 21
-40.0
 31
0.0
  0
CIRCLE
  5
C0
330
1F
100
AcDbEntity
  8
해칭선
100
AcDbCircle
 10
-0.0000000000000178
 20
-0.0000000000000007
 30
0.0
 40
3.000000000000001
  0
INSERT
  5
C1
330
1F
100
AcDbEntity
  8
0
  6
Continuous
 62
     7
100
AcDbBlockReference
 66
     1
  2
블럭10
 10
-13.94027293212521
 20
-52.04717430164393
 30
0.0
  0
ATTRIB
  5
C2
330
C1
100
AcDbEntity
  8
FORMAT
 62
     2
100
AcDbText
 10
-23.12156822086649
 20
-49.97180738881175
 30
0.0
 40
4.233333333333333
  1
E2069012 [ 4 FLUTE ]
 41
0.75
  7
SLDTEXTSTYLE0
 11
-23.12156822086649
 21
-52.08847405547841
 31
0.0
100
AcDbAttribute
  2
AUTOATTR0
 70
     0
 74
     1
  0
SEQEND
  5
C3
330
C1
100
AcDbEntity
  8
0
  6
Continuous
 62
     7
  0
HATCH
  5
C4
330
1F
100
AcDbEntity
  8
중심선
100
AcDbHatch
 10
0.0
 20
0.0
 30
0.0
210
0.0
220
0.0
230
1.0
  2
SOLID
 70
     1
 71
     0
 91
        1
 92
        0
 93
        4
 72
     1
 10
-8.225363627744354
 20
-35.8
 11
-11.67163887158164
 21
-35.8
 72
     1
 10
-11.67163887158164
 20
-35.8
 11
-13.79986873078566
 21
-38.3363255805726
 72
     1
 10
-13.79986873078566
 20
-38.3363255805726
 11
-10.35356040183523
 21
-38.33628615127011
 72
     1
 10
-10.35356040183523
 20
-38.33628615127011
 11
-8.225363627744354
 21
-35.8
 97
        0
 75
     0
 76
     1
 98
        1
 10
12.13823868596879
 20
-0.0010749287238947
  0
HATCH
  5
C5
330
1F
100
AcDbEntity
  8
중심선
100
AcDbHatch
 10
0.0
 20
0.0
 30
0.0
210
0.0
220
0.0
230
1.0
  2
SOLID
 70
     1
 71
     0
 91
        1
 92
        0
 93
        4
 72
     1
 10
-3.212599636708347
 20
-35.8
 11
-6.658874880545657
 21
-35.8
 72
     1
 10
-6.658874880545657
 20
-35.8
 11
-11.19001288890307
 21
-41.20000000000002
 72
     1
 10
-11.19001288890307
 20
-41.20000000000002
 11
-7.743737645065789
 21
-41.20000000000002
 72
     1
 10
-7.743737645065789
 20
-41.20000000000002
 11
-3.212599636708347
 21
-35.8
 97
        0
 75
     0
 76
     1
 98
        1
 10
12.13823868596879
 20
-0.0010749287238947
  0
HATCH
  5
C6
330
1F
100
AcDbEntity
  8
중심선
100
AcDbHatch
 10
0.0
 20
0.0
 30
0.0
210
0.0
220
0.0
230
1.0
  2
SOLID
 70
     1
 71
     0
 91
        1
 92
        0
 93
        4
 72
     1
 10
1.800164354327494
 20
-35.8
 11
-1.646110889509622
 21
-35.8
 72
     1
 10
-1.646110889509622
 20
-35.8
 11
-8.694547791398872
 21
-44.20000000000002
 72
     1
 10
-8.694547791398872
 20
-44.20000000000002
 11
-5.248272547561587
 21
-44.20000000000002
 72
     1
 10
-5.248272547561587
 20
-44.20000000000002
 11
1.800164354327494
 21
-35.8
 97
        0
 75
     0
 76
     1
 98
        1
 10
12.13823868596879
 20
-0.0010749287238947
  0
HATCH
  5
C7
330
1F
100
AcDbEntity
  8
중심선
100
AcDbHatch
 10
0.0
 20
0.0
 30
0.0
210
0.0
220
0.0
230
1.0
  2
SOLID
 70
     1
 71
     0
 91
        1
 92
        0
 93
        6
 72
     3
 10
6.600054785339693
 20
-40.00000000005127
 11
3.960054785062284
 21
1.540882976769353E-10
 40
0.3939339440162627
 50
17.09539180608437
 51
320.0019657685077
 73
     0
 72
     1
 10
8.28305444104026
 20
-38.5878940046383
 11
10.58835631474135
 21
-36.65356729459035
 72
     3
 10
6.600054785286846
 20
-40.00000000000015
 11
6.60005478528683
 21
-1.278976924368180E-13
 40
0.636358354079598
 50
39.99873849337413
 51
368.4976242363725
 73
     1
 72
     1
 10
13.02538727718746
 20
-39.03999999993002
 11
5.280122092122769
 21
-39.03999999993002
 72
     1
 10
5.280122092122769
 20
-39.03999999993002
 11
5.280097047676835
 21
-40.95999999992991
 72
     1
 10
5.280097047676835
 20
-40.95999999992991
 11
9.721476817148872
 21
-40.95999999992988
 97
        0
 75
     0
 76
     1
 98
        1
 10
12.13823868596879
 20
-0.0010749287238947
  0
DIMENSION
  5
C8
330
1F
100
AcDbEntity
  8
치수문자_일반주서
100
AcDbDimension
  2
_D
 10
28.57499999999998
 20
22.82277225922702
 30
0.0
 11
34.92499999999998
 21
22.82277225922702
 31
0.0
 70
   160
  1
<>
 71
     2
 42
12.70000000000001
  3
SLDDIMSTYLE0
100
AcDbAlignedDimension
 13
41.27499999999999
 23
1.315014629548138
 33
0.0
 14
28.57499999999998
 24
2.38125
 34
0.0
100
AcDbRotatedDimension
1001
ACAD
1000
DSTYLE
1002
{
1070
   171
1070
     6
1070
   273
1070
     7
1002
}
  0
DIMENSION
  5
DD
330
1F
100
AcDbEntity
  8
치수문자_일반주서
100
AcDbDimension
  2
_D_1
 10
-41.27500000000002
 20
35.75282056895201
 30
0.0
 11
-0.0000000000000124
 21
35.75282056895201
 31
0.0
 70
   160
  1
<>
 71
     2
 42
82.55000000000001
  3
SLDDIMSTYLE1
100
AcDbAlignedDimension
 13
41.27499999999999
 23
1.315014629548138
 33
0.0
 14
-41.27500000000002
 24
3.810000000000006
 34
0.0
 50
0.0000000000000049
100
AcDbRotatedDimension
1001
ACAD
1000
DSTYLE
1002
{
1070
   171
1070
     6
1070
   273
1070
     7
1002
}
  0
DIMENSION
  5
F1
330
1F
100
AcDbEntity
  8
치수문자_일반주서
100
AcDbDimension
  2
_D_2
 10
57.70240454570624
 20
-2.381249999999884
 30
0.0
 11
57.70240454570616
 21
22.98525000000009
 31
0.0
 70
   160
  1
%%c<>
 71
     2
 42
4.762499999999974
 52
-270.0
  3
SLDDIMSTYLE2
100
AcDbAlignedDimension
 13
30.38086463762091
 23
2.381249999999985
 33
0.0
 14
30.38086463762094
 24
-2.381249999999989
 34
0.0
 50
90.0000000000002
100
AcDbRotatedDimension
1001
ACAD
1000
DSTYLE
1002
{
1070
   171
1070
     6
1070
   273
1070
     7
1002
}
  0
DIMENSION
  5
106
330
1F
100
AcDbEntity
  8
치수문자_일반주서
100
AcDbDimension
  2
_D_3
 10
-54.27500000000002
 20
-4.762500000000139
 30
0.0
 11
-54.27500000000004
 21
-0.0000000000000006
 31
0.0
 70
   160
  1
%%c<>
 71
     2
 42
9.52500000000001
 52
-270.0
  3
SLDDIMSTYLE2
100
AcDbAlignedDimension
 13
-18.68805401447656
 23
4.762500000000004
 33
0.0
 14
-18.68805401447656
 24
-4.762500000000006
 34
0.0
 50
90.0000000000002
100
AcDbRotatedDimension
1001
ACAD
1000
DSTYLE
1002
{
1070
   171
1070
     6
1070
   273
1070
     7
1002
}
  0
LINE
  5
11A
330
1F
100
AcDbEntity
  8
참조1
100
AcDbLine
 10
80.43223381534557
 20
7.440000000000001
 30
0.0
 11
80.43223381534557
 21
-7.440000000000003
 31
0.0
  0
LINE
  5
11B
330
1F
100
AcDbEntity
  8
참조1
100
AcDbLine
 10
93.13223381534559
 20
5.440000000000001
 30
0.0
 11
80.43223381534557
 21
5.440000000000001
 31
0.0
  0
SOLID
  5
11C
330
1F
100
AcDbEntity
  8
참조1
100
AcDbTrace
 10
80.43223381534557
 20
5.440000000000001
 30
0.0
 11
86.78223381534556
 21
4.424000000000001
 31
0.0
 12
86.78223381534556
 22
6.456000000000001
 32
0.0
 13
86.78223381534556
 23
6.456000000000001
 33
0.0
  0
LINE
  5
11D
330
1F
100
AcDbEntity
  8
참조1
100
AcDbLine
 10
93.13223381534559
 20
-5.440000000000003
 30
0.0
 11
80.43223381534557
 21
-5.440000000000003
 31
0.0
  0
SOLID
  5
11E
330
1F
100
AcDbEntity
  8
참조1
100
AcDbTrace
 10
80.43223381534557
 20
-5.440000000000003
 30
0.0
 11
86.78223381534556
 21
-6.456000000000003
 31
0.0
 12
86.78223381534556
 22
-4.424000000000003
 32
0.0
 13
86.78223381534556
 23
-4.424000000000003
 33
0.0
  0
MTEXT
  5
11F
330
1F
100
AcDbEntity
  8
참조1
100
AcDbMText
 10
89.82972390781586
 20
10.98821664464993
 30
0.0
 40
3.5
 41
0.0
 71
     1
 72
     1
  1
A
  7
SLDTEXTSTYLE0
 73
     1
 44
1.0
  0
MTEXT
  5
120
330
1F
100
AcDbEntity
  8
참조1
100
AcDbMText
 10
89.82972390781586
 20
0.1082166446499313
 30
0.0
 40
3.5
 41
0.0
 71
     1
 72
     1
  1
A
  7
SLDTEXTSTYLE0
 73
     1
 44
1.0
  0
INSERT
  5
127
330
1F
100
AcDbEntity
  8
해칭선
100
AcDbBlockReference
  2
SW_DOWELSYMBOL_0
 10
-0.0000000000000178
 20
-0.0000000000000007
 30
0.0
  0
LINE
  5
14E
330
1F
100
AcDbEntity
  8
외형선
  6
Continuous
 62
     1
370
    15
100
AcDbLine
 10
-35.40855877611854
 20
2.381249999999993
 30
0.0
 11
-36.85945011334908
 21
2.381249999999993
 31
0.0
  0
LINE
  5
14F
330
1F
100
AcDbEntity
  8
외형선
  6
Continuous
 62
     1
370
    15
100
AcDbLine
 10
-30.38142844462069
 20
-2.381249999999982
 30
0.0
 11
-28.92824173773097
 21
-2.381249999999982
 31
0.0
  0
ARC
  5
150
330
1F
100
AcDbEntity
  8
외형선
  6
Continuous
 62
     1
370
    15
100
AcDbCircle
 10
-38.89375000000002
 20
0.0000000000000047
 30
0.0
 40
2.381249999999973
100
AcDbArc
 50
152.385458971596
 51
180.0
  0
ARC
  5
151
330
1F
100
AcDbEntity
  8
외형선
  6
Continuous
 62
     1
370
    15
100
AcDbCircle
 10
-38.89375000000002
 20
0.0000000000000047
 30
0.0
 40
2.381249999999973
100
AcDbArc
 50
180.0
 51
207.6057252339689
  0
LINE
  5
152
330
1F
100
AcDbEntity
  8
외형선
  6
Continuous
 62
     1
370
    15
100
AcDbLine
 10
-36.85945011334908
 20
-2.381249999999981
 30
0.0
 11
-35.40855877611851
 21
-2.381249999999981
 31
0.0
  0
LINE
  5
153
330
1F
100
AcDbEntity
  8
외형선
  6
Continuous
 62
     1
370
    15
100
AcDbLine
 10
-28.92824173773097
 20
2.381249999999992
 30
0.0
 11
-30.3814284446207
 21
2.381249999999992
 31
0.0
  0
LINE
  5
154
330
1F
100
AcDbEntity
  8
외형선
  6
Continuous
370
    15
100
AcDbLine
 10
-18.68805401447656
 20
4.762500000000013
 30
0.0
 11
-27.57499999999997
 21
2.381250000000005
 31
0.0
  0
LINE
  5
155
330
1F
100
AcDbEntity
  8
외형선
  6
Continuous
370
    15
100
AcDbLine
 10
-27.57499999999997
 20
-2.381249999999995
 30
0.0
 11
-18.68805401447656
 21
-4.762500000000004
 31
0.0
  0
LINE
  5
156
330
1F
100
AcDbEntity
  8
외형선
  6
Continuous
370
    15
100
AcDbLine
 10
-27.57499999999997
 20
2.381250000000005
 30
0.0
 11
-28.57499999999997
 21
2.381250000000005
 31
0.0
  0
LINE
  5
157
330
1F
100
AcDbEntity
  8
외형선
  6
Continuous
370
    15
100
AcDbLine
 10
-28.57499999999997
 20
-2.381249999999995
 30
0.0
 11
-27.57499999999997
 21
-2.381249999999995
 31
0.0
  0
SPLINE
  5
158
330
1F
100
AcDbEntity
  8
외형선
  6
Continuous
 62
     1
370
    15
100
AcDbSpline
210
0.0
220
0.0
230
1.0
 70
     8
 71
     3
 72
    38
 73
    34
 74
     0
 42
0.000000001
 43
0.00000001
 40
0.0
 40
0.0
 40
0.0
 40
0.0
 40
0.0625
 40
0.0625
 40
0.125
 40
0.125
 40
0.1875
 40
0.1875
 40
0.25
 40
0.25
 40
0.3125
 40
0.3125
 40
0.375
 40
0.375
 40
0.4375
 40
0.4375
 40
0.5
 40
0.5
 40
0.5625
 40
0.5625
 40
0.625
 40
0.625
 40
0.6875
 40
0.6875
 40
0.75
 40
0.75
 40
0.8125
 40
0.8125
 40
0.875
 40
0.875
 40
0.9375
 40
0.9375
 40
1.0
 40
1.0
 40
1.0
 40
1.0
 10
-28.57499999999995
 20
-2.372493171076802
 30
0.0
 10
-28.7877623181784
 20
-2.383090258505682
 30
0.0
 10
-29.0041139722068
 20
-2.384087427572983
 30
0.0
 10
-29.43615376148482
 20
-2.366553617851218
 30
0.0
 10
-29.64998020747414
 20
-2.348110195877928
 30
0.0
 10
-30.07775076427162
 20
-2.292380841746611
 30
0.0
 10
-30.29455824838137
 20
-2.254910238260542
 30
0.0
 10
-30.72612086222722
 20
-2.161961802387587
 30
0.0
 10
-30.93847755105764
 20
-2.106749420608759
 30
0.0
 10
-31.36803247262414
 20
-1.979276573348886
 30
0.0
 10
-31.58505432725388
 20
-1.906949733143888
 30
0.0
 10
-32.01566434548194
 20
-1.747717291448041
 30
0.0
 10
-32.22761209194075
 20
-1.661098652755571
 30
0.0
 10
-32.65848331725181
 20
-1.474124831244737
 30
0.0
 10
-32.87547728133905
 20
-1.373980120903419
 30
0.0
 10
-33.30466278071555
 20
-1.164075989719524
 30
0.0
 10
-33.51726389379396
 20
-1.054299318891413
 30
0.0
 10
-33.94897854167138
 20
-0.8259380429450587
 30
0.0
 10
-34.16570245848813
 20
-0.7077447821952255
 30
0.0
 10
-34.59299672753031
 20
-0.467706117843087
 30
0.0
 10
-34.80731112929794
 20
-0.3451732990117612
 30
0.0
 10
-35.23939322057003
 20
-0.0976278436935533
 30
0.0
 10
-35.4550706028956
 20
0.0269791956150514
 30
0.0
 10
-35.8811526373667
 20
0.2739526989253897
 30
0.0
 10
-36.09763051931907
 20
0.3974875038677805
 30
0.0
 10
-36.52960272283511
 20
0.6401169067490257
 30
0.0
 10
-36.74299713727483
 20
0.7588256211175871
 30
0.0
 10
-37.17121952595367
 20
0.9894013914423978
 30
0.0
 10
-37.38809778325642
 20
1.101609375230274
 30
0.0
 10
-37.81948317233626
 20
1.315709377157686
 30
0.0
 10
-38.03165164545011
 20
1.417262076949442
 30
0.0
 10
-38.4615511885305
 20
1.608916805996153
 30
0.0
 10
-38.67858809711996
 20
1.698849400449862
 30
0.0
 10
-38.89375000000006
 20
1.781238826242466
 30
0.0
  0
SPLINE
  5
159
330
1F
100
AcDbEntity
  8
외형선
  6
Continuous
 62
     1
370
    15
100
AcDbSpline
210
0.0
220
0.0
230
1.0
 70
     8
 71
     3
 72
    16
 73
    12
 74
     0
 42
0.000000001
 43
0.00000001
 40
0.0
 40
0.0
 40
0.0
 40
0.0
 40
0.1298271249521651
 40
0.2634616199720717
 40
0.3916915369181673
 40
0.5238381863788034
 40
0.649637034322173
 40
0.7785771898978716
 40
0.8826923085299183
 40
0.9891526939204676
 40
0.9999999999999999
 40
0.9999999999999999
 40
0.9999999999999999
 40
0.9999999999999999
 10
-38.89375000000005
 20
1.781238826242786
 30
0.0
 10
-39.00339922461573
 20
1.818138023761095
 30
0.0
 10
-39.22591329751517
 20
1.893018541660765
 30
0.0
 10
-39.56067914528153
 20
1.928476258570154
 30
0.0
 10
-39.89116206943251
 20
1.90142012800224
 30
0.0
 10
-40.1992358918021
 20
1.811094516079547
 30
0.0
 10
-40.47954352392869
 20
1.666222363558709
 30
0.0
 10
-40.70763617477157
 20
1.489462042508582
 30
0.0
 10
-40.87639899814905
 20
1.303052219298749
 30
0.0
 10
-40.97737730690039
 20
1.168899618107408
 30
0.0
 10
-40.99948302900701
 20
1.108588461921588
 30
0.0
 10
-41.00152711947366
 20
1.10301155930796
 30
0.0
  0
LINE
  5
15A
330
1F
100
AcDbEntity
  8
외형선
  6
Continuous
 62
     1
370
    15
100
AcDbLine
 10
-39.37976257552506
 20
1.897241279763456
 30
0.0
 11
-38.89375000000003
 21
2.097618042705578
 31
0.0
  0
SPLINE
  5
15B
330
1F
100
AcDbEntity
  8
외형선
  6
Continuous
 62
     1
370
    15
100
AcDbSpline
210
0.0
220
0.0
230
1.0
 70
     8
 71
     3
 72
    38
 73
    34
 74
     0
 42
0.000000001
 43
0.00000001
 40
0.0
 40
0.0
 40
0.0
 40
0.0
 40
0.0625
 40
0.0625
 40
0.125
 40
0.125
 40
0.1875
 40
0.1875
 40
0.25
 40
0.25
 40
0.3125
 40
0.3125
 40
0.375
 40
0.375
 40
0.4375
 40
0.4375
 40
0.5
 40
0.5
 40
0.5625
 40
0.5625
 40
0.625
 40
0.625
 40
0.6875
 40
0.6875
 40
0.75
 40
0.75
 40
0.8125
 40
0.8125
 40
0.875
 40
0.875
 40
0.9375
 40
0.9375
 40
1.0
 40
1.0
 40
1.0
 40
1.0
 10
-28.57499999999997
 20
-1.009552537052343
 30
0.0
 10
-28.7877623181784
 20
-0.8975376758936868
 30
0.0
 10
-29.00411397220676
 20
-0.7807853047736779
 30
0.0
 10
-29.43615376148482
 20
-0.5419524293372526
 30
0.0
 10
-29.64998020747413
 20
-0.4202412489090932
 30
0.0
 10
-30.07775076427165
 20
-0.1743866530529352
 30
0.0
 10
-30.29455824838139
 20
-0.0496876655492089
 30
0.0
 10
-30.72612086222716
 20
0.1987133856657457
 30
0.0
 10
-30.93847755105764
 20
0.321952242897409
 30
0.0
 10
-31.36803247262414
 20
0.565740814338503
 30
0.0
 10
-31.58505432725388
 20
0.6862380837539688
 30
0.0
 10
-32.01566434548195
 20
0.9200268918302796
 30
0.0
 10
-32.22761209194073
 20
1.033055497939176
 30
0.0
 10
-32.65848331725181
 20
1.251015264772408
 30
0.0
 10
-32.87547728133904
 20
1.355566164920397
 30
0.0
 10
-33.30466278071557
 20
1.552034685579226
 30
0.0
 10
-33.51726389379392
 20
1.644070705266796
 30
0.0
 10
-33.94897854167139
 20
1.814920486467971
 30
0.0
 10
-34.16570245848811
 20
1.893347395638798
 30
0.0
 10
-34.59299672753029
 20
2.033499859951444
 30
0.0
 10
-34.80731112929796
 20
2.095675302771937
 30
0.0
 10
-35.23939322057003
 20
2.20272748110867
 30
0.0
 10
-35.45507060289559
 20
2.247397339927292
 30
0.0
 10
-35.8811526373667
 20
2.317875761862993
 30
0.0
 10
-36.09763051931904
 20
2.344002132391467
 30
0.0
 10
-36.52960272283508
 20
2.376819517390606
 30
0.0
 10
-36.74299713727476
 20
2.383528080547946
 30
0.0
 10
-37.17121952595361
 20
2.37761814124639
 30
0.0
 10
-37.38809778325636
 20
2.364917540300705
 30
0.0
 10
-37.81948317233618
 20
2.320347471004673
 30
0.0
 10
-38.03165164545008
 20
2.288660564307364
 30
0.0
 10
-38.4615511885305
 20
2.206701774750114
 30
0.0
 10
-38.67858809711991
 20
2.156377392485971
 30
0.0
 10
-38.89375
 20
2.097618042705601
 30
0.0
  0
SPLINE
  5
15C
330
1F
100
AcDbEntity
  8
외형선
  6
Continuous
 62
     1
370
    15
100
AcDbSpline
210
0.0
220
0.0
230
1.0
 70
     8
 71
     3
 72
    13
 73
     9
 74
     0
 42
0.000000001
 43
0.00000001
 40
0.0
 40
0.0
 40
0.0
 40
0.0
 40
0.1691321425550661
 40
0.3382612571614448
 40
0.5073874599542869
 40
0.6765108674741263
 40
0.8456315966511615
 40
1.0
 40
1.0
 40
1.0
 40
1.0
 10
-28.57499999999995
 20
-0.2040287129152717
 30
0.0
 10
-28.96026270892128
 20
0.0191161766225016
 30
0.0
 10
-29.73078122946051
 20
0.4654019607668355
 30
0.0
 10
-30.88654349114666
 20
1.102519869427628
 30
0.0
 10
-32.04228287514444
 20
1.653614695790629
 30
0.0
 10
-33.19799672727816
 20
2.071860788115227
 30
0.0
 10
-34.3201002051297
 20
2.336126494337149
 30
0.0
 10
-35.05694014692326
 20
2.362683256860774
 30
0.0
 10
-35.40855877611854
 20
2.375356093802394
 30
0.0
  0
SPLINE
  5
15D
330
1F
100
AcDbEntity
  8
외형선
  6
Continuous
 62
     1
370
    15
100
AcDbSpline
210
0.0
220
0.0
230
1.0
 70
     8
 71
     3
 72
    11
 73
     7
 74
     0
 42
0.000000001
 43
0.00000001
 40
0.0
 40
0.0
 40
0.0
 40
0.0
 40
0.2122371556269941
 40
0.4748085792638302
 40
0.7373957571158078
 40
1.0
 40
1.0
 40
1.0
 40
1.0
 10
-32.89826732381261
 20
1.939617910936091
 30
0.0
 10
-32.59242091171377
 20
2.036357779179685
 30
0.0
 10
-31.90819340229119
 20
2.252780390306448
 30
0.0
 10
-30.8455472240433
 20
2.391506015580116
 30
0.0
 10
-29.71030688860336
 20
2.387712286949471
 30
0.0
 10
-28.9534438271122
 20
2.233674905970956
 30
0.0
 10
-28.57499999999997
 20
2.15665371291524
 30
0.0
  0
SPLINE
  5
15E
330
1F
100
AcDbEntity
  8
외형선
  6
Continuous
 62
     1
370
    15
100
AcDbSpline
210
0.0
220
0.0
230
1.0
 70
     8
 71
     3
 72
    13
 73
     9
 74
     0
 42
0.000000001
 43
0.00000001
 40
0.0
 40
0.0
 40
0.0
 40
0.0
 40
0.0499922388434688
 40
0.2427478782778112
 40
0.4320747006875358
 40
0.6213916880724007
 40
0.8106997998418868
 40
1.0
 40
1.0
 40
1.0
 40
1.0
 10
-32.8982673238126
 20
-1.939617910936082
 30
0.0
 10
-32.99817946332111
 20
-1.976803059703352
 30
0.0
 10
-33.48332396656752
 20
-2.157363406179586
 30
0.0
 10
-34.34685077628161
 20
-2.325381505097404
 30
0.0
 10
-35.48879117000335
 20
-2.413325221075748
 30
0.0
 10
-36.62383559246481
 20
-2.305561441503923
 30
0.0
 10
-37.75881522836233
 20
-2.035863983520848
 30
0.0
 10
-38.51544367976481
 20
-1.732192983987854
 30
0.0
 10
-38.89375000000006
 20
-1.580360657061015
 30
0.0
  0
SPLINE
  5
15F
330
1F
100
AcDbEntity
  8
외형선
  6
Continuous
 62
     1
370
    15
100
AcDbSpline
210
0.0
220
0.0
230
1.0
 70
     8
 71
     3
 72
    38
 73
    34
 74
     0
 42
0.000000001
 43
0.00000001
 40
0.0
 40
0.0
 40
0.0
 40
0.0
 40
0.0625
 40
0.0625
 40
0.125
 40
0.125
 40
0.1875
 40
0.1875
 40
0.25
 40
0.25
 40
0.3125
 40
0.3125
 40
0.375
 40
0.375
 40
0.4375
 40
0.4375
 40
0.5
 40
0.5
 40
0.5625
 40
0.5625
 40
0.625
 40
0.625
 40
0.6875
 40
0.6875
 40
0.75
 40
0.75
 40
0.8125
 40
0.8125
 40
0.875
 40
0.875
 40
0.9375
 40
0.9375
 40
1.0
 40
1.0
 40
1.0
 40
1.0
 10
-38.89375000000005
 20
-1.580360657061268
 30
0.0
 10
-39.01472215632672
 20
-1.528150203599856
 30
0.0
 10
-39.13495910179476
 20
-1.470021391584091
 30
0.0
 10
-39.3763290289506
 20
-1.345786656430042
 30
0.0
 10
-39.49852250736115
 20
-1.279273296366324
 30
0.0
 10
-39.74030751938982
 20
-1.141587612722368
 30
0.0
 10
-39.85803661579107
 20
-1.071539873567306
 30
0.0
 10
-40.08687497759765
 20
-0.9280936825008083
 30
0.0
 10
-40.19901256328496
 20
-0.8539469359245886
 30
0.0
 10
-40.40853202831227
 20
-0.7032893657654951
 30
0.0
 10
-40.50610222561347
 20
-0.6270364208827547
 30
0.0
 10
-40.68502464585189
 20
-0.4672038123285211
 30
0.0
 10
-40.76663610937528
 20
-0.3829785842040789
 30
0.0
 10
-40.9044919316558
 20
-0.2040084199069954
 30
0.0
 10
-40.96186269573018
 20
-0.1083627939607279
 30
0.0
 10
-41.04584560819233
 20
0.1048251163513478
 30
0.0
 10
-41.07156165700045
 20
0.2208793864578442
 30
0.0
 10
-41.07970814945541
 20
0.4731470315929606
 30
0.0
 10
-41.06099782896056
 20
0.6097130021038606
 30
0.0
 10
-40.97712597711757
 20
0.8724685871400323
 30
0.0
 10
-40.91128350260842
 20
0.9999880643613814
 30
0.0
 10
-40.75123149621827
 20
1.211414906502707
 30
0.0
 10
-40.65836300203515
 20
1.295072655986305
 30
0.0
 10
-40.46380703882451
 20
1.416518381043561
 30
0.0
 10
-40.35985079378654
 20
1.455723412082543
 30
0.0
 10
-40.14974892176958
 20
1.497664314924653
 30
0.0
 10
-40.04128862877702
 20
1.501245911261453
 30
0.0
 10
-39.8206826977976
 20
1.481127183713435
 30
0.0
 10
-39.70980872019782
 20
1.457789949816554
 30
0.0
 10
-39.48330270142971
 20
1.391044648948546
 30
0.0
 10
-39.36680236428877
 20
1.347101712976515
 30
0.0
 10
-39.13281682537241
 20
1.245824725297314
 30
0.0
 10
-39.01470683718559
 20
1.188574250791163
 30
0.0
 10
-38.89375000000003
 20
1.127098092188918
 30
0.0
  0
SPLINE
  5
160
330
1F
100
AcDbEntity
  8
외형선
  6
Continuous
 62
     1
370
    15
100
AcDbSpline
210
0.0
220
0.0
230
1.0
 70
     8
 71
     3
 72
    15
 73
    11
 74
     0
 42
0.000000001
 43
0.00000001
 40
0.0
 40
0.0
 40
0.0
 40
0.0
 40
0.1357516699188826
 40
0.2715047589885429
 40
0.4072593630515023
 40
0.5430155777373669
 40
0.678773498449598
 40
0.8121206448456453
 40
0.9454751226186769
 40
1.0
 40
1.0
 40
1.0
 40
1.0
 10
-38.89375000000002
 20
1.127098092188911
 30
0.0
 10
-38.50856443321796
 20
0.9226320465218129
 30
0.0
 10
-37.73818927291594
 20
0.5136978176953267
 30
0.0
 10
-36.58261738141743
 20
-0.1632624137982129
 30
0.0
 10
-35.42702947133757
 20
-0.8213972489539729
 30
0.0
 10
-34.27142772933983
 20
-1.416362533639195
 30
0.0
 10
-33.1226442732388
 20
-1.900536605194073
 30
0.0
 10
-31.98070896474523
 20
-2.225585568083767
 30
0.0
 10
-31.06924629925698
 20
-2.383188561292887
 30
0.0
 10
-30.53614184954944
 20
-2.364823964060634
 30
0.0
 10
-30.38142844462069
 20
-2.359494334248867
 30
0.0
  0
LINE
  5
161
330
1F
100
AcDbEntity
  8
외형선
  6
Continuous
370
    15
100
AcDbLine
 10
-28.57499999999997
 20
-0.2040287129152718
 30
0.0
 11
-28.57499999999997
 21
-1.009552537052343
 31
0.0
  0
LWPOLYLINE
  5
162
330
1F
100
AcDbEntity
  8
외형선
  6
Continuous
 62
     1
370
    15
100
AcDbPolyline
 90
       35
 70
   128
 43
0.0
 10
-39.37058702205035
 20
-1.903456435866679
 10
-39.39328915036704
 20
-1.907143141960383
 10
-39.56421384075782
 20
-1.918109132485429
 10
-39.72549204248497
 20
-1.912557683740941
 10
-39.88528708323201
 20
-1.891254762137903
 10
-40.04458162478591
 20
-1.853561999795104
 10
-40.19934206641876
 20
-1.800094001391974
 10
-40.33899126474034
 20
-1.736248435444589
 10
-40.47174418863803
 20
-1.660061119407201
 10
-40.59768936158657
 20
-1.571521102329619
 10
-40.71353190275261
 20
-1.473205039905986
 10
-40.87312129035947
 20
-1.301414917392978
 10
-40.93969188876049
 20
-1.210702349787413
 10
-40.9951264344404
 20
-1.119834284160336
 10
-41.04459493531775
 20
-1.014225600282022
 10
-41.07215776680501
 20
-0.9173751875712384
 10
-41.07538526542694
 20
-0.8546699584837905
 10
-41.0604758527632
 20
-0.8066953860857512
 10
-41.02739967473712
 20
-0.7798940176237242
 10
-40.97416905235308
 20
-0.7758670591804849
 10
-40.91636680264481
 20
-0.7915548331204415
 10
-40.84622717411792
 20
-0.8245910598633053
 10
-40.76823877912027
 20
-0.8719376415685423
 10
-40.68168639421776
 20
-0.9326134436870452
 10
-40.54993708081867
 20
-1.034695593011634
 10
-40.40695194542111
 20
-1.152276453014712
 10
-40.20659246973788
 20
-1.319599534688872
 10
-39.99375412510197
 20
-1.491324114228591
 10
-39.8524544127261
 20
-1.598574128544411
 10
-39.70795683682758
 20
-1.700943609967851
 10
-39.5583190619085
 20
-1.797974387936996
 10
-39.40569050232243
 20
-1.886551527474943
 10
-39.1542816119016
 20
-2.007623404921005
 10
-38.89375000000003
 20
-2.097618042705573
 10
-38.89375000000003
 20
-2.097618042705573
  0
LINE
  5
163
330
1F
100
AcDbEntity
  8
외형선
  6
Continuous
 62
     1
370
    15
100
AcDbLine
 10
-28.57499999999995
 20
2.372493171076812
 30
0.0
 11
-28.92824173773098
 21
2.361459882847287
 31
0.0
  0
SPLINE
  5
164
330
1F
100
AcDbEntity
  8
외형선
  6
Continuous
 62
     1
370
    15
100
AcDbSpline
210
0.0
220
0.0
230
1.0
 70
     8
 71
     3
 72
     9
 73
     5
 74
     0
 42
0.000000001
 43
0.00000001
 40
0.0
 40
0.0
 40
0.0
 40
0.0
 40
0.5680373004368539
 40
1.0
 40
1.0
 40
1.0
 40
1.0
 10
-38.89375000000005
 20
-2.097618042705585
 30
0.0
 10
-38.50856450395798
 20
-2.191428119364662
 30
0.0
 10
-37.83046555562161
 20
-2.356575859815739
 30
0.0
 10
-37.15236448317837
 20
-2.361951846161484
 30
0.0
 10
-36.8594501133491
 20
-2.364274071736207
 30
0.0
  0
LINE
  5
165
330
1F
100
AcDbEntity
  8
외형선
  6
Continuous
370
    15
100
AcDbLine
 10
-28.57499999999997
 20
2.372493171076812
 30
0.0
 11
-28.57499999999997
 21
2.15665371291524
 31
0.0
  0
LINE
  5
166
330
1F
100
AcDbEntity
  8
외형선
  6
Continuous
370
    15
100
AcDbLine
 10
-18.68805401447656
 20
0.0000000000000038
 30
0.0
 11
-18.68805401447656
 21
-4.7625
 31
0.0
  0
LINE
  5
167
330
1F
100
AcDbEntity
  8
외형선
  6
Continuous
370
    15
100
AcDbLine
 10
-18.68805401447656
 20
4.762500000000009
 30
0.0
 11
-18.68805401447656
 21
0.0000000000000038
 31
0.0
  0
LINE
  5
168
330
1F
100
AcDbEntity
  8
외형선
  6
Continuous
370
    15
100
AcDbLine
 10
-27.57499999999997
 20
0.0000000000000049
 30
0.0
 11
-27.57499999999997
 21
-2.381249999999994
 31
0.0
  0
LINE
  5
169
330
1F
100
AcDbEntity
  8
외형선
  6
Continuous
370
    15
100
AcDbLine
 10
-27.57499999999997
 20
2.381250000000003
 30
0.0
 11
-27.57499999999997
 21
0.0000000000000049
 31
0.0
  0
LINE
  5
16A
330
1F
100
AcDbEntity
  8
외형선
  6
Continuous
370
    15
100
AcDbLine
 10
-28.57499999999997
 20
0.000000000000005
 30
0.0
 11
-28.57499999999997
 21
-2.381249999999994
 31
0.0
  0
LINE
  5
16B
330
1F
100
AcDbEntity
  8
외형선
  6
Continuous
370
    15
100
AcDbLine
 10
-28.57499999999997
 20
2.381250000000004
 30
0.0
 11
-28.57499999999997
 21
0.000000000000005
 31
0.0
  0
LINE
  5
1A8
330
1F
100
AcDbEntity
  8
0
100
AcDbLine
 10
0.0
 20
-4.762500000000006
 30
0.0
 11
0.0
 21
-4.762500000000006
 31
0.0
  0
LINE
  5
1A9
330
1F
100
AcDbEntity
  8
외형선
  6
Continuous
370
    15
100
AcDbLine
 10
-3.568700000000035
 20
3.492500000000017
 30
0.0
 11
3.568700000000035
 21
3.492500000000017
 31
0.0
  0
LINE
  5
1AA
330
1F
100
AcDbEntity
  8
외형선
  6
Continuous
370
    15
100
AcDbLine
 10
3.568700000000035
 20
3.492500000000017
 30
0.0
 11
4.838700000000017
 21
4.762499999999999
 31
0.0
  0
LINE
  5
1AB
330
1F
100
AcDbEntity
  8
외형선
  6
Continuous
370
    15
100
AcDbLine
 10
-3.568700000000035
 20
3.492500000000017
 30
0.0
 11
-4.838700000000017
 21
4.762499999999999
 31
0.0
  0
LINE
  5
1AD
330
1F
100
AcDbEntity
  8
외형선
  6
Continuous
370
    15
100
AcDbLine
 10
-4.838700000000024
 20
4.762500000000004
 30
0.0
 11
-18.68805401447656
 21
4.762500000000004
 31
0.0
  0
ENDSEC
  0
SECTION
  2
OBJECTS
  0
DICTIONARY
  5
C
330
0
100
AcDbDictionary
281
     1
  3
ACAD_GROUP
350
D
  3
ACAD_IMAGE_VARS
350
14B
  3
ACAD_LAYOUT
350
1A
  3
ACAD_MLINESTYLE
350
17
  3
ACAD_PLOTSETTINGS
350
19
  3
ACAD_PLOTSTYLENAME
350
E
  3
ACAD_SCALELIST
350
47
  3
APPDATA
350
149
  3
DWGPROPS
350
1AF
  0
DICTIONARY
  5
199
330
2
100
AcDbDictionary
280
     1
281
     1
  3
ACAD_LAYERSTATES
360
19A
  0
DICTIONARY
  5
D
102
{ACAD_REACTORS
330
C
102
}
330
C
100
AcDbDictionary
281
     1
  0
RASTERVARIABLES
  5
14B
102
{ACAD_REACTORS
330
C
102
}
330
C
100
AcDbRasterVariables
 90
        0
 70
     1
 71
     1
 72
     1
  0
DICTIONARY
  5
1A
102
{ACAD_REACTORS
330
C
102
}
330
C
100
AcDbDictionary
281
     1
  3
Layout1
350
1E
  3
Layout2
350
26
  3
Model
350
22
  0
DICTIONARY
  5
17
102
{ACAD_REACTORS
330
C
102
}
330
C
100
AcDbDictionary
281
     1
  3
Standard
350
18
  0
DICTIONARY
  5
19
102
{ACAD_REACTORS
330
C
102
}
330
C
100
AcDbDictionary
281
     1
  0
ACDBDICTIONARYWDFLT
  5
E
102
{ACAD_REACTORS
330
C
102
}
330
C
100
AcDbDictionary
281
     1
  3
Normal
350
F
100
AcDbDictionaryWithDefault
340
F
  0
DICTIONARY
  5
47
102
{ACAD_REACTORS
330
C
102
}
330
C
100
AcDbDictionary
281
     1
  3
A0
350
48
  3
A1
350
49
  3
A2
350
4A
  3
A3
350
4B
  3
A4
350
4C
  3
A5
350
4D
  3
A6
350
4E
  3
A7
350
4F
  3
A8
350
50
  3
A9
350
51
  3
B0
350
52
  3
B1
350
53
  3
B2
350
54
  3
B3
350
55
  3
B4
350
56
  3
B5
350
57
  3
B6
350
58
  3
B7
350
59
  3
B8
350
5A
  3
B9
350
5B
  3
C0
350
5C
  3
C1
350
5D
  3
C2
350
5E
  3
C3
350
5F
  3
C4
350
60
  3
C5
350
61
  3
C6
350
62
  3
C7
350
63
  3
C8
350
64
  3
C9
350
65
  3
D0
350
66
  3
D1
350
67
  3
D2
350
68
  0
DICTIONARY
  5
149
102
{ACAD_REACTORS
330
C
102
}
330
C
100
AcDbDictionary
281
     1
  0
XRECORD
  5
1AF
102
{ACAD_REACTORS
330
C
102
}
330
C
100
AcDbXrecord
280
     1
  1
DWGPROPS COOKIE
  2

  3

  4

  6

  7

  8
12016016
  9

300
=
301
=
302
=
303
=
304
=
305
=
306
=
307
=
308
=
309
=
 40
0.0
 41
2458319.997778704
 42
2458331.020471192
  1

 90
        0
  0
DICTIONARY
  5
19A
102
{ACAD_REACTORS
330
199
102
}
330
199
100
AcDbDictionary
281
     1
  0
LAYOUT
  5
1E
102
{ACAD_REACTORS
330
1A
102
}
330
1A
100
AcDbPlotSettings
  1

  2
none_device
  4

  6

 40
0.0
 41
0.0
 42
0.0
 43
0.0
 44
0.0
 45
0.0
 46
0.0
 47
0.0
 48
0.0
 49
0.0
140
0.0
141
0.0
142
1.0
143
1.0
 70
   688
 72
     1
 73
     0
 74
     5
  7

 75
    16
147
1.0
148
0.0
149
0.0
100
AcDbLayout
  1
Layout1
 70
     1
 71
     1
 10
0.0
 20
0.0
 11
420.0
 21
297.0
 12
0.0
 22
0.0
 32
0.0
 14
1.000000000000000E+20
 24
1.000000000000000E+20
 34
1.000000000000000E+20
 15
-1.000000000000000E+20
 25
-1.000000000000000E+20
 35
-1.000000000000000E+20
146
0.0
 13
0.0
 23
0.0
 33
0.0
 16
1.0
 26
0.0
 36
0.0
 17
0.0
 27
1.0
 37
0.0
 76
     0
330
1B
  0
LAYOUT
  5
26
102
{ACAD_REACTORS
330
1A
102
}
330
1A
100
AcDbPlotSettings
  1

  2
none_device
  4

  6

 40
0.0
 41
0.0
 42
0.0
 43
0.0
 44
0.0
 45
0.0
 46
0.0
 47
0.0
 48
0.0
 49
0.0
140
0.0
141
0.0
142
1.0
143
1.0
 70
   688
 72
     1
 73
     0
 74
     5
  7

 75
    16
147
1.0
148
0.0
149
0.0
100
AcDbLayout
  1
Layout2
 70
     1
 71
     2
 10
0.0
 20
0.0
 11
0.0
 21
0.0
 12
0.0
 22
0.0
 32
0.0
 14
0.0
 24
0.0
 34
0.0
 15
0.0
 25
0.0
 35
0.0
146
0.0
 13
0.0
 23
0.0
 33
0.0
 16
1.0
 26
0.0
 36
0.0
 17
0.0
 27
1.0
 37
0.0
 76
     0
330
23
  0
LAYOUT
  5
22
102
{ACAD_REACTORS
330
1A
102
}
330
1A
100
AcDbPlotSettings
  1

  2
none_device
  4
ANSI_A_(11.00_x_8.50_Inches)
  6

 40
6.35
 41
19.05
 42
6.35000508
 43
19.05000254
 44
279.4
 45
215.9
 46
130.0385306089228
 47
92.54371273076144
 48
0.0
 49
0.0
140
0.0
141
0.0
142
0.0688368650264312
143
1.0
 70
  1696
 72
     0
 73
     0
 74
     0
  7

 75
     0
147
0.0235690232323232
148
0.0
149
0.0
100
AcDbLayout
  1
Model
 70
     1
 71
     0
 10
0.0
 20
0.0
 11
420.0
 21
297.0
 12
0.0
 22
0.0
 32
0.0
 14
1.000000000000000E+20
 24
1.000000000000000E+20
 34
1.000000000000000E+20
 15
-1.000000000000000E+20
 25
-1.000000000000000E+20
 35
-1.000000000000000E+20
146
0.0
 13
0.0
 23
0.0
 33
0.0
 16
1.0
 26
0.0
 36
0.0
 17
0.0
 27
1.0
 37
0.0
 76
     0
330
1F
331
29
  0
MLINESTYLE
  5
18
102
{ACAD_REACTORS
330
17
102
}
330
17
100
AcDbMlineStyle
  2
Standard
 70
     0
  3

 62
   256
 51
90.0
 52
90.0
 71
     2
 49
0.5
 62
   256
  6
BYLAYER
 49
-0.5
 62
   256
  6
BYLAYER
  0
ACDBPLACEHOLDER
  5
F
102
{ACAD_REACTORS
330
E
102
}
330
E
  0
SCALE
  5
48
102
{ACAD_REACTORS
330
47
102
}
330
47
100
AcDbScale
 70
     0
300
1:1
140
1.0
141
1.0
290
     1
  0
SCALE
  5
49
102
{ACAD_REACTORS
330
47
102
}
330
47
100
AcDbScale
 70
     0
300
1:2
140
1.0
141
2.0
290
     0
  0
SCALE
  5
4A
102
{ACAD_REACTORS
330
47
102
}
330
47
100
AcDbScale
 70
     0
300
1:4
140
1.0
141
4.0
290
     0
  0
SCALE
  5
4B
102
{ACAD_REACTORS
330
47
102
}
330
47
100
AcDbScale
 70
     0
300
1:5
140
1.0
141
5.0
290
     0
  0
SCALE
  5
4C
102
{ACAD_REACTORS
330
47
102
}
330
47
100
AcDbScale
 70
     0
300
1:8
140
1.0
141
8.0
290
     0
  0
SCALE
  5
4D
102
{ACAD_REACTORS
330
47
102
}
330
47
100
AcDbScale
 70
     0
300
1:10
140
1.0
141
10.0
290
     0
  0
SCALE
  5
4E
102
{ACAD_REACTORS
330
47
102
}
330
47
100
AcDbScale
 70
     0
300
1:16
140
1.0
141
16.0
290
     0
  0
SCALE
  5
4F
102
{ACAD_REACTORS
330
47
102
}
330
47
100
AcDbScale
 70
     0
300
1:20
140
1.0
141
20.0
290
     0
  0
SCALE
  5
50
102
{ACAD_REACTORS
330
47
102
}
330
47
100
AcDbScale
 70
     0
300
1:30
140
1.0
141
30.0
290
     0
  0
SCALE
  5
51
102
{ACAD_REACTORS
330
47
102
}
330
47
100
AcDbScale
 70
     0
300
1:40
140
1.0
141
40.0
290
     0
  0
SCALE
  5
52
102
{ACAD_REACTORS
330
47
102
}
330
47
100
AcDbScale
 70
     0
300
1:50
140
1.0
141
50.0
290
     0
  0
SCALE
  5
53
102
{ACAD_REACTORS
330
47
102
}
330
47
100
AcDbScale
 70
     0
300
1:100
140
1.0
141
100.0
290
     0
  0
SCALE
  5
54
102
{ACAD_REACTORS
330
47
102
}
330
47
100
AcDbScale
 70
     0
300
2:1
140
2.0
141
1.0
290
     0
  0
SCALE
  5
55
102
{ACAD_REACTORS
330
47
102
}
330
47
100
AcDbScale
 70
     0
300
4:1
140
4.0
141
1.0
290
     0
  0
SCALE
  5
56
102
{ACAD_REACTORS
330
47
102
}
330
47
100
AcDbScale
 70
     0
300
8:1
140
8.0
141
1.0
290
     0
  0
SCALE
  5
57
102
{ACAD_REACTORS
330
47
102
}
330
47
100
AcDbScale
 70
     0
300
10:1
140
10.0
141
1.0
290
     0
  0
SCALE
  5
58
102
{ACAD_REACTORS
330
47
102
}
330
47
100
AcDbScale
 70
     0
300
100:1
140
100.0
141
1.0
290
     0
  0
SCALE
  5
59
102
{ACAD_REACTORS
330
47
102
}
330
47
100
AcDbScale
 70
     0
300
1/128" = 1'-0"
140
0.0078125
141
12.0
290
     0
  0
SCALE
  5
5A
102
{ACAD_REACTORS
330
47
102
}
330
47
100
AcDbScale
 70
     0
300
1/64" = 1'-0"
140
0.015625
141
12.0
290
     0
  0
SCALE
  5
5B
102
{ACAD_REACTORS
330
47
102
}
330
47
100
AcDbScale
 70
     0
300
1/32" = 1'-0"
140
0.03125
141
12.0
290
     0
  0
SCALE
  5
5C
102
{ACAD_REACTORS
330
47
102
}
330
47
100
AcDbScale
 70
     0
300
1/16" = 1'-0"
140
0.0625
141
12.0
290
     0
  0
SCALE
  5
5D
102
{ACAD_REACTORS
330
47
102
}
330
47
100
AcDbScale
 70
     0
300
3/32" = 1'-0"
140
0.09375
141
12.0
290
     0
  0
SCALE
  5
5E
102
{ACAD_REACTORS
330
47
102
}
330
47
100
AcDbScale
 70
     0
300
1/8" = 1'-0"
140
0.125
141
12.0
290
     0
  0
SCALE
  5
5F
102
{ACAD_REACTORS
330
47
102
}
330
47
100
AcDbScale
 70
     0
300
3/16" = 1'-0"
140
0.1875
141
12.0
290
     0
  0
SCALE
  5
60
102
{ACAD_REACTORS
330
47
102
}
330
47
100
AcDbScale
 70
     0
300
1/4" = 1'-0"
140
0.25
141
12.0
290
     0
  0
SCALE
  5
61
102
{ACAD_REACTORS
330
47
102
}
330
47
100
AcDbScale
 70
     0
300
3/8" = 1'-0"
140
0.375
141
12.0
290
     0
  0
SCALE
  5
62
102
{ACAD_REACTORS
330
47
102
}
330
47
100
AcDbScale
 70
     0
300
1/2" = 1'-0"
140
0.5
141
12.0
290
     0
  0
SCALE
  5
63
102
{ACAD_REACTORS
330
47
102
}
330
47
100
AcDbScale
 70
     0
300
3/4" = 1'-0"
140
0.75
141
12.0
290
     0
  0
SCALE
  5
64
102
{ACAD_REACTORS
330
47
102
}
330
47
100
AcDbScale
 70
     0
300
1" = 1'-0"
140
1.0
141
12.0
290
     0
  0
SCALE
  5
65
102
{ACAD_REACTORS
330
47
102
}
330
47
100
AcDbScale
 70
     0
300
1-1/2" = 1'-0"
140
1.5
141
12.0
290
     0
  0
SCALE
  5
66
102
{ACAD_REACTORS
330
47
102
}
330
47
100
AcDbScale
 70
     0
300
3" = 1'-0"
140
3.0
141
12.0
290
     0
  0
SCALE
  5
67
102
{ACAD_REACTORS
330
47
102
}
330
47
100
AcDbScale
 70
     0
300
6" = 1'-0"
140
6.0
141
12.0
290
     0
  0
SCALE
  5
68
102
{ACAD_REACTORS
330
47
102
}
330
47
100
AcDbScale
 70
     0
300
1'-0" = 1'-0"
140
12.0
141
12.0
290
     0
  0
ENDSEC
  0
EOF
