  0
SECTION
  2
HEADER
  9
$ACADVER
  1
AC1015
  9
$ACADMAINTVER
 70
     6
  9
$DWGCODEPAGE
  3
ANSI_949
  9
$INSBASE
 10
0.0
 20
0.0
 30
0.0
  9
$EXTMIN
 10
1.000000000000000E+20
 20
1.000000000000000E+20
 30
1.000000000000000E+20
  9
$EXTMAX
 10
-1.000000000000000E+20
 20
-1.000000000000000E+20
 30
-1.000000000000000E+20
  9
$LIMMIN
 10
0.0
 20
0.0
  9
$LIMMAX
 10
420.0
 20
297.0
  9
$ORTHOMODE
 70
     0
  9
$REGENMODE
 70
     1
  9
$FILLMODE
 70
     1
  9
$QTEXTMODE
 70
     0
  9
$MIRRTEXT
 70
     1
  9
$LTSCALE
 40
1.0
  9
$ATTMODE
 70
     1
  9
$TEXTSIZE
 40
3.5
  9
$TRACEWID
 40
1.0
  9
$TEXTSTYLE
  7
Standard
  9
$CLAYER
  8
0
  9
$CELTYPE
  6
ByLayer
  9
$CECOLOR
 62
   256
  9
$CELTSCALE
 40
1.0
  9
$DISPSILH
 70
     0
  9
$DIMSCALE
 40
1.0
  9
$DIMASZ
 40
3.302
  9
$DIMEXO
 40
1.0
  9
$DIMDLI
 40
3.75
  9
$DIMRND
 40
0.0
  9
$DIMDLE
 40
0.0
  9
$DIMEXE
 40
1.0
  9
$DIMTP
 40
0.0
  9
$DIMTM
 40
0.0
  9
$DIMTXT
 40
3.5
  9
$DIMCEN
 40
2.5
  9
$DIMTSZ
 40
0.0
  9
$DIMTOL
 70
     0
  9
$DIMLIM
 70
     0
  9
$DIMTIH
 70
     1
  9
$DIMTOH
 70
     1
  9
$DIMSE1
 70
     0
  9
$DIMSE2
 70
     0
  9
$DIMTAD
 70
     1
  9
$DIMZIN
 70
     0
  9
$DIMBLK
  1

  9
$DIMASO
 70
     1
  9
$DIMSHO
 70
     1
  9
$DIMPOST
  1

  9
$DIMAPOST
  1

  9
$DIMALT
 70
     0
  9
$DIMALTD
 70
     3
  9
$DIMALTF
 40
0.0393700787401575
  9
$DIMLFAC
 40
1.0
  9
$DIMTOFL
 70
     1
  9
$DIMTVP
 40
0.0
  9
$DIMTIX
 70
     0
  9
$DIMSOXD
 70
     0
  9
$DIMSAH
 70
     0
  9
$DIMBLK1
  1

  9
$DIMBLK2
  1

  9
$DIMSTYLE
  2
ISO-25
  9
$DIMCLRD
 70
     0
  9
$DIMCLRE
 70
     0
  9
$DIMCLRT
 70
     0
  9
$DIMTFAC
 40
1.0
  9
$DIMGAP
 40
1.524
  9
$DIMJUST
 70
     0
  9
$DIMSD1
 70
     0
  9
$DIMSD2
 70
     0
  9
$DIMTOLJ
 70
     0
  9
$DIMTZIN
 70
     0
  9
$DIMALTZ
 70
     0
  9
$DIMALTTZ
 70
     0
  9
$DIMUPT
 70
     0
  9
$DIMDEC
 70
     2
  9
$DIMTDEC
 70
     2
  9
$DIMALTU
 70
     2
  9
$DIMALTTD
 70
     3
  9
$DIMTXSTY
  7
Standard
  9
$DIMAUNIT
 70
     0
  9
$DIMADEC
 70
     2
  9
$DIMALTRND
 40
0.0
  9
$DIMAZIN
 70
     0
  9
$DIMDSEP
 70
    44
  9
$DIMATFIT
 70
     3
  9
$DIMFRAC
 70
     0
  9
$DIMLDRBLK
  1

  9
$DIMLUNIT
 70
     2
  9
$DIMLWD
 70
    -2
  9
$DIMLWE
 70
    -2
  9
$DIMTMOVE
 70
     0
  9
$LUNITS
 70
     2
  9
$LUPREC
 70
     2
  9
$SKETCHINC
 40
1.0
  9
$FILLETRAD
 40
10.0
  9
$AUNITS
 70
     0
  9
$AUPREC
 70
     2
  9
$MENU
  1
.
  9
$ELEVATION
 40
0.0
  9
$PELEVATION
 40
0.0
  9
$THICKNESS
 40
0.0
  9
$LIMCHECK
 70
     0
  9
$CHAMFERA
 40
0.0
  9
$CHAMFERB
 40
0.0
  9
$CHAMFERC
 40
0.0
  9
$CHAMFERD
 40
0.0
  9
$SKPOLY
 70
     0
  9
$TDCREATE
 40
2458320.372990498
  9
$TDUCREATE
 40
2458319.997990498
  9
$TDUPDATE
 40
2458330.788857164
  9
$TDUUPDATE
 40
2458330.413857164
  9
$TDINDWG
 40
0.0004103472
  9
$TDUSRTIMER
 40
2458330.413447049
  9
$USRTIMER
 70
     1
  9
$ANGBASE
 50
0.0
  9
$ANGDIR
 70
     0
  9
$PDMODE
 70
     0
  9
$PDSIZE
 40
-1.0
  9
$PLINEWID
 40
0.0
  9
$SPLFRAME
 70
     0
  9
$SPLINETYPE
 70
     6
  9
$SPLINESEGS
 70
     8
  9
$HANDSEED
  5
1B3
  9
$SURFTAB1
 70
     6
  9
$SURFTAB2
 70
     6
  9
$SURFTYPE
 70
     6
  9
$SURFU
 70
     6
  9
$SURFV
 70
     6
  9
$UCSBASE
  2

  9
$UCSNAME
  2

  9
$UCSORG
 10
0.0
 20
0.0
 30
0.0
  9
$UCSXDIR
 10
1.0
 20
0.0
 30
0.0
  9
$UCSYDIR
 10
0.0
 20
1.0
 30
0.0
  9
$UCSORTHOREF
  2

  9
$UCSORTHOVIEW
 70
     0
  9
$UCSORGTOP
 10
0.0
 20
0.0
 30
0.0
  9
$UCSORGBOTTOM
 10
0.0
 20
0.0
 30
0.0
  9
$UCSORGLEFT
 10
0.0
 20
0.0
 30
0.0
  9
$UCSORGRIGHT
 10
0.0
 20
0.0
 30
0.0
  9
$UCSORGFRONT
 10
0.0
 20
0.0
 30
0.0
  9
$UCSORGBACK
 10
0.0
 20
0.0
 30
0.0
  9
$PUCSBASE
  2

  9
$PUCSNAME
  2

  9
$PUCSORG
 10
0.0
 20
0.0
 30
0.0
  9
$PUCSXDIR
 10
1.0
 20
0.0
 30
0.0
  9
$PUCSYDIR
 10
0.0
 20
1.0
 30
0.0
  9
$PUCSORTHOREF
  2

  9
$PUCSORTHOVIEW
 70
     0
  9
$PUCSORGTOP
 10
0.0
 20
0.0
 30
0.0
  9
$PUCSORGBOTTOM
 10
0.0
 20
0.0
 30
0.0
  9
$PUCSORGLEFT
 10
0.0
 20
0.0
 30
0.0
  9
$PUCSORGRIGHT
 10
0.0
 20
0.0
 30
0.0
  9
$PUCSORGFRONT
 10
0.0
 20
0.0
 30
0.0
  9
$PUCSORGBACK
 10
0.0
 20
0.0
 30
0.0
  9
$USERI1
 70
     0
  9
$USERI2
 70
     0
  9
$USERI3
 70
     0
  9
$USERI4
 70
     0
  9
$USERI5
 70
     0
  9
$USERR1
 40
0.0
  9
$USERR2
 40
0.0
  9
$USERR3
 40
0.0
  9
$USERR4
 40
0.0
  9
$USERR5
 40
0.0
  9
$WORLDVIEW
 70
     1
  9
$SHADEDGE
 70
     3
  9
$SHADEDIF
 70
    70
  9
$TILEMODE
 70
     1
  9
$MAXACTVP
 70
    64
  9
$PINSBASE
 10
0.0
 20
0.0
 30
0.0
  9
$PLIMCHECK
 70
     0
  9
$PEXTMIN
 10
1.000000000000000E+20
 20
1.000000000000000E+20
 30
1.000000000000000E+20
  9
$PEXTMAX
 10
-1.000000000000000E+20
 20
-1.000000000000000E+20
 30
-1.000000000000000E+20
  9
$PLIMMIN
 10
0.0
 20
0.0
  9
$PLIMMAX
 10
0.0
 20
0.0
  9
$UNITMODE
 70
     0
  9
$VISRETAIN
 70
     1
  9
$PLINEGEN
 70
     0
  9
$PSLTSCALE
 70
     1
  9
$TREEDEPTH
 70
  3020
  9
$CMLSTYLE
  2
Standard
  9
$CMLJUST
 70
     0
  9
$CMLSCALE
 40
20.0
  9
$PROXYGRAPHICS
 70
     1
  9
$MEASUREMENT
 70
     1
  9
$CELWEIGHT
370
    -1
  9
$ENDCAPS
280
     0
  9
$JOINSTYLE
280
     0
  9
$LWDISPLAY
290
     1
  9
$INSUNITS
 70
     4
  9
$HYPERLINKBASE
  1

  9
$STYLESHEET
  1

  9
$XEDIT
290
     1
  9
$CEPSNTYPE
380
     0
  9
$PSTYLEMODE
290
     1
  9
$FINGERPRINTGUID
  2
{E9E50D7A-1CE3-48E9-BB13-7F047956E1BF}
  9
$VERSIONGUID
  2
{FAEB1C32-E019-11D5-929B-00C0DF256EC4}
  9
$EXTNAMES
290
     1
  9
$PSVPSCALE
 40
0.0
  9
$OLESTARTUP
290
     0
  0
ENDSEC
  0
SECTION
  2
CLASSES
  0
CLASS
  1
ACDBDICTIONARYWDFLT
  2
AcDbDictionaryWithDefault
  3
ObjectDBX Classes
 90
        0
280
     0
281
     0
  0
CLASS
  1
VISUALSTYLE
  2
AcDbVisualStyle
  3
ObjectDBX Classes
 90
     4095
280
     0
281
     0
  0
CLASS
  1
MATERIAL
  2
AcDbMaterial
  3
ObjectDBX Classes
 90
     1153
280
     0
281
     0
  0
CLASS
  1
SCALE
  2
AcDbScale
  3
ObjectDBX Classes
 90
     1153
280
     0
281
     0
  0
CLASS
  1
SUN
  2
AcDbSun
  3
SCENEOE
 90
     1153
280
     0
281
     0
  0
CLASS
  1
ACDBPLACEHOLDER
  2
AcDbPlaceHolder
  3
ObjectDBX Classes
 90
        0
280
     0
281
     0
  0
CLASS
  1
LAYOUT
  2
AcDbLayout
  3
ObjectDBX Classes
 90
        0
280
     0
281
     0
  0
CLASS
  1
TABLESTYLE
  2
AcDbTableStyle
  3
ObjectDBX Classes
 90
     4095
280
     0
281
     0
  0
CLASS
  1
MLEADERSTYLE
  2
AcDbMLeaderStyle
  3
ACDB_MLEADERSTYLE_CLASS
 90
     4095
280
     0
281
     0
  0
CLASS
  1
RASTERVARIABLES
  2
AcDbRasterVariables
  3
ISM
 90
        0
280
     0
281
     0
  0
ENDSEC
  0
SECTION
  2
TABLES
  0
TABLE
  2
VPORT
  5
8
330
0
100
AcDbSymbolTable
 70
     1
  0
VPORT
  5
29
330
8
100
AcDbSymbolTableRecord
100
AcDbViewportTableRecord
  2
*Active
 70
     0
 10
0.0
 20
0.0
 11
1.0
 21
1.0
 12
-68.60479738279062
 22
-42.97246776140621
 13
0.0
 23
0.0
 14
10.0
 24
10.0
 15
10.0
 25
10.0
 16
0.0
 26
0.0
 36
1.0
 17
0.0
 27
0.0
 37
0.0
 40
207.8315552363738
 41
1.516441005802708
 42
50.0
 43
0.0
 44
0.0
 50
0.0
 51
0.0
 71
    16
 72
  2000
 73
     1
 74
     3
 75
     0
 76
     0
 77
     0
 78
     0
281
     0
 65
     1
110
0.0
120
0.0
130
0.0
111
1.0
121
0.0
131
0.0
112
0.0
122
1.0
132
0.0
 79
     0
146
0.0
  0
ENDTAB
  0
TABLE
  2
LTYPE
  5
5
330
0
100
AcDbSymbolTable
 70
     6
  0
LTYPE
  5
14
330
5
100
AcDbSymbolTableRecord
100
AcDbLinetypeTableRecord
  2
ByBlock
 70
     0
  3

 72
    65
 73
     0
 40
0.0
  0
LTYPE
  5
15
330
5
100
AcDbSymbolTableRecord
100
AcDbLinetypeTableRecord
  2
ByLayer
 70
     0
  3

 72
    65
 73
     0
 40
0.0
  0
LTYPE
  5
16
330
5
100
AcDbSymbolTableRecord
100
AcDbLinetypeTableRecord
  2
Continuous
 70
     0
  3
Solid line
 72
    65
 73
     0
 40
0.0
  0
LTYPE
  5
6A
330
5
100
AcDbSymbolTableRecord
100
AcDbLinetypeTableRecord
  2
HIDDEN
 70
     0
  3
Hidden __ __ __ __ __ __ __ __ __ __ __ __ __ __
 72
    65
 73
     2
 40
1.905
 49
1.27
 74
     0
 49
-0.635
 74
     0
  0
LTYPE
  5
6B
330
5
100
AcDbSymbolTableRecord
100
AcDbLinetypeTableRecord
  2
PHANTOM
 70
     0
  3
Phantom ______  __  __  ______  __  __  ______
 72
    65
 73
     6
 40
12.7
 49
6.35
 74
     0
 49
-1.27
 74
     0
 49
1.27
 74
     0
 49
-1.27
 74
     0
 49
1.27
 74
     0
 49
-1.27
 74
     0
  0
LTYPE
  5
6C
330
5
100
AcDbSymbolTableRecord
100
AcDbLinetypeTableRecord
  2
CENTER
 70
     0
  3
Center ____ _ ____ _ ____ _ ____ _ ____ _ ____
 72
    65
 73
     4
 40
10.16
 49
6.35
 74
     0
 49
-1.27
 74
     0
 49
1.27
 74
     0
 49
-1.27
 74
     0
  0
LTYPE
  5
6D
330
5
100
AcDbSymbolTableRecord
100
AcDbLinetypeTableRecord
  2
CENTERX2
 70
     0
  3
Center (2x) ________  __  ________  __  _____
 72
    65
 73
     4
 40
20.32
 49
12.7
 74
     0
 49
-2.54
 74
     0
 49
2.54
 74
     0
 49
-2.54
 74
     0
  0
LTYPE
  5
6E
330
5
100
AcDbSymbolTableRecord
100
AcDbLinetypeTableRecord
  2
DOT2
 70
     0
  3
Dot (.5x) ........................................
 72
    65
 73
     2
 40
0.635
 49
0.0
 74
     0
 49
-0.635
 74
     0
  0
ENDTAB
  0
TABLE
  2
LAYER
  5
2
102
{ACAD_XDICTIONARY
360
198
102
}
330
0
100
AcDbSymbolTable
 70
    18
  0
LAYER
  5
10
330
2
100
AcDbSymbolTableRecord
100
AcDbLayerTableRecord
  2
0
 70
     0
 62
     7
  6
Continuous
370
    -3
390
F
  0
LAYER
  5
6F
330
2
100
AcDbSymbolTableRecord
100
AcDbLayerTableRecord
  2
FORMAT
 70
     0
 62
     2
  6
Continuous
370
    -3
390
F
  0
LAYER
  5
70
330
2
100
AcDbSymbolTableRecord
100
AcDbLayerTableRecord
  2
외형선
 70
     0
 62
     4
  6
Continuous
370
    30
390
F
  0
LAYER
  5
71
330
2
100
AcDbSymbolTableRecord
100
AcDbLayerTableRecord
  2
숨은선
 70
     0
 62
     2
  6
HIDDEN
370
    15
390
F
  0
LAYER
  5
72
330
2
100
AcDbSymbolTableRecord
100
AcDbLayerTableRecord
  2
중심선
 70
     0
 62
     1
  6
CENTERX2
370
    -3
390
F
  0
LAYER
  5
73
330
2
100
AcDbSymbolTableRecord
100
AcDbLayerTableRecord
  2
파단선
 70
     0
 62
     4
  6
Continuous
370
    -3
390
F
  0
LAYER
  5
74
330
2
100
AcDbSymbolTableRecord
100
AcDbLayerTableRecord
  2
해칭선
 70
     0
 62
   100
  6
Continuous
370
    -3
390
F
  0
LAYER
  5
75
330
2
100
AcDbSymbolTableRecord
100
AcDbLayerTableRecord
  2
가는실선
 70
     0
 62
     4
  6
Continuous
370
    -3
390
F
  0
LAYER
  5
76
330
2
100
AcDbSymbolTableRecord
100
AcDbLayerTableRecord
  2
치수_보조선
 70
     0
 62
     4
  6
Continuous
370
    -3
390
F
  0
LAYER
  5
77
330
2
100
AcDbSymbolTableRecord
100
AcDbLayerTableRecord
  2
치수문자_일반주서
 70
     0
 62
     7
  6
Continuous
370
    15
390
F
  0
LAYER
  5
78
330
2
100
AcDbSymbolTableRecord
100
AcDbLayerTableRecord
  2
개별주서
 70
     0
 62
   100
  6
Continuous
370
    30
390
F
  0
LAYER
  5
79
330
2
100
AcDbSymbolTableRecord
100
AcDbLayerTableRecord
  2
중간선
 70
     0
 62
     2
  6
Continuous
370
    15
390
F
  0
LAYER
  5
7A
330
2
100
AcDbSymbolTableRecord
100
AcDbLayerTableRecord
  2
윤곽선
 70
     0
 62
     3
  6
Continuous
370
    40
390
F
  0
LAYER
  5
7B
330
2
100
AcDbSymbolTableRecord
100
AcDbLayerTableRecord
  2
중심마크
 70
     0
 62
   100
  6
Continuous
370
    30
390
F
  0
LAYER
  5
7C
330
2
100
AcDbSymbolTableRecord
100
AcDbLayerTableRecord
  2
가상선
 70
     0
 62
     4
  6
PHANTOM
370
    -3
390
F
  0
LAYER
  5
7D
330
2
100
AcDbSymbolTableRecord
100
AcDbLayerTableRecord
  2
특수지정선
 70
     0
 62
     5
  6
CENTERX2
370
    60
390
F
  0
LAYER
  5
7E
330
2
100
AcDbSymbolTableRecord
100
AcDbLayerTableRecord
  2
참조1
 70
     0
 62
    -4
  6
Continuous
370
    -3
390
F
  0
LAYER
  5
14B
330
2
100
AcDbSymbolTableRecord
100
AcDbLayerTableRecord
  2
Defpoints
 70
     0
 62
     7
  6
Continuous
290
     0
370
    -3
390
F
  0
ENDTAB
  0
TABLE
  2
STYLE
  5
3
330
0
100
AcDbSymbolTable
 70
     2
  0
STYLE
  5
11
330
3
100
AcDbSymbolTableRecord
100
AcDbTextStyleTableRecord
  2
Standard
 70
     0
 40
0.0
 41
1.0
 50
0.0
 71
     0
 42
3.5
  3
txt
  4

  0
STYLE
  5
94
330
3
100
AcDbSymbolTableRecord
100
AcDbTextStyleTableRecord
  2
SLDTEXTSTYLE0
 70
     0
 40
0.0
 41
0.75
 50
0.0
 71
     0
 42
3.5
  3
TXT
  4

  0
ENDTAB
  0
TABLE
  2
VIEW
  5
6
330
0
100
AcDbSymbolTable
 70
     0
  0
ENDTAB
  0
TABLE
  2
UCS
  5
7
330
0
100
AcDbSymbolTable
 70
     0
  0
ENDTAB
  0
TABLE
  2
APPID
  5
9
330
0
100
AcDbSymbolTable
 70
     1
  0
APPID
  5
12
330
9
100
AcDbSymbolTableRecord
100
AcDbRegAppTableRecord
  2
ACAD
 70
     0
  0
ENDTAB
  0
TABLE
  2
DIMSTYLE
  5
A
330
0
100
AcDbSymbolTable
 70
     3
100
AcDbDimStyleTable
  0
DIMSTYLE
105
27
330
A
100
AcDbSymbolTableRecord
100
AcDbDimStyleTableRecord
  2
ISO-25
 70
     0
 41
2.5
 42
0.625
 43
3.75
 44
1.25
 73
     0
 74
     0
 77
     1
 78
     8
140
2.5
141
2.5
143
0.03937007874016
147
0.625
171
     3
172
     1
178
     0
271
     2
272
     2
274
     3
278
    44
283
     0
284
     8
340
11
  0
DIMSTYLE
105
C9
102
{ACAD_REACTORS
330
C8
330
DD
102
}
330
A
100
AcDbSymbolTableRecord
100
AcDbDimStyleTableRecord
  2
SLDDIMSTYLE0
 70
     0
 41
3.302
 44
0.0
 45
0.000000001
 73
     0
 74
     0
 77
     1
 78
    12
 79
     3
140
3.5
143
0.0393700787401575
147
0.875
148
0.000000001
170
     1
173
     1
178
     0
271
     2
272
     2
276
     2
284
    12
340
94
  0
DIMSTYLE
105
F1
102
{ACAD_REACTORS
330
F0
330
105
102
}
330
A
100
AcDbSymbolTableRecord
100
AcDbDimStyleTableRecord
  2
SLDDIMSTYLE1
 70
     0
 41
3.302
 44
0.0
 45
0.000000001
 73
     0
 74
     0
 77
     1
 78
    12
 79
     3
140
3.5
143
0.0393700787401575
147
0.875
148
0.000000001
170
     1
172
     1
173
     1
178
     0
271
     2
272
     2
276
     2
284
    12
289
     0
340
94
  0
ENDTAB
  0
TABLE
  2
BLOCK_RECORD
  5
1
330
0
100
AcDbSymbolTable
 70
     8
  0
BLOCK_RECORD
  5
1F
330
1
100
AcDbSymbolTableRecord
100
AcDbBlockTableRecord
  2
*Model_Space
340
22
  0
BLOCK_RECORD
  5
1B
330
1
100
AcDbSymbolTableRecord
100
AcDbBlockTableRecord
  2
*Paper_Space
340
1E
  0
BLOCK_RECORD
  5
23
330
1
100
AcDbSymbolTableRecord
100
AcDbBlockTableRecord
  2
*Paper_Space0
340
26
  0
BLOCK_RECORD
  5
7F
330
1
100
AcDbSymbolTableRecord
100
AcDbBlockTableRecord
  2
블럭10
340
0
102
{BLKREFS
331
C1
102
}
  0
BLOCK_RECORD
  5
CA
330
1
100
AcDbSymbolTableRecord
100
AcDbBlockTableRecord
  2
_D
340
0
  0
BLOCK_RECORD
  5
DE
330
1
100
AcDbSymbolTableRecord
100
AcDbBlockTableRecord
  2
_D_1
340
0
  0
BLOCK_RECORD
  5
F2
330
1
100
AcDbSymbolTableRecord
100
AcDbBlockTableRecord
  2
_D_2
340
0
  0
BLOCK_RECORD
  5
106
330
1
100
AcDbSymbolTableRecord
100
AcDbBlockTableRecord
  2
_D_3
340
0
  0
BLOCK_RECORD
  5
120
330
1
100
AcDbSymbolTableRecord
100
AcDbBlockTableRecord
  2
SW_DOWELSYMBOL_0
340
0
102
{BLKREFS
331
126
102
}
  0
ENDTAB
  0
ENDSEC
  0
SECTION
  2
BLOCKS
  0
BLOCK
  5
20
330
1F
100
AcDbEntity
  8
0
100
AcDbBlockBegin
  2
*Model_Space
 70
     0
 10
0.0
 20
0.0
 30
0.0
  3
*Model_Space
  1
*Model_Space
  0
ENDBLK
  5
21
330
1F
100
AcDbEntity
  8
0
100
AcDbBlockEnd
  0
BLOCK
  5
1C
330
1B
100
AcDbEntity
 67
     1
  8
0
100
AcDbBlockBegin
  2
*Paper_Space
 70
     0
 10
0.0
 20
0.0
 30
0.0
  3
*Paper_Space
  1
*Paper_Space
  0
ENDBLK
  5
1D
330
1B
100
AcDbEntity
 67
     1
  8
0
100
AcDbBlockEnd
  0
BLOCK
  5
24
330
23
100
AcDbEntity
  8
0
100
AcDbBlockBegin
  2
*Paper_Space0
 70
     0
 10
0.0
 20
0.0
 30
0.0
  3
*Paper_Space0
  1
*Paper_Space0
  0
ENDBLK
  5
25
330
23
100
AcDbEntity
  8
0
100
AcDbBlockEnd
  0
BLOCK
  5
80
330
7F
100
AcDbEntity
  8
0
100
AcDbBlockBegin
  2
블럭10
 70
     2
 10
0.0
 20
0.0
 30
0.0
  3
블럭10
  1
블럭10
  0
ELLIPSE
  5
82
330
7F
100
AcDbEntity
  8
중심선
100
AcDbEllipse
 10
20.54032771741204
 20
12.0471743016438
 30
0.0
 11
6.600054785286829
 21
-1.261213355974178E-13
 31
0.0
210
0.0
220
0.0
230
1.0
 40
0.636358354079598
 41
0.9219305317359503
 42
6.513795318482858
  0
ELLIPSE
  5
83
330
7F
100
AcDbEntity
  8
중심선
100
AcDbEllipse
 10
20.54032771746488
 20
12.04717430159265
 30
0.0
 11
3.960054785062283
 21
1.540847449632565E-10
 31
0.0
210
0.0
220
0.0
230
1.0
 40
0.3939339440162632
 41
1.131841032648279
 42
5.62031148352944
  0
LINE
  5
84
330
7F
100
AcDbEntity
  8
중심선
100
AcDbLine
 10
2.268634060543552
 20
16.24717430164393
 30
0.0
 11
5.714909304380834
 21
16.24717430164393
 31
0.0
  0
LINE
  5
85
330
7F
100
AcDbEntity
  8
중심선
100
AcDbLine
 10
5.245725140726316
 20
7.84717430164391
 30
0.0
 11
8.692000384563599
 21
7.84717430164391
 31
0.0
  0
LINE
  5
86
330
7F
100
AcDbEntity
  8
중심선
100
AcDbLine
 10
15.74043728645272
 20
16.24717430164393
 30
0.0
 11
8.692000384563599
 21
7.84717430164391
 31
0.0
  0
LINE
  5
87
330
7F
100
AcDbEntity
  8
중심선
100
AcDbLine
 10
0.1404042013395286
 20
13.71084872107135
 30
0.0
 11
3.58671253028996
 21
13.71088815037384
 31
0.0
  0
LINE
  5
88
330
7F
100
AcDbEntity
  8
중심선
100
AcDbLine
 10
2.750260043222114
 20
10.84717430164391
 30
0.0
 11
6.196535287059397
 21
10.84717430164391
 31
0.0
  0
LINE
  5
89
330
7F
100
AcDbEntity
  8
중심선
100
AcDbLine
 10
12.29416204261559
 20
16.24717430164393
 30
0.0
 11
5.245725140726316
 21
7.84717430164391
 31
0.0
  0
LINE
  5
8A
330
7F
100
AcDbEntity
  8
중심선
100
AcDbLine
 10
10.72767329541681
 20
16.24717430164393
 30
0.0
 11
6.196535287059397
 21
10.84717430164391
 31
0.0
  0
LINE
  5
8B
330
7F
100
AcDbEntity
  8
중심선
100
AcDbLine
 10
7.28139805157953
 20
16.24717430164393
 30
0.0
 11
2.750260043222114
 21
10.84717430164391
 31
0.0
  0
LINE
  5
8C
330
7F
100
AcDbEntity
  8
중심선
100
AcDbLine
 10
5.714909304380834
 20
16.24717430164393
 30
0.0
 11
3.58671253028996
 21
13.71088815037384
 31
0.0
  0
LINE
  5
8D
330
7F
100
AcDbEntity
  8
중심선
100
AcDbLine
 10
2.268634060543552
 20
16.24717430164393
 30
0.0
 11
0.1404042013395286
 21
13.71084872107135
 31
0.0
  0
LINE
  5
8E
330
7F
100
AcDbEntity
  8
중심선
100
AcDbLine
 10
7.28139805157953
 20
16.24717430164393
 30
0.0
 11
10.72767329541681
 21
16.24717430164393
 31
0.0
  0
LINE
  5
8F
330
7F
100
AcDbEntity
  8
중심선
100
AcDbLine
 10
12.29416204261559
 20
16.24717430164393
 30
0.0
 11
15.74043728645272
 21
16.24717430164393
 31
0.0
  0
LINE
  5
90
330
7F
100
AcDbEntity
  8
중심선
100
AcDbLine
 10
19.22036997980202
 20
11.08717430171403
 30
0.0
 11
23.66174974927406
 21
11.08717430171406
 31
0.0
  0
LINE
  5
91
330
7F
100
AcDbEntity
  8
중심선
100
AcDbLine
 10
19.22039502424796
 20
13.00717430171391
 30
0.0
 11
19.22036997980202
 21
11.08717430171403
 31
0.0
  0
LINE
  5
92
330
7F
100
AcDbEntity
  8
중심선
100
AcDbLine
 10
19.22039502424796
 20
13.00717430171391
 30
0.0
 11
26.96566020931264
 21
13.00717430171391
 31
0.0
  0
LINE
  5
93
330
7F
100
AcDbEntity
  8
중심선
100
AcDbLine
 10
22.22332737316547
 20
13.45928029700563
 30
0.0
 11
24.52862924686651
 21
15.39360700705356
 31
0.0
  0
ATTDEF
  5
95
330
7F
100
AcDbEntity
  8
FORMAT
 62
     2
100
AcDbText
 10
4.408487351596664
 20
2.075366912832191
 30
0.0
 40
4.233333333333333
  1
E2069016
 41
0.75
  7
SLDTEXTSTYLE0
 11
4.408487351596664
 21
-0.0412997538344756
 31
0.0
100
AcDbAttributeDefinition
  3

  2
AUTOATTR0
 70
     0
 74
     1
  0
ENDBLK
  5
81
330
7F
100
AcDbEntity
  8
0
100
AcDbBlockEnd
  0
BLOCK
  5
CB
330
CA
100
AcDbEntity
  8
0
100
AcDbBlockBegin
  2
_D
 70
     0
 10
0.0
 20
0.0
 30
0.0
  3
_D
  1
_D
  0
LINE
  5
CD
330
CA
100
AcDbEntity
  8
치수문자_일반주서
 62
     0
370
    -2
100
AcDbLine
 10
42.86250000000004
 20
1.377514629548137
 30
0.0
 11
42.86250000000004
 21
22.82277225922702
 31
0.0
  0
LINE
  5
CE
330
CA
100
AcDbEntity
  8
치수문자_일반주서
 62
     0
370
    -2
100
AcDbLine
 10
26.98749999999999
 20
3.23750000000001
 30
0.0
 11
26.98749999999999
 21
22.82277225922702
 31
0.0
  0
LINE
  5
CF
330
CA
100
AcDbEntity
  8
치수문자_일반주서
 62
     0
370
    -2
100
AcDbLine
 10
39.56050000000004
 20
22.82277225922702
 30
0.0
 11
30.28949999999999
 21
22.82277225922702
 31
0.0
  0
SOLID
  5
D0
330
CA
100
AcDbEntity
  8
치수문자_일반주서
 62
     0
100
AcDbTrace
 10
39.56050000000004
 20
22.27243892589368
 30
0.0
 11
39.56050000000004
 21
23.37310559256035
 31
0.0
 12
42.86250000000004
 22
22.82277225922702
 32
0.0
 13
42.86250000000004
 23
22.82277225922702
 33
0.0
  0
SOLID
  5
D1
330
CA
100
AcDbEntity
  8
치수문자_일반주서
 62
     0
100
AcDbTrace
 10
30.28949999999999
 20
23.37310559256035
 30
0.0
 11
30.28949999999999
 21
22.27243892589368
 31
0.0
 12
26.98749999999999
 22
22.82277225922702
 32
0.0
 13
26.98749999999999
 23
22.82277225922702
 33
0.0
  0
MTEXT
  5
D2
330
CA
100
AcDbEntity
  8
치수문자_일반주서
 62
     0
100
AcDbMText
 10
34.92500000000001
 20
27.19777225922702
 30
0.0
 40
3.5
 41
0.0
 71
     2
 72
     1
  1
\A1;15.88 [5/8]
  7
SLDTEXTSTYLE0
 73
     1
 44
1.0
  0
POINT
  5
D3
330
CA
100
AcDbEntity
  8
Defpoints
 62
     0
100
AcDbPoint
 10
42.86250000000004
 20
1.315014629548137
 30
0.0
  0
POINT
  5
D4
330
CA
100
AcDbEntity
  8
Defpoints
 62
     0
100
AcDbPoint
 10
26.98749999999999
 20
3.17500000000001
 30
0.0
  0
POINT
  5
D5
330
CA
100
AcDbEntity
  8
Defpoints
 62
     0
100
AcDbPoint
 10
26.98749999999999
 20
22.82277225922702
 30
0.0
  0
ENDBLK
  5
CC
330
CA
100
AcDbEntity
  8
0
100
AcDbBlockEnd
  0
BLOCK
  5
DF
330
DE
100
AcDbEntity
  8
0
100
AcDbBlockBegin
  2
_D_1
 70
     0
 10
0.0
 20
0.0
 30
0.0
  3
_D_1
  1
_D_1
  0
LINE
  5
E1
330
DE
100
AcDbEntity
  8
치수문자_일반주서
 62
     0
370
    -2
100
AcDbLine
 10
42.86250000000004
 20
1.377514629548137
 30
0.0
 11
42.86250000000004
 21
35.75282056895201
 31
0.0
  0
LINE
  5
E2
330
DE
100
AcDbEntity
  8
치수문자_일반주서
 62
     0
370
    -2
100
AcDbLine
 10
-42.86250000000001
 20
3.872500000000006
 30
0.0
 11
-42.86250000000001
 21
35.75282056895201
 31
0.0
  0
LINE
  5
E3
330
DE
100
AcDbEntity
  8
치수문자_일반주서
 62
     0
370
    -2
100
AcDbLine
 10
39.56050000000004
 20
35.75282056895201
 30
0.0
 11
-39.56050000000001
 21
35.75282056895201
 31
0.0
  0
SOLID
  5
E4
330
DE
100
AcDbEntity
  8
치수문자_일반주서
 62
     0
100
AcDbTrace
 10
39.56050000000004
 20
35.20248723561868
 30
0.0
 11
39.56050000000004
 21
36.30315390228535
 31
0.0
 12
42.86250000000004
 22
35.75282056895201
 32
0.0
 13
42.86250000000004
 23
35.75282056895201
 33
0.0
  0
SOLID
  5
E5
330
DE
100
AcDbEntity
  8
치수문자_일반주서
 62
     0
100
AcDbTrace
 10
-39.56050000000001
 20
36.30315390228535
 30
0.0
 11
-39.56050000000001
 21
35.20248723561868
 31
0.0
 12
-42.86250000000001
 22
35.75282056895201
 32
0.0
 13
-42.86250000000001
 23
35.75282056895201
 33
0.0
  0
MTEXT
  5
E6
330
DE
100
AcDbEntity
  8
치수문자_일반주서
 62
     0
100
AcDbMText
 10
0.000000000000016
 20
40.12782056895201
 30
0.0
 40
3.5
 41
0.0
 71
     2
 72
     1
  1
\A1;85.73 [3 3/8]
  7
SLDTEXTSTYLE0
 73
     1
 44
1.0
  0
POINT
  5
E7
330
DE
100
AcDbEntity
  8
Defpoints
 62
     0
100
AcDbPoint
 10
42.86250000000004
 20
1.315014629548137
 30
0.0
  0
POINT
  5
E8
330
DE
100
AcDbEntity
  8
Defpoints
 62
     0
100
AcDbPoint
 10
-42.86250000000001
 20
3.810000000000006
 30
0.0
  0
POINT
  5
E9
330
DE
100
AcDbEntity
  8
Defpoints
 62
     0
100
AcDbPoint
 10
-42.86250000000001
 20
35.75282056895201
 30
0.0
  0
ENDBLK
  5
E0
330
DE
100
AcDbEntity
  8
0
100
AcDbBlockEnd
  0
BLOCK
  5
F3
330
F2
100
AcDbEntity
  8
0
100
AcDbBlockBegin
  2
_D_2
 70
     0
 10
0.0
 20
0.0
 30
0.0
  3
_D_2
  1
_D_2
  0
LINE
  5
F5
330
F2
100
AcDbEntity
  8
치수문자_일반주서
 62
     0
370
    -2
100
AcDbLine
 10
29.45826945645635
 20
3.174999999999985
 30
0.0
 11
56.71730936454168
 21
3.175000000000086
 31
0.0
  0
LINE
  5
F6
330
F2
100
AcDbEntity
  8
치수문자_일반주서
 62
     0
370
    -2
100
AcDbLine
 10
29.45826945645638
 20
-3.174999999999987
 30
0.0
 11
56.7173093645417
 21
-3.174999999999883
 31
0.0
  0
LINE
  5
F7
330
F2
100
AcDbEntity
  8
치수문자_일반주서
 62
     0
370
    -2
100
AcDbLine
 10
56.71730936454168
 20
3.175000000000086
 30
0.0
 11
56.71730936454157
 21
35.1540000000001
 31
0.0
  0
LINE
  5
F8
330
F2
100
AcDbEntity
  8
치수문자_일반주서
 62
     0
370
    -2
100
AcDbLine
 10
56.71730936454168
 20
3.175000000000086
 30
0.0
 11
56.7173093645417
 21
-3.174999999999883
 31
0.0
  0
LINE
  5
F9
330
F2
100
AcDbEntity
  8
치수문자_일반주서
 62
     0
370
    -2
100
AcDbLine
 10
56.71730936454166
 20
6.477000000000086
 30
0.0
 11
56.71730936454165
 21
9.779000000000085
 31
0.0
  0
LINE
  5
FA
330
F2
100
AcDbEntity
  8
치수문자_일반주서
 62
     0
370
    -2
100
AcDbLine
 10
56.71730936454171
 20
-6.476999999999883
 30
0.0
 11
56.71730936454173
 21
-9.778999999999883
 31
0.0
  0
SOLID
  5
FB
330
F2
100
AcDbEntity
  8
치수문자_일반주서
 62
     0
100
AcDbTrace
 10
56.16697603120833
 20
6.477000000000084
 30
0.0
 11
57.267642697875
 21
6.477000000000087
 31
0.0
 12
56.71730936454168
 22
3.175000000000086
 32
0.0
 13
56.71730936454168
 23
3.175000000000086
 33
0.0
  0
SOLID
  5
FC
330
F2
100
AcDbEntity
  8
치수문자_일반주서
 62
     0
100
AcDbTrace
 10
57.26764269787505
 20
-6.476999999999881
 30
0.0
 11
56.16697603120838
 21
-6.476999999999885
 31
0.0
 12
56.7173093645417
 22
-3.174999999999883
 32
0.0
 13
56.7173093645417
 23
-3.174999999999883
 33
0.0
  0
MTEXT
  5
FD
330
F2
100
AcDbEntity
  8
치수문자_일반주서
 62
     0
100
AcDbMText
 10
52.34230936454161
 20
22.46650000000007
 30
0.0
 40
3.5
 41
0.0
 71
     2
 72
     1
  1
\A1;%%c6.35 [1/4]
  7
SLDTEXTSTYLE0
 11
-3.356894814614661E-15
 21
1.0
 31
0.0
 73
     1
 44
1.0
  0
POINT
  5
FE
330
F2
100
AcDbEntity
  8
Defpoints
 62
     0
100
AcDbPoint
 10
29.39576945645635
 20
3.174999999999984
 30
0.0
  0
POINT
  5
FF
330
F2
100
AcDbEntity
  8
Defpoints
 62
     0
100
AcDbPoint
 10
29.39576945645638
 20
-3.174999999999987
 30
0.0
  0
POINT
  5
100
330
F2
100
AcDbEntity
  8
Defpoints
 62
     0
100
AcDbPoint
 10
56.7173093645417
 20
-3.174999999999885
 30
0.0
  0
ENDBLK
  5
F4
330
F2
100
AcDbEntity
  8
0
100
AcDbBlockEnd
  0
BLOCK
  5
107
330
106
100
AcDbEntity
  8
0
100
AcDbBlockBegin
  2
_D_3
 70
     0
 10
0.0
 20
0.0
 30
0.0
  3
_D_3
  1
_D_3
  0
LINE
  5
109
330
106
100
AcDbEntity
  8
치수문자_일반주서
 62
     0
370
    -2
100
AcDbLine
 10
-41.97250000000003
 20
4.762500000000001
 30
0.0
 11
-55.86250000000005
 21
4.76249999999995
 31
0.0
  0
LINE
  5
10A
330
106
100
AcDbEntity
  8
치수문자_일반주서
 62
     0
370
    -2
100
AcDbLine
 10
-41.97250000000003
 20
-4.762500000000005
 30
0.0
 11
-55.86250000000001
 21
-4.762500000000055
 31
0.0
  0
LINE
  5
10B
330
106
100
AcDbEntity
  8
치수문자_일반주서
 62
     0
370
    -2
100
AcDbLine
 10
-55.86250000000003
 20
1.460499999999951
 30
0.0
 11
-55.86250000000003
 21
-1.460500000000056
 31
0.0
  0
SOLID
  5
10C
330
106
100
AcDbEntity
  8
치수문자_일반주서
 62
     0
100
AcDbTrace
 10
-55.3121666666667
 20
1.460499999999953
 30
0.0
 11
-56.41283333333337
 21
1.460499999999949
 31
0.0
 12
-55.86250000000005
 22
4.76249999999995
 32
0.0
 13
-55.86250000000005
 23
4.76249999999995
 33
0.0
  0
SOLID
  5
10D
330
106
100
AcDbEntity
  8
치수문자_일반주서
 62
     0
100
AcDbTrace
 10
-56.41283333333336
 20
-1.460500000000058
 30
0.0
 11
-55.31216666666669
 21
-1.460500000000054
 31
0.0
 12
-55.86250000000001
 22
-4.762500000000055
 32
0.0
 13
-55.86250000000001
 23
-4.762500000000055
 33
0.0
  0
MTEXT
  5
10E
330
106
100
AcDbEntity
  8
치수문자_일반주서
 62
     0
100
AcDbMText
 10
-60.23750000000003
 20
-0.0000000000000171
 30
0.0
 40
3.5
 41
0.0
 71
     2
 72
     1
  1
\A1;%%c9.53 [3/8]
  7
SLDTEXTSTYLE0
 11
-3.729883127349604E-15
 21
1.0
 31
0.0
 73
     1
 44
1.0
  0
POINT
  5
10F
330
106
100
AcDbEntity
  8
Defpoints
 62
     0
100
AcDbPoint
 10
-41.91000000000003
 20
4.762500000000001
 30
0.0
  0
POINT
  5
110
330
106
100
AcDbEntity
  8
Defpoints
 62
     0
100
AcDbPoint
 10
-41.91000000000003
 20
-4.762500000000005
 30
0.0
  0
POINT
  5
111
330
106
100
AcDbEntity
  8
Defpoints
 62
     0
100
AcDbPoint
 10
-55.86250000000002
 20
-4.762500000000057
 30
0.0
  0
ENDBLK
  5
108
330
106
100
AcDbEntity
  8
0
100
AcDbBlockEnd
  0
BLOCK
  5
121
330
120
100
AcDbEntity
  8
0
100
AcDbBlockBegin
  2
SW_DOWELSYMBOL_0
 70
     0
 10
0.0
 20
0.0
 30
0.0
  3
SW_DOWELSYMBOL_0
  1
SW_DOWELSYMBOL_0
  0
CIRCLE
  5
123
330
120
100
AcDbEntity
  8
해칭선
 62
     0
100
AcDbCircle
 10
0.0
 20
0.0
 30
0.0
 40
3.000000000000001
  0
HATCH
  5
124
330
120
100
AcDbEntity
  8
0
  6
Continuous
 62
     0
370
     0
100
AcDbHatch
 10
0.0
 20
0.0
 30
0.0
210
0.0
220
0.0
230
1.0
  2
SOLID
 70
     1
 71
     0
 91
        1
 92
        0
 93
        3
 72
     2
 10
0.0
 20
0.0
 40
3.000000000000001
 50
0.0
 51
90.0
 73
     1
 72
     1
 10
0.0
 20
3.000000000000001
 11
0.0
 21
0.0
 72
     1
 10
0.0
 20
0.0
 11
3.000000000000001
 21
0.0
 97
        0
 75
     0
 76
     1
 98
        1
 10
0.0
 20
0.0
  0
HATCH
  5
125
330
120
100
AcDbEntity
  8
0
  6
Continuous
 62
     0
370
     0
100
AcDbHatch
 10
0.0
 20
0.0
 30
0.0
210
0.0
220
0.0
230
1.0
  2
SOLID
 70
     1
 71
     0
 91
        1
 92
        0
 93
        3
 72
     2
 10
0.0
 20
0.0
 40
3.000000000000001
 50
180.0
 51
270.0000000000008
 73
     1
 72
     1
 10
0.0
 20
-3.000000000000001
 11
0.0
 21
0.0
 72
     1
 10
0.0
 20
0.0
 11
-3.000000000000001
 21
0.0
 97
        0
 75
     0
 76
     1
 98
        1
 10
0.0
 20
0.0
  0
ENDBLK
  5
122
330
120
100
AcDbEntity
  8
0
100
AcDbBlockEnd
  0
ENDSEC
  0
SECTION
  2
ENTITIES
  0
LINE
  5
96
330
1F
100
AcDbEntity
  8
외형선
  6
Continuous
 62
     1
370
    15
100
AcDbLine
 10
36.09782533170984
 20
-3.174999999999987
 30
0.0
 11
38.03485306021072
 21
-3.174999999999987
 31
0.0
  0
LINE
  5
97
330
1F
100
AcDbEntity
  8
외형선
  6
Continuous
 62
     1
370
    15
100
AcDbLine
 10
29.39617166993042
 20
3.174999999999984
 30
0.0
 11
27.45870156919527
 21
3.174999999999984
 31
0.0
  0
ARC
  5
98
330
1F
100
AcDbEntity
  8
외형선
  6
Continuous
 62
     1
370
    15
100
AcDbCircle
 10
39.68750000000003
 20
0.0000000000000002
 30
0.0
 40
3.174999999999972
100
AcDbArc
 50
335.1119849116105
 51
0.0
  0
ARC
  5
99
330
1F
100
AcDbEntity
  8
외형선
  6
Continuous
 62
     1
370
    15
100
AcDbCircle
 10
39.68750000000003
 20
0.0000000000000002
 30
0.0
 40
3.174999999999972
100
AcDbArc
 50
0.0
 51
24.8878220156537
  0
LINE
  5
9A
330
1F
100
AcDbEntity
  8
외형선
  6
Continuous
 62
     1
370
    15
100
AcDbLine
 10
38.03485306021072
 20
3.174999999999984
 30
0.0
 11
36.0978253317098
 21
3.174999999999984
 31
0.0
  0
LINE
  5
9B
330
1F
100
AcDbEntity
  8
외형선
  6
Continuous
 62
     1
370
    15
100
AcDbLine
 10
27.45870156919528
 20
-3.174999999999987
 30
0.0
 11
29.39617166993046
 21
-3.174999999999987
 31
0.0
  0
LINE
  5
9C
330
1F
100
AcDbEntity
  8
외형선
  6
Continuous
370
    15
100
AcDbLine
 10
-20.06286934298438
 20
-4.762500000000006
 30
0.0
 11
20.06286934298436
 21
-4.762500000000006
 31
0.0
  0
LINE
  5
9D
330
1F
100
AcDbEntity
  8
외형선
  6
Continuous
370
    15
100
AcDbLine
 10
20.06286934298436
 20
4.762500000000003
 30
0.0
 11
4.838700000000012
 21
4.762500000000003
 31
0.0
  0
LINE
  5
9E
330
1F
100
AcDbEntity
  8
외형선
  6
Continuous
370
    15
100
AcDbLine
 10
20.06286934298436
 20
-4.76250000000001
 30
0.0
 11
25.98749999999997
 21
-3.175000000000002
 31
0.0
  0
LINE
  5
9F
330
1F
100
AcDbEntity
  8
외형선
  6
Continuous
370
    15
100
AcDbLine
 10
25.98749999999997
 20
3.174999999999998
 30
0.0
 11
20.06286934298436
 21
4.762500000000006
 31
0.0
  0
LINE
  5
A2
330
1F
100
AcDbEntity
  8
외형선
  6
Continuous
370
    15
100
AcDbLine
 10
25.98749999999997
 20
-3.175000000000002
 30
0.0
 11
26.98749999999997
 21
-3.175000000000002
 31
0.0
  0
LINE
  5
A3
330
1F
100
AcDbEntity
  8
외형선
  6
Continuous
370
    15
100
AcDbLine
 10
26.98749999999997
 20
3.174999999999998
 30
0.0
 11
25.98749999999997
 21
3.174999999999998
 31
0.0
  0
SPLINE
  5
A4
330
1F
100
AcDbEntity
  8
외형선
  6
Continuous
 62
     1
370
    15
100
AcDbSpline
210
0.0
220
0.0
230
1.0
 70
     8
 71
     3
 72
    38
 73
    34
 74
     0
 42
0.000000001
 43
0.00000001
 40
0.0
 40
0.0
 40
0.0
 40
0.0
 40
0.0625
 40
0.0625
 40
0.125
 40
0.125
 40
0.1875
 40
0.1875
 40
0.25
 40
0.25
 40
0.3125
 40
0.3125
 40
0.375
 40
0.375
 40
0.4375
 40
0.4375
 40
0.5
 40
0.5
 40
0.5625
 40
0.5625
 40
0.625
 40
0.625
 40
0.6875
 40
0.6875
 40
0.75
 40
0.75
 40
0.8125
 40
0.8125
 40
0.875
 40
0.875
 40
0.9375
 40
0.9375
 40
1.0
 40
1.0
 40
1.0
 40
1.0
 10
26.98749999999996
 20
3.163324228102411
 30
0.0
 10
27.24979570660814
 20
3.176374132286199
 30
0.0
 10
27.51583137401043
 20
3.178509604881354
 30
0.0
 10
28.0471505024575
 20
3.160606757446394
 30
0.0
 10
28.31041001008354
 20
3.140654429436967
 30
0.0
 10
28.83749348615389
 20
3.079202142783358
 30
0.0
 10
29.10402079350041
 20
3.037535459188806
 30
0.0
 10
29.63476410514375
 20
2.933471276930155
 30
0.0
 10
29.8965134032998
 20
2.871328188234019
 30
0.0
 10
30.42552834946837
 20
2.727179884298809
 30
0.0
 10
30.69225627623164
 20
2.645138160502591
 30
0.0
 10
31.22185003265264
 20
2.463653261649219
 30
0.0
 10
31.48336048846526
 20
2.364448712751717
 30
0.0
 10
32.01373938824011
 20
2.149414430371096
 30
0.0
 10
32.28037617941429
 20
2.033815918593889
 30
0.0
 10
32.80825078322943
 20
1.790121772105989
 30
0.0
 10
33.07079462127751
 20
1.661873202558996
 30
0.0
 10
33.60196505014612
 20
1.393734215580745
 30
0.0
 10
33.86821928446238
 20
1.254211091656005
 30
0.0
 10
34.39381131070746
 20
0.9686896136677481
 30
0.0
 10
34.65865704721013
 20
0.8217058596962437
 30
0.0
 10
35.19004372535689
 20
0.5227184721947328
 30
0.0
 10
35.45419731246176
 20
0.3711740807816469
 30
0.0
 10
35.98041065703704
 20
0.0669731817002477
 30
0.0
 10
36.24678746690199
 20
-0.0865165997860778
 30
0.0
 10
36.77781433352519
 20
-0.3915022598016341
 30
0.0
 10
37.03998164753156
 20
-0.5425231890208607
 30
0.0
 10
37.56833780366276
 20
-0.8405329968611581
 30
0.0
 10
37.83502461323156
 20
-0.987595902009307
 30
0.0
 10
38.36511690677745
 20
-1.273239674756973
 30
0.0
 10
38.62656781462829
 20
-1.411503740474096
 30
0.0
 10
39.15650163086718
 20
-1.678518574289379
 30
0.0
 10
39.423206835722
 20
-1.806917837223522
 30
0.0
 10
39.68749999999967
 20
-1.928225883930757
 30
0.0
  0
SPLINE
  5
A5
330
1F
100
AcDbEntity
  8
외형선
  6
Continuous
 62
     1
370
    15
100
AcDbSpline
210
0.0
220
0.0
230
1.0
 70
     8
 71
     3
 72
    16
 73
    12
 74
     0
 42
0.000000001
 43
0.00000001
 40
0.0
 40
0.0
 40
0.0
 40
0.0
 40
0.1201176715589806
 40
0.2437553464403613
 40
0.3625629077462944
 40
0.4849791567393918
 40
0.6017473855198316
 40
0.7214405549465132
 40
0.8180714283176287
 40
0.916884998038053
 40
1.0
 40
1.0
 40
1.0
 40
1.0
 10
39.68750000000004
 20
-1.928225883930916
 30
0.0
 10
39.83336947323499
 20
-1.98927722763416
 30
0.0
 10
40.12938306991879
 20
-2.113169001774376
 30
0.0
 10
40.57533411674071
 20
-2.205590687507822
 30
0.0
 10
41.0154638540171
 20
-2.219759786282749
 30
0.0
 10
41.42585358078286
 20
-2.153013405706994
 30
0.0
 10
41.8007843345581
 20
-2.014986344142953
 30
0.0
 10
42.10384552196392
 20
-1.834930512034734
 30
0.0
 10
42.33446332012615
 20
-1.642188078935517
 30
0.0
 10
42.49941439278767
 20
-1.461247188645597
 30
0.0
 10
42.54083069693294
 20
-1.372874914481562
 30
0.0
 10
42.55975194810563
 20
-1.332501587342221
 30
0.0
  0
SPLINE
  5
A6
330
1F
100
AcDbEntity
  8
외형선
  6
Continuous
 62
     1
370
    15
100
AcDbSpline
210
0.0
220
0.0
230
1.0
 70
     8
 71
     3
 72
    11
 73
     7
 74
     0
 42
0.000000001
 43
0.00000001
 40
0.0
 40
0.0
 40
0.0
 40
0.0
 40
0.143212157943024
 40
0.3735782797347729
 40
0.6104926965129369
 40
1.0
 40
1.0
 40
1.0
 40
1.0
 10
41.38772751235278
 20
-2.145658086088715
 30
0.0
 10
41.31146048947958
 20
-2.208226121536988
 30
0.0
 10
41.1125129726298
 20
-2.371438933807086
 30
0.0
 10
40.77453742598997
 20
-2.604275626211361
 30
0.0
 10
40.28960421774408
 20
-2.877931009762609
 30
0.0
 10
39.91834682570196
 20
-2.973288640266273
 30
0.0
 10
39.68750000000001
 20
-3.032581752753931
 30
0.0
  0
SPLINE
  5
A7
330
1F
100
AcDbEntity
  8
외형선
  6
Continuous
 62
     1
370
    15
100
AcDbSpline
210
0.0
220
0.0
230
1.0
 70
     8
 71
     3
 72
    38
 73
    34
 74
     0
 42
0.000000001
 43
0.00000001
 40
0.0
 40
0.0
 40
0.0
 40
0.0
 40
0.0625
 40
0.0625
 40
0.125
 40
0.125
 40
0.1875
 40
0.1875
 40
0.25
 40
0.25
 40
0.3125
 40
0.3125
 40
0.375
 40
0.375
 40
0.4375
 40
0.4375
 40
0.5
 40
0.5
 40
0.5625
 40
0.5625
 40
0.625
 40
0.625
 40
0.6875
 40
0.6875
 40
0.75
 40
0.75
 40
0.8125
 40
0.8125
 40
0.875
 40
0.875
 40
0.9375
 40
0.9375
 40
1.0
 40
1.0
 40
1.0
 40
1.0
 10
26.98749999999997
 20
1.34607004940313
 30
0.0
 10
27.24979570660816
 20
1.208128070997148
 30
0.0
 10
27.51583137401041
 20
1.064862172083711
 30
0.0
 10
28.04715050245747
 20
0.7720313791659684
 30
0.0
 10
28.31041001008353
 20
0.6228643985043196
 30
0.0
 10
28.8374934861539
 20
0.3211594606535176
 30
0.0
 10
29.1040207935004
 20
0.1680969248559915
 30
0.0
 10
29.63476410514377
 20
-0.137698639671363
 30
0.0
 10
29.8965134032998
 20
-0.2899524417154725
 30
0.0
 10
30.42552834946837
 20
-0.5924556907997075
 30
0.0
 10
30.69225627623165
 20
-0.7425881027122316
 30
0.0
 10
31.22185003265264
 20
-1.035935859446774
 30
0.0
 10
31.48336048846526
 20
-1.178927913560493
 30
0.0
 10
32.01373938824011
 20
-1.457070349098768
 30
0.0
 10
32.28037617941429
 20
-1.591784539357323
 30
0.0
 10
32.80825078322938
 20
-1.848356375298136
 30
0.0
 10
33.07079462127751
 20
-1.970468307696741
 30
0.0
 10
33.60196505014612
 20
-2.201085776857041
 30
0.0
 10
33.86821928446238
 20
-2.3091906184037
 30
0.0
 10
34.39381131070746
 20
-2.507797033285129
 30
0.0
 10
34.65865704721014
 20
-2.599011146928302
 30
0.0
 10
35.19004372535689
 20
-2.762900089395901
 30
0.0
 10
35.45419731246174
 20
-2.835338242818418
 30
0.0
 10
35.98041065703707
 20
-2.959976342611502
 30
0.0
 10
36.24678746690201
 20
-3.012477453699314
 30
0.0
 10
36.77781433352521
 20
-3.096024230342652
 30
0.0
 10
37.03998164753155
 20
-3.127022410593046
 30
0.0
 10
37.56833780366274
 20
-3.167350126075986
 30
0.0
 10
37.83502461323156
 20
-3.176605167242347
 30
0.0
 10
38.36511690677747
 20
-3.172937794769676
 30
0.0
 10
38.62656781462825
 20
-3.160124017625721
 30
0.0
 10
39.15650163086719
 20
-3.11257994535956
 30
0.0
 10
39.42320683572201
 20
-3.077800379323943
 30
0.0
 10
39.6874999999997
 20
-3.032581752754006
 30
0.0
  0
SPLINE
  5
A8
330
1F
100
AcDbEntity
  8
외형선
  6
Continuous
 62
     1
370
    15
100
AcDbSpline
210
0.0
220
0.0
230
1.0
 70
     8
 71
     3
 72
    12
 73
     8
 74
     0
 42
0.000000001
 43
0.00000001
 40
0.0
 40
0.0
 40
0.0
 40
0.0
 40
0.195688061456206
 40
0.3967752233681975
 40
0.597855960919228
 40
0.7989307329441797
 40
1.0
 40
1.0
 40
1.0
 40
1.0
 10
32.73987381493156
 20
2.597401946017425
 30
0.0
 10
33.19307155522284
 20
2.733595798078309
 30
0.0
 10
34.11197091625658
 20
3.009741137097503
 30
0.0
 10
35.49653517097956
 20
3.188391150037085
 30
0.0
 10
36.89356881617269
 20
3.174466796681939
 30
0.0
 10
38.29055233133404
 20
2.964815890782841
 30
0.0
 10
39.22185502666029
 20
2.669879627780142
 30
0.0
 10
39.68749999999967
 20
2.522413514977152
 30
0.0
  0
SPLINE
  5
A9
330
1F
100
AcDbEntity
  8
외형선
  6
Continuous
 62
     1
370
    15
100
AcDbSpline
210
0.0
220
0.0
230
1.0
 70
     8
 71
     3
 72
    42
 73
    38
 74
     0
 42
0.000000001
 43
0.00000001
 40
0.0
 40
0.0
 40
0.0
 40
0.0
 40
0.0624999999999999
 40
0.0624999999999999
 40
0.1249999999999999
 40
0.1249999999999999
 40
0.1874999999999998
 40
0.1874999999999998
 40
0.2499999999999998
 40
0.2499999999999998
 40
0.3124999999999998
 40
0.3124999999999998
 40
0.3749999999999998
 40
0.3749999999999998
 40
0.4374999999999999
 40
0.4374999999999999
 40
0.4687499999999999
 40
0.4687499999999999
 40
0.5
 40
0.5
 40
0.5625000000000001
 40
0.5625000000000001
 40
0.5937500000000002
 40
0.5937500000000002
 40
0.6250000000000003
 40
0.6250000000000003
 40
0.6875000000000003
 40
0.6875000000000003
 40
0.7500000000000002
 40
0.7500000000000002
 40
0.8125000000000002
 40
0.8125000000000002
 40
0.8750000000000001
 40
0.8750000000000001
 40
0.9375000000000001
 40
0.9375000000000001
 40
1.0
 40
1.0
 40
1.0
 40
1.0
 10
39.68750000000004
 20
2.522413514977011
 30
0.0
 10
39.84874886410785
 20
2.465836247695623
 30
0.0
 10
40.00902156121535
 20
2.398695155143936
 30
0.0
 10
40.33109479368774
 20
2.248205073812923
 30
0.0
 10
40.49410561657997
 20
2.164014245926597
 30
0.0
 10
40.81645220252199
 20
1.982670786204181
 30
0.0
 10
40.97338462022977
 20
1.887012203740239
 30
0.0
 10
41.27839392823768
 20
1.684920044569583
 30
0.0
 10
41.4277962755032
 20
1.577233514168937
 30
0.0
 10
41.70723626311448
 20
1.354466119559264
 30
0.0
 10
41.83742534696158
 20
1.239398651241051
 30
0.0
 10
42.07603657208439
 20
0.9951629573043514
 30
0.0
 10
42.18483933186039
 20
0.8651302659131818
 30
0.0
 10
42.36859615541873
 20
0.5901108582071497
 30
0.0
 10
42.44506579217818
 20
0.4436743390272512
 30
0.0
 10
42.52900725839169
 20
0.2037427738784781
 30
0.0
 10
42.55139753352831
 20
0.1215690543379283
 30
0.0
 10
42.58386836973771
 20
-0.048582365620182
 30
0.0
 10
42.59397288402752
 20
-0.1375407881876893
 30
0.0
 10
42.60210280088656
 20
-0.4078178412885789
 30
0.0
 10
42.57714486790663
 20
-0.5970739883571541
 30
0.0
 10
42.49323345757485
 20
-0.8590064860764963
 30
0.0
 10
42.45694116716557
 20
-0.9445236437499221
 30
0.0
 10
42.37253891634975
 20
-1.100042091538934
 30
0.0
 10
42.3240690631462
 20
-1.171247164355873
 30
0.0
 10
42.16400630347549
 20
-1.361144430500178
 30
0.0
 10
42.04017761736333
 20
-1.452983812388273
 30
0.0
 10
41.78071912377274
 20
-1.572402191090594
 30
0.0
 10
41.64197267474158
 20
-1.601591820007829
 30
0.0
 10
41.3618291387054
 20
-1.61186260377713
 30
0.0
 10
41.21733081518238
 20
-1.593543502941695
 30
0.0
 10
40.92342837439439
 20
-1.524070482985909
 30
0.0
 10
40.77565623326397
 20
-1.473411119643536
 30
0.0
 10
40.47363746381542
 20
-1.349533865589733
 30
0.0
 10
40.31824978358452
 20
-1.275537472664366
 30
0.0
 10
40.00609829823654
 20
-1.115574024282303
 30
0.0
 10
39.84870038072663
 20
-1.029205616802176
 30
0.0
 10
39.6875
 20
-0.9402515157465565
 30
0.0
  0
SPLINE
  5
AA
330
1F
100
AcDbEntity
  8
외형선
  6
Continuous
 62
     1
370
    15
100
AcDbSpline
210
0.0
220
0.0
230
1.0
 70
     8
 71
     3
 72
    15
 73
    11
 74
     0
 42
0.000000001
 43
0.00000001
 40
0.0
 40
0.0
 40
0.0
 40
0.0
 40
0.1382028339354369
 40
0.2764062529600411
 40
0.4146102781054772
 40
0.5528149303743204
 40
0.6910202307390757
 40
0.8267699512049713
 40
0.9625240196259018
 40
1.0
 40
1.0
 40
1.0
 40
1.0
 10
39.6874999999997
 20
-0.9402515157463716
 30
0.0
 10
39.21340324968777
 20
-0.672728588906283
 30
0.0
 10
38.26520774194968
 20
-0.1376816026533358
 30
0.0
 10
36.84291004029958
 20
0.6907284272185886
 30
0.0
 10
35.42060431514517
 20
1.469009529347675
 30
0.0
 10
33.99829316348958
 20
2.149632269316057
 30
0.0
 10
32.58439137803384
 20
2.688016851974337
 30
0.0
 10
31.17892680907525
 20
3.032306456467149
 30
0.0
 10
30.1189908640728
 20
3.188283692587096
 30
0.0
 10
29.52473162638026
 20
3.160567507790155
 30
0.0
 10
29.39617166993042
 20
3.154571485710152
 30
0.0
  0
SPLINE
  5
AB
330
1F
100
AcDbEntity
  8
외형선
  6
Continuous
 62
     1
370
    15
100
AcDbSpline
210
0.0
220
0.0
230
1.0
 70
     8
 71
     3
 72
    14
 73
    10
 74
     0
 42
0.000000001
 43
0.00000001
 40
0.0
 40
0.0
 40
0.0
 40
0.0
 40
0.1561310875688001
 40
0.3122612122398231
 40
0.4683903973117855
 40
0.6245186661281724
 40
0.7806460420761914
 40
0.9339994869780222
 40
1.0
 40
1.0
 40
1.0
 40
1.0
 10
26.98749999999996
 20
0.2720382838870332
 30
0.0
 10
27.46163787410355
 20
-0.0024216987240798
 30
0.0
 10
28.40991069818903
 20
-0.5513399712859186
 30
0.0
 10
29.83231329193433
 20
-1.343111271813425
 30
0.0
 10
31.25470614226146
 20
-2.043358174239097
 30
0.0
 10
32.67708746694358
 20
-2.611318439503819
 30
0.0
 10
34.09104336878874
 20
-2.990926281501559
 30
0.0
 10
35.23128278513639
 20
-3.175323187706869
 30
0.0
 10
35.89740004157976
 20
-3.155797918810236
 30
0.0
 10
36.09782533170983
 20
-3.149923040707889
 30
0.0
  0
SPLINE
  5
AC
330
1F
100
AcDbEntity
  8
외형선
  6
Continuous
 62
     1
370
    15
100
AcDbSpline
210
0.0
220
0.0
230
1.0
 70
     8
 71
     3
 72
    12
 73
     8
 74
     0
 42
0.000000001
 43
0.00000001
 40
0.0
 40
0.0
 40
0.0
 40
0.0
 40
0.0284927295697922
 40
0.2713573277777755
 40
0.5142297047447072
 40
0.7571104123310621
 40
1.0
 40
1.0
 40
1.0
 40
1.0
 10
32.7398738149316
 20
-2.597401946017429
 30
0.0
 10
32.68524009641355
 20
-2.618153826006362
 30
0.0
 10
32.16492280539006
 20
-2.815789320575902
 30
0.0
 10
31.17892827887742
 20
-3.032456883656994
 30
0.0
 10
29.78183608852936
 20
-3.201908690834868
 30
0.0
 10
28.38469163899201
 20
-3.162932841435709
 30
0.0
 10
27.45323622212784
 20
-2.971337637216506
 30
0.0
 10
26.98749999999997
 20
-2.875538283886983
 30
0.0
  0
LINE
  5
AD
330
1F
100
AcDbEntity
  8
외형선
  6
Continuous
370
    15
100
AcDbLine
 10
26.98749999999997
 20
0.2720382838870337
 30
0.0
 11
26.98749999999997
 21
1.34607004940313
 31
0.0
  0
SPLINE
  5
AE
330
1F
100
AcDbEntity
  8
외형선
  6
Continuous
 62
     1
370
    15
100
AcDbSpline
210
0.0
220
0.0
230
1.0
 70
     8
 71
     3
 72
    23
 73
    19
 74
     0
 42
0.000000001
 43
0.00000001
 40
0.0
 40
0.0
 40
0.0
 40
0.0
 40
0.0068000964027393
 40
0.0777755877864113
 40
0.1505289523279046
 40
0.2092643103270763
 40
0.2693263814874525
 40
0.3429286769025517
 40
0.4015386034189969
 40
0.4605244406831042
 40
0.511531965697235
 40
0.5633259384054268
 40
0.638952412494592
 40
0.6901299238149717
 40
0.7427436143888819
 40
0.8119126116019106
 40
0.8830477789884986
 40
0.9999999999999999
 40
0.9999999999999999
 40
0.9999999999999999
 40
0.9999999999999999
 10
41.3877275123528
 20
2.145658086088712
 30
0.0
 10
41.40051248076525
 20
2.143710529623827
 30
0.0
 10
41.54673958906173
 20
2.121435500001791
 30
0.0
 10
41.79889614123255
 20
2.009827608579984
 30
0.0
 10
42.10357974057512
 20
1.836450872197121
 30
0.0
 10
42.33646268581739
 20
1.640592437947374
 30
0.0
 10
42.51303336314791
 20
1.44228361132156
 30
0.0
 10
42.60784721149978
 20
1.269764506201992
 30
0.0
 10
42.59373515429578
 20
1.182242093327005
 30
0.0
 10
42.4818968514908
 20
1.213205607275536
 30
0.0
 10
42.29767011369614
 20
1.34591259060488
 30
0.0
 10
42.04228935029909
 20
1.567145721281318
 30
0.0
 10
41.7482882730949
 20
1.837025954759266
 30
0.0
 10
41.43803549609292
 20
2.108265113133962
 30
0.0
 10
41.12947912318095
 20
2.357965447670175
 30
0.0
 10
40.77476585547896
 20
2.604655749551089
 30
0.0
 10
40.28950158031014
 20
2.877760213582401
 30
0.0
 10
39.91830747449808
 20
2.973223156991315
 30
0.0
 10
39.68750000000001
 20
3.032581752753928
 30
0.0
  0
LINE
  5
AF
330
1F
100
AcDbEntity
  8
외형선
  6
Continuous
 62
     1
370
    15
100
AcDbLine
 10
26.98749999999996
 20
-3.163324228102414
 30
0.0
 11
27.45870156919528
 21
-3.151518812499797
 31
0.0
  0
SPLINE
  5
B0
330
1F
100
AcDbEntity
  8
외형선
  6
Continuous
 62
     1
370
    15
100
AcDbSpline
210
0.0
220
0.0
230
1.0
 70
     8
 71
     3
 72
     9
 73
     5
 74
     0
 42
0.000000001
 43
0.00000001
 40
0.0
 40
0.0
 40
0.0
 40
0.0
 40
0.8606137284979422
 40
1.0
 40
1.0
 40
1.0
 40
1.0
 10
39.68749999999967
 20
3.032581752754005
 30
0.0
 10
39.21340334676023
 20
3.109386221114059
 30
0.0
 10
38.66252129882113
 20
3.198630054690946
 30
0.0
 10
38.11163855228517
 20
3.165282756086293
 30
0.0
 10
38.03485306021072
 20
3.160634600469125
 30
0.0
  0
LINE
  5
B1
330
1F
100
AcDbEntity
  8
외형선
  6
Continuous
370
    15
100
AcDbLine
 10
26.98749999999997
 20
-3.163324228102414
 30
0.0
 11
26.98749999999997
 21
-2.875538283886983
 31
0.0
  0
LINE
  5
B2
330
1F
100
AcDbEntity
  8
외형선
  6
Continuous
370
    15
100
AcDbLine
 10
20.06286934298436
 20
-0.0000000000000017
 30
0.0
 11
20.06286934298436
 21
4.76250000000001
 31
0.0
  0
LINE
  5
B3
330
1F
100
AcDbEntity
  8
외형선
  6
Continuous
370
    15
100
AcDbLine
 10
20.06286934298436
 20
-4.76250000000002
 30
0.0
 11
20.06286934298436
 21
-0.0000000000000017
 31
0.0
  0
LINE
  5
B6
330
1F
100
AcDbEntity
  8
외형선
  6
Continuous
370
    15
100
AcDbLine
 10
25.98749999999997
 20
-0.0000000000000017
 30
0.0
 11
25.98749999999997
 21
3.174999999999998
 31
0.0
  0
LINE
  5
B7
330
1F
100
AcDbEntity
  8
외형선
  6
Continuous
370
    15
100
AcDbLine
 10
25.98749999999997
 20
-3.175000000000002
 30
0.0
 11
25.98749999999997
 21
-0.0000000000000017
 31
0.0
  0
LINE
  5
BA
330
1F
100
AcDbEntity
  8
외형선
  6
Continuous
370
    15
100
AcDbLine
 10
26.98749999999997
 20
-0.0000000000000017
 30
0.0
 11
26.98749999999997
 21
3.174999999999998
 31
0.0
  0
LINE
  5
BB
330
1F
100
AcDbEntity
  8
외형선
  6
Continuous
370
    15
100
AcDbLine
 10
26.98749999999997
 20
-3.175000000000002
 30
0.0
 11
26.98749999999997
 21
-0.0000000000000017
 31
0.0
  0
LINE
  5
BC
330
1F
100
AcDbEntity
  8
중심선
 62
     1
100
AcDbLine
 10
-45.86250000000001
 20
-0.0000000000000056
 30
0.0
 11
45.86250000000002
 21
0.0000000000000056
 31
0.0
  0
LINE
  5
BE
330
1F
100
AcDbEntity
  8
참조1
100
AcDbLine
 10
0.0000000000000036
 20
-0.0000000000000057
 30
0.0
 11
0.0000000000000089
 21
-40.00000000000001
 31
0.0
  0
LINE
  5
BF
330
1F
100
AcDbEntity
  8
참조1
100
AcDbLine
 10
0.0000000000000089
 20
-40.00000000000001
 30
0.0
 11
-19.12760681430868
 21
-40.0
 31
0.0
  0
CIRCLE
  5
C0
330
1F
100
AcDbEntity
  8
해칭선
100
AcDbCircle
 10
0.0
 20
0.0
 30
0.0
 40
3.000000000000002
  0
INSERT
  5
C1
330
1F
100
AcDbEntity
  8
0
  6
Continuous
 62
     7
100
AcDbBlockReference
 66
     1
  2
블럭10
 10
-13.9402729321252
 20
-52.04717430164393
 30
0.0
  0
ATTRIB
  5
C2
330
C1
100
AcDbEntity
  8
FORMAT
 62
     2
100
AcDbText
 10
-23.12156822086649
 20
-49.97180738881175
 30
0.0
 40
4.233333333333333
  1
E2069016 [ 4 FLUTE ]
 41
0.75
  7
SLDTEXTSTYLE0
 11
-23.12156822086649
 21
-52.08847405547841
 31
0.0
100
AcDbAttribute
  2
AUTOATTR0
 70
     0
 74
     1
  0
SEQEND
  5
C3
330
C1
100
AcDbEntity
  8
0
  6
Continuous
 62
     7
  0
HATCH
  5
C4
330
1F
100
AcDbEntity
  8
중심선
100
AcDbHatch
 10
0.0
 20
0.0
 30
0.0
210
0.0
220
0.0
230
1.0
  2
SOLID
 70
     1
 71
     0
 91
        1
 92
        0
 93
        4
 72
     1
 10
-8.225363627744354
 20
-35.8
 11
-11.67163887158164
 21
-35.8
 72
     1
 10
-11.67163887158164
 20
-35.8
 11
-13.79986873078566
 21
-38.3363255805726
 72
     1
 10
-13.79986873078566
 20
-38.3363255805726
 11
-10.35356040183523
 21
-38.33628615127011
 72
     1
 10
-10.35356040183523
 20
-38.33628615127011
 11
-8.225363627744354
 21
-35.8
 97
        0
 75
     0
 76
     1
 98
        1
 10
10.5507386859688
 20
-0.0010749287238949
  0
HATCH
  5
C5
330
1F
100
AcDbEntity
  8
중심선
100
AcDbHatch
 10
0.0
 20
0.0
 30
0.0
210
0.0
220
0.0
230
1.0
  2
SOLID
 70
     1
 71
     0
 91
        1
 92
        0
 93
        4
 72
     1
 10
-3.212599636708402
 20
-35.80000000000003
 11
-6.658874880545657
 21
-35.79999999999998
 72
     1
 10
-6.658874880545657
 20
-35.79999999999998
 11
-11.19001288890307
 21
-41.20000000000002
 72
     1
 10
-11.19001288890307
 20
-41.20000000000002
 11
-7.743737645065789
 21
-41.20000000000002
 72
     1
 10
-7.743737645065789
 20
-41.20000000000002
 11
-3.212599636708402
 21
-35.80000000000003
 97
        0
 75
     0
 76
     1
 98
        1
 10
10.5507386859688
 20
-0.0010749287238949
  0
HATCH
  5
C6
330
1F
100
AcDbEntity
  8
중심선
100
AcDbHatch
 10
0.0
 20
0.0
 30
0.0
210
0.0
220
0.0
230
1.0
  2
SOLID
 70
     1
 71
     0
 91
        1
 92
        0
 93
        4
 72
     1
 10
1.800164354327494
 20
-35.8
 11
-1.646110889509593
 21
-35.8
 72
     1
 10
-1.646110889509593
 20
-35.8
 11
-8.694547791398872
 21
-44.20000000000002
 72
     1
 10
-8.694547791398872
 20
-44.20000000000002
 11
-5.248272547561589
 21
-44.20000000000002
 72
     1
 10
-5.248272547561589
 20
-44.20000000000002
 11
1.800164354327494
 21
-35.8
 97
        0
 75
     0
 76
     1
 98
        1
 10
10.5507386859688
 20
-0.0010749287238949
  0
HATCH
  5
C7
330
1F
100
AcDbEntity
  8
중심선
100
AcDbHatch
 10
0.0
 20
0.0
 30
0.0
210
0.0
220
0.0
230
1.0
  2
SOLID
 70
     1
 71
     0
 91
        1
 92
        0
 93
        6
 72
     3
 10
6.600054785339693
 20
-40.00000000005127
 11
3.960054785062284
 21
1.540882976769353E-10
 40
0.3939339440162627
 50
17.09539180608437
 51
320.0019657685081
 73
     0
 72
     1
 10
8.283054441040289
 20
-38.5878940046383
 11
10.58835631474133
 21
-36.65356729459038
 72
     3
 10
6.600054785286846
 20
-40.00000000000015
 11
6.60005478528683
 21
-1.278976924368180E-13
 40
0.636358354079598
 50
39.9987384933741
 51
368.4976242363725
 73
     1
 72
     1
 10
13.02538727718746
 20
-39.03999999993002
 11
5.280122092122769
 21
-39.03999999993002
 72
     1
 10
5.280122092122769
 20
-39.03999999993002
 11
5.280097047676835
 21
-40.95999999992991
 72
     1
 10
5.280097047676835
 20
-40.95999999992991
 11
9.721476817148872
 21
-40.95999999992988
 97
        0
 75
     0
 76
     1
 98
        1
 10
10.5507386859688
 20
-0.0010749287238949
  0
DIMENSION
  5
C8
330
1F
100
AcDbEntity
  8
치수문자_일반주서
100
AcDbDimension
  2
_D
 10
26.98749999999999
 20
22.82277225922702
 30
0.0
 11
34.92500000000001
 21
22.82277225922702
 31
0.0
 70
   160
  1
<>
 71
     2
 42
15.87500000000005
  3
SLDDIMSTYLE0
100
AcDbAlignedDimension
 13
42.86250000000004
 23
1.315014629548137
 33
0.0
 14
26.98749999999999
 24
3.17500000000001
 34
0.0
100
AcDbRotatedDimension
1001
ACAD
1000
DSTYLE
1002
{
1070
   171
1070
     6
1070
   273
1070
     7
1002
}
  0
DIMENSION
  5
DD
330
1F
100
AcDbEntity
  8
치수문자_일반주서
100
AcDbDimension
  2
_D_1
 10
-42.86250000000001
 20
35.75282056895201
 30
0.0
 11
0.000000000000016
 21
35.75282056895201
 31
0.0
 70
   160
  1
<>
 71
     2
 42
85.72500000000005
  3
SLDDIMSTYLE0
100
AcDbAlignedDimension
 13
42.86250000000004
 23
1.315014629548137
 33
0.0
 14
-42.86250000000001
 24
3.810000000000006
 34
0.0
 50
0.0000000000000047
100
AcDbRotatedDimension
1001
ACAD
1000
DSTYLE
1002
{
1070
   171
1070
     6
1070
   273
1070
     7
1002
}
  0
DIMENSION
  5
F0
330
1F
100
AcDbEntity
  8
치수문자_일반주서
100
AcDbDimension
  2
_D_2
 10
56.7173093645417
 20
-3.174999999999883
 30
0.0
 11
56.71730936454161
 21
22.46650000000009
 31
0.0
 70
   160
  1
%%c<>
 71
     2
 42
6.349999999999971
 52
-270.0
  3
SLDDIMSTYLE1
100
AcDbAlignedDimension
 13
29.39576945645635
 23
3.174999999999984
 33
0.0
 14
29.39576945645638
 24
-3.174999999999987
 34
0.0
 50
90.0000000000002
100
AcDbRotatedDimension
1001
ACAD
1000
DSTYLE
1002
{
1070
   171
1070
     6
1070
   273
1070
     7
1002
}
  0
DIMENSION
  5
105
330
1F
100
AcDbEntity
  8
치수문자_일반주서
100
AcDbDimension
  2
_D_3
 10
-55.86250000000001
 20
-4.762500000000055
 30
0.0
 11
-55.86250000000003
 21
-0.0000000000000008
 31
0.0
 70
   160
  1
%%c<>
 71
     2
 42
9.525000000000006
 52
-270.0
  3
SLDDIMSTYLE1
100
AcDbAlignedDimension
 13
-41.91000000000003
 23
4.762500000000001
 33
0.0
 14
-41.91000000000003
 24
-4.762500000000005
 34
0.0
 50
90.0000000000002
100
AcDbRotatedDimension
1001
ACAD
1000
DSTYLE
1002
{
1070
   171
1070
     6
1070
   273
1070
     7
1002
}
  0
LINE
  5
119
330
1F
100
AcDbEntity
  8
참조1
100
AcDbLine
 10
78.84473381534559
 20
7.44
 30
0.0
 11
78.84473381534559
 21
-7.440000000000004
 31
0.0
  0
LINE
  5
11A
330
1F
100
AcDbEntity
  8
참조1
100
AcDbLine
 10
91.54473381534558
 20
5.44
 30
0.0
 11
78.84473381534559
 21
5.44
 31
0.0
  0
SOLID
  5
11B
330
1F
100
AcDbEntity
  8
참조1
100
AcDbTrace
 10
78.84473381534559
 20
5.44
 30
0.0
 11
85.19473381534559
 21
4.424
 31
0.0
 12
85.19473381534559
 22
6.456
 32
0.0
 13
85.19473381534559
 23
6.456
 33
0.0
  0
LINE
  5
11C
330
1F
100
AcDbEntity
  8
참조1
100
AcDbLine
 10
91.54473381534558
 20
-5.440000000000004
 30
0.0
 11
78.84473381534559
 21
-5.440000000000004
 31
0.0
  0
SOLID
  5
11D
330
1F
100
AcDbEntity
  8
참조1
100
AcDbTrace
 10
78.84473381534559
 20
-5.440000000000004
 30
0.0
 11
85.19473381534559
 21
-6.456000000000004
 31
0.0
 12
85.19473381534559
 22
-4.424000000000004
 32
0.0
 13
85.19473381534559
 23
-4.424000000000004
 33
0.0
  0
MTEXT
  5
11E
330
1F
100
AcDbEntity
  8
참조1
100
AcDbMText
 10
88.24222390781586
 20
10.98821664464993
 30
0.0
 40
3.5
 41
0.0
 71
     1
 72
     1
  1
A
  7
SLDTEXTSTYLE0
 73
     1
 44
1.0
  0
MTEXT
  5
11F
330
1F
100
AcDbEntity
  8
참조1
100
AcDbMText
 10
88.24222390781586
 20
0.1082166446499311
 30
0.0
 40
3.5
 41
0.0
 71
     1
 72
     1
  1
A
  7
SLDTEXTSTYLE0
 73
     1
 44
1.0
  0
INSERT
  5
126
330
1F
100
AcDbEntity
  8
해칭선
100
AcDbBlockReference
  2
SW_DOWELSYMBOL_0
 10
0.0
 20
0.0
 30
0.0
  0
LINE
  5
14D
330
1F
100
AcDbEntity
  8
외형선
  6
Continuous
 62
     1
370
    15
100
AcDbLine
 10
-36.09782533170986
 20
3.17499999999999
 30
0.0
 11
-38.03485306021074
 21
3.174999999999991
 31
0.0
  0
LINE
  5
14E
330
1F
100
AcDbEntity
  8
외형선
  6
Continuous
 62
     1
370
    15
100
AcDbLine
 10
-29.39617166993043
 20
-3.174999999999982
 30
0.0
 11
-27.45870156919528
 21
-3.174999999999982
 31
0.0
  0
ARC
  5
14F
330
1F
100
AcDbEntity
  8
외형선
  6
Continuous
 62
     1
370
    15
100
AcDbCircle
 10
-39.68750000000005
 20
0.0000000000000031
 30
0.0
 40
3.174999999999972
100
AcDbArc
 50
155.1119849116105
 51
180.0
  0
ARC
  5
150
330
1F
100
AcDbEntity
  8
외형선
  6
Continuous
 62
     1
370
    15
100
AcDbCircle
 10
-39.68750000000005
 20
0.0000000000000031
 30
0.0
 40
3.174999999999972
100
AcDbArc
 50
180.0
 51
204.8878220156537
  0
LINE
  5
151
330
1F
100
AcDbEntity
  8
외형선
  6
Continuous
 62
     1
370
    15
100
AcDbLine
 10
-38.03485306021074
 20
-3.174999999999981
 30
0.0
 11
-36.09782533170982
 21
-3.174999999999981
 31
0.0
  0
LINE
  5
152
330
1F
100
AcDbEntity
  8
외형선
  6
Continuous
 62
     1
370
    15
100
AcDbLine
 10
-27.45870156919529
 20
3.17499999999999
 30
0.0
 11
-29.39617166993047
 21
3.17499999999999
 31
0.0
  0
LINE
  5
153
330
1F
100
AcDbEntity
  8
외형선
  6
Continuous
370
    15
100
AcDbLine
 10
-20.06286934298438
 20
4.76250000000001
 30
0.0
 11
-25.98749999999999
 21
3.175000000000003
 31
0.0
  0
LINE
  5
154
330
1F
100
AcDbEntity
  8
외형선
  6
Continuous
370
    15
100
AcDbLine
 10
-25.98749999999999
 20
-3.174999999999997
 30
0.0
 11
-20.06286934298438
 21
-4.762500000000006
 31
0.0
  0
LINE
  5
155
330
1F
100
AcDbEntity
  8
외형선
  6
Continuous
370
    15
100
AcDbLine
 10
-25.98749999999999
 20
3.175000000000003
 30
0.0
 11
-26.98749999999999
 21
3.175000000000004
 31
0.0
  0
LINE
  5
156
330
1F
100
AcDbEntity
  8
외형선
  6
Continuous
370
    15
100
AcDbLine
 10
-26.98749999999999
 20
-3.174999999999996
 30
0.0
 11
-25.98749999999999
 21
-3.174999999999997
 31
0.0
  0
SPLINE
  5
157
330
1F
100
AcDbEntity
  8
외형선
  6
Continuous
 62
     1
370
    15
100
AcDbSpline
210
0.0
220
0.0
230
1.0
 70
     8
 71
     3
 72
    38
 73
    34
 74
     0
 42
0.000000001
 43
0.00000001
 40
0.0
 40
0.0
 40
0.0
 40
0.0
 40
0.0625
 40
0.0625
 40
0.125
 40
0.125
 40
0.1875
 40
0.1875
 40
0.25
 40
0.25
 40
0.3125
 40
0.3125
 40
0.375
 40
0.375
 40
0.4375
 40
0.4375
 40
0.5
 40
0.5
 40
0.5625
 40
0.5625
 40
0.625
 40
0.625
 40
0.6875
 40
0.6875
 40
0.75
 40
0.75
 40
0.8125
 40
0.8125
 40
0.875
 40
0.875
 40
0.9375
 40
0.9375
 40
1.0
 40
1.0
 40
1.0
 40
1.0
 10
-26.98749999999998
 20
-3.163324228102408
 30
0.0
 10
-27.24979570660816
 20
-3.176374132286197
 30
0.0
 10
-27.51583137401044
 20
-3.178509604881352
 30
0.0
 10
-28.04715050245752
 20
-3.160606757446392
 30
0.0
 10
-28.31041001008356
 20
-3.140654429436965
 30
0.0
 10
-28.8374934861539
 20
-3.079202142783355
 30
0.0
 10
-29.10402079350043
 20
-3.037535459188804
 30
0.0
 10
-29.63476410514377
 20
-2.933471276930153
 30
0.0
 10
-29.89651340329981
 20
-2.871328188234016
 30
0.0
 10
-30.42552834946839
 20
-2.727179884298807
 30
0.0
 10
-30.69225627623165
 20
-2.645138160502588
 30
0.0
 10
-31.22185003265266
 20
-2.463653261649217
 30
0.0
 10
-31.48336048846527
 20
-2.364448712751714
 30
0.0
 10
-32.01373938824012
 20
-2.149414430371093
 30
0.0
 10
-32.2803761794143
 20
-2.033815918593886
 30
0.0
 10
-32.80825078322944
 20
-1.790121772105987
 30
0.0
 10
-33.07079462127752
 20
-1.661873202558993
 30
0.0
 10
-33.60196505014614
 20
-1.393734215580742
 30
0.0
 10
-33.86821928446239
 20
-1.254211091656003
 30
0.0
 10
-34.39381131070747
 20
-0.9686896136677454
 30
0.0
 10
-34.65865704721013
 20
-0.8217058596962409
 30
0.0
 10
-35.19004372535691
 20
-0.52271847219473
 30
0.0
 10
-35.45419731246178
 20
-0.3711740807816442
 30
0.0
 10
-35.98041065703706
 20
-0.0669731817002448
 30
0.0
 10
-36.24678746690201
 20
0.0865165997860807
 30
0.0
 10
-36.77781433352521
 20
0.391502259801637
 30
0.0
 10
-37.03998164753157
 20
0.5425231890208637
 30
0.0
 10
-37.56833780366277
 20
0.8405329968611612
 30
0.0
 10
-37.83502461323157
 20
0.9875959020093101
 30
0.0
 10
-38.36511690677747
 20
1.273239674756976
 30
0.0
 10
-38.6265678146283
 20
1.411503740474099
 30
0.0
 10
-39.15650163086719
 20
1.678518574289382
 30
0.0
 10
-39.42320683572201
 20
1.806917837223525
 30
0.0
 10
-39.68749999999968
 20
1.92822588393076
 30
0.0
  0
SPLINE
  5
158
330
1F
100
AcDbEntity
  8
외형선
  6
Continuous
 62
     1
370
    15
100
AcDbSpline
210
0.0
220
0.0
230
1.0
 70
     8
 71
     3
 72
    16
 73
    12
 74
     0
 42
0.000000001
 43
0.00000001
 40
0.0
 40
0.0
 40
0.0
 40
0.0
 40
0.1201176715589806
 40
0.2437553464403613
 40
0.3625629077462944
 40
0.4849791567393918
 40
0.6017473855198316
 40
0.7214405549465132
 40
0.8180714283176287
 40
0.916884998038053
 40
1.0
 40
1.0
 40
1.0
 40
1.0
 10
-39.68750000000006
 20
1.928225883930919
 30
0.0
 10
-39.833369473235
 20
1.989277227634163
 30
0.0
 10
-40.1293830699188
 20
2.113169001774379
 30
0.0
 10
-40.57533411674073
 20
2.205590687507825
 30
0.0
 10
-41.01546385401711
 20
2.219759786282752
 30
0.0
 10
-41.42585358078286
 20
2.153013405706998
 30
0.0
 10
-41.80078433455811
 20
2.014986344142957
 30
0.0
 10
-42.10384552196393
 20
1.834930512034737
 30
0.0
 10
-42.33446332012617
 20
1.64218807893552
 30
0.0
 10
-42.49941439278768
 20
1.461247188645601
 30
0.0
 10
-42.54083069693296
 20
1.372874914481566
 30
0.0
 10
-42.55975194810564
 20
1.332501587342225
 30
0.0
  0
SPLINE
  5
159
330
1F
100
AcDbEntity
  8
외형선
  6
Continuous
 62
     1
370
    15
100
AcDbSpline
210
0.0
220
0.0
230
1.0
 70
     8
 71
     3
 72
    11
 73
     7
 74
     0
 42
0.000000001
 43
0.00000001
 40
0.0
 40
0.0
 40
0.0
 40
0.0
 40
0.143212157943024
 40
0.3735782797347729
 40
0.6104926965129369
 40
1.0
 40
1.0
 40
1.0
 40
1.0
 10
-41.3877275123528
 20
2.145658086088719
 30
0.0
 10
-41.31146048947959
 20
2.208226121536992
 30
0.0
 10
-41.11251297262982
 20
2.371438933807089
 30
0.0
 10
-40.77453742598998
 20
2.604275626211364
 30
0.0
 10
-40.28960421774409
 20
2.877931009762613
 30
0.0
 10
-39.91834682570197
 20
2.973288640266277
 30
0.0
 10
-39.68750000000004
 20
3.032581752753934
 30
0.0
  0
SPLINE
  5
15A
330
1F
100
AcDbEntity
  8
외형선
  6
Continuous
 62
     1
370
    15
100
AcDbSpline
210
0.0
220
0.0
230
1.0
 70
     8
 71
     3
 72
    38
 73
    34
 74
     0
 42
0.000000001
 43
0.00000001
 40
0.0
 40
0.0
 40
0.0
 40
0.0
 40
0.0625
 40
0.0625
 40
0.125
 40
0.125
 40
0.1875
 40
0.1875
 40
0.25
 40
0.25
 40
0.3125
 40
0.3125
 40
0.375
 40
0.375
 40
0.4375
 40
0.4375
 40
0.5
 40
0.5
 40
0.5625
 40
0.5625
 40
0.625
 40
0.625
 40
0.6875
 40
0.6875
 40
0.75
 40
0.75
 40
0.8125
 40
0.8125
 40
0.875
 40
0.875
 40
0.9375
 40
0.9375
 40
1.0
 40
1.0
 40
1.0
 40
1.0
 10
-26.98749999999999
 20
-1.346070049403129
 30
0.0
 10
-27.24979570660818
 20
-1.208128070997147
 30
0.0
 10
-27.51583137401042
 20
-1.064862172083709
 30
0.0
 10
-28.04715050245749
 20
-0.7720313791659665
 30
0.0
 10
-28.31041001008354
 20
-0.6228643985043176
 30
0.0
 10
-28.83749348615392
 20
-0.3211594606535156
 30
0.0
 10
-29.10402079350042
 20
-0.1680969248559895
 30
0.0
 10
-29.63476410514378
 20
0.137698639671365
 30
0.0
 10
-29.89651340329981
 20
0.2899524417154746
 30
0.0
 10
-30.42552834946839
 20
0.5924556907997097
 30
0.0
 10
-30.69225627623167
 20
0.7425881027122339
 30
0.0
 10
-31.22185003265266
 20
1.035935859446776
 30
0.0
 10
-31.48336048846527
 20
1.178927913560495
 30
0.0
 10
-32.01373938824012
 20
1.45707034909877
 30
0.0
 10
-32.2803761794143
 20
1.591784539357325
 30
0.0
 10
-32.8082507832294
 20
1.848356375298138
 30
0.0
 10
-33.07079462127754
 20
1.970468307696744
 30
0.0
 10
-33.60196505014614
 20
2.201085776857044
 30
0.0
 10
-33.86821928446239
 20
2.309190618403703
 30
0.0
 10
-34.39381131070747
 20
2.507797033285132
 30
0.0
 10
-34.65865704721015
 20
2.599011146928305
 30
0.0
 10
-35.19004372535691
 20
2.762900089395904
 30
0.0
 10
-35.45419731246177
 20
2.835338242818421
 30
0.0
 10
-35.98041065703708
 20
2.959976342611506
 30
0.0
 10
-36.24678746690203
 20
3.012477453699317
 30
0.0
 10
-36.77781433352524
 20
3.096024230342656
 30
0.0
 10
-37.03998164753155
 20
3.127022410593049
 30
0.0
 10
-37.56833780366276
 20
3.167350126075989
 30
0.0
 10
-37.83502461323157
 20
3.17660516724235
 30
0.0
 10
-38.36511690677748
 20
3.17293779476968
 30
0.0
 10
-38.62656781462825
 20
3.160124017625725
 30
0.0
 10
-39.1565016308672
 20
3.112579945359564
 30
0.0
 10
-39.42320683572202
 20
3.077800379323947
 30
0.0
 10
-39.68749999999971
 20
3.032581752754009
 30
0.0
  0
SPLINE
  5
15B
330
1F
100
AcDbEntity
  8
외형선
  6
Continuous
 62
     1
370
    15
100
AcDbSpline
210
0.0
220
0.0
230
1.0
 70
     8
 71
     3
 72
    12
 73
     8
 74
     0
 42
0.000000001
 43
0.00000001
 40
0.0
 40
0.0
 40
0.0
 40
0.0
 40
0.195688061456206
 40
0.3967752233681975
 40
0.597855960919228
 40
0.7989307329441797
 40
1.0
 40
1.0
 40
1.0
 40
1.0
 10
-32.73987381493158
 20
-2.597401946017422
 30
0.0
 10
-33.19307155522286
 20
-2.733595798078307
 30
0.0
 10
-34.11197091625659
 20
-3.0097411370975
 30
0.0
 10
-35.49653517097958
 20
-3.188391150037082
 30
0.0
 10
-36.8935688161727
 20
-3.174466796681936
 30
0.0
 10
-38.29055233133405
 20
-2.964815890782838
 30
0.0
 10
-39.2218550266603
 20
-2.669879627780139
 30
0.0
 10
-39.68749999999968
 20
-2.522413514977149
 30
0.0
  0
SPLINE
  5
15C
330
1F
100
AcDbEntity
  8
외형선
  6
Continuous
 62
     1
370
    15
100
AcDbSpline
210
0.0
220
0.0
230
1.0
 70
     8
 71
     3
 72
    42
 73
    38
 74
     0
 42
0.000000001
 43
0.00000001
 40
0.0
 40
0.0
 40
0.0
 40
0.0
 40
0.0624999999999999
 40
0.0624999999999999
 40
0.1249999999999999
 40
0.1249999999999999
 40
0.1874999999999998
 40
0.1874999999999998
 40
0.2499999999999998
 40
0.2499999999999998
 40
0.3124999999999998
 40
0.3124999999999998
 40
0.3749999999999998
 40
0.3749999999999998
 40
0.4374999999999999
 40
0.4374999999999999
 40
0.4687499999999999
 40
0.4687499999999999
 40
0.5
 40
0.5
 40
0.5625000000000001
 40
0.5625000000000001
 40
0.5937500000000002
 40
0.5937500000000002
 40
0.6250000000000003
 40
0.6250000000000003
 40
0.6875000000000003
 40
0.6875000000000003
 40
0.7500000000000002
 40
0.7500000000000002
 40
0.8125000000000002
 40
0.8125000000000002
 40
0.8750000000000001
 40
0.8750000000000001
 40
0.9375000000000001
 40
0.9375000000000001
 40
1.0
 40
1.0
 40
1.0
 40
1.0
 10
-39.68750000000006
 20
-2.522413514977007
 30
0.0
 10
-39.84874886410786
 20
-2.46583624769562
 30
0.0
 10
-40.00902156121536
 20
-2.398695155143932
 30
0.0
 10
-40.33109479368775
 20
-2.24820507381292
 30
0.0
 10
-40.49410561657999
 20
-2.164014245926593
 30
0.0
 10
-40.81645220252201
 20
-1.982670786204177
 30
0.0
 10
-40.97338462022977
 20
-1.887012203740236
 30
0.0
 10
-41.2783939282377
 20
-1.68492004456958
 30
0.0
 10
-41.4277962755032
 20
-1.577233514168934
 30
0.0
 10
-41.7072362631145
 20
-1.354466119559261
 30
0.0
 10
-41.8374253469616
 20
-1.239398651241048
 30
0.0
 10
-42.07603657208441
 20
-0.9951629573043478
 30
0.0
 10
-42.18483933186041
 20
-0.8651302659131781
 30
0.0
 10
-42.36859615541875
 20
-0.590110858207146
 30
0.0
 10
-42.44506579217819
 20
-0.4436743390272476
 30
0.0
 10
-42.52900725839171
 20
-0.2037427738784745
 30
0.0
 10
-42.55139753352832
 20
-0.1215690543379246
 30
0.0
 10
-42.58386836973773
 20
0.0485823656201856
 30
0.0
 10
-42.59397288402753
 20
0.1375407881876929
 30
0.0
 10
-42.60210280088657
 20
0.4078178412885826
 30
0.0
 10
-42.57714486790664
 20
0.5970739883571577
 30
0.0
 10
-42.49323345757486
 20
0.8590064860765
 30
0.0
 10
-42.45694116716559
 20
0.9445236437499258
 30
0.0
 10
-42.37253891634976
 20
1.100042091538938
 30
0.0
 10
-42.32406906314622
 20
1.171247164355877
 30
0.0
 10
-42.1640063034755
 20
1.361144430500182
 30
0.0
 10
-42.04017761736334
 20
1.452983812388276
 30
0.0
 10
-41.78071912377275
 20
1.572402191090597
 30
0.0
 10
-41.6419726747416
 20
1.601591820007833
 30
0.0
 10
-41.36182913870541
 20
1.611862603777133
 30
0.0
 10
-41.21733081518239
 20
1.593543502941698
 30
0.0
 10
-40.9234283743944
 20
1.524070482985912
 30
0.0
 10
-40.77565623326399
 20
1.47341111964354
 30
0.0
 10
-40.47363746381544
 20
1.349533865589736
 30
0.0
 10
-40.31824978358453
 20
1.275537472664369
 30
0.0
 10
-40.00609829823656
 20
1.115574024282306
 30
0.0
 10
-39.84870038072665
 20
1.029205616802179
 30
0.0
 10
-39.68750000000002
 20
0.9402515157465599
 30
0.0
  0
SPLINE
  5
15D
330
1F
100
AcDbEntity
  8
외형선
  6
Continuous
 62
     1
370
    15
100
AcDbSpline
210
0.0
220
0.0
230
1.0
 70
     8
 71
     3
 72
    15
 73
    11
 74
     0
 42
0.000000001
 43
0.00000001
 40
0.0
 40
0.0
 40
0.0
 40
0.0
 40
0.1382028339354369
 40
0.2764062529600411
 40
0.4146102781054772
 40
0.5528149303743204
 40
0.6910202307390757
 40
0.8267699512049713
 40
0.9625240196259018
 40
1.0
 40
1.0
 40
1.0
 40
1.0
 10
-39.68749999999971
 20
0.9402515157463749
 30
0.0
 10
-39.21340324968778
 20
0.6727285889062863
 30
0.0
 10
-38.26520774194969
 20
0.1376816026533389
 30
0.0
 10
-36.84291004029959
 20
-0.6907284272185856
 30
0.0
 10
-35.42060431514518
 20
-1.469009529347672
 30
0.0
 10
-33.9982931634896
 20
-2.149632269316055
 30
0.0
 10
-32.58439137803385
 20
-2.688016851974335
 30
0.0
 10
-31.17892680907526
 20
-3.032306456467146
 30
0.0
 10
-30.11899086407281
 20
-3.188283692587094
 30
0.0
 10
-29.52473162638027
 20
-3.160567507790152
 30
0.0
 10
-29.39617166993043
 20
-3.15457148571015
 30
0.0
  0
SPLINE
  5
15E
330
1F
100
AcDbEntity
  8
외형선
  6
Continuous
 62
     1
370
    15
100
AcDbSpline
210
0.0
220
0.0
230
1.0
 70
     8
 71
     3
 72
    14
 73
    10
 74
     0
 42
0.000000001
 43
0.00000001
 40
0.0
 40
0.0
 40
0.0
 40
0.0
 40
0.1561310875688001
 40
0.3122612122398231
 40
0.4683903973117855
 40
0.6245186661281724
 40
0.7806460420761914
 40
0.9339994869780222
 40
1.0
 40
1.0
 40
1.0
 40
1.0
 10
-26.98749999999998
 20
-0.2720382838870315
 30
0.0
 10
-27.46163787410357
 20
0.0024216987240816
 30
0.0
 10
-28.40991069818904
 20
0.5513399712859206
 30
0.0
 10
-29.83231329193434
 20
1.343111271813427
 30
0.0
 10
-31.25470614226148
 20
2.0433581742391
 30
0.0
 10
-32.6770874669436
 20
2.611318439503822
 30
0.0
 10
-34.09104336878875
 20
2.990926281501562
 30
0.0
 10
-35.23128278513641
 20
3.175323187706872
 30
0.0
 10
-35.89740004157978
 20
3.155797918810239
 30
0.0
 10
-36.09782533170984
 20
3.149923040707892
 30
0.0
  0
SPLINE
  5
15F
330
1F
100
AcDbEntity
  8
외형선
  6
Continuous
 62
     1
370
    15
100
AcDbSpline
210
0.0
220
0.0
230
1.0
 70
     8
 71
     3
 72
    12
 73
     8
 74
     0
 42
0.000000001
 43
0.00000001
 40
0.0
 40
0.0
 40
0.0
 40
0.0
 40
0.0284927295697922
 40
0.2713573277777755
 40
0.5142297047447072
 40
0.7571104123310621
 40
1.0
 40
1.0
 40
1.0
 40
1.0
 10
-32.73987381493161
 20
2.597401946017432
 30
0.0
 10
-32.68524009641357
 20
2.618153826006365
 30
0.0
 10
-32.16492280539008
 20
2.815789320575905
 30
0.0
 10
-31.17892827887743
 20
3.032456883656996
 30
0.0
 10
-29.78183608852937
 20
3.201908690834871
 30
0.0
 10
-28.38469163899202
 20
3.162932841435711
 30
0.0
 10
-27.45323622212785
 20
2.971337637216508
 30
0.0
 10
-26.98749999999999
 20
2.875538283886985
 30
0.0
  0
LINE
  5
160
330
1F
100
AcDbEntity
  8
외형선
  6
Continuous
370
    15
100
AcDbLine
 10
-26.98749999999999
 20
-0.2720382838870319
 30
0.0
 11
-26.98749999999999
 21
-1.346070049403129
 31
0.0
  0
SPLINE
  5
161
330
1F
100
AcDbEntity
  8
외형선
  6
Continuous
 62
     1
370
    15
100
AcDbSpline
210
0.0
220
0.0
230
1.0
 70
     8
 71
     3
 72
    23
 73
    19
 74
     0
 42
0.000000001
 43
0.00000001
 40
0.0
 40
0.0
 40
0.0
 40
0.0
 40
0.0068000964027393
 40
0.0777755877864113
 40
0.1505289523279046
 40
0.2092643103270763
 40
0.2693263814874525
 40
0.3429286769025517
 40
0.4015386034189969
 40
0.4605244406831042
 40
0.511531965697235
 40
0.5633259384054268
 40
0.638952412494592
 40
0.6901299238149717
 40
0.7427436143888819
 40
0.8119126116019106
 40
0.8830477789884986
 40
0.9999999999999999
 40
0.9999999999999999
 40
0.9999999999999999
 40
0.9999999999999999
 10
-41.38772751235282
 20
-2.145658086088708
 30
0.0
 10
-41.40051248076526
 20
-2.143710529623823
 30
0.0
 10
-41.54673958906175
 20
-2.121435500001787
 30
0.0
 10
-41.79889614123255
 20
-2.00982760857998
 30
0.0
 10
-42.10357974057514
 20
-1.836450872197117
 30
0.0
 10
-42.33646268581742
 20
-1.640592437947371
 30
0.0
 10
-42.51303336314792
 20
-1.442283611321556
 30
0.0
 10
-42.6078472114998
 20
-1.269764506201988
 30
0.0
 10
-42.59373515429579
 20
-1.182242093327001
 30
0.0
 10
-42.48189685149082
 20
-1.213205607275532
 30
0.0
 10
-42.29767011369615
 20
-1.345912590604877
 30
0.0
 10
-42.04228935029911
 20
-1.567145721281315
 30
0.0
 10
-41.74828827309492
 20
-1.837025954759262
 30
0.0
 10
-41.43803549609293
 20
-2.108265113133958
 30
0.0
 10
-41.12947912318096
 20
-2.357965447670172
 30
0.0
 10
-40.77476585547897
 20
-2.604655749551086
 30
0.0
 10
-40.28950158031015
 20
-2.877760213582397
 30
0.0
 10
-39.9183074744981
 20
-2.973223156991311
 30
0.0
 10
-39.68750000000004
 20
-3.032581752753924
 30
0.0
  0
LINE
  5
162
330
1F
100
AcDbEntity
  8
외형선
  6
Continuous
 62
     1
370
    15
100
AcDbLine
 10
-26.98749999999998
 20
3.163324228102416
 30
0.0
 11
-27.45870156919529
 21
3.151518812499799
 31
0.0
  0
SPLINE
  5
163
330
1F
100
AcDbEntity
  8
외형선
  6
Continuous
 62
     1
370
    15
100
AcDbSpline
210
0.0
220
0.0
230
1.0
 70
     8
 71
     3
 72
     9
 73
     5
 74
     0
 42
0.000000001
 43
0.00000001
 40
0.0
 40
0.0
 40
0.0
 40
0.0
 40
0.8606137284979422
 40
1.0
 40
1.0
 40
1.0
 40
1.0
 10
-39.68749999999968
 20
-3.032581752754002
 30
0.0
 10
-39.21340334676024
 20
-3.109386221114056
 30
0.0
 10
-38.66252129882114
 20
-3.198630054690942
 30
0.0
 10
-38.11163855228518
 20
-3.165282756086289
 30
0.0
 10
-38.03485306021074
 20
-3.160634600469121
 30
0.0
  0
LINE
  5
164
330
1F
100
AcDbEntity
  8
외형선
  6
Continuous
370
    15
100
AcDbLine
 10
-26.98749999999999
 20
3.163324228102416
 30
0.0
 11
-26.98749999999999
 21
2.875538283886985
 31
0.0
  0
LINE
  5
165
330
1F
100
AcDbEntity
  8
외형선
  6
Continuous
370
    15
100
AcDbLine
 10
-20.06286934298438
 20
0.0000000000000026
 30
0.0
 11
-20.06286934298438
 21
-4.76250000000001
 31
0.0
  0
LINE
  5
166
330
1F
100
AcDbEntity
  8
외형선
  6
Continuous
370
    15
100
AcDbLine
 10
-20.06286934298438
 20
4.76250000000002
 30
0.0
 11
-20.06286934298438
 21
0.0000000000000026
 31
0.0
  0
LINE
  5
167
330
1F
100
AcDbEntity
  8
외형선
  6
Continuous
370
    15
100
AcDbLine
 10
-25.98749999999999
 20
0.0000000000000033
 30
0.0
 11
-25.98749999999999
 21
-3.174999999999997
 31
0.0
  0
LINE
  5
168
330
1F
100
AcDbEntity
  8
외형선
  6
Continuous
370
    15
100
AcDbLine
 10
-25.98749999999999
 20
3.175000000000003
 30
0.0
 11
-25.98749999999999
 21
0.0000000000000033
 31
0.0
  0
LINE
  5
169
330
1F
100
AcDbEntity
  8
외형선
  6
Continuous
370
    15
100
AcDbLine
 10
-26.98749999999999
 20
0.0000000000000035
 30
0.0
 11
-26.98749999999999
 21
-3.174999999999996
 31
0.0
  0
LINE
  5
16A
330
1F
100
AcDbEntity
  8
외형선
  6
Continuous
370
    15
100
AcDbLine
 10
-26.98749999999999
 20
3.175000000000004
 30
0.0
 11
-26.98749999999999
 21
0.0000000000000035
 31
0.0
  0
LINE
  5
1AC
330
1F
100
AcDbEntity
  8
0
100
AcDbLine
 10
-0.0000000000000142
 20
-4.76250000000001
 30
0.0
 11
-0.0000000000000142
 21
-4.76250000000001
 31
0.0
  0
LINE
  5
1AD
330
1F
100
AcDbEntity
  8
외형선
  6
Continuous
370
    15
100
AcDbLine
 10
-3.568700000000049
 20
3.492500000000014
 30
0.0
 11
3.568700000000021
 21
3.492500000000014
 31
0.0
  0
LINE
  5
1AE
330
1F
100
AcDbEntity
  8
외형선
  6
Continuous
370
    15
100
AcDbLine
 10
3.568700000000021
 20
3.492500000000014
 30
0.0
 11
4.838700000000003
 21
4.762499999999996
 31
0.0
  0
LINE
  5
1AF
330
1F
100
AcDbEntity
  8
외형선
  6
Continuous
370
    15
100
AcDbLine
 10
-3.568700000000049
 20
3.492500000000014
 30
0.0
 11
-4.838700000000031
 21
4.762499999999996
 31
0.0
  0
LINE
  5
1B1
330
1F
100
AcDbEntity
  8
외형선
  6
Continuous
370
    15
100
AcDbLine
 10
-4.838700000000038
 20
4.762500000000003
 30
0.0
 11
-20.06286934298436
 21
4.762500000000003
 31
0.0
  0
ENDSEC
  0
SECTION
  2
OBJECTS
  0
DICTIONARY
  5
C
330
0
100
AcDbDictionary
281
     1
  3
ACAD_GROUP
350
D
  3
ACAD_IMAGE_VARS
350
14A
  3
ACAD_LAYOUT
350
1A
  3
ACAD_MLINESTYLE
350
17
  3
ACAD_PLOTSETTINGS
350
19
  3
ACAD_PLOTSTYLENAME
350
E
  3
ACAD_SCALELIST
350
47
  3
APPDATA
350
148
  3
DWGPROPS
350
1B2
  0
DICTIONARY
  5
198
330
2
100
AcDbDictionary
280
     1
281
     1
  3
ACAD_LAYERSTATES
360
199
  0
DICTIONARY
  5
D
102
{ACAD_REACTORS
330
C
102
}
330
C
100
AcDbDictionary
281
     1
  0
RASTERVARIABLES
  5
14A
102
{ACAD_REACTORS
330
C
102
}
330
C
100
AcDbRasterVariables
 90
        0
 70
     1
 71
     1
 72
     1
  0
DICTIONARY
  5
1A
102
{ACAD_REACTORS
330
C
102
}
330
C
100
AcDbDictionary
281
     1
  3
Layout1
350
1E
  3
Layout2
350
26
  3
Model
350
22
  0
DICTIONARY
  5
17
102
{ACAD_REACTORS
330
C
102
}
330
C
100
AcDbDictionary
281
     1
  3
Standard
350
18
  0
DICTIONARY
  5
19
102
{ACAD_REACTORS
330
C
102
}
330
C
100
AcDbDictionary
281
     1
  0
ACDBDICTIONARYWDFLT
  5
E
102
{ACAD_REACTORS
330
C
102
}
330
C
100
AcDbDictionary
281
     1
  3
Normal
350
F
100
AcDbDictionaryWithDefault
340
F
  0
DICTIONARY
  5
47
102
{ACAD_REACTORS
330
C
102
}
330
C
100
AcDbDictionary
281
     1
  3
A0
350
48
  3
A1
350
49
  3
A2
350
4A
  3
A3
350
4B
  3
A4
350
4C
  3
A5
350
4D
  3
A6
350
4E
  3
A7
350
4F
  3
A8
350
50
  3
A9
350
51
  3
B0
350
52
  3
B1
350
53
  3
B2
350
54
  3
B3
350
55
  3
B4
350
56
  3
B5
350
57
  3
B6
350
58
  3
B7
350
59
  3
B8
350
5A
  3
B9
350
5B
  3
C0
350
5C
  3
C1
350
5D
  3
C2
350
5E
  3
C3
350
5F
  3
C4
350
60
  3
C5
350
61
  3
C6
350
62
  3
C7
350
63
  3
C8
350
64
  3
C9
350
65
  3
D0
350
66
  3
D1
350
67
  3
D2
350
68
  0
DICTIONARY
  5
148
102
{ACAD_REACTORS
330
C
102
}
330
C
100
AcDbDictionary
281
     1
  0
XRECORD
  5
1B2
102
{ACAD_REACTORS
330
C
102
}
330
C
100
AcDbXrecord
280
     1
  1
DWGPROPS COOKIE
  2

  3

  4

  6

  7

  8
12016016
  9

300
=
301
=
302
=
303
=
304
=
305
=
306
=
307
=
308
=
309
=
 40
0.0
 41
2458319.997990498
 42
2458330.413857164
  1

 90
        0
  0
DICTIONARY
  5
199
102
{ACAD_REACTORS
330
198
102
}
330
198
100
AcDbDictionary
281
     1
  0
LAYOUT
  5
1E
102
{ACAD_REACTORS
330
1A
102
}
330
1A
100
AcDbPlotSettings
  1

  2
none_device
  4

  6

 40
0.0
 41
0.0
 42
0.0
 43
0.0
 44
0.0
 45
0.0
 46
0.0
 47
0.0
 48
0.0
 49
0.0
140
0.0
141
0.0
142
1.0
143
1.0
 70
   688
 72
     1
 73
     0
 74
     5
  7

 75
    16
147
1.0
148
0.0
149
0.0
100
AcDbLayout
  1
Layout1
 70
     1
 71
     1
 10
0.0
 20
0.0
 11
420.0
 21
297.0
 12
0.0
 22
0.0
 32
0.0
 14
1.000000000000000E+20
 24
1.000000000000000E+20
 34
1.000000000000000E+20
 15
-1.000000000000000E+20
 25
-1.000000000000000E+20
 35
-1.000000000000000E+20
146
0.0
 13
0.0
 23
0.0
 33
0.0
 16
1.0
 26
0.0
 36
0.0
 17
0.0
 27
1.0
 37
0.0
 76
     0
330
1B
  0
LAYOUT
  5
26
102
{ACAD_REACTORS
330
1A
102
}
330
1A
100
AcDbPlotSettings
  1

  2
none_device
  4

  6

 40
0.0
 41
0.0
 42
0.0
 43
0.0
 44
0.0
 45
0.0
 46
0.0
 47
0.0
 48
0.0
 49
0.0
140
0.0
141
0.0
142
1.0
143
1.0
 70
   688
 72
     1
 73
     0
 74
     5
  7

 75
    16
147
1.0
148
0.0
149
0.0
100
AcDbLayout
  1
Layout2
 70
     1
 71
     2
 10
0.0
 20
0.0
 11
0.0
 21
0.0
 12
0.0
 22
0.0
 32
0.0
 14
0.0
 24
0.0
 34
0.0
 15
0.0
 25
0.0
 35
0.0
146
0.0
 13
0.0
 23
0.0
 33
0.0
 16
1.0
 26
0.0
 36
0.0
 17
0.0
 27
1.0
 37
0.0
 76
     0
330
23
  0
LAYOUT
  5
22
102
{ACAD_REACTORS
330
1A
102
}
330
1A
100
AcDbPlotSettings
  1

  2
none_device
  4
ANSI_A_(11.00_x_8.50_Inches)
  6

 40
6.35
 41
19.05
 42
6.35000508
 43
19.05000254
 44
279.4
 45
215.9
 46
130.0385306089228
 47
92.54371273076144
 48
0.0
 49
0.0
140
0.0
141
0.0
142
0.0688368650264312
143
1.0
 70
  1696
 72
     0
 73
     0
 74
     0
  7

 75
     0
147
0.0235690232323232
148
0.0
149
0.0
100
AcDbLayout
  1
Model
 70
     1
 71
     0
 10
0.0
 20
0.0
 11
420.0
 21
297.0
 12
0.0
 22
0.0
 32
0.0
 14
1.000000000000000E+20
 24
1.000000000000000E+20
 34
1.000000000000000E+20
 15
-1.000000000000000E+20
 25
-1.000000000000000E+20
 35
-1.000000000000000E+20
146
0.0
 13
0.0
 23
0.0
 33
0.0
 16
1.0
 26
0.0
 36
0.0
 17
0.0
 27
1.0
 37
0.0
 76
     0
330
1F
331
29
  0
MLINESTYLE
  5
18
102
{ACAD_REACTORS
330
17
102
}
330
17
100
AcDbMlineStyle
  2
Standard
 70
     0
  3

 62
   256
 51
90.0
 52
90.0
 71
     2
 49
0.5
 62
   256
  6
BYLAYER
 49
-0.5
 62
   256
  6
BYLAYER
  0
ACDBPLACEHOLDER
  5
F
102
{ACAD_REACTORS
330
E
102
}
330
E
  0
SCALE
  5
48
102
{ACAD_REACTORS
330
47
102
}
330
47
100
AcDbScale
 70
     0
300
1:1
140
1.0
141
1.0
290
     1
  0
SCALE
  5
49
102
{ACAD_REACTORS
330
47
102
}
330
47
100
AcDbScale
 70
     0
300
1:2
140
1.0
141
2.0
290
     0
  0
SCALE
  5
4A
102
{ACAD_REACTORS
330
47
102
}
330
47
100
AcDbScale
 70
     0
300
1:4
140
1.0
141
4.0
290
     0
  0
SCALE
  5
4B
102
{ACAD_REACTORS
330
47
102
}
330
47
100
AcDbScale
 70
     0
300
1:5
140
1.0
141
5.0
290
     0
  0
SCALE
  5
4C
102
{ACAD_REACTORS
330
47
102
}
330
47
100
AcDbScale
 70
     0
300
1:8
140
1.0
141
8.0
290
     0
  0
SCALE
  5
4D
102
{ACAD_REACTORS
330
47
102
}
330
47
100
AcDbScale
 70
     0
300
1:10
140
1.0
141
10.0
290
     0
  0
SCALE
  5
4E
102
{ACAD_REACTORS
330
47
102
}
330
47
100
AcDbScale
 70
     0
300
1:16
140
1.0
141
16.0
290
     0
  0
SCALE
  5
4F
102
{ACAD_REACTORS
330
47
102
}
330
47
100
AcDbScale
 70
     0
300
1:20
140
1.0
141
20.0
290
     0
  0
SCALE
  5
50
102
{ACAD_REACTORS
330
47
102
}
330
47
100
AcDbScale
 70
     0
300
1:30
140
1.0
141
30.0
290
     0
  0
SCALE
  5
51
102
{ACAD_REACTORS
330
47
102
}
330
47
100
AcDbScale
 70
     0
300
1:40
140
1.0
141
40.0
290
     0
  0
SCALE
  5
52
102
{ACAD_REACTORS
330
47
102
}
330
47
100
AcDbScale
 70
     0
300
1:50
140
1.0
141
50.0
290
     0
  0
SCALE
  5
53
102
{ACAD_REACTORS
330
47
102
}
330
47
100
AcDbScale
 70
     0
300
1:100
140
1.0
141
100.0
290
     0
  0
SCALE
  5
54
102
{ACAD_REACTORS
330
47
102
}
330
47
100
AcDbScale
 70
     0
300
2:1
140
2.0
141
1.0
290
     0
  0
SCALE
  5
55
102
{ACAD_REACTORS
330
47
102
}
330
47
100
AcDbScale
 70
     0
300
4:1
140
4.0
141
1.0
290
     0
  0
SCALE
  5
56
102
{ACAD_REACTORS
330
47
102
}
330
47
100
AcDbScale
 70
     0
300
8:1
140
8.0
141
1.0
290
     0
  0
SCALE
  5
57
102
{ACAD_REACTORS
330
47
102
}
330
47
100
AcDbScale
 70
     0
300
10:1
140
10.0
141
1.0
290
     0
  0
SCALE
  5
58
102
{ACAD_REACTORS
330
47
102
}
330
47
100
AcDbScale
 70
     0
300
100:1
140
100.0
141
1.0
290
     0
  0
SCALE
  5
59
102
{ACAD_REACTORS
330
47
102
}
330
47
100
AcDbScale
 70
     0
300
1/128" = 1'-0"
140
0.0078125
141
12.0
290
     0
  0
SCALE
  5
5A
102
{ACAD_REACTORS
330
47
102
}
330
47
100
AcDbScale
 70
     0
300
1/64" = 1'-0"
140
0.015625
141
12.0
290
     0
  0
SCALE
  5
5B
102
{ACAD_REACTORS
330
47
102
}
330
47
100
AcDbScale
 70
     0
300
1/32" = 1'-0"
140
0.03125
141
12.0
290
     0
  0
SCALE
  5
5C
102
{ACAD_REACTORS
330
47
102
}
330
47
100
AcDbScale
 70
     0
300
1/16" = 1'-0"
140
0.0625
141
12.0
290
     0
  0
SCALE
  5
5D
102
{ACAD_REACTORS
330
47
102
}
330
47
100
AcDbScale
 70
     0
300
3/32" = 1'-0"
140
0.09375
141
12.0
290
     0
  0
SCALE
  5
5E
102
{ACAD_REACTORS
330
47
102
}
330
47
100
AcDbScale
 70
     0
300
1/8" = 1'-0"
140
0.125
141
12.0
290
     0
  0
SCALE
  5
5F
102
{ACAD_REACTORS
330
47
102
}
330
47
100
AcDbScale
 70
     0
300
3/16" = 1'-0"
140
0.1875
141
12.0
290
     0
  0
SCALE
  5
60
102
{ACAD_REACTORS
330
47
102
}
330
47
100
AcDbScale
 70
     0
300
1/4" = 1'-0"
140
0.25
141
12.0
290
     0
  0
SCALE
  5
61
102
{ACAD_REACTORS
330
47
102
}
330
47
100
AcDbScale
 70
     0
300
3/8" = 1'-0"
140
0.375
141
12.0
290
     0
  0
SCALE
  5
62
102
{ACAD_REACTORS
330
47
102
}
330
47
100
AcDbScale
 70
     0
300
1/2" = 1'-0"
140
0.5
141
12.0
290
     0
  0
SCALE
  5
63
102
{ACAD_REACTORS
330
47
102
}
330
47
100
AcDbScale
 70
     0
300
3/4" = 1'-0"
140
0.75
141
12.0
290
     0
  0
SCALE
  5
64
102
{ACAD_REACTORS
330
47
102
}
330
47
100
AcDbScale
 70
     0
300
1" = 1'-0"
140
1.0
141
12.0
290
     0
  0
SCALE
  5
65
102
{ACAD_REACTORS
330
47
102
}
330
47
100
AcDbScale
 70
     0
300
1-1/2" = 1'-0"
140
1.5
141
12.0
290
     0
  0
SCALE
  5
66
102
{ACAD_REACTORS
330
47
102
}
330
47
100
AcDbScale
 70
     0
300
3" = 1'-0"
140
3.0
141
12.0
290
     0
  0
SCALE
  5
67
102
{ACAD_REACTORS
330
47
102
}
330
47
100
AcDbScale
 70
     0
300
6" = 1'-0"
140
6.0
141
12.0
290
     0
  0
SCALE
  5
68
102
{ACAD_REACTORS
330
47
102
}
330
47
100
AcDbScale
 70
     0
300
1'-0" = 1'-0"
140
12.0
141
12.0
290
     0
  0
ENDSEC
  0
EOF
