  0
SECTION
  2
HEADER
  9
$ACADVER
  1
AC1015
  9
$ACADMAINTVER
 70
     6
  9
$DWGCODEPAGE
  3
ANSI_949
  9
$INSBASE
 10
0.0
 20
0.0
 30
0.0
  9
$EXTMIN
 10
1.000000000000000E+20
 20
1.000000000000000E+20
 30
1.000000000000000E+20
  9
$EXTMAX
 10
-1.000000000000000E+20
 20
-1.000000000000000E+20
 30
-1.000000000000000E+20
  9
$LIMMIN
 10
0.0
 20
0.0
  9
$LIMMAX
 10
420.0
 20
297.0
  9
$ORTHOMODE
 70
     0
  9
$REGENMODE
 70
     1
  9
$FILLMODE
 70
     1
  9
$QTEXTMODE
 70
     0
  9
$MIRRTEXT
 70
     1
  9
$LTSCALE
 40
1.0
  9
$ATTMODE
 70
     1
  9
$TEXTSIZE
 40
3.5
  9
$TRACEWID
 40
1.0
  9
$TEXTSTYLE
  7
Standard
  9
$CLAYER
  8
0
  9
$CELTYPE
  6
ByLayer
  9
$CECOLOR
 62
   256
  9
$CELTSCALE
 40
1.0
  9
$DISPSILH
 70
     0
  9
$DIMSCALE
 40
1.0
  9
$DIMASZ
 40
3.302
  9
$DIMEXO
 40
1.0
  9
$DIMDLI
 40
3.75
  9
$DIMRND
 40
0.0
  9
$DIMDLE
 40
0.0
  9
$DIMEXE
 40
1.0
  9
$DIMTP
 40
0.0
  9
$DIMTM
 40
0.0
  9
$DIMTXT
 40
3.5
  9
$DIMCEN
 40
2.5
  9
$DIMTSZ
 40
0.0
  9
$DIMTOL
 70
     0
  9
$DIMLIM
 70
     0
  9
$DIMTIH
 70
     1
  9
$DIMTOH
 70
     1
  9
$DIMSE1
 70
     0
  9
$DIMSE2
 70
     0
  9
$DIMTAD
 70
     1
  9
$DIMZIN
 70
     0
  9
$DIMBLK
  1

  9
$DIMASO
 70
     1
  9
$DIMSHO
 70
     1
  9
$DIMPOST
  1

  9
$DIMAPOST
  1

  9
$DIMALT
 70
     0
  9
$DIMALTD
 70
     3
  9
$DIMALTF
 40
0.0393700787401575
  9
$DIMLFAC
 40
1.0
  9
$DIMTOFL
 70
     1
  9
$DIMTVP
 40
0.0
  9
$DIMTIX
 70
     0
  9
$DIMSOXD
 70
     0
  9
$DIMSAH
 70
     0
  9
$DIMBLK1
  1

  9
$DIMBLK2
  1

  9
$DIMSTYLE
  2
ISO-25
  9
$DIMCLRD
 70
     0
  9
$DIMCLRE
 70
     0
  9
$DIMCLRT
 70
     0
  9
$DIMTFAC
 40
1.0
  9
$DIMGAP
 40
1.524
  9
$DIMJUST
 70
     0
  9
$DIMSD1
 70
     0
  9
$DIMSD2
 70
     0
  9
$DIMTOLJ
 70
     0
  9
$DIMTZIN
 70
     0
  9
$DIMALTZ
 70
     0
  9
$DIMALTTZ
 70
     0
  9
$DIMUPT
 70
     0
  9
$DIMDEC
 70
     2
  9
$DIMTDEC
 70
     2
  9
$DIMALTU
 70
     2
  9
$DIMALTTD
 70
     3
  9
$DIMTXSTY
  7
Standard
  9
$DIMAUNIT
 70
     0
  9
$DIMADEC
 70
     2
  9
$DIMALTRND
 40
0.0
  9
$DIMAZIN
 70
     0
  9
$DIMDSEP
 70
    44
  9
$DIMATFIT
 70
     3
  9
$DIMFRAC
 70
     0
  9
$DIMLDRBLK
  1

  9
$DIMLUNIT
 70
     2
  9
$DIMLWD
 70
    -2
  9
$DIMLWE
 70
    -2
  9
$DIMTMOVE
 70
     0
  9
$LUNITS
 70
     2
  9
$LUPREC
 70
     2
  9
$SKETCHINC
 40
1.0
  9
$FILLETRAD
 40
10.0
  9
$AUNITS
 70
     0
  9
$AUPREC
 70
     2
  9
$MENU
  1
.
  9
$ELEVATION
 40
0.0
  9
$PELEVATION
 40
0.0
  9
$THICKNESS
 40
0.0
  9
$LIMCHECK
 70
     0
  9
$CHAMFERA
 40
0.0
  9
$CHAMFERB
 40
0.0
  9
$CHAMFERC
 40
0.0
  9
$CHAMFERD
 40
0.0
  9
$SKPOLY
 70
     0
  9
$TDCREATE
 40
2458320.373201933
  9
$TDUCREATE
 40
2458319.998201933
  9
$TDUPDATE
 40
2458331.412291423
  9
$TDUUPDATE
 40
2458331.037291423
  9
$TDINDWG
 40
0.0009757176
  9
$TDUSRTIMER
 40
2458331.036315938
  9
$USRTIMER
 70
     1
  9
$ANGBASE
 50
0.0
  9
$ANGDIR
 70
     0
  9
$PDMODE
 70
     0
  9
$PDSIZE
 40
-1.0
  9
$PLINEWID
 40
0.0
  9
$SPLFRAME
 70
     0
  9
$SPLINETYPE
 70
     6
  9
$SPLINESEGS
 70
     8
  9
$HANDSEED
  5
1AC
  9
$SURFTAB1
 70
     6
  9
$SURFTAB2
 70
     6
  9
$SURFTYPE
 70
     6
  9
$SURFU
 70
     6
  9
$SURFV
 70
     6
  9
$UCSBASE
  2

  9
$UCSNAME
  2

  9
$UCSORG
 10
0.0
 20
0.0
 30
0.0
  9
$UCSXDIR
 10
1.0
 20
0.0
 30
0.0
  9
$UCSYDIR
 10
0.0
 20
1.0
 30
0.0
  9
$UCSORTHOREF
  2

  9
$UCSORTHOVIEW
 70
     0
  9
$UCSORGTOP
 10
0.0
 20
0.0
 30
0.0
  9
$UCSORGBOTTOM
 10
0.0
 20
0.0
 30
0.0
  9
$UCSORGLEFT
 10
0.0
 20
0.0
 30
0.0
  9
$UCSORGRIGHT
 10
0.0
 20
0.0
 30
0.0
  9
$UCSORGFRONT
 10
0.0
 20
0.0
 30
0.0
  9
$UCSORGBACK
 10
0.0
 20
0.0
 30
0.0
  9
$PUCSBASE
  2

  9
$PUCSNAME
  2

  9
$PUCSORG
 10
0.0
 20
0.0
 30
0.0
  9
$PUCSXDIR
 10
1.0
 20
0.0
 30
0.0
  9
$PUCSYDIR
 10
0.0
 20
1.0
 30
0.0
  9
$PUCSORTHOREF
  2

  9
$PUCSORTHOVIEW
 70
     0
  9
$PUCSORGTOP
 10
0.0
 20
0.0
 30
0.0
  9
$PUCSORGBOTTOM
 10
0.0
 20
0.0
 30
0.0
  9
$PUCSORGLEFT
 10
0.0
 20
0.0
 30
0.0
  9
$PUCSORGRIGHT
 10
0.0
 20
0.0
 30
0.0
  9
$PUCSORGFRONT
 10
0.0
 20
0.0
 30
0.0
  9
$PUCSORGBACK
 10
0.0
 20
0.0
 30
0.0
  9
$USERI1
 70
     0
  9
$USERI2
 70
     0
  9
$USERI3
 70
     0
  9
$USERI4
 70
     0
  9
$USERI5
 70
     0
  9
$USERR1
 40
0.0
  9
$USERR2
 40
0.0
  9
$USERR3
 40
0.0
  9
$USERR4
 40
0.0
  9
$USERR5
 40
0.0
  9
$WORLDVIEW
 70
     1
  9
$SHADEDGE
 70
     3
  9
$SHADEDIF
 70
    70
  9
$TILEMODE
 70
     1
  9
$MAXACTVP
 70
    64
  9
$PINSBASE
 10
0.0
 20
0.0
 30
0.0
  9
$PLIMCHECK
 70
     0
  9
$PEXTMIN
 10
1.000000000000000E+20
 20
1.000000000000000E+20
 30
1.000000000000000E+20
  9
$PEXTMAX
 10
-1.000000000000000E+20
 20
-1.000000000000000E+20
 30
-1.000000000000000E+20
  9
$PLIMMIN
 10
0.0
 20
0.0
  9
$PLIMMAX
 10
0.0
 20
0.0
  9
$UNITMODE
 70
     0
  9
$VISRETAIN
 70
     1
  9
$PLINEGEN
 70
     0
  9
$PSLTSCALE
 70
     1
  9
$TREEDEPTH
 70
  3020
  9
$CMLSTYLE
  2
Standard
  9
$CMLJUST
 70
     0
  9
$CMLSCALE
 40
20.0
  9
$PROXYGRAPHICS
 70
     1
  9
$MEASUREMENT
 70
     1
  9
$CELWEIGHT
370
    -1
  9
$ENDCAPS
280
     0
  9
$JOINSTYLE
280
     0
  9
$LWDISPLAY
290
     1
  9
$INSUNITS
 70
     4
  9
$HYPERLINKBASE
  1

  9
$STYLESHEET
  1

  9
$XEDIT
290
     1
  9
$CEPSNTYPE
380
     0
  9
$PSTYLEMODE
290
     1
  9
$FINGERPRINTGUID
  2
{8E4A1670-4FCE-4C06-875A-ADCC91352DC5}
  9
$VERSIONGUID
  2
{FAEB1C32-E019-11D5-929B-00C0DF256EC4}
  9
$EXTNAMES
290
     1
  9
$PSVPSCALE
 40
0.0
  9
$OLESTARTUP
290
     0
  0
ENDSEC
  0
SECTION
  2
CLASSES
  0
CLASS
  1
ACDBDICTIONARYWDFLT
  2
AcDbDictionaryWithDefault
  3
ObjectDBX Classes
 90
        0
280
     0
281
     0
  0
CLASS
  1
VISUALSTYLE
  2
AcDbVisualStyle
  3
ObjectDBX Classes
 90
     4095
280
     0
281
     0
  0
CLASS
  1
MATERIAL
  2
AcDbMaterial
  3
ObjectDBX Classes
 90
     1153
280
     0
281
     0
  0
CLASS
  1
SCALE
  2
AcDbScale
  3
ObjectDBX Classes
 90
     1153
280
     0
281
     0
  0
CLASS
  1
SUN
  2
AcDbSun
  3
SCENEOE
 90
     1153
280
     0
281
     0
  0
CLASS
  1
ACDBPLACEHOLDER
  2
AcDbPlaceHolder
  3
ObjectDBX Classes
 90
        0
280
     0
281
     0
  0
CLASS
  1
LAYOUT
  2
AcDbLayout
  3
ObjectDBX Classes
 90
        0
280
     0
281
     0
  0
CLASS
  1
TABLESTYLE
  2
AcDbTableStyle
  3
ObjectDBX Classes
 90
     4095
280
     0
281
     0
  0
CLASS
  1
MLEADERSTYLE
  2
AcDbMLeaderStyle
  3
ACDB_MLEADERSTYLE_CLASS
 90
     4095
280
     0
281
     0
  0
CLASS
  1
RASTERVARIABLES
  2
AcDbRasterVariables
  3
ISM
 90
        0
280
     0
281
     0
  0
ENDSEC
  0
SECTION
  2
TABLES
  0
TABLE
  2
VPORT
  5
8
330
0
100
AcDbSymbolTable
 70
     1
  0
VPORT
  5
29
330
8
100
AcDbSymbolTableRecord
100
AcDbViewportTableRecord
  2
*Active
 70
     0
 10
0.0
 20
0.0
 11
1.0
 21
1.0
 12
-13.33374472181502
 22
11.74118541173364
 13
0.0
 23
0.0
 14
10.0
 24
10.0
 15
10.0
 25
10.0
 16
0.0
 26
0.0
 36
1.0
 17
0.0
 27
0.0
 37
0.0
 40
166.265244189099
 41
1.516441005802708
 42
50.0
 43
0.0
 44
0.0
 50
0.0
 51
0.0
 71
    16
 72
  2000
 73
     1
 74
     3
 75
     0
 76
     0
 77
     0
 78
     0
281
     0
 65
     1
110
0.0
120
0.0
130
0.0
111
1.0
121
0.0
131
0.0
112
0.0
122
1.0
132
0.0
 79
     0
146
0.0
  0
ENDTAB
  0
TABLE
  2
LTYPE
  5
5
330
0
100
AcDbSymbolTable
 70
     6
  0
LTYPE
  5
14
330
5
100
AcDbSymbolTableRecord
100
AcDbLinetypeTableRecord
  2
ByBlock
 70
     0
  3

 72
    65
 73
     0
 40
0.0
  0
LTYPE
  5
15
330
5
100
AcDbSymbolTableRecord
100
AcDbLinetypeTableRecord
  2
ByLayer
 70
     0
  3

 72
    65
 73
     0
 40
0.0
  0
LTYPE
  5
16
330
5
100
AcDbSymbolTableRecord
100
AcDbLinetypeTableRecord
  2
Continuous
 70
     0
  3
Solid line
 72
    65
 73
     0
 40
0.0
  0
LTYPE
  5
6A
330
5
100
AcDbSymbolTableRecord
100
AcDbLinetypeTableRecord
  2
HIDDEN
 70
     0
  3
Hidden __ __ __ __ __ __ __ __ __ __ __ __ __ __
 72
    65
 73
     2
 40
1.905
 49
1.27
 74
     0
 49
-0.635
 74
     0
  0
LTYPE
  5
6B
330
5
100
AcDbSymbolTableRecord
100
AcDbLinetypeTableRecord
  2
PHANTOM
 70
     0
  3
Phantom ______  __  __  ______  __  __  ______
 72
    65
 73
     6
 40
12.7
 49
6.35
 74
     0
 49
-1.27
 74
     0
 49
1.27
 74
     0
 49
-1.27
 74
     0
 49
1.27
 74
     0
 49
-1.27
 74
     0
  0
LTYPE
  5
6C
330
5
100
AcDbSymbolTableRecord
100
AcDbLinetypeTableRecord
  2
CENTER
 70
     0
  3
Center ____ _ ____ _ ____ _ ____ _ ____ _ ____
 72
    65
 73
     4
 40
10.16
 49
6.35
 74
     0
 49
-1.27
 74
     0
 49
1.27
 74
     0
 49
-1.27
 74
     0
  0
LTYPE
  5
6D
330
5
100
AcDbSymbolTableRecord
100
AcDbLinetypeTableRecord
  2
CENTERX2
 70
     0
  3
Center (2x) ________  __  ________  __  _____
 72
    65
 73
     4
 40
20.32
 49
12.7
 74
     0
 49
-2.54
 74
     0
 49
2.54
 74
     0
 49
-2.54
 74
     0
  0
LTYPE
  5
6E
330
5
100
AcDbSymbolTableRecord
100
AcDbLinetypeTableRecord
  2
DOT2
 70
     0
  3
Dot (.5x) ........................................
 72
    65
 73
     2
 40
0.635
 49
0.0
 74
     0
 49
-0.635
 74
     0
  0
ENDTAB
  0
TABLE
  2
LAYER
  5
2
102
{ACAD_XDICTIONARY
360
198
102
}
330
0
100
AcDbSymbolTable
 70
    18
  0
LAYER
  5
10
330
2
100
AcDbSymbolTableRecord
100
AcDbLayerTableRecord
  2
0
 70
     0
 62
     7
  6
Continuous
370
    -3
390
F
  0
LAYER
  5
6F
330
2
100
AcDbSymbolTableRecord
100
AcDbLayerTableRecord
  2
FORMAT
 70
     0
 62
     2
  6
Continuous
370
    -3
390
F
  0
LAYER
  5
70
330
2
100
AcDbSymbolTableRecord
100
AcDbLayerTableRecord
  2
외형선
 70
     0
 62
     4
  6
Continuous
370
    30
390
F
  0
LAYER
  5
71
330
2
100
AcDbSymbolTableRecord
100
AcDbLayerTableRecord
  2
숨은선
 70
     0
 62
     2
  6
HIDDEN
370
    15
390
F
  0
LAYER
  5
72
330
2
100
AcDbSymbolTableRecord
100
AcDbLayerTableRecord
  2
중심선
 70
     0
 62
     1
  6
CENTERX2
370
    -3
390
F
  0
LAYER
  5
73
330
2
100
AcDbSymbolTableRecord
100
AcDbLayerTableRecord
  2
파단선
 70
     0
 62
     4
  6
Continuous
370
    -3
390
F
  0
LAYER
  5
74
330
2
100
AcDbSymbolTableRecord
100
AcDbLayerTableRecord
  2
해칭선
 70
     0
 62
   100
  6
Continuous
370
    -3
390
F
  0
LAYER
  5
75
330
2
100
AcDbSymbolTableRecord
100
AcDbLayerTableRecord
  2
가는실선
 70
     0
 62
     4
  6
Continuous
370
    -3
390
F
  0
LAYER
  5
76
330
2
100
AcDbSymbolTableRecord
100
AcDbLayerTableRecord
  2
치수_보조선
 70
     0
 62
     4
  6
Continuous
370
    -3
390
F
  0
LAYER
  5
77
330
2
100
AcDbSymbolTableRecord
100
AcDbLayerTableRecord
  2
치수문자_일반주서
 70
     0
 62
     7
  6
Continuous
370
    15
390
F
  0
LAYER
  5
78
330
2
100
AcDbSymbolTableRecord
100
AcDbLayerTableRecord
  2
개별주서
 70
     0
 62
   100
  6
Continuous
370
    30
390
F
  0
LAYER
  5
79
330
2
100
AcDbSymbolTableRecord
100
AcDbLayerTableRecord
  2
중간선
 70
     0
 62
     2
  6
Continuous
370
    15
390
F
  0
LAYER
  5
7A
330
2
100
AcDbSymbolTableRecord
100
AcDbLayerTableRecord
  2
윤곽선
 70
     0
 62
     3
  6
Continuous
370
    40
390
F
  0
LAYER
  5
7B
330
2
100
AcDbSymbolTableRecord
100
AcDbLayerTableRecord
  2
중심마크
 70
     0
 62
   100
  6
Continuous
370
    30
390
F
  0
LAYER
  5
7C
330
2
100
AcDbSymbolTableRecord
100
AcDbLayerTableRecord
  2
가상선
 70
     0
 62
     4
  6
PHANTOM
370
    -3
390
F
  0
LAYER
  5
7D
330
2
100
AcDbSymbolTableRecord
100
AcDbLayerTableRecord
  2
특수지정선
 70
     0
 62
     5
  6
CENTERX2
370
    60
390
F
  0
LAYER
  5
7E
330
2
100
AcDbSymbolTableRecord
100
AcDbLayerTableRecord
  2
참조1
 70
     0
 62
    -4
  6
Continuous
370
    -3
390
F
  0
LAYER
  5
14C
330
2
100
AcDbSymbolTableRecord
100
AcDbLayerTableRecord
  2
Defpoints
 70
     0
 62
     7
  6
Continuous
290
     0
370
    -3
390
F
  0
ENDTAB
  0
TABLE
  2
STYLE
  5
3
330
0
100
AcDbSymbolTable
 70
     2
  0
STYLE
  5
11
330
3
100
AcDbSymbolTableRecord
100
AcDbTextStyleTableRecord
  2
Standard
 70
     0
 40
0.0
 41
1.0
 50
0.0
 71
     0
 42
3.5
  3
txt
  4

  0
STYLE
  5
94
330
3
100
AcDbSymbolTableRecord
100
AcDbTextStyleTableRecord
  2
SLDTEXTSTYLE0
 70
     0
 40
0.0
 41
0.75
 50
0.0
 71
     0
 42
3.5
  3
TXT
  4

  0
ENDTAB
  0
TABLE
  2
VIEW
  5
6
330
0
100
AcDbSymbolTable
 70
     0
  0
ENDTAB
  0
TABLE
  2
UCS
  5
7
330
0
100
AcDbSymbolTable
 70
     0
  0
ENDTAB
  0
TABLE
  2
APPID
  5
9
330
0
100
AcDbSymbolTable
 70
     1
  0
APPID
  5
12
330
9
100
AcDbSymbolTableRecord
100
AcDbRegAppTableRecord
  2
ACAD
 70
     0
  0
ENDTAB
  0
TABLE
  2
DIMSTYLE
  5
A
330
0
100
AcDbSymbolTable
 70
     4
100
AcDbDimStyleTable
  0
DIMSTYLE
105
27
330
A
100
AcDbSymbolTableRecord
100
AcDbDimStyleTableRecord
  2
ISO-25
 70
     0
 41
2.5
 42
0.625
 43
3.75
 44
1.25
 73
     0
 74
     0
 77
     1
 78
     8
140
2.5
141
2.5
143
0.03937007874016
147
0.625
171
     3
172
     1
178
     0
271
     2
272
     2
274
     3
278
    44
283
     0
284
     8
340
11
  0
DIMSTYLE
105
C9
102
{ACAD_REACTORS
330
C8
330
F1
102
}
330
A
100
AcDbSymbolTableRecord
100
AcDbDimStyleTableRecord
  2
SLDDIMSTYLE0
 70
     0
 41
3.302
 44
0.0
 45
0.000000001
 73
     0
 74
     0
 77
     1
 78
    12
 79
     3
140
3.5
143
0.0393700787401575
147
0.875
148
0.000000001
170
     1
173
     1
178
     0
271
     2
272
     2
276
     2
284
    12
340
94
  0
DIMSTYLE
105
DE
102
{ACAD_REACTORS
330
DD
102
}
330
A
100
AcDbSymbolTableRecord
100
AcDbDimStyleTableRecord
  2
SLDDIMSTYLE1
 70
     0
 41
3.302
 44
0.0
 45
0.000000001
 73
     0
 74
     0
 77
     1
 78
     4
 79
     1
140
3.5
143
0.0393700787401575
147
0.875
148
0.000000001
170
     1
173
     1
178
     0
271
     2
272
     2
276
     2
284
    12
340
94
  0
DIMSTYLE
105
105
102
{ACAD_REACTORS
330
104
102
}
330
A
100
AcDbSymbolTableRecord
100
AcDbDimStyleTableRecord
  2
SLDDIMSTYLE2
 70
     0
 41
3.302
 44
0.0
 45
0.000000001
 73
     0
 74
     0
 77
     1
 78
    12
 79
     3
140
3.5
143
0.0393700787401575
147
0.875
148
0.000000001
170
     1
172
     1
173
     1
178
     0
271
     2
272
     2
276
     2
284
    12
289
     0
340
94
  0
ENDTAB
  0
TABLE
  2
BLOCK_RECORD
  5
1
330
0
100
AcDbSymbolTable
 70
     8
  0
BLOCK_RECORD
  5
1F
330
1
100
AcDbSymbolTableRecord
100
AcDbBlockTableRecord
  2
*Model_Space
340
22
  0
BLOCK_RECORD
  5
1B
330
1
100
AcDbSymbolTableRecord
100
AcDbBlockTableRecord
  2
*Paper_Space
340
1E
  0
BLOCK_RECORD
  5
23
330
1
100
AcDbSymbolTableRecord
100
AcDbBlockTableRecord
  2
*Paper_Space0
340
26
  0
BLOCK_RECORD
  5
7F
330
1
100
AcDbSymbolTableRecord
100
AcDbBlockTableRecord
  2
블럭10
340
0
102
{BLKREFS
331
C1
102
}
  0
BLOCK_RECORD
  5
CA
330
1
100
AcDbSymbolTableRecord
100
AcDbBlockTableRecord
  2
_D
340
0
  0
BLOCK_RECORD
  5
DF
330
1
100
AcDbSymbolTableRecord
100
AcDbBlockTableRecord
  2
_D_1
340
0
  0
BLOCK_RECORD
  5
F2
330
1
100
AcDbSymbolTableRecord
100
AcDbBlockTableRecord
  2
_D_2
340
0
  0
BLOCK_RECORD
  5
106
330
1
100
AcDbSymbolTableRecord
100
AcDbBlockTableRecord
  2
_D_3
340
0
  0
BLOCK_RECORD
  5
120
330
1
100
AcDbSymbolTableRecord
100
AcDbBlockTableRecord
  2
SW_DOWELSYMBOL_0
340
0
102
{BLKREFS
331
126
102
}
  0
ENDTAB
  0
ENDSEC
  0
SECTION
  2
BLOCKS
  0
BLOCK
  5
20
330
1F
100
AcDbEntity
  8
0
100
AcDbBlockBegin
  2
*Model_Space
 70
     0
 10
0.0
 20
0.0
 30
0.0
  3
*Model_Space
  1
*Model_Space
  0
ENDBLK
  5
21
330
1F
100
AcDbEntity
  8
0
100
AcDbBlockEnd
  0
BLOCK
  5
1C
330
1B
100
AcDbEntity
 67
     1
  8
0
100
AcDbBlockBegin
  2
*Paper_Space
 70
     0
 10
0.0
 20
0.0
 30
0.0
  3
*Paper_Space
  1
*Paper_Space
  0
ENDBLK
  5
1D
330
1B
100
AcDbEntity
 67
     1
  8
0
100
AcDbBlockEnd
  0
BLOCK
  5
24
330
23
100
AcDbEntity
  8
0
100
AcDbBlockBegin
  2
*Paper_Space0
 70
     0
 10
0.0
 20
0.0
 30
0.0
  3
*Paper_Space0
  1
*Paper_Space0
  0
ENDBLK
  5
25
330
23
100
AcDbEntity
  8
0
100
AcDbBlockEnd
  0
BLOCK
  5
80
330
7F
100
AcDbEntity
  8
0
100
AcDbBlockBegin
  2
블럭10
 70
     2
 10
0.0
 20
0.0
 30
0.0
  3
블럭10
  1
블럭10
  0
ELLIPSE
  5
82
330
7F
100
AcDbEntity
  8
중심선
100
AcDbEllipse
 10
20.54032771741204
 20
12.0471743016438
 30
0.0
 11
6.600054785286829
 21
-1.261213355974178E-13
 31
0.0
210
0.0
220
0.0
230
1.0
 40
0.636358354079598
 41
0.9219305317359503
 42
6.513795318482858
  0
ELLIPSE
  5
83
330
7F
100
AcDbEntity
  8
중심선
100
AcDbEllipse
 10
20.54032771746488
 20
12.04717430159265
 30
0.0
 11
3.960054785062283
 21
1.540847449632565E-10
 31
0.0
210
0.0
220
0.0
230
1.0
 40
0.3939339440162632
 41
1.131841032648279
 42
5.62031148352944
  0
LINE
  5
84
330
7F
100
AcDbEntity
  8
중심선
100
AcDbLine
 10
2.268634060543552
 20
16.24717430164393
 30
0.0
 11
5.714909304380834
 21
16.24717430164393
 31
0.0
  0
LINE
  5
85
330
7F
100
AcDbEntity
  8
중심선
100
AcDbLine
 10
5.245725140726316
 20
7.84717430164391
 30
0.0
 11
8.692000384563599
 21
7.84717430164391
 31
0.0
  0
LINE
  5
86
330
7F
100
AcDbEntity
  8
중심선
100
AcDbLine
 10
15.74043728645272
 20
16.24717430164393
 30
0.0
 11
8.692000384563599
 21
7.84717430164391
 31
0.0
  0
LINE
  5
87
330
7F
100
AcDbEntity
  8
중심선
100
AcDbLine
 10
0.1404042013395286
 20
13.71084872107135
 30
0.0
 11
3.58671253028996
 21
13.71088815037384
 31
0.0
  0
LINE
  5
88
330
7F
100
AcDbEntity
  8
중심선
100
AcDbLine
 10
2.750260043222114
 20
10.84717430164391
 30
0.0
 11
6.196535287059397
 21
10.84717430164391
 31
0.0
  0
LINE
  5
89
330
7F
100
AcDbEntity
  8
중심선
100
AcDbLine
 10
12.29416204261559
 20
16.24717430164393
 30
0.0
 11
5.245725140726316
 21
7.84717430164391
 31
0.0
  0
LINE
  5
8A
330
7F
100
AcDbEntity
  8
중심선
100
AcDbLine
 10
10.72767329541681
 20
16.24717430164393
 30
0.0
 11
6.196535287059397
 21
10.84717430164391
 31
0.0
  0
LINE
  5
8B
330
7F
100
AcDbEntity
  8
중심선
100
AcDbLine
 10
7.28139805157953
 20
16.24717430164393
 30
0.0
 11
2.750260043222114
 21
10.84717430164391
 31
0.0
  0
LINE
  5
8C
330
7F
100
AcDbEntity
  8
중심선
100
AcDbLine
 10
5.714909304380834
 20
16.24717430164393
 30
0.0
 11
3.58671253028996
 21
13.71088815037384
 31
0.0
  0
LINE
  5
8D
330
7F
100
AcDbEntity
  8
중심선
100
AcDbLine
 10
2.268634060543552
 20
16.24717430164393
 30
0.0
 11
0.1404042013395286
 21
13.71084872107135
 31
0.0
  0
LINE
  5
8E
330
7F
100
AcDbEntity
  8
중심선
100
AcDbLine
 10
7.28139805157953
 20
16.24717430164393
 30
0.0
 11
10.72767329541681
 21
16.24717430164393
 31
0.0
  0
LINE
  5
8F
330
7F
100
AcDbEntity
  8
중심선
100
AcDbLine
 10
12.29416204261559
 20
16.24717430164393
 30
0.0
 11
15.74043728645272
 21
16.24717430164393
 31
0.0
  0
LINE
  5
90
330
7F
100
AcDbEntity
  8
중심선
100
AcDbLine
 10
19.22036997980202
 20
11.08717430171403
 30
0.0
 11
23.66174974927406
 21
11.08717430171406
 31
0.0
  0
LINE
  5
91
330
7F
100
AcDbEntity
  8
중심선
100
AcDbLine
 10
19.22039502424796
 20
13.00717430171391
 30
0.0
 11
19.22036997980202
 21
11.08717430171403
 31
0.0
  0
LINE
  5
92
330
7F
100
AcDbEntity
  8
중심선
100
AcDbLine
 10
19.22039502424796
 20
13.00717430171391
 30
0.0
 11
26.96566020931264
 21
13.00717430171391
 31
0.0
  0
LINE
  5
93
330
7F
100
AcDbEntity
  8
중심선
100
AcDbLine
 10
22.22332737316547
 20
13.45928029700563
 30
0.0
 11
24.52862924686651
 21
15.39360700705356
 31
0.0
  0
ATTDEF
  5
95
330
7F
100
AcDbEntity
  8
FORMAT
 62
     2
100
AcDbText
 10
4.408487351596664
 20
2.075366912832191
 30
0.0
 40
4.233333333333333
  1
E2069020
 41
0.75
  7
SLDTEXTSTYLE0
 11
4.408487351596664
 21
-0.0412997538344756
 31
0.0
100
AcDbAttributeDefinition
  3

  2
AUTOATTR0
 70
     0
 74
     1
  0
ENDBLK
  5
81
330
7F
100
AcDbEntity
  8
0
100
AcDbBlockEnd
  0
BLOCK
  5
CB
330
CA
100
AcDbEntity
  8
0
100
AcDbBlockBegin
  2
_D
 70
     0
 10
0.0
 20
0.0
 30
0.0
  3
_D
  1
_D
  0
LINE
  5
CD
330
CA
100
AcDbEntity
  8
치수문자_일반주서
 62
     0
370
    -2
100
AcDbLine
 10
44.45000000000002
 20
1.377514629548137
 30
0.0
 11
44.45000000000002
 21
22.82277225922702
 31
0.0
  0
LINE
  5
CE
330
CA
100
AcDbEntity
  8
치수문자_일반주서
 62
     0
370
    -2
100
AcDbLine
 10
25.40000000000001
 20
4.031249999999991
 30
0.0
 11
25.40000000000001
 21
22.82277225922702
 31
0.0
  0
LINE
  5
CF
330
CA
100
AcDbEntity
  8
치수문자_일반주서
 62
     0
370
    -2
100
AcDbLine
 10
41.14800000000002
 20
22.82277225922702
 30
0.0
 11
28.70200000000001
 21
22.82277225922702
 31
0.0
  0
SOLID
  5
D0
330
CA
100
AcDbEntity
  8
치수문자_일반주서
 62
     0
100
AcDbTrace
 10
41.14800000000002
 20
22.27243892589368
 30
0.0
 11
41.14800000000002
 21
23.37310559256035
 31
0.0
 12
44.45000000000002
 22
22.82277225922702
 32
0.0
 13
44.45000000000002
 23
22.82277225922702
 33
0.0
  0
SOLID
  5
D1
330
CA
100
AcDbEntity
  8
치수문자_일반주서
 62
     0
100
AcDbTrace
 10
28.70200000000001
 20
23.37310559256035
 30
0.0
 11
28.70200000000001
 21
22.27243892589368
 31
0.0
 12
25.40000000000001
 22
22.82277225922702
 32
0.0
 13
25.40000000000001
 23
22.82277225922702
 33
0.0
  0
MTEXT
  5
D2
330
CA
100
AcDbEntity
  8
치수문자_일반주서
 62
     0
100
AcDbMText
 10
34.92500000000001
 20
27.19777225922702
 30
0.0
 40
3.5
 41
0.0
 71
     2
 72
     1
  1
\A1;19.05 [3/4]
  7
SLDTEXTSTYLE0
 73
     1
 44
1.0
  0
POINT
  5
D3
330
CA
100
AcDbEntity
  8
Defpoints
 62
     0
100
AcDbPoint
 10
44.45000000000002
 20
1.315014629548137
 30
0.0
  0
POINT
  5
D4
330
CA
100
AcDbEntity
  8
Defpoints
 62
     0
100
AcDbPoint
 10
25.40000000000001
 20
3.968749999999991
 30
0.0
  0
POINT
  5
D5
330
CA
100
AcDbEntity
  8
Defpoints
 62
     0
100
AcDbPoint
 10
25.40000000000001
 20
22.82277225922702
 30
0.0
  0
ENDBLK
  5
CC
330
CA
100
AcDbEntity
  8
0
100
AcDbBlockEnd
  0
BLOCK
  5
E0
330
DF
100
AcDbEntity
  8
0
100
AcDbBlockBegin
  2
_D_1
 70
     0
 10
0.0
 20
0.0
 30
0.0
  3
_D_1
  1
_D_1
  0
LINE
  5
E2
330
DF
100
AcDbEntity
  8
치수문자_일반주서
 62
     0
370
    -2
100
AcDbLine
 10
44.45000000000002
 20
1.377514629548137
 30
0.0
 11
44.45000000000002
 21
35.75282056895201
 31
0.0
  0
LINE
  5
E3
330
DF
100
AcDbEntity
  8
치수문자_일반주서
 62
     0
370
    -2
100
AcDbLine
 10
-44.45000000000002
 20
3.872500000000006
 30
0.0
 11
-44.45000000000002
 21
35.75282056895201
 31
0.0
  0
LINE
  5
E4
330
DF
100
AcDbEntity
  8
치수문자_일반주서
 62
     0
370
    -2
100
AcDbLine
 10
41.14800000000002
 20
35.75282056895201
 30
0.0
 11
-41.14800000000002
 21
35.75282056895201
 31
0.0
  0
SOLID
  5
E5
330
DF
100
AcDbEntity
  8
치수문자_일반주서
 62
     0
100
AcDbTrace
 10
41.14800000000002
 20
35.20248723561868
 30
0.0
 11
41.14800000000002
 21
36.30315390228535
 31
0.0
 12
44.45000000000002
 22
35.75282056895201
 32
0.0
 13
44.45000000000002
 23
35.75282056895201
 33
0.0
  0
SOLID
  5
E6
330
DF
100
AcDbEntity
  8
치수문자_일반주서
 62
     0
100
AcDbTrace
 10
-41.14800000000002
 20
36.30315390228535
 30
0.0
 11
-41.14800000000002
 21
35.20248723561868
 31
0.0
 12
-44.45000000000002
 22
35.75282056895201
 32
0.0
 13
-44.45000000000002
 23
35.75282056895201
 33
0.0
  0
MTEXT
  5
E7
330
DF
100
AcDbEntity
  8
치수문자_일반주서
 62
     0
100
AcDbMText
 10
0.0000000000000018
 20
40.12782056895201
 30
0.0
 40
3.5
 41
0.0
 71
     2
 72
     1
  1
\A1;88.90 [3 1/2]
  7
SLDTEXTSTYLE0
 73
     1
 44
1.0
  0
POINT
  5
E8
330
DF
100
AcDbEntity
  8
Defpoints
 62
     0
100
AcDbPoint
 10
44.45000000000002
 20
1.315014629548137
 30
0.0
  0
POINT
  5
E9
330
DF
100
AcDbEntity
  8
Defpoints
 62
     0
100
AcDbPoint
 10
-44.45000000000002
 20
3.810000000000006
 30
0.0
  0
POINT
  5
EA
330
DF
100
AcDbEntity
  8
Defpoints
 62
     0
100
AcDbPoint
 10
-44.45000000000002
 20
35.75282056895201
 30
0.0
  0
ENDBLK
  5
E1
330
DF
100
AcDbEntity
  8
0
100
AcDbBlockEnd
  0
BLOCK
  5
F3
330
F2
100
AcDbEntity
  8
0
100
AcDbBlockBegin
  2
_D_2
 70
     0
 10
0.0
 20
0.0
 30
0.0
  3
_D_2
  1
_D_2
  0
LINE
  5
F5
330
F2
100
AcDbEntity
  8
치수문자_일반주서
 62
     0
370
    -2
100
AcDbLine
 10
28.47282633314275
 20
3.96874999999998
 30
0.0
 11
55.7318662412281
 21
3.968750000000082
 31
0.0
  0
LINE
  5
F6
330
F2
100
AcDbEntity
  8
치수문자_일반주서
 62
     0
370
    -2
100
AcDbLine
 10
28.47282633314279
 20
-3.968749999999984
 30
0.0
 11
55.73186624122813
 21
-3.968749999999883
 31
0.0
  0
LINE
  5
F7
330
F2
100
AcDbEntity
  8
치수문자_일반주서
 62
     0
370
    -2
100
AcDbLine
 10
55.7318662412281
 20
3.968750000000082
 30
0.0
 11
55.73186624122798
 21
38.57275000000008
 31
0.0
  0
LINE
  5
F8
330
F2
100
AcDbEntity
  8
치수문자_일반주서
 62
     0
370
    -2
100
AcDbLine
 10
55.73186624122809
 20
7.270750000000081
 30
0.0
 11
55.73186624122808
 21
10.57275000000008
 31
0.0
  0
LINE
  5
F9
330
F2
100
AcDbEntity
  8
치수문자_일반주서
 62
     0
370
    -2
100
AcDbLine
 10
55.73186624122815
 20
-7.270749999999882
 30
0.0
 11
55.73186624122816
 21
-10.57274999999988
 31
0.0
  0
SOLID
  5
FA
330
F2
100
AcDbEntity
  8
치수문자_일반주서
 62
     0
100
AcDbTrace
 10
55.18153290789476
 20
7.27075000000008
 30
0.0
 11
56.28219957456142
 21
7.270750000000083
 31
0.0
 12
55.7318662412281
 22
3.968750000000082
 32
0.0
 13
55.7318662412281
 23
3.968750000000082
 33
0.0
  0
SOLID
  5
FB
330
F2
100
AcDbEntity
  8
치수문자_일반주서
 62
     0
100
AcDbTrace
 10
56.28219957456148
 20
-7.270749999999881
 30
0.0
 11
55.18153290789481
 21
-7.270749999999884
 31
0.0
 12
55.73186624122813
 22
-3.968749999999883
 32
0.0
 13
55.73186624122813
 23
-3.968749999999883
 33
0.0
  0
MTEXT
  5
FC
330
F2
100
AcDbEntity
  8
치수문자_일반주서
 62
     0
100
AcDbMText
 10
51.35686624122803
 20
24.57275000000006
 30
0.0
 40
3.5
 41
0.0
 71
     2
 72
     1
  1
\A1;%%c7.94 [5/16]
  7
SLDTEXTSTYLE0
 11
-3.580687802255640E-15
 21
1.0
 31
0.0
 73
     1
 44
1.0
  0
POINT
  5
FD
330
F2
100
AcDbEntity
  8
Defpoints
 62
     0
100
AcDbPoint
 10
28.41032633314275
 20
3.96874999999998
 30
0.0
  0
POINT
  5
FE
330
F2
100
AcDbEntity
  8
Defpoints
 62
     0
100
AcDbPoint
 10
28.41032633314279
 20
-3.968749999999984
 30
0.0
  0
POINT
  5
FF
330
F2
100
AcDbEntity
  8
Defpoints
 62
     0
100
AcDbPoint
 10
55.73186624122813
 20
-3.968749999999882
 30
0.0
  0
ENDBLK
  5
F4
330
F2
100
AcDbEntity
  8
0
100
AcDbBlockEnd
  0
BLOCK
  5
107
330
106
100
AcDbEntity
  8
0
100
AcDbBlockBegin
  2
_D_3
 70
     0
 10
0.0
 20
0.0
 30
0.0
  3
_D_3
  1
_D_3
  0
LINE
  5
109
330
106
100
AcDbEntity
  8
치수문자_일반주서
 62
     0
370
    -2
100
AcDbLine
 10
-21.50018467149216
 20
4.762500000000013
 30
0.0
 11
-57.45000000000005
 21
4.762499999999878
 31
0.0
  0
LINE
  5
10A
330
106
100
AcDbEntity
  8
치수문자_일반주서
 62
     0
370
    -2
100
AcDbLine
 10
-21.50018467149215
 20
-4.762500000000006
 30
0.0
 11
-57.45000000000002
 21
-4.762500000000141
 31
0.0
  0
LINE
  5
10B
330
106
100
AcDbEntity
  8
치수문자_일반주서
 62
     0
370
    -2
100
AcDbLine
 10
-57.45000000000004
 20
1.460499999999878
 30
0.0
 11
-57.45000000000003
 21
-1.460500000000142
 31
0.0
  0
SOLID
  5
10C
330
106
100
AcDbEntity
  8
치수문자_일반주서
 62
     0
100
AcDbTrace
 10
-56.8996666666667
 20
1.46049999999988
 30
0.0
 11
-58.00033333333337
 21
1.460499999999876
 31
0.0
 12
-57.45000000000005
 22
4.762499999999878
 32
0.0
 13
-57.45000000000005
 23
4.762499999999878
 33
0.0
  0
SOLID
  5
10D
330
106
100
AcDbEntity
  8
치수문자_일반주서
 62
     0
100
AcDbTrace
 10
-58.00033333333337
 20
-1.460500000000144
 30
0.0
 11
-56.8996666666667
 21
-1.46050000000014
 31
0.0
 12
-57.45000000000002
 22
-4.762500000000141
 32
0.0
 13
-57.45000000000002
 23
-4.762500000000141
 33
0.0
  0
MTEXT
  5
10E
330
106
100
AcDbEntity
  8
치수문자_일반주서
 62
     0
100
AcDbMText
 10
-61.82500000000004
 20
-0.0000000000000173
 30
0.0
 40
3.5
 41
0.0
 71
     2
 72
     1
  1
\A1;%%c9.53 [3/8]
  7
SLDTEXTSTYLE0
 11
-3.729883127349600E-15
 21
1.0
 31
0.0
 73
     1
 44
1.0
  0
POINT
  5
10F
330
106
100
AcDbEntity
  8
Defpoints
 62
     0
100
AcDbPoint
 10
-21.43768467149216
 20
4.762500000000013
 30
0.0
  0
POINT
  5
110
330
106
100
AcDbEntity
  8
Defpoints
 62
     0
100
AcDbPoint
 10
-21.43768467149215
 20
-4.762500000000006
 30
0.0
  0
POINT
  5
111
330
106
100
AcDbEntity
  8
Defpoints
 62
     0
100
AcDbPoint
 10
-57.45000000000002
 20
-4.762500000000141
 30
0.0
  0
ENDBLK
  5
108
330
106
100
AcDbEntity
  8
0
100
AcDbBlockEnd
  0
BLOCK
  5
121
330
120
100
AcDbEntity
  8
0
100
AcDbBlockBegin
  2
SW_DOWELSYMBOL_0
 70
     0
 10
0.0
 20
0.0
 30
0.0
  3
SW_DOWELSYMBOL_0
  1
SW_DOWELSYMBOL_0
  0
CIRCLE
  5
123
330
120
100
AcDbEntity
  8
해칭선
 62
     0
100
AcDbCircle
 10
0.0
 20
0.0
 30
0.0
 40
3.000000000000001
  0
HATCH
  5
124
330
120
100
AcDbEntity
  8
0
  6
Continuous
 62
     0
370
     0
100
AcDbHatch
 10
0.0
 20
0.0
 30
0.0
210
0.0
220
0.0
230
1.0
  2
SOLID
 70
     1
 71
     0
 91
        1
 92
        0
 93
        3
 72
     2
 10
0.0
 20
0.0
 40
3.000000000000001
 50
0.0
 51
90.0
 73
     1
 72
     1
 10
0.0
 20
3.000000000000001
 11
0.0
 21
0.0
 72
     1
 10
0.0
 20
0.0
 11
3.000000000000001
 21
0.0
 97
        0
 75
     0
 76
     1
 98
        1
 10
0.0
 20
0.0
  0
HATCH
  5
125
330
120
100
AcDbEntity
  8
0
  6
Continuous
 62
     0
370
     0
100
AcDbHatch
 10
0.0
 20
0.0
 30
0.0
210
0.0
220
0.0
230
1.0
  2
SOLID
 70
     1
 71
     0
 91
        1
 92
        0
 93
        3
 72
     2
 10
0.0
 20
0.0
 40
3.000000000000001
 50
180.0
 51
270.0000000000008
 73
     1
 72
     1
 10
0.0
 20
-3.000000000000001
 11
0.0
 21
0.0
 72
     1
 10
0.0
 20
0.0
 11
-3.000000000000001
 21
0.0
 97
        0
 75
     0
 76
     1
 98
        1
 10
0.0
 20
0.0
  0
ENDBLK
  5
122
330
120
100
AcDbEntity
  8
0
100
AcDbBlockEnd
  0
ENDSEC
  0
SECTION
  2
ENTITIES
  0
LINE
  5
96
330
1F
100
AcDbEntity
  8
외형선
  6
Continuous
 62
     1
370
    15
100
AcDbLine
 10
36.78774199352564
 20
-3.968749999999984
 30
0.0
 11
39.20623964350735
 21
-3.968749999999984
 31
0.0
  0
LINE
  5
97
330
1F
100
AcDbEntity
  8
외형선
  6
Continuous
 62
     1
370
    15
100
AcDbLine
 10
28.4103406886409
 20
3.96874999999998
 30
0.0
 11
25.98981279091822
 21
3.96874999999998
 31
0.0
  0
ARC
  5
98
330
1F
100
AcDbEntity
  8
외형선
  6
Continuous
 62
     1
370
    15
100
AcDbCircle
 10
40.48125000000006
 20
-0.0000000000000002
 30
0.0
 40
3.968749999999961
100
AcDbArc
 50
336.1816493785897
 51
0.0
  0
ARC
  5
99
330
1F
100
AcDbEntity
  8
외형선
  6
Continuous
 62
     1
370
    15
100
AcDbCircle
 10
40.48125000000006
 20
-0.0000000000000002
 30
0.0
 40
3.968749999999961
100
AcDbArc
 50
0.0
 51
23.82637866509954
  0
LINE
  5
9A
330
1F
100
AcDbEntity
  8
외형선
  6
Continuous
 62
     1
370
    15
100
AcDbLine
 10
39.20623964350734
 20
3.96874999999998
 30
0.0
 11
36.7877419935256
 21
3.96874999999998
 31
0.0
  0
LINE
  5
9B
330
1F
100
AcDbEntity
  8
외형선
  6
Continuous
 62
     1
370
    15
100
AcDbLine
 10
25.98981279091821
 20
-3.968749999999984
 30
0.0
 11
28.41034068864095
 21
-3.968749999999984
 31
0.0
  0
LINE
  5
9C
330
1F
100
AcDbEntity
  8
외형선
  6
Continuous
370
    15
100
AcDbLine
 10
-21.43768467149215
 20
-4.762500000000006
 30
0.0
 11
21.43768467149216
 21
-4.762500000000006
 31
0.0
  0
LINE
  5
9D
330
1F
100
AcDbEntity
  8
외형선
  6
Continuous
370
    15
100
AcDbLine
 10
21.43768467149216
 20
4.762500000000003
 30
0.0
 11
4.838700000000028
 21
4.762500000000003
 31
0.0
  0
LINE
  5
9E
330
1F
100
AcDbEntity
  8
외형선
  6
Continuous
370
    15
100
AcDbLine
 10
21.43768467149216
 20
-4.76250000000001
 30
0.0
 11
24.39999999999998
 21
-3.968750000000002
 31
0.0
  0
LINE
  5
9F
330
1F
100
AcDbEntity
  8
외형선
  6
Continuous
370
    15
100
AcDbLine
 10
24.39999999999998
 20
3.968749999999998
 30
0.0
 11
21.43768467149216
 21
4.762500000000006
 31
0.0
  0
LINE
  5
A2
330
1F
100
AcDbEntity
  8
외형선
  6
Continuous
370
    15
100
AcDbLine
 10
24.39999999999998
 20
-3.968750000000002
 30
0.0
 11
25.39999999999998
 21
-3.968750000000002
 31
0.0
  0
LINE
  5
A3
330
1F
100
AcDbEntity
  8
외형선
  6
Continuous
370
    15
100
AcDbLine
 10
25.39999999999998
 20
3.968749999999998
 30
0.0
 11
24.39999999999998
 21
3.968749999999998
 31
0.0
  0
SPLINE
  5
A4
330
1F
100
AcDbEntity
  8
외형선
  6
Continuous
 62
     1
370
    15
100
AcDbSpline
210
0.0
220
0.0
230
1.0
 70
     8
 71
     3
 72
    15
 73
    11
 74
     0
 42
0.000000001
 43
0.00000001
 40
0.0
 40
0.0
 40
0.0
 40
0.0
 40
0.1236950615906552
 40
0.247303960123899
 40
0.3708643693594264
 40
0.4944142740438183
 40
0.6179917264180597
 40
0.7416346018156468
 40
0.8872999393352697
 40
0.9999999999999999
 40
0.9999999999999999
 40
0.9999999999999999
 40
0.9999999999999999
 10
25.39999999999998
 20
0.3400478548587924
 30
0.0
 10
25.86959608088441
 20
0.0687209293085071
 30
0.0
 10
26.80846113311826
 20
-0.4737439218662555
 30
0.0
 10
28.21613995080547
 20
-1.271685695252659
 30
0.0
 10
29.62317716229081
 20
-2.015419567021228
 30
0.0
 10
31.03006579839485
 20
-2.674795783540912
 30
0.0
 10
32.43733124505853
 20
-3.223924090247726
 30
0.0
 10
33.92869604080071
 20
-3.656854221657699
 30
0.0
 10
35.3790250618838
 20
-3.931366666647933
 30
0.0
 10
36.35988626114921
 20
-3.943336954676642
 30
0.0
 10
36.78774199352564
 20
-3.948558444073019
 30
0.0
  0
SPLINE
  5
A5
330
1F
100
AcDbEntity
  8
외형선
  6
Continuous
 62
     1
370
    15
100
AcDbSpline
210
0.0
220
0.0
230
1.0
 70
     8
 71
     3
 72
    12
 73
     8
 74
     0
 42
0.000000001
 43
0.00000001
 40
0.0
 40
0.0
 40
0.0
 40
0.0
 40
0.0762607937902314
 40
0.3071955738535868
 40
0.5381303682183979
 40
0.7690651769215633
 40
1.0
 40
1.0
 40
1.0
 40
1.0
 10
32.58397031132091
 20
-3.243215988743664
 30
0.0
 10
32.40136118994908
 20
-3.307287391371156
 30
0.0
 10
31.66577071098001
 20
-3.565381364952084
 30
0.0
 10
30.37709573569517
 20
-3.838553565731425
 30
0.0
 10
28.71807225155957
 20
-4.002660267629252
 30
0.0
 10
27.05903439148905
 20
-3.939329920704056
 30
0.0
 10
25.95301147530431
 20
-3.709391879192709
 30
0.0
 10
25.39999999999998
 20
-3.594422854858728
 30
0.0
  0
SPLINE
  5
A6
330
1F
100
AcDbEntity
  8
외형선
  6
Continuous
 62
     1
370
    15
100
AcDbSpline
210
0.0
220
0.0
230
1.0
 70
     8
 71
     3
 72
    12
 73
     8
 74
     0
 42
0.000000001
 43
0.00000001
 40
0.0
 40
0.0
 40
0.0
 40
0.0
 40
0.1597133643239494
 40
0.3697850067469853
 40
0.579856660144724
 40
0.7899283245510924
 40
1.0
 40
1.0
 40
1.0
 40
1.0
 10
32.58397031132087
 20
3.243215988743662
 30
0.0
 10
33.00434723753895
 20
3.374427112099291
 30
0.0
 10
33.97764765704886
 20
3.678220763561841
 30
0.0
 10
35.50418316025349
 20
3.935858631613007
 30
0.0
 10
37.16318931491766
 20
3.999788966230127
 30
0.0
 10
38.82222305236017
 20
3.841829771846514
 30
0.0
 10
39.92824100776369
 20
3.553465941362292
 30
0.0
 10
40.48125000000008
 20
3.40928402233068
 30
0.0
  0
SPLINE
  5
A7
330
1F
100
AcDbEntity
  8
외형선
  6
Continuous
 62
     1
370
    15
100
AcDbSpline
210
0.0
220
0.0
230
1.0
 70
     8
 71
     3
 72
    44
 73
    40
 74
     0
 42
0.000000001
 43
0.00000001
 40
0.0
 40
0.0
 40
0.0
 40
0.0
 40
0.0625000000000006
 40
0.0625000000000006
 40
0.1250000000000012
 40
0.1250000000000012
 40
0.1875000000000019
 40
0.1875000000000019
 40
0.2500000000000025
 40
0.2500000000000025
 40
0.3125000000000031
 40
0.3125000000000031
 40
0.3750000000000038
 40
0.3750000000000038
 40
0.4375000000000044
 40
0.4375000000000044
 40
0.4687500000000041
 40
0.4687500000000041
 40
0.5000000000000039
 40
0.5000000000000039
 40
0.5312500000000037
 40
0.5312500000000037
 40
0.5625000000000034
 40
0.5625000000000034
 40
0.5937500000000031
 40
0.5937500000000031
 40
0.6250000000000029
 40
0.6250000000000029
 40
0.6875000000000024
 40
0.6875000000000024
 40
0.7500000000000019
 40
0.7500000000000019
 40
0.8125000000000014
 40
0.8125000000000014
 40
0.875000000000001
 40
0.875000000000001
 40
0.9375000000000004
 40
0.9375000000000004
 40
1.0
 40
1.0
 40
1.0
 40
1.0
 10
40.48125000000007
 20
3.409284022330659
 30
0.0
 10
40.68269665842752
 20
3.349580664545246
 30
0.0
 10
40.88345488074052
 20
3.275432505058308
 30
0.0
 10
41.28634037971295
 20
3.102154949205116
 30
0.0
 10
41.49010034156753
 20
3.002117680161215
 30
0.0
 10
41.89263918281019
 20
2.780878735274722
 30
0.0
 10
42.08842739585256
 20
2.661365831901419
 30
0.0
 10
42.46957544274563
 20
2.405394805973893
 30
0.0
 10
42.65657697841225
 20
2.267312034476901
 30
0.0
 10
43.0060324103216
 20
1.977436896947934
 30
0.0
 10
43.16876764690301
 20
1.825825361210626
 30
0.0
 10
43.46697546218572
 20
1.502188663100464
 30
0.0
 10
43.60286716232056
 20
1.329023804379754
 30
0.0
 10
43.83243160649155
 20
0.9638664773597502
 30
0.0
 10
43.92804390231037
 20
0.7698992987557026
 30
0.0
 10
44.03300718126185
 20
0.455304488212058
 30
0.0
 10
44.06101499759747
 20
0.3480467984484736
 30
0.0
 10
44.1016479895404
 20
0.1273960349999299
 30
0.0
 10
44.11430205916649
 20
0.0127482027228451
 30
0.0
 10
44.1211266349055
 20
-0.2174674286040146
 30
0.0
 10
44.1155355766802
 20
-0.332783607615892
 30
0.0
 10
44.08414395348398
 20
-0.5640703231199725
 30
0.0
 10
44.05848274461442
 20
-0.6773365175786856
 30
0.0
 10
43.98862559802
 20
-0.8913523805878052
 30
0.0
 10
43.94328806603788
 20
-0.9947405227438918
 30
0.0
 10
43.83783138372961
 20
-1.179749031356427
 30
0.0
 10
43.77725261257293
 20
-1.262868908559746
 30
0.0
 10
43.57718831919509
 20
-1.47966675614941
 30
0.0
 10
43.42244243154197
 20
-1.577322236536411
 30
0.0
 10
43.09819956458629
 20
-1.691678004259197
 30
0.0
 10
42.92478399419824
 20
-1.709971367309417
 30
0.0
 10
42.57437708349018
 20
-1.689009112436116
 30
0.0
 10
42.39354295496485
 20
-1.650041912742741
 30
0.0
 10
42.02623611407503
 20
-1.532590602194152
 30
0.0
 10
41.8418759825941
 20
-1.455057119390654
 30
0.0
 10
41.46459653692899
 20
-1.276281832147708
 30
0.0
 10
41.27037523896757
 20
-1.173800590856093
 30
0.0
 10
40.87984384573132
 20
-0.9589302221090283
 30
0.0
 10
40.6826313799073
 20
-0.8461669490024387
 30
0.0
 10
40.4812500000004
 20
-0.7315766553053443
 30
0.0
  0
SPLINE
  5
A8
330
1F
100
AcDbEntity
  8
외형선
  6
Continuous
 62
     1
370
    15
100
AcDbSpline
210
0.0
220
0.0
230
1.0
 70
     8
 71
     3
 72
    16
 73
    12
 74
     0
 42
0.000000001
 43
0.00000001
 40
0.0
 40
0.0
 40
0.0
 40
0.0
 40
0.1166488009742062
 40
0.2332346597370495
 40
0.3497932984865967
 40
0.4663606142136331
 40
0.5829724481559889
 40
0.6996643560041226
 40
0.8370871124758549
 40
0.9745098774579792
 40
1.0
 40
1.0
 40
1.0
 40
1.0
 10
40.48125000000005
 20
-0.7315766553051426
 30
0.0
 10
40.01188139287955
 20
-0.4623516334722784
 30
0.0
 10
39.07339744397711
 20
0.0759531397912952
 30
0.0
 10
37.66612290449872
 20
0.8886782061320693
 30
0.0
 10
36.25922632828319
 20
1.661895327773013
 30
0.0
 10
34.85220417858041
 20
2.366594623386848
 30
0.0
 10
33.44455415497256
 20
2.971220815696661
 30
0.0
 10
31.95272295515492
 20
3.484551927764909
 30
0.0
 10
30.37710227100439
 20
3.831523742085686
 30
0.0
 10
29.16850518258956
 20
3.991748350674413
 30
0.0
 10
28.51291710634765
 20
3.956801408036142
 30
0.0
 10
28.4103406886409
 20
3.951333443752552
 30
0.0
  0
SPLINE
  5
A9
330
1F
100
AcDbEntity
  8
외형선
  6
Continuous
 62
     1
370
    15
100
AcDbSpline
210
0.0
220
0.0
230
1.0
 70
     8
 71
     3
 72
    36
 73
    32
 74
     0
 42
0.000000001
 43
0.00000001
 40
0.0
 40
0.0
 40
0.0
 40
0.0
 40
0.0624999999999999
 40
0.0624999999999999
 40
0.1249999999999998
 40
0.1249999999999998
 40
0.1874999999999996
 40
0.1874999999999996
 40
0.2499999999999995
 40
0.2499999999999995
 40
0.3124999999999994
 40
0.3124999999999994
 40
0.3749999999999992
 40
0.3749999999999992
 40
0.4374999999999991
 40
0.4374999999999991
 40
0.499999999999999
 40
0.499999999999999
 40
0.5624999999999989
 40
0.5624999999999989
 40
0.6249999999999988
 40
0.6249999999999988
 40
0.6874999999999987
 40
0.6874999999999987
 40
0.7499999999999984
 40
0.7499999999999984
 40
0.8124999999999983
 40
0.8124999999999983
 40
0.8749999999999982
 40
0.8749999999999982
 40
1.0
 40
1.0
 40
1.0
 40
1.0
 10
25.39999999999997
 20
3.954155285128014
 30
0.0
 10
25.71191725150439
 20
3.969660788229838
 30
0.0
 10
26.02773208308929
 20
3.972840413945981
 30
0.0
 10
26.65832183608541
 20
3.954192756545927
 30
0.0
 10
26.97069742157803
 20
3.932463895834069
 30
0.0
 10
27.5977331748644
 20
3.864556145685088
 30
0.0
 10
27.91410971619645
 20
3.818242027606534
 30
0.0
 10
28.54369306160991
 20
3.702097777215379
 30
0.0
 10
28.85477161398986
 20
3.632496955888164
 30
0.0
 10
29.48402104693614
 20
3.470486315777079
 30
0.0
 10
29.80045036398384
 20
3.378135084771455
 30
0.0
 10
30.42802624160906
 20
3.173393190216466
 30
0.0
 10
30.73995683632869
 20
3.060987280011944
 30
0.0
 10
31.37042066061281
 20
2.81689803837662
 30
0.0
 10
31.6863935351186
 20
2.685487041667027
 30
0.0
 10
32.31097151994349
 20
2.407780975856626
 30
0.0
 10
32.62589872348137
 20
2.260563789581779
 30
0.0
 10
33.25657120119249
 20
1.952711797173997
 30
0.0
 10
33.56948374006312
 20
1.792567198662693
 30
0.0
 10
34.19593697403868
 20
1.46199579864868
 30
0.0
 10
34.51223889154979
 20
1.29105821067495
 30
0.0
 10
35.14211317509766
 20
0.9426349848037944
 30
0.0
 10
35.453283984817
 20
0.765624409337228
 30
0.0
 10
36.08215660706356
 20
0.406699999874272
 30
0.0
 10
36.39861683951413
 20
0.225009326069575
 30
0.0
 10
37.02669032391397
 20
-0.1377194410338924
 30
0.0
 10
37.3382679915453
 20
-0.3187487205290057
 30
0.0
 10
37.96856271188212
 20
-0.6790454138504061
 30
0.0
 10
38.28467187449122
 20
-0.8577988638076182
 30
0.0
 10
39.2225913163098
 20
-1.382403355677895
 30
0.0
 10
39.85542154823727
 20
-1.720445412893649
 30
0.0
 10
40.48125000000008
 20
-2.031688710797166
 30
0.0
  0
SPLINE
  5
AA
330
1F
100
AcDbEntity
  8
외형선
  6
Continuous
 62
     1
370
    15
100
AcDbSpline
210
0.0
220
0.0
230
1.0
 70
     8
 71
     3
 72
    17
 73
    13
 74
     0
 42
0.000000001
 43
0.00000001
 40
0.0
 40
0.0
 40
0.0
 40
0.0
 40
0.1153596965724315
 40
0.2340935797070371
 40
0.3484425561026858
 40
0.4662949501507139
 40
0.5782420873846122
 40
0.69296506049272
 40
0.7863662734570984
 40
0.8818798914150378
 40
0.9983477577901911
 40
1.0
 40
1.0
 40
1.0
 40
1.0
 10
40.48125000000007
 20
-2.031688710797157
 30
0.0
 10
40.66341556582852
 20
-2.115194045570997
 30
0.0
 10
41.03307490675242
 20
-2.284647184948572
 30
0.0
 10
41.59010329091884
 20
-2.431742775965107
 30
0.0
 10
42.13929208501981
 20
-2.488671093861791
 30
0.0
 10
42.65220060677208
 20
-2.445714601269772
 30
0.0
 10
43.12079711619047
 20
-2.317646943862882
 30
0.0
 10
43.49741490385225
 20
-2.140902570572754
 30
0.0
 10
43.79290994994084
 20
-1.943153321203906
 30
0.0
 10
44.00338441443493
 20
-1.756901359646166
 30
0.0
 10
44.11988376184851
 20
-1.617127540972862
 30
0.0
 10
44.11151306870521
 20
-1.602872779991501
 30
0.0
 10
44.11139598099933
 20
-1.602673387034059
 30
0.0
  0
SPLINE
  5
AB
330
1F
100
AcDbEntity
  8
외형선
  6
Continuous
 62
     1
370
    15
100
AcDbSpline
210
0.0
220
0.0
230
1.0
 70
     8
 71
     3
 72
    15
 73
    11
 74
     0
 42
0.000000001
 43
0.00000001
 40
0.0
 40
0.0
 40
0.0
 40
0.0
 40
0.067648786235418
 40
0.1576015543137291
 40
0.2774062027588222
 40
0.4005791703522373
 40
0.5616089305609812
 40
0.7272034290567013
 40
0.8625016323510994
 40
1.0
 40
1.0
 40
1.0
 40
1.0
 10
43.41326947612018
 20
-2.167328334905836
 30
0.0
 10
43.35695811498507
 20
-2.22165337304078
 30
0.0
 10
43.22576938959495
 20
-2.348214556539697
 30
0.0
 10
42.97711587241342
 20
-2.580480746403535
 30
0.0
 10
42.6684310804974
 20
-2.851636886586056
 30
0.0
 10
42.28137247330477
 20
-3.156328555163404
 30
0.0
 10
41.83890616956691
 20
-3.449784088655673
 30
0.0
 10
41.37097056355144
 20
-3.680209145563325
 30
0.0
 10
40.91651759418405
 20
-3.835202420732507
 30
0.0
 10
40.62711722394441
 20
-3.878776961030372
 30
0.0
 10
40.48125000000041
 20
-3.900739950305823
 30
0.0
  0
SPLINE
  5
AC
330
1F
100
AcDbEntity
  8
외형선
  6
Continuous
 62
     1
370
    15
100
AcDbSpline
210
0.0
220
0.0
230
1.0
 70
     8
 71
     3
 72
    36
 73
    32
 74
     0
 42
0.000000001
 43
0.00000001
 40
0.0
 40
0.0
 40
0.0
 40
0.0
 40
0.0625
 40
0.0625
 40
0.125
 40
0.125
 40
0.1875
 40
0.1875
 40
0.25
 40
0.25
 40
0.3125
 40
0.3125
 40
0.375
 40
0.375
 40
0.4375
 40
0.4375
 40
0.5
 40
0.5
 40
0.5625
 40
0.5625
 40
0.625
 40
0.625
 40
0.6875
 40
0.6875
 40
0.75
 40
0.75
 40
0.8125
 40
0.8125
 40
0.875
 40
0.875
 40
1.0
 40
1.0
 40
1.0
 40
1.0
 10
25.39999999999998
 20
1.682587561753912
 30
0.0
 10
25.71191725150442
 20
1.518689057678845
 30
0.0
 10
26.02773208308929
 20
1.348837783731928
 30
0.0
 10
26.6583218360854
 20
1.001898340052644
 30
0.0
 10
26.97069742157803
 20
0.825279085487427
 30
0.0
 10
27.59773317486436
 20
0.4675695154101685
 30
0.0
 10
27.91410971619643
 20
0.2861412628490526
 30
0.0
 10
28.5436930616099
 20
-0.0767733779294314
 30
0.0
 10
28.85477161398984
 20
-0.2578448580493582
 30
0.0
 10
29.48402104693612
 20
-0.618602111824886
 30
0.0
 10
29.80045036398384
 20
-0.797941200901104
 30
0.0
 10
30.42802624160908
 20
-1.149511618187559
 30
0.0
 10
30.7399568363287
 20
-1.32190939093617
 30
0.0
 10
31.3704206606128
 20
-1.658542100045909
 30
0.0
 10
31.68639353511863
 20
-1.822283837152409
 30
0.0
 10
32.3109715199435
 20
-2.136124088460779
 30
0.0
 10
32.62589872348136
 20
-2.287288314288423
 30
0.0
 10
33.25657120119247
 20
-2.574426985189447
 30
0.0
 10
33.56948374006315
 20
-2.709992538657072
 30
0.0
 10
34.19593697403869
 20
-2.963468840724389
 30
0.0
 10
34.51223889154977
 20
-3.081706360240065
 30
0.0
 10
35.14211317509763
 20
-3.297755817204061
 30
0.0
 10
35.45328398481697
 20
-3.395371758164122
 30
0.0
 10
36.08215660706349
 20
-3.569440949614326
 30
0.0
 10
36.39861683951408
 20
-3.645690280825088
 30
0.0
 10
37.02669032391394
 20
-3.774503749439281
 30
0.0
 10
37.3382679915453
 20
-3.827151133904315
 30
0.0
 10
37.9685627118821
 20
-3.908527365302642
 30
0.0
 10
38.28467187449122
 20
-3.937053177520567
 30
0.0
 10
39.22259131630976
 20
-3.98523482301912
 30
0.0
 10
39.8554215482372
 20
-3.967527677399023
 30
0.0
 10
40.48125000000005
 20
-3.90073995030589
 30
0.0
  0
LINE
  5
AD
330
1F
100
AcDbEntity
  8
외형선
  6
Continuous
370
    15
100
AcDbLine
 10
25.39999999999998
 20
0.3400478548587919
 30
0.0
 11
25.39999999999998
 21
1.682587561753912
 31
0.0
  0
SPLINE
  5
AE
330
1F
100
AcDbEntity
  8
외형선
  6
Continuous
 62
     1
370
    15
100
AcDbSpline
210
0.0
220
0.0
230
1.0
 70
     8
 71
     3
 72
    23
 73
    19
 74
     0
 42
0.000000001
 43
0.00000001
 40
0.0
 40
0.0
 40
0.0
 40
0.0
 40
0.0199778806759954
 40
0.0879562887538384
 40
0.1574721279219255
 40
0.2422386946197839
 40
0.3098340499640486
 40
0.3778651228828782
 40
0.4366257100843851
 40
0.4960984455201483
 40
0.5393095376045388
 40
0.5837567177100098
 40
0.6429542154710111
 40
0.7038160565428022
 40
0.7833835774456367
 40
0.8652066125378615
 40
0.9320597371080515
 40
1.0
 40
1.0
 40
1.0
 40
1.0
 10
43.41326947612016
 20
2.167328334905832
 30
0.0
 10
43.44596639878456
 20
2.152806044248054
 30
0.0
 10
43.58992060583346
 20
2.088868992506745
 30
0.0
 10
43.78779438221416
 20
1.943255648295814
 30
0.0
 10
44.01337118110224
 20
1.749386030107884
 30
0.0
 10
44.13128962013231
 20
1.591857570231209
 30
0.0
 10
44.11437720764858
 20
1.545755369838644
 30
0.0
 10
43.97470007618354
 20
1.638494432692135
 30
0.0
 10
43.74476902217116
 20
1.8465199229488
 30
0.0
 10
43.49389598567932
 20
2.089956833177347
 30
0.0
 10
43.24235900999734
 20
2.332542280092014
 30
0.0
 10
42.97754781617941
 20
2.580142784302335
 30
0.0
 10
42.66829890097815
 20
2.851740306687424
 30
0.0
 10
42.28142071068907
 20
3.156290813195497
 30
0.0
 10
41.83889127532422
 20
3.44979574223178
 30
0.0
 10
41.3709737690374
 20
3.680206637522088
 30
0.0
 10
40.91651684717574
 20
3.835203005207898
 30
0.0
 10
40.62711697360637
 20
3.878777156900228
 30
0.0
 10
40.4812500000004
 20
3.900739950305819
 30
0.0
  0
LINE
  5
AF
330
1F
100
AcDbEntity
  8
외형선
  6
Continuous
 62
     1
370
    15
100
AcDbLine
 10
25.39999999999997
 20
-3.954155285128018
 30
0.0
 11
25.98981279091822
 21
-3.948505915116425
 31
0.0
  0
LINE
  5
B0
330
1F
100
AcDbEntity
  8
외형선
  6
Continuous
 62
     1
370
    15
100
AcDbLine
 10
40.48125000000008
 20
3.900739950305885
 30
0.0
 11
39.20623964350734
 21
3.961646765850087
 31
0.0
  0
LINE
  5
B1
330
1F
100
AcDbEntity
  8
외형선
  6
Continuous
370
    15
100
AcDbLine
 10
25.39999999999998
 20
-3.954155285128018
 30
0.0
 11
25.39999999999998
 21
-3.594422854858728
 31
0.0
  0
LINE
  5
B2
330
1F
100
AcDbEntity
  8
외형선
  6
Continuous
370
    15
100
AcDbLine
 10
21.43768467149216
 20
-0.0000000000000019
 30
0.0
 11
21.43768467149216
 21
4.762500000000003
 31
0.0
  0
LINE
  5
B3
330
1F
100
AcDbEntity
  8
외형선
  6
Continuous
370
    15
100
AcDbLine
 10
21.43768467149216
 20
-4.762500000000006
 30
0.0
 11
21.43768467149216
 21
-0.0000000000000019
 31
0.0
  0
LINE
  5
B6
330
1F
100
AcDbEntity
  8
외형선
  6
Continuous
370
    15
100
AcDbLine
 10
24.39999999999998
 20
-0.0000000000000019
 30
0.0
 11
24.39999999999998
 21
3.968749999999998
 31
0.0
  0
LINE
  5
B7
330
1F
100
AcDbEntity
  8
외형선
  6
Continuous
370
    15
100
AcDbLine
 10
24.39999999999998
 20
-3.968750000000002
 30
0.0
 11
24.39999999999998
 21
-0.0000000000000019
 31
0.0
  0
LINE
  5
BA
330
1F
100
AcDbEntity
  8
외형선
  6
Continuous
370
    15
100
AcDbLine
 10
25.39999999999998
 20
-0.0000000000000019
 30
0.0
 11
25.39999999999998
 21
3.968749999999998
 31
0.0
  0
LINE
  5
BB
330
1F
100
AcDbEntity
  8
외형선
  6
Continuous
370
    15
100
AcDbLine
 10
25.39999999999998
 20
-3.968750000000002
 30
0.0
 11
25.39999999999998
 21
-0.0000000000000019
 31
0.0
  0
LINE
  5
BC
330
1F
100
AcDbEntity
  8
중심선
 62
     1
100
AcDbLine
 10
-47.45000000000002
 20
-0.0000000000000058
 30
0.0
 11
47.45000000000002
 21
0.0000000000000058
 31
0.0
  0
LINE
  5
BE
330
1F
100
AcDbEntity
  8
참조1
100
AcDbLine
 10
0.0000000000000036
 20
-0.0000000000000059
 30
0.0
 11
0.0000000000000089
 21
-40.00000000000001
 31
0.0
  0
LINE
  5
BF
330
1F
100
AcDbEntity
  8
참조1
100
AcDbLine
 10
0.0000000000000089
 20
-40.00000000000001
 30
0.0
 11
-20.71510681430868
 21
-40.0
 31
0.0
  0
CIRCLE
  5
C0
330
1F
100
AcDbEntity
  8
해칭선
100
AcDbCircle
 10
-0.0000000000000071
 20
-0.000000000000001
 30
0.0
 40
3.000000000000001
  0
INSERT
  5
C1
330
1F
100
AcDbEntity
  8
0
  6
Continuous
 62
     7
100
AcDbBlockReference
 66
     1
  2
블럭10
 10
-13.9402729321252
 20
-52.04717430164393
 30
0.0
  0
ATTRIB
  5
C2
330
C1
100
AcDbEntity
  8
FORMAT
 62
     2
100
AcDbText
 10
-23.12156822086649
 20
-49.97180738881175
 30
0.0
 40
4.233333333333333
  1
E2069020 [ 4 FLUTE ]
 41
0.75
  7
SLDTEXTSTYLE0
 11
-23.12156822086649
 21
-52.08847405547841
 31
0.0
100
AcDbAttribute
  2
AUTOATTR0
 70
     0
 74
     1
  0
SEQEND
  5
C3
330
C1
100
AcDbEntity
  8
0
  6
Continuous
 62
     7
  0
HATCH
  5
C4
330
1F
100
AcDbEntity
  8
중심선
100
AcDbHatch
 10
0.0
 20
0.0
 30
0.0
210
0.0
220
0.0
230
1.0
  2
SOLID
 70
     1
 71
     0
 91
        1
 92
        0
 93
        4
 72
     1
 10
-8.225363627744368
 20
-35.8
 11
-11.67163887158165
 21
-35.8
 72
     1
 10
-11.67163887158165
 20
-35.8
 11
-13.79986873078567
 21
-38.3363255805726
 72
     1
 10
-13.79986873078567
 20
-38.3363255805726
 11
-10.35356040183524
 21
-38.33628615127011
 72
     1
 10
-10.35356040183524
 20
-38.33628615127011
 11
-8.225363627744368
 21
-35.8
 97
        0
 75
     0
 76
     1
 98
        1
 10
8.963238685968797
 20
-0.0010749287238951
  0
HATCH
  5
C5
330
1F
100
AcDbEntity
  8
중심선
100
AcDbHatch
 10
0.0
 20
0.0
 30
0.0
210
0.0
220
0.0
230
1.0
  2
SOLID
 70
     1
 71
     0
 91
        1
 92
        0
 93
        4
 72
     1
 10
-3.212599636708388
 20
-35.8
 11
-6.658874880545671
 21
-35.8
 72
     1
 10
-6.658874880545671
 20
-35.8
 11
-11.19001288890309
 21
-41.20000000000002
 72
     1
 10
-11.19001288890309
 20
-41.20000000000002
 11
-7.743737645065803
 21
-41.20000000000002
 72
     1
 10
-7.743737645065803
 20
-41.20000000000002
 11
-3.212599636708388
 21
-35.8
 97
        0
 75
     0
 76
     1
 98
        1
 10
8.963238685968797
 20
-0.0010749287238951
  0
HATCH
  5
C6
330
1F
100
AcDbEntity
  8
중심선
100
AcDbHatch
 10
0.0
 20
0.0
 30
0.0
210
0.0
220
0.0
230
1.0
  2
SOLID
 70
     1
 71
     0
 91
        1
 92
        0
 93
        4
 72
     1
 10
1.80016435432748
 20
-35.8
 11
-1.646110889509636
 21
-35.8
 72
     1
 10
-1.646110889509636
 20
-35.8
 11
-8.694547791398886
 21
-44.20000000000002
 72
     1
 10
-8.694547791398886
 20
-44.20000000000002
 11
-5.248272547561603
 21
-44.20000000000002
 72
     1
 10
-5.248272547561603
 20
-44.20000000000002
 11
1.80016435432748
 21
-35.8
 97
        0
 75
     0
 76
     1
 98
        1
 10
8.963238685968797
 20
-0.0010749287238951
  0
HATCH
  5
C7
330
1F
100
AcDbEntity
  8
중심선
100
AcDbHatch
 10
0.0
 20
0.0
 30
0.0
210
0.0
220
0.0
230
1.0
  2
SOLID
 70
     1
 71
     0
 91
        1
 92
        0
 93
        6
 72
     3
 10
6.60005478533968
 20
-40.00000000005127
 11
3.960054785062283
 21
1.540882976769353E-10
 40
0.3939339440162628
 50
17.09539180608437
 51
320.0019657685086
 73
     0
 72
     1
 10
8.283054441040274
 20
-38.58789400463833
 11
10.58835631474134
 21
-36.65356729459038
 72
     3
 10
6.600054785286833
 20
-40.00000000000015
 11
6.600054785286829
 21
-1.278976924368180E-13
 40
0.636358354079598
 50
39.99873849337386
 51
368.4976242363725
 73
     1
 72
     1
 10
13.02538727718744
 20
-39.03999999993002
 11
5.280122092122782
 21
-39.03999999993002
 72
     1
 10
5.280122092122783
 20
-39.03999999993002
 11
5.280097047676821
 21
-40.95999999992991
 72
     1
 10
5.280097047676821
 20
-40.95999999992991
 11
9.721476817148858
 21
-40.95999999992988
 97
        0
 75
     0
 76
     1
 98
        1
 10
8.963238685968797
 20
-0.0010749287238951
  0
DIMENSION
  5
C8
330
1F
100
AcDbEntity
  8
치수문자_일반주서
100
AcDbDimension
  2
_D
 10
25.40000000000001
 20
22.82277225922702
 30
0.0
 11
34.92500000000001
 21
22.82277225922702
 31
0.0
 70
   160
  1
<>
 71
     2
 42
19.05000000000001
  3
SLDDIMSTYLE0
100
AcDbAlignedDimension
 13
44.45000000000002
 23
1.315014629548137
 33
0.0
 14
25.40000000000001
 24
3.968749999999991
 34
0.0
 50
0.0000000000000214
100
AcDbRotatedDimension
1001
ACAD
1000
DSTYLE
1002
{
1070
   171
1070
     6
1070
   273
1070
     7
1002
}
  0
DIMENSION
  5
DD
330
1F
100
AcDbEntity
  8
치수문자_일반주서
100
AcDbDimension
  2
_D_1
 10
-44.45000000000002
 20
35.75282056895201
 30
0.0
 11
0.0000000000000018
 21
35.75282056895201
 31
0.0
 70
   160
  1
<>
 71
     2
 42
88.90000000000003
  3
SLDDIMSTYLE1
100
AcDbAlignedDimension
 13
44.45000000000002
 23
1.315014629548137
 33
0.0
 14
-44.45000000000002
 24
3.810000000000006
 34
0.0
 50
0.0000000000000046
100
AcDbRotatedDimension
1001
ACAD
1000
DSTYLE
1002
{
1070
   171
1070
     6
1070
   273
1070
     7
1002
}
  0
DIMENSION
  5
F1
330
1F
100
AcDbEntity
  8
치수문자_일반주서
100
AcDbDimension
  2
_D_2
 10
55.73186624122813
 20
-3.968749999999883
 30
0.0
 11
55.73186624122803
 21
24.57275000000008
 31
0.0
 70
   160
  1
%%c<>
 71
     2
 42
7.937499999999964
 52
-270.0
  3
SLDDIMSTYLE0
100
AcDbAlignedDimension
 13
28.41032633314275
 23
3.96874999999998
 33
0.0
 14
28.41032633314279
 24
-3.968749999999984
 34
0.0
 50
90.0000000000002
100
AcDbRotatedDimension
1001
ACAD
1000
DSTYLE
1002
{
1070
   171
1070
     6
1070
   273
1070
     7
1002
}
  0
DIMENSION
  5
104
330
1F
100
AcDbEntity
  8
치수문자_일반주서
100
AcDbDimension
  2
_D_3
 10
-57.45000000000002
 20
-4.762500000000141
 30
0.0
 11
-57.45000000000004
 21
-0.000000000000001
 31
0.0
 70
   160
  1
%%c<>
 71
     2
 42
9.52500000000002
 52
-270.0
  3
SLDDIMSTYLE2
100
AcDbAlignedDimension
 13
-21.43768467149216
 23
4.762500000000013
 33
0.0
 14
-21.43768467149215
 24
-4.762500000000006
 34
0.0
 50
90.0000000000002
100
AcDbRotatedDimension
1001
ACAD
1000
DSTYLE
1002
{
1070
   171
1070
     6
1070
   273
1070
     7
1002
}
  0
LINE
  5
119
330
1F
100
AcDbEntity
  8
참조1
100
AcDbLine
 10
77.25723381534559
 20
7.44
 30
0.0
 11
77.25723381534559
 21
-7.440000000000004
 31
0.0
  0
LINE
  5
11A
330
1F
100
AcDbEntity
  8
참조1
100
AcDbLine
 10
89.95723381534557
 20
5.44
 30
0.0
 11
77.25723381534559
 21
5.44
 31
0.0
  0
SOLID
  5
11B
330
1F
100
AcDbEntity
  8
참조1
100
AcDbTrace
 10
77.25723381534559
 20
5.44
 30
0.0
 11
83.60723381534558
 21
4.424
 31
0.0
 12
83.60723381534558
 22
6.456
 32
0.0
 13
83.60723381534558
 23
6.456
 33
0.0
  0
LINE
  5
11C
330
1F
100
AcDbEntity
  8
참조1
100
AcDbLine
 10
89.95723381534557
 20
-5.440000000000004
 30
0.0
 11
77.25723381534559
 21
-5.440000000000004
 31
0.0
  0
SOLID
  5
11D
330
1F
100
AcDbEntity
  8
참조1
100
AcDbTrace
 10
77.25723381534559
 20
-5.440000000000004
 30
0.0
 11
83.60723381534558
 21
-6.456000000000004
 31
0.0
 12
83.60723381534558
 22
-4.424000000000004
 32
0.0
 13
83.60723381534558
 23
-4.424000000000004
 33
0.0
  0
MTEXT
  5
11E
330
1F
100
AcDbEntity
  8
참조1
100
AcDbMText
 10
86.65472390781585
 20
10.98821664464993
 30
0.0
 40
3.5
 41
0.0
 71
     1
 72
     1
  1
A
  7
SLDTEXTSTYLE0
 73
     1
 44
1.0
  0
MTEXT
  5
11F
330
1F
100
AcDbEntity
  8
참조1
100
AcDbMText
 10
86.65472390781585
 20
0.1082166446499309
 30
0.0
 40
3.5
 41
0.0
 71
     1
 72
     1
  1
A
  7
SLDTEXTSTYLE0
 73
     1
 44
1.0
  0
INSERT
  5
126
330
1F
100
AcDbEntity
  8
해칭선
100
AcDbBlockReference
  2
SW_DOWELSYMBOL_0
 10
-0.0000000000000071
 20
-0.000000000000001
 30
0.0
  0
LINE
  5
14D
330
1F
100
AcDbEntity
  8
외형선
  6
Continuous
 62
     1
370
    15
100
AcDbLine
 10
-36.78774199352564
 20
3.968749999999988
 30
0.0
 11
-39.20623964350735
 21
3.968749999999989
 31
0.0
  0
LINE
  5
14E
330
1F
100
AcDbEntity
  8
외형선
  6
Continuous
 62
     1
370
    15
100
AcDbLine
 10
-28.4103406886409
 20
-3.968749999999976
 30
0.0
 11
-25.98981279091822
 21
-3.968749999999977
 31
0.0
  0
ARC
  5
14F
330
1F
100
AcDbEntity
  8
외형선
  6
Continuous
 62
     1
370
    15
100
AcDbCircle
 10
-40.48125000000006
 20
0.0000000000000051
 30
0.0
 40
3.968749999999961
100
AcDbArc
 50
156.1816493785896
 51
180.0
  0
ARC
  5
150
330
1F
100
AcDbEntity
  8
외형선
  6
Continuous
 62
     1
370
    15
100
AcDbCircle
 10
-40.48125000000006
 20
0.0000000000000051
 30
0.0
 40
3.968749999999961
100
AcDbArc
 50
180.0
 51
203.8263786650995
  0
LINE
  5
151
330
1F
100
AcDbEntity
  8
외형선
  6
Continuous
 62
     1
370
    15
100
AcDbLine
 10
-39.20623964350734
 20
-3.968749999999975
 30
0.0
 11
-36.7877419935256
 21
-3.968749999999976
 31
0.0
  0
LINE
  5
152
330
1F
100
AcDbEntity
  8
외형선
  6
Continuous
 62
     1
370
    15
100
AcDbLine
 10
-25.98981279091821
 20
3.968749999999987
 30
0.0
 11
-28.41034068864095
 21
3.968749999999988
 31
0.0
  0
LINE
  5
153
330
1F
100
AcDbEntity
  8
외형선
  6
Continuous
370
    15
100
AcDbLine
 10
-21.43768467149216
 20
4.762500000000013
 30
0.0
 11
-24.39999999999998
 21
3.968750000000005
 31
0.0
  0
LINE
  5
154
330
1F
100
AcDbEntity
  8
외형선
  6
Continuous
370
    15
100
AcDbLine
 10
-24.39999999999998
 20
-3.968749999999995
 30
0.0
 11
-21.43768467149216
 21
-4.762500000000004
 31
0.0
  0
LINE
  5
155
330
1F
100
AcDbEntity
  8
외형선
  6
Continuous
370
    15
100
AcDbLine
 10
-24.39999999999998
 20
3.968750000000005
 30
0.0
 11
-25.39999999999998
 21
3.968750000000005
 31
0.0
  0
LINE
  5
156
330
1F
100
AcDbEntity
  8
외형선
  6
Continuous
370
    15
100
AcDbLine
 10
-25.39999999999998
 20
-3.968749999999995
 30
0.0
 11
-24.39999999999998
 21
-3.968749999999995
 31
0.0
  0
SPLINE
  5
157
330
1F
100
AcDbEntity
  8
외형선
  6
Continuous
 62
     1
370
    15
100
AcDbSpline
210
0.0
220
0.0
230
1.0
 70
     8
 71
     3
 72
    15
 73
    11
 74
     0
 42
0.000000001
 43
0.00000001
 40
0.0
 40
0.0
 40
0.0
 40
0.0
 40
0.1236950615906552
 40
0.247303960123899
 40
0.3708643693594264
 40
0.4944142740438183
 40
0.6179917264180597
 40
0.7416346018156468
 40
0.8872999393352697
 40
0.9999999999999999
 40
0.9999999999999999
 40
0.9999999999999999
 40
0.9999999999999999
 10
-25.39999999999998
 20
-0.3400478548587893
 30
0.0
 10
-25.86959608088441
 20
-0.068720929308504
 30
0.0
 10
-26.80846113311826
 20
0.4737439218662587
 30
0.0
 10
-28.21613995080547
 20
1.271685695252662
 30
0.0
 10
-29.62317716229081
 20
2.015419567021231
 30
0.0
 10
-31.03006579839485
 20
2.674795783540916
 30
0.0
 10
-32.43733124505853
 20
3.22392409024773
 30
0.0
 10
-33.92869604080071
 20
3.656854221657703
 30
0.0
 10
-35.3790250618838
 20
3.931366666647937
 30
0.0
 10
-36.35988626114921
 20
3.943336954676647
 30
0.0
 10
-36.78774199352564
 20
3.948558444073023
 30
0.0
  0
SPLINE
  5
158
330
1F
100
AcDbEntity
  8
외형선
  6
Continuous
 62
     1
370
    15
100
AcDbSpline
210
0.0
220
0.0
230
1.0
 70
     8
 71
     3
 72
    12
 73
     8
 74
     0
 42
0.000000001
 43
0.00000001
 40
0.0
 40
0.0
 40
0.0
 40
0.0
 40
0.0762607937902314
 40
0.3071955738535868
 40
0.5381303682183979
 40
0.7690651769215633
 40
1.0
 40
1.0
 40
1.0
 40
1.0
 10
-32.58397031132091
 20
3.243215988743668
 30
0.0
 10
-32.40136118994908
 20
3.30728739137116
 30
0.0
 10
-31.66577071098001
 20
3.565381364952088
 30
0.0
 10
-30.37709573569517
 20
3.838553565731428
 30
0.0
 10
-28.71807225155957
 20
4.002660267629255
 30
0.0
 10
-27.05903439148905
 20
3.939329920704059
 30
0.0
 10
-25.95301147530431
 20
3.709391879192712
 30
0.0
 10
-25.39999999999998
 20
3.594422854858731
 30
0.0
  0
SPLINE
  5
159
330
1F
100
AcDbEntity
  8
외형선
  6
Continuous
 62
     1
370
    15
100
AcDbSpline
210
0.0
220
0.0
230
1.0
 70
     8
 71
     3
 72
    12
 73
     8
 74
     0
 42
0.000000001
 43
0.00000001
 40
0.0
 40
0.0
 40
0.0
 40
0.0
 40
0.1597133643239494
 40
0.3697850067469853
 40
0.579856660144724
 40
0.7899283245510924
 40
1.0
 40
1.0
 40
1.0
 40
1.0
 10
-32.58397031132087
 20
-3.243215988743658
 30
0.0
 10
-33.00434723753895
 20
-3.374427112099287
 30
0.0
 10
-33.97764765704886
 20
-3.678220763561837
 30
0.0
 10
-35.50418316025349
 20
-3.935858631613002
 30
0.0
 10
-37.16318931491766
 20
-3.999788966230122
 30
0.0
 10
-38.82222305236017
 20
-3.841829771846509
 30
0.0
 10
-39.92824100776369
 20
-3.553465941362287
 30
0.0
 10
-40.48125000000008
 20
-3.409284022330675
 30
0.0
  0
SPLINE
  5
15A
330
1F
100
AcDbEntity
  8
외형선
  6
Continuous
 62
     1
370
    15
100
AcDbSpline
210
0.0
220
0.0
230
1.0
 70
     8
 71
     3
 72
    44
 73
    40
 74
     0
 42
0.000000001
 43
0.00000001
 40
0.0
 40
0.0
 40
0.0
 40
0.0
 40
0.0625000000000006
 40
0.0625000000000006
 40
0.1250000000000012
 40
0.1250000000000012
 40
0.1875000000000019
 40
0.1875000000000019
 40
0.2500000000000025
 40
0.2500000000000025
 40
0.3125000000000031
 40
0.3125000000000031
 40
0.3750000000000038
 40
0.3750000000000038
 40
0.4375000000000044
 40
0.4375000000000044
 40
0.4687500000000041
 40
0.4687500000000041
 40
0.5000000000000039
 40
0.5000000000000039
 40
0.5312500000000037
 40
0.5312500000000037
 40
0.5625000000000034
 40
0.5625000000000034
 40
0.5937500000000031
 40
0.5937500000000031
 40
0.6250000000000029
 40
0.6250000000000029
 40
0.6875000000000024
 40
0.6875000000000024
 40
0.7500000000000019
 40
0.7500000000000019
 40
0.8125000000000014
 40
0.8125000000000014
 40
0.875000000000001
 40
0.875000000000001
 40
0.9375000000000004
 40
0.9375000000000004
 40
1.0
 40
1.0
 40
1.0
 40
1.0
 10
-40.48125000000007
 20
-3.409284022330654
 30
0.0
 10
-40.68269665842752
 20
-3.349580664545242
 30
0.0
 10
-40.88345488074052
 20
-3.275432505058304
 30
0.0
 10
-41.28634037971295
 20
-3.102154949205111
 30
0.0
 10
-41.49010034156753
 20
-3.002117680161211
 30
0.0
 10
-41.89263918281019
 20
-2.780878735274717
 30
0.0
 10
-42.08842739585256
 20
-2.661365831901414
 30
0.0
 10
-42.46957544274563
 20
-2.405394805973887
 30
0.0
 10
-42.65657697841225
 20
-2.267312034476896
 30
0.0
 10
-43.0060324103216
 20
-1.977436896947928
 30
0.0
 10
-43.16876764690301
 20
-1.825825361210621
 30
0.0
 10
-43.46697546218572
 20
-1.502188663100459
 30
0.0
 10
-43.60286716232056
 20
-1.329023804379748
 30
0.0
 10
-43.83243160649155
 20
-0.9638664773597448
 30
0.0
 10
-43.92804390231037
 20
-0.7698992987556973
 30
0.0
 10
-44.03300718126185
 20
-0.4553044882120526
 30
0.0
 10
-44.06101499759747
 20
-0.3480467984484683
 30
0.0
 10
-44.1016479895404
 20
-0.1273960349999245
 30
0.0
 10
-44.11430205916649
 20
-0.0127482027228397
 30
0.0
 10
-44.1211266349055
 20
0.21746742860402
 30
0.0
 10
-44.1155355766802
 20
0.3327836076158974
 30
0.0
 10
-44.08414395348398
 20
0.564070323119978
 30
0.0
 10
-44.05848274461442
 20
0.6773365175786911
 30
0.0
 10
-43.98862559802
 20
0.8913523805878106
 30
0.0
 10
-43.94328806603788
 20
0.9947405227438971
 30
0.0
 10
-43.83783138372961
 20
1.179749031356433
 30
0.0
 10
-43.77725261257293
 20
1.262868908559752
 30
0.0
 10
-43.57718831919509
 20
1.479666756149415
 30
0.0
 10
-43.42244243154197
 20
1.577322236536416
 30
0.0
 10
-43.09819956458629
 20
1.691678004259202
 30
0.0
 10
-42.92478399419824
 20
1.709971367309423
 30
0.0
 10
-42.57437708349018
 20
1.689009112436121
 30
0.0
 10
-42.39354295496485
 20
1.650041912742746
 30
0.0
 10
-42.02623611407503
 20
1.532590602194157
 30
0.0
 10
-41.8418759825941
 20
1.455057119390659
 30
0.0
 10
-41.46459653692899
 20
1.276281832147713
 30
0.0
 10
-41.27037523896757
 20
1.173800590856098
 30
0.0
 10
-40.87984384573132
 20
0.9589302221090333
 30
0.0
 10
-40.6826313799073
 20
0.8461669490024437
 30
0.0
 10
-40.4812500000004
 20
0.7315766553053493
 30
0.0
  0
SPLINE
  5
15B
330
1F
100
AcDbEntity
  8
외형선
  6
Continuous
 62
     1
370
    15
100
AcDbSpline
210
0.0
220
0.0
230
1.0
 70
     8
 71
     3
 72
    16
 73
    12
 74
     0
 42
0.000000001
 43
0.00000001
 40
0.0
 40
0.0
 40
0.0
 40
0.0
 40
0.1166488009742062
 40
0.2332346597370495
 40
0.3497932984865967
 40
0.4663606142136331
 40
0.5829724481559889
 40
0.6996643560041226
 40
0.8370871124758549
 40
0.9745098774579792
 40
1.0
 40
1.0
 40
1.0
 40
1.0
 10
-40.48125000000005
 20
0.7315766553051476
 30
0.0
 10
-40.01188139287955
 20
0.4623516334722833
 30
0.0
 10
-39.07339744397711
 20
-0.0759531397912904
 30
0.0
 10
-37.66612290449872
 20
-0.8886782061320646
 30
0.0
 10
-36.25922632828319
 20
-1.661895327773008
 30
0.0
 10
-34.85220417858041
 20
-2.366594623386844
 30
0.0
 10
-33.44455415497256
 20
-2.971220815696657
 30
0.0
 10
-31.95272295515492
 20
-3.484551927764905
 30
0.0
 10
-30.37710227100439
 20
-3.831523742085682
 30
0.0
 10
-29.16850518258956
 20
-3.99174835067441
 30
0.0
 10
-28.51291710634765
 20
-3.956801408036139
 30
0.0
 10
-28.4103406886409
 20
-3.951333443752549
 30
0.0
  0
SPLINE
  5
15C
330
1F
100
AcDbEntity
  8
외형선
  6
Continuous
 62
     1
370
    15
100
AcDbSpline
210
0.0
220
0.0
230
1.0
 70
     8
 71
     3
 72
    36
 73
    32
 74
     0
 42
0.000000001
 43
0.00000001
 40
0.0
 40
0.0
 40
0.0
 40
0.0
 40
0.0624999999999999
 40
0.0624999999999999
 40
0.1249999999999998
 40
0.1249999999999998
 40
0.1874999999999996
 40
0.1874999999999996
 40
0.2499999999999995
 40
0.2499999999999995
 40
0.3124999999999994
 40
0.3124999999999994
 40
0.3749999999999992
 40
0.3749999999999992
 40
0.4374999999999991
 40
0.4374999999999991
 40
0.499999999999999
 40
0.499999999999999
 40
0.5624999999999989
 40
0.5624999999999989
 40
0.6249999999999988
 40
0.6249999999999988
 40
0.6874999999999987
 40
0.6874999999999987
 40
0.7499999999999984
 40
0.7499999999999984
 40
0.8124999999999983
 40
0.8124999999999983
 40
0.8749999999999982
 40
0.8749999999999982
 40
1.0
 40
1.0
 40
1.0
 40
1.0
 10
-25.39999999999997
 20
-3.954155285128011
 30
0.0
 10
-25.71191725150439
 20
-3.969660788229835
 30
0.0
 10
-26.02773208308929
 20
-3.972840413945978
 30
0.0
 10
-26.65832183608541
 20
-3.954192756545924
 30
0.0
 10
-26.97069742157803
 20
-3.932463895834066
 30
0.0
 10
-27.5977331748644
 20
-3.864556145685085
 30
0.0
 10
-27.91410971619645
 20
-3.818242027606531
 30
0.0
 10
-28.54369306160991
 20
-3.702097777215376
 30
0.0
 10
-28.85477161398986
 20
-3.63249695588816
 30
0.0
 10
-29.48402104693614
 20
-3.470486315777075
 30
0.0
 10
-29.80045036398384
 20
-3.378135084771451
 30
0.0
 10
-30.42802624160906
 20
-3.173393190216462
 30
0.0
 10
-30.73995683632869
 20
-3.06098728001194
 30
0.0
 10
-31.37042066061281
 20
-2.816898038376616
 30
0.0
 10
-31.6863935351186
 20
-2.685487041667023
 30
0.0
 10
-32.31097151994349
 20
-2.407780975856622
 30
0.0
 10
-32.62589872348137
 20
-2.260563789581775
 30
0.0
 10
-33.25657120119249
 20
-1.952711797173993
 30
0.0
 10
-33.56948374006312
 20
-1.792567198662689
 30
0.0
 10
-34.19593697403868
 20
-1.461995798648676
 30
0.0
 10
-34.51223889154979
 20
-1.291058210674946
 30
0.0
 10
-35.14211317509766
 20
-0.94263498480379
 30
0.0
 10
-35.453283984817
 20
-0.7656244093372236
 30
0.0
 10
-36.08215660706356
 20
-0.4066999998742675
 30
0.0
 10
-36.39861683951413
 20
-0.2250093260695705
 30
0.0
 10
-37.02669032391397
 20
0.137719441033897
 30
0.0
 10
-37.3382679915453
 20
0.3187487205290102
 30
0.0
 10
-37.96856271188212
 20
0.6790454138504107
 30
0.0
 10
-38.28467187449122
 20
0.8577988638076228
 30
0.0
 10
-39.2225913163098
 20
1.3824033556779
 30
0.0
 10
-39.85542154823727
 20
1.720445412893654
 30
0.0
 10
-40.48125000000008
 20
2.03168871079717
 30
0.0
  0
SPLINE
  5
15D
330
1F
100
AcDbEntity
  8
외형선
  6
Continuous
 62
     1
370
    15
100
AcDbSpline
210
0.0
220
0.0
230
1.0
 70
     8
 71
     3
 72
    17
 73
    13
 74
     0
 42
0.000000001
 43
0.00000001
 40
0.0
 40
0.0
 40
0.0
 40
0.0
 40
0.1153596965724315
 40
0.2340935797070371
 40
0.3484425561026858
 40
0.4662949501507139
 40
0.5782420873846122
 40
0.69296506049272
 40
0.7863662734570984
 40
0.8818798914150378
 40
0.9983477577901911
 40
1.0
 40
1.0
 40
1.0
 40
1.0
 10
-40.48125000000007
 20
2.031688710797162
 30
0.0
 10
-40.66341556582852
 20
2.115194045571002
 30
0.0
 10
-41.03307490675242
 20
2.284647184948577
 30
0.0
 10
-41.59010329091884
 20
2.431742775965112
 30
0.0
 10
-42.13929208501981
 20
2.488671093861796
 30
0.0
 10
-42.65220060677208
 20
2.445714601269777
 30
0.0
 10
-43.12079711619047
 20
2.317646943862888
 30
0.0
 10
-43.49741490385225
 20
2.140902570572759
 30
0.0
 10
-43.79290994994084
 20
1.943153321203911
 30
0.0
 10
-44.00338441443493
 20
1.756901359646171
 30
0.0
 10
-44.11988376184851
 20
1.617127540972868
 30
0.0
 10
-44.11151306870521
 20
1.602872779991506
 30
0.0
 10
-44.11139598099933
 20
1.602673387034064
 30
0.0
  0
SPLINE
  5
15E
330
1F
100
AcDbEntity
  8
외형선
  6
Continuous
 62
     1
370
    15
100
AcDbSpline
210
0.0
220
0.0
230
1.0
 70
     8
 71
     3
 72
    15
 73
    11
 74
     0
 42
0.000000001
 43
0.00000001
 40
0.0
 40
0.0
 40
0.0
 40
0.0
 40
0.067648786235418
 40
0.1576015543137291
 40
0.2774062027588222
 40
0.4005791703522373
 40
0.5616089305609812
 40
0.7272034290567013
 40
0.8625016323510994
 40
1.0
 40
1.0
 40
1.0
 40
1.0
 10
-43.41326947612018
 20
2.167328334905842
 30
0.0
 10
-43.35695811498507
 20
2.221653373040785
 30
0.0
 10
-43.22576938959495
 20
2.348214556539702
 30
0.0
 10
-42.97711587241342
 20
2.58048074640354
 30
0.0
 10
-42.6684310804974
 20
2.851636886586061
 30
0.0
 10
-42.28137247330477
 20
3.15632855516341
 30
0.0
 10
-41.83890616956691
 20
3.449784088655679
 30
0.0
 10
-41.37097056355144
 20
3.68020914556333
 30
0.0
 10
-40.91651759418405
 20
3.835202420732512
 30
0.0
 10
-40.62711722394441
 20
3.878776961030376
 30
0.0
 10
-40.48125000000041
 20
3.900739950305828
 30
0.0
  0
SPLINE
  5
15F
330
1F
100
AcDbEntity
  8
외형선
  6
Continuous
 62
     1
370
    15
100
AcDbSpline
210
0.0
220
0.0
230
1.0
 70
     8
 71
     3
 72
    36
 73
    32
 74
     0
 42
0.000000001
 43
0.00000001
 40
0.0
 40
0.0
 40
0.0
 40
0.0
 40
0.0625
 40
0.0625
 40
0.125
 40
0.125
 40
0.1875
 40
0.1875
 40
0.25
 40
0.25
 40
0.3125
 40
0.3125
 40
0.375
 40
0.375
 40
0.4375
 40
0.4375
 40
0.5
 40
0.5
 40
0.5625
 40
0.5625
 40
0.625
 40
0.625
 40
0.6875
 40
0.6875
 40
0.75
 40
0.75
 40
0.8125
 40
0.8125
 40
0.875
 40
0.875
 40
1.0
 40
1.0
 40
1.0
 40
1.0
 10
-25.39999999999998
 20
-1.682587561753909
 30
0.0
 10
-25.71191725150442
 20
-1.518689057678842
 30
0.0
 10
-26.02773208308929
 20
-1.348837783731925
 30
0.0
 10
-26.6583218360854
 20
-1.001898340052641
 30
0.0
 10
-26.97069742157803
 20
-0.8252790854874237
 30
0.0
 10
-27.59773317486436
 20
-0.4675695154101651
 30
0.0
 10
-27.91410971619643
 20
-0.2861412628490491
 30
0.0
 10
-28.5436930616099
 20
0.0767733779294349
 30
0.0
 10
-28.85477161398984
 20
0.2578448580493618
 30
0.0
 10
-29.48402104693612
 20
0.6186021118248897
 30
0.0
 10
-29.80045036398384
 20
0.7979412009011077
 30
0.0
 10
-30.42802624160908
 20
1.149511618187563
 30
0.0
 10
-30.7399568363287
 20
1.321909390936174
 30
0.0
 10
-31.3704206606128
 20
1.658542100045913
 30
0.0
 10
-31.68639353511863
 20
1.822283837152413
 30
0.0
 10
-32.3109715199435
 20
2.136124088460783
 30
0.0
 10
-32.62589872348136
 20
2.287288314288427
 30
0.0
 10
-33.25657120119247
 20
2.574426985189451
 30
0.0
 10
-33.56948374006315
 20
2.709992538657076
 30
0.0
 10
-34.19593697403869
 20
2.963468840724393
 30
0.0
 10
-34.51223889154977
 20
3.08170636024007
 30
0.0
 10
-35.14211317509763
 20
3.297755817204066
 30
0.0
 10
-35.45328398481697
 20
3.395371758164126
 30
0.0
 10
-36.08215660706349
 20
3.56944094961433
 30
0.0
 10
-36.39861683951408
 20
3.645690280825092
 30
0.0
 10
-37.02669032391394
 20
3.774503749439285
 30
0.0
 10
-37.3382679915453
 20
3.82715113390432
 30
0.0
 10
-37.9685627118821
 20
3.908527365302646
 30
0.0
 10
-38.28467187449122
 20
3.937053177520572
 30
0.0
 10
-39.22259131630976
 20
3.985234823019125
 30
0.0
 10
-39.8554215482372
 20
3.967527677399028
 30
0.0
 10
-40.48125000000005
 20
3.900739950305895
 30
0.0
  0
LINE
  5
160
330
1F
100
AcDbEntity
  8
외형선
  6
Continuous
370
    15
100
AcDbLine
 10
-25.39999999999998
 20
-0.3400478548587888
 30
0.0
 11
-25.39999999999998
 21
-1.682587561753909
 31
0.0
  0
SPLINE
  5
161
330
1F
100
AcDbEntity
  8
외형선
  6
Continuous
 62
     1
370
    15
100
AcDbSpline
210
0.0
220
0.0
230
1.0
 70
     8
 71
     3
 72
    23
 73
    19
 74
     0
 42
0.000000001
 43
0.00000001
 40
0.0
 40
0.0
 40
0.0
 40
0.0
 40
0.0199778806759954
 40
0.0879562887538384
 40
0.1574721279219255
 40
0.2422386946197839
 40
0.3098340499640486
 40
0.3778651228828782
 40
0.4366257100843851
 40
0.4960984455201483
 40
0.5393095376045388
 40
0.5837567177100098
 40
0.6429542154710111
 40
0.7038160565428022
 40
0.7833835774456367
 40
0.8652066125378615
 40
0.9320597371080515
 40
1.0
 40
1.0
 40
1.0
 40
1.0
 10
-43.41326947612016
 20
-2.167328334905827
 30
0.0
 10
-43.44596639878456
 20
-2.152806044248048
 30
0.0
 10
-43.58992060583346
 20
-2.08886899250674
 30
0.0
 10
-43.78779438221416
 20
-1.943255648295809
 30
0.0
 10
-44.01337118110224
 20
-1.749386030107879
 30
0.0
 10
-44.13128962013231
 20
-1.591857570231204
 30
0.0
 10
-44.11437720764858
 20
-1.545755369838639
 30
0.0
 10
-43.97470007618354
 20
-1.63849443269213
 30
0.0
 10
-43.74476902217116
 20
-1.846519922948795
 30
0.0
 10
-43.49389598567932
 20
-2.089956833177341
 30
0.0
 10
-43.24235900999734
 20
-2.332542280092009
 30
0.0
 10
-42.97754781617941
 20
-2.58014278430233
 30
0.0
 10
-42.66829890097815
 20
-2.851740306687419
 30
0.0
 10
-42.28142071068907
 20
-3.156290813195491
 30
0.0
 10
-41.83889127532422
 20
-3.449795742231775
 30
0.0
 10
-41.3709737690374
 20
-3.680206637522083
 30
0.0
 10
-40.91651684717574
 20
-3.835203005207893
 30
0.0
 10
-40.62711697360637
 20
-3.878777156900223
 30
0.0
 10
-40.4812500000004
 20
-3.900739950305814
 30
0.0
  0
LINE
  5
162
330
1F
100
AcDbEntity
  8
외형선
  6
Continuous
 62
     1
370
    15
100
AcDbLine
 10
-25.39999999999997
 20
3.954155285128021
 30
0.0
 11
-25.98981279091822
 21
3.948505915116428
 31
0.0
  0
LINE
  5
163
330
1F
100
AcDbEntity
  8
외형선
  6
Continuous
 62
     1
370
    15
100
AcDbLine
 10
-40.48125000000008
 20
-3.90073995030588
 30
0.0
 11
-39.20623964350734
 21
-3.961646765850082
 31
0.0
  0
LINE
  5
164
330
1F
100
AcDbEntity
  8
외형선
  6
Continuous
370
    15
100
AcDbLine
 10
-25.39999999999998
 20
3.954155285128021
 30
0.0
 11
-25.39999999999998
 21
3.594422854858731
 31
0.0
  0
LINE
  5
165
330
1F
100
AcDbEntity
  8
외형선
  6
Continuous
370
    15
100
AcDbLine
 10
-21.43768467149216
 20
0.0000000000000045
 30
0.0
 11
-21.43768467149216
 21
-4.7625
 31
0.0
  0
LINE
  5
166
330
1F
100
AcDbEntity
  8
외형선
  6
Continuous
370
    15
100
AcDbLine
 10
-21.43768467149216
 20
4.762500000000009
 30
0.0
 11
-21.43768467149216
 21
0.0000000000000045
 31
0.0
  0
LINE
  5
167
330
1F
100
AcDbEntity
  8
외형선
  6
Continuous
370
    15
100
AcDbLine
 10
-24.39999999999998
 20
0.0000000000000049
 30
0.0
 11
-24.39999999999998
 21
-3.968749999999995
 31
0.0
  0
LINE
  5
168
330
1F
100
AcDbEntity
  8
외형선
  6
Continuous
370
    15
100
AcDbLine
 10
-24.39999999999998
 20
3.968750000000005
 30
0.0
 11
-24.39999999999998
 21
0.0000000000000049
 31
0.0
  0
LINE
  5
169
330
1F
100
AcDbEntity
  8
외형선
  6
Continuous
370
    15
100
AcDbLine
 10
-25.39999999999998
 20
0.000000000000005
 30
0.0
 11
-25.39999999999998
 21
-3.968749999999995
 31
0.0
  0
LINE
  5
16A
330
1F
100
AcDbEntity
  8
외형선
  6
Continuous
370
    15
100
AcDbLine
 10
-25.39999999999998
 20
3.968750000000005
 30
0.0
 11
-25.39999999999998
 21
0.000000000000005
 31
0.0
  0
LINE
  5
1A7
330
1F
100
AcDbEntity
  8
외형선
  6
Continuous
370
    15
100
AcDbLine
 10
-3.568700000000028
 20
3.492500000000017
 30
0.0
 11
3.568700000000042
 21
3.492500000000017
 31
0.0
  0
LINE
  5
1A8
330
1F
100
AcDbEntity
  8
외형선
  6
Continuous
370
    15
100
AcDbLine
 10
3.568700000000042
 20
3.492500000000017
 30
0.0
 11
4.838700000000024
 21
4.762499999999999
 31
0.0
  0
LINE
  5
1A9
330
1F
100
AcDbEntity
  8
외형선
  6
Continuous
370
    15
100
AcDbLine
 10
-3.568700000000028
 20
3.492500000000017
 30
0.0
 11
-4.83870000000001
 21
4.762499999999999
 31
0.0
  0
LINE
  5
1AA
330
1F
100
AcDbEntity
  8
외형선
  6
Continuous
370
    15
100
AcDbLine
 10
-4.838700000000017
 20
4.762500000000003
 30
0.0
 11
-21.43768467149217
 21
4.762500000000003
 31
0.0
  0
ENDSEC
  0
SECTION
  2
OBJECTS
  0
DICTIONARY
  5
C
330
0
100
AcDbDictionary
281
     1
  3
ACAD_GROUP
350
D
  3
ACAD_IMAGE_VARS
350
14A
  3
ACAD_LAYOUT
350
1A
  3
ACAD_MLINESTYLE
350
17
  3
ACAD_PLOTSETTINGS
350
19
  3
ACAD_PLOTSTYLENAME
350
E
  3
ACAD_SCALELIST
350
47
  3
APPDATA
350
148
  3
DWGPROPS
350
1AB
  0
DICTIONARY
  5
198
330
2
100
AcDbDictionary
280
     1
281
     1
  3
ACAD_LAYERSTATES
360
199
  0
DICTIONARY
  5
D
102
{ACAD_REACTORS
330
C
102
}
330
C
100
AcDbDictionary
281
     1
  0
RASTERVARIABLES
  5
14A
102
{ACAD_REACTORS
330
C
102
}
330
C
100
AcDbRasterVariables
 90
        0
 70
     1
 71
     1
 72
     1
  0
DICTIONARY
  5
1A
102
{ACAD_REACTORS
330
C
102
}
330
C
100
AcDbDictionary
281
     1
  3
Layout1
350
1E
  3
Layout2
350
26
  3
Model
350
22
  0
DICTIONARY
  5
17
102
{ACAD_REACTORS
330
C
102
}
330
C
100
AcDbDictionary
281
     1
  3
Standard
350
18
  0
DICTIONARY
  5
19
102
{ACAD_REACTORS
330
C
102
}
330
C
100
AcDbDictionary
281
     1
  0
ACDBDICTIONARYWDFLT
  5
E
102
{ACAD_REACTORS
330
C
102
}
330
C
100
AcDbDictionary
281
     1
  3
Normal
350
F
100
AcDbDictionaryWithDefault
340
F
  0
DICTIONARY
  5
47
102
{ACAD_REACTORS
330
C
102
}
330
C
100
AcDbDictionary
281
     1
  3
A0
350
48
  3
A1
350
49
  3
A2
350
4A
  3
A3
350
4B
  3
A4
350
4C
  3
A5
350
4D
  3
A6
350
4E
  3
A7
350
4F
  3
A8
350
50
  3
A9
350
51
  3
B0
350
52
  3
B1
350
53
  3
B2
350
54
  3
B3
350
55
  3
B4
350
56
  3
B5
350
57
  3
B6
350
58
  3
B7
350
59
  3
B8
350
5A
  3
B9
350
5B
  3
C0
350
5C
  3
C1
350
5D
  3
C2
350
5E
  3
C3
350
5F
  3
C4
350
60
  3
C5
350
61
  3
C6
350
62
  3
C7
350
63
  3
C8
350
64
  3
C9
350
65
  3
D0
350
66
  3
D1
350
67
  3
D2
350
68
  0
DICTIONARY
  5
148
102
{ACAD_REACTORS
330
C
102
}
330
C
100
AcDbDictionary
281
     1
  0
XRECORD
  5
1AB
102
{ACAD_REACTORS
330
C
102
}
330
C
100
AcDbXrecord
280
     1
  1
DWGPROPS COOKIE
  2

  3

  4

  6

  7

  8
12016016
  9

300
=
301
=
302
=
303
=
304
=
305
=
306
=
307
=
308
=
309
=
 40
0.0
 41
2458319.998201933
 42
2458331.037291423
  1

 90
        0
  0
DICTIONARY
  5
199
102
{ACAD_REACTORS
330
198
102
}
330
198
100
AcDbDictionary
281
     1
  0
LAYOUT
  5
1E
102
{ACAD_REACTORS
330
1A
102
}
330
1A
100
AcDbPlotSettings
  1

  2
none_device
  4

  6

 40
0.0
 41
0.0
 42
0.0
 43
0.0
 44
0.0
 45
0.0
 46
0.0
 47
0.0
 48
0.0
 49
0.0
140
0.0
141
0.0
142
1.0
143
1.0
 70
   688
 72
     1
 73
     0
 74
     5
  7

 75
    16
147
1.0
148
0.0
149
0.0
100
AcDbLayout
  1
Layout1
 70
     1
 71
     1
 10
0.0
 20
0.0
 11
420.0
 21
297.0
 12
0.0
 22
0.0
 32
0.0
 14
1.000000000000000E+20
 24
1.000000000000000E+20
 34
1.000000000000000E+20
 15
-1.000000000000000E+20
 25
-1.000000000000000E+20
 35
-1.000000000000000E+20
146
0.0
 13
0.0
 23
0.0
 33
0.0
 16
1.0
 26
0.0
 36
0.0
 17
0.0
 27
1.0
 37
0.0
 76
     0
330
1B
  0
LAYOUT
  5
26
102
{ACAD_REACTORS
330
1A
102
}
330
1A
100
AcDbPlotSettings
  1

  2
none_device
  4

  6

 40
0.0
 41
0.0
 42
0.0
 43
0.0
 44
0.0
 45
0.0
 46
0.0
 47
0.0
 48
0.0
 49
0.0
140
0.0
141
0.0
142
1.0
143
1.0
 70
   688
 72
     1
 73
     0
 74
     5
  7

 75
    16
147
1.0
148
0.0
149
0.0
100
AcDbLayout
  1
Layout2
 70
     1
 71
     2
 10
0.0
 20
0.0
 11
0.0
 21
0.0
 12
0.0
 22
0.0
 32
0.0
 14
0.0
 24
0.0
 34
0.0
 15
0.0
 25
0.0
 35
0.0
146
0.0
 13
0.0
 23
0.0
 33
0.0
 16
1.0
 26
0.0
 36
0.0
 17
0.0
 27
1.0
 37
0.0
 76
     0
330
23
  0
LAYOUT
  5
22
102
{ACAD_REACTORS
330
1A
102
}
330
1A
100
AcDbPlotSettings
  1

  2
none_device
  4
ANSI_A_(11.00_x_8.50_Inches)
  6

 40
6.35
 41
19.05
 42
6.35000508
 43
19.05000254
 44
279.4
 45
215.9
 46
130.0385306089228
 47
92.54371273076144
 48
0.0
 49
0.0
140
0.0
141
0.0
142
0.0688368650264312
143
1.0
 70
  1696
 72
     0
 73
     0
 74
     0
  7

 75
     0
147
0.0235690232323232
148
0.0
149
0.0
100
AcDbLayout
  1
Model
 70
     1
 71
     0
 10
0.0
 20
0.0
 11
420.0
 21
297.0
 12
0.0
 22
0.0
 32
0.0
 14
1.000000000000000E+20
 24
1.000000000000000E+20
 34
1.000000000000000E+20
 15
-1.000000000000000E+20
 25
-1.000000000000000E+20
 35
-1.000000000000000E+20
146
0.0
 13
0.0
 23
0.0
 33
0.0
 16
1.0
 26
0.0
 36
0.0
 17
0.0
 27
1.0
 37
0.0
 76
     0
330
1F
331
29
  0
MLINESTYLE
  5
18
102
{ACAD_REACTORS
330
17
102
}
330
17
100
AcDbMlineStyle
  2
Standard
 70
     0
  3

 62
   256
 51
90.0
 52
90.0
 71
     2
 49
0.5
 62
   256
  6
BYLAYER
 49
-0.5
 62
   256
  6
BYLAYER
  0
ACDBPLACEHOLDER
  5
F
102
{ACAD_REACTORS
330
E
102
}
330
E
  0
SCALE
  5
48
102
{ACAD_REACTORS
330
47
102
}
330
47
100
AcDbScale
 70
     0
300
1:1
140
1.0
141
1.0
290
     1
  0
SCALE
  5
49
102
{ACAD_REACTORS
330
47
102
}
330
47
100
AcDbScale
 70
     0
300
1:2
140
1.0
141
2.0
290
     0
  0
SCALE
  5
4A
102
{ACAD_REACTORS
330
47
102
}
330
47
100
AcDbScale
 70
     0
300
1:4
140
1.0
141
4.0
290
     0
  0
SCALE
  5
4B
102
{ACAD_REACTORS
330
47
102
}
330
47
100
AcDbScale
 70
     0
300
1:5
140
1.0
141
5.0
290
     0
  0
SCALE
  5
4C
102
{ACAD_REACTORS
330
47
102
}
330
47
100
AcDbScale
 70
     0
300
1:8
140
1.0
141
8.0
290
     0
  0
SCALE
  5
4D
102
{ACAD_REACTORS
330
47
102
}
330
47
100
AcDbScale
 70
     0
300
1:10
140
1.0
141
10.0
290
     0
  0
SCALE
  5
4E
102
{ACAD_REACTORS
330
47
102
}
330
47
100
AcDbScale
 70
     0
300
1:16
140
1.0
141
16.0
290
     0
  0
SCALE
  5
4F
102
{ACAD_REACTORS
330
47
102
}
330
47
100
AcDbScale
 70
     0
300
1:20
140
1.0
141
20.0
290
     0
  0
SCALE
  5
50
102
{ACAD_REACTORS
330
47
102
}
330
47
100
AcDbScale
 70
     0
300
1:30
140
1.0
141
30.0
290
     0
  0
SCALE
  5
51
102
{ACAD_REACTORS
330
47
102
}
330
47
100
AcDbScale
 70
     0
300
1:40
140
1.0
141
40.0
290
     0
  0
SCALE
  5
52
102
{ACAD_REACTORS
330
47
102
}
330
47
100
AcDbScale
 70
     0
300
1:50
140
1.0
141
50.0
290
     0
  0
SCALE
  5
53
102
{ACAD_REACTORS
330
47
102
}
330
47
100
AcDbScale
 70
     0
300
1:100
140
1.0
141
100.0
290
     0
  0
SCALE
  5
54
102
{ACAD_REACTORS
330
47
102
}
330
47
100
AcDbScale
 70
     0
300
2:1
140
2.0
141
1.0
290
     0
  0
SCALE
  5
55
102
{ACAD_REACTORS
330
47
102
}
330
47
100
AcDbScale
 70
     0
300
4:1
140
4.0
141
1.0
290
     0
  0
SCALE
  5
56
102
{ACAD_REACTORS
330
47
102
}
330
47
100
AcDbScale
 70
     0
300
8:1
140
8.0
141
1.0
290
     0
  0
SCALE
  5
57
102
{ACAD_REACTORS
330
47
102
}
330
47
100
AcDbScale
 70
     0
300
10:1
140
10.0
141
1.0
290
     0
  0
SCALE
  5
58
102
{ACAD_REACTORS
330
47
102
}
330
47
100
AcDbScale
 70
     0
300
100:1
140
100.0
141
1.0
290
     0
  0
SCALE
  5
59
102
{ACAD_REACTORS
330
47
102
}
330
47
100
AcDbScale
 70
     0
300
1/128" = 1'-0"
140
0.0078125
141
12.0
290
     0
  0
SCALE
  5
5A
102
{ACAD_REACTORS
330
47
102
}
330
47
100
AcDbScale
 70
     0
300
1/64" = 1'-0"
140
0.015625
141
12.0
290
     0
  0
SCALE
  5
5B
102
{ACAD_REACTORS
330
47
102
}
330
47
100
AcDbScale
 70
     0
300
1/32" = 1'-0"
140
0.03125
141
12.0
290
     0
  0
SCALE
  5
5C
102
{ACAD_REACTORS
330
47
102
}
330
47
100
AcDbScale
 70
     0
300
1/16" = 1'-0"
140
0.0625
141
12.0
290
     0
  0
SCALE
  5
5D
102
{ACAD_REACTORS
330
47
102
}
330
47
100
AcDbScale
 70
     0
300
3/32" = 1'-0"
140
0.09375
141
12.0
290
     0
  0
SCALE
  5
5E
102
{ACAD_REACTORS
330
47
102
}
330
47
100
AcDbScale
 70
     0
300
1/8" = 1'-0"
140
0.125
141
12.0
290
     0
  0
SCALE
  5
5F
102
{ACAD_REACTORS
330
47
102
}
330
47
100
AcDbScale
 70
     0
300
3/16" = 1'-0"
140
0.1875
141
12.0
290
     0
  0
SCALE
  5
60
102
{ACAD_REACTORS
330
47
102
}
330
47
100
AcDbScale
 70
     0
300
1/4" = 1'-0"
140
0.25
141
12.0
290
     0
  0
SCALE
  5
61
102
{ACAD_REACTORS
330
47
102
}
330
47
100
AcDbScale
 70
     0
300
3/8" = 1'-0"
140
0.375
141
12.0
290
     0
  0
SCALE
  5
62
102
{ACAD_REACTORS
330
47
102
}
330
47
100
AcDbScale
 70
     0
300
1/2" = 1'-0"
140
0.5
141
12.0
290
     0
  0
SCALE
  5
63
102
{ACAD_REACTORS
330
47
102
}
330
47
100
AcDbScale
 70
     0
300
3/4" = 1'-0"
140
0.75
141
12.0
290
     0
  0
SCALE
  5
64
102
{ACAD_REACTORS
330
47
102
}
330
47
100
AcDbScale
 70
     0
300
1" = 1'-0"
140
1.0
141
12.0
290
     0
  0
SCALE
  5
65
102
{ACAD_REACTORS
330
47
102
}
330
47
100
AcDbScale
 70
     0
300
1-1/2" = 1'-0"
140
1.5
141
12.0
290
     0
  0
SCALE
  5
66
102
{ACAD_REACTORS
330
47
102
}
330
47
100
AcDbScale
 70
     0
300
3" = 1'-0"
140
3.0
141
12.0
290
     0
  0
SCALE
  5
67
102
{ACAD_REACTORS
330
47
102
}
330
47
100
AcDbScale
 70
     0
300
6" = 1'-0"
140
6.0
141
12.0
290
     0
  0
SCALE
  5
68
102
{ACAD_REACTORS
330
47
102
}
330
47
100
AcDbScale
 70
     0
300
1'-0" = 1'-0"
140
12.0
141
12.0
290
     0
  0
ENDSEC
  0
EOF
