  0
SECTION
  2
HEADER
  9
$ACADVER
  1
AC1015
  9
$ACADMAINTVER
 70
     6
  9
$DWGCODEPAGE
  3
ANSI_949
  9
$INSBASE
 10
0.0
 20
0.0
 30
0.0
  9
$EXTMIN
 10
1.000000000000000E+20
 20
1.000000000000000E+20
 30
1.000000000000000E+20
  9
$EXTMAX
 10
-1.000000000000000E+20
 20
-1.000000000000000E+20
 30
-1.000000000000000E+20
  9
$LIMMIN
 10
0.0
 20
0.0
  9
$LIMMAX
 10
420.0
 20
297.0
  9
$ORTHOMODE
 70
     1
  9
$REGENMODE
 70
     1
  9
$FILLMODE
 70
     1
  9
$QTEXTMODE
 70
     0
  9
$MIRRTEXT
 70
     1
  9
$LTSCALE
 40
1.0
  9
$ATTMODE
 70
     1
  9
$TEXTSIZE
 40
3.5
  9
$TRACEWID
 40
1.0
  9
$TEXTSTYLE
  7
Standard
  9
$CLAYER
  8
0
  9
$CELTYPE
  6
ByLayer
  9
$CECOLOR
 62
   256
  9
$CELTSCALE
 40
1.0
  9
$DISPSILH
 70
     0
  9
$DIMSCALE
 40
1.0
  9
$DIMASZ
 40
3.302
  9
$DIMEXO
 40
1.0
  9
$DIMDLI
 40
3.75
  9
$DIMRND
 40
0.0
  9
$DIMDLE
 40
0.0
  9
$DIMEXE
 40
1.0
  9
$DIMTP
 40
0.0
  9
$DIMTM
 40
0.0
  9
$DIMTXT
 40
3.5
  9
$DIMCEN
 40
2.5
  9
$DIMTSZ
 40
0.0
  9
$DIMTOL
 70
     0
  9
$DIMLIM
 70
     0
  9
$DIMTIH
 70
     1
  9
$DIMTOH
 70
     1
  9
$DIMSE1
 70
     0
  9
$DIMSE2
 70
     0
  9
$DIMTAD
 70
     1
  9
$DIMZIN
 70
     0
  9
$DIMBLK
  1

  9
$DIMASO
 70
     1
  9
$DIMSHO
 70
     1
  9
$DIMPOST
  1

  9
$DIMAPOST
  1

  9
$DIMALT
 70
     0
  9
$DIMALTD
 70
     3
  9
$DIMALTF
 40
0.0393700787401575
  9
$DIMLFAC
 40
1.0
  9
$DIMTOFL
 70
     1
  9
$DIMTVP
 40
0.0
  9
$DIMTIX
 70
     0
  9
$DIMSOXD
 70
     0
  9
$DIMSAH
 70
     0
  9
$DIMBLK1
  1

  9
$DIMBLK2
  1

  9
$DIMSTYLE
  2
ISO-25
  9
$DIMCLRD
 70
     0
  9
$DIMCLRE
 70
     0
  9
$DIMCLRT
 70
     0
  9
$DIMTFAC
 40
1.0
  9
$DIMGAP
 40
1.524
  9
$DIMJUST
 70
     0
  9
$DIMSD1
 70
     0
  9
$DIMSD2
 70
     0
  9
$DIMTOLJ
 70
     0
  9
$DIMTZIN
 70
     0
  9
$DIMALTZ
 70
     0
  9
$DIMALTTZ
 70
     0
  9
$DIMUPT
 70
     0
  9
$DIMDEC
 70
     2
  9
$DIMTDEC
 70
     2
  9
$DIMALTU
 70
     2
  9
$DIMALTTD
 70
     3
  9
$DIMTXSTY
  7
Standard
  9
$DIMAUNIT
 70
     0
  9
$DIMADEC
 70
     2
  9
$DIMALTRND
 40
0.0
  9
$DIMAZIN
 70
     0
  9
$DIMDSEP
 70
    44
  9
$DIMATFIT
 70
     3
  9
$DIMFRAC
 70
     0
  9
$DIMLDRBLK
  1

  9
$DIMLUNIT
 70
     2
  9
$DIMLWD
 70
    -2
  9
$DIMLWE
 70
    -2
  9
$DIMTMOVE
 70
     0
  9
$LUNITS
 70
     2
  9
$LUPREC
 70
     2
  9
$SKETCHINC
 40
1.0
  9
$FILLETRAD
 40
10.0
  9
$AUNITS
 70
     0
  9
$AUPREC
 70
     2
  9
$MENU
  1
.
  9
$ELEVATION
 40
0.0
  9
$PELEVATION
 40
0.0
  9
$THICKNESS
 40
0.0
  9
$LIMCHECK
 70
     0
  9
$CHAMFERA
 40
0.0
  9
$CHAMFERB
 40
0.0
  9
$CHAMFERC
 40
0.0
  9
$CHAMFERD
 40
0.0
  9
$SKPOLY
 70
     0
  9
$TDCREATE
 40
2458320.373414086
  9
$TDUCREATE
 40
2458319.998414086
  9
$TDUPDATE
 40
2458331.411299051
  9
$TDUUPDATE
 40
2458331.036299051
  9
$TDINDWG
 40
0.0001565394
  9
$TDUSRTIMER
 40
2458331.036142732
  9
$USRTIMER
 70
     1
  9
$ANGBASE
 50
0.0
  9
$ANGDIR
 70
     0
  9
$PDMODE
 70
     0
  9
$PDSIZE
 40
-1.0
  9
$PLINEWID
 40
0.0
  9
$SPLFRAME
 70
     0
  9
$SPLINETYPE
 70
     6
  9
$SPLINESEGS
 70
     8
  9
$HANDSEED
  5
19D
  9
$SURFTAB1
 70
     6
  9
$SURFTAB2
 70
     6
  9
$SURFTYPE
 70
     6
  9
$SURFU
 70
     6
  9
$SURFV
 70
     6
  9
$UCSBASE
  2

  9
$UCSNAME
  2

  9
$UCSORG
 10
0.0
 20
0.0
 30
0.0
  9
$UCSXDIR
 10
1.0
 20
0.0
 30
0.0
  9
$UCSYDIR
 10
0.0
 20
1.0
 30
0.0
  9
$UCSORTHOREF
  2

  9
$UCSORTHOVIEW
 70
     0
  9
$UCSORGTOP
 10
0.0
 20
0.0
 30
0.0
  9
$UCSORGBOTTOM
 10
0.0
 20
0.0
 30
0.0
  9
$UCSORGLEFT
 10
0.0
 20
0.0
 30
0.0
  9
$UCSORGRIGHT
 10
0.0
 20
0.0
 30
0.0
  9
$UCSORGFRONT
 10
0.0
 20
0.0
 30
0.0
  9
$UCSORGBACK
 10
0.0
 20
0.0
 30
0.0
  9
$PUCSBASE
  2

  9
$PUCSNAME
  2

  9
$PUCSORG
 10
0.0
 20
0.0
 30
0.0
  9
$PUCSXDIR
 10
1.0
 20
0.0
 30
0.0
  9
$PUCSYDIR
 10
0.0
 20
1.0
 30
0.0
  9
$PUCSORTHOREF
  2

  9
$PUCSORTHOVIEW
 70
     0
  9
$PUCSORGTOP
 10
0.0
 20
0.0
 30
0.0
  9
$PUCSORGBOTTOM
 10
0.0
 20
0.0
 30
0.0
  9
$PUCSORGLEFT
 10
0.0
 20
0.0
 30
0.0
  9
$PUCSORGRIGHT
 10
0.0
 20
0.0
 30
0.0
  9
$PUCSORGFRONT
 10
0.0
 20
0.0
 30
0.0
  9
$PUCSORGBACK
 10
0.0
 20
0.0
 30
0.0
  9
$USERI1
 70
     0
  9
$USERI2
 70
     0
  9
$USERI3
 70
     0
  9
$USERI4
 70
     0
  9
$USERI5
 70
     0
  9
$USERR1
 40
0.0
  9
$USERR2
 40
0.0
  9
$USERR3
 40
0.0
  9
$USERR4
 40
0.0
  9
$USERR5
 40
0.0
  9
$WORLDVIEW
 70
     1
  9
$SHADEDGE
 70
     3
  9
$SHADEDIF
 70
    70
  9
$TILEMODE
 70
     1
  9
$MAXACTVP
 70
    64
  9
$PINSBASE
 10
0.0
 20
0.0
 30
0.0
  9
$PLIMCHECK
 70
     0
  9
$PEXTMIN
 10
1.000000000000000E+20
 20
1.000000000000000E+20
 30
1.000000000000000E+20
  9
$PEXTMAX
 10
-1.000000000000000E+20
 20
-1.000000000000000E+20
 30
-1.000000000000000E+20
  9
$PLIMMIN
 10
0.0
 20
0.0
  9
$PLIMMAX
 10
0.0
 20
0.0
  9
$UNITMODE
 70
     0
  9
$VISRETAIN
 70
     1
  9
$PLINEGEN
 70
     0
  9
$PSLTSCALE
 70
     1
  9
$TREEDEPTH
 70
  3020
  9
$CMLSTYLE
  2
Standard
  9
$CMLJUST
 70
     0
  9
$CMLSCALE
 40
20.0
  9
$PROXYGRAPHICS
 70
     1
  9
$MEASUREMENT
 70
     1
  9
$CELWEIGHT
370
    -1
  9
$ENDCAPS
280
     0
  9
$JOINSTYLE
280
     0
  9
$LWDISPLAY
290
     1
  9
$INSUNITS
 70
     4
  9
$HYPERLINKBASE
  1

  9
$STYLESHEET
  1

  9
$XEDIT
290
     1
  9
$CEPSNTYPE
380
     0
  9
$PSTYLEMODE
290
     1
  9
$FINGERPRINTGUID
  2
{3536B106-482B-4B5B-B4A3-D9C408C996D3}
  9
$VERSIONGUID
  2
{FAEB1C32-E019-11D5-929B-00C0DF256EC4}
  9
$EXTNAMES
290
     1
  9
$PSVPSCALE
 40
0.0
  9
$OLESTARTUP
290
     0
  0
ENDSEC
  0
SECTION
  2
CLASSES
  0
CLASS
  1
ACDBDICTIONARYWDFLT
  2
AcDbDictionaryWithDefault
  3
ObjectDBX Classes
 90
        0
280
     0
281
     0
  0
CLASS
  1
VISUALSTYLE
  2
AcDbVisualStyle
  3
ObjectDBX Classes
 90
     4095
280
     0
281
     0
  0
CLASS
  1
MATERIAL
  2
AcDbMaterial
  3
ObjectDBX Classes
 90
     1153
280
     0
281
     0
  0
CLASS
  1
SCALE
  2
AcDbScale
  3
ObjectDBX Classes
 90
     1153
280
     0
281
     0
  0
CLASS
  1
SUN
  2
AcDbSun
  3
SCENEOE
 90
     1153
280
     0
281
     0
  0
CLASS
  1
ACDBPLACEHOLDER
  2
AcDbPlaceHolder
  3
ObjectDBX Classes
 90
        0
280
     0
281
     0
  0
CLASS
  1
LAYOUT
  2
AcDbLayout
  3
ObjectDBX Classes
 90
        0
280
     0
281
     0
  0
CLASS
  1
TABLESTYLE
  2
AcDbTableStyle
  3
ObjectDBX Classes
 90
     4095
280
     0
281
     0
  0
CLASS
  1
MLEADERSTYLE
  2
AcDbMLeaderStyle
  3
ACDB_MLEADERSTYLE_CLASS
 90
     4095
280
     0
281
     0
  0
CLASS
  1
RASTERVARIABLES
  2
AcDbRasterVariables
  3
ISM
 90
        0
280
     0
281
     0
  0
ENDSEC
  0
SECTION
  2
TABLES
  0
TABLE
  2
VPORT
  5
8
330
0
100
AcDbSymbolTable
 70
     1
  0
VPORT
  5
29
330
8
100
AcDbSymbolTableRecord
100
AcDbViewportTableRecord
  2
*Active
 70
     0
 10
0.0
 20
0.0
 11
1.0
 21
1.0
 12
-3.300699723790181
 22
-4.919226701767926
 13
0.0
 23
0.0
 14
10.0
 24
10.0
 15
10.0
 25
10.0
 16
0.0
 26
0.0
 36
1.0
 17
0.0
 27
0.0
 37
0.0
 40
106.4097562810234
 41
1.516441005802708
 42
50.0
 43
0.0
 44
0.0
 50
0.0
 51
0.0
 71
    16
 72
  2000
 73
     1
 74
     3
 75
     0
 76
     0
 77
     0
 78
     0
281
     0
 65
     1
110
0.0
120
0.0
130
0.0
111
1.0
121
0.0
131
0.0
112
0.0
122
1.0
132
0.0
 79
     0
146
0.0
  0
ENDTAB
  0
TABLE
  2
LTYPE
  5
5
330
0
100
AcDbSymbolTable
 70
     6
  0
LTYPE
  5
14
330
5
100
AcDbSymbolTableRecord
100
AcDbLinetypeTableRecord
  2
ByBlock
 70
     0
  3

 72
    65
 73
     0
 40
0.0
  0
LTYPE
  5
15
330
5
100
AcDbSymbolTableRecord
100
AcDbLinetypeTableRecord
  2
ByLayer
 70
     0
  3

 72
    65
 73
     0
 40
0.0
  0
LTYPE
  5
16
330
5
100
AcDbSymbolTableRecord
100
AcDbLinetypeTableRecord
  2
Continuous
 70
     0
  3
Solid line
 72
    65
 73
     0
 40
0.0
  0
LTYPE
  5
6A
330
5
100
AcDbSymbolTableRecord
100
AcDbLinetypeTableRecord
  2
HIDDEN
 70
     0
  3
Hidden __ __ __ __ __ __ __ __ __ __ __ __ __ __
 72
    65
 73
     2
 40
1.905
 49
1.27
 74
     0
 49
-0.635
 74
     0
  0
LTYPE
  5
6B
330
5
100
AcDbSymbolTableRecord
100
AcDbLinetypeTableRecord
  2
PHANTOM
 70
     0
  3
Phantom ______  __  __  ______  __  __  ______
 72
    65
 73
     6
 40
12.7
 49
6.35
 74
     0
 49
-1.27
 74
     0
 49
1.27
 74
     0
 49
-1.27
 74
     0
 49
1.27
 74
     0
 49
-1.27
 74
     0
  0
LTYPE
  5
6C
330
5
100
AcDbSymbolTableRecord
100
AcDbLinetypeTableRecord
  2
CENTER
 70
     0
  3
Center ____ _ ____ _ ____ _ ____ _ ____ _ ____
 72
    65
 73
     4
 40
10.16
 49
6.35
 74
     0
 49
-1.27
 74
     0
 49
1.27
 74
     0
 49
-1.27
 74
     0
  0
LTYPE
  5
6D
330
5
100
AcDbSymbolTableRecord
100
AcDbLinetypeTableRecord
  2
CENTERX2
 70
     0
  3
Center (2x) ________  __  ________  __  _____
 72
    65
 73
     4
 40
20.32
 49
12.7
 74
     0
 49
-2.54
 74
     0
 49
2.54
 74
     0
 49
-2.54
 74
     0
  0
LTYPE
  5
6E
330
5
100
AcDbSymbolTableRecord
100
AcDbLinetypeTableRecord
  2
DOT2
 70
     0
  3
Dot (.5x) ........................................
 72
    65
 73
     2
 40
0.635
 49
0.0
 74
     0
 49
-0.635
 74
     0
  0
ENDTAB
  0
TABLE
  2
LAYER
  5
2
102
{ACAD_XDICTIONARY
360
188
102
}
330
0
100
AcDbSymbolTable
 70
    18
  0
LAYER
  5
10
330
2
100
AcDbSymbolTableRecord
100
AcDbLayerTableRecord
  2
0
 70
     0
 62
     7
  6
Continuous
370
    -3
390
F
  0
LAYER
  5
6F
330
2
100
AcDbSymbolTableRecord
100
AcDbLayerTableRecord
  2
FORMAT
 70
     0
 62
     2
  6
Continuous
370
    -3
390
F
  0
LAYER
  5
70
330
2
100
AcDbSymbolTableRecord
100
AcDbLayerTableRecord
  2
외형선
 70
     0
 62
     4
  6
Continuous
370
    30
390
F
  0
LAYER
  5
71
330
2
100
AcDbSymbolTableRecord
100
AcDbLayerTableRecord
  2
숨은선
 70
     0
 62
     2
  6
HIDDEN
370
    15
390
F
  0
LAYER
  5
72
330
2
100
AcDbSymbolTableRecord
100
AcDbLayerTableRecord
  2
중심선
 70
     0
 62
     1
  6
CENTERX2
370
    -3
390
F
  0
LAYER
  5
73
330
2
100
AcDbSymbolTableRecord
100
AcDbLayerTableRecord
  2
파단선
 70
     0
 62
     4
  6
Continuous
370
    -3
390
F
  0
LAYER
  5
74
330
2
100
AcDbSymbolTableRecord
100
AcDbLayerTableRecord
  2
해칭선
 70
     0
 62
   100
  6
Continuous
370
    -3
390
F
  0
LAYER
  5
75
330
2
100
AcDbSymbolTableRecord
100
AcDbLayerTableRecord
  2
가는실선
 70
     0
 62
     4
  6
Continuous
370
    -3
390
F
  0
LAYER
  5
76
330
2
100
AcDbSymbolTableRecord
100
AcDbLayerTableRecord
  2
치수_보조선
 70
     0
 62
     4
  6
Continuous
370
    -3
390
F
  0
LAYER
  5
77
330
2
100
AcDbSymbolTableRecord
100
AcDbLayerTableRecord
  2
치수문자_일반주서
 70
     0
 62
     7
  6
Continuous
370
    15
390
F
  0
LAYER
  5
78
330
2
100
AcDbSymbolTableRecord
100
AcDbLayerTableRecord
  2
개별주서
 70
     0
 62
   100
  6
Continuous
370
    30
390
F
  0
LAYER
  5
79
330
2
100
AcDbSymbolTableRecord
100
AcDbLayerTableRecord
  2
중간선
 70
     0
 62
     2
  6
Continuous
370
    15
390
F
  0
LAYER
  5
7A
330
2
100
AcDbSymbolTableRecord
100
AcDbLayerTableRecord
  2
윤곽선
 70
     0
 62
     3
  6
Continuous
370
    40
390
F
  0
LAYER
  5
7B
330
2
100
AcDbSymbolTableRecord
100
AcDbLayerTableRecord
  2
중심마크
 70
     0
 62
   100
  6
Continuous
370
    30
390
F
  0
LAYER
  5
7C
330
2
100
AcDbSymbolTableRecord
100
AcDbLayerTableRecord
  2
가상선
 70
     0
 62
     4
  6
PHANTOM
370
    -3
390
F
  0
LAYER
  5
7D
330
2
100
AcDbSymbolTableRecord
100
AcDbLayerTableRecord
  2
특수지정선
 70
     0
 62
     5
  6
CENTERX2
370
    60
390
F
  0
LAYER
  5
7E
330
2
100
AcDbSymbolTableRecord
100
AcDbLayerTableRecord
  2
참조1
 70
     0
 62
    -4
  6
Continuous
370
    -3
390
F
  0
LAYER
  5
143
330
2
100
AcDbSymbolTableRecord
100
AcDbLayerTableRecord
  2
Defpoints
 70
     0
 62
     7
  6
Continuous
290
     0
370
    -3
390
F
  0
ENDTAB
  0
TABLE
  2
STYLE
  5
3
330
0
100
AcDbSymbolTable
 70
     2
  0
STYLE
  5
11
330
3
100
AcDbSymbolTableRecord
100
AcDbTextStyleTableRecord
  2
Standard
 70
     0
 40
0.0
 41
1.0
 50
0.0
 71
     0
 42
3.5
  3
txt
  4

  0
STYLE
  5
94
330
3
100
AcDbSymbolTableRecord
100
AcDbTextStyleTableRecord
  2
SLDTEXTSTYLE0
 70
     0
 40
0.0
 41
0.75
 50
0.0
 71
     0
 42
3.5
  3
TXT
  4

  0
ENDTAB
  0
TABLE
  2
VIEW
  5
6
330
0
100
AcDbSymbolTable
 70
     0
  0
ENDTAB
  0
TABLE
  2
UCS
  5
7
330
0
100
AcDbSymbolTable
 70
     0
  0
ENDTAB
  0
TABLE
  2
APPID
  5
9
330
0
100
AcDbSymbolTable
 70
     1
  0
APPID
  5
12
330
9
100
AcDbSymbolTableRecord
100
AcDbRegAppTableRecord
  2
ACAD
 70
     0
  0
ENDTAB
  0
TABLE
  2
DIMSTYLE
  5
A
330
0
100
AcDbSymbolTable
 70
     4
100
AcDbDimStyleTable
  0
DIMSTYLE
105
27
330
A
100
AcDbSymbolTableRecord
100
AcDbDimStyleTableRecord
  2
ISO-25
 70
     0
 41
2.5
 42
0.625
 43
3.75
 44
1.25
 73
     0
 74
     0
 77
     1
 78
     8
140
2.5
141
2.5
143
0.03937007874016
147
0.625
171
     3
172
     1
178
     0
271
     2
272
     2
274
     3
278
    44
283
     0
284
     8
340
11
  0
DIMSTYLE
105
C1
102
{ACAD_REACTORS
330
C0
330
E9
102
}
330
A
100
AcDbSymbolTableRecord
100
AcDbDimStyleTableRecord
  2
SLDDIMSTYLE0
 70
     0
 41
3.302
 44
0.0
 45
0.000000001
 73
     0
 74
     0
 77
     1
 78
    12
 79
     3
140
3.5
143
0.0393700787401575
147
0.875
148
0.000000001
170
     1
173
     1
178
     0
271
     2
272
     2
276
     2
284
    12
340
94
  0
DIMSTYLE
105
D6
102
{ACAD_REACTORS
330
D5
102
}
330
A
100
AcDbSymbolTableRecord
100
AcDbDimStyleTableRecord
  2
SLDDIMSTYLE1
 70
     0
 41
3.302
 44
0.0
 45
0.000000001
 73
     0
 74
     0
 77
     1
 78
     4
 79
     1
140
3.5
143
0.0393700787401575
147
0.875
148
0.000000001
170
     1
173
     1
178
     0
271
     2
272
     2
276
     2
284
    12
340
94
  0
DIMSTYLE
105
FD
102
{ACAD_REACTORS
330
FC
102
}
330
A
100
AcDbSymbolTableRecord
100
AcDbDimStyleTableRecord
  2
SLDDIMSTYLE2
 70
     0
 41
3.302
 44
0.0
 45
0.000000001
 73
     0
 74
     0
 77
     1
 78
    12
 79
     3
140
3.5
143
0.0393700787401575
147
0.875
148
0.000000001
170
     1
172
     1
173
     1
178
     0
271
     2
272
     2
276
     2
284
    12
289
     0
340
94
  0
ENDTAB
  0
TABLE
  2
BLOCK_RECORD
  5
1
330
0
100
AcDbSymbolTable
 70
     8
  0
BLOCK_RECORD
  5
1F
330
1
100
AcDbSymbolTableRecord
100
AcDbBlockTableRecord
  2
*Model_Space
340
22
  0
BLOCK_RECORD
  5
1B
330
1
100
AcDbSymbolTableRecord
100
AcDbBlockTableRecord
  2
*Paper_Space
340
1E
  0
BLOCK_RECORD
  5
23
330
1
100
AcDbSymbolTableRecord
100
AcDbBlockTableRecord
  2
*Paper_Space0
340
26
  0
BLOCK_RECORD
  5
7F
330
1
100
AcDbSymbolTableRecord
100
AcDbBlockTableRecord
  2
블럭10
340
0
102
{BLKREFS
331
B9
102
}
  0
BLOCK_RECORD
  5
C2
330
1
100
AcDbSymbolTableRecord
100
AcDbBlockTableRecord
  2
_D
340
0
  0
BLOCK_RECORD
  5
D7
330
1
100
AcDbSymbolTableRecord
100
AcDbBlockTableRecord
  2
_D_1
340
0
  0
BLOCK_RECORD
  5
EA
330
1
100
AcDbSymbolTableRecord
100
AcDbBlockTableRecord
  2
_D_2
340
0
  0
BLOCK_RECORD
  5
FE
330
1
100
AcDbSymbolTableRecord
100
AcDbBlockTableRecord
  2
_D_3
340
0
  0
BLOCK_RECORD
  5
118
330
1
100
AcDbSymbolTableRecord
100
AcDbBlockTableRecord
  2
SW_DOWELSYMBOL_0
340
0
102
{BLKREFS
331
11E
102
}
  0
ENDTAB
  0
ENDSEC
  0
SECTION
  2
BLOCKS
  0
BLOCK
  5
20
330
1F
100
AcDbEntity
  8
0
100
AcDbBlockBegin
  2
*Model_Space
 70
     0
 10
0.0
 20
0.0
 30
0.0
  3
*Model_Space
  1
*Model_Space
  0
ENDBLK
  5
21
330
1F
100
AcDbEntity
  8
0
100
AcDbBlockEnd
  0
BLOCK
  5
1C
330
1B
100
AcDbEntity
 67
     1
  8
0
100
AcDbBlockBegin
  2
*Paper_Space
 70
     0
 10
0.0
 20
0.0
 30
0.0
  3
*Paper_Space
  1
*Paper_Space
  0
ENDBLK
  5
1D
330
1B
100
AcDbEntity
 67
     1
  8
0
100
AcDbBlockEnd
  0
BLOCK
  5
24
330
23
100
AcDbEntity
  8
0
100
AcDbBlockBegin
  2
*Paper_Space0
 70
     0
 10
0.0
 20
0.0
 30
0.0
  3
*Paper_Space0
  1
*Paper_Space0
  0
ENDBLK
  5
25
330
23
100
AcDbEntity
  8
0
100
AcDbBlockEnd
  0
BLOCK
  5
80
330
7F
100
AcDbEntity
  8
0
100
AcDbBlockBegin
  2
블럭10
 70
     2
 10
0.0
 20
0.0
 30
0.0
  3
블럭10
  1
블럭10
  0
ELLIPSE
  5
82
330
7F
100
AcDbEntity
  8
중심선
100
AcDbEllipse
 10
20.54032771741204
 20
12.0471743016438
 30
0.0
 11
6.600054785286829
 21
-1.261213355974178E-13
 31
0.0
210
0.0
220
0.0
230
1.0
 40
0.636358354079598
 41
0.9219305317359503
 42
6.513795318482858
  0
ELLIPSE
  5
83
330
7F
100
AcDbEntity
  8
중심선
100
AcDbEllipse
 10
20.54032771746488
 20
12.04717430159265
 30
0.0
 11
3.960054785062283
 21
1.540847449632565E-10
 31
0.0
210
0.0
220
0.0
230
1.0
 40
0.3939339440162632
 41
1.131841032648279
 42
5.62031148352944
  0
LINE
  5
84
330
7F
100
AcDbEntity
  8
중심선
100
AcDbLine
 10
2.268634060543552
 20
16.24717430164393
 30
0.0
 11
5.714909304380834
 21
16.24717430164393
 31
0.0
  0
LINE
  5
85
330
7F
100
AcDbEntity
  8
중심선
100
AcDbLine
 10
5.245725140726316
 20
7.84717430164391
 30
0.0
 11
8.692000384563599
 21
7.84717430164391
 31
0.0
  0
LINE
  5
86
330
7F
100
AcDbEntity
  8
중심선
100
AcDbLine
 10
15.74043728645272
 20
16.24717430164393
 30
0.0
 11
8.692000384563599
 21
7.84717430164391
 31
0.0
  0
LINE
  5
87
330
7F
100
AcDbEntity
  8
중심선
100
AcDbLine
 10
0.1404042013395286
 20
13.71084872107135
 30
0.0
 11
3.58671253028996
 21
13.71088815037384
 31
0.0
  0
LINE
  5
88
330
7F
100
AcDbEntity
  8
중심선
100
AcDbLine
 10
2.750260043222114
 20
10.84717430164391
 30
0.0
 11
6.196535287059397
 21
10.84717430164391
 31
0.0
  0
LINE
  5
89
330
7F
100
AcDbEntity
  8
중심선
100
AcDbLine
 10
12.29416204261559
 20
16.24717430164393
 30
0.0
 11
5.245725140726316
 21
7.84717430164391
 31
0.0
  0
LINE
  5
8A
330
7F
100
AcDbEntity
  8
중심선
100
AcDbLine
 10
10.72767329541681
 20
16.24717430164393
 30
0.0
 11
6.196535287059397
 21
10.84717430164391
 31
0.0
  0
LINE
  5
8B
330
7F
100
AcDbEntity
  8
중심선
100
AcDbLine
 10
7.28139805157953
 20
16.24717430164393
 30
0.0
 11
2.750260043222114
 21
10.84717430164391
 31
0.0
  0
LINE
  5
8C
330
7F
100
AcDbEntity
  8
중심선
100
AcDbLine
 10
5.714909304380834
 20
16.24717430164393
 30
0.0
 11
3.58671253028996
 21
13.71088815037384
 31
0.0
  0
LINE
  5
8D
330
7F
100
AcDbEntity
  8
중심선
100
AcDbLine
 10
2.268634060543552
 20
16.24717430164393
 30
0.0
 11
0.1404042013395286
 21
13.71084872107135
 31
0.0
  0
LINE
  5
8E
330
7F
100
AcDbEntity
  8
중심선
100
AcDbLine
 10
7.28139805157953
 20
16.24717430164393
 30
0.0
 11
10.72767329541681
 21
16.24717430164393
 31
0.0
  0
LINE
  5
8F
330
7F
100
AcDbEntity
  8
중심선
100
AcDbLine
 10
12.29416204261559
 20
16.24717430164393
 30
0.0
 11
15.74043728645272
 21
16.24717430164393
 31
0.0
  0
LINE
  5
90
330
7F
100
AcDbEntity
  8
중심선
100
AcDbLine
 10
19.22036997980202
 20
11.08717430171403
 30
0.0
 11
23.66174974927406
 21
11.08717430171406
 31
0.0
  0
LINE
  5
91
330
7F
100
AcDbEntity
  8
중심선
100
AcDbLine
 10
19.22039502424796
 20
13.00717430171391
 30
0.0
 11
19.22036997980202
 21
11.08717430171403
 31
0.0
  0
LINE
  5
92
330
7F
100
AcDbEntity
  8
중심선
100
AcDbLine
 10
19.22039502424796
 20
13.00717430171391
 30
0.0
 11
26.96566020931264
 21
13.00717430171391
 31
0.0
  0
LINE
  5
93
330
7F
100
AcDbEntity
  8
중심선
100
AcDbLine
 10
22.22332737316547
 20
13.45928029700563
 30
0.0
 11
24.52862924686651
 21
15.39360700705356
 31
0.0
  0
ATTDEF
  5
95
330
7F
100
AcDbEntity
  8
FORMAT
 62
     2
100
AcDbText
 10
4.408487351596664
 20
2.075366912832191
 30
0.0
 40
4.233333333333333
  1
E2069024
 41
0.75
  7
SLDTEXTSTYLE0
 11
4.408487351596664
 21
-0.0412997538344756
 31
0.0
100
AcDbAttributeDefinition
  3

  2
AUTOATTR0
 70
     0
 74
     1
  0
ENDBLK
  5
81
330
7F
100
AcDbEntity
  8
0
100
AcDbBlockEnd
  0
BLOCK
  5
C3
330
C2
100
AcDbEntity
  8
0
100
AcDbBlockBegin
  2
_D
 70
     0
 10
0.0
 20
0.0
 30
0.0
  3
_D
  1
_D
  0
LINE
  5
C5
330
C2
100
AcDbEntity
  8
치수문자_일반주서
 62
     0
370
    -2
100
AcDbLine
 10
44.45000000000002
 20
1.377514629548137
 30
0.0
 11
44.45000000000002
 21
22.82277225922702
 31
0.0
  0
LINE
  5
C6
330
C2
100
AcDbEntity
  8
치수문자_일반주서
 62
     0
370
    -2
100
AcDbLine
 10
25.40000000000001
 20
4.825000000000001
 30
0.0
 11
25.40000000000001
 21
22.82277225922702
 31
0.0
  0
LINE
  5
C7
330
C2
100
AcDbEntity
  8
치수문자_일반주서
 62
     0
370
    -2
100
AcDbLine
 10
41.14800000000002
 20
22.82277225922702
 30
0.0
 11
28.70200000000001
 21
22.82277225922702
 31
0.0
  0
SOLID
  5
C8
330
C2
100
AcDbEntity
  8
치수문자_일반주서
 62
     0
100
AcDbTrace
 10
41.14800000000002
 20
22.27243892589368
 30
0.0
 11
41.14800000000002
 21
23.37310559256035
 31
0.0
 12
44.45000000000002
 22
22.82277225922702
 32
0.0
 13
44.45000000000002
 23
22.82277225922702
 33
0.0
  0
SOLID
  5
C9
330
C2
100
AcDbEntity
  8
치수문자_일반주서
 62
     0
100
AcDbTrace
 10
28.70200000000001
 20
23.37310559256035
 30
0.0
 11
28.70200000000001
 21
22.27243892589368
 31
0.0
 12
25.40000000000001
 22
22.82277225922702
 32
0.0
 13
25.40000000000001
 23
22.82277225922702
 33
0.0
  0
MTEXT
  5
CA
330
C2
100
AcDbEntity
  8
치수문자_일반주서
 62
     0
100
AcDbMText
 10
34.92500000000001
 20
27.19777225922702
 30
0.0
 40
3.5
 41
0.0
 71
     2
 72
     1
  1
\A1;19.05 [3/4]
  7
SLDTEXTSTYLE0
 73
     1
 44
1.0
  0
POINT
  5
CB
330
C2
100
AcDbEntity
  8
Defpoints
 62
     0
100
AcDbPoint
 10
44.45000000000002
 20
1.315014629548137
 30
0.0
  0
POINT
  5
CC
330
C2
100
AcDbEntity
  8
Defpoints
 62
     0
100
AcDbPoint
 10
25.40000000000001
 20
4.762500000000001
 30
0.0
  0
POINT
  5
CD
330
C2
100
AcDbEntity
  8
Defpoints
 62
     0
100
AcDbPoint
 10
25.40000000000001
 20
22.82277225922702
 30
0.0
  0
ENDBLK
  5
C4
330
C2
100
AcDbEntity
  8
0
100
AcDbBlockEnd
  0
BLOCK
  5
D8
330
D7
100
AcDbEntity
  8
0
100
AcDbBlockBegin
  2
_D_1
 70
     0
 10
0.0
 20
0.0
 30
0.0
  3
_D_1
  1
_D_1
  0
LINE
  5
DA
330
D7
100
AcDbEntity
  8
치수문자_일반주서
 62
     0
370
    -2
100
AcDbLine
 10
44.45000000000002
 20
1.377514629548137
 30
0.0
 11
44.45000000000002
 21
35.75282056895201
 31
0.0
  0
LINE
  5
DB
330
D7
100
AcDbEntity
  8
치수문자_일반주서
 62
     0
370
    -2
100
AcDbLine
 10
-44.45000000000002
 20
3.872500000000006
 30
0.0
 11
-44.45000000000002
 21
35.75282056895201
 31
0.0
  0
LINE
  5
DC
330
D7
100
AcDbEntity
  8
치수문자_일반주서
 62
     0
370
    -2
100
AcDbLine
 10
41.14800000000002
 20
35.75282056895201
 30
0.0
 11
-41.14800000000002
 21
35.75282056895201
 31
0.0
  0
SOLID
  5
DD
330
D7
100
AcDbEntity
  8
치수문자_일반주서
 62
     0
100
AcDbTrace
 10
41.14800000000002
 20
35.20248723561868
 30
0.0
 11
41.14800000000002
 21
36.30315390228535
 31
0.0
 12
44.45000000000002
 22
35.75282056895201
 32
0.0
 13
44.45000000000002
 23
35.75282056895201
 33
0.0
  0
SOLID
  5
DE
330
D7
100
AcDbEntity
  8
치수문자_일반주서
 62
     0
100
AcDbTrace
 10
-41.14800000000002
 20
36.30315390228535
 30
0.0
 11
-41.14800000000002
 21
35.20248723561868
 31
0.0
 12
-44.45000000000002
 22
35.75282056895201
 32
0.0
 13
-44.45000000000002
 23
35.75282056895201
 33
0.0
  0
MTEXT
  5
DF
330
D7
100
AcDbEntity
  8
치수문자_일반주서
 62
     0
100
AcDbMText
 10
0.0000000000000018
 20
40.12782056895201
 30
0.0
 40
3.5
 41
0.0
 71
     2
 72
     1
  1
\A1;88.90 [3 1/2]
  7
SLDTEXTSTYLE0
 73
     1
 44
1.0
  0
POINT
  5
E0
330
D7
100
AcDbEntity
  8
Defpoints
 62
     0
100
AcDbPoint
 10
44.45000000000002
 20
1.315014629548137
 30
0.0
  0
POINT
  5
E1
330
D7
100
AcDbEntity
  8
Defpoints
 62
     0
100
AcDbPoint
 10
-44.45000000000002
 20
3.810000000000006
 30
0.0
  0
POINT
  5
E2
330
D7
100
AcDbEntity
  8
Defpoints
 62
     0
100
AcDbPoint
 10
-44.45000000000002
 20
35.75282056895201
 30
0.0
  0
ENDBLK
  5
D9
330
D7
100
AcDbEntity
  8
0
100
AcDbBlockEnd
  0
BLOCK
  5
EB
330
EA
100
AcDbEntity
  8
0
100
AcDbBlockBegin
  2
_D_2
 70
     0
 10
0.0
 20
0.0
 30
0.0
  3
_D_2
  1
_D_2
  0
LINE
  5
ED
330
EA
100
AcDbEntity
  8
치수문자_일반주서
 62
     0
370
    -2
100
AcDbLine
 10
29.07429247361362
 20
4.762500000000018
 30
0.0
 11
60.87181971752125
 21
4.762500000000134
 31
0.0
  0
LINE
  5
EE
330
EA
100
AcDbEntity
  8
치수문자_일반주서
 62
     0
370
    -2
100
AcDbLine
 10
29.07429247361367
 20
-4.762500000000022
 30
0.0
 11
60.87181971752128
 21
-4.762499999999903
 31
0.0
  0
LINE
  5
EF
330
EA
100
AcDbEntity
  8
치수문자_일반주서
 62
     0
370
    -2
100
AcDbLine
 10
60.87181971752125
 20
4.762500000000134
 30
0.0
 11
60.87181971752113
 21
34.31450000000014
 31
0.0
  0
LINE
  5
F0
330
EA
100
AcDbEntity
  8
치수문자_일반주서
 62
     0
370
    -2
100
AcDbLine
 10
60.87181971752126
 20
1.460500000000135
 30
0.0
 11
60.87181971752127
 21
-1.460499999999904
 31
0.0
  0
SOLID
  5
F1
330
EA
100
AcDbEntity
  8
치수문자_일반주서
 62
     0
100
AcDbTrace
 10
61.4221530508546
 20
1.460500000000137
 30
0.0
 11
60.32148638418793
 21
1.460500000000133
 31
0.0
 12
60.87181971752125
 22
4.762500000000134
 32
0.0
 13
60.87181971752125
 23
4.762500000000134
 33
0.0
  0
SOLID
  5
F2
330
EA
100
AcDbEntity
  8
치수문자_일반주서
 62
     0
100
AcDbTrace
 10
60.32148638418793
 20
-1.460499999999906
 30
0.0
 11
61.4221530508546
 21
-1.460499999999902
 31
0.0
 12
60.87181971752128
 22
-4.762499999999903
 32
0.0
 13
60.87181971752128
 23
-4.762499999999903
 33
0.0
  0
MTEXT
  5
F3
330
EA
100
AcDbEntity
  8
치수문자_일반주서
 62
     0
100
AcDbMText
 10
56.49681971752118
 20
21.18950000000012
 30
0.0
 40
3.5
 41
0.0
 71
     2
 72
     1
  1
\A1;%%c9.53 [3/8]
  7
SLDTEXTSTYLE0
 11
-3.729883127349591E-15
 21
1.0
 31
0.0
 73
     1
 44
1.0
  0
POINT
  5
F4
330
EA
100
AcDbEntity
  8
Defpoints
 62
     0
100
AcDbPoint
 10
29.01179247361362
 20
4.762500000000018
 30
0.0
  0
POINT
  5
F5
330
EA
100
AcDbEntity
  8
Defpoints
 62
     0
100
AcDbPoint
 10
29.01179247361367
 20
-4.762500000000022
 30
0.0
  0
POINT
  5
F6
330
EA
100
AcDbEntity
  8
Defpoints
 62
     0
100
AcDbPoint
 10
60.87181971752128
 20
-4.762499999999903
 30
0.0
  0
ENDBLK
  5
EC
330
EA
100
AcDbEntity
  8
0
100
AcDbBlockEnd
  0
BLOCK
  5
FF
330
FE
100
AcDbEntity
  8
0
100
AcDbBlockBegin
  2
_D_3
 70
     0
 10
0.0
 20
0.0
 30
0.0
  3
_D_3
  1
_D_3
  0
LINE
  5
101
330
FE
100
AcDbEntity
  8
치수문자_일반주서
 62
     0
370
    -2
100
AcDbLine
 10
-25.46249999999998
 20
4.762500000000006
 30
0.0
 11
-57.45000000000005
 21
4.762499999999886
 31
0.0
  0
LINE
  5
102
330
FE
100
AcDbEntity
  8
치수문자_일반주서
 62
     0
370
    -2
100
AcDbLine
 10
-25.46249999999998
 20
-4.762500000000003
 30
0.0
 11
-57.45000000000002
 21
-4.762500000000122
 31
0.0
  0
LINE
  5
103
330
FE
100
AcDbEntity
  8
치수문자_일반주서
 62
     0
370
    -2
100
AcDbLine
 10
-57.45000000000004
 20
1.460499999999887
 30
0.0
 11
-57.45000000000003
 21
-1.460500000000122
 31
0.0
  0
SOLID
  5
104
330
FE
100
AcDbEntity
  8
치수문자_일반주서
 62
     0
100
AcDbTrace
 10
-56.8996666666667
 20
1.460499999999889
 30
0.0
 11
-58.00033333333337
 21
1.460499999999885
 31
0.0
 12
-57.45000000000005
 22
4.762499999999886
 32
0.0
 13
-57.45000000000005
 23
4.762499999999886
 33
0.0
  0
SOLID
  5
105
330
FE
100
AcDbEntity
  8
치수문자_일반주서
 62
     0
100
AcDbTrace
 10
-58.00033333333337
 20
-1.460500000000124
 30
0.0
 11
-56.8996666666667
 21
-1.46050000000012
 31
0.0
 12
-57.45000000000002
 22
-4.762500000000122
 32
0.0
 13
-57.45000000000002
 23
-4.762500000000122
 33
0.0
  0
MTEXT
  5
106
330
FE
100
AcDbEntity
  8
치수문자_일반주서
 62
     0
100
AcDbMText
 10
-61.82500000000004
 20
-0.0000000000000173
 30
0.0
 40
3.5
 41
0.0
 71
     2
 72
     1
  1
\A1;%%c9.53 [3/8]
  7
SLDTEXTSTYLE0
 11
-3.729883127349603E-15
 21
1.0
 31
0.0
 73
     1
 44
1.0
  0
POINT
  5
107
330
FE
100
AcDbEntity
  8
Defpoints
 62
     0
100
AcDbPoint
 10
-25.39999999999998
 20
4.762500000000006
 30
0.0
  0
POINT
  5
108
330
FE
100
AcDbEntity
  8
Defpoints
 62
     0
100
AcDbPoint
 10
-25.39999999999998
 20
-4.762500000000003
 30
0.0
  0
POINT
  5
109
330
FE
100
AcDbEntity
  8
Defpoints
 62
     0
100
AcDbPoint
 10
-57.45000000000002
 20
-4.762500000000123
 30
0.0
  0
ENDBLK
  5
100
330
FE
100
AcDbEntity
  8
0
100
AcDbBlockEnd
  0
BLOCK
  5
119
330
118
100
AcDbEntity
  8
0
100
AcDbBlockBegin
  2
SW_DOWELSYMBOL_0
 70
     0
 10
0.0
 20
0.0
 30
0.0
  3
SW_DOWELSYMBOL_0
  1
SW_DOWELSYMBOL_0
  0
CIRCLE
  5
11B
330
118
100
AcDbEntity
  8
해칭선
 62
     0
100
AcDbCircle
 10
0.0
 20
0.0
 30
0.0
 40
3.000000000000001
  0
HATCH
  5
11C
330
118
100
AcDbEntity
  8
0
  6
Continuous
 62
     0
370
     0
100
AcDbHatch
 10
0.0
 20
0.0
 30
0.0
210
0.0
220
0.0
230
1.0
  2
SOLID
 70
     1
 71
     0
 91
        1
 92
        0
 93
        3
 72
     2
 10
0.0
 20
0.0
 40
3.000000000000001
 50
0.0
 51
90.0
 73
     1
 72
     1
 10
0.0
 20
3.000000000000001
 11
0.0
 21
0.0
 72
     1
 10
0.0
 20
0.0
 11
3.000000000000001
 21
0.0
 97
        0
 75
     0
 76
     1
 98
        1
 10
0.0
 20
0.0
  0
HATCH
  5
11D
330
118
100
AcDbEntity
  8
0
  6
Continuous
 62
     0
370
     0
100
AcDbHatch
 10
0.0
 20
0.0
 30
0.0
210
0.0
220
0.0
230
1.0
  2
SOLID
 70
     1
 71
     0
 91
        1
 92
        0
 93
        3
 72
     2
 10
0.0
 20
0.0
 40
3.000000000000001
 50
180.0
 51
270.0000000000008
 73
     1
 72
     1
 10
0.0
 20
-3.000000000000001
 11
0.0
 21
0.0
 72
     1
 10
0.0
 20
0.0
 11
-3.000000000000001
 21
0.0
 97
        0
 75
     0
 76
     1
 98
        1
 10
0.0
 20
0.0
  0
ENDBLK
  5
11A
330
118
100
AcDbEntity
  8
0
100
AcDbBlockEnd
  0
ENDSEC
  0
SECTION
  2
ENTITIES
  0
ARC
  5
96
330
1F
100
AcDbEntity
  8
외형선
  6
Continuous
 62
     1
370
    15
100
AcDbCircle
 10
39.68749999999991
 20
-0.0000000000000003
 30
0.0
 40
4.762500000000032
100
AcDbArc
 50
332.8951574986372
 51
0.0
  0
ARC
  5
97
330
1F
100
AcDbEntity
  8
외형선
  6
Continuous
 62
     1
370
    15
100
AcDbCircle
 10
39.68749999999991
 20
-0.0000000000000003
 30
0.0
 40
4.762500000000038
100
AcDbArc
 50
270.0000000000007
 51
295.9936411828901
  0
ARC
  5
98
330
1F
100
AcDbEntity
  8
외형선
  6
Continuous
 62
     1
370
    15
100
AcDbCircle
 10
39.68749999999991
 20
-0.0000000000000003
 30
0.0
 40
4.762500000000038
100
AcDbArc
 50
64.00332248422859
 51
90.0
  0
ARC
  5
99
330
1F
100
AcDbEntity
  8
외형선
  6
Continuous
 62
     1
370
    15
100
AcDbCircle
 10
39.68749999999991
 20
-0.0000000000000003
 30
0.0
 40
4.762500000000036
100
AcDbArc
 50
0.0
 51
27.09732160075648
  0
LINE
  5
9A
330
1F
100
AcDbEntity
  8
외형선
  6
Continuous
 62
     1
370
    15
100
AcDbLine
 10
39.06588386350865
 20
-4.762500000000022
 30
0.0
 11
39.68749999999991
 21
-4.762500000000022
 31
0.0
  0
LINE
  5
9B
330
1F
100
AcDbEntity
  8
외형선
  6
Continuous
 62
     1
370
    15
100
AcDbLine
 10
29.01157403605037
 20
4.762500000000018
 30
0.0
 11
26.10779390253569
 21
4.762500000000018
 31
0.0
  0
LINE
  5
9C
330
1F
100
AcDbEntity
  8
외형선
  6
Continuous
 62
     1
370
    15
100
AcDbLine
 10
26.10779390253568
 20
-4.762500000000022
 30
0.0
 11
29.01157403605044
 21
-4.762500000000022
 31
0.0
  0
LINE
  5
9D
330
1F
100
AcDbEntity
  8
외형선
  6
Continuous
 62
     1
370
    15
100
AcDbLine
 10
39.68749999999991
 20
4.762500000000018
 30
0.0
 11
39.06588386350858
 21
4.762500000000018
 31
0.0
  0
LINE
  5
9E
330
1F
100
AcDbEntity
  8
외형선
  6
Continuous
370
    15
100
AcDbLine
 10
-25.39999999999998
 20
-4.762500000000003
 30
0.0
 11
25.39999999999998
 21
-4.762500000000003
 31
0.0
  0
LINE
  5
9F
330
1F
100
AcDbEntity
  8
외형선
  6
Continuous
370
    15
100
AcDbLine
 10
25.39999999999998
 20
4.762499999999999
 30
0.0
 11
4.838700000000017
 21
4.762499999999999
 31
0.0
  0
SPLINE
  5
A2
330
1F
100
AcDbEntity
  8
외형선
  6
Continuous
 62
     1
370
    15
100
AcDbSpline
210
0.0
220
0.0
230
1.0
 70
     8
 71
     3
 72
    16
 73
    12
 74
     0
 42
0.000000001
 43
0.00000001
 40
0.0
 40
0.0
 40
0.0
 40
0.0
 40
0.1171475612397372
 40
0.2342380395131742
 40
0.3512925571260597
 40
0.4683323936221428
 40
0.5853788928619266
 40
0.7003654410710074
 40
0.8154159663404301
 40
0.930486678734939
 40
1.0
 40
1.0
 40
1.0
 40
1.0
 10
25.39999999999997
 20
0.4080574258305409
 30
0.0
 10
25.93370526722121
 20
0.0997304696348331
 30
0.0
 10
27.00085574093808
 20
-0.5167732030327358
 30
0.0
 10
28.60107450866885
 20
-1.426449157042345
 30
0.0
 10
30.20072048419598
 20
-2.281345449786905
 30
0.0
 10
31.80011782825042
 20
-3.051092025404217
 30
0.0
 10
33.39013002095818
 20
-3.701902507099892
 30
0.0
 10
34.97110079076654
 20
-4.214835148533006
 30
0.0
 10
36.54329768679166
 20
-4.564594161230778
 30
0.0
 10
37.90844223096321
 20
-4.749159647713479
 30
0.0
 10
38.74924297571761
 20
-4.743852284963912
 30
0.0
 10
39.06588386350865
 20
-4.741853561647673
 30
0.0
  0
SPLINE
  5
A3
330
1F
100
AcDbEntity
  8
외형선
  6
Continuous
 62
     1
370
    15
100
AcDbSpline
210
0.0
220
0.0
230
1.0
 70
     8
 71
     3
 72
    13
 73
     9
 74
     0
 42
0.000000001
 43
0.00000001
 40
0.0
 40
0.0
 40
0.0
 40
0.0
 40
0.0869506302649389
 40
0.2721782203975789
 40
0.4540653902122423
 40
0.6359670736115327
 40
0.8179298580285664
 40
1.0
 40
1.0
 40
1.0
 40
1.0
 10
34.03599122358494
 20
-3.887525153880649
 30
0.0
 10
33.78567678855873
 20
-3.97408630463845
 30
0.0
 10
33.00212712068782
 20
-4.245045352284651
 30
0.0
 10
31.69506584256635
 20
-4.535409579864114
 30
0.0
 10
30.11477141345773
 20
-4.750427610907358
 30
0.0
 10
28.54383561349906
 20
-4.781448699437499
 30
0.0
 10
26.97228858604722
 20
-4.652714681369351
 30
0.0
 10
25.92419922660647
 20
-4.426465418858604
 30
0.0
 10
25.39999999999998
 20
-4.313307425830507
 30
0.0
  0
SPLINE
  5
A4
330
1F
100
AcDbEntity
  8
외형선
  6
Continuous
 62
     1
370
    15
100
AcDbSpline
210
0.0
220
0.0
230
1.0
 70
     8
 71
     3
 72
    34
 73
    30
 74
     0
 42
0.000000001
 43
0.00000001
 40
0.0
 40
0.0
 40
0.0
 40
0.0
 40
0.1250000000000016
 40
0.1250000000000016
 40
0.2500000000000033
 40
0.2500000000000033
 40
0.312500000000003
 40
0.312500000000003
 40
0.3750000000000027
 40
0.3750000000000027
 40
0.4375000000000025
 40
0.4375000000000025
 40
0.5000000000000022
 40
0.5000000000000022
 40
0.562500000000002
 40
0.562500000000002
 40
0.6250000000000018
 40
0.6250000000000018
 40
0.6875000000000014
 40
0.6875000000000014
 40
0.7500000000000011
 40
0.7500000000000011
 40
0.8125000000000009
 40
0.8125000000000009
 40
0.8750000000000006
 40
0.8750000000000006
 40
0.9375000000000003
 40
0.9375000000000003
 40
1.0
 40
1.0
 40
1.0
 40
1.0
 10
25.39999999999997
 20
4.744986342153659
 30
0.0
 10
25.99152664369727
 20
4.774371482236392
 30
0.0
 10
26.59388914608205
 20
4.766591115828303
 30
0.0
 10
27.77846431579204
 20
4.677145583051746
 30
0.0
 10
28.37927915881222
 20
4.595083114198003
 30
0.0
 10
29.26877000785521
 20
4.419882637539091
 30
0.0
 10
29.56553769165484
 20
4.352742157710088
 30
0.0
 10
30.16250921339917
 20
4.201434499716578
 30
0.0
 10
30.46147229670758
 20
4.117348211505163
 30
0.0
 10
31.05511766462214
 20
3.933875374240503
 30
0.0
 10
31.35125277633563
 20
3.834371645101136
 30
0.0
 10
31.94805594931505
 20
3.620255709156279
 30
0.0
 10
32.24712762650342
 20
3.505805845118531
 30
0.0
 10
32.84136941445762
 20
3.264189289491521
 30
0.0
 10
33.13701739931665
 20
3.136990776348365
 30
0.0
 10
33.73359618931747
 20
2.870081047489348
 30
0.0
 10
34.03274823406852
 20
2.730607354902594
 30
0.0
 10
34.62753120786834
 20
2.44210204735062
 30
0.0
 10
34.92283766282733
 20
2.293151207476298
 30
0.0
 10
35.51913610588748
 20
1.98592888976307
 30
0.0
 10
35.81834026651052
 20
1.827942408451863
 30
0.0
 10
36.41360902327945
 20
1.506003765543326
 30
0.0
 10
36.70871965170193
 20
1.342243267053399
 30
0.0
 10
37.30468187158724
 20
1.009071193104655
 30
0.0
 10
37.60390987993309
 20
0.8399495083875946
 30
0.0
 10
38.1996088652204
 20
0.4996041886226924
 30
0.0
 10
38.49466943149537
 20
0.3286578244622901
 30
0.0
 10
39.0902396571184
 20
-0.0148926904085091
 30
0.0
 10
39.38946323750564
 20
-0.1872508538032355
 30
0.0
 10
39.68749999999989
 20
-0.3586795046103807
 30
0.0
  0
SPLINE
  5
A5
330
1F
100
AcDbEntity
  8
외형선
  6
Continuous
 62
     1
370
    15
100
AcDbSpline
210
0.0
220
0.0
230
1.0
 70
     8
 71
     3
 72
    44
 73
    40
 74
     0
 42
0.000000001
 43
0.00000001
 40
0.0
 40
0.0
 40
0.0
 40
0.0
 40
0.0624999999999998
 40
0.0624999999999998
 40
0.1249999999999997
 40
0.1249999999999997
 40
0.1874999999999995
 40
0.1874999999999995
 40
0.2499999999999993
 40
0.2499999999999993
 40
0.3124999999999992
 40
0.3124999999999992
 40
0.374999999999999
 40
0.374999999999999
 40
0.4374999999999988
 40
0.4374999999999988
 40
0.4687499999999983
 40
0.4687499999999983
 40
0.4999999999999978
 40
0.4999999999999978
 40
0.5312499999999972
 40
0.5312499999999972
 40
0.5624999999999968
 40
0.5624999999999968
 40
0.5937499999999962
 40
0.5937499999999962
 40
0.6249999999999957
 40
0.6249999999999957
 40
0.6874999999999964
 40
0.6874999999999964
 40
0.7499999999999971
 40
0.7499999999999971
 40
0.8124999999999978
 40
0.8124999999999978
 40
0.8749999999999986
 40
0.8749999999999986
 40
0.9374999999999992
 40
0.9374999999999992
 40
1.0
 40
1.0
 40
1.0
 40
1.0
 10
39.68749999999989
 20
-0.3586795046103889
 30
0.0
 10
39.92944102287581
 20
-0.4978422803009095
 30
0.0
 10
40.17000246750906
 20
-0.6292063833869393
 30
0.0
 10
40.65298790740813
 20
-0.8682376294976082
 30
0.0
 10
40.89740596278183
 20
-0.9765121200629489
 30
0.0
 10
41.38082873904377
 20
-1.161701635093793
 30
0.0
 10
41.61616302595601
 20
-1.237429281376086
 30
0.0
 10
42.07352925717606
 20
-1.35853454663542
 30
0.0
 10
42.29767619180762
 20
-1.403981690851603
 30
0.0
 10
42.71699914868045
 20
-1.466833132004145
 30
0.0
 10
42.91230234881586
 20
-1.484928297859631
 30
0.0
 10
43.27020387066784
 20
-1.509089043073384
 30
0.0
 10
43.43338433909225
 20
-1.515032337725511
 30
0.0
 10
43.7089841016846
 20
-1.535053075282328
 30
0.0
 10
43.82365969852936
 20
-1.548986755644522
 30
0.0
 10
43.94960689083494
 20
-1.599071448104904
 30
0.0
 10
43.98321300935421
 20
-1.620486018268484
 30
0.0
 10
44.03196869502149
 20
-1.677550064707787
 30
0.0
 10
44.0471561336453
 20
-1.713682954080096
 30
0.0
 10
44.05535430858336
 20
-1.804057237862838
 30
0.0
 10
44.04864457751497
 20
-1.857971636999504
 30
0.0
 10
44.01098032017114
 20
-1.988425688416632
 30
0.0
 10
43.98016761717704
 20
-2.063796594323211
 30
0.0
 10
43.89630766258821
 20
-2.231465156237428
 30
0.0
 10
43.84188617464704
 20
-2.326190280867572
 30
0.0
 10
43.71529451254965
 20
-2.524343241386578
 30
0.0
 10
43.64259900666931
 20
-2.628847225087503
 30
0.0
 10
43.40252018785926
 20
-2.948346975904086
 30
0.0
 10
43.21680499460298
 20
-3.164036770493774
 30
0.0
 10
42.82765070819149
 20
-3.556695861734665
 30
0.0
 10
42.61953187398271
 20
-3.738283276659277
 30
0.0
 10
42.19915785458043
 20
-4.048160043166562
 30
0.0
 10
41.98239619923621
 20
-4.180338858447151
 30
0.0
 10
41.54158289841219
 20
-4.393550958031202
 30
0.0
 10
41.31995015751562
 20
-4.473965689192183
 30
0.0
 10
40.86697711581657
 20
-4.586874636676143
 30
0.0
 10
40.63392179699929
 20
-4.619119120402746
 30
0.0
 10
40.1657213948649
 20
-4.635114556680249
 30
0.0
 10
39.92941487597977
 20
-4.619534661383236
 30
0.0
 10
39.68749999999989
 20
-4.581421558470593
 30
0.0
  0
SPLINE
  5
A6
330
1F
100
AcDbEntity
  8
외형선
  6
Continuous
 62
     1
370
    15
100
AcDbSpline
210
0.0
220
0.0
230
1.0
 70
     8
 71
     3
 72
    34
 73
    30
 74
     0
 42
0.000000001
 43
0.00000001
 40
0.0
 40
0.0
 40
0.0
 40
0.0
 40
0.125
 40
0.125
 40
0.25
 40
0.25
 40
0.3125
 40
0.3125
 40
0.375
 40
0.375
 40
0.4375
 40
0.4375
 40
0.5
 40
0.5
 40
0.5625
 40
0.5625
 40
0.625
 40
0.625
 40
0.6875
 40
0.6875
 40
0.75
 40
0.75
 40
0.8125
 40
0.8125
 40
0.875
 40
0.875
 40
0.9375
 40
0.9375
 40
1.0
 40
1.0
 40
1.0
 40
1.0
 10
25.39999999999998
 20
2.019105074104726
 30
0.0
 10
25.99152664369724
 20
1.70849403040185
 30
0.0
 10
26.59388914608208
 20
1.38012782520931
 30
0.0
 10
27.77846431579209
 20
0.710653226923576
 30
0.0
 10
28.37927915881218
 20
0.3661175131384965
 30
0.0
 10
29.26877000785525
 20
-0.1487383915657118
 30
0.0
 10
29.56553769165486
 20
-0.3204547363143176
 30
0.0
 10
30.16250921339922
 20
-0.662623941741044
 30
0.0
 10
30.46147229670757
 20
-0.8328335971011571
 30
0.0
 10
31.05511766462212
 20
-1.168535032705132
 30
0.0
 10
31.35125277633565
 20
-1.334309137339084
 30
0.0
 10
31.94805594931508
 20
-1.660834650843795
 30
0.0
 10
32.24712762650345
 20
-1.821280095281848
 30
0.0
 10
32.84136941445757
 20
-2.133751448612441
 30
0.0
 10
33.1370173993166
 20
-2.285880875168051
 30
0.0
 10
33.73359618931743
 20
-2.581514664346127
 30
0.0
 10
34.03274823406852
 20
-2.724699353693204
 30
0.0
 10
34.62753120786838
 20
-2.999323471302681
 30
0.0
 10
34.92283766282735
 20
-3.130744585449362
 30
0.0
 10
35.5191361058875
 20
-3.381686996298976
 30
0.0
 10
35.81834026651052
 20
-3.500920415781126
 30
0.0
 10
36.41360902327943
 20
-3.724842685931312
 30
0.0
 10
36.70871965170191
 20
-3.829453990241342
 30
0.0
 10
37.30468187158721
 20
-4.023999570004229
 30
0.0
 10
37.60390987993309
 20
-4.113710652328034
 30
0.0
 10
38.1996088652204
 20
-4.276442145523982
 30
0.0
 10
38.4946694314954
 20
-4.349383538601873
 30
0.0
 10
39.09023965711842
 20
-4.478468497910192
 30
0.0
 10
39.38946323750565
 20
-4.534466588237017
 30
0.0
 10
39.68749999999992
 20
-4.58142155847059
 30
0.0
  0
SPLINE
  5
A7
330
1F
100
AcDbEntity
  8
외형선
  6
Continuous
 62
     1
370
    15
100
AcDbSpline
210
0.0
220
0.0
230
1.0
 70
     8
 71
     3
 72
    11
 73
     7
 74
     0
 42
0.000000001
 43
0.00000001
 40
0.0
 40
0.0
 40
0.0
 40
0.0
 40
0.1654299977296174
 40
0.4436438769904008
 40
0.7219065725287992
 40
1.0
 40
1.0
 40
1.0
 40
1.0
 10
34.03599122358487
 20
3.887525153880644
 30
0.0
 10
34.34760387343873
 20
3.992512215936739
 30
0.0
 10
35.18327482790711
 20
4.274062526543182
 30
0.0
 10
36.54330456603245
 20
4.563268818286024
 30
0.0
 10
38.11566946033786
 20
4.768367301703662
 30
0.0
 10
39.16366276870572
 20
4.755437207551051
 30
0.0
 10
39.68749999999989
 20
4.748974127427167
 30
0.0
  0
SPLINE
  5
A8
330
1F
100
AcDbEntity
  8
외형선
  6
Continuous
 62
     1
370
    15
100
AcDbSpline
210
0.0
220
0.0
230
1.0
 70
     8
 71
     3
 72
    44
 73
    40
 74
     0
 42
0.000000001
 43
0.00000001
 40
0.0
 40
0.0
 40
0.0
 40
0.0
 40
0.0624999999999998
 40
0.0624999999999998
 40
0.1249999999999997
 40
0.1249999999999997
 40
0.1874999999999996
 40
0.1874999999999996
 40
0.2499999999999993
 40
0.2499999999999993
 40
0.3124999999999991
 40
0.3124999999999991
 40
0.3749999999999989
 40
0.3749999999999989
 40
0.4374999999999988
 40
0.4374999999999988
 40
0.4687499999999982
 40
0.4687499999999982
 40
0.4999999999999977
 40
0.4999999999999977
 40
0.5312499999999971
 40
0.5312499999999971
 40
0.5624999999999967
 40
0.5624999999999967
 40
0.5937499999999961
 40
0.5937499999999961
 40
0.6249999999999956
 40
0.6249999999999956
 40
0.6874999999999963
 40
0.6874999999999963
 40
0.7499999999999971
 40
0.7499999999999971
 40
0.8124999999999978
 40
0.8124999999999978
 40
0.8749999999999986
 40
0.8749999999999986
 40
0.9374999999999992
 40
0.9374999999999992
 40
1.0
 40
1.0
 40
1.0
 40
1.0
 10
39.68749999999989
 20
4.748974127427185
 30
0.0
 10
39.92944102287584
 20
4.738463470997916
 30
0.0
 10
40.17000246750903
 20
4.704097654770504
 30
0.0
 10
40.65298790740811
 20
4.590342097168517
 30
0.0
 10
40.89740596278185
 20
4.510140934275801
 30
0.0
 10
41.38082873904379
 20
4.306031432651626
 30
0.0
 10
41.61616302595603
 20
4.184066576188046
 30
0.0
 10
42.07352925717605
 20
3.90110672470886
 30
0.0
 10
42.29767619180763
 20
3.738198261942297
 30
0.0
 10
42.71699914868049
 20
3.380657636779207
 30
0.0
 10
42.91230234881587
 20
3.186477229533395
 30
0.0
 10
43.27020387066784
 20
2.764938083976727
 30
0.0
 10
43.43338433909225
 20
2.535938811168273
 30
0.0
 10
43.70898410168461
 20
2.056510587418449
 30
0.0
 10
43.82365969852936
 20
1.803443105459197
 30
0.0
 10
43.94960689083495
 20
1.406544011517208
 30
0.0
 10
43.98321300935417
 20
1.273405395834778
 30
0.0
 10
44.03196869502148
 20
1.006033813873441
 30
0.0
 10
44.04715613364531
 20
0.870364999747562
 30
0.0
 10
44.05535430858338
 20
0.6066896447325296
 30
0.0
 10
44.04864457751498
 20
0.4789431946990968
 30
0.0
 10
44.01098032017114
 20
0.2338983034768567
 30
0.0
 10
43.98016761717706
 20
0.1195112853325744
 30
0.0
 10
43.89630766258822
 20
-0.0838803758894614
 30
0.0
 10
43.84188617464707
 20
-0.1752664892604
 30
0.0
 10
43.71529451254968
 20
-0.3246022450631024
 30
0.0
 10
43.6425990066693
 20
-0.3839737257867059
 30
0.0
 10
43.40252018785927
 20
-0.515735584852178
 30
0.0
 10
43.216804994603
 20
-0.5395640121103775
 30
0.0
 10
42.82765070819152
 20
-0.497614137756307
 30
0.0
 10
42.61953187398269
 20
-0.4317151518459481
 30
0.0
 10
42.19915785458038
 20
-0.2488490011400039
 30
0.0
 10
41.98239619923621
 20
-0.130054147179903
 30
0.0
 10
41.54158289841219
 20
0.1333499265445571
 30
0.0
 10
41.31995015751562
 20
0.2764964692086078
 30
0.0
 10
40.8669771158166
 20
0.5719506998060252
 30
0.0
 10
40.6339217969993
 20
0.7254917119493568
 30
0.0
 10
40.1657213948649
 20
1.022414414196734
 30
0.0
 10
39.92941487597977
 20
1.166524026664227
 30
0.0
 10
39.68749999999989
 20
1.300762373987361
 30
0.0
  0
SPLINE
  5
A9
330
1F
100
AcDbEntity
  8
외형선
  6
Continuous
 62
     1
370
    15
100
AcDbSpline
210
0.0
220
0.0
230
1.0
 70
     8
 71
     3
 72
    14
 73
    10
 74
     0
 42
0.000000001
 43
0.00000001
 40
0.0
 40
0.0
 40
0.0
 40
0.0
 40
0.1498779312072092
 40
0.2998267893040682
 40
0.4497887875068733
 40
0.5996762084221523
 40
0.749515435928534
 40
0.8966524418078156
 40
1.0
 40
1.0
 40
1.0
 40
1.0
 10
39.68749999999992
 20
1.300762373987337
 30
0.0
 10
39.15415038440787
 20
1.592275179985229
 30
0.0
 10
38.08719875562909
 20
2.17543874489013
 30
0.0
 10
36.48638319733718
 20
2.955354232696779
 30
0.0
 10
34.88548704846295
 20
3.627428720880816
 30
0.0
 10
33.28521555409466
 20
4.164323577728331
 30
0.0
 10
31.69505927840508
 20
4.536507140047517
 30
0.0
 10
30.27063149840819
 20
4.740864541134995
 30
0.0
 10
29.37932050724662
 20
4.743407859252635
 30
0.0
 10
29.01157403605037
 20
4.74445720821407
 30
0.0
  0
SPLINE
  5
AA
330
1F
100
AcDbEntity
  8
외형선
  6
Continuous
 62
     1
370
    15
100
AcDbSpline
210
0.0
220
0.0
230
1.0
 70
     8
 71
     3
 72
    15
 73
    11
 74
     0
 42
0.000000001
 43
0.00000001
 40
0.0
 40
0.0
 40
0.0
 40
0.0
 40
0.0684185537320524
 40
0.2280983935145046
 40
0.3903094735486943
 40
0.5077407704312507
 40
0.6285341850023589
 40
0.7889078034591358
 40
0.953784561543489
 40
1.0
 40
1.0
 40
1.0
 40
1.0
 10
43.92537768086874
 20
2.16849292444163
 30
0.0
 10
43.90114488964733
 20
2.215221885581268
 30
0.0
 10
43.82035597426602
 20
2.371010051000491
 30
0.0
 10
43.60105135642678
 20
2.695243773976622
 30
0.0
 10
43.30193268776685
 20
3.067215013931668
 30
0.0
 10
42.99938761581862
 20
3.389224330743097
 30
0.0
 10
42.68256362338703
 20
3.685659652238996
 30
0.0
 10
42.31191550209916
 20
3.9699201851892
 30
0.0
 10
41.9972461269411
 20
4.179978447620024
 30
0.0
 10
41.81126883897266
 20
4.256123794987042
 30
0.0
 10
41.7705519292656
 20
4.272794665216528
 30
0.0
  0
LINE
  5
AB
330
1F
100
AcDbEntity
  8
외형선
  6
Continuous
370
    15
100
AcDbLine
 10
25.39999999999998
 20
0.4080574258305409
 30
0.0
 11
25.39999999999998
 21
2.019105074104726
 31
0.0
  0
LINE
  5
AC
330
1F
100
AcDbEntity
  8
외형선
  6
Continuous
 62
     1
370
    15
100
AcDbLine
 10
25.39999999999997
 20
-4.744986342153663
 30
0.0
 11
26.10779390253568
 21
-4.740409943033625
 31
0.0
  0
LINE
  5
AD
330
1F
100
AcDbEntity
  8
외형선
  6
Continuous
370
    15
100
AcDbLine
 10
25.39999999999998
 20
-4.744986342153663
 30
0.0
 11
25.39999999999998
 21
-4.313307425830507
 31
0.0
  0
LINE
  5
AE
330
1F
100
AcDbEntity
  8
외형선
  6
Continuous
370
    15
100
AcDbLine
 10
25.39999999999998
 20
-0.0000000000000019
 30
0.0
 11
25.39999999999998
 21
4.762499999999999
 31
0.0
  0
LINE
  5
AF
330
1F
100
AcDbEntity
  8
외형선
  6
Continuous
370
    15
100
AcDbLine
 10
25.39999999999998
 20
-4.762500000000003
 30
0.0
 11
25.39999999999998
 21
-0.0000000000000019
 31
0.0
  0
LINE
  5
B4
330
1F
100
AcDbEntity
  8
중심선
 62
     1
100
AcDbLine
 10
-47.45000000000002
 20
-0.0000000000000058
 30
0.0
 11
47.45000000000002
 21
0.0000000000000058
 31
0.0
  0
LINE
  5
B6
330
1F
100
AcDbEntity
  8
참조1
100
AcDbLine
 10
0.0000000000000036
 20
-0.0000000000000059
 30
0.0
 11
0.0000000000000089
 21
-40.00000000000001
 31
0.0
  0
LINE
  5
B7
330
1F
100
AcDbEntity
  8
참조1
100
AcDbLine
 10
0.0000000000000089
 20
-40.00000000000001
 30
0.0
 11
-20.71510681430868
 21
-40.0
 31
0.0
  0
CIRCLE
  5
B8
330
1F
100
AcDbEntity
  8
해칭선
100
AcDbCircle
 10
-0.0000000000000426
 20
-0.0000000000000011
 30
0.0
 40
3.000000000000001
  0
INSERT
  5
B9
330
1F
100
AcDbEntity
  8
0
  6
Continuous
 62
     7
100
AcDbBlockReference
 66
     1
  2
블럭10
 10
-13.9402729321252
 20
-52.04717430164393
 30
0.0
  0
ATTRIB
  5
BA
330
B9
100
AcDbEntity
  8
FORMAT
 62
     2
100
AcDbText
 10
-23.12156822086649
 20
-49.97180738881175
 30
0.0
 40
4.233333333333333
  1
E2069024 [ 4 FLUTE ]
 41
0.75
  7
SLDTEXTSTYLE0
 11
-23.12156822086649
 21
-52.08847405547841
 31
0.0
100
AcDbAttribute
  2
AUTOATTR0
 70
     0
 74
     1
  0
SEQEND
  5
BB
330
B9
100
AcDbEntity
  8
0
  6
Continuous
 62
     7
  0
HATCH
  5
BC
330
1F
100
AcDbEntity
  8
중심선
100
AcDbHatch
 10
0.0
 20
0.0
 30
0.0
210
0.0
220
0.0
230
1.0
  2
SOLID
 70
     1
 71
     0
 91
        1
 92
        0
 93
        4
 72
     1
 10
-8.225363627744368
 20
-35.8
 11
-11.67163887158165
 21
-35.8
 72
     1
 10
-11.67163887158165
 20
-35.8
 11
-13.79986873078567
 21
-38.3363255805726
 72
     1
 10
-13.79986873078567
 20
-38.3363255805726
 11
-10.35356040183524
 21
-38.33628615127011
 72
     1
 10
-10.35356040183524
 20
-38.33628615127011
 11
-8.225363627744368
 21
-35.8
 97
        0
 75
     0
 76
     1
 98
        1
 10
8.963238685968797
 20
-0.0010749287238951
  0
HATCH
  5
BD
330
1F
100
AcDbEntity
  8
중심선
100
AcDbHatch
 10
0.0
 20
0.0
 30
0.0
210
0.0
220
0.0
230
1.0
  2
SOLID
 70
     1
 71
     0
 91
        1
 92
        0
 93
        4
 72
     1
 10
-3.212599636708388
 20
-35.8
 11
-6.658874880545671
 21
-35.8
 72
     1
 10
-6.658874880545671
 20
-35.8
 11
-11.19001288890309
 21
-41.20000000000002
 72
     1
 10
-11.19001288890309
 20
-41.20000000000002
 11
-7.743737645065803
 21
-41.20000000000002
 72
     1
 10
-7.743737645065803
 20
-41.20000000000002
 11
-3.212599636708388
 21
-35.8
 97
        0
 75
     0
 76
     1
 98
        1
 10
8.963238685968797
 20
-0.0010749287238951
  0
HATCH
  5
BE
330
1F
100
AcDbEntity
  8
중심선
100
AcDbHatch
 10
0.0
 20
0.0
 30
0.0
210
0.0
220
0.0
230
1.0
  2
SOLID
 70
     1
 71
     0
 91
        1
 92
        0
 93
        4
 72
     1
 10
1.80016435432748
 20
-35.8
 11
-1.646110889509636
 21
-35.8
 72
     1
 10
-1.646110889509636
 20
-35.8
 11
-8.694547791398886
 21
-44.20000000000002
 72
     1
 10
-8.694547791398886
 20
-44.20000000000002
 11
-5.248272547561603
 21
-44.20000000000002
 72
     1
 10
-5.248272547561603
 20
-44.20000000000002
 11
1.80016435432748
 21
-35.8
 97
        0
 75
     0
 76
     1
 98
        1
 10
8.963238685968797
 20
-0.0010749287238951
  0
HATCH
  5
BF
330
1F
100
AcDbEntity
  8
중심선
100
AcDbHatch
 10
0.0
 20
0.0
 30
0.0
210
0.0
220
0.0
230
1.0
  2
SOLID
 70
     1
 71
     0
 91
        1
 92
        0
 93
        6
 72
     3
 10
6.60005478533968
 20
-40.00000000005127
 11
3.960054785062283
 21
1.540882976769353E-10
 40
0.3939339440162628
 50
17.09539180608437
 51
320.0019657685086
 73
     0
 72
     1
 10
8.283054441040274
 20
-38.58789400463833
 11
10.58835631474134
 21
-36.65356729459038
 72
     3
 10
6.600054785286833
 20
-40.00000000000015
 11
6.600054785286829
 21
-1.278976924368180E-13
 40
0.636358354079598
 50
39.99873849337386
 51
368.4976242363725
 73
     1
 72
     1
 10
13.02538727718744
 20
-39.03999999993002
 11
5.280122092122782
 21
-39.03999999993002
 72
     1
 10
5.280122092122783
 20
-39.03999999993002
 11
5.280097047676821
 21
-40.95999999992991
 72
     1
 10
5.280097047676821
 20
-40.95999999992991
 11
9.721476817148858
 21
-40.95999999992988
 97
        0
 75
     0
 76
     1
 98
        1
 10
8.963238685968797
 20
-0.0010749287238951
  0
DIMENSION
  5
C0
330
1F
100
AcDbEntity
  8
치수문자_일반주서
100
AcDbDimension
  2
_D
 10
25.40000000000001
 20
22.82277225922702
 30
0.0
 11
34.92500000000001
 21
22.82277225922702
 31
0.0
 70
   160
  1
<>
 71
     2
 42
19.05000000000001
  3
SLDDIMSTYLE0
100
AcDbAlignedDimension
 13
44.45000000000002
 23
1.315014629548137
 33
0.0
 14
25.40000000000001
 24
4.762500000000001
 34
0.0
 50
0.0000000000000214
100
AcDbRotatedDimension
1001
ACAD
1000
DSTYLE
1002
{
1070
   171
1070
     6
1070
   273
1070
     7
1002
}
  0
DIMENSION
  5
D5
330
1F
100
AcDbEntity
  8
치수문자_일반주서
100
AcDbDimension
  2
_D_1
 10
-44.45000000000002
 20
35.75282056895201
 30
0.0
 11
0.0000000000000018
 21
35.75282056895201
 31
0.0
 70
   160
  1
<>
 71
     2
 42
88.90000000000003
  3
SLDDIMSTYLE1
100
AcDbAlignedDimension
 13
44.45000000000002
 23
1.315014629548137
 33
0.0
 14
-44.45000000000002
 24
3.810000000000006
 34
0.0
 50
0.0000000000000046
100
AcDbRotatedDimension
1001
ACAD
1000
DSTYLE
1002
{
1070
   171
1070
     6
1070
   273
1070
     7
1002
}
  0
DIMENSION
  5
E9
330
1F
100
AcDbEntity
  8
치수문자_일반주서
100
AcDbDimension
  2
_D_2
 10
60.87181971752128
 20
-4.762499999999903
 30
0.0
 11
60.87181971752118
 21
21.18950000000014
 31
0.0
 70
   160
  1
%%c<>
 71
     2
 42
9.525000000000041
 52
-270.0
  3
SLDDIMSTYLE0
100
AcDbAlignedDimension
 13
29.01179247361362
 23
4.762500000000018
 33
0.0
 14
29.01179247361367
 24
-4.762500000000022
 34
0.0
 50
90.0000000000002
100
AcDbRotatedDimension
1001
ACAD
1000
DSTYLE
1002
{
1070
   171
1070
     6
1070
   273
1070
     7
1002
}
  0
DIMENSION
  5
FC
330
1F
100
AcDbEntity
  8
치수문자_일반주서
100
AcDbDimension
  2
_D_3
 10
-57.45000000000002
 20
-4.762500000000122
 30
0.0
 11
-57.45000000000004
 21
-0.000000000000001
 31
0.0
 70
   160
  1
%%c<>
 71
     2
 42
9.52500000000001
 52
-270.0
  3
SLDDIMSTYLE2
100
AcDbAlignedDimension
 13
-25.39999999999998
 23
4.762500000000006
 33
0.0
 14
-25.39999999999998
 24
-4.762500000000003
 34
0.0
 50
90.0000000000002
100
AcDbRotatedDimension
1001
ACAD
1000
DSTYLE
1002
{
1070
   171
1070
     6
1070
   273
1070
     7
1002
}
  0
LINE
  5
111
330
1F
100
AcDbEntity
  8
참조1
100
AcDbLine
 10
77.25723381534559
 20
7.44
 30
0.0
 11
77.25723381534559
 21
-7.440000000000004
 31
0.0
  0
LINE
  5
112
330
1F
100
AcDbEntity
  8
참조1
100
AcDbLine
 10
89.95723381534557
 20
5.44
 30
0.0
 11
77.25723381534559
 21
5.44
 31
0.0
  0
SOLID
  5
113
330
1F
100
AcDbEntity
  8
참조1
100
AcDbTrace
 10
77.25723381534559
 20
5.44
 30
0.0
 11
83.60723381534558
 21
4.424
 31
0.0
 12
83.60723381534558
 22
6.456
 32
0.0
 13
83.60723381534558
 23
6.456
 33
0.0
  0
LINE
  5
114
330
1F
100
AcDbEntity
  8
참조1
100
AcDbLine
 10
89.95723381534557
 20
-5.440000000000004
 30
0.0
 11
77.25723381534559
 21
-5.440000000000004
 31
0.0
  0
SOLID
  5
115
330
1F
100
AcDbEntity
  8
참조1
100
AcDbTrace
 10
77.25723381534559
 20
-5.440000000000004
 30
0.0
 11
83.60723381534558
 21
-6.456000000000004
 31
0.0
 12
83.60723381534558
 22
-4.424000000000004
 32
0.0
 13
83.60723381534558
 23
-4.424000000000004
 33
0.0
  0
MTEXT
  5
116
330
1F
100
AcDbEntity
  8
참조1
100
AcDbMText
 10
86.65472390781585
 20
10.98821664464993
 30
0.0
 40
3.5
 41
0.0
 71
     1
 72
     1
  1
A
  7
SLDTEXTSTYLE0
 73
     1
 44
1.0
  0
MTEXT
  5
117
330
1F
100
AcDbEntity
  8
참조1
100
AcDbMText
 10
86.65472390781585
 20
0.1082166446499309
 30
0.0
 40
3.5
 41
0.0
 71
     1
 72
     1
  1
A
  7
SLDTEXTSTYLE0
 73
     1
 44
1.0
  0
INSERT
  5
11E
330
1F
100
AcDbEntity
  8
해칭선
100
AcDbBlockReference
  2
SW_DOWELSYMBOL_0
 10
-0.0000000000000426
 20
-0.0000000000000011
 30
0.0
  0
ARC
  5
145
330
1F
100
AcDbEntity
  8
외형선
  6
Continuous
 62
     1
370
    15
100
AcDbCircle
 10
-39.68749999999991
 20
0.0000000000000051
 30
0.0
 40
4.762500000000032
100
AcDbArc
 50
152.8951574986372
 51
180.0
  0
ARC
  5
146
330
1F
100
AcDbEntity
  8
외형선
  6
Continuous
 62
     1
370
    15
100
AcDbCircle
 10
-39.68749999999991
 20
0.0000000000000051
 30
0.0
 40
4.762500000000038
100
AcDbArc
 50
90.00000000000085
 51
115.9936411828901
  0
ARC
  5
147
330
1F
100
AcDbEntity
  8
외형선
  6
Continuous
 62
     1
370
    15
100
AcDbCircle
 10
-39.68749999999991
 20
0.0000000000000051
 30
0.0
 40
4.762500000000038
100
AcDbArc
 50
244.0033224842285
 51
270.0
  0
ARC
  5
148
330
1F
100
AcDbEntity
  8
외형선
  6
Continuous
 62
     1
370
    15
100
AcDbCircle
 10
-39.68749999999991
 20
0.0000000000000051
 30
0.0
 40
4.762500000000036
100
AcDbArc
 50
180.0
 51
207.0973216007565
  0
LINE
  5
149
330
1F
100
AcDbEntity
  8
외형선
  6
Continuous
 62
     1
370
    15
100
AcDbLine
 10
-39.06588386350865
 20
4.762500000000027
 30
0.0
 11
-39.68749999999991
 21
4.762500000000027
 31
0.0
  0
LINE
  5
14A
330
1F
100
AcDbEntity
  8
외형선
  6
Continuous
 62
     1
370
    15
100
AcDbLine
 10
-29.01157403605037
 20
-4.762500000000014
 30
0.0
 11
-26.1077939025357
 21
-4.762500000000015
 31
0.0
  0
LINE
  5
14B
330
1F
100
AcDbEntity
  8
외형선
  6
Continuous
 62
     1
370
    15
100
AcDbLine
 10
-26.10779390253568
 20
4.762500000000025
 30
0.0
 11
-29.01157403605044
 21
4.762500000000026
 31
0.0
  0
LINE
  5
14C
330
1F
100
AcDbEntity
  8
외형선
  6
Continuous
 62
     1
370
    15
100
AcDbLine
 10
-39.68749999999991
 20
-4.762500000000014
 30
0.0
 11
-39.06588386350858
 21
-4.762500000000014
 31
0.0
  0
SPLINE
  5
14D
330
1F
100
AcDbEntity
  8
외형선
  6
Continuous
 62
     1
370
    15
100
AcDbSpline
210
0.0
220
0.0
230
1.0
 70
     8
 71
     3
 72
    16
 73
    12
 74
     0
 42
0.000000001
 43
0.00000001
 40
0.0
 40
0.0
 40
0.0
 40
0.0
 40
0.1171475612397372
 40
0.2342380395131742
 40
0.3512925571260597
 40
0.4683323936221428
 40
0.5853788928619266
 40
0.7003654410710074
 40
0.8154159663404301
 40
0.930486678734939
 40
1.0
 40
1.0
 40
1.0
 40
1.0
 10
-25.39999999999997
 20
-0.4080574258305378
 30
0.0
 10
-25.93370526722121
 20
-0.0997304696348299
 30
0.0
 10
-27.00085574093809
 20
0.5167732030327391
 30
0.0
 10
-28.60107450866885
 20
1.426449157042348
 30
0.0
 10
-30.20072048419598
 20
2.281345449786909
 30
0.0
 10
-31.80011782825041
 20
3.051092025404221
 30
0.0
 10
-33.39013002095819
 20
3.701902507099896
 30
0.0
 10
-34.97110079076654
 20
4.214835148533011
 30
0.0
 10
-36.54329768679165
 20
4.564594161230782
 30
0.0
 10
-37.90844223096321
 20
4.749159647713483
 30
0.0
 10
-38.74924297571761
 20
4.743852284963916
 30
0.0
 10
-39.06588386350865
 20
4.741853561647678
 30
0.0
  0
SPLINE
  5
14E
330
1F
100
AcDbEntity
  8
외형선
  6
Continuous
 62
     1
370
    15
100
AcDbSpline
210
0.0
220
0.0
230
1.0
 70
     8
 71
     3
 72
    13
 73
     9
 74
     0
 42
0.000000001
 43
0.00000001
 40
0.0
 40
0.0
 40
0.0
 40
0.0
 40
0.0869506302649389
 40
0.2721782203975789
 40
0.4540653902122423
 40
0.6359670736115327
 40
0.8179298580285664
 40
1.0
 40
1.0
 40
1.0
 40
1.0
 10
-34.03599122358495
 20
3.887525153880653
 30
0.0
 10
-33.78567678855874
 20
3.974086304638454
 30
0.0
 10
-33.00212712068782
 20
4.245045352284654
 30
0.0
 10
-31.69506584256634
 20
4.535409579864117
 30
0.0
 10
-30.11477141345772
 20
4.750427610907361
 30
0.0
 10
-28.54383561349906
 20
4.781448699437503
 30
0.0
 10
-26.97228858604722
 20
4.652714681369353
 30
0.0
 10
-25.92419922660647
 20
4.426465418858607
 30
0.0
 10
-25.39999999999998
 20
4.31330742583051
 30
0.0
  0
SPLINE
  5
14F
330
1F
100
AcDbEntity
  8
외형선
  6
Continuous
 62
     1
370
    15
100
AcDbSpline
210
0.0
220
0.0
230
1.0
 70
     8
 71
     3
 72
    34
 73
    30
 74
     0
 42
0.000000001
 43
0.00000001
 40
0.0
 40
0.0
 40
0.0
 40
0.0
 40
0.1250000000000016
 40
0.1250000000000016
 40
0.2500000000000033
 40
0.2500000000000033
 40
0.312500000000003
 40
0.312500000000003
 40
0.3750000000000027
 40
0.3750000000000027
 40
0.4375000000000025
 40
0.4375000000000025
 40
0.5000000000000022
 40
0.5000000000000022
 40
0.562500000000002
 40
0.562500000000002
 40
0.6250000000000018
 40
0.6250000000000018
 40
0.6875000000000014
 40
0.6875000000000014
 40
0.7500000000000011
 40
0.7500000000000011
 40
0.8125000000000009
 40
0.8125000000000009
 40
0.8750000000000006
 40
0.8750000000000006
 40
0.9375000000000003
 40
0.9375000000000003
 40
1.0
 40
1.0
 40
1.0
 40
1.0
 10
-25.39999999999997
 20
-4.744986342153656
 30
0.0
 10
-25.99152664369726
 20
-4.774371482236389
 30
0.0
 10
-26.59388914608205
 20
-4.766591115828301
 30
0.0
 10
-27.77846431579204
 20
-4.677145583051742
 30
0.0
 10
-28.37927915881222
 20
-4.595083114197999
 30
0.0
 10
-29.2687700078552
 20
-4.419882637539088
 30
0.0
 10
-29.56553769165483
 20
-4.352742157710084
 30
0.0
 10
-30.16250921339917
 20
-4.201434499716575
 30
0.0
 10
-30.46147229670758
 20
-4.11734821150516
 30
0.0
 10
-31.05511766462214
 20
-3.933875374240499
 30
0.0
 10
-31.35125277633563
 20
-3.834371645101132
 30
0.0
 10
-31.94805594931505
 20
-3.620255709156275
 30
0.0
 10
-32.24712762650342
 20
-3.505805845118527
 30
0.0
 10
-32.84136941445762
 20
-3.264189289491517
 30
0.0
 10
-33.13701739931664
 20
-3.136990776348361
 30
0.0
 10
-33.73359618931747
 20
-2.870081047489344
 30
0.0
 10
-34.03274823406852
 20
-2.73060735490259
 30
0.0
 10
-34.62753120786834
 20
-2.442102047350616
 30
0.0
 10
-34.92283766282734
 20
-2.293151207476294
 30
0.0
 10
-35.51913610588748
 20
-1.985928889763066
 30
0.0
 10
-35.81834026651051
 20
-1.827942408451859
 30
0.0
 10
-36.41360902327945
 20
-1.506003765543322
 30
0.0
 10
-36.70871965170193
 20
-1.342243267053394
 30
0.0
 10
-37.30468187158724
 20
-1.009071193104651
 30
0.0
 10
-37.60390987993309
 20
-0.83994950838759
 30
0.0
 10
-38.19960886522039
 20
-0.4996041886226877
 30
0.0
 10
-38.49466943149536
 20
-0.3286578244622853
 30
0.0
 10
-39.0902396571184
 20
0.0148926904085138
 30
0.0
 10
-39.38946323750564
 20
0.1872508538032403
 30
0.0
 10
-39.68749999999989
 20
0.3586795046103857
 30
0.0
  0
SPLINE
  5
150
330
1F
100
AcDbEntity
  8
외형선
  6
Continuous
 62
     1
370
    15
100
AcDbSpline
210
0.0
220
0.0
230
1.0
 70
     8
 71
     3
 72
    44
 73
    40
 74
     0
 42
0.000000001
 43
0.00000001
 40
0.0
 40
0.0
 40
0.0
 40
0.0
 40
0.0624999999999998
 40
0.0624999999999998
 40
0.1249999999999997
 40
0.1249999999999997
 40
0.1874999999999995
 40
0.1874999999999995
 40
0.2499999999999993
 40
0.2499999999999993
 40
0.3124999999999992
 40
0.3124999999999992
 40
0.374999999999999
 40
0.374999999999999
 40
0.4374999999999988
 40
0.4374999999999988
 40
0.4687499999999983
 40
0.4687499999999983
 40
0.4999999999999978
 40
0.4999999999999978
 40
0.5312499999999972
 40
0.5312499999999972
 40
0.5624999999999968
 40
0.5624999999999968
 40
0.5937499999999962
 40
0.5937499999999962
 40
0.6249999999999957
 40
0.6249999999999957
 40
0.6874999999999964
 40
0.6874999999999964
 40
0.7499999999999971
 40
0.7499999999999971
 40
0.8124999999999978
 40
0.8124999999999978
 40
0.8749999999999986
 40
0.8749999999999986
 40
0.9374999999999992
 40
0.9374999999999992
 40
1.0
 40
1.0
 40
1.0
 40
1.0
 10
-39.68749999999989
 20
0.3586795046103938
 30
0.0
 10
-39.92944102287581
 20
0.4978422803009145
 30
0.0
 10
-40.17000246750906
 20
0.6292063833869442
 30
0.0
 10
-40.65298790740813
 20
0.8682376294976132
 30
0.0
 10
-40.89740596278182
 20
0.9765121200629538
 30
0.0
 10
-41.38082873904377
 20
1.161701635093797
 30
0.0
 10
-41.61616302595601
 20
1.237429281376091
 30
0.0
 10
-42.07352925717606
 20
1.358534546635425
 30
0.0
 10
-42.29767619180762
 20
1.403981690851608
 30
0.0
 10
-42.71699914868045
 20
1.46683313200415
 30
0.0
 10
-42.91230234881586
 20
1.484928297859636
 30
0.0
 10
-43.27020387066784
 20
1.509089043073389
 30
0.0
 10
-43.43338433909225
 20
1.515032337725516
 30
0.0
 10
-43.7089841016846
 20
1.535053075282333
 30
0.0
 10
-43.82365969852936
 20
1.548986755644527
 30
0.0
 10
-43.94960689083494
 20
1.599071448104909
 30
0.0
 10
-43.98321300935421
 20
1.620486018268489
 30
0.0
 10
-44.03196869502149
 20
1.677550064707792
 30
0.0
 10
-44.0471561336453
 20
1.713682954080101
 30
0.0
 10
-44.05535430858336
 20
1.804057237862843
 30
0.0
 10
-44.04864457751497
 20
1.857971636999509
 30
0.0
 10
-44.01098032017114
 20
1.988425688416637
 30
0.0
 10
-43.98016761717704
 20
2.063796594323217
 30
0.0
 10
-43.89630766258821
 20
2.231465156237433
 30
0.0
 10
-43.84188617464704
 20
2.326190280867578
 30
0.0
 10
-43.71529451254965
 20
2.524343241386584
 30
0.0
 10
-43.64259900666931
 20
2.628847225087508
 30
0.0
 10
-43.40252018785926
 20
2.948346975904091
 30
0.0
 10
-43.21680499460298
 20
3.164036770493779
 30
0.0
 10
-42.82765070819149
 20
3.55669586173467
 30
0.0
 10
-42.61953187398271
 20
3.738283276659282
 30
0.0
 10
-42.19915785458043
 20
4.048160043166567
 30
0.0
 10
-41.98239619923621
 20
4.180338858447156
 30
0.0
 10
-41.54158289841219
 20
4.393550958031207
 30
0.0
 10
-41.31995015751562
 20
4.473965689192188
 30
0.0
 10
-40.86697711581657
 20
4.586874636676147
 30
0.0
 10
-40.6339217969993
 20
4.61911912040275
 30
0.0
 10
-40.1657213948649
 20
4.635114556680254
 30
0.0
 10
-39.92941487597977
 20
4.61953466138324
 30
0.0
 10
-39.68749999999989
 20
4.581421558470598
 30
0.0
  0
SPLINE
  5
151
330
1F
100
AcDbEntity
  8
외형선
  6
Continuous
 62
     1
370
    15
100
AcDbSpline
210
0.0
220
0.0
230
1.0
 70
     8
 71
     3
 72
    34
 73
    30
 74
     0
 42
0.000000001
 43
0.00000001
 40
0.0
 40
0.0
 40
0.0
 40
0.0
 40
0.125
 40
0.125
 40
0.25
 40
0.25
 40
0.3125
 40
0.3125
 40
0.375
 40
0.375
 40
0.4375
 40
0.4375
 40
0.5
 40
0.5
 40
0.5625
 40
0.5625
 40
0.625
 40
0.625
 40
0.6875
 40
0.6875
 40
0.75
 40
0.75
 40
0.8125
 40
0.8125
 40
0.875
 40
0.875
 40
0.9375
 40
0.9375
 40
1.0
 40
1.0
 40
1.0
 40
1.0
 10
-25.39999999999998
 20
-2.019105074104723
 30
0.0
 10
-25.99152664369723
 20
-1.708494030401847
 30
0.0
 10
-26.59388914608208
 20
-1.380127825209307
 30
0.0
 10
-27.77846431579209
 20
-0.7106532269235726
 30
0.0
 10
-28.37927915881218
 20
-0.3661175131384929
 30
0.0
 10
-29.26877000785525
 20
0.1487383915657154
 30
0.0
 10
-29.56553769165486
 20
0.3204547363143213
 30
0.0
 10
-30.16250921339923
 20
0.6626239417410477
 30
0.0
 10
-30.46147229670757
 20
0.8328335971011609
 30
0.0
 10
-31.05511766462212
 20
1.168535032705136
 30
0.0
 10
-31.35125277633565
 20
1.334309137339088
 30
0.0
 10
-31.94805594931508
 20
1.660834650843799
 30
0.0
 10
-32.24712762650345
 20
1.821280095281852
 30
0.0
 10
-32.84136941445758
 20
2.133751448612445
 30
0.0
 10
-33.1370173993166
 20
2.285880875168055
 30
0.0
 10
-33.73359618931743
 20
2.581514664346131
 30
0.0
 10
-34.03274823406852
 20
2.724699353693208
 30
0.0
 10
-34.62753120786838
 20
2.999323471302685
 30
0.0
 10
-34.92283766282735
 20
3.130744585449366
 30
0.0
 10
-35.5191361058875
 20
3.38168699629898
 30
0.0
 10
-35.81834026651051
 20
3.50092041578113
 30
0.0
 10
-36.41360902327944
 20
3.724842685931316
 30
0.0
 10
-36.70871965170191
 20
3.829453990241347
 30
0.0
 10
-37.30468187158721
 20
4.023999570004233
 30
0.0
 10
-37.60390987993309
 20
4.113710652328038
 30
0.0
 10
-38.19960886522039
 20
4.276442145523986
 30
0.0
 10
-38.49466943149539
 20
4.349383538601877
 30
0.0
 10
-39.09023965711842
 20
4.478468497910196
 30
0.0
 10
-39.38946323750566
 20
4.534466588237022
 30
0.0
 10
-39.68749999999992
 20
4.581421558470595
 30
0.0
  0
SPLINE
  5
152
330
1F
100
AcDbEntity
  8
외형선
  6
Continuous
 62
     1
370
    15
100
AcDbSpline
210
0.0
220
0.0
230
1.0
 70
     8
 71
     3
 72
    11
 73
     7
 74
     0
 42
0.000000001
 43
0.00000001
 40
0.0
 40
0.0
 40
0.0
 40
0.0
 40
0.1654299977296174
 40
0.4436438769904008
 40
0.7219065725287992
 40
1.0
 40
1.0
 40
1.0
 40
1.0
 10
-34.03599122358488
 20
-3.88752515388064
 30
0.0
 10
-34.34760387343874
 20
-3.992512215936735
 30
0.0
 10
-35.18327482790711
 20
-4.274062526543178
 30
0.0
 10
-36.54330456603244
 20
-4.563268818286019
 30
0.0
 10
-38.11566946033786
 20
-4.768367301703657
 30
0.0
 10
-39.16366276870571
 20
-4.755437207551046
 30
0.0
 10
-39.68749999999989
 20
-4.748974127427163
 30
0.0
  0
SPLINE
  5
153
330
1F
100
AcDbEntity
  8
외형선
  6
Continuous
 62
     1
370
    15
100
AcDbSpline
210
0.0
220
0.0
230
1.0
 70
     8
 71
     3
 72
    44
 73
    40
 74
     0
 42
0.000000001
 43
0.00000001
 40
0.0
 40
0.0
 40
0.0
 40
0.0
 40
0.0624999999999998
 40
0.0624999999999998
 40
0.1249999999999997
 40
0.1249999999999997
 40
0.1874999999999996
 40
0.1874999999999996
 40
0.2499999999999993
 40
0.2499999999999993
 40
0.3124999999999991
 40
0.3124999999999991
 40
0.3749999999999989
 40
0.3749999999999989
 40
0.4374999999999988
 40
0.4374999999999988
 40
0.4687499999999982
 40
0.4687499999999982
 40
0.4999999999999977
 40
0.4999999999999977
 40
0.5312499999999971
 40
0.5312499999999971
 40
0.5624999999999967
 40
0.5624999999999967
 40
0.5937499999999961
 40
0.5937499999999961
 40
0.6249999999999956
 40
0.6249999999999956
 40
0.6874999999999963
 40
0.6874999999999963
 40
0.7499999999999971
 40
0.7499999999999971
 40
0.8124999999999978
 40
0.8124999999999978
 40
0.8749999999999986
 40
0.8749999999999986
 40
0.9374999999999992
 40
0.9374999999999992
 40
1.0
 40
1.0
 40
1.0
 40
1.0
 10
-39.68749999999989
 20
-4.74897412742718
 30
0.0
 10
-39.92944102287584
 20
-4.738463470997911
 30
0.0
 10
-40.17000246750903
 20
-4.704097654770499
 30
0.0
 10
-40.65298790740811
 20
-4.590342097168513
 30
0.0
 10
-40.89740596278185
 20
-4.510140934275796
 30
0.0
 10
-41.38082873904379
 20
-4.306031432651621
 30
0.0
 10
-41.61616302595603
 20
-4.184066576188041
 30
0.0
 10
-42.07352925717605
 20
-3.901106724708856
 30
0.0
 10
-42.29767619180763
 20
-3.738198261942292
 30
0.0
 10
-42.71699914868049
 20
-3.380657636779203
 30
0.0
 10
-42.91230234881587
 20
-3.186477229533391
 30
0.0
 10
-43.27020387066784
 20
-2.764938083976722
 30
0.0
 10
-43.43338433909225
 20
-2.535938811168268
 30
0.0
 10
-43.70898410168461
 20
-2.056510587418444
 30
0.0
 10
-43.82365969852936
 20
-1.803443105459192
 30
0.0
 10
-43.94960689083495
 20
-1.406544011517203
 30
0.0
 10
-43.98321300935417
 20
-1.273405395834772
 30
0.0
 10
-44.03196869502148
 20
-1.006033813873436
 30
0.0
 10
-44.04715613364531
 20
-0.8703649997475565
 30
0.0
 10
-44.05535430858338
 20
-0.6066896447325242
 30
0.0
 10
-44.04864457751498
 20
-0.4789431946990914
 30
0.0
 10
-44.01098032017114
 20
-0.2338983034768513
 30
0.0
 10
-43.98016761717706
 20
-0.119511285332569
 30
0.0
 10
-43.89630766258822
 20
0.0838803758894667
 30
0.0
 10
-43.84188617464707
 20
0.1752664892604054
 30
0.0
 10
-43.71529451254968
 20
0.3246022450631078
 30
0.0
 10
-43.6425990066693
 20
0.3839737257867114
 30
0.0
 10
-43.40252018785927
 20
0.5157355848521833
 30
0.0
 10
-43.216804994603
 20
0.5395640121103829
 30
0.0
 10
-42.82765070819152
 20
0.4976141377563124
 30
0.0
 10
-42.61953187398269
 20
0.4317151518459533
 30
0.0
 10
-42.19915785458038
 20
0.248849001140009
 30
0.0
 10
-41.98239619923621
 20
0.1300541471799081
 30
0.0
 10
-41.54158289841219
 20
-0.133349926544552
 30
0.0
 10
-41.31995015751562
 20
-0.2764964692086027
 30
0.0
 10
-40.8669771158166
 20
-0.5719506998060202
 30
0.0
 10
-40.63392179699931
 20
-0.7254917119493518
 30
0.0
 10
-40.1657213948649
 20
-1.022414414196729
 30
0.0
 10
-39.92941487597977
 20
-1.166524026664223
 30
0.0
 10
-39.68749999999989
 20
-1.300762373987356
 30
0.0
  0
SPLINE
  5
154
330
1F
100
AcDbEntity
  8
외형선
  6
Continuous
 62
     1
370
    15
100
AcDbSpline
210
0.0
220
0.0
230
1.0
 70
     8
 71
     3
 72
    14
 73
    10
 74
     0
 42
0.000000001
 43
0.00000001
 40
0.0
 40
0.0
 40
0.0
 40
0.0
 40
0.1498779312072092
 40
0.2998267893040682
 40
0.4497887875068733
 40
0.5996762084221523
 40
0.749515435928534
 40
0.8966524418078156
 40
1.0
 40
1.0
 40
1.0
 40
1.0
 10
-39.68749999999992
 20
-1.300762373987332
 30
0.0
 10
-39.15415038440786
 20
-1.592275179985224
 30
0.0
 10
-38.0871987556291
 20
-2.175438744890126
 30
0.0
 10
-36.48638319733718
 20
-2.955354232696775
 30
0.0
 10
-34.88548704846296
 20
-3.627428720880812
 30
0.0
 10
-33.28521555409466
 20
-4.164323577728327
 30
0.0
 10
-31.69505927840508
 20
-4.536507140047513
 30
0.0
 10
-30.27063149840819
 20
-4.740864541134991
 30
0.0
 10
-29.37932050724663
 20
-4.743407859252631
 30
0.0
 10
-29.01157403605037
 20
-4.744457208214066
 30
0.0
  0
SPLINE
  5
155
330
1F
100
AcDbEntity
  8
외형선
  6
Continuous
 62
     1
370
    15
100
AcDbSpline
210
0.0
220
0.0
230
1.0
 70
     8
 71
     3
 72
    15
 73
    11
 74
     0
 42
0.000000001
 43
0.00000001
 40
0.0
 40
0.0
 40
0.0
 40
0.0
 40
0.0684185537320524
 40
0.2280983935145046
 40
0.3903094735486943
 40
0.5077407704312507
 40
0.6285341850023589
 40
0.7889078034591358
 40
0.953784561543489
 40
1.0
 40
1.0
 40
1.0
 40
1.0
 10
-43.92537768086874
 20
-2.168492924441625
 30
0.0
 10
-43.90114488964733
 20
-2.215221885581262
 30
0.0
 10
-43.82035597426602
 20
-2.371010051000486
 30
0.0
 10
-43.60105135642678
 20
-2.695243773976617
 30
0.0
 10
-43.30193268776685
 20
-3.067215013931663
 30
0.0
 10
-42.99938761581862
 20
-3.389224330743092
 30
0.0
 10
-42.68256362338703
 20
-3.685659652238992
 30
0.0
 10
-42.31191550209916
 20
-3.969920185189195
 30
0.0
 10
-41.9972461269411
 20
-4.179978447620019
 30
0.0
 10
-41.81126883897266
 20
-4.256123794987037
 30
0.0
 10
-41.7705519292656
 20
-4.272794665216523
 30
0.0
  0
LINE
  5
156
330
1F
100
AcDbEntity
  8
외형선
  6
Continuous
370
    15
100
AcDbLine
 10
-25.39999999999998
 20
-0.4080574258305378
 30
0.0
 11
-25.39999999999998
 21
-2.019105074104723
 31
0.0
  0
LINE
  5
157
330
1F
100
AcDbEntity
  8
외형선
  6
Continuous
 62
     1
370
    15
100
AcDbLine
 10
-25.39999999999997
 20
4.744986342153665
 30
0.0
 11
-26.10779390253568
 21
4.740409943033628
 31
0.0
  0
LINE
  5
158
330
1F
100
AcDbEntity
  8
외형선
  6
Continuous
370
    15
100
AcDbLine
 10
-25.39999999999998
 20
4.744986342153665
 30
0.0
 11
-25.39999999999998
 21
4.31330742583051
 31
0.0
  0
LINE
  5
159
330
1F
100
AcDbEntity
  8
외형선
  6
Continuous
370
    15
100
AcDbLine
 10
-25.39999999999998
 20
0.000000000000005
 30
0.0
 11
-25.39999999999998
 21
-4.762499999999997
 31
0.0
  0
LINE
  5
15A
330
1F
100
AcDbEntity
  8
외형선
  6
Continuous
370
    15
100
AcDbLine
 10
-25.39999999999998
 20
4.762500000000006
 30
0.0
 11
-25.39999999999998
 21
0.000000000000005
 31
0.0
  0
LINE
  5
197
330
1F
100
AcDbEntity
  8
외형선
  6
Continuous
370
    15
100
AcDbLine
 10
-3.568700000000035
 20
3.492500000000021
 30
0.0
 11
3.568700000000035
 21
3.492500000000021
 31
0.0
  0
LINE
  5
198
330
1F
100
AcDbEntity
  8
외형선
  6
Continuous
370
    15
100
AcDbLine
 10
3.568700000000035
 20
3.492500000000021
 30
0.0
 11
4.838700000000017
 21
4.762500000000003
 31
0.0
  0
LINE
  5
199
330
1F
100
AcDbEntity
  8
외형선
  6
Continuous
370
    15
100
AcDbLine
 10
-3.568700000000035
 20
3.492500000000021
 30
0.0
 11
-4.838700000000017
 21
4.762500000000003
 31
0.0
  0
LINE
  5
19A
330
1F
100
AcDbEntity
  8
외형선
  6
Continuous
370
    15
100
AcDbLine
 10
-4.83870000000001
 20
4.762499999999999
 30
0.0
 11
-25.39999999999998
 21
4.762499999999999
 31
0.0
  0
ENDSEC
  0
SECTION
  2
OBJECTS
  0
DICTIONARY
  5
C
330
0
100
AcDbDictionary
281
     1
  3
ACAD_GROUP
350
D
  3
ACAD_IMAGE_VARS
350
142
  3
ACAD_LAYOUT
350
1A
  3
ACAD_MLINESTYLE
350
17
  3
ACAD_PLOTSETTINGS
350
19
  3
ACAD_PLOTSTYLENAME
350
E
  3
ACAD_SCALELIST
350
47
  3
APPDATA
350
140
  3
DWGPROPS
350
19C
  0
DICTIONARY
  5
188
330
2
100
AcDbDictionary
280
     1
281
     1
  3
ACAD_LAYERSTATES
360
189
  0
DICTIONARY
  5
D
102
{ACAD_REACTORS
330
C
102
}
330
C
100
AcDbDictionary
281
     1
  0
RASTERVARIABLES
  5
142
102
{ACAD_REACTORS
330
C
102
}
330
C
100
AcDbRasterVariables
 90
        0
 70
     1
 71
     1
 72
     1
  0
DICTIONARY
  5
1A
102
{ACAD_REACTORS
330
C
102
}
330
C
100
AcDbDictionary
281
     1
  3
Layout1
350
1E
  3
Layout2
350
26
  3
Model
350
22
  0
DICTIONARY
  5
17
102
{ACAD_REACTORS
330
C
102
}
330
C
100
AcDbDictionary
281
     1
  3
Standard
350
18
  0
DICTIONARY
  5
19
102
{ACAD_REACTORS
330
C
102
}
330
C
100
AcDbDictionary
281
     1
  0
ACDBDICTIONARYWDFLT
  5
E
102
{ACAD_REACTORS
330
C
102
}
330
C
100
AcDbDictionary
281
     1
  3
Normal
350
F
100
AcDbDictionaryWithDefault
340
F
  0
DICTIONARY
  5
47
102
{ACAD_REACTORS
330
C
102
}
330
C
100
AcDbDictionary
281
     1
  3
A0
350
48
  3
A1
350
49
  3
A2
350
4A
  3
A3
350
4B
  3
A4
350
4C
  3
A5
350
4D
  3
A6
350
4E
  3
A7
350
4F
  3
A8
350
50
  3
A9
350
51
  3
B0
350
52
  3
B1
350
53
  3
B2
350
54
  3
B3
350
55
  3
B4
350
56
  3
B5
350
57
  3
B6
350
58
  3
B7
350
59
  3
B8
350
5A
  3
B9
350
5B
  3
C0
350
5C
  3
C1
350
5D
  3
C2
350
5E
  3
C3
350
5F
  3
C4
350
60
  3
C5
350
61
  3
C6
350
62
  3
C7
350
63
  3
C8
350
64
  3
C9
350
65
  3
D0
350
66
  3
D1
350
67
  3
D2
350
68
  0
DICTIONARY
  5
140
102
{ACAD_REACTORS
330
C
102
}
330
C
100
AcDbDictionary
281
     1
  0
XRECORD
  5
19C
102
{ACAD_REACTORS
330
C
102
}
330
C
100
AcDbXrecord
280
     1
  1
DWGPROPS COOKIE
  2

  3

  4

  6

  7

  8
12016016
  9

300
=
301
=
302
=
303
=
304
=
305
=
306
=
307
=
308
=
309
=
 40
0.0
 41
2458319.998414086
 42
2458331.036299051
  1

 90
        0
  0
DICTIONARY
  5
189
102
{ACAD_REACTORS
330
188
102
}
330
188
100
AcDbDictionary
281
     1
  0
LAYOUT
  5
1E
102
{ACAD_REACTORS
330
1A
102
}
330
1A
100
AcDbPlotSettings
  1

  2
none_device
  4

  6

 40
0.0
 41
0.0
 42
0.0
 43
0.0
 44
0.0
 45
0.0
 46
0.0
 47
0.0
 48
0.0
 49
0.0
140
0.0
141
0.0
142
1.0
143
1.0
 70
   688
 72
     1
 73
     0
 74
     5
  7

 75
    16
147
1.0
148
0.0
149
0.0
100
AcDbLayout
  1
Layout1
 70
     1
 71
     1
 10
0.0
 20
0.0
 11
420.0
 21
297.0
 12
0.0
 22
0.0
 32
0.0
 14
1.000000000000000E+20
 24
1.000000000000000E+20
 34
1.000000000000000E+20
 15
-1.000000000000000E+20
 25
-1.000000000000000E+20
 35
-1.000000000000000E+20
146
0.0
 13
0.0
 23
0.0
 33
0.0
 16
1.0
 26
0.0
 36
0.0
 17
0.0
 27
1.0
 37
0.0
 76
     0
330
1B
  0
LAYOUT
  5
26
102
{ACAD_REACTORS
330
1A
102
}
330
1A
100
AcDbPlotSettings
  1

  2
none_device
  4

  6

 40
0.0
 41
0.0
 42
0.0
 43
0.0
 44
0.0
 45
0.0
 46
0.0
 47
0.0
 48
0.0
 49
0.0
140
0.0
141
0.0
142
1.0
143
1.0
 70
   688
 72
     1
 73
     0
 74
     5
  7

 75
    16
147
1.0
148
0.0
149
0.0
100
AcDbLayout
  1
Layout2
 70
     1
 71
     2
 10
0.0
 20
0.0
 11
0.0
 21
0.0
 12
0.0
 22
0.0
 32
0.0
 14
0.0
 24
0.0
 34
0.0
 15
0.0
 25
0.0
 35
0.0
146
0.0
 13
0.0
 23
0.0
 33
0.0
 16
1.0
 26
0.0
 36
0.0
 17
0.0
 27
1.0
 37
0.0
 76
     0
330
23
  0
LAYOUT
  5
22
102
{ACAD_REACTORS
330
1A
102
}
330
1A
100
AcDbPlotSettings
  1

  2
none_device
  4
ANSI_A_(11.00_x_8.50_Inches)
  6

 40
6.35
 41
19.05
 42
6.35000508
 43
19.05000254
 44
279.4
 45
215.9
 46
130.0385306089228
 47
92.54371273076144
 48
0.0
 49
0.0
140
0.0
141
0.0
142
0.0688368650264312
143
1.0
 70
  1696
 72
     0
 73
     0
 74
     0
  7

 75
     0
147
0.0235690232323232
148
0.0
149
0.0
100
AcDbLayout
  1
Model
 70
     1
 71
     0
 10
0.0
 20
0.0
 11
420.0
 21
297.0
 12
0.0
 22
0.0
 32
0.0
 14
1.000000000000000E+20
 24
1.000000000000000E+20
 34
1.000000000000000E+20
 15
-1.000000000000000E+20
 25
-1.000000000000000E+20
 35
-1.000000000000000E+20
146
0.0
 13
0.0
 23
0.0
 33
0.0
 16
1.0
 26
0.0
 36
0.0
 17
0.0
 27
1.0
 37
0.0
 76
     0
330
1F
331
29
  0
MLINESTYLE
  5
18
102
{ACAD_REACTORS
330
17
102
}
330
17
100
AcDbMlineStyle
  2
Standard
 70
     0
  3

 62
   256
 51
90.0
 52
90.0
 71
     2
 49
0.5
 62
   256
  6
BYLAYER
 49
-0.5
 62
   256
  6
BYLAYER
  0
ACDBPLACEHOLDER
  5
F
102
{ACAD_REACTORS
330
E
102
}
330
E
  0
SCALE
  5
48
102
{ACAD_REACTORS
330
47
102
}
330
47
100
AcDbScale
 70
     0
300
1:1
140
1.0
141
1.0
290
     1
  0
SCALE
  5
49
102
{ACAD_REACTORS
330
47
102
}
330
47
100
AcDbScale
 70
     0
300
1:2
140
1.0
141
2.0
290
     0
  0
SCALE
  5
4A
102
{ACAD_REACTORS
330
47
102
}
330
47
100
AcDbScale
 70
     0
300
1:4
140
1.0
141
4.0
290
     0
  0
SCALE
  5
4B
102
{ACAD_REACTORS
330
47
102
}
330
47
100
AcDbScale
 70
     0
300
1:5
140
1.0
141
5.0
290
     0
  0
SCALE
  5
4C
102
{ACAD_REACTORS
330
47
102
}
330
47
100
AcDbScale
 70
     0
300
1:8
140
1.0
141
8.0
290
     0
  0
SCALE
  5
4D
102
{ACAD_REACTORS
330
47
102
}
330
47
100
AcDbScale
 70
     0
300
1:10
140
1.0
141
10.0
290
     0
  0
SCALE
  5
4E
102
{ACAD_REACTORS
330
47
102
}
330
47
100
AcDbScale
 70
     0
300
1:16
140
1.0
141
16.0
290
     0
  0
SCALE
  5
4F
102
{ACAD_REACTORS
330
47
102
}
330
47
100
AcDbScale
 70
     0
300
1:20
140
1.0
141
20.0
290
     0
  0
SCALE
  5
50
102
{ACAD_REACTORS
330
47
102
}
330
47
100
AcDbScale
 70
     0
300
1:30
140
1.0
141
30.0
290
     0
  0
SCALE
  5
51
102
{ACAD_REACTORS
330
47
102
}
330
47
100
AcDbScale
 70
     0
300
1:40
140
1.0
141
40.0
290
     0
  0
SCALE
  5
52
102
{ACAD_REACTORS
330
47
102
}
330
47
100
AcDbScale
 70
     0
300
1:50
140
1.0
141
50.0
290
     0
  0
SCALE
  5
53
102
{ACAD_REACTORS
330
47
102
}
330
47
100
AcDbScale
 70
     0
300
1:100
140
1.0
141
100.0
290
     0
  0
SCALE
  5
54
102
{ACAD_REACTORS
330
47
102
}
330
47
100
AcDbScale
 70
     0
300
2:1
140
2.0
141
1.0
290
     0
  0
SCALE
  5
55
102
{ACAD_REACTORS
330
47
102
}
330
47
100
AcDbScale
 70
     0
300
4:1
140
4.0
141
1.0
290
     0
  0
SCALE
  5
56
102
{ACAD_REACTORS
330
47
102
}
330
47
100
AcDbScale
 70
     0
300
8:1
140
8.0
141
1.0
290
     0
  0
SCALE
  5
57
102
{ACAD_REACTORS
330
47
102
}
330
47
100
AcDbScale
 70
     0
300
10:1
140
10.0
141
1.0
290
     0
  0
SCALE
  5
58
102
{ACAD_REACTORS
330
47
102
}
330
47
100
AcDbScale
 70
     0
300
100:1
140
100.0
141
1.0
290
     0
  0
SCALE
  5
59
102
{ACAD_REACTORS
330
47
102
}
330
47
100
AcDbScale
 70
     0
300
1/128" = 1'-0"
140
0.0078125
141
12.0
290
     0
  0
SCALE
  5
5A
102
{ACAD_REACTORS
330
47
102
}
330
47
100
AcDbScale
 70
     0
300
1/64" = 1'-0"
140
0.015625
141
12.0
290
     0
  0
SCALE
  5
5B
102
{ACAD_REACTORS
330
47
102
}
330
47
100
AcDbScale
 70
     0
300
1/32" = 1'-0"
140
0.03125
141
12.0
290
     0
  0
SCALE
  5
5C
102
{ACAD_REACTORS
330
47
102
}
330
47
100
AcDbScale
 70
     0
300
1/16" = 1'-0"
140
0.0625
141
12.0
290
     0
  0
SCALE
  5
5D
102
{ACAD_REACTORS
330
47
102
}
330
47
100
AcDbScale
 70
     0
300
3/32" = 1'-0"
140
0.09375
141
12.0
290
     0
  0
SCALE
  5
5E
102
{ACAD_REACTORS
330
47
102
}
330
47
100
AcDbScale
 70
     0
300
1/8" = 1'-0"
140
0.125
141
12.0
290
     0
  0
SCALE
  5
5F
102
{ACAD_REACTORS
330
47
102
}
330
47
100
AcDbScale
 70
     0
300
3/16" = 1'-0"
140
0.1875
141
12.0
290
     0
  0
SCALE
  5
60
102
{ACAD_REACTORS
330
47
102
}
330
47
100
AcDbScale
 70
     0
300
1/4" = 1'-0"
140
0.25
141
12.0
290
     0
  0
SCALE
  5
61
102
{ACAD_REACTORS
330
47
102
}
330
47
100
AcDbScale
 70
     0
300
3/8" = 1'-0"
140
0.375
141
12.0
290
     0
  0
SCALE
  5
62
102
{ACAD_REACTORS
330
47
102
}
330
47
100
AcDbScale
 70
     0
300
1/2" = 1'-0"
140
0.5
141
12.0
290
     0
  0
SCALE
  5
63
102
{ACAD_REACTORS
330
47
102
}
330
47
100
AcDbScale
 70
     0
300
3/4" = 1'-0"
140
0.75
141
12.0
290
     0
  0
SCALE
  5
64
102
{ACAD_REACTORS
330
47
102
}
330
47
100
AcDbScale
 70
     0
300
1" = 1'-0"
140
1.0
141
12.0
290
     0
  0
SCALE
  5
65
102
{ACAD_REACTORS
330
47
102
}
330
47
100
AcDbScale
 70
     0
300
1-1/2" = 1'-0"
140
1.5
141
12.0
290
     0
  0
SCALE
  5
66
102
{ACAD_REACTORS
330
47
102
}
330
47
100
AcDbScale
 70
     0
300
3" = 1'-0"
140
3.0
141
12.0
290
     0
  0
SCALE
  5
67
102
{ACAD_REACTORS
330
47
102
}
330
47
100
AcDbScale
 70
     0
300
6" = 1'-0"
140
6.0
141
12.0
290
     0
  0
SCALE
  5
68
102
{ACAD_REACTORS
330
47
102
}
330
47
100
AcDbScale
 70
     0
300
1'-0" = 1'-0"
140
12.0
141
12.0
290
     0
  0
ENDSEC
  0
EOF
