  0
SECTION
  2
HEADER
  9
$ACADVER
  1
AC1015
  9
$ACADMAINTVER
 70
     6
  9
$DWGCODEPAGE
  3
ANSI_949
  9
$INSBASE
 10
0.0
 20
0.0
 30
0.0
  9
$EXTMIN
 10
1.000000000000000E+20
 20
1.000000000000000E+20
 30
1.000000000000000E+20
  9
$EXTMAX
 10
-1.000000000000000E+20
 20
-1.000000000000000E+20
 30
-1.000000000000000E+20
  9
$LIMMIN
 10
0.0
 20
0.0
  9
$LIMMAX
 10
420.0
 20
297.0
  9
$ORTHOMODE
 70
     0
  9
$REGENMODE
 70
     1
  9
$FILLMODE
 70
     1
  9
$QTEXTMODE
 70
     0
  9
$MIRRTEXT
 70
     1
  9
$LTSCALE
 40
1.0
  9
$ATTMODE
 70
     1
  9
$TEXTSIZE
 40
3.5
  9
$TRACEWID
 40
1.0
  9
$TEXTSTYLE
  7
Standard
  9
$CLAYER
  8
0
  9
$CELTYPE
  6
ByLayer
  9
$CECOLOR
 62
   256
  9
$CELTSCALE
 40
1.0
  9
$DISPSILH
 70
     0
  9
$DIMSCALE
 40
1.0
  9
$DIMASZ
 40
3.302
  9
$DIMEXO
 40
1.0
  9
$DIMDLI
 40
3.75
  9
$DIMRND
 40
0.0
  9
$DIMDLE
 40
0.0
  9
$DIMEXE
 40
1.0
  9
$DIMTP
 40
0.0
  9
$DIMTM
 40
0.0
  9
$DIMTXT
 40
3.5
  9
$DIMCEN
 40
2.5
  9
$DIMTSZ
 40
0.0
  9
$DIMTOL
 70
     0
  9
$DIMLIM
 70
     0
  9
$DIMTIH
 70
     1
  9
$DIMTOH
 70
     1
  9
$DIMSE1
 70
     0
  9
$DIMSE2
 70
     0
  9
$DIMTAD
 70
     1
  9
$DIMZIN
 70
     0
  9
$DIMBLK
  1

  9
$DIMASO
 70
     1
  9
$DIMSHO
 70
     1
  9
$DIMPOST
  1

  9
$DIMAPOST
  1

  9
$DIMALT
 70
     0
  9
$DIMALTD
 70
     3
  9
$DIMALTF
 40
0.0393700787401575
  9
$DIMLFAC
 40
1.0
  9
$DIMTOFL
 70
     1
  9
$DIMTVP
 40
0.0
  9
$DIMTIX
 70
     0
  9
$DIMSOXD
 70
     0
  9
$DIMSAH
 70
     0
  9
$DIMBLK1
  1

  9
$DIMBLK2
  1

  9
$DIMSTYLE
  2
ISO-25
  9
$DIMCLRD
 70
     0
  9
$DIMCLRE
 70
     0
  9
$DIMCLRT
 70
     0
  9
$DIMTFAC
 40
1.0
  9
$DIMGAP
 40
1.524
  9
$DIMJUST
 70
     0
  9
$DIMSD1
 70
     0
  9
$DIMSD2
 70
     0
  9
$DIMTOLJ
 70
     0
  9
$DIMTZIN
 70
     0
  9
$DIMALTZ
 70
     0
  9
$DIMALTTZ
 70
     0
  9
$DIMUPT
 70
     0
  9
$DIMDEC
 70
     2
  9
$DIMTDEC
 70
     2
  9
$DIMALTU
 70
     2
  9
$DIMALTTD
 70
     3
  9
$DIMTXSTY
  7
Standard
  9
$DIMAUNIT
 70
     0
  9
$DIMADEC
 70
     2
  9
$DIMALTRND
 40
0.0
  9
$DIMAZIN
 70
     0
  9
$DIMDSEP
 70
    44
  9
$DIMATFIT
 70
     3
  9
$DIMFRAC
 70
     0
  9
$DIMLDRBLK
  1

  9
$DIMLUNIT
 70
     2
  9
$DIMLWD
 70
    -2
  9
$DIMLWE
 70
    -2
  9
$DIMTMOVE
 70
     0
  9
$LUNITS
 70
     2
  9
$LUPREC
 70
     2
  9
$SKETCHINC
 40
1.0
  9
$FILLETRAD
 40
10.0
  9
$AUNITS
 70
     0
  9
$AUPREC
 70
     2
  9
$MENU
  1
.
  9
$ELEVATION
 40
0.0
  9
$PELEVATION
 40
0.0
  9
$THICKNESS
 40
0.0
  9
$LIMCHECK
 70
     0
  9
$CHAMFERA
 40
0.0
  9
$CHAMFERB
 40
0.0
  9
$CHAMFERC
 40
0.0
  9
$CHAMFERD
 40
0.0
  9
$SKPOLY
 70
     0
  9
$TDCREATE
 40
2458320.373625868
  9
$TDUCREATE
 40
2458319.998625868
  9
$TDUPDATE
 40
2458331.40924588
  9
$TDUUPDATE
 40
2458331.03424588
  9
$TDINDWG
 40
0.0018652315
  9
$TDUSRTIMER
 40
2458331.03238088
  9
$USRTIMER
 70
     1
  9
$ANGBASE
 50
0.0
  9
$ANGDIR
 70
     0
  9
$PDMODE
 70
     0
  9
$PDSIZE
 40
-1.0
  9
$PLINEWID
 40
0.0
  9
$SPLFRAME
 70
     0
  9
$SPLINETYPE
 70
     6
  9
$SPLINESEGS
 70
     8
  9
$HANDSEED
  5
1B4
  9
$SURFTAB1
 70
     6
  9
$SURFTAB2
 70
     6
  9
$SURFTYPE
 70
     6
  9
$SURFU
 70
     6
  9
$SURFV
 70
     6
  9
$UCSBASE
  2

  9
$UCSNAME
  2

  9
$UCSORG
 10
0.0
 20
0.0
 30
0.0
  9
$UCSXDIR
 10
1.0
 20
0.0
 30
0.0
  9
$UCSYDIR
 10
0.0
 20
1.0
 30
0.0
  9
$UCSORTHOREF
  2

  9
$UCSORTHOVIEW
 70
     0
  9
$UCSORGTOP
 10
0.0
 20
0.0
 30
0.0
  9
$UCSORGBOTTOM
 10
0.0
 20
0.0
 30
0.0
  9
$UCSORGLEFT
 10
0.0
 20
0.0
 30
0.0
  9
$UCSORGRIGHT
 10
0.0
 20
0.0
 30
0.0
  9
$UCSORGFRONT
 10
0.0
 20
0.0
 30
0.0
  9
$UCSORGBACK
 10
0.0
 20
0.0
 30
0.0
  9
$PUCSBASE
  2

  9
$PUCSNAME
  2

  9
$PUCSORG
 10
0.0
 20
0.0
 30
0.0
  9
$PUCSXDIR
 10
1.0
 20
0.0
 30
0.0
  9
$PUCSYDIR
 10
0.0
 20
1.0
 30
0.0
  9
$PUCSORTHOREF
  2

  9
$PUCSORTHOVIEW
 70
     0
  9
$PUCSORGTOP
 10
0.0
 20
0.0
 30
0.0
  9
$PUCSORGBOTTOM
 10
0.0
 20
0.0
 30
0.0
  9
$PUCSORGLEFT
 10
0.0
 20
0.0
 30
0.0
  9
$PUCSORGRIGHT
 10
0.0
 20
0.0
 30
0.0
  9
$PUCSORGFRONT
 10
0.0
 20
0.0
 30
0.0
  9
$PUCSORGBACK
 10
0.0
 20
0.0
 30
0.0
  9
$USERI1
 70
     0
  9
$USERI2
 70
     0
  9
$USERI3
 70
     0
  9
$USERI4
 70
     0
  9
$USERI5
 70
     0
  9
$USERR1
 40
0.0
  9
$USERR2
 40
0.0
  9
$USERR3
 40
0.0
  9
$USERR4
 40
0.0
  9
$USERR5
 40
0.0
  9
$WORLDVIEW
 70
     1
  9
$SHADEDGE
 70
     3
  9
$SHADEDIF
 70
    70
  9
$TILEMODE
 70
     1
  9
$MAXACTVP
 70
    64
  9
$PINSBASE
 10
0.0
 20
0.0
 30
0.0
  9
$PLIMCHECK
 70
     0
  9
$PEXTMIN
 10
1.000000000000000E+20
 20
1.000000000000000E+20
 30
1.000000000000000E+20
  9
$PEXTMAX
 10
-1.000000000000000E+20
 20
-1.000000000000000E+20
 30
-1.000000000000000E+20
  9
$PLIMMIN
 10
0.0
 20
0.0
  9
$PLIMMAX
 10
0.0
 20
0.0
  9
$UNITMODE
 70
     0
  9
$VISRETAIN
 70
     1
  9
$PLINEGEN
 70
     0
  9
$PSLTSCALE
 70
     1
  9
$TREEDEPTH
 70
  3020
  9
$CMLSTYLE
  2
Standard
  9
$CMLJUST
 70
     0
  9
$CMLSCALE
 40
20.0
  9
$PROXYGRAPHICS
 70
     1
  9
$MEASUREMENT
 70
     1
  9
$CELWEIGHT
370
    -1
  9
$ENDCAPS
280
     0
  9
$JOINSTYLE
280
     0
  9
$LWDISPLAY
290
     1
  9
$INSUNITS
 70
     4
  9
$HYPERLINKBASE
  1

  9
$STYLESHEET
  1

  9
$XEDIT
290
     1
  9
$CEPSNTYPE
380
     0
  9
$PSTYLEMODE
290
     1
  9
$FINGERPRINTGUID
  2
{022E4115-7636-4F90-9B8C-455562DD1563}
  9
$VERSIONGUID
  2
{FAEB1C32-E019-11D5-929B-00C0DF256EC4}
  9
$EXTNAMES
290
     1
  9
$PSVPSCALE
 40
0.0
  9
$OLESTARTUP
290
     0
  0
ENDSEC
  0
SECTION
  2
CLASSES
  0
CLASS
  1
ACDBDICTIONARYWDFLT
  2
AcDbDictionaryWithDefault
  3
ObjectDBX Classes
 90
        0
280
     0
281
     0
  0
CLASS
  1
VISUALSTYLE
  2
AcDbVisualStyle
  3
ObjectDBX Classes
 90
     4095
280
     0
281
     0
  0
CLASS
  1
MATERIAL
  2
AcDbMaterial
  3
ObjectDBX Classes
 90
     1153
280
     0
281
     0
  0
CLASS
  1
SCALE
  2
AcDbScale
  3
ObjectDBX Classes
 90
     1153
280
     0
281
     0
  0
CLASS
  1
SUN
  2
AcDbSun
  3
SCENEOE
 90
     1153
280
     0
281
     0
  0
CLASS
  1
ACDBPLACEHOLDER
  2
AcDbPlaceHolder
  3
ObjectDBX Classes
 90
        0
280
     0
281
     0
  0
CLASS
  1
LAYOUT
  2
AcDbLayout
  3
ObjectDBX Classes
 90
        0
280
     0
281
     0
  0
CLASS
  1
TABLESTYLE
  2
AcDbTableStyle
  3
ObjectDBX Classes
 90
     4095
280
     0
281
     0
  0
CLASS
  1
MLEADERSTYLE
  2
AcDbMLeaderStyle
  3
ACDB_MLEADERSTYLE_CLASS
 90
     4095
280
     0
281
     0
  0
CLASS
  1
RASTERVARIABLES
  2
AcDbRasterVariables
  3
ISM
 90
        0
280
     0
281
     0
  0
ENDSEC
  0
SECTION
  2
TABLES
  0
TABLE
  2
VPORT
  5
8
330
0
100
AcDbSymbolTable
 70
     1
  0
VPORT
  5
29
330
8
100
AcDbSymbolTableRecord
100
AcDbViewportTableRecord
  2
*Active
 70
     0
 10
0.0
 20
0.0
 11
1.0
 21
1.0
 12
-16.56715835616851
 22
-45.28596353435496
 13
0.0
 23
0.0
 14
10.0
 24
10.0
 15
10.0
 25
10.0
 16
0.0
 26
0.0
 36
1.0
 17
0.0
 27
0.0
 37
0.0
 40
165.93155786496
 41
1.516441005802708
 42
50.0
 43
0.0
 44
0.0
 50
0.0
 51
0.0
 71
    16
 72
  2000
 73
     1
 74
     3
 75
     0
 76
     0
 77
     0
 78
     0
281
     0
 65
     1
110
0.0
120
0.0
130
0.0
111
1.0
121
0.0
131
0.0
112
0.0
122
1.0
132
0.0
 79
     0
146
0.0
  0
ENDTAB
  0
TABLE
  2
LTYPE
  5
5
330
0
100
AcDbSymbolTable
 70
     6
  0
LTYPE
  5
14
330
5
100
AcDbSymbolTableRecord
100
AcDbLinetypeTableRecord
  2
ByBlock
 70
     0
  3

 72
    65
 73
     0
 40
0.0
  0
LTYPE
  5
15
330
5
100
AcDbSymbolTableRecord
100
AcDbLinetypeTableRecord
  2
ByLayer
 70
     0
  3

 72
    65
 73
     0
 40
0.0
  0
LTYPE
  5
16
330
5
100
AcDbSymbolTableRecord
100
AcDbLinetypeTableRecord
  2
Continuous
 70
     0
  3
Solid line
 72
    65
 73
     0
 40
0.0
  0
LTYPE
  5
6A
330
5
100
AcDbSymbolTableRecord
100
AcDbLinetypeTableRecord
  2
HIDDEN
 70
     0
  3
Hidden __ __ __ __ __ __ __ __ __ __ __ __ __ __
 72
    65
 73
     2
 40
1.905
 49
1.27
 74
     0
 49
-0.635
 74
     0
  0
LTYPE
  5
6B
330
5
100
AcDbSymbolTableRecord
100
AcDbLinetypeTableRecord
  2
PHANTOM
 70
     0
  3
Phantom ______  __  __  ______  __  __  ______
 72
    65
 73
     6
 40
12.7
 49
6.35
 74
     0
 49
-1.27
 74
     0
 49
1.27
 74
     0
 49
-1.27
 74
     0
 49
1.27
 74
     0
 49
-1.27
 74
     0
  0
LTYPE
  5
6C
330
5
100
AcDbSymbolTableRecord
100
AcDbLinetypeTableRecord
  2
CENTER
 70
     0
  3
Center ____ _ ____ _ ____ _ ____ _ ____ _ ____
 72
    65
 73
     4
 40
10.16
 49
6.35
 74
     0
 49
-1.27
 74
     0
 49
1.27
 74
     0
 49
-1.27
 74
     0
  0
LTYPE
  5
6D
330
5
100
AcDbSymbolTableRecord
100
AcDbLinetypeTableRecord
  2
CENTERX2
 70
     0
  3
Center (2x) ________  __  ________  __  _____
 72
    65
 73
     4
 40
20.32
 49
12.7
 74
     0
 49
-2.54
 74
     0
 49
2.54
 74
     0
 49
-2.54
 74
     0
  0
LTYPE
  5
6E
330
5
100
AcDbSymbolTableRecord
100
AcDbLinetypeTableRecord
  2
DOT2
 70
     0
  3
Dot (.5x) ........................................
 72
    65
 73
     2
 40
0.635
 49
0.0
 74
     0
 49
-0.635
 74
     0
  0
ENDTAB
  0
TABLE
  2
LAYER
  5
2
102
{ACAD_XDICTIONARY
360
19C
102
}
330
0
100
AcDbSymbolTable
 70
    18
  0
LAYER
  5
10
330
2
100
AcDbSymbolTableRecord
100
AcDbLayerTableRecord
  2
0
 70
     0
 62
     7
  6
Continuous
370
    -3
390
F
  0
LAYER
  5
6F
330
2
100
AcDbSymbolTableRecord
100
AcDbLayerTableRecord
  2
FORMAT
 70
     0
 62
     2
  6
Continuous
370
    -3
390
F
  0
LAYER
  5
70
330
2
100
AcDbSymbolTableRecord
100
AcDbLayerTableRecord
  2
외형선
 70
     0
 62
     4
  6
Continuous
370
    30
390
F
  0
LAYER
  5
71
330
2
100
AcDbSymbolTableRecord
100
AcDbLayerTableRecord
  2
숨은선
 70
     0
 62
     2
  6
HIDDEN
370
    15
390
F
  0
LAYER
  5
72
330
2
100
AcDbSymbolTableRecord
100
AcDbLayerTableRecord
  2
중심선
 70
     0
 62
     1
  6
CENTERX2
370
    -3
390
F
  0
LAYER
  5
73
330
2
100
AcDbSymbolTableRecord
100
AcDbLayerTableRecord
  2
파단선
 70
     0
 62
     4
  6
Continuous
370
    -3
390
F
  0
LAYER
  5
74
330
2
100
AcDbSymbolTableRecord
100
AcDbLayerTableRecord
  2
해칭선
 70
     0
 62
   100
  6
Continuous
370
    -3
390
F
  0
LAYER
  5
75
330
2
100
AcDbSymbolTableRecord
100
AcDbLayerTableRecord
  2
가는실선
 70
     0
 62
     4
  6
Continuous
370
    -3
390
F
  0
LAYER
  5
76
330
2
100
AcDbSymbolTableRecord
100
AcDbLayerTableRecord
  2
치수_보조선
 70
     0
 62
     4
  6
Continuous
370
    -3
390
F
  0
LAYER
  5
77
330
2
100
AcDbSymbolTableRecord
100
AcDbLayerTableRecord
  2
치수문자_일반주서
 70
     0
 62
     7
  6
Continuous
370
    15
390
F
  0
LAYER
  5
78
330
2
100
AcDbSymbolTableRecord
100
AcDbLayerTableRecord
  2
개별주서
 70
     0
 62
   100
  6
Continuous
370
    30
390
F
  0
LAYER
  5
79
330
2
100
AcDbSymbolTableRecord
100
AcDbLayerTableRecord
  2
중간선
 70
     0
 62
     2
  6
Continuous
370
    15
390
F
  0
LAYER
  5
7A
330
2
100
AcDbSymbolTableRecord
100
AcDbLayerTableRecord
  2
윤곽선
 70
     0
 62
     3
  6
Continuous
370
    40
390
F
  0
LAYER
  5
7B
330
2
100
AcDbSymbolTableRecord
100
AcDbLayerTableRecord
  2
중심마크
 70
     0
 62
   100
  6
Continuous
370
    30
390
F
  0
LAYER
  5
7C
330
2
100
AcDbSymbolTableRecord
100
AcDbLayerTableRecord
  2
가상선
 70
     0
 62
     4
  6
PHANTOM
370
    -3
390
F
  0
LAYER
  5
7D
330
2
100
AcDbSymbolTableRecord
100
AcDbLayerTableRecord
  2
특수지정선
 70
     0
 62
     5
  6
CENTERX2
370
    60
390
F
  0
LAYER
  5
7E
330
2
100
AcDbSymbolTableRecord
100
AcDbLayerTableRecord
  2
참조1
 70
     0
 62
    -4
  6
Continuous
370
    -3
390
F
  0
LAYER
  5
14B
330
2
100
AcDbSymbolTableRecord
100
AcDbLayerTableRecord
  2
Defpoints
 70
     0
 62
     7
  6
Continuous
290
     0
370
    -3
390
F
  0
ENDTAB
  0
TABLE
  2
STYLE
  5
3
330
0
100
AcDbSymbolTable
 70
     2
  0
STYLE
  5
11
330
3
100
AcDbSymbolTableRecord
100
AcDbTextStyleTableRecord
  2
Standard
 70
     0
 40
0.0
 41
1.0
 50
0.0
 71
     0
 42
3.5
  3
txt
  4

  0
STYLE
  5
94
330
3
100
AcDbSymbolTableRecord
100
AcDbTextStyleTableRecord
  2
SLDTEXTSTYLE0
 70
     0
 40
0.0
 41
0.75
 50
0.0
 71
     0
 42
3.5
  3
TXT
  4

  0
ENDTAB
  0
TABLE
  2
VIEW
  5
6
330
0
100
AcDbSymbolTable
 70
     0
  0
ENDTAB
  0
TABLE
  2
UCS
  5
7
330
0
100
AcDbSymbolTable
 70
     0
  0
ENDTAB
  0
TABLE
  2
APPID
  5
9
330
0
100
AcDbSymbolTable
 70
     1
  0
APPID
  5
12
330
9
100
AcDbSymbolTableRecord
100
AcDbRegAppTableRecord
  2
ACAD
 70
     0
  0
ENDTAB
  0
TABLE
  2
DIMSTYLE
  5
A
330
0
100
AcDbSymbolTable
 70
     4
100
AcDbDimStyleTable
  0
DIMSTYLE
105
27
330
A
100
AcDbSymbolTableRecord
100
AcDbDimStyleTableRecord
  2
ISO-25
 70
     0
 41
2.5
 42
0.625
 43
3.75
 44
1.25
 73
     0
 74
     0
 77
     1
 78
     8
140
2.5
141
2.5
143
0.03937007874016
147
0.625
171
     3
172
     1
178
     0
271
     2
272
     2
274
     3
278
    44
283
     0
284
     8
340
11
  0
DIMSTYLE
105
C9
102
{ACAD_REACTORS
330
C8
102
}
330
A
100
AcDbSymbolTableRecord
100
AcDbDimStyleTableRecord
  2
SLDDIMSTYLE0
 70
     0
 41
3.302
 44
0.0
 45
0.000000001
 73
     0
 74
     0
 77
     1
 78
     4
 79
     1
140
3.5
143
0.0393700787401575
147
0.875
148
0.000000001
170
     1
173
     1
178
     0
271
     2
272
     2
276
     2
284
    12
340
94
  0
DIMSTYLE
105
DE
102
{ACAD_REACTORS
330
DD
330
F1
102
}
330
A
100
AcDbSymbolTableRecord
100
AcDbDimStyleTableRecord
  2
SLDDIMSTYLE1
 70
     0
 41
3.302
 44
0.0
 45
0.000000001
 73
     0
 74
     0
 77
     1
 78
    12
 79
     3
140
3.5
143
0.0393700787401575
147
0.875
148
0.000000001
170
     1
173
     1
178
     0
271
     2
272
     2
276
     2
284
    12
340
94
  0
DIMSTYLE
105
105
102
{ACAD_REACTORS
330
104
102
}
330
A
100
AcDbSymbolTableRecord
100
AcDbDimStyleTableRecord
  2
SLDDIMSTYLE2
 70
     0
 41
3.302
 44
0.0
 45
0.000000001
 73
     0
 74
     0
 77
     1
 78
     4
 79
     1
140
3.5
143
0.0393700787401575
147
0.875
148
0.000000001
170
     1
172
     1
173
     1
178
     0
271
     2
272
     2
276
     2
284
    12
289
     0
340
94
  0
ENDTAB
  0
TABLE
  2
BLOCK_RECORD
  5
1
330
0
100
AcDbSymbolTable
 70
     8
  0
BLOCK_RECORD
  5
1F
330
1
100
AcDbSymbolTableRecord
100
AcDbBlockTableRecord
  2
*Model_Space
340
22
  0
BLOCK_RECORD
  5
1B
330
1
100
AcDbSymbolTableRecord
100
AcDbBlockTableRecord
  2
*Paper_Space
340
1E
  0
BLOCK_RECORD
  5
23
330
1
100
AcDbSymbolTableRecord
100
AcDbBlockTableRecord
  2
*Paper_Space0
340
26
  0
BLOCK_RECORD
  5
7F
330
1
100
AcDbSymbolTableRecord
100
AcDbBlockTableRecord
  2
블럭10
340
0
102
{BLKREFS
331
C1
102
}
  0
BLOCK_RECORD
  5
CA
330
1
100
AcDbSymbolTableRecord
100
AcDbBlockTableRecord
  2
_D
340
0
  0
BLOCK_RECORD
  5
DF
330
1
100
AcDbSymbolTableRecord
100
AcDbBlockTableRecord
  2
_D_1
340
0
  0
BLOCK_RECORD
  5
F2
330
1
100
AcDbSymbolTableRecord
100
AcDbBlockTableRecord
  2
_D_2
340
0
  0
BLOCK_RECORD
  5
106
330
1
100
AcDbSymbolTableRecord
100
AcDbBlockTableRecord
  2
_D_3
340
0
  0
BLOCK_RECORD
  5
120
330
1
100
AcDbSymbolTableRecord
100
AcDbBlockTableRecord
  2
SW_DOWELSYMBOL_0
340
0
102
{BLKREFS
331
126
102
}
  0
ENDTAB
  0
ENDSEC
  0
SECTION
  2
BLOCKS
  0
BLOCK
  5
20
330
1F
100
AcDbEntity
  8
0
100
AcDbBlockBegin
  2
*Model_Space
 70
     0
 10
0.0
 20
0.0
 30
0.0
  3
*Model_Space
  1
*Model_Space
  0
ENDBLK
  5
21
330
1F
100
AcDbEntity
  8
0
100
AcDbBlockEnd
  0
BLOCK
  5
1C
330
1B
100
AcDbEntity
 67
     1
  8
0
100
AcDbBlockBegin
  2
*Paper_Space
 70
     0
 10
0.0
 20
0.0
 30
0.0
  3
*Paper_Space
  1
*Paper_Space
  0
ENDBLK
  5
1D
330
1B
100
AcDbEntity
 67
     1
  8
0
100
AcDbBlockEnd
  0
BLOCK
  5
24
330
23
100
AcDbEntity
  8
0
100
AcDbBlockBegin
  2
*Paper_Space0
 70
     0
 10
0.0
 20
0.0
 30
0.0
  3
*Paper_Space0
  1
*Paper_Space0
  0
ENDBLK
  5
25
330
23
100
AcDbEntity
  8
0
100
AcDbBlockEnd
  0
BLOCK
  5
80
330
7F
100
AcDbEntity
  8
0
100
AcDbBlockBegin
  2
블럭10
 70
     2
 10
0.0
 20
0.0
 30
0.0
  3
블럭10
  1
블럭10
  0
ELLIPSE
  5
82
330
7F
100
AcDbEntity
  8
중심선
100
AcDbEllipse
 10
20.54032771741204
 20
12.0471743016438
 30
0.0
 11
6.600054785286829
 21
-1.261213355974178E-13
 31
0.0
210
0.0
220
0.0
230
1.0
 40
0.636358354079598
 41
0.9219305317359503
 42
6.513795318482858
  0
ELLIPSE
  5
83
330
7F
100
AcDbEntity
  8
중심선
100
AcDbEllipse
 10
20.54032771746488
 20
12.04717430159265
 30
0.0
 11
3.960054785062283
 21
1.540847449632565E-10
 31
0.0
210
0.0
220
0.0
230
1.0
 40
0.3939339440162632
 41
1.131841032648279
 42
5.62031148352944
  0
LINE
  5
84
330
7F
100
AcDbEntity
  8
중심선
100
AcDbLine
 10
2.268634060543552
 20
16.24717430164393
 30
0.0
 11
5.714909304380834
 21
16.24717430164393
 31
0.0
  0
LINE
  5
85
330
7F
100
AcDbEntity
  8
중심선
100
AcDbLine
 10
5.245725140726316
 20
7.84717430164391
 30
0.0
 11
8.692000384563599
 21
7.84717430164391
 31
0.0
  0
LINE
  5
86
330
7F
100
AcDbEntity
  8
중심선
100
AcDbLine
 10
15.74043728645272
 20
16.24717430164393
 30
0.0
 11
8.692000384563599
 21
7.84717430164391
 31
0.0
  0
LINE
  5
87
330
7F
100
AcDbEntity
  8
중심선
100
AcDbLine
 10
0.1404042013395286
 20
13.71084872107135
 30
0.0
 11
3.58671253028996
 21
13.71088815037384
 31
0.0
  0
LINE
  5
88
330
7F
100
AcDbEntity
  8
중심선
100
AcDbLine
 10
2.750260043222114
 20
10.84717430164391
 30
0.0
 11
6.196535287059397
 21
10.84717430164391
 31
0.0
  0
LINE
  5
89
330
7F
100
AcDbEntity
  8
중심선
100
AcDbLine
 10
12.29416204261559
 20
16.24717430164393
 30
0.0
 11
5.245725140726316
 21
7.84717430164391
 31
0.0
  0
LINE
  5
8A
330
7F
100
AcDbEntity
  8
중심선
100
AcDbLine
 10
10.72767329541681
 20
16.24717430164393
 30
0.0
 11
6.196535287059397
 21
10.84717430164391
 31
0.0
  0
LINE
  5
8B
330
7F
100
AcDbEntity
  8
중심선
100
AcDbLine
 10
7.28139805157953
 20
16.24717430164393
 30
0.0
 11
2.750260043222114
 21
10.84717430164391
 31
0.0
  0
LINE
  5
8C
330
7F
100
AcDbEntity
  8
중심선
100
AcDbLine
 10
5.714909304380834
 20
16.24717430164393
 30
0.0
 11
3.58671253028996
 21
13.71088815037384
 31
0.0
  0
LINE
  5
8D
330
7F
100
AcDbEntity
  8
중심선
100
AcDbLine
 10
2.268634060543552
 20
16.24717430164393
 30
0.0
 11
0.1404042013395286
 21
13.71084872107135
 31
0.0
  0
LINE
  5
8E
330
7F
100
AcDbEntity
  8
중심선
100
AcDbLine
 10
7.28139805157953
 20
16.24717430164393
 30
0.0
 11
10.72767329541681
 21
16.24717430164393
 31
0.0
  0
LINE
  5
8F
330
7F
100
AcDbEntity
  8
중심선
100
AcDbLine
 10
12.29416204261559
 20
16.24717430164393
 30
0.0
 11
15.74043728645272
 21
16.24717430164393
 31
0.0
  0
LINE
  5
90
330
7F
100
AcDbEntity
  8
중심선
100
AcDbLine
 10
19.22036997980202
 20
11.08717430171403
 30
0.0
 11
23.66174974927406
 21
11.08717430171406
 31
0.0
  0
LINE
  5
91
330
7F
100
AcDbEntity
  8
중심선
100
AcDbLine
 10
19.22039502424796
 20
13.00717430171391
 30
0.0
 11
19.22036997980202
 21
11.08717430171403
 31
0.0
  0
LINE
  5
92
330
7F
100
AcDbEntity
  8
중심선
100
AcDbLine
 10
19.22039502424796
 20
13.00717430171391
 30
0.0
 11
26.96566020931264
 21
13.00717430171391
 31
0.0
  0
LINE
  5
93
330
7F
100
AcDbEntity
  8
중심선
100
AcDbLine
 10
22.22332737316547
 20
13.45928029700563
 30
0.0
 11
24.52862924686651
 21
15.39360700705356
 31
0.0
  0
ATTDEF
  5
95
330
7F
100
AcDbEntity
  8
FORMAT
 62
     2
100
AcDbText
 10
4.408487351596664
 20
2.075366912832191
 30
0.0
 40
4.233333333333333
  1
E2069028
 41
0.75
  7
SLDTEXTSTYLE0
 11
4.408487351596664
 21
-0.0412997538344756
 31
0.0
100
AcDbAttributeDefinition
  3

  2
AUTOATTR0
 70
     0
 74
     1
  0
ENDBLK
  5
81
330
7F
100
AcDbEntity
  8
0
100
AcDbBlockEnd
  0
BLOCK
  5
CB
330
CA
100
AcDbEntity
  8
0
100
AcDbBlockBegin
  2
_D
 70
     0
 10
0.0
 20
0.0
 30
0.0
  3
_D
  1
_D
  0
LINE
  5
CD
330
CA
100
AcDbEntity
  8
치수문자_일반주서
 62
     0
370
    -2
100
AcDbLine
 10
52.38750000000005
 20
1.377514629548136
 30
0.0
 11
52.38750000000005
 21
22.82277225922702
 31
0.0
  0
LINE
  5
CE
330
CA
100
AcDbEntity
  8
치수문자_일반주서
 62
     0
370
    -2
100
AcDbLine
 10
26.98749999999999
 20
5.61875000000001
 30
0.0
 11
26.98749999999999
 21
22.82277225922702
 31
0.0
  0
LINE
  5
CF
330
CA
100
AcDbEntity
  8
치수문자_일반주서
 62
     0
370
    -2
100
AcDbLine
 10
49.08550000000005
 20
22.82277225922702
 30
0.0
 11
30.28949999999999
 21
22.82277225922702
 31
0.0
  0
SOLID
  5
D0
330
CA
100
AcDbEntity
  8
치수문자_일반주서
 62
     0
100
AcDbTrace
 10
49.08550000000005
 20
22.27243892589368
 30
0.0
 11
49.08550000000005
 21
23.37310559256035
 31
0.0
 12
52.38750000000005
 22
22.82277225922702
 32
0.0
 13
52.38750000000005
 23
22.82277225922702
 33
0.0
  0
SOLID
  5
D1
330
CA
100
AcDbEntity
  8
치수문자_일반주서
 62
     0
100
AcDbTrace
 10
30.28949999999999
 20
23.37310559256035
 30
0.0
 11
30.28949999999999
 21
22.27243892589368
 31
0.0
 12
26.98749999999999
 22
22.82277225922702
 32
0.0
 13
26.98749999999999
 23
22.82277225922702
 33
0.0
  0
MTEXT
  5
D2
330
CA
100
AcDbEntity
  8
치수문자_일반주서
 62
     0
100
AcDbMText
 10
39.68750000000002
 20
27.19777225922702
 30
0.0
 40
3.5
 41
0.0
 71
     2
 72
     1
  1
\A1;25.40 [1]
  7
SLDTEXTSTYLE0
 73
     1
 44
1.0
  0
POINT
  5
D3
330
CA
100
AcDbEntity
  8
Defpoints
 62
     0
100
AcDbPoint
 10
52.38750000000005
 20
1.315014629548136
 30
0.0
  0
POINT
  5
D4
330
CA
100
AcDbEntity
  8
Defpoints
 62
     0
100
AcDbPoint
 10
26.98749999999999
 20
5.55625000000001
 30
0.0
  0
POINT
  5
D5
330
CA
100
AcDbEntity
  8
Defpoints
 62
     0
100
AcDbPoint
 10
26.98749999999999
 20
22.82277225922702
 30
0.0
  0
ENDBLK
  5
CC
330
CA
100
AcDbEntity
  8
0
100
AcDbBlockEnd
  0
BLOCK
  5
E0
330
DF
100
AcDbEntity
  8
0
100
AcDbBlockBegin
  2
_D_1
 70
     0
 10
0.0
 20
0.0
 30
0.0
  3
_D_1
  1
_D_1
  0
LINE
  5
E2
330
DF
100
AcDbEntity
  8
치수문자_일반주서
 62
     0
370
    -2
100
AcDbLine
 10
52.38750000000005
 20
1.377514629548136
 30
0.0
 11
52.38750000000005
 21
35.75282056895201
 31
0.0
  0
LINE
  5
E3
330
DF
100
AcDbEntity
  8
치수문자_일반주서
 62
     0
370
    -2
100
AcDbLine
 10
-52.38750000000002
 20
5.142499999999998
 30
0.0
 11
-52.38750000000002
 21
35.75282056895201
 31
0.0
  0
LINE
  5
E4
330
DF
100
AcDbEntity
  8
치수문자_일반주서
 62
     0
370
    -2
100
AcDbLine
 10
49.08550000000005
 20
35.75282056895201
 30
0.0
 11
-49.08550000000002
 21
35.75282056895201
 31
0.0
  0
SOLID
  5
E5
330
DF
100
AcDbEntity
  8
치수문자_일반주서
 62
     0
100
AcDbTrace
 10
49.08550000000005
 20
35.20248723561868
 30
0.0
 11
49.08550000000005
 21
36.30315390228535
 31
0.0
 12
52.38750000000005
 22
35.75282056895201
 32
0.0
 13
52.38750000000005
 23
35.75282056895201
 33
0.0
  0
SOLID
  5
E6
330
DF
100
AcDbEntity
  8
치수문자_일반주서
 62
     0
100
AcDbTrace
 10
-49.08550000000002
 20
36.30315390228535
 30
0.0
 11
-49.08550000000002
 21
35.20248723561868
 31
0.0
 12
-52.38750000000002
 22
35.75282056895201
 32
0.0
 13
-52.38750000000002
 23
35.75282056895201
 33
0.0
  0
MTEXT
  5
E7
330
DF
100
AcDbEntity
  8
치수문자_일반주서
 62
     0
100
AcDbMText
 10
0.0000000000000151
 20
40.12782056895201
 30
0.0
 40
3.5
 41
0.0
 71
     2
 72
     1
  1
\A1;104.78 [4 1/8]
  7
SLDTEXTSTYLE0
 73
     1
 44
1.0
  0
POINT
  5
E8
330
DF
100
AcDbEntity
  8
Defpoints
 62
     0
100
AcDbPoint
 10
52.38750000000005
 20
1.315014629548136
 30
0.0
  0
POINT
  5
E9
330
DF
100
AcDbEntity
  8
Defpoints
 62
     0
100
AcDbPoint
 10
-52.38750000000002
 20
5.079999999999998
 30
0.0
  0
POINT
  5
EA
330
DF
100
AcDbEntity
  8
Defpoints
 62
     0
100
AcDbPoint
 10
-52.38750000000002
 20
35.75282056895201
 30
0.0
  0
ENDBLK
  5
E1
330
DF
100
AcDbEntity
  8
0
100
AcDbBlockEnd
  0
BLOCK
  5
F3
330
F2
100
AcDbEntity
  8
0
100
AcDbBlockBegin
  2
_D_2
 70
     0
 10
0.0
 20
0.0
 30
0.0
  3
_D_2
  1
_D_2
  0
LINE
  5
F5
330
F2
100
AcDbEntity
  8
치수문자_일반주서
 62
     0
370
    -2
100
AcDbLine
 10
31.26375788588253
 20
5.556249999999985
 30
0.0
 11
70.24700715212502
 21
5.55625000000013
 31
0.0
  0
LINE
  5
F6
330
F2
100
AcDbEntity
  8
치수문자_일반주서
 62
     0
370
    -2
100
AcDbLine
 10
31.2637578858826
 20
-5.556249999999991
 30
0.0
 11
70.24700715212506
 21
-5.556249999999846
 31
0.0
  0
LINE
  5
F7
330
F2
100
AcDbEntity
  8
치수문자_일반주서
 62
     0
370
    -2
100
AcDbLine
 10
70.24700715212502
 20
5.55625000000013
 30
0.0
 11
70.2470071521249
 21
35.98325000000013
 31
0.0
  0
LINE
  5
F8
330
F2
100
AcDbEntity
  8
치수문자_일반주서
 62
     0
370
    -2
100
AcDbLine
 10
70.24700715212504
 20
2.25425000000013
 30
0.0
 11
70.24700715212505
 21
-2.254249999999846
 31
0.0
  0
SOLID
  5
F9
330
F2
100
AcDbEntity
  8
치수문자_일반주서
 62
     0
100
AcDbTrace
 10
70.79734048545836
 20
2.254250000000133
 30
0.0
 11
69.69667381879171
 21
2.254250000000128
 31
0.0
 12
70.24700715212502
 22
5.55625000000013
 32
0.0
 13
70.24700715212502
 23
5.55625000000013
 33
0.0
  0
SOLID
  5
FA
330
F2
100
AcDbEntity
  8
치수문자_일반주서
 62
     0
100
AcDbTrace
 10
69.69667381879172
 20
-2.254249999999848
 30
0.0
 11
70.79734048545838
 21
-2.254249999999844
 31
0.0
 12
70.24700715212506
 22
-5.556249999999846
 32
0.0
 13
70.24700715212506
 23
-5.556249999999846
 33
0.0
  0
MTEXT
  5
FB
330
F2
100
AcDbEntity
  8
치수문자_일반주서
 62
     0
100
AcDbMText
 10
65.87200715212495
 20
22.42075000000011
 30
0.0
 40
3.5
 41
0.0
 71
     2
 72
     1
  1
\A1;%%c11.11 [7/16]
  7
SLDTEXTSTYLE0
 11
-3.836451216702461E-15
 21
1.0
 31
0.0
 73
     1
 44
1.0
  0
POINT
  5
FC
330
F2
100
AcDbEntity
  8
Defpoints
 62
     0
100
AcDbPoint
 10
31.20125788588253
 20
5.556249999999985
 30
0.0
  0
POINT
  5
FD
330
F2
100
AcDbEntity
  8
Defpoints
 62
     0
100
AcDbPoint
 10
31.2012578858826
 20
-5.556249999999991
 30
0.0
  0
POINT
  5
FE
330
F2
100
AcDbEntity
  8
Defpoints
 62
     0
100
AcDbPoint
 10
70.24700715212506
 20
-5.556249999999846
 30
0.0
  0
ENDBLK
  5
F4
330
F2
100
AcDbEntity
  8
0
100
AcDbBlockEnd
  0
BLOCK
  5
107
330
106
100
AcDbEntity
  8
0
100
AcDbBlockBegin
  2
_D_3
 70
     0
 10
0.0
 20
0.0
 30
0.0
  3
_D_3
  1
_D_3
  0
LINE
  5
109
330
106
100
AcDbEntity
  8
치수문자_일반주서
 62
     0
370
    -2
100
AcDbLine
 10
-23.08768467149217
 20
6.350000000000002
 30
0.0
 11
-65.07000000000006
 21
6.349999999999845
 31
0.0
  0
LINE
  5
10A
330
106
100
AcDbEntity
  8
치수문자_일반주서
 62
     0
370
    -2
100
AcDbLine
 10
-23.08768467149216
 20
-6.350000000000001
 30
0.0
 11
-65.07000000000002
 21
-6.350000000000158
 31
0.0
  0
LINE
  5
10B
330
106
100
AcDbEntity
  8
치수문자_일반주서
 62
     0
370
    -2
100
AcDbLine
 10
-65.07000000000005
 20
3.047999999999845
 30
0.0
 11
-65.07000000000004
 21
-3.048000000000158
 31
0.0
  0
SOLID
  5
10C
330
106
100
AcDbEntity
  8
치수문자_일반주서
 62
     0
100
AcDbTrace
 10
-64.51966666666672
 20
3.047999999999847
 30
0.0
 11
-65.62033333333338
 21
3.047999999999844
 31
0.0
 12
-65.07000000000006
 22
6.349999999999845
 32
0.0
 13
-65.07000000000006
 23
6.349999999999845
 33
0.0
  0
SOLID
  5
10D
330
106
100
AcDbEntity
  8
치수문자_일반주서
 62
     0
100
AcDbTrace
 10
-65.62033333333336
 20
-3.04800000000016
 30
0.0
 11
-64.51966666666671
 21
-3.048000000000156
 31
0.0
 12
-65.07000000000002
 22
-6.350000000000158
 32
0.0
 13
-65.07000000000002
 23
-6.350000000000158
 33
0.0
  0
MTEXT
  5
10E
330
106
100
AcDbEntity
  8
치수문자_일반주서
 62
     0
100
AcDbMText
 10
-69.44500000000005
 20
-0.0000000000000233
 30
0.0
 40
3.5
 41
0.0
 71
     2
 72
     1
  1
\A1;%%c12.70 [1/2]
  7
SLDTEXTSTYLE0
 11
-3.356894814614646E-15
 21
1.0
 31
0.0
 73
     1
 44
1.0
  0
POINT
  5
10F
330
106
100
AcDbEntity
  8
Defpoints
 62
     0
100
AcDbPoint
 10
-23.02518467149217
 20
6.350000000000002
 30
0.0
  0
POINT
  5
110
330
106
100
AcDbEntity
  8
Defpoints
 62
     0
100
AcDbPoint
 10
-23.02518467149216
 20
-6.350000000000001
 30
0.0
  0
POINT
  5
111
330
106
100
AcDbEntity
  8
Defpoints
 62
     0
100
AcDbPoint
 10
-65.07000000000002
 20
-6.350000000000158
 30
0.0
  0
ENDBLK
  5
108
330
106
100
AcDbEntity
  8
0
100
AcDbBlockEnd
  0
BLOCK
  5
121
330
120
100
AcDbEntity
  8
0
100
AcDbBlockBegin
  2
SW_DOWELSYMBOL_0
 70
     0
 10
0.0
 20
0.0
 30
0.0
  3
SW_DOWELSYMBOL_0
  1
SW_DOWELSYMBOL_0
  0
CIRCLE
  5
123
330
120
100
AcDbEntity
  8
해칭선
 62
     0
100
AcDbCircle
 10
0.0
 20
0.0
 30
0.0
 40
3.000000000000001
  0
HATCH
  5
124
330
120
100
AcDbEntity
  8
0
  6
Continuous
 62
     0
370
     0
100
AcDbHatch
 10
0.0
 20
0.0
 30
0.0
210
0.0
220
0.0
230
1.0
  2
SOLID
 70
     1
 71
     0
 91
        1
 92
        0
 93
        3
 72
     2
 10
0.0
 20
0.0
 40
3.000000000000001
 50
0.0
 51
90.0
 73
     1
 72
     1
 10
0.0
 20
3.000000000000001
 11
0.0
 21
0.0
 72
     1
 10
0.0
 20
0.0
 11
3.000000000000003
 21
0.0
 97
        0
 75
     0
 76
     1
 98
        1
 10
0.0
 20
0.0
  0
HATCH
  5
125
330
120
100
AcDbEntity
  8
0
  6
Continuous
 62
     0
370
     0
100
AcDbHatch
 10
0.0
 20
0.0
 30
0.0
210
0.0
220
0.0
230
1.0
  2
SOLID
 70
     1
 71
     0
 91
        1
 92
        0
 93
        3
 72
     2
 10
0.0
 20
0.0
 40
3.000000000000001
 50
180.0
 51
270.0000000000008
 73
     1
 72
     1
 10
0.0
 20
-3.000000000000001
 11
0.0
 21
0.0
 72
     1
 10
0.0
 20
0.0
 11
-3.000000000000003
 21
0.0
 97
        0
 75
     0
 76
     1
 98
        1
 10
0.0
 20
0.0
  0
ENDBLK
  5
122
330
120
100
AcDbEntity
  8
0
100
AcDbBlockEnd
  0
ENDSEC
  0
SECTION
  2
ENTITIES
  0
LINE
  5
96
330
1F
100
AcDbEntity
  8
외형선
  6
Continuous
 62
     1
370
    15
100
AcDbLine
 10
42.93087334140144
 20
-5.556249999999991
 30
0.0
 11
46.31745813347813
 21
-5.556249999999991
 31
0.0
  0
LINE
  5
97
330
1F
100
AcDbEntity
  8
외형선
  6
Continuous
 62
     1
370
    15
100
AcDbLine
 10
31.20083406914529
 20
5.556249999999985
 30
0.0
 11
27.81328341350286
 21
5.556249999999985
 31
0.0
  0
ARC
  5
98
330
1F
100
AcDbEntity
  8
외형선
  6
Continuous
 62
     1
370
    15
100
AcDbCircle
 10
46.83125000000003
 20
0.0000000000000017
 30
0.0
 40
5.556249999999977
100
AcDbArc
 50
336.1373623736904
 51
0.0
  0
ARC
  5
99
330
1F
100
AcDbEntity
  8
외형선
  6
Continuous
 62
     1
370
    15
100
AcDbCircle
 10
46.83125000000003
 20
0.0000000000000017
 30
0.0
 40
5.556249999999977
100
AcDbArc
 50
0.0
 51
23.85963356507283
  0
LINE
  5
9A
330
1F
100
AcDbEntity
  8
외형선
  6
Continuous
 62
     1
370
    15
100
AcDbLine
 10
27.81328341350287
 20
-5.556249999999991
 30
0.0
 11
31.20083406914535
 21
-5.556249999999991
 31
0.0
  0
LINE
  5
9B
330
1F
100
AcDbEntity
  8
외형선
  6
Continuous
 62
     1
370
    15
100
AcDbLine
 10
46.3174581334781
 20
5.556249999999985
 30
0.0
 11
42.93087334140137
 21
5.556249999999985
 31
0.0
  0
LINE
  5
9C
330
1F
100
AcDbEntity
  8
외형선
  6
Continuous
370
    15
100
AcDbLine
 10
-23.02518467149215
 20
-6.350000000000008
 30
0.0
 11
23.02518467149215
 21
-6.350000000000008
 31
0.0
  0
LINE
  5
9D
330
1F
100
AcDbEntity
  8
외형선
  6
Continuous
370
    15
100
AcDbLine
 10
23.02518467149215
 20
6.350000000000002
 30
0.0
 11
5.727700000000063
 21
6.350000000000002
 31
0.0
  0
LINE
  5
9E
330
1F
100
AcDbEntity
  8
외형선
  6
Continuous
370
    15
100
AcDbLine
 10
23.02518467149215
 20
-6.350000000000012
 30
0.0
 11
25.98749999999997
 21
-5.556250000000003
 31
0.0
  0
LINE
  5
9F
330
1F
100
AcDbEntity
  8
외형선
  6
Continuous
370
    15
100
AcDbLine
 10
25.98749999999997
 20
5.556249999999998
 30
0.0
 11
23.02518467149215
 21
6.350000000000007
 31
0.0
  0
LINE
  5
A2
330
1F
100
AcDbEntity
  8
외형선
  6
Continuous
370
    15
100
AcDbLine
 10
25.98749999999997
 20
-5.556250000000003
 30
0.0
 11
26.98749999999997
 21
-5.556250000000003
 31
0.0
  0
LINE
  5
A3
330
1F
100
AcDbEntity
  8
외형선
  6
Continuous
370
    15
100
AcDbLine
 10
26.98749999999997
 20
5.556249999999998
 30
0.0
 11
25.98749999999997
 21
5.556249999999998
 31
0.0
  0
SPLINE
  5
A4
330
1F
100
AcDbEntity
  8
외형선
  6
Continuous
 62
     1
370
    15
100
AcDbSpline
210
0.0
220
0.0
230
1.0
 70
     8
 71
     3
 72
    16
 73
    12
 74
     0
 42
0.000000001
 43
0.00000001
 40
0.0
 40
0.0
 40
0.0
 40
0.0
 40
0.1162353255196934
 40
0.2324089035973222
 40
0.3485451831245904
 40
0.4646687925760146
 40
0.5808044215391855
 40
0.6969767016252009
 40
0.8066068520028985
 40
0.9161860941710719
 40
1.0
 40
1.0
 40
1.0
 40
1.0
 10
26.98749999999999
 20
0.476066996802307
 30
0.0
 10
27.60531234767299
 20
0.1191712465417579
 30
0.0
 10
28.84060884389386
 20
-0.5944306610172714
 30
0.0
 10
30.69292102649107
 20
-1.64785273055948
 30
0.0
 10
32.54454107031086
 20
-2.638960272048811
 30
0.0
 10
34.39590968771954
 20
-3.533063953496995
 30
0.0
 10
36.24752446093399
 20
-4.296184535651737
 30
0.0
 10
38.06469148870001
 20
-4.89105296272482
 30
0.0
 10
39.84739385476213
 20
-5.298891437693659
 30
0.0
 10
41.45787760656651
 20
-5.527387728807973
 30
0.0
 10
42.48551120468125
 20
-5.536082887837732
 30
0.0
 10
42.93087334140144
 20
-5.539851249062707
 30
0.0
  0
SPLINE
  5
A5
330
1F
100
AcDbEntity
  8
외형선
  6
Continuous
 62
     1
370
    15
100
AcDbSpline
210
0.0
220
0.0
230
1.0
 70
     8
 71
     3
 72
    13
 73
     9
 74
     0
 42
0.000000001
 43
0.00000001
 40
0.0
 40
0.0
 40
0.0
 40
0.0
 40
0.1340961979137152
 40
0.3073501400148863
 40
0.4804729375930948
 40
0.6535590677277816
 40
0.8267033246475989
 40
0.9999999999999999
 40
0.9999999999999999
 40
0.9999999999999999
 40
0.9999999999999999
 10
37.0712118168742
 20
-4.537364472162214
 30
0.0
 10
36.62040314636619
 20
-4.684556629553885
 30
0.0
 10
35.58714411176091
 20
-5.021922870262161
 30
0.0
 10
33.97204494107608
 20
-5.353109552024582
 30
0.0
 10
32.22621502380263
 20
-5.556557062237326
 30
0.0
 10
30.48080097121458
 20
-5.568945568307365
 30
0.0
 10
28.7347249223046
 20
-5.411697280435017
 30
0.0
 10
27.57007910469876
 20
-5.158730855963894
 30
0.0
 10
26.98749999999997
 20
-5.032191996802232
 30
0.0
  0
SPLINE
  5
A6
330
1F
100
AcDbEntity
  8
외형선
  6
Continuous
 62
     1
370
    15
100
AcDbSpline
210
0.0
220
0.0
230
1.0
 70
     8
 71
     3
 72
    38
 73
    34
 74
     0
 42
0.000000001
 43
0.00000001
 40
0.0
 40
0.0
 40
0.0
 40
0.0
 40
0.0625
 40
0.0625
 40
0.125
 40
0.125
 40
0.1875
 40
0.1875
 40
0.25
 40
0.25
 40
0.3125
 40
0.3125
 40
0.375
 40
0.375
 40
0.4375
 40
0.4375
 40
0.5
 40
0.5
 40
0.5625
 40
0.5625
 40
0.625
 40
0.625
 40
0.6875
 40
0.6875
 40
0.75
 40
0.75
 40
0.8125
 40
0.8125
 40
0.875
 40
0.875
 40
0.9375
 40
0.9375
 40
1.0
 40
1.0
 40
1.0
 40
1.0
 10
26.98749999999997
 20
5.535817399179233
 30
0.0
 10
27.39833887624885
 20
5.556226552441625
 30
0.0
 10
27.81365488557924
 20
5.56138493718969
 30
0.0
 10
28.64296621898069
 20
5.540789637303315
 30
0.0
 10
29.05411131811515
 20
5.515144938946152
 30
0.0
 10
29.87973144256058
 20
5.433509134895964
 30
0.0
 10
30.29569984655628
 20
5.37738482546583
 30
0.0
 10
31.12362494070694
 20
5.23583426429036
 30
0.0
 10
31.53351062920844
 20
5.150632953630563
 30
0.0
 10
32.36170739162107
 20
4.951644802159824
 30
0.0
 10
32.7776277797018
 20
4.837949838997545
 30
0.0
 10
33.60278810923627
 20
4.585080394131674
 30
0.0
 10
34.01433287208427
 20
4.445736354732598
 30
0.0
 10
34.84372623661137
 20
4.142473620810326
 30
0.0
 10
35.25829937437042
 20
3.978910830522108
 30
0.0
 10
36.08059726456985
 20
3.631689298390568
 30
0.0
 10
36.49604396726549
 20
3.446936019905932
 30
0.0
 10
37.32524723769087
 20
3.059564326339741
 30
0.0
 10
37.73604734730745
 20
2.857465504775252
 30
0.0
 10
38.56210162006857
 20
2.437894473178802
 30
0.0
 10
38.97810488707075
 20
2.220252139091647
 30
0.0
 10
39.80573242603852
 20
1.774635004831477
 30
0.0
 10
40.21567291997815
 20
1.547004067142981
 30
0.0
 10
41.04411543535277
 20
1.082875354898086
 30
0.0
 10
41.45997465969133
 20
0.8468488656790792
 30
0.0
 10
42.28464959556182
 20
0.3727560080638481
 30
0.0
 10
42.69664865469425
 20
0.1340880285322875
 30
0.0
 10
43.52609800991088
 20
-0.3437192249611606
 30
0.0
 10
43.9399825936427
 20
-0.5821659994656531
 30
0.0
 10
44.76287531989659
 20
-1.053604743485447
 30
0.0
 10
45.17843961821956
 20
-1.287841659372505
 30
0.0
 10
46.00750880512688
 20
-1.74749073584191
 30
0.0
 10
46.41801863536094
 20
-1.97237062610923
 30
0.0
 10
46.83125000000005
 20
-2.191678364329777
 30
0.0
  0
SPLINE
  5
A7
330
1F
100
AcDbEntity
  8
외형선
  6
Continuous
 62
     1
370
    15
100
AcDbSpline
210
0.0
220
0.0
230
1.0
 70
     8
 71
     3
 72
    18
 73
    14
 74
     0
 42
0.000000001
 43
0.00000001
 40
0.0
 40
0.0
 40
0.0
 40
0.0
 40
0.1112645890822758
 40
0.2257832848074665
 40
0.3360915498857706
 40
0.4498114193998024
 40
0.5574335994393524
 40
0.6677157623056053
 40
0.7573588184006765
 40
0.849023423520703
 40
0.9046494147397471
 40
0.9614334129076961
 40
1.0
 40
1.0
 40
1.0
 40
1.0
 10
46.83125000000005
 20
-2.191678364329758
 30
0.0
 10
47.08691957924094
 20
-2.318832439312618
 30
0.0
 10
47.6057361937855
 20
-2.576859408747212
 30
0.0
 10
48.38671181290669
 20
-2.831710686656396
 30
0.0
 10
49.15727227035079
 20
-2.969148905701239
 30
0.0
 10
49.87623998653088
 20
-2.973565526205287
 30
0.0
 10
50.53098232447564
 20
-2.869047802570071
 30
0.0
 10
51.05793162154121
 20
-2.697809744100638
 30
0.0
 10
51.46569514594793
 20
-2.50548829956297
 30
0.0
 10
51.71755352144834
 20
-2.353669015061065
 30
0.0
 10
51.85575809690829
 20
-2.26221945114801
 30
0.0
 10
51.9279504446121
 20
-2.209787218277298
 30
0.0
 10
51.90980043930098
 20
-2.233642468377436
 30
0.0
 10
51.9024592807895
 20
-2.243291235378545
 30
0.0
  0
SPLINE
  5
A8
330
1F
100
AcDbEntity
  8
외형선
  6
Continuous
 62
     1
370
    15
100
AcDbSpline
210
0.0
220
0.0
230
1.0
 70
     8
 71
     3
 72
    28
 73
    24
 74
     0
 42
0.000000001
 43
0.00000001
 40
0.0
 40
0.0
 40
0.0
 40
0.0
 40
0.0625000000000022
 40
0.0625000000000022
 40
0.1250000000000044
 40
0.1250000000000044
 40
0.2500000000000063
 40
0.2500000000000063
 40
0.3125000000000072
 40
0.3125000000000072
 40
0.3750000000000082
 40
0.3750000000000082
 40
0.4375000000000092
 40
0.4375000000000092
 40
0.5000000000000101
 40
0.5000000000000101
 40
0.6250000000000075
 40
0.6250000000000075
 40
0.750000000000005
 40
0.750000000000005
 40
0.8750000000000026
 40
0.8750000000000026
 40
1.0
 40
1.0
 40
1.0
 40
1.0
 10
51.88718718767552
 20
-2.269141144871836
 30
0.0
 10
51.86300280723911
 20
-2.296883014378229
 30
0.0
 10
51.82729634521667
 20
-2.336480352691761
 30
0.0
 10
51.73304610736466
 20
-2.440587107603883
 30
0.0
 10
51.67332234433613
 20
-2.506390965905578
 30
0.0
 10
51.46779470634262
 20
-2.732066824404558
 30
0.0
 10
51.2925274401285
 20
-2.923826939535207
 30
0.0
 10
51.0016482692344
 20
-3.229632609154522
 30
0.0
 10
50.89923669710586
 20
-3.335322372890004
 30
0.0
 10
50.69102400862783
 20
-3.544329623291552
 30
0.0
 10
50.58422014287946
 20
-3.648689877409632
 30
0.0
 10
50.36452913549812
 20
-3.855616358903254
 30
0.0
 10
50.25161781505235
 20
-3.958140094146727
 30
0.0
 10
50.02551076783472
 20
-4.154514746617989
 30
0.0
 10
49.91146133358549
 20
-4.249192253658062
 30
0.0
 10
49.56493777136328
 20
-4.522082092650869
 30
0.0
 10
49.32578122079505
 20
-4.690401481559675
 30
0.0
 10
48.84663360442887
 20
-4.981864995796028
 30
0.0
 10
48.60541151114138
 20
-5.106564137614863
 30
0.0
 10
48.11196824509026
 20
-5.312828669302033
 30
0.0
 10
47.85862651527461
 20
-5.394278610745627
 30
0.0
 10
47.35012675878468
 20
-5.50750467689784
 30
0.0
 10
47.09325041934562
 20
-5.540232564383537
 30
0.0
 10
46.83125000000006
 20
-5.548316072601317
 30
0.0
  0
SPLINE
  5
A9
330
1F
100
AcDbEntity
  8
외형선
  6
Continuous
 62
     1
370
    15
100
AcDbSpline
210
0.0
220
0.0
230
1.0
 70
     8
 71
     3
 72
    38
 73
    34
 74
     0
 42
0.000000001
 43
0.00000001
 40
0.0
 40
0.0
 40
0.0
 40
0.0
 40
0.0625
 40
0.0625
 40
0.125
 40
0.125
 40
0.1875
 40
0.1875
 40
0.25
 40
0.25
 40
0.3125
 40
0.3125
 40
0.375
 40
0.375
 40
0.4375
 40
0.4375
 40
0.5
 40
0.5
 40
0.5625
 40
0.5625
 40
0.625
 40
0.625
 40
0.6875
 40
0.6875
 40
0.75
 40
0.75
 40
0.8125
 40
0.8125
 40
0.875
 40
0.875
 40
0.9375
 40
0.9375
 40
1.0
 40
1.0
 40
1.0
 40
1.0
 10
26.98749999999997
 20
2.355622586455489
 30
0.0
 10
27.39833887624879
 20
2.139890812569949
 30
0.0
 10
27.81365488557923
 20
1.916856663902159
 30
0.0
 10
28.64296621898066
 20
1.461610967207922
 30
0.0
 10
29.05411131811517
 20
1.229953513344423
 30
0.0
 10
29.87973144256059
 20
0.7605142893732362
 30
0.0
 10
30.29569984655627
 20
0.5224349319046384
 30
0.0
 10
31.12362494070691
 20
0.0454595563733378
 30
0.0
 10
31.53351062920837
 20
-0.1930303000924101
 30
0.0
 10
32.36170739162104
 20
-0.6692418230451842
 30
0.0
 10
32.77762777970178
 20
-0.9064933531446727
 30
0.0
 10
33.6027881092363
 20
-1.373412433691168
 30
0.0
 10
34.01433287208427
 20
-1.603529781190982
 30
0.0
 10
34.84372623661137
 20
-2.0547732889254
 30
0.0
 10
35.2582993743704
 20
-2.275278413989317
 30
0.0
 10
36.08059726456982
 20
-2.701338210020947
 30
0.0
 10
36.49604396726546
 20
-2.908216336433334
 30
0.0
 10
37.3252472376908
 20
-3.304408599818621
 30
0.0
 10
37.73604734730739
 20
-3.493298136548198
 30
0.0
 10
38.56210162006855
 20
-3.851435834735779
 30
0.0
 10
38.97810488707071
 20
-4.020730530488224
 30
0.0
 10
39.80573242603847
 20
-4.335525615509475
 30
0.0
 10
40.21567291997812
 20
-4.480893715417125
 30
0.0
 10
41.04411543535275
 20
-4.747044522673964
 30
0.0
 10
41.45997465969131
 20
-4.867450768077155
 30
0.0
 10
42.28464959556176
 20
-5.080056050453127
 30
0.0
 10
42.69664865469425
 20
-5.172589006256062
 30
0.0
 10
43.52609800991083
 20
-5.328874617179395
 30
0.0
 10
43.93998259364263
 20
-5.392364620458803
 30
0.0
 10
44.76287531989652
 20
-5.489058686004935
 30
0.0
 10
45.17843961821954
 20
-5.522490271654801
 30
0.0
 10
46.00750880512679
 20
-5.558466595324734
 30
0.0
 10
46.41801863536097
 20
-5.561065514530666
 30
0.0
 10
46.83125000000003
 20
-5.548316072601348
 30
0.0
  0
SPLINE
  5
AA
330
1F
100
AcDbEntity
  8
외형선
  6
Continuous
 62
     1
370
    15
100
AcDbSpline
210
0.0
220
0.0
230
1.0
 70
     8
 71
     3
 72
    13
 73
     9
 74
     0
 42
0.000000001
 43
0.00000001
 40
0.0
 40
0.0
 40
0.0
 40
0.0
 40
0.105355575075531
 40
0.2844342520153164
 40
0.4634297714042316
 40
0.6422907716727931
 40
0.8211148693119869
 40
1.0
 40
1.0
 40
1.0
 40
1.0
 10
37.07121181687412
 20
4.537364472162205
 30
0.0
 10
37.41397348995255
 20
4.65372903530801
 30
0.0
 10
38.33934606783161
 20
4.967884859105069
 30
0.0
 10
39.84740307584793
 20
5.297782217437122
 30
0.0
 10
41.59436228599528
 20
5.534813246885866
 30
0.0
 10
43.34019369689692
 20
5.579413176620629
 30
0.0
 10
45.08558276490027
 20
5.454776735446269
 30
0.0
 10
46.24929473669519
 20
5.222090916699763
 30
0.0
 10
46.83125000000005
 20
5.105728156671551
 30
0.0
  0
SPLINE
  5
AB
330
1F
100
AcDbEntity
  8
외형선
  6
Continuous
 62
     1
370
    15
100
AcDbSpline
210
0.0
220
0.0
230
1.0
 70
     8
 71
     3
 72
    44
 73
    40
 74
     0
 42
0.000000001
 43
0.00000001
 40
0.0
 40
0.0
 40
0.0
 40
0.0
 40
0.0625
 40
0.0625
 40
0.125
 40
0.125
 40
0.1875
 40
0.1875
 40
0.25
 40
0.25
 40
0.3125
 40
0.3125
 40
0.375
 40
0.375
 40
0.4375
 40
0.4375
 40
0.46875
 40
0.46875
 40
0.5
 40
0.5
 40
0.53125
 40
0.53125
 40
0.5625
 40
0.5625
 40
0.59375
 40
0.59375
 40
0.625
 40
0.625
 40
0.6875
 40
0.6875
 40
0.75
 40
0.75
 40
0.8125
 40
0.8125
 40
0.875
 40
0.875
 40
0.9375
 40
0.9375
 40
1.0
 40
1.0
 40
1.0
 40
1.0
 10
46.83125000000005
 20
5.105728156671539
 30
0.0
 10
47.11348462416397
 20
5.041431246635885
 30
0.0
 10
47.39465705006329
 20
4.95417041874802
 30
0.0
 10
47.95871873370229
 20
4.738552534101135
 30
0.0
 10
48.24385803204181
 20
4.60899673606865
 30
0.0
 10
48.8071645064561
 20
4.313071930217972
 30
0.0
 10
49.08152986638323
 20
4.149695394712182
 30
0.0
 10
49.61528005273779
 20
3.79199384755871
 30
0.0
 10
49.87701458351138
 20
3.595416573188267
 30
0.0
 10
50.36620811783532
 20
3.177029065531049
 30
0.0
 10
50.59391406647167
 20
2.955605959180891
 30
0.0
 10
51.01122053048403
 20
2.480752630564005
 30
0.0
 10
51.20155466589951
 20
2.225762163482898
 30
0.0
 10
51.52308175592707
 20
1.689128987050485
 30
0.0
 10
51.65692997407866
 20
1.404548383571226
 30
0.0
 10
51.80385029823327
 20
0.9476198250637422
 30
0.0
 10
51.84304213783523
 20
0.7925840996538163
 30
0.0
 10
51.8998811332246
 20
0.4758922353317721
 30
0.0
 10
51.91756928916533
 20
0.3124627812948144
 30
0.0
 10
51.92706452377897
 20
-0.0126770631798669
 30
0.0
 10
51.91920354988722
 20
-0.1740440778914716
 30
0.0
 10
51.87519332514518
 20
-0.4938323775811049
 30
0.0
 10
51.83923156089769
 20
-0.6485024766399666
 30
0.0
 10
51.74137858859375
 20
-0.936374639135987
 30
0.0
 10
51.67789108980564
 20
-1.073078010974108
 30
0.0
 10
51.53023068511614
 20
-1.312866189326136
 30
0.0
 10
51.44542823625294
 20
-1.417956611513028
 30
0.0
 10
51.16534447403028
 20
-1.684241699694377
 30
0.0
 10
50.94865710586181
 20
-1.791944463523824
 30
0.0
 10
50.49480679986696
 20
-1.892998164580386
 30
0.0
 10
50.25212492948499
 20
-1.888611731374219
 30
0.0
 10
49.76163706057796
 20
-1.804229657927436
 30
0.0
 10
49.50849726468337
 20
-1.723985578575331
 30
0.0
 10
48.99395185819785
 20
-1.514256201924553
 30
0.0
 10
48.73566032523297
 20
-1.386165836688567
 30
0.0
 10
48.20787527757166
 20
-1.101669031256008
 30
0.0
 10
47.93611266271115
 20
-0.9443275668876764
 30
0.0
 10
47.38946789189558
 20
-0.6235756606327743
 30
0.0
 10
47.11333056843335
 20
-0.4595023888019125
 30
0.0
 10
46.83125000000006
 20
-0.2968211936730819
 30
0.0
  0
SPLINE
  5
AC
330
1F
100
AcDbEntity
  8
외형선
  6
Continuous
 62
     1
370
    15
100
AcDbSpline
210
0.0
220
0.0
230
1.0
 70
     8
 71
     3
 72
    16
 73
    12
 74
     0
 42
0.000000001
 43
0.00000001
 40
0.0
 40
0.0
 40
0.0
 40
0.0
 40
0.11848158005285
 40
0.2369334138813912
 40
0.3553806565671467
 40
0.4738484853411679
 40
0.5923619781749474
 40
0.7109378643267794
 40
0.8227097362988082
 40
0.9343970025836423
 40
1.0
 40
1.0
 40
1.0
 40
1.0
 10
46.83125000000003
 20
-0.2968211936730578
 30
0.0
 10
46.21393472360991
 20
0.0601532896007571
 30
0.0
 10
44.97945915524725
 20
0.7740126334150705
 30
0.0
 10
43.12798566776102
 20
1.81935114190803
 30
0.0
 10
41.27658814215342
 20
2.79664750758451
 30
0.0
 10
39.42479985484632
 20
3.67113044483165
 30
0.0
 10
37.57222862032057
 20
4.409454035544222
 30
0.0
 10
35.75421578151507
 20
4.976170462182305
 30
0.0
 10
33.97204668162419
 20
5.351507655425344
 30
0.0
 10
32.46617039919074
 20
5.543620262039216
 30
0.0
 10
31.54258853202692
 20
5.536676494739156
 30
0.0
 10
31.20083406914529
 20
5.534107081513997
 30
0.0
  0
LINE
  5
AD
330
1F
100
AcDbEntity
  8
외형선
  6
Continuous
370
    15
100
AcDbLine
 10
26.98749999999997
 20
0.476066996802307
 30
0.0
 11
26.98749999999997
 21
2.355622586455489
 31
0.0
  0
SPLINE
  5
AE
330
1F
100
AcDbEntity
  8
외형선
  6
Continuous
 62
     1
370
    15
100
AcDbSpline
210
0.0
220
0.0
230
1.0
 70
     8
 71
     3
 72
    20
 73
    16
 74
     0
 42
0.000000001
 43
0.00000001
 40
0.0
 40
0.0
 40
0.0
 40
0.0
 40
0.0526991729845689
 40
0.0986856384574741
 40
0.1464584341305177
 40
0.2271315813518537
 40
0.3089364413832076
 40
0.3680468224943019
 40
0.4288480323410522
 40
0.5103201870652465
 40
0.5940792781922626
 40
0.7030442801988447
 40
0.8151063373267229
 40
0.906807965955261
 40
1.0
 40
1.0
 40
1.0
 40
1.0
 10
51.90245875565969
 20
2.243292124225809
 30
0.0
 10
51.90332095346533
 20
2.246025660515307
 30
0.0
 10
51.90493552417125
 20
2.251144541110544
 30
0.0
 10
51.81439280248894
 20
2.350588718974664
 30
0.0
 10
51.66513054587083
 20
2.515552872546936
 30
0.0
 10
51.39902589510407
 20
2.808028059660579
 30
0.0
 10
51.0478645115966
 20
3.184081333274101
 30
0.0
 10
50.69585589989967
 20
3.541852040131201
 30
0.0
 10
50.32547892726312
 20
3.89585797573353
 30
0.0
 10
49.8919866280147
 20
4.272786793857059
 30
0.0
 10
49.34972672962258
 20
4.681096481420702
 30
0.0
 10
48.72973578780622
 20
5.057311868187697
 30
0.0
 10
48.07630833850565
 20
5.334213743360618
 30
0.0
 10
47.44069355317659
 20
5.50311413888165
 30
0.0
 10
47.03548662571031
 20
5.53316800782917
 30
0.0
 10
46.83125000000006
 20
5.548316072601311
 30
0.0
  0
LINE
  5
AF
330
1F
100
AcDbEntity
  8
외형선
  6
Continuous
 62
     1
370
    15
100
AcDbLine
 10
26.98749999999997
 20
-5.53581739917924
 30
0.0
 11
27.81328341350287
 21
-5.530837785078873
 31
0.0
  0
LINE
  5
B0
330
1F
100
AcDbEntity
  8
외형선
  6
Continuous
 62
     1
370
    15
100
AcDbLine
 10
46.83125000000002
 20
5.54831607260134
 30
0.0
 11
46.31745813347808
 21
5.5356480970028
 31
0.0
  0
LINE
  5
B1
330
1F
100
AcDbEntity
  8
외형선
  6
Continuous
370
    15
100
AcDbLine
 10
26.98749999999997
 20
-5.53581739917924
 30
0.0
 11
26.98749999999997
 21
-5.032191996802232
 31
0.0
  0
LINE
  5
B2
330
1F
100
AcDbEntity
  8
외형선
  6
Continuous
370
    15
100
AcDbLine
 10
23.02518467149215
 20
-0.0000000000000027
 30
0.0
 11
23.02518467149215
 21
6.350000000000002
 31
0.0
  0
LINE
  5
B3
330
1F
100
AcDbEntity
  8
외형선
  6
Continuous
370
    15
100
AcDbLine
 10
23.02518467149215
 20
-6.350000000000008
 30
0.0
 11
23.02518467149215
 21
-0.0000000000000027
 31
0.0
  0
LINE
  5
B6
330
1F
100
AcDbEntity
  8
외형선
  6
Continuous
370
    15
100
AcDbLine
 10
25.98749999999997
 20
-0.0000000000000027
 30
0.0
 11
25.98749999999997
 21
5.556249999999998
 31
0.0
  0
LINE
  5
B7
330
1F
100
AcDbEntity
  8
외형선
  6
Continuous
370
    15
100
AcDbLine
 10
25.98749999999997
 20
-5.556250000000003
 30
0.0
 11
25.98749999999997
 21
-0.0000000000000027
 31
0.0
  0
LINE
  5
BA
330
1F
100
AcDbEntity
  8
외형선
  6
Continuous
370
    15
100
AcDbLine
 10
26.98749999999997
 20
-0.0000000000000027
 30
0.0
 11
26.98749999999997
 21
5.556249999999998
 31
0.0
  0
LINE
  5
BB
330
1F
100
AcDbEntity
  8
외형선
  6
Continuous
370
    15
100
AcDbLine
 10
26.98749999999997
 20
-5.556250000000003
 30
0.0
 11
26.98749999999997
 21
-0.0000000000000027
 31
0.0
  0
LINE
  5
BC
330
1F
100
AcDbEntity
  8
중심선
 62
     1
100
AcDbLine
 10
-55.38750000000002
 20
-0.0000000000000066
 30
0.0
 11
55.38750000000002
 21
0.0000000000000066
 31
0.0
  0
LINE
  5
BE
330
1F
100
AcDbEntity
  8
참조1
100
AcDbLine
 10
0.0000000000000031
 20
-0.0000000000000066
 30
0.0
 11
0.0000000000000082
 21
-40.00000000000001
 31
0.0
  0
LINE
  5
BF
330
1F
100
AcDbEntity
  8
참조1
100
AcDbLine
 10
0.0000000000000082
 20
-40.00000000000001
 30
0.0
 11
-28.65260681430868
 21
-40.0
 31
0.0
  0
CIRCLE
  5
C0
330
1F
100
AcDbEntity
  8
해칭선
100
AcDbCircle
 10
-0.0000000000000071
 20
-0.0000000000000005
 30
0.0
 40
3.000000000000001
  0
INSERT
  5
C1
330
1F
100
AcDbEntity
  8
0
  6
Continuous
 62
     7
100
AcDbBlockReference
 66
     1
  2
블럭10
 10
-13.9402729321252
 20
-52.04717430164393
 30
0.0
  0
ATTRIB
  5
C2
330
C1
100
AcDbEntity
  8
FORMAT
 62
     2
100
AcDbText
 10
-23.12156822086648
 20
-49.97180738881175
 30
0.0
 40
4.233333333333333
  1
E2069028 [ 4 FLUTE ]
 41
0.75
  7
SLDTEXTSTYLE0
 11
-23.12156822086648
 21
-52.08847405547841
 31
0.0
100
AcDbAttribute
  2
AUTOATTR0
 70
     0
 74
     1
  0
SEQEND
  5
C3
330
C1
100
AcDbEntity
  8
0
  6
Continuous
 62
     7
  0
HATCH
  5
C4
330
1F
100
AcDbEntity
  8
중심선
100
AcDbHatch
 10
0.0
 20
0.0
 30
0.0
210
0.0
220
0.0
230
1.0
  2
SOLID
 70
     1
 71
     0
 91
        1
 92
        0
 93
        4
 72
     1
 10
-8.225363627744352
 20
-35.8
 11
-11.67163887158164
 21
-35.8
 72
     1
 10
-11.67163887158164
 20
-35.8
 11
-13.79986873078566
 21
-38.3363255805726
 72
     1
 10
-13.79986873078566
 20
-38.3363255805726
 11
-10.35356040183523
 21
-38.33628615127011
 72
     1
 10
-10.35356040183523
 20
-38.33628615127011
 11
-8.225363627744352
 21
-35.8
 97
        0
 75
     0
 76
     1
 98
        1
 10
1.025738685968797
 20
-0.0010749287238958
  0
HATCH
  5
C5
330
1F
100
AcDbEntity
  8
중심선
100
AcDbHatch
 10
0.0
 20
0.0
 30
0.0
210
0.0
220
0.0
230
1.0
  2
SOLID
 70
     1
 71
     0
 91
        1
 92
        0
 93
        4
 72
     1
 10
-3.212599636708429
 20
-35.80000000000003
 11
-6.658874880545684
 21
-35.79999999999998
 72
     1
 10
-6.658874880545684
 20
-35.79999999999998
 11
-11.19001288890307
 21
-41.20000000000002
 72
     1
 10
-11.19001288890307
 20
-41.20000000000002
 11
-7.74373764506579
 21
-41.20000000000002
 72
     1
 10
-7.74373764506579
 20
-41.20000000000002
 11
-3.212599636708429
 21
-35.80000000000003
 97
        0
 75
     0
 76
     1
 98
        1
 10
1.025738685968797
 20
-0.0010749287238958
  0
HATCH
  5
C6
330
1F
100
AcDbEntity
  8
중심선
100
AcDbHatch
 10
0.0
 20
0.0
 30
0.0
210
0.0
220
0.0
230
1.0
  2
SOLID
 70
     1
 71
     0
 91
        1
 92
        0
 93
        4
 72
     1
 10
1.800164354327494
 20
-35.8
 11
-1.646110889509594
 21
-35.79999999999998
 72
     1
 10
-1.646110889509594
 20
-35.79999999999998
 11
-8.694547791398872
 21
-44.20000000000002
 72
     1
 10
-8.694547791398872
 20
-44.20000000000002
 11
-5.248272547561589
 21
-44.20000000000002
 72
     1
 10
-5.248272547561589
 20
-44.20000000000002
 11
1.800164354327494
 21
-35.8
 97
        0
 75
     0
 76
     1
 98
        1
 10
1.025738685968797
 20
-0.0010749287238958
  0
HATCH
  5
C7
330
1F
100
AcDbEntity
  8
중심선
100
AcDbHatch
 10
0.0
 20
0.0
 30
0.0
210
0.0
220
0.0
230
1.0
  2
SOLID
 70
     1
 71
     0
 91
        1
 92
        0
 93
        6
 72
     3
 10
6.600054785339693
 20
-40.00000000005127
 11
3.960054785062284
 21
1.540882976769353E-10
 40
0.3939339440162627
 50
17.09539180608437
 51
320.0019657685081
 73
     0
 72
     1
 10
8.283054441040289
 20
-38.5878940046383
 11
10.58835631474133
 21
-36.65356729459035
 72
     3
 10
6.600054785286846
 20
-40.00000000000015
 11
6.60005478528683
 21
-1.278976924368180E-13
 40
0.636358354079598
 50
39.99873849337431
 51
368.4976242363725
 73
     1
 72
     1
 10
13.02538727718746
 20
-39.03999999993002
 11
5.280122092122797
 21
-39.03999999993002
 72
     1
 10
5.280122092122797
 20
-39.03999999993002
 11
5.280097047676835
 21
-40.95999999992991
 72
     1
 10
5.280097047676835
 20
-40.95999999992991
 11
9.721476817148872
 21
-40.95999999992988
 97
        0
 75
     0
 76
     1
 98
        1
 10
1.025738685968797
 20
-0.0010749287238958
  0
DIMENSION
  5
C8
330
1F
100
AcDbEntity
  8
치수문자_일반주서
100
AcDbDimension
  2
_D
 10
26.98749999999999
 20
22.82277225922702
 30
0.0
 11
39.68750000000002
 21
22.82277225922702
 31
0.0
 70
   160
  1
<>
 71
     2
 42
25.40000000000006
  3
SLDDIMSTYLE0
100
AcDbAlignedDimension
 13
52.38750000000005
 23
1.315014629548136
 33
0.0
 14
26.98749999999999
 24
5.55625000000001
 34
0.0
 50
0.000000000000016
100
AcDbRotatedDimension
1001
ACAD
1000
DSTYLE
1002
{
1070
   171
1070
     6
1070
   273
1070
     7
1002
}
  0
DIMENSION
  5
DD
330
1F
100
AcDbEntity
  8
치수문자_일반주서
100
AcDbDimension
  2
_D_1
 10
-52.38750000000002
 20
35.75282056895201
 30
0.0
 11
0.0000000000000151
 21
35.75282056895201
 31
0.0
 70
   160
  1
<>
 71
     2
 42
104.7750000000001
  3
SLDDIMSTYLE1
100
AcDbAlignedDimension
 13
52.38750000000005
 23
1.315014629548136
 33
0.0
 14
-52.38750000000002
 24
5.079999999999998
 34
0.0
100
AcDbRotatedDimension
1001
ACAD
1000
DSTYLE
1002
{
1070
   171
1070
     6
1070
   273
1070
     7
1002
}
  0
DIMENSION
  5
F1
330
1F
100
AcDbEntity
  8
치수문자_일반주서
100
AcDbDimension
  2
_D_2
 10
70.24700715212506
 20
-5.556249999999846
 30
0.0
 11
70.24700715212495
 21
22.42075000000013
 31
0.0
 70
   160
  1
%%c<>
 71
     2
 42
11.11249999999998
 52
-270.0
  3
SLDDIMSTYLE1
100
AcDbAlignedDimension
 13
31.20125788588253
 23
5.556249999999985
 33
0.0
 14
31.2012578858826
 24
-5.556249999999991
 34
0.0
 50
90.0000000000002
100
AcDbRotatedDimension
1001
ACAD
1000
DSTYLE
1002
{
1070
   171
1070
     6
1070
   273
1070
     7
1002
}
  0
DIMENSION
  5
104
330
1F
100
AcDbEntity
  8
치수문자_일반주서
100
AcDbDimension
  2
_D_3
 10
-65.07000000000002
 20
-6.350000000000158
 30
0.0
 11
-65.07000000000005
 21
-0.0000000000000087
 31
0.0
 70
   160
  1
%%c<>
 71
     2
 42
12.7
 52
-270.0
  3
SLDDIMSTYLE2
100
AcDbAlignedDimension
 13
-23.02518467149217
 23
6.350000000000002
 33
0.0
 14
-23.02518467149216
 24
-6.350000000000001
 34
0.0
 50
90.0000000000002
100
AcDbRotatedDimension
1001
ACAD
1000
DSTYLE
1002
{
1070
   171
1070
     6
1070
   273
1070
     7
1002
}
  0
LINE
  5
119
330
1F
100
AcDbEntity
  8
참조1
100
AcDbLine
 10
69.31973381534559
 20
7.44
 30
0.0
 11
69.31973381534559
 21
-7.440000000000005
 31
0.0
  0
LINE
  5
11A
330
1F
100
AcDbEntity
  8
참조1
100
AcDbLine
 10
82.01973381534557
 20
5.44
 30
0.0
 11
69.31973381534559
 21
5.44
 31
0.0
  0
SOLID
  5
11B
330
1F
100
AcDbEntity
  8
참조1
100
AcDbTrace
 10
69.31973381534559
 20
5.44
 30
0.0
 11
75.66973381534558
 21
4.423999999999999
 31
0.0
 12
75.66973381534558
 22
6.456
 32
0.0
 13
75.66973381534558
 23
6.456
 33
0.0
  0
LINE
  5
11C
330
1F
100
AcDbEntity
  8
참조1
100
AcDbLine
 10
82.01973381534557
 20
-5.440000000000005
 30
0.0
 11
69.31973381534559
 21
-5.440000000000005
 31
0.0
  0
SOLID
  5
11D
330
1F
100
AcDbEntity
  8
참조1
100
AcDbTrace
 10
69.31973381534559
 20
-5.440000000000005
 30
0.0
 11
75.66973381534558
 21
-6.456000000000005
 31
0.0
 12
75.66973381534558
 22
-4.424000000000005
 32
0.0
 13
75.66973381534558
 23
-4.424000000000005
 33
0.0
  0
MTEXT
  5
11E
330
1F
100
AcDbEntity
  8
참조1
100
AcDbMText
 10
78.71722390781585
 20
10.98821664464993
 30
0.0
 40
3.5
 41
0.0
 71
     1
 72
     1
  1
A
  7
SLDTEXTSTYLE0
 73
     1
 44
1.0
  0
MTEXT
  5
11F
330
1F
100
AcDbEntity
  8
참조1
100
AcDbMText
 10
78.71722390781585
 20
0.1082166446499301
 30
0.0
 40
3.5
 41
0.0
 71
     1
 72
     1
  1
A
  7
SLDTEXTSTYLE0
 73
     1
 44
1.0
  0
INSERT
  5
126
330
1F
100
AcDbEntity
  8
해칭선
100
AcDbBlockReference
  2
SW_DOWELSYMBOL_0
 10
-0.0000000000000071
 20
-0.0000000000000005
 30
0.0
  0
LINE
  5
14D
330
1F
100
AcDbEntity
  8
외형선
  6
Continuous
 62
     1
370
    15
100
AcDbLine
 10
-42.93087334140146
 20
5.556249999999996
 30
0.0
 11
-46.31745813347814
 21
5.556249999999996
 31
0.0
  0
LINE
  5
14E
330
1F
100
AcDbEntity
  8
외형선
  6
Continuous
 62
     1
370
    15
100
AcDbLine
 10
-31.2008340691453
 20
-5.556249999999983
 30
0.0
 11
-27.81328341350287
 21
-5.556249999999983
 31
0.0
  0
ARC
  5
14F
330
1F
100
AcDbEntity
  8
외형선
  6
Continuous
 62
     1
370
    15
100
AcDbCircle
 10
-46.83125000000005
 20
0.0000000000000031
 30
0.0
 40
5.556249999999977
100
AcDbArc
 50
156.1373623736904
 51
180.0
  0
ARC
  5
150
330
1F
100
AcDbEntity
  8
외형선
  6
Continuous
 62
     1
370
    15
100
AcDbCircle
 10
-46.83125000000005
 20
0.0000000000000031
 30
0.0
 40
5.556249999999977
100
AcDbArc
 50
180.0
 51
203.8596335650728
  0
LINE
  5
151
330
1F
100
AcDbEntity
  8
외형선
  6
Continuous
 62
     1
370
    15
100
AcDbLine
 10
-27.81328341350288
 20
5.556249999999994
 30
0.0
 11
-31.20083406914537
 21
5.556249999999994
 31
0.0
  0
LINE
  5
152
330
1F
100
AcDbEntity
  8
외형선
  6
Continuous
 62
     1
370
    15
100
AcDbLine
 10
-46.31745813347811
 20
-5.556249999999981
 30
0.0
 11
-42.93087334140138
 21
-5.556249999999981
 31
0.0
  0
LINE
  5
153
330
1F
100
AcDbEntity
  8
외형선
  6
Continuous
370
    15
100
AcDbLine
 10
-23.02518467149216
 20
6.350000000000014
 30
0.0
 11
-25.98749999999999
 21
5.556250000000005
 31
0.0
  0
LINE
  5
154
330
1F
100
AcDbEntity
  8
외형선
  6
Continuous
370
    15
100
AcDbLine
 10
-25.98749999999999
 20
-5.556249999999996
 30
0.0
 11
-23.02518467149216
 21
-6.350000000000005
 31
0.0
  0
LINE
  5
155
330
1F
100
AcDbEntity
  8
외형선
  6
Continuous
370
    15
100
AcDbLine
 10
-25.98749999999999
 20
5.556250000000005
 30
0.0
 11
-26.98749999999999
 21
5.556250000000006
 31
0.0
  0
LINE
  5
156
330
1F
100
AcDbEntity
  8
외형선
  6
Continuous
370
    15
100
AcDbLine
 10
-26.98749999999999
 20
-5.556249999999995
 30
0.0
 11
-25.98749999999999
 21
-5.556249999999996
 31
0.0
  0
SPLINE
  5
157
330
1F
100
AcDbEntity
  8
외형선
  6
Continuous
 62
     1
370
    15
100
AcDbSpline
210
0.0
220
0.0
230
1.0
 70
     8
 71
     3
 72
    16
 73
    12
 74
     0
 42
0.000000001
 43
0.00000001
 40
0.0
 40
0.0
 40
0.0
 40
0.0
 40
0.1162353255196934
 40
0.2324089035973222
 40
0.3485451831245904
 40
0.4646687925760146
 40
0.5808044215391855
 40
0.6969767016252009
 40
0.8066068520028985
 40
0.9161860941710719
 40
1.0
 40
1.0
 40
1.0
 40
1.0
 10
-26.9875
 20
-0.4760669968023047
 30
0.0
 10
-27.605312347673
 20
-0.1191712465417555
 30
0.0
 10
-28.84060884389388
 20
0.5944306610172739
 30
0.0
 10
-30.69292102649109
 20
1.647852730559483
 30
0.0
 10
-32.54454107031086
 20
2.638960272048815
 30
0.0
 10
-34.39590968771955
 20
3.533063953496999
 30
0.0
 10
-36.247524460934
 20
4.296184535651741
 30
0.0
 10
-38.06469148870003
 20
4.891052962724824
 30
0.0
 10
-39.84739385476215
 20
5.298891437693663
 30
0.0
 10
-41.45787760656653
 20
5.527387728807978
 30
0.0
 10
-42.48551120468127
 20
5.536082887837736
 30
0.0
 10
-42.93087334140146
 20
5.539851249062711
 30
0.0
  0
SPLINE
  5
158
330
1F
100
AcDbEntity
  8
외형선
  6
Continuous
 62
     1
370
    15
100
AcDbSpline
210
0.0
220
0.0
230
1.0
 70
     8
 71
     3
 72
    13
 73
     9
 74
     0
 42
0.000000001
 43
0.00000001
 40
0.0
 40
0.0
 40
0.0
 40
0.0
 40
0.1340961979137152
 40
0.3073501400148863
 40
0.4804729375930948
 40
0.6535590677277816
 40
0.8267033246475989
 40
0.9999999999999999
 40
0.9999999999999999
 40
0.9999999999999999
 40
0.9999999999999999
 10
-37.07121181687422
 20
4.537364472162218
 30
0.0
 10
-36.62040314636621
 20
4.684556629553889
 30
0.0
 10
-35.58714411176093
 20
5.021922870262165
 30
0.0
 10
-33.9720449410761
 20
5.353109552024586
 30
0.0
 10
-32.22621502380265
 20
5.556557062237329
 30
0.0
 10
-30.4808009712146
 20
5.568945568307368
 30
0.0
 10
-28.73472492230461
 20
5.411697280435019
 30
0.0
 10
-27.57007910469878
 20
5.158730855963896
 30
0.0
 10
-26.98749999999999
 20
5.032191996802235
 30
0.0
  0
SPLINE
  5
159
330
1F
100
AcDbEntity
  8
외형선
  6
Continuous
 62
     1
370
    15
100
AcDbSpline
210
0.0
220
0.0
230
1.0
 70
     8
 71
     3
 72
    38
 73
    34
 74
     0
 42
0.000000001
 43
0.00000001
 40
0.0
 40
0.0
 40
0.0
 40
0.0
 40
0.0625
 40
0.0625
 40
0.125
 40
0.125
 40
0.1875
 40
0.1875
 40
0.25
 40
0.25
 40
0.3125
 40
0.3125
 40
0.375
 40
0.375
 40
0.4375
 40
0.4375
 40
0.5
 40
0.5
 40
0.5625
 40
0.5625
 40
0.625
 40
0.625
 40
0.6875
 40
0.6875
 40
0.75
 40
0.75
 40
0.8125
 40
0.8125
 40
0.875
 40
0.875
 40
0.9375
 40
0.9375
 40
1.0
 40
1.0
 40
1.0
 40
1.0
 10
-26.98749999999999
 20
-5.535817399179231
 30
0.0
 10
-27.39833887624886
 20
-5.556226552441622
 30
0.0
 10
-27.81365488557926
 20
-5.561384937189687
 30
0.0
 10
-28.6429662189807
 20
-5.540789637303313
 30
0.0
 10
-29.05411131811517
 20
-5.51514493894615
 30
0.0
 10
-29.87973144256059
 20
-5.433509134895961
 30
0.0
 10
-30.2956998465563
 20
-5.377384825465827
 30
0.0
 10
-31.12362494070695
 20
-5.235834264290357
 30
0.0
 10
-31.53351062920846
 20
-5.15063295363056
 30
0.0
 10
-32.36170739162109
 20
-4.951644802159821
 30
0.0
 10
-32.77762777970181
 20
-4.837949838997543
 30
0.0
 10
-33.60278810923629
 20
-4.585080394131671
 30
0.0
 10
-34.01433287208429
 20
-4.445736354732595
 30
0.0
 10
-34.84372623661138
 20
-4.142473620810322
 30
0.0
 10
-35.25829937437043
 20
-3.978910830522105
 30
0.0
 10
-36.08059726456986
 20
-3.631689298390564
 30
0.0
 10
-36.4960439672655
 20
-3.446936019905928
 30
0.0
 10
-37.32524723769089
 20
-3.059564326339737
 30
0.0
 10
-37.73604734730747
 20
-2.857465504775248
 30
0.0
 10
-38.56210162006858
 20
-2.437894473178798
 30
0.0
 10
-38.97810488707076
 20
-2.220252139091643
 30
0.0
 10
-39.80573242603854
 20
-1.774635004831473
 30
0.0
 10
-40.21567291997816
 20
-1.547004067142977
 30
0.0
 10
-41.04411543535278
 20
-1.082875354898082
 30
0.0
 10
-41.45997465969134
 20
-0.8468488656790751
 30
0.0
 10
-42.28464959556183
 20
-0.3727560080638439
 30
0.0
 10
-42.69664865469426
 20
-0.1340880285322832
 30
0.0
 10
-43.5260980099109
 20
0.343719224961165
 30
0.0
 10
-43.93998259364271
 20
0.5821659994656574
 30
0.0
 10
-44.76287531989661
 20
1.053604743485452
 30
0.0
 10
-45.17843961821958
 20
1.287841659372509
 30
0.0
 10
-46.00750880512689
 20
1.747490735841915
 30
0.0
 10
-46.41801863536095
 20
1.972370626109234
 30
0.0
 10
-46.83125000000006
 20
2.191678364329782
 30
0.0
  0
SPLINE
  5
15A
330
1F
100
AcDbEntity
  8
외형선
  6
Continuous
 62
     1
370
    15
100
AcDbSpline
210
0.0
220
0.0
230
1.0
 70
     8
 71
     3
 72
    18
 73
    14
 74
     0
 42
0.000000001
 43
0.00000001
 40
0.0
 40
0.0
 40
0.0
 40
0.0
 40
0.1112645890822758
 40
0.2257832848074665
 40
0.3360915498857706
 40
0.4498114193998024
 40
0.5574335994393524
 40
0.6677157623056053
 40
0.7573588184006765
 40
0.849023423520703
 40
0.9046494147397471
 40
0.9614334129076961
 40
1.0
 40
1.0
 40
1.0
 40
1.0
 10
-46.83125000000006
 20
2.191678364329763
 30
0.0
 10
-47.08691957924096
 20
2.318832439312623
 30
0.0
 10
-47.60573619378552
 20
2.576859408747217
 30
0.0
 10
-48.3867118129067
 20
2.831710686656401
 30
0.0
 10
-49.1572722703508
 20
2.969148905701244
 30
0.0
 10
-49.87623998653089
 20
2.973565526205292
 30
0.0
 10
-50.53098232447566
 20
2.869047802570077
 30
0.0
 10
-51.05793162154122
 20
2.697809744100644
 30
0.0
 10
-51.46569514594794
 20
2.505488299562975
 30
0.0
 10
-51.71755352144836
 20
2.353669015061071
 30
0.0
 10
-51.8557580969083
 20
2.262219451148016
 30
0.0
 10
-51.92795044461212
 20
2.209787218277304
 30
0.0
 10
-51.90980043930099
 20
2.233642468377441
 30
0.0
 10
-51.90245928078951
 20
2.243291235378551
 30
0.0
  0
SPLINE
  5
15B
330
1F
100
AcDbEntity
  8
외형선
  6
Continuous
 62
     1
370
    15
100
AcDbSpline
210
0.0
220
0.0
230
1.0
 70
     8
 71
     3
 72
    28
 73
    24
 74
     0
 42
0.000000001
 43
0.00000001
 40
0.0
 40
0.0
 40
0.0
 40
0.0
 40
0.0625000000000022
 40
0.0625000000000022
 40
0.1250000000000044
 40
0.1250000000000044
 40
0.2500000000000063
 40
0.2500000000000063
 40
0.3125000000000072
 40
0.3125000000000072
 40
0.3750000000000082
 40
0.3750000000000082
 40
0.4375000000000092
 40
0.4375000000000092
 40
0.5000000000000101
 40
0.5000000000000101
 40
0.6250000000000075
 40
0.6250000000000075
 40
0.750000000000005
 40
0.750000000000005
 40
0.8750000000000026
 40
0.8750000000000026
 40
1.0
 40
1.0
 40
1.0
 40
1.0
 10
-51.88718718767553
 20
2.269141144871842
 30
0.0
 10
-51.86300280723912
 20
2.296883014378235
 30
0.0
 10
-51.82729634521669
 20
2.336480352691766
 30
0.0
 10
-51.73304610736468
 20
2.440587107603888
 30
0.0
 10
-51.67332234433614
 20
2.506390965905584
 30
0.0
 10
-51.46779470634264
 20
2.732066824404564
 30
0.0
 10
-51.29252744012851
 20
2.923826939535212
 30
0.0
 10
-51.00164826923442
 20
3.229632609154527
 30
0.0
 10
-50.89923669710588
 20
3.33532237289001
 30
0.0
 10
-50.69102400862784
 20
3.544329623291558
 30
0.0
 10
-50.58422014287947
 20
3.648689877409637
 30
0.0
 10
-50.36452913549814
 20
3.85561635890326
 30
0.0
 10
-50.25161781505236
 20
3.958140094146732
 30
0.0
 10
-50.02551076783474
 20
4.154514746617995
 30
0.0
 10
-49.9114613335855
 20
4.249192253658068
 30
0.0
 10
-49.5649377713633
 20
4.522082092650875
 30
0.0
 10
-49.32578122079506
 20
4.690401481559681
 30
0.0
 10
-48.84663360442889
 20
4.981864995796033
 30
0.0
 10
-48.6054115111414
 20
5.106564137614868
 30
0.0
 10
-48.11196824509027
 20
5.312828669302037
 30
0.0
 10
-47.85862651527462
 20
5.394278610745632
 30
0.0
 10
-47.3501267587847
 20
5.507504676897844
 30
0.0
 10
-47.09325041934564
 20
5.540232564383541
 30
0.0
 10
-46.83125000000008
 20
5.548316072601321
 30
0.0
  0
SPLINE
  5
15C
330
1F
100
AcDbEntity
  8
외형선
  6
Continuous
 62
     1
370
    15
100
AcDbSpline
210
0.0
220
0.0
230
1.0
 70
     8
 71
     3
 72
    38
 73
    34
 74
     0
 42
0.000000001
 43
0.00000001
 40
0.0
 40
0.0
 40
0.0
 40
0.0
 40
0.0625
 40
0.0625
 40
0.125
 40
0.125
 40
0.1875
 40
0.1875
 40
0.25
 40
0.25
 40
0.3125
 40
0.3125
 40
0.375
 40
0.375
 40
0.4375
 40
0.4375
 40
0.5
 40
0.5
 40
0.5625
 40
0.5625
 40
0.625
 40
0.625
 40
0.6875
 40
0.6875
 40
0.75
 40
0.75
 40
0.8125
 40
0.8125
 40
0.875
 40
0.875
 40
0.9375
 40
0.9375
 40
1.0
 40
1.0
 40
1.0
 40
1.0
 10
-26.98749999999999
 20
-2.355622586455486
 30
0.0
 10
-27.39833887624881
 20
-2.139890812569947
 30
0.0
 10
-27.81365488557925
 20
-1.916856663902157
 30
0.0
 10
-28.64296621898067
 20
-1.46161096720792
 30
0.0
 10
-29.05411131811518
 20
-1.229953513344421
 30
0.0
 10
-29.87973144256061
 20
-0.7605142893732335
 30
0.0
 10
-30.29569984655628
 20
-0.5224349319046357
 30
0.0
 10
-31.12362494070693
 20
-0.045459556373335
 30
0.0
 10
-31.53351062920839
 20
0.193030300092413
 30
0.0
 10
-32.36170739162105
 20
0.6692418230451872
 30
0.0
 10
-32.7776277797018
 20
0.9064933531446757
 30
0.0
 10
-33.60278810923631
 20
1.373412433691171
 30
0.0
 10
-34.01433287208429
 20
1.603529781190985
 30
0.0
 10
-34.84372623661138
 20
2.054773288925403
 30
0.0
 10
-35.25829937437041
 20
2.27527841398932
 30
0.0
 10
-36.08059726456983
 20
2.701338210020951
 30
0.0
 10
-36.49604396726547
 20
2.908216336433338
 30
0.0
 10
-37.32524723769082
 20
3.304408599818625
 30
0.0
 10
-37.73604734730741
 20
3.493298136548202
 30
0.0
 10
-38.56210162006857
 20
3.851435834735783
 30
0.0
 10
-38.97810488707073
 20
4.020730530488228
 30
0.0
 10
-39.80573242603848
 20
4.335525615509479
 30
0.0
 10
-40.21567291997813
 20
4.480893715417128
 30
0.0
 10
-41.04411543535277
 20
4.747044522673969
 30
0.0
 10
-41.45997465969133
 20
4.867450768077159
 30
0.0
 10
-42.28464959556177
 20
5.080056050453131
 30
0.0
 10
-42.69664865469426
 20
5.172589006256066
 30
0.0
 10
-43.52609800991084
 20
5.3288746171794
 30
0.0
 10
-43.93998259364264
 20
5.392364620458808
 30
0.0
 10
-44.76287531989654
 20
5.489058686004939
 30
0.0
 10
-45.17843961821955
 20
5.522490271654806
 30
0.0
 10
-46.0075088051268
 20
5.558466595324738
 30
0.0
 10
-46.41801863536098
 20
5.561065514530671
 30
0.0
 10
-46.83125000000005
 20
5.548316072601352
 30
0.0
  0
SPLINE
  5
15D
330
1F
100
AcDbEntity
  8
외형선
  6
Continuous
 62
     1
370
    15
100
AcDbSpline
210
0.0
220
0.0
230
1.0
 70
     8
 71
     3
 72
    13
 73
     9
 74
     0
 42
0.000000001
 43
0.00000001
 40
0.0
 40
0.0
 40
0.0
 40
0.0
 40
0.105355575075531
 40
0.2844342520153164
 40
0.4634297714042316
 40
0.6422907716727931
 40
0.8211148693119869
 40
1.0
 40
1.0
 40
1.0
 40
1.0
 10
-37.07121181687413
 20
-4.537364472162201
 30
0.0
 10
-37.41397348995256
 20
-4.653729035308007
 30
0.0
 10
-38.33934606783163
 20
-4.967884859105066
 30
0.0
 10
-39.84740307584794
 20
-5.297782217437119
 30
0.0
 10
-41.5943622859953
 20
-5.534813246885862
 30
0.0
 10
-43.34019369689693
 20
-5.579413176620625
 30
0.0
 10
-45.08558276490029
 20
-5.454776735446265
 30
0.0
 10
-46.24929473669521
 20
-5.222090916699758
 30
0.0
 10
-46.83125000000006
 20
-5.105728156671547
 30
0.0
  0
SPLINE
  5
15E
330
1F
100
AcDbEntity
  8
외형선
  6
Continuous
 62
     1
370
    15
100
AcDbSpline
210
0.0
220
0.0
230
1.0
 70
     8
 71
     3
 72
    44
 73
    40
 74
     0
 42
0.000000001
 43
0.00000001
 40
0.0
 40
0.0
 40
0.0
 40
0.0
 40
0.0625
 40
0.0625
 40
0.125
 40
0.125
 40
0.1875
 40
0.1875
 40
0.25
 40
0.25
 40
0.3125
 40
0.3125
 40
0.375
 40
0.375
 40
0.4375
 40
0.4375
 40
0.46875
 40
0.46875
 40
0.5
 40
0.5
 40
0.53125
 40
0.53125
 40
0.5625
 40
0.5625
 40
0.59375
 40
0.59375
 40
0.625
 40
0.625
 40
0.6875
 40
0.6875
 40
0.75
 40
0.75
 40
0.8125
 40
0.8125
 40
0.875
 40
0.875
 40
0.9375
 40
0.9375
 40
1.0
 40
1.0
 40
1.0
 40
1.0
 10
-46.83125000000006
 20
-5.105728156671534
 30
0.0
 10
-47.11348462416399
 20
-5.041431246635881
 30
0.0
 10
-47.39465705006331
 20
-4.954170418748015
 30
0.0
 10
-47.95871873370231
 20
-4.738552534101131
 30
0.0
 10
-48.24385803204182
 20
-4.608996736068645
 30
0.0
 10
-48.80716450645612
 20
-4.313071930217967
 30
0.0
 10
-49.08152986638324
 20
-4.149695394712176
 30
0.0
 10
-49.6152800527378
 20
-3.791993847558705
 30
0.0
 10
-49.87701458351139
 20
-3.595416573188262
 30
0.0
 10
-50.36620811783533
 20
-3.177029065531043
 30
0.0
 10
-50.59391406647168
 20
-2.955605959180885
 30
0.0
 10
-51.01122053048405
 20
-2.480752630564
 30
0.0
 10
-51.20155466589953
 20
-2.225762163482892
 30
0.0
 10
-51.52308175592709
 20
-1.689128987050479
 30
0.0
 10
-51.65692997407867
 20
-1.404548383571221
 30
0.0
 10
-51.80385029823329
 20
-0.9476198250637369
 30
0.0
 10
-51.84304213783524
 20
-0.7925840996538109
 30
0.0
 10
-51.89988113322461
 20
-0.4758922353317667
 30
0.0
 10
-51.91756928916534
 20
-0.312462781294809
 30
0.0
 10
-51.92706452377899
 20
0.0126770631798723
 30
0.0
 10
-51.91920354988724
 20
0.174044077891477
 30
0.0
 10
-51.87519332514519
 20
0.4938323775811103
 30
0.0
 10
-51.83923156089771
 20
0.648502476639972
 30
0.0
 10
-51.74137858859377
 20
0.9363746391359923
 30
0.0
 10
-51.67789108980566
 20
1.073078010974114
 30
0.0
 10
-51.53023068511616
 20
1.312866189326141
 30
0.0
 10
-51.44542823625295
 20
1.417956611513033
 30
0.0
 10
-51.16534447403029
 20
1.684241699694382
 30
0.0
 10
-50.94865710586182
 20
1.791944463523829
 30
0.0
 10
-50.49480679986697
 20
1.892998164580391
 30
0.0
 10
-50.252124929485
 20
1.888611731374224
 30
0.0
 10
-49.76163706057797
 20
1.804229657927441
 30
0.0
 10
-49.50849726468338
 20
1.723985578575336
 30
0.0
 10
-48.99395185819786
 20
1.514256201924558
 30
0.0
 10
-48.73566032523298
 20
1.386165836688572
 30
0.0
 10
-48.20787527757167
 20
1.101669031256013
 30
0.0
 10
-47.93611266271117
 20
0.9443275668876813
 30
0.0
 10
-47.38946789189559
 20
0.623575660632779
 30
0.0
 10
-47.11333056843337
 20
0.4595023888019173
 30
0.0
 10
-46.83125000000008
 20
0.2968211936730866
 30
0.0
  0
SPLINE
  5
15F
330
1F
100
AcDbEntity
  8
외형선
  6
Continuous
 62
     1
370
    15
100
AcDbSpline
210
0.0
220
0.0
230
1.0
 70
     8
 71
     3
 72
    16
 73
    12
 74
     0
 42
0.000000001
 43
0.00000001
 40
0.0
 40
0.0
 40
0.0
 40
0.0
 40
0.11848158005285
 40
0.2369334138813912
 40
0.3553806565671467
 40
0.4738484853411679
 40
0.5923619781749474
 40
0.7109378643267794
 40
0.8227097362988082
 40
0.9343970025836423
 40
1.0
 40
1.0
 40
1.0
 40
1.0
 10
-46.83125000000005
 20
0.2968211936730625
 30
0.0
 10
-46.21393472360992
 20
-0.0601532896007525
 30
0.0
 10
-44.97945915524726
 20
-0.7740126334150661
 30
0.0
 10
-43.12798566776104
 20
-1.819351141908026
 30
0.0
 10
-41.27658814215344
 20
-2.796647507584505
 30
0.0
 10
-39.42479985484633
 20
-3.671130444831646
 30
0.0
 10
-37.57222862032059
 20
-4.409454035544218
 30
0.0
 10
-35.75421578151509
 20
-4.976170462182301
 30
0.0
 10
-33.9720466816242
 20
-5.35150765542534
 30
0.0
 10
-32.46617039919075
 20
-5.543620262039213
 30
0.0
 10
-31.54258853202693
 20
-5.536676494739154
 30
0.0
 10
-31.2008340691453
 20
-5.534107081513994
 30
0.0
  0
LINE
  5
160
330
1F
100
AcDbEntity
  8
외형선
  6
Continuous
370
    15
100
AcDbLine
 10
-26.98749999999999
 20
-0.4760669968023047
 30
0.0
 11
-26.98749999999999
 21
-2.355622586455486
 31
0.0
  0
SPLINE
  5
161
330
1F
100
AcDbEntity
  8
외형선
  6
Continuous
 62
     1
370
    15
100
AcDbSpline
210
0.0
220
0.0
230
1.0
 70
     8
 71
     3
 72
    20
 73
    16
 74
     0
 42
0.000000001
 43
0.00000001
 40
0.0
 40
0.0
 40
0.0
 40
0.0
 40
0.0526991729845689
 40
0.0986856384574741
 40
0.1464584341305177
 40
0.2271315813518537
 40
0.3089364413832076
 40
0.3680468224943019
 40
0.4288480323410522
 40
0.5103201870652465
 40
0.5940792781922626
 40
0.7030442801988447
 40
0.8151063373267229
 40
0.906807965955261
 40
1.0
 40
1.0
 40
1.0
 40
1.0
 10
-51.9024587556597
 20
-2.243292124225804
 30
0.0
 10
-51.90332095346534
 20
-2.246025660515302
 30
0.0
 10
-51.90493552417126
 20
-2.251144541110538
 30
0.0
 10
-51.81439280248895
 20
-2.350588718974659
 30
0.0
 10
-51.66513054587084
 20
-2.51555287254693
 30
0.0
 10
-51.39902589510408
 20
-2.808028059660573
 30
0.0
 10
-51.04786451159661
 20
-3.184081333274095
 30
0.0
 10
-50.69585589989968
 20
-3.541852040131195
 30
0.0
 10
-50.32547892726313
 20
-3.895857975733524
 30
0.0
 10
-49.89198662801471
 20
-4.272786793857054
 30
0.0
 10
-49.3497267296226
 20
-4.681096481420696
 30
0.0
 10
-48.72973578780623
 20
-5.057311868187692
 30
0.0
 10
-48.07630833850567
 20
-5.334213743360614
 30
0.0
 10
-47.44069355317661
 20
-5.503114138881646
 30
0.0
 10
-47.03548662571032
 20
-5.533168007829166
 30
0.0
 10
-46.83125000000008
 20
-5.548316072601307
 30
0.0
  0
LINE
  5
162
330
1F
100
AcDbEntity
  8
외형선
  6
Continuous
 62
     1
370
    15
100
AcDbLine
 10
-26.98749999999999
 20
5.535817399179242
 30
0.0
 11
-27.81328341350288
 21
5.530837785078876
 31
0.0
  0
LINE
  5
163
330
1F
100
AcDbEntity
  8
외형선
  6
Continuous
 62
     1
370
    15
100
AcDbLine
 10
-46.83125000000003
 20
-5.548316072601335
 30
0.0
 11
-46.3174581334781
 21
-5.535648097002795
 31
0.0
  0
LINE
  5
164
330
1F
100
AcDbEntity
  8
외형선
  6
Continuous
370
    15
100
AcDbLine
 10
-26.98749999999999
 20
5.535817399179242
 30
0.0
 11
-26.98749999999999
 21
5.032191996802235
 31
0.0
  0
LINE
  5
165
330
1F
100
AcDbEntity
  8
외형선
  6
Continuous
370
    15
100
AcDbLine
 10
-23.02518467149216
 20
0.0000000000000045
 30
0.0
 11
-23.02518467149216
 21
-6.350000000000001
 31
0.0
  0
LINE
  5
166
330
1F
100
AcDbEntity
  8
외형선
  6
Continuous
370
    15
100
AcDbLine
 10
-23.02518467149216
 20
6.350000000000009
 30
0.0
 11
-23.02518467149216
 21
0.0000000000000045
 31
0.0
  0
LINE
  5
167
330
1F
100
AcDbEntity
  8
외형선
  6
Continuous
370
    15
100
AcDbLine
 10
-25.98749999999999
 20
0.0000000000000049
 30
0.0
 11
-25.98749999999999
 21
-5.556249999999996
 31
0.0
  0
LINE
  5
168
330
1F
100
AcDbEntity
  8
외형선
  6
Continuous
370
    15
100
AcDbLine
 10
-25.98749999999999
 20
5.556250000000005
 30
0.0
 11
-25.98749999999999
 21
0.0000000000000049
 31
0.0
  0
LINE
  5
169
330
1F
100
AcDbEntity
  8
외형선
  6
Continuous
370
    15
100
AcDbLine
 10
-26.98749999999999
 20
0.000000000000005
 30
0.0
 11
-26.98749999999999
 21
-5.556249999999995
 31
0.0
  0
LINE
  5
16A
330
1F
100
AcDbEntity
  8
외형선
  6
Continuous
370
    15
100
AcDbLine
 10
-26.98749999999999
 20
5.556250000000006
 30
0.0
 11
-26.98749999999999
 21
0.000000000000005
 31
0.0
  0
LINE
  5
1AF
330
1F
100
AcDbEntity
  8
외형선
  6
Continuous
370
    15
100
AcDbLine
 10
-4.203699999999998
 20
4.825999999999993
 30
0.0
 11
4.203700000000055
 21
4.825999999999993
 31
0.0
  0
LINE
  5
1B0
330
1F
100
AcDbEntity
  8
외형선
  6
Continuous
370
    15
100
AcDbLine
 10
-4.203699999999998
 20
4.825999999999993
 30
0.0
 11
-5.727699999999999
 21
6.349999999999994
 31
0.0
  0
LINE
  5
1B1
330
1F
100
AcDbEntity
  8
외형선
  6
Continuous
370
    15
100
AcDbLine
 10
4.203700000000055
 20
4.825999999999993
 30
0.0
 11
5.727700000000056
 21
6.349999999999994
 31
0.0
  0
LINE
  5
1B2
330
1F
100
AcDbEntity
  8
외형선
  6
Continuous
370
    15
100
AcDbLine
 10
-5.727700000000006
 20
6.350000000000002
 30
0.0
 11
-23.02518467149217
 21
6.350000000000002
 31
0.0
  0
ENDSEC
  0
SECTION
  2
OBJECTS
  0
DICTIONARY
  5
C
330
0
100
AcDbDictionary
281
     1
  3
ACAD_GROUP
350
D
  3
ACAD_IMAGE_VARS
350
14A
  3
ACAD_LAYOUT
350
1A
  3
ACAD_MLINESTYLE
350
17
  3
ACAD_PLOTSETTINGS
350
19
  3
ACAD_PLOTSTYLENAME
350
E
  3
ACAD_SCALELIST
350
47
  3
APPDATA
350
148
  3
DWGPROPS
350
1B3
  0
DICTIONARY
  5
19C
330
2
100
AcDbDictionary
280
     1
281
     1
  3
ACAD_LAYERSTATES
360
19D
  0
DICTIONARY
  5
D
102
{ACAD_REACTORS
330
C
102
}
330
C
100
AcDbDictionary
281
     1
  0
RASTERVARIABLES
  5
14A
102
{ACAD_REACTORS
330
C
102
}
330
C
100
AcDbRasterVariables
 90
        0
 70
     1
 71
     1
 72
     1
  0
DICTIONARY
  5
1A
102
{ACAD_REACTORS
330
C
102
}
330
C
100
AcDbDictionary
281
     1
  3
Layout1
350
1E
  3
Layout2
350
26
  3
Model
350
22
  0
DICTIONARY
  5
17
102
{ACAD_REACTORS
330
C
102
}
330
C
100
AcDbDictionary
281
     1
  3
Standard
350
18
  0
DICTIONARY
  5
19
102
{ACAD_REACTORS
330
C
102
}
330
C
100
AcDbDictionary
281
     1
  0
ACDBDICTIONARYWDFLT
  5
E
102
{ACAD_REACTORS
330
C
102
}
330
C
100
AcDbDictionary
281
     1
  3
Normal
350
F
100
AcDbDictionaryWithDefault
340
F
  0
DICTIONARY
  5
47
102
{ACAD_REACTORS
330
C
102
}
330
C
100
AcDbDictionary
281
     1
  3
A0
350
48
  3
A1
350
49
  3
A2
350
4A
  3
A3
350
4B
  3
A4
350
4C
  3
A5
350
4D
  3
A6
350
4E
  3
A7
350
4F
  3
A8
350
50
  3
A9
350
51
  3
B0
350
52
  3
B1
350
53
  3
B2
350
54
  3
B3
350
55
  3
B4
350
56
  3
B5
350
57
  3
B6
350
58
  3
B7
350
59
  3
B8
350
5A
  3
B9
350
5B
  3
C0
350
5C
  3
C1
350
5D
  3
C2
350
5E
  3
C3
350
5F
  3
C4
350
60
  3
C5
350
61
  3
C6
350
62
  3
C7
350
63
  3
C8
350
64
  3
C9
350
65
  3
D0
350
66
  3
D1
350
67
  3
D2
350
68
  0
DICTIONARY
  5
148
102
{ACAD_REACTORS
330
C
102
}
330
C
100
AcDbDictionary
281
     1
  0
XRECORD
  5
1B3
102
{ACAD_REACTORS
330
C
102
}
330
C
100
AcDbXrecord
280
     1
  1
DWGPROPS COOKIE
  2

  3

  4

  6

  7

  8
12016016
  9

300
=
301
=
302
=
303
=
304
=
305
=
306
=
307
=
308
=
309
=
 40
0.0
 41
2458319.998625868
 42
2458331.03424588
  1

 90
        0
  0
DICTIONARY
  5
19D
102
{ACAD_REACTORS
330
19C
102
}
330
19C
100
AcDbDictionary
281
     1
  0
LAYOUT
  5
1E
102
{ACAD_REACTORS
330
1A
102
}
330
1A
100
AcDbPlotSettings
  1

  2
none_device
  4

  6

 40
0.0
 41
0.0
 42
0.0
 43
0.0
 44
0.0
 45
0.0
 46
0.0
 47
0.0
 48
0.0
 49
0.0
140
0.0
141
0.0
142
1.0
143
1.0
 70
   688
 72
     1
 73
     0
 74
     5
  7

 75
    16
147
1.0
148
0.0
149
0.0
100
AcDbLayout
  1
Layout1
 70
     1
 71
     1
 10
0.0
 20
0.0
 11
420.0
 21
297.0
 12
0.0
 22
0.0
 32
0.0
 14
1.000000000000000E+20
 24
1.000000000000000E+20
 34
1.000000000000000E+20
 15
-1.000000000000000E+20
 25
-1.000000000000000E+20
 35
-1.000000000000000E+20
146
0.0
 13
0.0
 23
0.0
 33
0.0
 16
1.0
 26
0.0
 36
0.0
 17
0.0
 27
1.0
 37
0.0
 76
     0
330
1B
  0
LAYOUT
  5
26
102
{ACAD_REACTORS
330
1A
102
}
330
1A
100
AcDbPlotSettings
  1

  2
none_device
  4

  6

 40
0.0
 41
0.0
 42
0.0
 43
0.0
 44
0.0
 45
0.0
 46
0.0
 47
0.0
 48
0.0
 49
0.0
140
0.0
141
0.0
142
1.0
143
1.0
 70
   688
 72
     1
 73
     0
 74
     5
  7

 75
    16
147
1.0
148
0.0
149
0.0
100
AcDbLayout
  1
Layout2
 70
     1
 71
     2
 10
0.0
 20
0.0
 11
0.0
 21
0.0
 12
0.0
 22
0.0
 32
0.0
 14
0.0
 24
0.0
 34
0.0
 15
0.0
 25
0.0
 35
0.0
146
0.0
 13
0.0
 23
0.0
 33
0.0
 16
1.0
 26
0.0
 36
0.0
 17
0.0
 27
1.0
 37
0.0
 76
     0
330
23
  0
LAYOUT
  5
22
102
{ACAD_REACTORS
330
1A
102
}
330
1A
100
AcDbPlotSettings
  1

  2
none_device
  4
ANSI_A_(11.00_x_8.50_Inches)
  6

 40
6.35
 41
19.05
 42
6.35000508
 43
19.05000254
 44
279.4
 45
215.9
 46
129.7537456560393
 47
92.55104019484827
 48
0.0
 49
0.0
140
0.0
141
0.0
142
0.0689752951162313
143
1.0
 70
  1696
 72
     0
 73
     0
 74
     0
  7

 75
     0
147
0.0235690232323232
148
0.0
149
0.0
100
AcDbLayout
  1
Model
 70
     1
 71
     0
 10
0.0
 20
0.0
 11
420.0
 21
297.0
 12
0.0
 22
0.0
 32
0.0
 14
1.000000000000000E+20
 24
1.000000000000000E+20
 34
1.000000000000000E+20
 15
-1.000000000000000E+20
 25
-1.000000000000000E+20
 35
-1.000000000000000E+20
146
0.0
 13
0.0
 23
0.0
 33
0.0
 16
1.0
 26
0.0
 36
0.0
 17
0.0
 27
1.0
 37
0.0
 76
     0
330
1F
331
29
  0
MLINESTYLE
  5
18
102
{ACAD_REACTORS
330
17
102
}
330
17
100
AcDbMlineStyle
  2
Standard
 70
     0
  3

 62
   256
 51
90.0
 52
90.0
 71
     2
 49
0.5
 62
   256
  6
BYLAYER
 49
-0.5
 62
   256
  6
BYLAYER
  0
ACDBPLACEHOLDER
  5
F
102
{ACAD_REACTORS
330
E
102
}
330
E
  0
SCALE
  5
48
102
{ACAD_REACTORS
330
47
102
}
330
47
100
AcDbScale
 70
     0
300
1:1
140
1.0
141
1.0
290
     1
  0
SCALE
  5
49
102
{ACAD_REACTORS
330
47
102
}
330
47
100
AcDbScale
 70
     0
300
1:2
140
1.0
141
2.0
290
     0
  0
SCALE
  5
4A
102
{ACAD_REACTORS
330
47
102
}
330
47
100
AcDbScale
 70
     0
300
1:4
140
1.0
141
4.0
290
     0
  0
SCALE
  5
4B
102
{ACAD_REACTORS
330
47
102
}
330
47
100
AcDbScale
 70
     0
300
1:5
140
1.0
141
5.0
290
     0
  0
SCALE
  5
4C
102
{ACAD_REACTORS
330
47
102
}
330
47
100
AcDbScale
 70
     0
300
1:8
140
1.0
141
8.0
290
     0
  0
SCALE
  5
4D
102
{ACAD_REACTORS
330
47
102
}
330
47
100
AcDbScale
 70
     0
300
1:10
140
1.0
141
10.0
290
     0
  0
SCALE
  5
4E
102
{ACAD_REACTORS
330
47
102
}
330
47
100
AcDbScale
 70
     0
300
1:16
140
1.0
141
16.0
290
     0
  0
SCALE
  5
4F
102
{ACAD_REACTORS
330
47
102
}
330
47
100
AcDbScale
 70
     0
300
1:20
140
1.0
141
20.0
290
     0
  0
SCALE
  5
50
102
{ACAD_REACTORS
330
47
102
}
330
47
100
AcDbScale
 70
     0
300
1:30
140
1.0
141
30.0
290
     0
  0
SCALE
  5
51
102
{ACAD_REACTORS
330
47
102
}
330
47
100
AcDbScale
 70
     0
300
1:40
140
1.0
141
40.0
290
     0
  0
SCALE
  5
52
102
{ACAD_REACTORS
330
47
102
}
330
47
100
AcDbScale
 70
     0
300
1:50
140
1.0
141
50.0
290
     0
  0
SCALE
  5
53
102
{ACAD_REACTORS
330
47
102
}
330
47
100
AcDbScale
 70
     0
300
1:100
140
1.0
141
100.0
290
     0
  0
SCALE
  5
54
102
{ACAD_REACTORS
330
47
102
}
330
47
100
AcDbScale
 70
     0
300
2:1
140
2.0
141
1.0
290
     0
  0
SCALE
  5
55
102
{ACAD_REACTORS
330
47
102
}
330
47
100
AcDbScale
 70
     0
300
4:1
140
4.0
141
1.0
290
     0
  0
SCALE
  5
56
102
{ACAD_REACTORS
330
47
102
}
330
47
100
AcDbScale
 70
     0
300
8:1
140
8.0
141
1.0
290
     0
  0
SCALE
  5
57
102
{ACAD_REACTORS
330
47
102
}
330
47
100
AcDbScale
 70
     0
300
10:1
140
10.0
141
1.0
290
     0
  0
SCALE
  5
58
102
{ACAD_REACTORS
330
47
102
}
330
47
100
AcDbScale
 70
     0
300
100:1
140
100.0
141
1.0
290
     0
  0
SCALE
  5
59
102
{ACAD_REACTORS
330
47
102
}
330
47
100
AcDbScale
 70
     0
300
1/128" = 1'-0"
140
0.0078125
141
12.0
290
     0
  0
SCALE
  5
5A
102
{ACAD_REACTORS
330
47
102
}
330
47
100
AcDbScale
 70
     0
300
1/64" = 1'-0"
140
0.015625
141
12.0
290
     0
  0
SCALE
  5
5B
102
{ACAD_REACTORS
330
47
102
}
330
47
100
AcDbScale
 70
     0
300
1/32" = 1'-0"
140
0.03125
141
12.0
290
     0
  0
SCALE
  5
5C
102
{ACAD_REACTORS
330
47
102
}
330
47
100
AcDbScale
 70
     0
300
1/16" = 1'-0"
140
0.0625
141
12.0
290
     0
  0
SCALE
  5
5D
102
{ACAD_REACTORS
330
47
102
}
330
47
100
AcDbScale
 70
     0
300
3/32" = 1'-0"
140
0.09375
141
12.0
290
     0
  0
SCALE
  5
5E
102
{ACAD_REACTORS
330
47
102
}
330
47
100
AcDbScale
 70
     0
300
1/8" = 1'-0"
140
0.125
141
12.0
290
     0
  0
SCALE
  5
5F
102
{ACAD_REACTORS
330
47
102
}
330
47
100
AcDbScale
 70
     0
300
3/16" = 1'-0"
140
0.1875
141
12.0
290
     0
  0
SCALE
  5
60
102
{ACAD_REACTORS
330
47
102
}
330
47
100
AcDbScale
 70
     0
300
1/4" = 1'-0"
140
0.25
141
12.0
290
     0
  0
SCALE
  5
61
102
{ACAD_REACTORS
330
47
102
}
330
47
100
AcDbScale
 70
     0
300
3/8" = 1'-0"
140
0.375
141
12.0
290
     0
  0
SCALE
  5
62
102
{ACAD_REACTORS
330
47
102
}
330
47
100
AcDbScale
 70
     0
300
1/2" = 1'-0"
140
0.5
141
12.0
290
     0
  0
SCALE
  5
63
102
{ACAD_REACTORS
330
47
102
}
330
47
100
AcDbScale
 70
     0
300
3/4" = 1'-0"
140
0.75
141
12.0
290
     0
  0
SCALE
  5
64
102
{ACAD_REACTORS
330
47
102
}
330
47
100
AcDbScale
 70
     0
300
1" = 1'-0"
140
1.0
141
12.0
290
     0
  0
SCALE
  5
65
102
{ACAD_REACTORS
330
47
102
}
330
47
100
AcDbScale
 70
     0
300
1-1/2" = 1'-0"
140
1.5
141
12.0
290
     0
  0
SCALE
  5
66
102
{ACAD_REACTORS
330
47
102
}
330
47
100
AcDbScale
 70
     0
300
3" = 1'-0"
140
3.0
141
12.0
290
     0
  0
SCALE
  5
67
102
{ACAD_REACTORS
330
47
102
}
330
47
100
AcDbScale
 70
     0
300
6" = 1'-0"
140
6.0
141
12.0
290
     0
  0
SCALE
  5
68
102
{ACAD_REACTORS
330
47
102
}
330
47
100
AcDbScale
 70
     0
300
1'-0" = 1'-0"
140
12.0
141
12.0
290
     0
  0
ENDSEC
  0
EOF
