  0
SECTION
  2
HEADER
  9
$ACADVER
  1
AC1015
  9
$ACADMAINTVER
 70
     6
  9
$DWGCODEPAGE
  3
ANSI_949
  9
$INSBASE
 10
0.0
 20
0.0
 30
0.0
  9
$EXTMIN
 10
1.000000000000000E+20
 20
1.000000000000000E+20
 30
1.000000000000000E+20
  9
$EXTMAX
 10
-1.000000000000000E+20
 20
-1.000000000000000E+20
 30
-1.000000000000000E+20
  9
$LIMMIN
 10
0.0
 20
0.0
  9
$LIMMAX
 10
420.0
 20
297.0
  9
$ORTHOMODE
 70
     0
  9
$REGENMODE
 70
     1
  9
$FILLMODE
 70
     1
  9
$QTEXTMODE
 70
     0
  9
$MIRRTEXT
 70
     1
  9
$LTSCALE
 40
1.0
  9
$ATTMODE
 70
     1
  9
$TEXTSIZE
 40
3.5
  9
$TRACEWID
 40
1.0
  9
$TEXTSTYLE
  7
Standard
  9
$CLAYER
  8
0
  9
$CELTYPE
  6
ByLayer
  9
$CECOLOR
 62
   256
  9
$CELTSCALE
 40
1.0
  9
$DISPSILH
 70
     0
  9
$DIMSCALE
 40
1.0
  9
$DIMASZ
 40
3.302
  9
$DIMEXO
 40
1.0
  9
$DIMDLI
 40
3.75
  9
$DIMRND
 40
0.0
  9
$DIMDLE
 40
0.0
  9
$DIMEXE
 40
1.0
  9
$DIMTP
 40
0.0
  9
$DIMTM
 40
0.0
  9
$DIMTXT
 40
3.5
  9
$DIMCEN
 40
2.5
  9
$DIMTSZ
 40
0.0
  9
$DIMTOL
 70
     0
  9
$DIMLIM
 70
     0
  9
$DIMTIH
 70
     1
  9
$DIMTOH
 70
     1
  9
$DIMSE1
 70
     0
  9
$DIMSE2
 70
     0
  9
$DIMTAD
 70
     1
  9
$DIMZIN
 70
     0
  9
$DIMBLK
  1

  9
$DIMASO
 70
     1
  9
$DIMSHO
 70
     1
  9
$DIMPOST
  1

  9
$DIMAPOST
  1

  9
$DIMALT
 70
     0
  9
$DIMALTD
 70
     3
  9
$DIMALTF
 40
0.0393700787401575
  9
$DIMLFAC
 40
1.0
  9
$DIMTOFL
 70
     1
  9
$DIMTVP
 40
0.0
  9
$DIMTIX
 70
     0
  9
$DIMSOXD
 70
     0
  9
$DIMSAH
 70
     0
  9
$DIMBLK1
  1

  9
$DIMBLK2
  1

  9
$DIMSTYLE
  2
ISO-25
  9
$DIMCLRD
 70
     0
  9
$DIMCLRE
 70
     0
  9
$DIMCLRT
 70
     0
  9
$DIMTFAC
 40
1.0
  9
$DIMGAP
 40
1.524
  9
$DIMJUST
 70
     0
  9
$DIMSD1
 70
     0
  9
$DIMSD2
 70
     0
  9
$DIMTOLJ
 70
     0
  9
$DIMTZIN
 70
     0
  9
$DIMALTZ
 70
     0
  9
$DIMALTTZ
 70
     0
  9
$DIMUPT
 70
     0
  9
$DIMDEC
 70
     2
  9
$DIMTDEC
 70
     2
  9
$DIMALTU
 70
     2
  9
$DIMALTTD
 70
     3
  9
$DIMTXSTY
  7
Standard
  9
$DIMAUNIT
 70
     0
  9
$DIMADEC
 70
     2
  9
$DIMALTRND
 40
0.0
  9
$DIMAZIN
 70
     0
  9
$DIMDSEP
 70
    44
  9
$DIMATFIT
 70
     3
  9
$DIMFRAC
 70
     0
  9
$DIMLDRBLK
  1

  9
$DIMLUNIT
 70
     2
  9
$DIMLWD
 70
    -2
  9
$DIMLWE
 70
    -2
  9
$DIMTMOVE
 70
     0
  9
$LUNITS
 70
     2
  9
$LUPREC
 70
     2
  9
$SKETCHINC
 40
1.0
  9
$FILLETRAD
 40
10.0
  9
$AUNITS
 70
     0
  9
$AUPREC
 70
     2
  9
$MENU
  1
.
  9
$ELEVATION
 40
0.0
  9
$PELEVATION
 40
0.0
  9
$THICKNESS
 40
0.0
  9
$LIMCHECK
 70
     0
  9
$CHAMFERA
 40
0.0
  9
$CHAMFERB
 40
0.0
  9
$CHAMFERC
 40
0.0
  9
$CHAMFERD
 40
0.0
  9
$SKPOLY
 70
     0
  9
$TDCREATE
 40
2458320.373837847
  9
$TDUCREATE
 40
2458319.998837847
  9
$TDUPDATE
 40
2458331.407369329
  9
$TDUUPDATE
 40
2458331.032369329
  9
$TDINDWG
 40
0.0001393403
  9
$TDUSRTIMER
 40
2458331.032230405
  9
$USRTIMER
 70
     1
  9
$ANGBASE
 50
0.0
  9
$ANGDIR
 70
     0
  9
$PDMODE
 70
     0
  9
$PDSIZE
 40
-1.0
  9
$PLINEWID
 40
0.0
  9
$SPLFRAME
 70
     0
  9
$SPLINETYPE
 70
     6
  9
$SPLINESEGS
 70
     8
  9
$HANDSEED
  5
1A5
  9
$SURFTAB1
 70
     6
  9
$SURFTAB2
 70
     6
  9
$SURFTYPE
 70
     6
  9
$SURFU
 70
     6
  9
$SURFV
 70
     6
  9
$UCSBASE
  2

  9
$UCSNAME
  2

  9
$UCSORG
 10
0.0
 20
0.0
 30
0.0
  9
$UCSXDIR
 10
1.0
 20
0.0
 30
0.0
  9
$UCSYDIR
 10
0.0
 20
1.0
 30
0.0
  9
$UCSORTHOREF
  2

  9
$UCSORTHOVIEW
 70
     0
  9
$UCSORGTOP
 10
0.0
 20
0.0
 30
0.0
  9
$UCSORGBOTTOM
 10
0.0
 20
0.0
 30
0.0
  9
$UCSORGLEFT
 10
0.0
 20
0.0
 30
0.0
  9
$UCSORGRIGHT
 10
0.0
 20
0.0
 30
0.0
  9
$UCSORGFRONT
 10
0.0
 20
0.0
 30
0.0
  9
$UCSORGBACK
 10
0.0
 20
0.0
 30
0.0
  9
$PUCSBASE
  2

  9
$PUCSNAME
  2

  9
$PUCSORG
 10
0.0
 20
0.0
 30
0.0
  9
$PUCSXDIR
 10
1.0
 20
0.0
 30
0.0
  9
$PUCSYDIR
 10
0.0
 20
1.0
 30
0.0
  9
$PUCSORTHOREF
  2

  9
$PUCSORTHOVIEW
 70
     0
  9
$PUCSORGTOP
 10
0.0
 20
0.0
 30
0.0
  9
$PUCSORGBOTTOM
 10
0.0
 20
0.0
 30
0.0
  9
$PUCSORGLEFT
 10
0.0
 20
0.0
 30
0.0
  9
$PUCSORGRIGHT
 10
0.0
 20
0.0
 30
0.0
  9
$PUCSORGFRONT
 10
0.0
 20
0.0
 30
0.0
  9
$PUCSORGBACK
 10
0.0
 20
0.0
 30
0.0
  9
$USERI1
 70
     0
  9
$USERI2
 70
     0
  9
$USERI3
 70
     0
  9
$USERI4
 70
     0
  9
$USERI5
 70
     0
  9
$USERR1
 40
0.0
  9
$USERR2
 40
0.0
  9
$USERR3
 40
0.0
  9
$USERR4
 40
0.0
  9
$USERR5
 40
0.0
  9
$WORLDVIEW
 70
     1
  9
$SHADEDGE
 70
     3
  9
$SHADEDIF
 70
    70
  9
$TILEMODE
 70
     1
  9
$MAXACTVP
 70
    64
  9
$PINSBASE
 10
0.0
 20
0.0
 30
0.0
  9
$PLIMCHECK
 70
     0
  9
$PEXTMIN
 10
1.000000000000000E+20
 20
1.000000000000000E+20
 30
1.000000000000000E+20
  9
$PEXTMAX
 10
-1.000000000000000E+20
 20
-1.000000000000000E+20
 30
-1.000000000000000E+20
  9
$PLIMMIN
 10
0.0
 20
0.0
  9
$PLIMMAX
 10
0.0
 20
0.0
  9
$UNITMODE
 70
     0
  9
$VISRETAIN
 70
     1
  9
$PLINEGEN
 70
     0
  9
$PSLTSCALE
 70
     1
  9
$TREEDEPTH
 70
  3020
  9
$CMLSTYLE
  2
Standard
  9
$CMLJUST
 70
     0
  9
$CMLSCALE
 40
20.0
  9
$PROXYGRAPHICS
 70
     1
  9
$MEASUREMENT
 70
     1
  9
$CELWEIGHT
370
    -1
  9
$ENDCAPS
280
     0
  9
$JOINSTYLE
280
     0
  9
$LWDISPLAY
290
     1
  9
$INSUNITS
 70
     4
  9
$HYPERLINKBASE
  1

  9
$STYLESHEET
  1

  9
$XEDIT
290
     1
  9
$CEPSNTYPE
380
     0
  9
$PSTYLEMODE
290
     1
  9
$FINGERPRINTGUID
  2
{9E4A0E40-E309-4A79-A84D-410381048110}
  9
$VERSIONGUID
  2
{FAEB1C32-E019-11D5-929B-00C0DF256EC4}
  9
$EXTNAMES
290
     1
  9
$PSVPSCALE
 40
0.0
  9
$OLESTARTUP
290
     0
  0
ENDSEC
  0
SECTION
  2
CLASSES
  0
CLASS
  1
ACDBDICTIONARYWDFLT
  2
AcDbDictionaryWithDefault
  3
ObjectDBX Classes
 90
        0
280
     0
281
     0
  0
CLASS
  1
VISUALSTYLE
  2
AcDbVisualStyle
  3
ObjectDBX Classes
 90
     4095
280
     0
281
     0
  0
CLASS
  1
MATERIAL
  2
AcDbMaterial
  3
ObjectDBX Classes
 90
     1153
280
     0
281
     0
  0
CLASS
  1
SCALE
  2
AcDbScale
  3
ObjectDBX Classes
 90
     1153
280
     0
281
     0
  0
CLASS
  1
SUN
  2
AcDbSun
  3
SCENEOE
 90
     1153
280
     0
281
     0
  0
CLASS
  1
ACDBPLACEHOLDER
  2
AcDbPlaceHolder
  3
ObjectDBX Classes
 90
        0
280
     0
281
     0
  0
CLASS
  1
LAYOUT
  2
AcDbLayout
  3
ObjectDBX Classes
 90
        0
280
     0
281
     0
  0
CLASS
  1
TABLESTYLE
  2
AcDbTableStyle
  3
ObjectDBX Classes
 90
     4095
280
     0
281
     0
  0
CLASS
  1
MLEADERSTYLE
  2
AcDbMLeaderStyle
  3
ACDB_MLEADERSTYLE_CLASS
 90
     4095
280
     0
281
     0
  0
CLASS
  1
RASTERVARIABLES
  2
AcDbRasterVariables
  3
ISM
 90
        0
280
     0
281
     0
  0
ENDSEC
  0
SECTION
  2
TABLES
  0
TABLE
  2
VPORT
  5
8
330
0
100
AcDbSymbolTable
 70
     1
  0
VPORT
  5
29
330
8
100
AcDbSymbolTableRecord
100
AcDbViewportTableRecord
  2
*Active
 70
     0
 10
0.0
 20
0.0
 11
1.0
 21
1.0
 12
-39.43461855762729
 22
-72.48363658464251
 13
0.0
 23
0.0
 14
10.0
 24
10.0
 15
10.0
 25
10.0
 16
0.0
 26
0.0
 36
1.0
 17
0.0
 27
0.0
 37
0.0
 40
207.4144473312
 41
1.516441005802708
 42
50.0
 43
0.0
 44
0.0
 50
0.0
 51
0.0
 71
    16
 72
  2000
 73
     1
 74
     3
 75
     0
 76
     0
 77
     0
 78
     0
281
     0
 65
     1
110
0.0
120
0.0
130
0.0
111
1.0
121
0.0
131
0.0
112
0.0
122
1.0
132
0.0
 79
     0
146
0.0
  0
ENDTAB
  0
TABLE
  2
LTYPE
  5
5
330
0
100
AcDbSymbolTable
 70
     6
  0
LTYPE
  5
14
330
5
100
AcDbSymbolTableRecord
100
AcDbLinetypeTableRecord
  2
ByBlock
 70
     0
  3

 72
    65
 73
     0
 40
0.0
  0
LTYPE
  5
15
330
5
100
AcDbSymbolTableRecord
100
AcDbLinetypeTableRecord
  2
ByLayer
 70
     0
  3

 72
    65
 73
     0
 40
0.0
  0
LTYPE
  5
16
330
5
100
AcDbSymbolTableRecord
100
AcDbLinetypeTableRecord
  2
Continuous
 70
     0
  3
Solid line
 72
    65
 73
     0
 40
0.0
  0
LTYPE
  5
6A
330
5
100
AcDbSymbolTableRecord
100
AcDbLinetypeTableRecord
  2
HIDDEN
 70
     0
  3
Hidden __ __ __ __ __ __ __ __ __ __ __ __ __ __
 72
    65
 73
     2
 40
1.905
 49
1.27
 74
     0
 49
-0.635
 74
     0
  0
LTYPE
  5
6B
330
5
100
AcDbSymbolTableRecord
100
AcDbLinetypeTableRecord
  2
PHANTOM
 70
     0
  3
Phantom ______  __  __  ______  __  __  ______
 72
    65
 73
     6
 40
12.7
 49
6.35
 74
     0
 49
-1.27
 74
     0
 49
1.27
 74
     0
 49
-1.27
 74
     0
 49
1.27
 74
     0
 49
-1.27
 74
     0
  0
LTYPE
  5
6C
330
5
100
AcDbSymbolTableRecord
100
AcDbLinetypeTableRecord
  2
CENTER
 70
     0
  3
Center ____ _ ____ _ ____ _ ____ _ ____ _ ____
 72
    65
 73
     4
 40
10.16
 49
6.35
 74
     0
 49
-1.27
 74
     0
 49
1.27
 74
     0
 49
-1.27
 74
     0
  0
LTYPE
  5
6D
330
5
100
AcDbSymbolTableRecord
100
AcDbLinetypeTableRecord
  2
CENTERX2
 70
     0
  3
Center (2x) ________  __  ________  __  _____
 72
    65
 73
     4
 40
20.32
 49
12.7
 74
     0
 49
-2.54
 74
     0
 49
2.54
 74
     0
 49
-2.54
 74
     0
  0
LTYPE
  5
6E
330
5
100
AcDbSymbolTableRecord
100
AcDbLinetypeTableRecord
  2
DOT2
 70
     0
  3
Dot (.5x) ........................................
 72
    65
 73
     2
 40
0.635
 49
0.0
 74
     0
 49
-0.635
 74
     0
  0
ENDTAB
  0
TABLE
  2
LAYER
  5
2
102
{ACAD_XDICTIONARY
360
18D
102
}
330
0
100
AcDbSymbolTable
 70
    18
  0
LAYER
  5
10
330
2
100
AcDbSymbolTableRecord
100
AcDbLayerTableRecord
  2
0
 70
     0
 62
     7
  6
Continuous
370
    -3
390
F
  0
LAYER
  5
6F
330
2
100
AcDbSymbolTableRecord
100
AcDbLayerTableRecord
  2
FORMAT
 70
     0
 62
     2
  6
Continuous
370
    -3
390
F
  0
LAYER
  5
70
330
2
100
AcDbSymbolTableRecord
100
AcDbLayerTableRecord
  2
외형선
 70
     0
 62
     4
  6
Continuous
370
    30
390
F
  0
LAYER
  5
71
330
2
100
AcDbSymbolTableRecord
100
AcDbLayerTableRecord
  2
숨은선
 70
     0
 62
     2
  6
HIDDEN
370
    15
390
F
  0
LAYER
  5
72
330
2
100
AcDbSymbolTableRecord
100
AcDbLayerTableRecord
  2
중심선
 70
     0
 62
     1
  6
CENTERX2
370
    -3
390
F
  0
LAYER
  5
73
330
2
100
AcDbSymbolTableRecord
100
AcDbLayerTableRecord
  2
파단선
 70
     0
 62
     4
  6
Continuous
370
    -3
390
F
  0
LAYER
  5
74
330
2
100
AcDbSymbolTableRecord
100
AcDbLayerTableRecord
  2
해칭선
 70
     0
 62
   100
  6
Continuous
370
    -3
390
F
  0
LAYER
  5
75
330
2
100
AcDbSymbolTableRecord
100
AcDbLayerTableRecord
  2
가는실선
 70
     0
 62
     4
  6
Continuous
370
    -3
390
F
  0
LAYER
  5
76
330
2
100
AcDbSymbolTableRecord
100
AcDbLayerTableRecord
  2
치수_보조선
 70
     0
 62
     4
  6
Continuous
370
    -3
390
F
  0
LAYER
  5
77
330
2
100
AcDbSymbolTableRecord
100
AcDbLayerTableRecord
  2
치수문자_일반주서
 70
     0
 62
     7
  6
Continuous
370
    15
390
F
  0
LAYER
  5
78
330
2
100
AcDbSymbolTableRecord
100
AcDbLayerTableRecord
  2
개별주서
 70
     0
 62
   100
  6
Continuous
370
    30
390
F
  0
LAYER
  5
79
330
2
100
AcDbSymbolTableRecord
100
AcDbLayerTableRecord
  2
중간선
 70
     0
 62
     2
  6
Continuous
370
    15
390
F
  0
LAYER
  5
7A
330
2
100
AcDbSymbolTableRecord
100
AcDbLayerTableRecord
  2
윤곽선
 70
     0
 62
     3
  6
Continuous
370
    40
390
F
  0
LAYER
  5
7B
330
2
100
AcDbSymbolTableRecord
100
AcDbLayerTableRecord
  2
중심마크
 70
     0
 62
   100
  6
Continuous
370
    30
390
F
  0
LAYER
  5
7C
330
2
100
AcDbSymbolTableRecord
100
AcDbLayerTableRecord
  2
가상선
 70
     0
 62
     4
  6
PHANTOM
370
    -3
390
F
  0
LAYER
  5
7D
330
2
100
AcDbSymbolTableRecord
100
AcDbLayerTableRecord
  2
특수지정선
 70
     0
 62
     5
  6
CENTERX2
370
    60
390
F
  0
LAYER
  5
7E
330
2
100
AcDbSymbolTableRecord
100
AcDbLayerTableRecord
  2
참조1
 70
     0
 62
    -4
  6
Continuous
370
    -3
390
F
  0
LAYER
  5
143
330
2
100
AcDbSymbolTableRecord
100
AcDbLayerTableRecord
  2
Defpoints
 70
     0
 62
     7
  6
Continuous
290
     0
370
    -3
390
F
  0
ENDTAB
  0
TABLE
  2
STYLE
  5
3
330
0
100
AcDbSymbolTable
 70
     2
  0
STYLE
  5
11
330
3
100
AcDbSymbolTableRecord
100
AcDbTextStyleTableRecord
  2
Standard
 70
     0
 40
0.0
 41
1.0
 50
0.0
 71
     0
 42
3.5
  3
txt
  4

  0
STYLE
  5
94
330
3
100
AcDbSymbolTableRecord
100
AcDbTextStyleTableRecord
  2
SLDTEXTSTYLE0
 70
     0
 40
0.0
 41
0.75
 50
0.0
 71
     0
 42
3.5
  3
TXT
  4

  0
ENDTAB
  0
TABLE
  2
VIEW
  5
6
330
0
100
AcDbSymbolTable
 70
     0
  0
ENDTAB
  0
TABLE
  2
UCS
  5
7
330
0
100
AcDbSymbolTable
 70
     0
  0
ENDTAB
  0
TABLE
  2
APPID
  5
9
330
0
100
AcDbSymbolTable
 70
     1
  0
APPID
  5
12
330
9
100
AcDbSymbolTableRecord
100
AcDbRegAppTableRecord
  2
ACAD
 70
     0
  0
ENDTAB
  0
TABLE
  2
DIMSTYLE
  5
A
330
0
100
AcDbSymbolTable
 70
     4
100
AcDbDimStyleTable
  0
DIMSTYLE
105
27
330
A
100
AcDbSymbolTableRecord
100
AcDbDimStyleTableRecord
  2
ISO-25
 70
     0
 41
2.5
 42
0.625
 43
3.75
 44
1.25
 73
     0
 74
     0
 77
     1
 78
     8
140
2.5
141
2.5
143
0.03937007874016
147
0.625
171
     3
172
     1
178
     0
271
     2
272
     2
274
     3
278
    44
283
     0
284
     8
340
11
  0
DIMSTYLE
105
C1
102
{ACAD_REACTORS
330
C0
330
E9
102
}
330
A
100
AcDbSymbolTableRecord
100
AcDbDimStyleTableRecord
  2
SLDDIMSTYLE0
 70
     0
 41
3.302
 44
0.0
 45
0.000000001
 73
     0
 74
     0
 77
     1
 78
     4
 79
     1
140
3.5
143
0.0393700787401575
147
0.875
148
0.000000001
170
     1
173
     1
178
     0
271
     2
272
     2
276
     2
284
    12
340
94
  0
DIMSTYLE
105
D6
102
{ACAD_REACTORS
330
D5
102
}
330
A
100
AcDbSymbolTableRecord
100
AcDbDimStyleTableRecord
  2
SLDDIMSTYLE1
 70
     0
 41
3.302
 44
0.0
 45
0.000000001
 73
     0
 74
     0
 77
     1
 78
    12
 79
     3
140
3.5
143
0.0393700787401575
147
0.875
148
0.000000001
170
     1
173
     1
178
     0
271
     2
272
     2
276
     2
284
    12
340
94
  0
DIMSTYLE
105
FD
102
{ACAD_REACTORS
330
FC
102
}
330
A
100
AcDbSymbolTableRecord
100
AcDbDimStyleTableRecord
  2
SLDDIMSTYLE2
 70
     0
 41
3.302
 44
0.0
 45
0.000000001
 73
     0
 74
     0
 77
     1
 78
     4
 79
     1
140
3.5
143
0.0393700787401575
147
0.875
148
0.000000001
170
     1
172
     1
173
     1
178
     0
271
     2
272
     2
276
     2
284
    12
289
     0
340
94
  0
ENDTAB
  0
TABLE
  2
BLOCK_RECORD
  5
1
330
0
100
AcDbSymbolTable
 70
     8
  0
BLOCK_RECORD
  5
1F
330
1
100
AcDbSymbolTableRecord
100
AcDbBlockTableRecord
  2
*Model_Space
340
22
  0
BLOCK_RECORD
  5
1B
330
1
100
AcDbSymbolTableRecord
100
AcDbBlockTableRecord
  2
*Paper_Space
340
1E
  0
BLOCK_RECORD
  5
23
330
1
100
AcDbSymbolTableRecord
100
AcDbBlockTableRecord
  2
*Paper_Space0
340
26
  0
BLOCK_RECORD
  5
7F
330
1
100
AcDbSymbolTableRecord
100
AcDbBlockTableRecord
  2
블럭10
340
0
102
{BLKREFS
331
B9
102
}
  0
BLOCK_RECORD
  5
C2
330
1
100
AcDbSymbolTableRecord
100
AcDbBlockTableRecord
  2
_D
340
0
  0
BLOCK_RECORD
  5
D7
330
1
100
AcDbSymbolTableRecord
100
AcDbBlockTableRecord
  2
_D_1
340
0
  0
BLOCK_RECORD
  5
EA
330
1
100
AcDbSymbolTableRecord
100
AcDbBlockTableRecord
  2
_D_2
340
0
  0
BLOCK_RECORD
  5
FE
330
1
100
AcDbSymbolTableRecord
100
AcDbBlockTableRecord
  2
_D_3
340
0
  0
BLOCK_RECORD
  5
118
330
1
100
AcDbSymbolTableRecord
100
AcDbBlockTableRecord
  2
SW_DOWELSYMBOL_0
340
0
102
{BLKREFS
331
11E
102
}
  0
ENDTAB
  0
ENDSEC
  0
SECTION
  2
BLOCKS
  0
BLOCK
  5
20
330
1F
100
AcDbEntity
  8
0
100
AcDbBlockBegin
  2
*Model_Space
 70
     0
 10
0.0
 20
0.0
 30
0.0
  3
*Model_Space
  1
*Model_Space
  0
ENDBLK
  5
21
330
1F
100
AcDbEntity
  8
0
100
AcDbBlockEnd
  0
BLOCK
  5
1C
330
1B
100
AcDbEntity
 67
     1
  8
0
100
AcDbBlockBegin
  2
*Paper_Space
 70
     0
 10
0.0
 20
0.0
 30
0.0
  3
*Paper_Space
  1
*Paper_Space
  0
ENDBLK
  5
1D
330
1B
100
AcDbEntity
 67
     1
  8
0
100
AcDbBlockEnd
  0
BLOCK
  5
24
330
23
100
AcDbEntity
  8
0
100
AcDbBlockBegin
  2
*Paper_Space0
 70
     0
 10
0.0
 20
0.0
 30
0.0
  3
*Paper_Space0
  1
*Paper_Space0
  0
ENDBLK
  5
25
330
23
100
AcDbEntity
  8
0
100
AcDbBlockEnd
  0
BLOCK
  5
80
330
7F
100
AcDbEntity
  8
0
100
AcDbBlockBegin
  2
블럭10
 70
     2
 10
0.0
 20
0.0
 30
0.0
  3
블럭10
  1
블럭10
  0
ELLIPSE
  5
82
330
7F
100
AcDbEntity
  8
중심선
100
AcDbEllipse
 10
20.54032771741204
 20
12.0471743016438
 30
0.0
 11
6.600054785286829
 21
-1.261213355974178E-13
 31
0.0
210
0.0
220
0.0
230
1.0
 40
0.636358354079598
 41
0.9219305317359503
 42
6.513795318482858
  0
ELLIPSE
  5
83
330
7F
100
AcDbEntity
  8
중심선
100
AcDbEllipse
 10
20.54032771746488
 20
12.04717430159265
 30
0.0
 11
3.960054785062283
 21
1.540847449632565E-10
 31
0.0
210
0.0
220
0.0
230
1.0
 40
0.3939339440162632
 41
1.131841032648279
 42
5.62031148352944
  0
LINE
  5
84
330
7F
100
AcDbEntity
  8
중심선
100
AcDbLine
 10
2.268634060543552
 20
16.24717430164393
 30
0.0
 11
5.714909304380834
 21
16.24717430164393
 31
0.0
  0
LINE
  5
85
330
7F
100
AcDbEntity
  8
중심선
100
AcDbLine
 10
5.245725140726316
 20
7.84717430164391
 30
0.0
 11
8.692000384563599
 21
7.84717430164391
 31
0.0
  0
LINE
  5
86
330
7F
100
AcDbEntity
  8
중심선
100
AcDbLine
 10
15.74043728645272
 20
16.24717430164393
 30
0.0
 11
8.692000384563599
 21
7.84717430164391
 31
0.0
  0
LINE
  5
87
330
7F
100
AcDbEntity
  8
중심선
100
AcDbLine
 10
0.1404042013395286
 20
13.71084872107135
 30
0.0
 11
3.58671253028996
 21
13.71088815037384
 31
0.0
  0
LINE
  5
88
330
7F
100
AcDbEntity
  8
중심선
100
AcDbLine
 10
2.750260043222114
 20
10.84717430164391
 30
0.0
 11
6.196535287059397
 21
10.84717430164391
 31
0.0
  0
LINE
  5
89
330
7F
100
AcDbEntity
  8
중심선
100
AcDbLine
 10
12.29416204261559
 20
16.24717430164393
 30
0.0
 11
5.245725140726316
 21
7.84717430164391
 31
0.0
  0
LINE
  5
8A
330
7F
100
AcDbEntity
  8
중심선
100
AcDbLine
 10
10.72767329541681
 20
16.24717430164393
 30
0.0
 11
6.196535287059397
 21
10.84717430164391
 31
0.0
  0
LINE
  5
8B
330
7F
100
AcDbEntity
  8
중심선
100
AcDbLine
 10
7.28139805157953
 20
16.24717430164393
 30
0.0
 11
2.750260043222114
 21
10.84717430164391
 31
0.0
  0
LINE
  5
8C
330
7F
100
AcDbEntity
  8
중심선
100
AcDbLine
 10
5.714909304380834
 20
16.24717430164393
 30
0.0
 11
3.58671253028996
 21
13.71088815037384
 31
0.0
  0
LINE
  5
8D
330
7F
100
AcDbEntity
  8
중심선
100
AcDbLine
 10
2.268634060543552
 20
16.24717430164393
 30
0.0
 11
0.1404042013395286
 21
13.71084872107135
 31
0.0
  0
LINE
  5
8E
330
7F
100
AcDbEntity
  8
중심선
100
AcDbLine
 10
7.28139805157953
 20
16.24717430164393
 30
0.0
 11
10.72767329541681
 21
16.24717430164393
 31
0.0
  0
LINE
  5
8F
330
7F
100
AcDbEntity
  8
중심선
100
AcDbLine
 10
12.29416204261559
 20
16.24717430164393
 30
0.0
 11
15.74043728645272
 21
16.24717430164393
 31
0.0
  0
LINE
  5
90
330
7F
100
AcDbEntity
  8
중심선
100
AcDbLine
 10
19.22036997980202
 20
11.08717430171403
 30
0.0
 11
23.66174974927406
 21
11.08717430171406
 31
0.0
  0
LINE
  5
91
330
7F
100
AcDbEntity
  8
중심선
100
AcDbLine
 10
19.22039502424796
 20
13.00717430171391
 30
0.0
 11
19.22036997980202
 21
11.08717430171403
 31
0.0
  0
LINE
  5
92
330
7F
100
AcDbEntity
  8
중심선
100
AcDbLine
 10
19.22039502424796
 20
13.00717430171391
 30
0.0
 11
26.96566020931264
 21
13.00717430171391
 31
0.0
  0
LINE
  5
93
330
7F
100
AcDbEntity
  8
중심선
100
AcDbLine
 10
22.22332737316547
 20
13.45928029700563
 30
0.0
 11
24.52862924686651
 21
15.39360700705356
 31
0.0
  0
ATTDEF
  5
95
330
7F
100
AcDbEntity
  8
FORMAT
 62
     2
100
AcDbText
 10
4.408487351596664
 20
2.075366912832191
 30
0.0
 40
4.233333333333333
  1
E2069032
 41
0.75
  7
SLDTEXTSTYLE0
 11
4.408487351596664
 21
-0.0412997538344756
 31
0.0
100
AcDbAttributeDefinition
  3

  2
AUTOATTR0
 70
     0
 74
     1
  0
ENDBLK
  5
81
330
7F
100
AcDbEntity
  8
0
100
AcDbBlockEnd
  0
BLOCK
  5
C3
330
C2
100
AcDbEntity
  8
0
100
AcDbBlockBegin
  2
_D
 70
     0
 10
0.0
 20
0.0
 30
0.0
  3
_D
  1
_D
  0
LINE
  5
C5
330
C2
100
AcDbEntity
  8
치수문자_일반주서
 62
     0
370
    -2
100
AcDbLine
 10
52.38750000000005
 20
1.377514629548136
 30
0.0
 11
52.38750000000005
 21
22.82277225922702
 31
0.0
  0
LINE
  5
C6
330
C2
100
AcDbEntity
  8
치수문자_일반주서
 62
     0
370
    -2
100
AcDbLine
 10
26.98749999999999
 20
6.412499999999992
 30
0.0
 11
26.98749999999999
 21
22.82277225922702
 31
0.0
  0
LINE
  5
C7
330
C2
100
AcDbEntity
  8
치수문자_일반주서
 62
     0
370
    -2
100
AcDbLine
 10
49.08550000000005
 20
22.82277225922702
 30
0.0
 11
30.28949999999999
 21
22.82277225922702
 31
0.0
  0
SOLID
  5
C8
330
C2
100
AcDbEntity
  8
치수문자_일반주서
 62
     0
100
AcDbTrace
 10
49.08550000000005
 20
22.27243892589368
 30
0.0
 11
49.08550000000005
 21
23.37310559256035
 31
0.0
 12
52.38750000000005
 22
22.82277225922702
 32
0.0
 13
52.38750000000005
 23
22.82277225922702
 33
0.0
  0
SOLID
  5
C9
330
C2
100
AcDbEntity
  8
치수문자_일반주서
 62
     0
100
AcDbTrace
 10
30.28949999999999
 20
23.37310559256035
 30
0.0
 11
30.28949999999999
 21
22.27243892589368
 31
0.0
 12
26.98749999999999
 22
22.82277225922702
 32
0.0
 13
26.98749999999999
 23
22.82277225922702
 33
0.0
  0
MTEXT
  5
CA
330
C2
100
AcDbEntity
  8
치수문자_일반주서
 62
     0
100
AcDbMText
 10
39.68750000000002
 20
27.19777225922702
 30
0.0
 40
3.5
 41
0.0
 71
     2
 72
     1
  1
\A1;25.40 [1]
  7
SLDTEXTSTYLE0
 73
     1
 44
1.0
  0
POINT
  5
CB
330
C2
100
AcDbEntity
  8
Defpoints
 62
     0
100
AcDbPoint
 10
52.38750000000005
 20
1.315014629548136
 30
0.0
  0
POINT
  5
CC
330
C2
100
AcDbEntity
  8
Defpoints
 62
     0
100
AcDbPoint
 10
26.98749999999999
 20
6.349999999999992
 30
0.0
  0
POINT
  5
CD
330
C2
100
AcDbEntity
  8
Defpoints
 62
     0
100
AcDbPoint
 10
26.98749999999999
 20
22.82277225922702
 30
0.0
  0
ENDBLK
  5
C4
330
C2
100
AcDbEntity
  8
0
100
AcDbBlockEnd
  0
BLOCK
  5
D8
330
D7
100
AcDbEntity
  8
0
100
AcDbBlockBegin
  2
_D_1
 70
     0
 10
0.0
 20
0.0
 30
0.0
  3
_D_1
  1
_D_1
  0
LINE
  5
DA
330
D7
100
AcDbEntity
  8
치수문자_일반주서
 62
     0
370
    -2
100
AcDbLine
 10
52.38750000000005
 20
1.377514629548136
 30
0.0
 11
52.38750000000005
 21
35.75282056895201
 31
0.0
  0
LINE
  5
DB
330
D7
100
AcDbEntity
  8
치수문자_일반주서
 62
     0
370
    -2
100
AcDbLine
 10
-52.38750000000002
 20
5.142499999999998
 30
0.0
 11
-52.38750000000002
 21
35.75282056895201
 31
0.0
  0
LINE
  5
DC
330
D7
100
AcDbEntity
  8
치수문자_일반주서
 62
     0
370
    -2
100
AcDbLine
 10
49.08550000000005
 20
35.75282056895201
 30
0.0
 11
-49.08550000000002
 21
35.75282056895201
 31
0.0
  0
SOLID
  5
DD
330
D7
100
AcDbEntity
  8
치수문자_일반주서
 62
     0
100
AcDbTrace
 10
49.08550000000005
 20
35.20248723561868
 30
0.0
 11
49.08550000000005
 21
36.30315390228535
 31
0.0
 12
52.38750000000005
 22
35.75282056895201
 32
0.0
 13
52.38750000000005
 23
35.75282056895201
 33
0.0
  0
SOLID
  5
DE
330
D7
100
AcDbEntity
  8
치수문자_일반주서
 62
     0
100
AcDbTrace
 10
-49.08550000000002
 20
36.30315390228535
 30
0.0
 11
-49.08550000000002
 21
35.20248723561868
 31
0.0
 12
-52.38750000000002
 22
35.75282056895201
 32
0.0
 13
-52.38750000000002
 23
35.75282056895201
 33
0.0
  0
MTEXT
  5
DF
330
D7
100
AcDbEntity
  8
치수문자_일반주서
 62
     0
100
AcDbMText
 10
0.0000000000000151
 20
40.12782056895201
 30
0.0
 40
3.5
 41
0.0
 71
     2
 72
     1
  1
\A1;104.78 [4 1/8]
  7
SLDTEXTSTYLE0
 73
     1
 44
1.0
  0
POINT
  5
E0
330
D7
100
AcDbEntity
  8
Defpoints
 62
     0
100
AcDbPoint
 10
52.38750000000005
 20
1.315014629548136
 30
0.0
  0
POINT
  5
E1
330
D7
100
AcDbEntity
  8
Defpoints
 62
     0
100
AcDbPoint
 10
-52.38750000000002
 20
5.079999999999998
 30
0.0
  0
POINT
  5
E2
330
D7
100
AcDbEntity
  8
Defpoints
 62
     0
100
AcDbPoint
 10
-52.38750000000002
 20
35.75282056895201
 30
0.0
  0
ENDBLK
  5
D9
330
D7
100
AcDbEntity
  8
0
100
AcDbBlockEnd
  0
BLOCK
  5
EB
330
EA
100
AcDbEntity
  8
0
100
AcDbBlockBegin
  2
_D_2
 70
     0
 10
0.0
 20
0.0
 30
0.0
  3
_D_2
  1
_D_2
  0
LINE
  5
ED
330
EA
100
AcDbEntity
  8
치수문자_일반주서
 62
     0
370
    -2
100
AcDbLine
 10
31.86472014598663
 20
6.350000000000006
 30
0.0
 11
67.78210509331862
 21
6.35000000000014
 31
0.0
  0
LINE
  5
EE
330
EA
100
AcDbEntity
  8
치수문자_일반주서
 62
     0
370
    -2
100
AcDbLine
 10
31.86472014598671
 20
-6.350000000000011
 30
0.0
 11
67.78210509331866
 21
-6.349999999999877
 31
0.0
  0
LINE
  5
EF
330
EA
100
AcDbEntity
  8
치수문자_일반주서
 62
     0
370
    -2
100
AcDbLine
 10
67.78210509331862
 20
6.35000000000014
 30
0.0
 11
67.78210509331852
 21
36.33950000000014
 31
0.0
  0
LINE
  5
F0
330
EA
100
AcDbEntity
  8
치수문자_일반주서
 62
     0
370
    -2
100
AcDbLine
 10
67.78210509331863
 20
3.04800000000014
 30
0.0
 11
67.78210509331865
 21
-3.047999999999877
 31
0.0
  0
SOLID
  5
F1
330
EA
100
AcDbEntity
  8
치수문자_일반주서
 62
     0
100
AcDbTrace
 10
68.33243842665196
 20
3.048000000000142
 30
0.0
 11
67.2317717599853
 21
3.048000000000139
 31
0.0
 12
67.78210509331862
 22
6.35000000000014
 32
0.0
 13
67.78210509331862
 23
6.35000000000014
 33
0.0
  0
SOLID
  5
F2
330
EA
100
AcDbEntity
  8
치수문자_일반주서
 62
     0
100
AcDbTrace
 10
67.23177175998532
 20
-3.047999999999879
 30
0.0
 11
68.33243842665198
 21
-3.047999999999876
 31
0.0
 12
67.78210509331866
 22
-6.349999999999877
 32
0.0
 13
67.78210509331866
 23
-6.349999999999877
 33
0.0
  0
MTEXT
  5
F3
330
EA
100
AcDbEntity
  8
치수문자_일반주서
 62
     0
100
AcDbMText
 10
63.40710509331856
 20
22.99575000000013
 30
0.0
 40
3.5
 41
0.0
 71
     2
 72
     1
  1
\A1;%%c12.70 [1/2]
  7
SLDTEXTSTYLE0
 11
-3.356894814614642E-15
 21
1.0
 31
0.0
 73
     1
 44
1.0
  0
POINT
  5
F4
330
EA
100
AcDbEntity
  8
Defpoints
 62
     0
100
AcDbPoint
 10
31.80222014598663
 20
6.350000000000006
 30
0.0
  0
POINT
  5
F5
330
EA
100
AcDbEntity
  8
Defpoints
 62
     0
100
AcDbPoint
 10
31.80222014598671
 20
-6.350000000000011
 30
0.0
  0
POINT
  5
F6
330
EA
100
AcDbEntity
  8
Defpoints
 62
     0
100
AcDbPoint
 10
67.78210509331868
 20
-6.349999999999877
 30
0.0
  0
ENDBLK
  5
EC
330
EA
100
AcDbEntity
  8
0
100
AcDbBlockEnd
  0
BLOCK
  5
FF
330
FE
100
AcDbEntity
  8
0
100
AcDbBlockBegin
  2
_D_3
 70
     0
 10
0.0
 20
0.0
 30
0.0
  3
_D_3
  1
_D_3
  0
LINE
  5
101
330
FE
100
AcDbEntity
  8
치수문자_일반주서
 62
     0
370
    -2
100
AcDbLine
 10
-27.04999999999997
 20
6.350000000000007
 30
0.0
 11
-65.07000000000006
 21
6.349999999999865
 31
0.0
  0
LINE
  5
102
330
FE
100
AcDbEntity
  8
치수문자_일반주서
 62
     0
370
    -2
100
AcDbLine
 10
-27.04999999999997
 20
-6.350000000000003
 30
0.0
 11
-65.07000000000002
 21
-6.350000000000145
 31
0.0
  0
LINE
  5
103
330
FE
100
AcDbEntity
  8
치수문자_일반주서
 62
     0
370
    -2
100
AcDbLine
 10
-65.07000000000005
 20
3.047999999999865
 30
0.0
 11
-65.07000000000004
 21
-3.048000000000146
 31
0.0
  0
SOLID
  5
104
330
FE
100
AcDbEntity
  8
치수문자_일반주서
 62
     0
100
AcDbTrace
 10
-64.51966666666672
 20
3.047999999999867
 30
0.0
 11
-65.62033333333338
 21
3.047999999999863
 31
0.0
 12
-65.07000000000006
 22
6.349999999999865
 32
0.0
 13
-65.07000000000006
 23
6.349999999999865
 33
0.0
  0
SOLID
  5
105
330
FE
100
AcDbEntity
  8
치수문자_일반주서
 62
     0
100
AcDbTrace
 10
-65.62033333333336
 20
-3.048000000000147
 30
0.0
 11
-64.51966666666671
 21
-3.048000000000144
 31
0.0
 12
-65.07000000000002
 22
-6.350000000000145
 32
0.0
 13
-65.07000000000002
 23
-6.350000000000145
 33
0.0
  0
MTEXT
  5
106
330
FE
100
AcDbEntity
  8
치수문자_일반주서
 62
     0
100
AcDbMText
 10
-69.44500000000005
 20
-0.0000000000000233
 30
0.0
 40
3.5
 41
0.0
 71
     2
 72
     1
  1
\A1;%%c12.70 [1/2]
  7
SLDTEXTSTYLE0
 11
-3.356894814614644E-15
 21
1.0
 31
0.0
 73
     1
 44
1.0
  0
POINT
  5
107
330
FE
100
AcDbEntity
  8
Defpoints
 62
     0
100
AcDbPoint
 10
-26.98749999999997
 20
6.350000000000007
 30
0.0
  0
POINT
  5
108
330
FE
100
AcDbEntity
  8
Defpoints
 62
     0
100
AcDbPoint
 10
-26.98749999999997
 20
-6.350000000000003
 30
0.0
  0
POINT
  5
109
330
FE
100
AcDbEntity
  8
Defpoints
 62
     0
100
AcDbPoint
 10
-65.07000000000002
 20
-6.350000000000145
 30
0.0
  0
ENDBLK
  5
100
330
FE
100
AcDbEntity
  8
0
100
AcDbBlockEnd
  0
BLOCK
  5
119
330
118
100
AcDbEntity
  8
0
100
AcDbBlockBegin
  2
SW_DOWELSYMBOL_0
 70
     0
 10
0.0
 20
0.0
 30
0.0
  3
SW_DOWELSYMBOL_0
  1
SW_DOWELSYMBOL_0
  0
CIRCLE
  5
11B
330
118
100
AcDbEntity
  8
해칭선
 62
     0
100
AcDbCircle
 10
0.0
 20
0.0
 30
0.0
 40
3.000000000000001
  0
HATCH
  5
11C
330
118
100
AcDbEntity
  8
0
  6
Continuous
 62
     0
370
     0
100
AcDbHatch
 10
0.0
 20
0.0
 30
0.0
210
0.0
220
0.0
230
1.0
  2
SOLID
 70
     1
 71
     0
 91
        1
 92
        0
 93
        3
 72
     2
 10
0.0
 20
0.0
 40
3.000000000000001
 50
0.0
 51
90.0
 73
     1
 72
     1
 10
0.0
 20
3.000000000000001
 11
0.0
 21
0.0
 72
     1
 10
0.0
 20
0.0
 11
3.000000000000003
 21
0.0
 97
        0
 75
     0
 76
     1
 98
        1
 10
0.0
 20
0.0
  0
HATCH
  5
11D
330
118
100
AcDbEntity
  8
0
  6
Continuous
 62
     0
370
     0
100
AcDbHatch
 10
0.0
 20
0.0
 30
0.0
210
0.0
220
0.0
230
1.0
  2
SOLID
 70
     1
 71
     0
 91
        1
 92
        0
 93
        3
 72
     2
 10
0.0
 20
0.0
 40
3.000000000000001
 50
180.0
 51
270.0000000000008
 73
     1
 72
     1
 10
0.0
 20
-3.000000000000001
 11
0.0
 21
0.0
 72
     1
 10
0.0
 20
0.0
 11
-3.000000000000003
 21
0.0
 97
        0
 75
     0
 76
     1
 98
        1
 10
0.0
 20
0.0
  0
ENDBLK
  5
11A
330
118
100
AcDbEntity
  8
0
100
AcDbBlockEnd
  0
ENDSEC
  0
SECTION
  2
ENTITIES
  0
ARC
  5
96
330
1F
100
AcDbEntity
  8
외형선
  6
Continuous
 62
     1
370
    15
100
AcDbCircle
 10
46.03749999999996
 20
0.0000000000000016
 30
0.0
 40
6.350000000000009
100
AcDbArc
 50
332.8746203220391
 51
0.0
  0
ARC
  5
97
330
1F
100
AcDbEntity
  8
외형선
  6
Continuous
 62
     1
370
    15
100
AcDbCircle
 10
46.03749999999996
 20
0.0000000000000016
 30
0.0
 40
6.350000000000017
100
AcDbArc
 50
270.0000000000008
 51
295.9609147327445
  0
ARC
  5
98
330
1F
100
AcDbEntity
  8
외형선
  6
Continuous
 62
     1
370
    15
100
AcDbCircle
 10
46.03749999999996
 20
0.0000000000000016
 30
0.0
 40
6.350000000000011
100
AcDbArc
 50
64.01768637257535
 51
90.0
  0
ARC
  5
99
330
1F
100
AcDbEntity
  8
외형선
  6
Continuous
 62
     1
370
    15
100
AcDbCircle
 10
46.03749999999996
 20
0.0000000000000016
 30
0.0
 40
6.350000000000009
100
AcDbArc
 50
0.0
 51
27.09600864062625
  0
LINE
  5
9A
330
1F
100
AcDbEntity
  8
외형선
  6
Continuous
 62
     1
370
    15
100
AcDbLine
 10
45.20710248066269
 20
-6.350000000000011
 30
0.0
 11
46.03749999999996
 21
-6.350000000000011
 31
0.0
  0
LINE
  5
9B
330
1F
100
AcDbEntity
  8
외형선
  6
Continuous
 62
     1
370
    15
100
AcDbLine
 10
31.80303757612596
 20
6.350000000000006
 30
0.0
 11
27.93105048503882
 21
6.350000000000006
 31
0.0
  0
LINE
  5
9C
330
1F
100
AcDbEntity
  8
외형선
  6
Continuous
 62
     1
370
    15
100
AcDbLine
 10
27.93105048503883
 20
-6.350000000000011
 30
0.0
 11
31.80303757612603
 21
-6.350000000000011
 31
0.0
  0
LINE
  5
9D
330
1F
100
AcDbEntity
  8
외형선
  6
Continuous
 62
     1
370
    15
100
AcDbLine
 10
46.03749999999996
 20
6.350000000000006
 30
0.0
 11
45.20710248066262
 21
6.350000000000006
 31
0.0
  0
LINE
  5
9E
330
1F
100
AcDbEntity
  8
외형선
  6
Continuous
370
    15
100
AcDbLine
 10
-26.98749999999997
 20
-6.350000000000003
 30
0.0
 11
26.98749999999998
 21
-6.350000000000003
 31
0.0
  0
LINE
  5
9F
330
1F
100
AcDbEntity
  8
외형선
  6
Continuous
370
    15
100
AcDbLine
 10
26.98749999999997
 20
6.349999999999998
 30
0.0
 11
5.727700000000059
 21
6.349999999999998
 31
0.0
  0
SPLINE
  5
A2
330
1F
100
AcDbEntity
  8
외형선
  6
Continuous
 62
     1
370
    15
100
AcDbSpline
210
0.0
220
0.0
230
1.0
 70
     8
 71
     3
 72
    16
 73
    12
 74
     0
 42
0.000000001
 43
0.00000001
 40
0.0
 40
0.0
 40
0.0
 40
0.0
 40
0.1171435539664996
 40
0.2342710819819436
 40
0.3513853286333226
 40
0.4684890535414726
 40
0.5855850282592205
 40
0.7005817330908235
 40
0.8155761020423385
 40
0.9305732534337614
 40
1.0
 40
1.0
 40
1.0
 40
1.0
 10
26.98749999999999
 20
0.5440765677740589
 30
0.0
 10
27.69899208890103
 20
0.1329377149984265
 30
0.0
 10
29.12187893025557
 20
-0.6892837442558079
 30
0.0
 10
31.25600289327577
 20
-1.902291692630324
 30
0.0
 10
33.38984309583597
 20
-3.042340486162725
 30
0.0
 10
35.52344602045854
 20
-4.06879884240809
 30
0.0
 10
37.64418322259883
 20
-4.93652845352723
 30
0.0
 10
39.75201015705088
 20
-5.620250704622145
 30
0.0
 10
41.84710326747462
 20
-6.086436764926159
 30
0.0
 10
43.6654515126833
 20
-6.332313050814492
 30
0.0
 10
44.78546947181911
 20
-6.32514677386379
 30
0.0
 10
45.20710248066269
 20
-6.322449014521374
 30
0.0
  0
SPLINE
  5
A3
330
1F
100
AcDbEntity
  8
외형선
  6
Continuous
 62
     1
370
    15
100
AcDbSpline
210
0.0
220
0.0
230
1.0
 70
     8
 71
     3
 72
    13
 73
     9
 74
     0
 42
0.000000001
 43
0.00000001
 40
0.0
 40
0.0
 40
0.0
 40
0.0
 40
0.0867656899170249
 40
0.2720222692000014
 40
0.4539778803892515
 40
0.6359540243474717
 40
0.8179587355377751
 40
1.0
 40
1.0
 40
1.0
 40
1.0
 10
38.50328480167922
 20
-5.183341171014486
 30
0.0
 10
38.17023642629482
 20
-5.298561375660785
 30
0.0
 10
37.12608435521606
 20
-5.659792428575223
 30
0.0
 10
35.38347684390524
 20
-6.046939011074146
 30
0.0
 10
33.27545593774542
 20
-6.333845532129147
 30
0.0
 10
31.17984582868321
 20
-6.37529587707288
 30
0.0
 10
29.08385436274432
 20
-6.203705737692607
 30
0.0
 10
27.68633156192163
 20
-5.901963056912901
 30
0.0
 10
26.9875
 20
-5.751076567773993
 30
0.0
  0
SPLINE
  5
A4
330
1F
100
AcDbEntity
  8
외형선
  6
Continuous
 62
     1
370
    15
100
AcDbSpline
210
0.0
220
0.0
230
1.0
 70
     8
 71
     3
 72
    11
 73
     7
 74
     0
 42
0.000000001
 43
0.00000001
 40
0.0
 40
0.0
 40
0.0
 40
0.0
 40
0.1657432696863716
 40
0.4438179962525731
 40
0.7218994512022909
 40
1.0
 40
1.0
 40
1.0
 40
1.0
 10
38.50328480167914
 20
5.183341171014479
 30
0.0
 10
38.91953236591645
 20
5.323554375210373
 30
0.0
 10
40.03413665877486
 20
5.699009399430225
 30
0.0
 10
41.84710140234478
 20
6.084698016870634
 30
0.0
 10
43.94224791696064
 20
6.357954634873837
 30
0.0
 10
45.33906665462413
 20
6.340579998125441
 30
0.0
 10
46.03749999999996
 20
6.331892381513732
 30
0.0
  0
SPLINE
  5
A5
330
1F
100
AcDbEntity
  8
외형선
  6
Continuous
 62
     1
370
    15
100
AcDbSpline
210
0.0
220
0.0
230
1.0
 70
     8
 71
     3
 72
    48
 73
    44
 74
     0
 42
0.000000001
 43
0.00000001
 40
0.0
 40
0.0
 40
0.0
 40
0.0
 40
0.0625000000000036
 40
0.0625000000000036
 40
0.0937500000000044
 40
0.0937500000000044
 40
0.1250000000000052
 40
0.1250000000000052
 40
0.1875000000000047
 40
0.1875000000000047
 40
0.2500000000000042
 40
0.2500000000000042
 40
0.3125000000000038
 40
0.3125000000000038
 40
0.3750000000000033
 40
0.3750000000000033
 40
0.4375000000000029
 40
0.4375000000000029
 40
0.4687500000000026
 40
0.4687500000000026
 40
0.5000000000000023
 40
0.5000000000000023
 40
0.5312500000000021
 40
0.5312500000000021
 40
0.5625000000000019
 40
0.5625000000000019
 40
0.5937500000000018
 40
0.5937500000000018
 40
0.6250000000000016
 40
0.6250000000000016
 40
0.6875000000000024
 40
0.6875000000000024
 40
0.7500000000000034
 40
0.7500000000000034
 40
0.781250000000003
 40
0.781250000000003
 40
0.8125000000000026
 40
0.8125000000000026
 40
0.8750000000000017
 40
0.8750000000000017
 40
0.9375000000000008
 40
0.9375000000000008
 40
1.0
 40
1.0
 40
1.0
 40
1.0
 10
46.03749999999996
 20
6.331892381513735
 30
0.0
 10
46.36014342681279
 20
6.317844202597133
 30
0.0
 10
46.68149874805182
 20
6.272063742504506
 30
0.0
 10
47.16489089357569
 20
6.158279099446113
 30
0.0
 10
47.32622770988409
 20
6.112781807797779
 30
0.0
 10
47.64963392199889
 20
6.006443195403453
 30
0.0
 10
47.8125748563097
 20
5.945190289316565
 30
0.0
 10
48.29563825647107
 20
5.740938781819943
 30
0.0
 10
48.60936955638415
 20
5.578311293904817
 30
0.0
 10
49.21937972126098
 20
5.201176363809572
 30
0.0
 10
49.51840645694833
 20
4.984116667198389
 30
0.0
 10
50.0773184668009
 20
4.507253497020433
 30
0.0
 10
50.33751316313928
 20
4.248214228579878
 30
0.0
 10
50.81458539262989
 20
3.686110544977132
 30
0.0
 10
51.03214252543125
 20
3.380817854637121
 30
0.0
 10
51.39961897782769
 20
2.741642062769286
 30
0.0
 10
51.55255096632448
 20
2.40421011621856
 30
0.0
 10
51.720451292619
 20
1.875071110018479
 30
0.0
 10
51.76523891811498
 20
1.697573438382348
 30
0.0
 10
51.83019892209594
 20
1.3411134123522
 30
0.0
 10
51.85042005223091
 20
1.160233790628468
 30
0.0
 10
51.8612925878915
 20
0.8087486294667339
 30
0.0
 10
51.85231928593478
 20
0.6384577572555824
 30
0.0
 10
51.80205175492463
 20
0.3117925776660134
 30
0.0
 10
51.76095640639986
 20
0.1593365310095183
 30
0.0
 10
51.64914347790147
 20
-0.111839332812276
 30
0.0
 10
51.57660002585353
 20
-0.2337175095378046
 30
0.0
 10
51.40786224239191
 20
-0.4329376656231832
 30
0.0
 10
51.31096770501322
 20
-0.5121811986681991
 30
0.0
 10
50.99091525971962
 20
-0.6881110408588916
 30
0.0
 10
50.74331058342212
 20
-0.7199928919300556
 30
0.0
 10
50.22455555915037
 20
-0.6636836065026451
 30
0.0
 10
49.94729561987593
 20
-0.5750352049954975
 30
0.0
 10
49.52697671092893
 20
-0.3921052803758907
 30
0.0
 10
49.38530009936009
 20
-0.3225641222631833
 30
0.0
 10
49.09751269321561
 20
-0.1698016235280451
 30
0.0
 10
48.95057053496858
 20
-0.0860425078428698
 30
0.0
 10
48.50944983793428
 20
0.1769251085695866
 30
0.0
 10
48.21396893138819
 20
0.3678442907226342
 30
0.0
 10
47.61059924447044
 20
0.7627328808784982
 30
0.0
 10
47.30028432961164
 20
0.9680670319907368
 30
0.0
 10
46.67561778226258
 20
1.363206456724627
 30
0.0
 10
46.35999769653017
 20
1.554414331883156
 30
0.0
 10
46.03749999999996
 20
1.733416769776004
 30
0.0
  0
SPLINE
  5
A6
330
1F
100
AcDbEntity
  8
외형선
  6
Continuous
 62
     1
370
    15
100
AcDbSpline
210
0.0
220
0.0
230
1.0
 70
     8
 71
     3
 72
    14
 73
    10
 74
     0
 42
0.000000001
 43
0.00000001
 40
0.0
 40
0.0
 40
0.0
 40
0.0
 40
0.1498791999776067
 40
0.299750859060141
 40
0.4496185412295409
 40
0.5994858149903391
 40
0.749356249311649
 40
0.8965562385464593
 40
1.0
 40
1.0
 40
1.0
 40
1.0
 10
46.03749999999996
 20
1.733416769776014
 30
0.0
 10
45.32634073347164
 20
2.122130189403539
 30
0.0
 10
43.90405798107975
 20
2.899537471260957
 30
0.0
 10
41.77070094138504
 20
3.939630240003297
 30
0.0
 10
39.63740800151446
 20
4.835971709071645
 30
0.0
 10
37.50412845361438
 20
5.551943478408952
 30
0.0
 10
35.38347585431892
 20
6.048426940028103
 30
0.0
 10
33.48315047681302
 20
6.321097694602653
 30
0.0
 10
32.29386877506428
 20
6.324529053589342
 30
0.0
 10
31.80303757612596
 20
6.325945217684819
 30
0.0
  0
SPLINE
  5
A7
330
1F
100
AcDbEntity
  8
외형선
  6
Continuous
 62
     1
370
    15
100
AcDbSpline
210
0.0
220
0.0
230
1.0
 70
     8
 71
     3
 72
    36
 73
    32
 74
     0
 42
0.000000001
 43
0.00000001
 40
0.0
 40
0.0
 40
0.0
 40
0.0
 40
0.1250000000000014
 40
0.1250000000000014
 40
0.1875000000000013
 40
0.1875000000000013
 40
0.2500000000000012
 40
0.2500000000000012
 40
0.3125000000000011
 40
0.3125000000000011
 40
0.3750000000000009
 40
0.3750000000000009
 40
0.4375000000000008
 40
0.4375000000000008
 40
0.5000000000000007
 40
0.5000000000000007
 40
0.5625000000000006
 40
0.5625000000000006
 40
0.6250000000000006
 40
0.6250000000000006
 40
0.6875000000000004
 40
0.6875000000000004
 40
0.7500000000000003
 40
0.7500000000000003
 40
0.8125000000000003
 40
0.8125000000000003
 40
0.8750000000000002
 40
0.8750000000000002
 40
0.9375000000000002
 40
0.9375000000000002
 40
1.0
 40
1.0
 40
1.0
 40
1.0
 10
26.98749999999999
 20
6.326648456204864
 30
0.0
 10
27.77694922589916
 20
6.365844431152307
 30
0.0
 10
28.57820999245847
 20
6.355473900877181
 30
0.0
 10
29.76365816822856
 20
6.265997136998261
 30
0.0
 10
30.16195204032146
 20
6.223794691868346
 30
0.0
 10
30.95786255068688
 20
6.115203812065708
 30
0.0
 10
31.35405311795431
 20
6.048912326375202
 30
0.0
 10
32.14514292419651
 20
5.893132333602782
 30
0.0
 10
32.54360704839988
 20
5.803379899923652
 30
0.0
 10
33.33939766717119
 20
5.601588811379017
 30
0.0
 10
33.73485093440776
 20
5.489750030835792
 30
0.0
 10
34.52667303050292
 20
5.24505881332065
 30
0.0
 10
34.92527731106784
 20
5.111938588967223
 30
0.0
 10
35.72088813006906
 20
4.826387230792647
 30
0.0
 10
36.11574715455902
 20
4.674257608679675
 30
0.0
 10
36.90824262538531
 20
4.352037091860079
 30
0.0
 10
37.30695693113015
 20
4.181761376454914
 30
0.0
 10
38.10232808730841
 20
3.825805783659317
 30
0.0
 10
38.49673607477189
 20
3.640502537326831
 30
0.0
 10
39.28984583713476
 20
3.255768555547717
 30
0.0
 10
39.68864000905212
 20
3.056289229641539
 30
0.0
 10
40.4837116994816
 20
2.646575424083851
 30
0.0
 10
40.87781196834098
 20
2.436746934150604
 30
0.0
 10
41.67147678556782
 20
2.007448074403917
 30
0.0
 10
42.0703206444458
 20
1.788084443816915
 30
0.0
 10
42.86503314130025
 20
1.34376824675008
 30
0.0
 10
43.25896908688712
 20
1.119194525173681
 30
0.0
 10
44.05312958350212
 20
0.6653730486500915
 30
0.0
 10
44.45199293755639
 20
0.4363755112663161
 30
0.0
 10
45.2462866030419
 20
-0.0217750682770518
 30
0.0
 10
45.64020166176408
 20
-0.2506335763517774
 30
0.0
 10
46.03749999999996
 20
-0.4792064992552378
 30
0.0
  0
SPLINE
  5
A8
330
1F
100
AcDbEntity
  8
외형선
  6
Continuous
 62
     1
370
    15
100
AcDbSpline
210
0.0
220
0.0
230
1.0
 70
     8
 71
     3
 72
    48
 73
    44
 74
     0
 42
0.000000001
 43
0.00000001
 40
0.0
 40
0.0
 40
0.0
 40
0.0
 40
0.0624999999999996
 40
0.0624999999999996
 40
0.0937500000000005
 40
0.0937500000000005
 40
0.1250000000000013
 40
0.1250000000000013
 40
0.1875000000000011
 40
0.1875000000000011
 40
0.2500000000000008
 40
0.2500000000000008
 40
0.3125000000000005
 40
0.3125000000000005
 40
0.3750000000000003
 40
0.3750000000000003
 40
0.4375000000000001
 40
0.4375000000000001
 40
0.4687499999999999
 40
0.4687499999999999
 40
0.4999999999999999
 40
0.4999999999999999
 40
0.5312499999999998
 40
0.5312499999999998
 40
0.5624999999999997
 40
0.5624999999999997
 40
0.5937499999999997
 40
0.5937499999999997
 40
0.6249999999999996
 40
0.6249999999999996
 40
0.6875000000000008
 40
0.6875000000000008
 40
0.7500000000000021
 40
0.7500000000000021
 40
0.7812500000000018
 40
0.7812500000000018
 40
0.8125000000000014
 40
0.8125000000000014
 40
0.875000000000001
 40
0.875000000000001
 40
0.9375000000000004
 40
0.9375000000000004
 40
1.0
 40
1.0
 40
1.0
 40
1.0
 10
46.03749999999996
 20
-0.4792064992552478
 30
0.0
 10
46.3601434268128
 20
-0.6648291007734242
 30
0.0
 10
46.68149874805175
 20
-0.8389624750642463
 30
0.0
 10
47.16489089357566
 20
-1.077407680236386
 30
0.0
 10
47.32622770988409
 20
-1.153115819543902
 30
0.0
 10
47.64963392199891
 20
-1.29624881530552
 30
0.0
 10
47.81257485630973
 20
-1.364084340857847
 30
0.0
 10
48.29563825647107
 20
-1.550016503363592
 30
0.0
 10
48.60936955638412
 20
-1.650894012453873
 30
0.0
 10
49.21937972126098
 20
-1.811332884672036
 30
0.0
 10
49.51840645694829
 20
-1.87112107887921
 30
0.0
 10
50.07731846680085
 20
-1.955442526638627
 30
0.0
 10
50.3375131631393
 20
-1.980205843216349
 30
0.0
 10
50.81458539262996
 20
-2.012634273363622
 30
0.0
 10
51.03214252543125
 20
-2.020442365651702
 30
0.0
 10
51.39961897782771
 20
-2.046863342598459
 30
0.0
 10
51.5525509663245
 20
-2.065292318922708
 30
0.0
 10
51.720451292619
 20
-2.131996573582082
 30
0.0
 10
51.76523891811498
 20
-2.160560455030647
 30
0.0
 10
51.8301989220959
 20
-2.236699395490985
 30
0.0
 10
51.85042005223085
 20
-2.284921795514132
 30
0.0
 10
51.86129258789152
 20
-2.405496859635206
 30
0.0
 10
51.85231928593479
 20
-2.47742358122096
 30
0.0
 10
51.80205175492465
 20
-2.651435024656702
 30
0.0
 10
51.76095640639991
 20
-2.751937589079358
 30
0.0
 10
51.64914347790144
 20
-2.975474970626448
 30
0.0
 10
51.5766000258535
 20
-3.101729104004367
 30
0.0
 10
51.40786224239196
 20
-3.365820965006668
 30
0.0
 10
51.31096770501327
 20
-3.505093750842199
 30
0.0
 10
50.99091525971964
 20
-3.930976231592512
 30
0.0
 10
50.74331058342212
 20
-4.218536117025358
 30
0.0
 10
50.22455555915037
 20
-4.742064929666464
 30
0.0
 10
49.94729561987599
 20
-4.984114861505763
 30
0.0
 10
49.52697671092896
 20
-5.293989307715202
 30
0.0
 10
49.38530009936009
 20
-5.389332203283749
 30
0.0
 10
49.09751269321566
 20
-5.564548898302953
 30
0.0
 10
48.95057053496853
 20
-5.644774637018515
 30
0.0
 10
48.50944983793423
 20
-5.858166721342247
 30
0.0
 10
48.21396893138816
 20
-5.965385145887029
 30
0.0
 10
47.61059924447046
 20
-6.115696500788637
 30
0.0
 10
47.3002843296116
 20
-6.158524517603698
 30
0.0
 10
46.67561778226256
 20
-6.180103245720931
 30
0.0
 10
46.35999769653017
 20
-6.159619946838024
 30
0.0
 10
46.03749999999996
 20
-6.108826917032396
 30
0.0
  0
SPLINE
  5
A9
330
1F
100
AcDbEntity
  8
외형선
  6
Continuous
 62
     1
370
    15
100
AcDbSpline
210
0.0
220
0.0
230
1.0
 70
     8
 71
     3
 72
    36
 73
    32
 74
     0
 42
0.000000001
 43
0.00000001
 40
0.0
 40
0.0
 40
0.0
 40
0.0
 40
0.125
 40
0.125
 40
0.1875
 40
0.1875
 40
0.25
 40
0.25
 40
0.3125
 40
0.3125
 40
0.375
 40
0.375
 40
0.4375
 40
0.4375
 40
0.5
 40
0.5
 40
0.5625
 40
0.5625
 40
0.625
 40
0.625
 40
0.6875
 40
0.6875
 40
0.75
 40
0.75
 40
0.8125
 40
0.8125
 40
0.875
 40
0.875
 40
0.9375
 40
0.9375
 40
1.0
 40
1.0
 40
1.0
 40
1.0
 10
26.98749999999999
 20
2.692140098806286
 30
0.0
 10
27.77694922589914
 20
2.277825154140366
 30
0.0
 10
28.57820999245853
 20
1.8403063088003
 30
0.0
 10
29.76365816822857
 20
1.17060835196846
 30
0.0
 10
30.16195204032143
 20
0.9440621054905417
 30
0.0
 10
30.95786255068685
 20
0.4882831605264971
 30
0.0
 10
31.35405311795431
 20
0.2593306383889615
 30
0.0
 10
32.14514292419652
 20
-0.1984424210449497
 30
0.0
 10
32.5436070483999
 20
-0.4279503365501575
 30
0.0
 10
33.33939766717121
 20
-0.8841782997216101
 30
0.0
 10
33.73485093440783
 20
-1.110541101263684
 30
0.0
 10
34.52667303050298
 20
-1.558235717894021
 30
0.0
 10
34.92527731106789
 20
-1.779979565875895
 30
0.0
 10
35.72088813006912
 20
-2.215340677470474
 30
0.0
 10
36.11574715455902
 20
-2.428580182866197
 30
0.0
 10
36.90824262538528
 20
-2.845267851574533
 30
0.0
 10
37.30695693113017
 20
-3.048882514941453
 30
0.0
 10
38.10232808730841
 20
-3.443040245142948
 30
0.0
 10
38.49673607477186
 20
-3.633241146498701
 30
0.0
 10
39.28984583713474
 20
-3.999431568887878
 30
0.0
 10
39.68864000905212
 20
-4.175398130101636
 30
0.0
 10
40.4837116994816
 20
-4.509947310926339
 30
0.0
 10
40.87781196834101
 20
-4.668268902952776
 30
0.0
 10
41.67147678556786
 20
-4.966823684619282
 30
0.0
 10
42.07032064444579
 20
-5.106915424811021
 30
0.0
 10
42.8650331413003
 20
-5.366243524859883
 30
0.0
 10
43.25896908688716
 20
-5.48532642210008
 30
0.0
 10
44.05312958350215
 20
-5.702263016684964
 30
0.0
 10
44.4519929375564
 20
-5.799930887310222
 30
0.0
 10
45.24628660304191
 20
-5.971948143729357
 30
0.0
 10
45.64020166176407
 20
-6.046252869053572
 30
0.0
 10
46.03749999999996
 20
-6.108826917032393
 30
0.0
  0
SPLINE
  5
AA
330
1F
100
AcDbEntity
  8
외형선
  6
Continuous
 62
     1
370
    15
100
AcDbSpline
210
0.0
220
0.0
230
1.0
 70
     8
 71
     3
 72
    15
 73
    11
 74
     0
 42
0.000000001
 43
0.00000001
 40
0.0
 40
0.0
 40
0.0
 40
0.0
 40
0.06835677561038
 40
0.2282302882579899
 40
0.3905110381593452
 40
0.5075083258457247
 40
0.6278578324930109
 40
0.7894967214295717
 40
0.9556645297636738
 40
1.0
 40
1.0
 40
1.0
 40
1.0
 10
51.68797240265627
 20
2.891366685891078
 30
0.0
 10
51.65570380274894
 20
2.953604770182507
 30
0.0
 10
51.54796507761496
 20
3.161405910473577
 30
0.0
 10
51.25539280621275
 20
3.593877086179724
 30
0.0
 10
50.85659054222332
 20
4.089677939228862
 30
0.0
 10
50.45397156421079
 20
4.518220995621604
 30
0.0
 10
50.03125423998331
 20
4.914046369565351
 30
0.0
 10
49.5349491384491
 20
5.294673702776904
 30
0.0
 10
49.11396560692598
 20
5.575342106387041
 30
0.0
 10
48.86659626725096
 20
5.676431362056397
 30
0.0
 10
48.81449619512371
 20
5.69772243037789
 30
0.0
  0
LINE
  5
AB
330
1F
100
AcDbEntity
  8
외형선
  6
Continuous
370
    15
100
AcDbLine
 10
26.98749999999997
 20
0.5440765677740587
 30
0.0
 11
26.98749999999999
 21
2.692140098806286
 31
0.0
  0
LINE
  5
AC
330
1F
100
AcDbEntity
  8
외형선
  6
Continuous
 62
     1
370
    15
100
AcDbLine
 10
26.98749999999999
 20
-6.326648456204869
 30
0.0
 11
27.93105048503883
 21
-6.320544496363666
 31
0.0
  0
LINE
  5
AD
330
1F
100
AcDbEntity
  8
외형선
  6
Continuous
370
    15
100
AcDbLine
 10
26.98749999999997
 20
-6.326648456204869
 30
0.0
 11
26.98749999999999
 21
-5.751076567773992
 31
0.0
  0
LINE
  5
AE
330
1F
100
AcDbEntity
  8
외형선
  6
Continuous
370
    15
100
AcDbLine
 10
26.98749999999997
 20
-0.0000000000000027
 30
0.0
 11
26.98749999999997
 21
6.349999999999998
 31
0.0
  0
LINE
  5
AF
330
1F
100
AcDbEntity
  8
외형선
  6
Continuous
370
    15
100
AcDbLine
 10
26.98749999999997
 20
-6.350000000000003
 30
0.0
 11
26.98749999999997
 21
-0.0000000000000027
 31
0.0
  0
LINE
  5
B4
330
1F
100
AcDbEntity
  8
중심선
 62
     1
100
AcDbLine
 10
-55.38750000000002
 20
-0.0000000000000066
 30
0.0
 11
55.38750000000002
 21
0.0000000000000066
 31
0.0
  0
LINE
  5
B5
330
1F
100
AcDbEntity
  8
치수문자_일반주서
 62
     1
100
AcDbLine
 10
52.38750000000002
 20
-0.0000000000000066
 30
0.0
 11
52.38750000000002
 21
1.31501462954815
 31
0.0
  0
LINE
  5
B6
330
1F
100
AcDbEntity
  8
참조1
100
AcDbLine
 10
0.0000000000000031
 20
-0.0000000000000066
 30
0.0
 11
0.0000000000000082
 21
-40.00000000000001
 31
0.0
  0
LINE
  5
B7
330
1F
100
AcDbEntity
  8
참조1
100
AcDbLine
 10
0.0000000000000082
 20
-40.00000000000001
 30
0.0
 11
-28.65260681430868
 21
-40.0
 31
0.0
  0
CIRCLE
  5
B8
330
1F
100
AcDbEntity
  8
해칭선
100
AcDbCircle
 10
-0.0000000000000071
 20
-0.0000000000000046
 30
0.0
 40
3.000000000000001
  0
INSERT
  5
B9
330
1F
100
AcDbEntity
  8
0
  6
Continuous
 62
     7
100
AcDbBlockReference
 66
     1
  2
블럭10
 10
-13.9402729321252
 20
-52.04717430164393
 30
0.0
  0
ATTRIB
  5
BA
330
B9
100
AcDbEntity
  8
FORMAT
 62
     2
100
AcDbText
 10
-23.12156822086648
 20
-49.97180738881175
 30
0.0
 40
4.233333333333333
  1
E2069032 [ 4 FLUTE ]
 41
0.75
  7
SLDTEXTSTYLE0
 11
-23.12156822086648
 21
-52.08847405547841
 31
0.0
100
AcDbAttribute
  2
AUTOATTR0
 70
     0
 74
     1
  0
SEQEND
  5
BB
330
B9
100
AcDbEntity
  8
0
  6
Continuous
 62
     7
  0
HATCH
  5
BC
330
1F
100
AcDbEntity
  8
중심선
100
AcDbHatch
 10
0.0
 20
0.0
 30
0.0
210
0.0
220
0.0
230
1.0
  2
SOLID
 70
     1
 71
     0
 91
        1
 92
        0
 93
        4
 72
     1
 10
-8.225363627744352
 20
-35.8
 11
-11.67163887158164
 21
-35.8
 72
     1
 10
-11.67163887158164
 20
-35.8
 11
-13.79986873078566
 21
-38.3363255805726
 72
     1
 10
-13.79986873078566
 20
-38.3363255805726
 11
-10.35356040183523
 21
-38.33628615127011
 72
     1
 10
-10.35356040183523
 20
-38.33628615127011
 11
-8.225363627744352
 21
-35.8
 97
        0
 75
     0
 76
     1
 98
        1
 10
1.025738685968797
 20
-0.0010749287238958
  0
HATCH
  5
BD
330
1F
100
AcDbEntity
  8
중심선
100
AcDbHatch
 10
0.0
 20
0.0
 30
0.0
210
0.0
220
0.0
230
1.0
  2
SOLID
 70
     1
 71
     0
 91
        1
 92
        0
 93
        4
 72
     1
 10
-3.212599636708429
 20
-35.80000000000003
 11
-6.658874880545684
 21
-35.79999999999998
 72
     1
 10
-6.658874880545684
 20
-35.79999999999998
 11
-11.19001288890307
 21
-41.20000000000002
 72
     1
 10
-11.19001288890307
 20
-41.20000000000002
 11
-7.74373764506579
 21
-41.20000000000002
 72
     1
 10
-7.74373764506579
 20
-41.20000000000002
 11
-3.212599636708429
 21
-35.80000000000003
 97
        0
 75
     0
 76
     1
 98
        1
 10
1.025738685968797
 20
-0.0010749287238958
  0
HATCH
  5
BE
330
1F
100
AcDbEntity
  8
중심선
100
AcDbHatch
 10
0.0
 20
0.0
 30
0.0
210
0.0
220
0.0
230
1.0
  2
SOLID
 70
     1
 71
     0
 91
        1
 92
        0
 93
        4
 72
     1
 10
1.800164354327494
 20
-35.8
 11
-1.646110889509594
 21
-35.79999999999998
 72
     1
 10
-1.646110889509594
 20
-35.79999999999998
 11
-8.694547791398872
 21
-44.20000000000002
 72
     1
 10
-8.694547791398872
 20
-44.20000000000002
 11
-5.248272547561589
 21
-44.20000000000002
 72
     1
 10
-5.248272547561589
 20
-44.20000000000002
 11
1.800164354327494
 21
-35.8
 97
        0
 75
     0
 76
     1
 98
        1
 10
1.025738685968797
 20
-0.0010749287238958
  0
HATCH
  5
BF
330
1F
100
AcDbEntity
  8
중심선
100
AcDbHatch
 10
0.0
 20
0.0
 30
0.0
210
0.0
220
0.0
230
1.0
  2
SOLID
 70
     1
 71
     0
 91
        1
 92
        0
 93
        6
 72
     3
 10
6.600054785339693
 20
-40.00000000005127
 11
3.960054785062284
 21
1.540882976769353E-10
 40
0.3939339440162627
 50
17.09539180608437
 51
320.0019657685081
 73
     0
 72
     1
 10
8.283054441040289
 20
-38.5878940046383
 11
10.58835631474133
 21
-36.65356729459035
 72
     3
 10
6.600054785286846
 20
-40.00000000000015
 11
6.60005478528683
 21
-1.278976924368180E-13
 40
0.636358354079598
 50
39.99873849337431
 51
368.4976242363725
 73
     1
 72
     1
 10
13.02538727718746
 20
-39.03999999993002
 11
5.280122092122797
 21
-39.03999999993002
 72
     1
 10
5.280122092122797
 20
-39.03999999993002
 11
5.280097047676835
 21
-40.95999999992991
 72
     1
 10
5.280097047676835
 20
-40.95999999992991
 11
9.721476817148872
 21
-40.95999999992988
 97
        0
 75
     0
 76
     1
 98
        1
 10
1.025738685968797
 20
-0.0010749287238958
  0
DIMENSION
  5
C0
330
1F
100
AcDbEntity
  8
치수문자_일반주서
100
AcDbDimension
  2
_D
 10
26.98749999999999
 20
22.82277225922702
 30
0.0
 11
39.68750000000002
 21
22.82277225922702
 31
0.0
 70
   160
  1
<>
 71
     2
 42
25.40000000000006
  3
SLDDIMSTYLE0
100
AcDbAlignedDimension
 13
52.38750000000005
 23
1.315014629548136
 33
0.0
 14
26.98749999999999
 24
6.349999999999992
 34
0.0
 50
0.000000000000016
100
AcDbRotatedDimension
1001
ACAD
1000
DSTYLE
1002
{
1070
   171
1070
     6
1070
   273
1070
     7
1002
}
  0
DIMENSION
  5
D5
330
1F
100
AcDbEntity
  8
치수문자_일반주서
100
AcDbDimension
  2
_D_1
 10
-52.38750000000002
 20
35.75282056895201
 30
0.0
 11
0.0000000000000151
 21
35.75282056895201
 31
0.0
 70
   160
  1
<>
 71
     2
 42
104.7750000000001
  3
SLDDIMSTYLE1
100
AcDbAlignedDimension
 13
52.38750000000005
 23
1.315014629548136
 33
0.0
 14
-52.38750000000002
 24
5.079999999999998
 34
0.0
100
AcDbRotatedDimension
1001
ACAD
1000
DSTYLE
1002
{
1070
   171
1070
     6
1070
   273
1070
     7
1002
}
  0
DIMENSION
  5
E9
330
1F
100
AcDbEntity
  8
치수문자_일반주서
100
AcDbDimension
  2
_D_2
 10
67.78210509331866
 20
-6.349999999999877
 30
0.0
 11
67.78210509331856
 21
22.99575000000014
 31
0.0
 70
   160
  1
%%c<>
 71
     2
 42
12.70000000000002
 52
-270.0
  3
SLDDIMSTYLE0
100
AcDbAlignedDimension
 13
31.80222014598663
 23
6.350000000000006
 33
0.0
 14
31.80222014598671
 24
-6.350000000000011
 34
0.0
 50
90.0000000000002
100
AcDbRotatedDimension
1001
ACAD
1000
DSTYLE
1002
{
1070
   171
1070
     6
1070
   273
1070
     7
1002
}
  0
DIMENSION
  5
FC
330
1F
100
AcDbEntity
  8
치수문자_일반주서
100
AcDbDimension
  2
_D_3
 10
-65.07000000000002
 20
-6.350000000000145
 30
0.0
 11
-65.07000000000005
 21
-0.0000000000000087
 31
0.0
 70
   160
  1
%%c<>
 71
     2
 42
12.70000000000001
 52
-270.0
  3
SLDDIMSTYLE2
100
AcDbAlignedDimension
 13
-26.98749999999997
 23
6.350000000000007
 33
0.0
 14
-26.98749999999997
 24
-6.350000000000003
 34
0.0
 50
90.0000000000002
100
AcDbRotatedDimension
1001
ACAD
1000
DSTYLE
1002
{
1070
   171
1070
     6
1070
   273
1070
     7
1002
}
  0
LINE
  5
111
330
1F
100
AcDbEntity
  8
참조1
100
AcDbLine
 10
69.31973381534559
 20
7.44
 30
0.0
 11
69.31973381534559
 21
-7.440000000000005
 31
0.0
  0
LINE
  5
112
330
1F
100
AcDbEntity
  8
참조1
100
AcDbLine
 10
82.01973381534557
 20
5.44
 30
0.0
 11
69.31973381534559
 21
5.44
 31
0.0
  0
SOLID
  5
113
330
1F
100
AcDbEntity
  8
참조1
100
AcDbTrace
 10
69.31973381534559
 20
5.44
 30
0.0
 11
75.66973381534558
 21
4.423999999999999
 31
0.0
 12
75.66973381534558
 22
6.456
 32
0.0
 13
75.66973381534558
 23
6.456
 33
0.0
  0
LINE
  5
114
330
1F
100
AcDbEntity
  8
참조1
100
AcDbLine
 10
82.01973381534557
 20
-5.440000000000005
 30
0.0
 11
69.31973381534559
 21
-5.440000000000005
 31
0.0
  0
SOLID
  5
115
330
1F
100
AcDbEntity
  8
참조1
100
AcDbTrace
 10
69.31973381534559
 20
-5.440000000000005
 30
0.0
 11
75.66973381534558
 21
-6.456000000000005
 31
0.0
 12
75.66973381534558
 22
-4.424000000000005
 32
0.0
 13
75.66973381534558
 23
-4.424000000000005
 33
0.0
  0
MTEXT
  5
116
330
1F
100
AcDbEntity
  8
참조1
100
AcDbMText
 10
78.71722390781585
 20
10.98821664464993
 30
0.0
 40
3.5
 41
0.0
 71
     1
 72
     1
  1
A
  7
SLDTEXTSTYLE0
 73
     1
 44
1.0
  0
MTEXT
  5
117
330
1F
100
AcDbEntity
  8
참조1
100
AcDbMText
 10
78.71722390781585
 20
0.1082166446499301
 30
0.0
 40
3.5
 41
0.0
 71
     1
 72
     1
  1
A
  7
SLDTEXTSTYLE0
 73
     1
 44
1.0
  0
INSERT
  5
11E
330
1F
100
AcDbEntity
  8
해칭선
100
AcDbBlockReference
  2
SW_DOWELSYMBOL_0
 10
-0.0000000000000071
 20
-0.0000000000000046
 30
0.0
  0
ARC
  5
145
330
1F
100
AcDbEntity
  8
외형선
  6
Continuous
 62
     1
370
    15
100
AcDbCircle
 10
-46.03749999999996
 20
0.0000000000000041
 30
0.0
 40
6.350000000000009
100
AcDbArc
 50
152.8746203220391
 51
180.0
  0
ARC
  5
146
330
1F
100
AcDbEntity
  8
외형선
  6
Continuous
 62
     1
370
    15
100
AcDbCircle
 10
-46.03749999999996
 20
0.0000000000000041
 30
0.0
 40
6.350000000000017
100
AcDbArc
 50
90.00000000000084
 51
115.9609147327445
  0
ARC
  5
147
330
1F
100
AcDbEntity
  8
외형선
  6
Continuous
 62
     1
370
    15
100
AcDbCircle
 10
-46.03749999999996
 20
0.0000000000000041
 30
0.0
 40
6.350000000000011
100
AcDbArc
 50
244.0176863725754
 51
270.0
  0
ARC
  5
148
330
1F
100
AcDbEntity
  8
외형선
  6
Continuous
 62
     1
370
    15
100
AcDbCircle
 10
-46.03749999999996
 20
0.0000000000000041
 30
0.0
 40
6.350000000000009
100
AcDbArc
 50
180.0
 51
207.0960086406262
  0
LINE
  5
149
330
1F
100
AcDbEntity
  8
외형선
  6
Continuous
 62
     1
370
    15
100
AcDbLine
 10
-45.20710248066269
 20
6.350000000000017
 30
0.0
 11
-46.03749999999996
 21
6.350000000000017
 31
0.0
  0
LINE
  5
14A
330
1F
100
AcDbEntity
  8
외형선
  6
Continuous
 62
     1
370
    15
100
AcDbLine
 10
-31.80303757612597
 20
-6.350000000000002
 30
0.0
 11
-27.93105048503882
 21
-6.350000000000002
 31
0.0
  0
LINE
  5
14B
330
1F
100
AcDbEntity
  8
외형선
  6
Continuous
 62
     1
370
    15
100
AcDbLine
 10
-27.93105048503883
 20
6.350000000000015
 30
0.0
 11
-31.80303757612603
 21
6.350000000000015
 31
0.0
  0
LINE
  5
14C
330
1F
100
AcDbEntity
  8
외형선
  6
Continuous
 62
     1
370
    15
100
AcDbLine
 10
-46.03749999999996
 20
-6.350000000000001
 30
0.0
 11
-45.20710248066262
 21
-6.350000000000001
 31
0.0
  0
SPLINE
  5
14D
330
1F
100
AcDbEntity
  8
외형선
  6
Continuous
 62
     1
370
    15
100
AcDbSpline
210
0.0
220
0.0
230
1.0
 70
     8
 71
     3
 72
    16
 73
    12
 74
     0
 42
0.000000001
 43
0.00000001
 40
0.0
 40
0.0
 40
0.0
 40
0.0
 40
0.1171435539664996
 40
0.2342710819819436
 40
0.3513853286333226
 40
0.4684890535414726
 40
0.5855850282592205
 40
0.7005817330908235
 40
0.8155761020423385
 40
0.9305732534337614
 40
1.0
 40
1.0
 40
1.0
 40
1.0
 10
-26.98749999999999
 20
-0.5440765677740556
 30
0.0
 10
-27.69899208890103
 20
-0.1329377149984231
 30
0.0
 10
-29.12187893025557
 20
0.6892837442558114
 30
0.0
 10
-31.25600289327577
 20
1.902291692630328
 30
0.0
 10
-33.38984309583597
 20
3.04234048616273
 30
0.0
 10
-35.52344602045854
 20
4.068798842408095
 30
0.0
 10
-37.64418322259883
 20
4.936528453527234
 30
0.0
 10
-39.75201015705088
 20
5.620250704622149
 30
0.0
 10
-41.84710326747462
 20
6.086436764926164
 30
0.0
 10
-43.6654515126833
 20
6.332313050814498
 30
0.0
 10
-44.78546947181911
 20
6.325146773863795
 30
0.0
 10
-45.20710248066269
 20
6.322449014521379
 30
0.0
  0
SPLINE
  5
14E
330
1F
100
AcDbEntity
  8
외형선
  6
Continuous
 62
     1
370
    15
100
AcDbSpline
210
0.0
220
0.0
230
1.0
 70
     8
 71
     3
 72
    13
 73
     9
 74
     0
 42
0.000000001
 43
0.00000001
 40
0.0
 40
0.0
 40
0.0
 40
0.0
 40
0.0867656899170249
 40
0.2720222692000014
 40
0.4539778803892515
 40
0.6359540243474717
 40
0.8179587355377751
 40
1.0
 40
1.0
 40
1.0
 40
1.0
 10
-38.50328480167922
 20
5.18334117101449
 30
0.0
 10
-38.17023642629482
 20
5.298561375660789
 30
0.0
 10
-37.12608435521606
 20
5.659792428575227
 30
0.0
 10
-35.38347684390524
 20
6.046939011074151
 30
0.0
 10
-33.27545593774542
 20
6.333845532129151
 30
0.0
 10
-31.17984582868321
 20
6.375295877072883
 30
0.0
 10
-29.08385436274432
 20
6.20370573769261
 30
0.0
 10
-27.68633156192163
 20
5.901963056912905
 30
0.0
 10
-26.9875
 20
5.751076567773996
 30
0.0
  0
SPLINE
  5
14F
330
1F
100
AcDbEntity
  8
외형선
  6
Continuous
 62
     1
370
    15
100
AcDbSpline
210
0.0
220
0.0
230
1.0
 70
     8
 71
     3
 72
    11
 73
     7
 74
     0
 42
0.000000001
 43
0.00000001
 40
0.0
 40
0.0
 40
0.0
 40
0.0
 40
0.1657432696863716
 40
0.4438179962525731
 40
0.7218994512022909
 40
1.0
 40
1.0
 40
1.0
 40
1.0
 10
-38.50328480167914
 20
-5.183341171014474
 30
0.0
 10
-38.91953236591645
 20
-5.323554375210368
 30
0.0
 10
-40.03413665877486
 20
-5.699009399430221
 30
0.0
 10
-41.84710140234478
 20
-6.084698016870629
 30
0.0
 10
-43.94224791696064
 20
-6.357954634873832
 30
0.0
 10
-45.33906665462413
 20
-6.340579998125436
 30
0.0
 10
-46.03749999999996
 20
-6.331892381513727
 30
0.0
  0
SPLINE
  5
150
330
1F
100
AcDbEntity
  8
외형선
  6
Continuous
 62
     1
370
    15
100
AcDbSpline
210
0.0
220
0.0
230
1.0
 70
     8
 71
     3
 72
    48
 73
    44
 74
     0
 42
0.000000001
 43
0.00000001
 40
0.0
 40
0.0
 40
0.0
 40
0.0
 40
0.0625000000000036
 40
0.0625000000000036
 40
0.0937500000000044
 40
0.0937500000000044
 40
0.1250000000000052
 40
0.1250000000000052
 40
0.1875000000000047
 40
0.1875000000000047
 40
0.2500000000000042
 40
0.2500000000000042
 40
0.3125000000000038
 40
0.3125000000000038
 40
0.3750000000000033
 40
0.3750000000000033
 40
0.4375000000000029
 40
0.4375000000000029
 40
0.4687500000000026
 40
0.4687500000000026
 40
0.5000000000000023
 40
0.5000000000000023
 40
0.5312500000000021
 40
0.5312500000000021
 40
0.5625000000000019
 40
0.5625000000000019
 40
0.5937500000000018
 40
0.5937500000000018
 40
0.6250000000000016
 40
0.6250000000000016
 40
0.6875000000000024
 40
0.6875000000000024
 40
0.7500000000000034
 40
0.7500000000000034
 40
0.781250000000003
 40
0.781250000000003
 40
0.8125000000000026
 40
0.8125000000000026
 40
0.8750000000000017
 40
0.8750000000000017
 40
0.9375000000000008
 40
0.9375000000000008
 40
1.0
 40
1.0
 40
1.0
 40
1.0
 10
-46.03749999999996
 20
-6.33189238151373
 30
0.0
 10
-46.36014342681279
 20
-6.317844202597128
 30
0.0
 10
-46.68149874805182
 20
-6.272063742504501
 30
0.0
 10
-47.16489089357569
 20
-6.158279099446108
 30
0.0
 10
-47.32622770988409
 20
-6.112781807797774
 30
0.0
 10
-47.64963392199889
 20
-6.006443195403447
 30
0.0
 10
-47.8125748563097
 20
-5.945190289316559
 30
0.0
 10
-48.29563825647107
 20
-5.740938781819937
 30
0.0
 10
-48.60936955638415
 20
-5.578311293904811
 30
0.0
 10
-49.21937972126098
 20
-5.201176363809566
 30
0.0
 10
-49.51840645694833
 20
-4.984116667198383
 30
0.0
 10
-50.0773184668009
 20
-4.507253497020427
 30
0.0
 10
-50.33751316313928
 20
-4.248214228579871
 30
0.0
 10
-50.81458539262989
 20
-3.686110544977125
 30
0.0
 10
-51.03214252543125
 20
-3.380817854637114
 30
0.0
 10
-51.39961897782769
 20
-2.741642062769279
 30
0.0
 10
-51.55255096632448
 20
-2.404210116218553
 30
0.0
 10
-51.720451292619
 20
-1.875071110018473
 30
0.0
 10
-51.76523891811498
 20
-1.697573438382342
 30
0.0
 10
-51.83019892209594
 20
-1.341113412352194
 30
0.0
 10
-51.85042005223091
 20
-1.160233790628462
 30
0.0
 10
-51.8612925878915
 20
-0.8087486294667275
 30
0.0
 10
-51.85231928593478
 20
-0.6384577572555761
 30
0.0
 10
-51.80205175492463
 20
-0.311792577666007
 30
0.0
 10
-51.76095640639986
 20
-0.159336531009512
 30
0.0
 10
-51.64914347790147
 20
0.1118393328122823
 30
0.0
 10
-51.57660002585353
 20
0.2337175095378109
 30
0.0
 10
-51.40786224239191
 20
0.4329376656231895
 30
0.0
 10
-51.31096770501322
 20
0.5121811986682053
 30
0.0
 10
-50.99091525971962
 20
0.6881110408588978
 30
0.0
 10
-50.74331058342212
 20
0.7199928919300618
 30
0.0
 10
-50.22455555915037
 20
0.6636836065026512
 30
0.0
 10
-49.94729561987593
 20
0.5750352049955036
 30
0.0
 10
-49.52697671092893
 20
0.3921052803758967
 30
0.0
 10
-49.38530009936009
 20
0.3225641222631893
 30
0.0
 10
-49.09751269321561
 20
0.1698016235280511
 30
0.0
 10
-48.95057053496858
 20
0.0860425078428758
 30
0.0
 10
-48.50944983793428
 20
-0.1769251085695807
 30
0.0
 10
-48.21396893138819
 20
-0.3678442907226283
 30
0.0
 10
-47.61059924447044
 20
-0.7627328808784924
 30
0.0
 10
-47.30028432961164
 20
-0.9680670319907311
 30
0.0
 10
-46.67561778226258
 20
-1.363206456724622
 30
0.0
 10
-46.35999769653017
 20
-1.55441433188315
 30
0.0
 10
-46.03749999999996
 20
-1.733416769775998
 30
0.0
  0
SPLINE
  5
151
330
1F
100
AcDbEntity
  8
외형선
  6
Continuous
 62
     1
370
    15
100
AcDbSpline
210
0.0
220
0.0
230
1.0
 70
     8
 71
     3
 72
    14
 73
    10
 74
     0
 42
0.000000001
 43
0.00000001
 40
0.0
 40
0.0
 40
0.0
 40
0.0
 40
0.1498791999776067
 40
0.299750859060141
 40
0.4496185412295409
 40
0.5994858149903391
 40
0.749356249311649
 40
0.8965562385464593
 40
1.0
 40
1.0
 40
1.0
 40
1.0
 10
-46.03749999999996
 20
-1.733416769776008
 30
0.0
 10
-45.32634073347164
 20
-2.122130189403534
 30
0.0
 10
-43.90405798107975
 20
-2.899537471260951
 30
0.0
 10
-41.77070094138504
 20
-3.939630240003291
 30
0.0
 10
-39.63740800151446
 20
-4.83597170907164
 30
0.0
 10
-37.50412845361438
 20
-5.551943478408948
 30
0.0
 10
-35.38347585431892
 20
-6.048426940028099
 30
0.0
 10
-33.48315047681302
 20
-6.321097694602649
 30
0.0
 10
-32.29386877506428
 20
-6.324529053589338
 30
0.0
 10
-31.80303757612597
 20
-6.325945217684815
 30
0.0
  0
SPLINE
  5
152
330
1F
100
AcDbEntity
  8
외형선
  6
Continuous
 62
     1
370
    15
100
AcDbSpline
210
0.0
220
0.0
230
1.0
 70
     8
 71
     3
 72
    36
 73
    32
 74
     0
 42
0.000000001
 43
0.00000001
 40
0.0
 40
0.0
 40
0.0
 40
0.0
 40
0.1250000000000014
 40
0.1250000000000014
 40
0.1875000000000013
 40
0.1875000000000013
 40
0.2500000000000012
 40
0.2500000000000012
 40
0.3125000000000011
 40
0.3125000000000011
 40
0.3750000000000009
 40
0.3750000000000009
 40
0.4375000000000008
 40
0.4375000000000008
 40
0.5000000000000007
 40
0.5000000000000007
 40
0.5625000000000006
 40
0.5625000000000006
 40
0.6250000000000006
 40
0.6250000000000006
 40
0.6875000000000004
 40
0.6875000000000004
 40
0.7500000000000003
 40
0.7500000000000003
 40
0.8125000000000003
 40
0.8125000000000003
 40
0.8750000000000002
 40
0.8750000000000002
 40
0.9375000000000002
 40
0.9375000000000002
 40
1.0
 40
1.0
 40
1.0
 40
1.0
 10
-26.98749999999999
 20
-6.32664845620486
 30
0.0
 10
-27.77694922589916
 20
-6.365844431152303
 30
0.0
 10
-28.57820999245847
 20
-6.355473900877177
 30
0.0
 10
-29.76365816822856
 20
-6.265997136998258
 30
0.0
 10
-30.16195204032146
 20
-6.223794691868343
 30
0.0
 10
-30.95786255068688
 20
-6.115203812065705
 30
0.0
 10
-31.35405311795431
 20
-6.048912326375198
 30
0.0
 10
-32.1451429241965
 20
-5.893132333602779
 30
0.0
 10
-32.54360704839988
 20
-5.803379899923648
 30
0.0
 10
-33.33939766717119
 20
-5.601588811379013
 30
0.0
 10
-33.73485093440776
 20
-5.489750030835787
 30
0.0
 10
-34.52667303050292
 20
-5.245058813320646
 30
0.0
 10
-34.92527731106784
 20
-5.111938588967218
 30
0.0
 10
-35.72088813006906
 20
-4.826387230792642
 30
0.0
 10
-36.11574715455902
 20
-4.674257608679671
 30
0.0
 10
-36.90824262538531
 20
-4.352037091860074
 30
0.0
 10
-37.30695693113015
 20
-4.18176137645491
 30
0.0
 10
-38.10232808730841
 20
-3.825805783659312
 30
0.0
 10
-38.49673607477189
 20
-3.640502537326826
 30
0.0
 10
-39.28984583713476
 20
-3.255768555547712
 30
0.0
 10
-39.68864000905212
 20
-3.056289229641533
 30
0.0
 10
-40.4837116994816
 20
-2.646575424083845
 30
0.0
 10
-40.87781196834098
 20
-2.436746934150599
 30
0.0
 10
-41.67147678556782
 20
-2.007448074403912
 30
0.0
 10
-42.0703206444458
 20
-1.788084443816909
 30
0.0
 10
-42.86503314130025
 20
-1.343768246750075
 30
0.0
 10
-43.25896908688712
 20
-1.119194525173676
 30
0.0
 10
-44.05312958350212
 20
-0.6653730486500862
 30
0.0
 10
-44.45199293755639
 20
-0.4363755112663107
 30
0.0
 10
-45.2462866030419
 20
0.0217750682770574
 30
0.0
 10
-45.64020166176408
 20
0.250633576351783
 30
0.0
 10
-46.03749999999996
 20
0.4792064992552434
 30
0.0
  0
SPLINE
  5
153
330
1F
100
AcDbEntity
  8
외형선
  6
Continuous
 62
     1
370
    15
100
AcDbSpline
210
0.0
220
0.0
230
1.0
 70
     8
 71
     3
 72
    48
 73
    44
 74
     0
 42
0.000000001
 43
0.00000001
 40
0.0
 40
0.0
 40
0.0
 40
0.0
 40
0.0624999999999996
 40
0.0624999999999996
 40
0.0937500000000005
 40
0.0937500000000005
 40
0.1250000000000013
 40
0.1250000000000013
 40
0.1875000000000011
 40
0.1875000000000011
 40
0.2500000000000008
 40
0.2500000000000008
 40
0.3125000000000005
 40
0.3125000000000005
 40
0.3750000000000003
 40
0.3750000000000003
 40
0.4375000000000001
 40
0.4375000000000001
 40
0.4687499999999999
 40
0.4687499999999999
 40
0.4999999999999999
 40
0.4999999999999999
 40
0.5312499999999998
 40
0.5312499999999998
 40
0.5624999999999997
 40
0.5624999999999997
 40
0.5937499999999997
 40
0.5937499999999997
 40
0.6249999999999996
 40
0.6249999999999996
 40
0.6875000000000008
 40
0.6875000000000008
 40
0.7500000000000021
 40
0.7500000000000021
 40
0.7812500000000018
 40
0.7812500000000018
 40
0.8125000000000014
 40
0.8125000000000014
 40
0.875000000000001
 40
0.875000000000001
 40
0.9375000000000004
 40
0.9375000000000004
 40
1.0
 40
1.0
 40
1.0
 40
1.0
 10
-46.03749999999996
 20
0.4792064992552534
 30
0.0
 10
-46.3601434268128
 20
0.6648291007734298
 30
0.0
 10
-46.68149874805175
 20
0.8389624750642519
 30
0.0
 10
-47.16489089357566
 20
1.077407680236392
 30
0.0
 10
-47.32622770988409
 20
1.153115819543908
 30
0.0
 10
-47.64963392199891
 20
1.296248815305526
 30
0.0
 10
-47.81257485630973
 20
1.364084340857853
 30
0.0
 10
-48.29563825647107
 20
1.550016503363598
 30
0.0
 10
-48.60936955638412
 20
1.650894012453879
 30
0.0
 10
-49.21937972126098
 20
1.811332884672042
 30
0.0
 10
-49.51840645694829
 20
1.871121078879216
 30
0.0
 10
-50.07731846680085
 20
1.955442526638633
 30
0.0
 10
-50.3375131631393
 20
1.980205843216355
 30
0.0
 10
-50.81458539262996
 20
2.012634273363628
 30
0.0
 10
-51.03214252543125
 20
2.020442365651709
 30
0.0
 10
-51.39961897782771
 20
2.046863342598466
 30
0.0
 10
-51.5525509663245
 20
2.065292318922714
 30
0.0
 10
-51.720451292619
 20
2.131996573582089
 30
0.0
 10
-51.76523891811498
 20
2.160560455030654
 30
0.0
 10
-51.8301989220959
 20
2.236699395490991
 30
0.0
 10
-51.85042005223085
 20
2.284921795514138
 30
0.0
 10
-51.86129258789152
 20
2.405496859635213
 30
0.0
 10
-51.85231928593479
 20
2.477423581220966
 30
0.0
 10
-51.80205175492465
 20
2.651435024656708
 30
0.0
 10
-51.76095640639991
 20
2.751937589079365
 30
0.0
 10
-51.64914347790144
 20
2.975474970626455
 30
0.0
 10
-51.5766000258535
 20
3.101729104004374
 30
0.0
 10
-51.40786224239196
 20
3.365820965006675
 30
0.0
 10
-51.31096770501327
 20
3.505093750842205
 30
0.0
 10
-50.99091525971964
 20
3.930976231592518
 30
0.0
 10
-50.74331058342212
 20
4.218536117025364
 30
0.0
 10
-50.22455555915037
 20
4.74206492966647
 30
0.0
 10
-49.94729561987599
 20
4.984114861505769
 30
0.0
 10
-49.52697671092896
 20
5.293989307715209
 30
0.0
 10
-49.38530009936009
 20
5.389332203283755
 30
0.0
 10
-49.09751269321566
 20
5.564548898302959
 30
0.0
 10
-48.95057053496853
 20
5.644774637018521
 30
0.0
 10
-48.50944983793423
 20
5.858166721342253
 30
0.0
 10
-48.21396893138816
 20
5.965385145887035
 30
0.0
 10
-47.61059924447046
 20
6.115696500788642
 30
0.0
 10
-47.3002843296116
 20
6.158524517603703
 30
0.0
 10
-46.67561778226256
 20
6.180103245720936
 30
0.0
 10
-46.35999769653017
 20
6.159619946838029
 30
0.0
 10
-46.03749999999996
 20
6.108826917032402
 30
0.0
  0
SPLINE
  5
154
330
1F
100
AcDbEntity
  8
외형선
  6
Continuous
 62
     1
370
    15
100
AcDbSpline
210
0.0
220
0.0
230
1.0
 70
     8
 71
     3
 72
    36
 73
    32
 74
     0
 42
0.000000001
 43
0.00000001
 40
0.0
 40
0.0
 40
0.0
 40
0.0
 40
0.125
 40
0.125
 40
0.1875
 40
0.1875
 40
0.25
 40
0.25
 40
0.3125
 40
0.3125
 40
0.375
 40
0.375
 40
0.4375
 40
0.4375
 40
0.5
 40
0.5
 40
0.5625
 40
0.5625
 40
0.625
 40
0.625
 40
0.6875
 40
0.6875
 40
0.75
 40
0.75
 40
0.8125
 40
0.8125
 40
0.875
 40
0.875
 40
0.9375
 40
0.9375
 40
1.0
 40
1.0
 40
1.0
 40
1.0
 10
-26.98749999999999
 20
-2.692140098806283
 30
0.0
 10
-27.77694922589914
 20
-2.277825154140363
 30
0.0
 10
-28.57820999245853
 20
-1.840306308800296
 30
0.0
 10
-29.76365816822857
 20
-1.170608351968456
 30
0.0
 10
-30.16195204032143
 20
-0.944062105490538
 30
0.0
 10
-30.95786255068685
 20
-0.4882831605264933
 30
0.0
 10
-31.35405311795431
 20
-0.2593306383889576
 30
0.0
 10
-32.14514292419651
 20
0.1984424210449536
 30
0.0
 10
-32.5436070483999
 20
0.4279503365501615
 30
0.0
 10
-33.33939766717121
 20
0.8841782997216142
 30
0.0
 10
-33.73485093440783
 20
1.110541101263688
 30
0.0
 10
-34.52667303050298
 20
1.558235717894025
 30
0.0
 10
-34.92527731106789
 20
1.779979565875899
 30
0.0
 10
-35.72088813006912
 20
2.215340677470479
 30
0.0
 10
-36.11574715455902
 20
2.428580182866202
 30
0.0
 10
-36.90824262538528
 20
2.845267851574538
 30
0.0
 10
-37.30695693113017
 20
3.048882514941458
 30
0.0
 10
-38.10232808730841
 20
3.443040245142953
 30
0.0
 10
-38.49673607477186
 20
3.633241146498706
 30
0.0
 10
-39.28984583713474
 20
3.999431568887883
 30
0.0
 10
-39.68864000905212
 20
4.17539813010164
 30
0.0
 10
-40.4837116994816
 20
4.509947310926344
 30
0.0
 10
-40.87781196834101
 20
4.66826890295278
 30
0.0
 10
-41.67147678556786
 20
4.966823684619287
 30
0.0
 10
-42.07032064444579
 20
5.106915424811026
 30
0.0
 10
-42.8650331413003
 20
5.366243524859888
 30
0.0
 10
-43.25896908688716
 20
5.485326422100085
 30
0.0
 10
-44.05312958350215
 20
5.702263016684969
 30
0.0
 10
-44.4519929375564
 20
5.799930887310227
 30
0.0
 10
-45.24628660304191
 20
5.971948143729362
 30
0.0
 10
-45.64020166176407
 20
6.046252869053578
 30
0.0
 10
-46.03749999999996
 20
6.108826917032398
 30
0.0
  0
SPLINE
  5
155
330
1F
100
AcDbEntity
  8
외형선
  6
Continuous
 62
     1
370
    15
100
AcDbSpline
210
0.0
220
0.0
230
1.0
 70
     8
 71
     3
 72
    15
 73
    11
 74
     0
 42
0.000000001
 43
0.00000001
 40
0.0
 40
0.0
 40
0.0
 40
0.0
 40
0.06835677561038
 40
0.2282302882579899
 40
0.3905110381593452
 40
0.5075083258457247
 40
0.6278578324930109
 40
0.7894967214295717
 40
0.9556645297636738
 40
1.0
 40
1.0
 40
1.0
 40
1.0
 10
-51.68797240265627
 20
-2.891366685891071
 30
0.0
 10
-51.65570380274894
 20
-2.9536047701825
 30
0.0
 10
-51.54796507761496
 20
-3.161405910473571
 30
0.0
 10
-51.25539280621275
 20
-3.593877086179718
 30
0.0
 10
-50.85659054222332
 20
-4.089677939228856
 30
0.0
 10
-50.45397156421079
 20
-4.518220995621598
 30
0.0
 10
-50.03125423998331
 20
-4.914046369565344
 30
0.0
 10
-49.5349491384491
 20
-5.294673702776898
 30
0.0
 10
-49.11396560692598
 20
-5.575342106387034
 30
0.0
 10
-48.86659626725096
 20
-5.676431362056391
 30
0.0
 10
-48.81449619512371
 20
-5.697722430377884
 30
0.0
  0
LINE
  5
156
330
1F
100
AcDbEntity
  8
외형선
  6
Continuous
370
    15
100
AcDbLine
 10
-26.98749999999997
 20
-0.5440765677740553
 30
0.0
 11
-26.98749999999999
 21
-2.692140098806283
 31
0.0
  0
LINE
  5
157
330
1F
100
AcDbEntity
  8
외형선
  6
Continuous
 62
     1
370
    15
100
AcDbLine
 10
-26.98749999999999
 20
6.326648456204873
 30
0.0
 11
-27.93105048503883
 21
6.320544496363669
 31
0.0
  0
LINE
  5
158
330
1F
100
AcDbEntity
  8
외형선
  6
Continuous
370
    15
100
AcDbLine
 10
-26.98749999999997
 20
6.326648456204873
 30
0.0
 11
-26.98749999999999
 21
5.751076567773995
 31
0.0
  0
LINE
  5
159
330
1F
100
AcDbEntity
  8
외형선
  6
Continuous
370
    15
100
AcDbLine
 10
-26.98749999999997
 20
0.000000000000006
 30
0.0
 11
-26.98749999999997
 21
-6.349999999999994
 31
0.0
  0
LINE
  5
15A
330
1F
100
AcDbEntity
  8
외형선
  6
Continuous
370
    15
100
AcDbLine
 10
-26.98749999999997
 20
6.350000000000007
 30
0.0
 11
-26.98749999999997
 21
0.000000000000006
 31
0.0
  0
LINE
  5
15B
330
1F
100
AcDbEntity
  8
치수문자_일반주서
 62
     1
100
AcDbLine
 10
-52.38750000000002
 20
0.000000000000013
 30
0.0
 11
-52.38750000000002
 21
-1.315014629548143
 31
0.0
  0
LINE
  5
1A0
330
1F
100
AcDbEntity
  8
외형선
  6
Continuous
370
    15
100
AcDbLine
 10
-4.203699999999991
 20
4.826
 30
0.0
 11
4.203700000000062
 21
4.826
 31
0.0
  0
LINE
  5
1A1
330
1F
100
AcDbEntity
  8
외형선
  6
Continuous
370
    15
100
AcDbLine
 10
-4.203699999999991
 20
4.826
 30
0.0
 11
-5.727699999999992
 21
6.350000000000001
 31
0.0
  0
LINE
  5
1A2
330
1F
100
AcDbEntity
  8
외형선
  6
Continuous
370
    15
100
AcDbLine
 10
4.203700000000062
 20
4.826
 30
0.0
 11
5.727700000000063
 21
6.350000000000001
 31
0.0
  0
LINE
  5
1A3
330
1F
100
AcDbEntity
  8
외형선
  6
Continuous
370
    15
100
AcDbLine
 10
-5.727699999999988
 20
6.349999999999998
 30
0.0
 11
-26.98749999999997
 21
6.349999999999998
 31
0.0
  0
ENDSEC
  0
SECTION
  2
OBJECTS
  0
DICTIONARY
  5
C
330
0
100
AcDbDictionary
281
     1
  3
ACAD_GROUP
350
D
  3
ACAD_IMAGE_VARS
350
142
  3
ACAD_LAYOUT
350
1A
  3
ACAD_MLINESTYLE
350
17
  3
ACAD_PLOTSETTINGS
350
19
  3
ACAD_PLOTSTYLENAME
350
E
  3
ACAD_SCALELIST
350
47
  3
APPDATA
350
140
  3
DWGPROPS
350
1A4
  0
DICTIONARY
  5
18D
330
2
100
AcDbDictionary
280
     1
281
     1
  3
ACAD_LAYERSTATES
360
18E
  0
DICTIONARY
  5
D
102
{ACAD_REACTORS
330
C
102
}
330
C
100
AcDbDictionary
281
     1
  0
RASTERVARIABLES
  5
142
102
{ACAD_REACTORS
330
C
102
}
330
C
100
AcDbRasterVariables
 90
        0
 70
     1
 71
     1
 72
     1
  0
DICTIONARY
  5
1A
102
{ACAD_REACTORS
330
C
102
}
330
C
100
AcDbDictionary
281
     1
  3
Layout1
350
1E
  3
Layout2
350
26
  3
Model
350
22
  0
DICTIONARY
  5
17
102
{ACAD_REACTORS
330
C
102
}
330
C
100
AcDbDictionary
281
     1
  3
Standard
350
18
  0
DICTIONARY
  5
19
102
{ACAD_REACTORS
330
C
102
}
330
C
100
AcDbDictionary
281
     1
  0
ACDBDICTIONARYWDFLT
  5
E
102
{ACAD_REACTORS
330
C
102
}
330
C
100
AcDbDictionary
281
     1
  3
Normal
350
F
100
AcDbDictionaryWithDefault
340
F
  0
DICTIONARY
  5
47
102
{ACAD_REACTORS
330
C
102
}
330
C
100
AcDbDictionary
281
     1
  3
A0
350
48
  3
A1
350
49
  3
A2
350
4A
  3
A3
350
4B
  3
A4
350
4C
  3
A5
350
4D
  3
A6
350
4E
  3
A7
350
4F
  3
A8
350
50
  3
A9
350
51
  3
B0
350
52
  3
B1
350
53
  3
B2
350
54
  3
B3
350
55
  3
B4
350
56
  3
B5
350
57
  3
B6
350
58
  3
B7
350
59
  3
B8
350
5A
  3
B9
350
5B
  3
C0
350
5C
  3
C1
350
5D
  3
C2
350
5E
  3
C3
350
5F
  3
C4
350
60
  3
C5
350
61
  3
C6
350
62
  3
C7
350
63
  3
C8
350
64
  3
C9
350
65
  3
D0
350
66
  3
D1
350
67
  3
D2
350
68
  0
DICTIONARY
  5
140
102
{ACAD_REACTORS
330
C
102
}
330
C
100
AcDbDictionary
281
     1
  0
XRECORD
  5
1A4
102
{ACAD_REACTORS
330
C
102
}
330
C
100
AcDbXrecord
280
     1
  1
DWGPROPS COOKIE
  2

  3

  4

  6

  7

  8
12016016
  9

300
=
301
=
302
=
303
=
304
=
305
=
306
=
307
=
308
=
309
=
 40
0.0
 41
2458319.998837847
 42
2458331.032369329
  1

 90
        0
  0
DICTIONARY
  5
18E
102
{ACAD_REACTORS
330
18D
102
}
330
18D
100
AcDbDictionary
281
     1
  0
LAYOUT
  5
1E
102
{ACAD_REACTORS
330
1A
102
}
330
1A
100
AcDbPlotSettings
  1

  2
none_device
  4

  6

 40
0.0
 41
0.0
 42
0.0
 43
0.0
 44
0.0
 45
0.0
 46
0.0
 47
0.0
 48
0.0
 49
0.0
140
0.0
141
0.0
142
1.0
143
1.0
 70
   688
 72
     1
 73
     0
 74
     5
  7

 75
    16
147
1.0
148
0.0
149
0.0
100
AcDbLayout
  1
Layout1
 70
     1
 71
     1
 10
0.0
 20
0.0
 11
420.0
 21
297.0
 12
0.0
 22
0.0
 32
0.0
 14
1.000000000000000E+20
 24
1.000000000000000E+20
 34
1.000000000000000E+20
 15
-1.000000000000000E+20
 25
-1.000000000000000E+20
 35
-1.000000000000000E+20
146
0.0
 13
0.0
 23
0.0
 33
0.0
 16
1.0
 26
0.0
 36
0.0
 17
0.0
 27
1.0
 37
0.0
 76
     0
330
1B
  0
LAYOUT
  5
26
102
{ACAD_REACTORS
330
1A
102
}
330
1A
100
AcDbPlotSettings
  1

  2
none_device
  4

  6

 40
0.0
 41
0.0
 42
0.0
 43
0.0
 44
0.0
 45
0.0
 46
0.0
 47
0.0
 48
0.0
 49
0.0
140
0.0
141
0.0
142
1.0
143
1.0
 70
   688
 72
     1
 73
     0
 74
     5
  7

 75
    16
147
1.0
148
0.0
149
0.0
100
AcDbLayout
  1
Layout2
 70
     1
 71
     2
 10
0.0
 20
0.0
 11
0.0
 21
0.0
 12
0.0
 22
0.0
 32
0.0
 14
0.0
 24
0.0
 34
0.0
 15
0.0
 25
0.0
 35
0.0
146
0.0
 13
0.0
 23
0.0
 33
0.0
 16
1.0
 26
0.0
 36
0.0
 17
0.0
 27
1.0
 37
0.0
 76
     0
330
23
  0
LAYOUT
  5
22
102
{ACAD_REACTORS
330
1A
102
}
330
1A
100
AcDbPlotSettings
  1

  2
none_device
  4
ANSI_A_(11.00_x_8.50_Inches)
  6

 40
6.35
 41
19.05
 42
6.35000508
 43
19.05000254
 44
279.4
 45
215.9
 46
129.7537456560393
 47
92.31581439106708
 48
0.0
 49
0.0
140
0.0
141
0.0
142
0.0689752951162313
143
1.0
 70
  1696
 72
     0
 73
     0
 74
     0
  7

 75
     0
147
0.0235690232323232
148
0.0
149
0.0
100
AcDbLayout
  1
Model
 70
     1
 71
     0
 10
0.0
 20
0.0
 11
420.0
 21
297.0
 12
0.0
 22
0.0
 32
0.0
 14
1.000000000000000E+20
 24
1.000000000000000E+20
 34
1.000000000000000E+20
 15
-1.000000000000000E+20
 25
-1.000000000000000E+20
 35
-1.000000000000000E+20
146
0.0
 13
0.0
 23
0.0
 33
0.0
 16
1.0
 26
0.0
 36
0.0
 17
0.0
 27
1.0
 37
0.0
 76
     0
330
1F
331
29
  0
MLINESTYLE
  5
18
102
{ACAD_REACTORS
330
17
102
}
330
17
100
AcDbMlineStyle
  2
Standard
 70
     0
  3

 62
   256
 51
90.0
 52
90.0
 71
     2
 49
0.5
 62
   256
  6
BYLAYER
 49
-0.5
 62
   256
  6
BYLAYER
  0
ACDBPLACEHOLDER
  5
F
102
{ACAD_REACTORS
330
E
102
}
330
E
  0
SCALE
  5
48
102
{ACAD_REACTORS
330
47
102
}
330
47
100
AcDbScale
 70
     0
300
1:1
140
1.0
141
1.0
290
     1
  0
SCALE
  5
49
102
{ACAD_REACTORS
330
47
102
}
330
47
100
AcDbScale
 70
     0
300
1:2
140
1.0
141
2.0
290
     0
  0
SCALE
  5
4A
102
{ACAD_REACTORS
330
47
102
}
330
47
100
AcDbScale
 70
     0
300
1:4
140
1.0
141
4.0
290
     0
  0
SCALE
  5
4B
102
{ACAD_REACTORS
330
47
102
}
330
47
100
AcDbScale
 70
     0
300
1:5
140
1.0
141
5.0
290
     0
  0
SCALE
  5
4C
102
{ACAD_REACTORS
330
47
102
}
330
47
100
AcDbScale
 70
     0
300
1:8
140
1.0
141
8.0
290
     0
  0
SCALE
  5
4D
102
{ACAD_REACTORS
330
47
102
}
330
47
100
AcDbScale
 70
     0
300
1:10
140
1.0
141
10.0
290
     0
  0
SCALE
  5
4E
102
{ACAD_REACTORS
330
47
102
}
330
47
100
AcDbScale
 70
     0
300
1:16
140
1.0
141
16.0
290
     0
  0
SCALE
  5
4F
102
{ACAD_REACTORS
330
47
102
}
330
47
100
AcDbScale
 70
     0
300
1:20
140
1.0
141
20.0
290
     0
  0
SCALE
  5
50
102
{ACAD_REACTORS
330
47
102
}
330
47
100
AcDbScale
 70
     0
300
1:30
140
1.0
141
30.0
290
     0
  0
SCALE
  5
51
102
{ACAD_REACTORS
330
47
102
}
330
47
100
AcDbScale
 70
     0
300
1:40
140
1.0
141
40.0
290
     0
  0
SCALE
  5
52
102
{ACAD_REACTORS
330
47
102
}
330
47
100
AcDbScale
 70
     0
300
1:50
140
1.0
141
50.0
290
     0
  0
SCALE
  5
53
102
{ACAD_REACTORS
330
47
102
}
330
47
100
AcDbScale
 70
     0
300
1:100
140
1.0
141
100.0
290
     0
  0
SCALE
  5
54
102
{ACAD_REACTORS
330
47
102
}
330
47
100
AcDbScale
 70
     0
300
2:1
140
2.0
141
1.0
290
     0
  0
SCALE
  5
55
102
{ACAD_REACTORS
330
47
102
}
330
47
100
AcDbScale
 70
     0
300
4:1
140
4.0
141
1.0
290
     0
  0
SCALE
  5
56
102
{ACAD_REACTORS
330
47
102
}
330
47
100
AcDbScale
 70
     0
300
8:1
140
8.0
141
1.0
290
     0
  0
SCALE
  5
57
102
{ACAD_REACTORS
330
47
102
}
330
47
100
AcDbScale
 70
     0
300
10:1
140
10.0
141
1.0
290
     0
  0
SCALE
  5
58
102
{ACAD_REACTORS
330
47
102
}
330
47
100
AcDbScale
 70
     0
300
100:1
140
100.0
141
1.0
290
     0
  0
SCALE
  5
59
102
{ACAD_REACTORS
330
47
102
}
330
47
100
AcDbScale
 70
     0
300
1/128" = 1'-0"
140
0.0078125
141
12.0
290
     0
  0
SCALE
  5
5A
102
{ACAD_REACTORS
330
47
102
}
330
47
100
AcDbScale
 70
     0
300
1/64" = 1'-0"
140
0.015625
141
12.0
290
     0
  0
SCALE
  5
5B
102
{ACAD_REACTORS
330
47
102
}
330
47
100
AcDbScale
 70
     0
300
1/32" = 1'-0"
140
0.03125
141
12.0
290
     0
  0
SCALE
  5
5C
102
{ACAD_REACTORS
330
47
102
}
330
47
100
AcDbScale
 70
     0
300
1/16" = 1'-0"
140
0.0625
141
12.0
290
     0
  0
SCALE
  5
5D
102
{ACAD_REACTORS
330
47
102
}
330
47
100
AcDbScale
 70
     0
300
3/32" = 1'-0"
140
0.09375
141
12.0
290
     0
  0
SCALE
  5
5E
102
{ACAD_REACTORS
330
47
102
}
330
47
100
AcDbScale
 70
     0
300
1/8" = 1'-0"
140
0.125
141
12.0
290
     0
  0
SCALE
  5
5F
102
{ACAD_REACTORS
330
47
102
}
330
47
100
AcDbScale
 70
     0
300
3/16" = 1'-0"
140
0.1875
141
12.0
290
     0
  0
SCALE
  5
60
102
{ACAD_REACTORS
330
47
102
}
330
47
100
AcDbScale
 70
     0
300
1/4" = 1'-0"
140
0.25
141
12.0
290
     0
  0
SCALE
  5
61
102
{ACAD_REACTORS
330
47
102
}
330
47
100
AcDbScale
 70
     0
300
3/8" = 1'-0"
140
0.375
141
12.0
290
     0
  0
SCALE
  5
62
102
{ACAD_REACTORS
330
47
102
}
330
47
100
AcDbScale
 70
     0
300
1/2" = 1'-0"
140
0.5
141
12.0
290
     0
  0
SCALE
  5
63
102
{ACAD_REACTORS
330
47
102
}
330
47
100
AcDbScale
 70
     0
300
3/4" = 1'-0"
140
0.75
141
12.0
290
     0
  0
SCALE
  5
64
102
{ACAD_REACTORS
330
47
102
}
330
47
100
AcDbScale
 70
     0
300
1" = 1'-0"
140
1.0
141
12.0
290
     0
  0
SCALE
  5
65
102
{ACAD_REACTORS
330
47
102
}
330
47
100
AcDbScale
 70
     0
300
1-1/2" = 1'-0"
140
1.5
141
12.0
290
     0
  0
SCALE
  5
66
102
{ACAD_REACTORS
330
47
102
}
330
47
100
AcDbScale
 70
     0
300
3" = 1'-0"
140
3.0
141
12.0
290
     0
  0
SCALE
  5
67
102
{ACAD_REACTORS
330
47
102
}
330
47
100
AcDbScale
 70
     0
300
6" = 1'-0"
140
6.0
141
12.0
290
     0
  0
SCALE
  5
68
102
{ACAD_REACTORS
330
47
102
}
330
47
100
AcDbScale
 70
     0
300
1'-0" = 1'-0"
140
12.0
141
12.0
290
     0
  0
ENDSEC
  0
EOF
