  0
SECTION
  2
HEADER
  9
$ACADVER
  1
AC1015
  9
$ACADMAINTVER
 70
     6
  9
$DWGCODEPAGE
  3
ANSI_949
  9
$INSBASE
 10
0.0
 20
0.0
 30
0.0
  9
$EXTMIN
 10
1.000000000000000E+20
 20
1.000000000000000E+20
 30
1.000000000000000E+20
  9
$EXTMAX
 10
-1.000000000000000E+20
 20
-1.000000000000000E+20
 30
-1.000000000000000E+20
  9
$LIMMIN
 10
0.0
 20
0.0
  9
$LIMMAX
 10
420.0
 20
297.0
  9
$ORTHOMODE
 70
     1
  9
$REGENMODE
 70
     1
  9
$FILLMODE
 70
     1
  9
$QTEXTMODE
 70
     0
  9
$MIRRTEXT
 70
     1
  9
$LTSCALE
 40
1.0
  9
$ATTMODE
 70
     1
  9
$TEXTSIZE
 40
3.5
  9
$TRACEWID
 40
1.0
  9
$TEXTSTYLE
  7
Standard
  9
$CLAYER
  8
0
  9
$CELTYPE
  6
ByLayer
  9
$CECOLOR
 62
   256
  9
$CELTSCALE
 40
1.0
  9
$DISPSILH
 70
     0
  9
$DIMSCALE
 40
1.0
  9
$DIMASZ
 40
3.302
  9
$DIMEXO
 40
1.0
  9
$DIMDLI
 40
3.75
  9
$DIMRND
 40
0.0
  9
$DIMDLE
 40
0.0
  9
$DIMEXE
 40
1.0
  9
$DIMTP
 40
0.0
  9
$DIMTM
 40
0.0
  9
$DIMTXT
 40
3.5
  9
$DIMCEN
 40
2.5
  9
$DIMTSZ
 40
0.0
  9
$DIMTOL
 70
     0
  9
$DIMLIM
 70
     0
  9
$DIMTIH
 70
     1
  9
$DIMTOH
 70
     1
  9
$DIMSE1
 70
     0
  9
$DIMSE2
 70
     0
  9
$DIMTAD
 70
     1
  9
$DIMZIN
 70
     0
  9
$DIMBLK
  1

  9
$DIMASO
 70
     1
  9
$DIMSHO
 70
     1
  9
$DIMPOST
  1

  9
$DIMAPOST
  1

  9
$DIMALT
 70
     0
  9
$DIMALTD
 70
     3
  9
$DIMALTF
 40
0.0393700787401575
  9
$DIMLFAC
 40
1.0
  9
$DIMTOFL
 70
     1
  9
$DIMTVP
 40
0.0
  9
$DIMTIX
 70
     0
  9
$DIMSOXD
 70
     0
  9
$DIMSAH
 70
     0
  9
$DIMBLK1
  1

  9
$DIMBLK2
  1

  9
$DIMSTYLE
  2
ISO-25
  9
$DIMCLRD
 70
     0
  9
$DIMCLRE
 70
     0
  9
$DIMCLRT
 70
     0
  9
$DIMTFAC
 40
1.0
  9
$DIMGAP
 40
1.524
  9
$DIMJUST
 70
     0
  9
$DIMSD1
 70
     0
  9
$DIMSD2
 70
     0
  9
$DIMTOLJ
 70
     0
  9
$DIMTZIN
 70
     0
  9
$DIMALTZ
 70
     0
  9
$DIMALTTZ
 70
     0
  9
$DIMUPT
 70
     0
  9
$DIMDEC
 70
     2
  9
$DIMTDEC
 70
     2
  9
$DIMALTU
 70
     2
  9
$DIMALTTD
 70
     3
  9
$DIMTXSTY
  7
Standard
  9
$DIMAUNIT
 70
     0
  9
$DIMADEC
 70
     2
  9
$DIMALTRND
 40
0.0
  9
$DIMAZIN
 70
     0
  9
$DIMDSEP
 70
    44
  9
$DIMATFIT
 70
     3
  9
$DIMFRAC
 70
     0
  9
$DIMLDRBLK
  1

  9
$DIMLUNIT
 70
     2
  9
$DIMLWD
 70
    -2
  9
$DIMLWE
 70
    -2
  9
$DIMTMOVE
 70
     0
  9
$LUNITS
 70
     2
  9
$LUPREC
 70
     2
  9
$SKETCHINC
 40
1.0
  9
$FILLETRAD
 40
10.0
  9
$AUNITS
 70
     0
  9
$AUPREC
 70
     2
  9
$MENU
  1
.
  9
$ELEVATION
 40
0.0
  9
$PELEVATION
 40
0.0
  9
$THICKNESS
 40
0.0
  9
$LIMCHECK
 70
     0
  9
$CHAMFERA
 40
0.0
  9
$CHAMFERB
 40
0.0
  9
$CHAMFERC
 40
0.0
  9
$CHAMFERD
 40
0.0
  9
$SKPOLY
 70
     0
  9
$TDCREATE
 40
2458320.374049456
  9
$TDUCREATE
 40
2458319.999049456
  9
$TDUPDATE
 40
2458331.405724005
  9
$TDUUPDATE
 40
2458331.030724005
  9
$TDINDWG
 40
0.0001662847
  9
$TDUSRTIMER
 40
2458331.030557998
  9
$USRTIMER
 70
     1
  9
$ANGBASE
 50
0.0
  9
$ANGDIR
 70
     0
  9
$PDMODE
 70
     0
  9
$PDSIZE
 40
-1.0
  9
$PLINEWID
 40
0.0
  9
$SPLFRAME
 70
     0
  9
$SPLINETYPE
 70
     6
  9
$SPLINESEGS
 70
     8
  9
$HANDSEED
  5
19D
  9
$SURFTAB1
 70
     6
  9
$SURFTAB2
 70
     6
  9
$SURFTYPE
 70
     6
  9
$SURFU
 70
     6
  9
$SURFV
 70
     6
  9
$UCSBASE
  2

  9
$UCSNAME
  2

  9
$UCSORG
 10
0.0
 20
0.0
 30
0.0
  9
$UCSXDIR
 10
1.0
 20
0.0
 30
0.0
  9
$UCSYDIR
 10
0.0
 20
1.0
 30
0.0
  9
$UCSORTHOREF
  2

  9
$UCSORTHOVIEW
 70
     0
  9
$UCSORGTOP
 10
0.0
 20
0.0
 30
0.0
  9
$UCSORGBOTTOM
 10
0.0
 20
0.0
 30
0.0
  9
$UCSORGLEFT
 10
0.0
 20
0.0
 30
0.0
  9
$UCSORGRIGHT
 10
0.0
 20
0.0
 30
0.0
  9
$UCSORGFRONT
 10
0.0
 20
0.0
 30
0.0
  9
$UCSORGBACK
 10
0.0
 20
0.0
 30
0.0
  9
$PUCSBASE
  2

  9
$PUCSNAME
  2

  9
$PUCSORG
 10
0.0
 20
0.0
 30
0.0
  9
$PUCSXDIR
 10
1.0
 20
0.0
 30
0.0
  9
$PUCSYDIR
 10
0.0
 20
1.0
 30
0.0
  9
$PUCSORTHOREF
  2

  9
$PUCSORTHOVIEW
 70
     0
  9
$PUCSORGTOP
 10
0.0
 20
0.0
 30
0.0
  9
$PUCSORGBOTTOM
 10
0.0
 20
0.0
 30
0.0
  9
$PUCSORGLEFT
 10
0.0
 20
0.0
 30
0.0
  9
$PUCSORGRIGHT
 10
0.0
 20
0.0
 30
0.0
  9
$PUCSORGFRONT
 10
0.0
 20
0.0
 30
0.0
  9
$PUCSORGBACK
 10
0.0
 20
0.0
 30
0.0
  9
$USERI1
 70
     0
  9
$USERI2
 70
     0
  9
$USERI3
 70
     0
  9
$USERI4
 70
     0
  9
$USERI5
 70
     0
  9
$USERR1
 40
0.0
  9
$USERR2
 40
0.0
  9
$USERR3
 40
0.0
  9
$USERR4
 40
0.0
  9
$USERR5
 40
0.0
  9
$WORLDVIEW
 70
     1
  9
$SHADEDGE
 70
     3
  9
$SHADEDIF
 70
    70
  9
$TILEMODE
 70
     1
  9
$MAXACTVP
 70
    64
  9
$PINSBASE
 10
0.0
 20
0.0
 30
0.0
  9
$PLIMCHECK
 70
     0
  9
$PEXTMIN
 10
1.000000000000000E+20
 20
1.000000000000000E+20
 30
1.000000000000000E+20
  9
$PEXTMAX
 10
-1.000000000000000E+20
 20
-1.000000000000000E+20
 30
-1.000000000000000E+20
  9
$PLIMMIN
 10
0.0
 20
0.0
  9
$PLIMMAX
 10
0.0
 20
0.0
  9
$UNITMODE
 70
     0
  9
$VISRETAIN
 70
     1
  9
$PLINEGEN
 70
     0
  9
$PSLTSCALE
 70
     1
  9
$TREEDEPTH
 70
  3020
  9
$CMLSTYLE
  2
Standard
  9
$CMLJUST
 70
     0
  9
$CMLSCALE
 40
20.0
  9
$PROXYGRAPHICS
 70
     1
  9
$MEASUREMENT
 70
     1
  9
$CELWEIGHT
370
    -1
  9
$ENDCAPS
280
     0
  9
$JOINSTYLE
280
     0
  9
$LWDISPLAY
290
     1
  9
$INSUNITS
 70
     4
  9
$HYPERLINKBASE
  1

  9
$STYLESHEET
  1

  9
$XEDIT
290
     1
  9
$CEPSNTYPE
380
     0
  9
$PSTYLEMODE
290
     1
  9
$FINGERPRINTGUID
  2
{AA05AB9E-3BDF-456F-85D8-4A99734A4B56}
  9
$VERSIONGUID
  2
{FAEB1C32-E019-11D5-929B-00C0DF256EC4}
  9
$EXTNAMES
290
     1
  9
$PSVPSCALE
 40
0.0
  9
$OLESTARTUP
290
     0
  0
ENDSEC
  0
SECTION
  2
CLASSES
  0
CLASS
  1
ACDBDICTIONARYWDFLT
  2
AcDbDictionaryWithDefault
  3
ObjectDBX Classes
 90
        0
280
     0
281
     0
  0
CLASS
  1
VISUALSTYLE
  2
AcDbVisualStyle
  3
ObjectDBX Classes
 90
     4095
280
     0
281
     0
  0
CLASS
  1
MATERIAL
  2
AcDbMaterial
  3
ObjectDBX Classes
 90
     1153
280
     0
281
     0
  0
CLASS
  1
SCALE
  2
AcDbScale
  3
ObjectDBX Classes
 90
     1153
280
     0
281
     0
  0
CLASS
  1
SUN
  2
AcDbSun
  3
SCENEOE
 90
     1153
280
     0
281
     0
  0
CLASS
  1
ACDBPLACEHOLDER
  2
AcDbPlaceHolder
  3
ObjectDBX Classes
 90
        0
280
     0
281
     0
  0
CLASS
  1
LAYOUT
  2
AcDbLayout
  3
ObjectDBX Classes
 90
        0
280
     0
281
     0
  0
CLASS
  1
TABLESTYLE
  2
AcDbTableStyle
  3
ObjectDBX Classes
 90
     4095
280
     0
281
     0
  0
CLASS
  1
MLEADERSTYLE
  2
AcDbMLeaderStyle
  3
ACDB_MLEADERSTYLE_CLASS
 90
     4095
280
     0
281
     0
  0
CLASS
  1
RASTERVARIABLES
  2
AcDbRasterVariables
  3
ISM
 90
        0
280
     0
281
     0
  0
ENDSEC
  0
SECTION
  2
TABLES
  0
TABLE
  2
VPORT
  5
8
330
0
100
AcDbSymbolTable
 70
     1
  0
VPORT
  5
29
330
8
100
AcDbSymbolTableRecord
100
AcDbViewportTableRecord
  2
*Active
 70
     0
 10
0.0
 20
0.0
 11
1.0
 21
1.0
 12
4.384697921520672
 22
-53.81973325108891
 13
0.0
 23
0.0
 14
10.0
 24
10.0
 15
10.0
 25
10.0
 16
0.0
 26
0.0
 36
1.0
 17
0.0
 27
0.0
 37
0.0
 40
143.2917918252504
 41
1.516441005802708
 42
50.0
 43
0.0
 44
0.0
 50
0.0
 51
0.0
 71
    16
 72
  2000
 73
     1
 74
     3
 75
     0
 76
     0
 77
     0
 78
     0
281
     0
 65
     1
110
0.0
120
0.0
130
0.0
111
1.0
121
0.0
131
0.0
112
0.0
122
1.0
132
0.0
 79
     0
146
0.0
  0
ENDTAB
  0
TABLE
  2
LTYPE
  5
5
330
0
100
AcDbSymbolTable
 70
     6
  0
LTYPE
  5
14
330
5
100
AcDbSymbolTableRecord
100
AcDbLinetypeTableRecord
  2
ByBlock
 70
     0
  3

 72
    65
 73
     0
 40
0.0
  0
LTYPE
  5
15
330
5
100
AcDbSymbolTableRecord
100
AcDbLinetypeTableRecord
  2
ByLayer
 70
     0
  3

 72
    65
 73
     0
 40
0.0
  0
LTYPE
  5
16
330
5
100
AcDbSymbolTableRecord
100
AcDbLinetypeTableRecord
  2
Continuous
 70
     0
  3
Solid line
 72
    65
 73
     0
 40
0.0
  0
LTYPE
  5
6A
330
5
100
AcDbSymbolTableRecord
100
AcDbLinetypeTableRecord
  2
HIDDEN
 70
     0
  3
Hidden __ __ __ __ __ __ __ __ __ __ __ __ __ __
 72
    65
 73
     2
 40
1.905
 49
1.27
 74
     0
 49
-0.635
 74
     0
  0
LTYPE
  5
6B
330
5
100
AcDbSymbolTableRecord
100
AcDbLinetypeTableRecord
  2
PHANTOM
 70
     0
  3
Phantom ______  __  __  ______  __  __  ______
 72
    65
 73
     6
 40
12.7
 49
6.35
 74
     0
 49
-1.27
 74
     0
 49
1.27
 74
     0
 49
-1.27
 74
     0
 49
1.27
 74
     0
 49
-1.27
 74
     0
  0
LTYPE
  5
6C
330
5
100
AcDbSymbolTableRecord
100
AcDbLinetypeTableRecord
  2
CENTER
 70
     0
  3
Center ____ _ ____ _ ____ _ ____ _ ____ _ ____
 72
    65
 73
     4
 40
10.16
 49
6.35
 74
     0
 49
-1.27
 74
     0
 49
1.27
 74
     0
 49
-1.27
 74
     0
  0
LTYPE
  5
6D
330
5
100
AcDbSymbolTableRecord
100
AcDbLinetypeTableRecord
  2
CENTERX2
 70
     0
  3
Center (2x) ________  __  ________  __  _____
 72
    65
 73
     4
 40
20.32
 49
12.7
 74
     0
 49
-2.54
 74
     0
 49
2.54
 74
     0
 49
-2.54
 74
     0
  0
LTYPE
  5
6E
330
5
100
AcDbSymbolTableRecord
100
AcDbLinetypeTableRecord
  2
DOT2
 70
     0
  3
Dot (.5x) ........................................
 72
    65
 73
     2
 40
0.635
 49
0.0
 74
     0
 49
-0.635
 74
     0
  0
ENDTAB
  0
TABLE
  2
LAYER
  5
2
102
{ACAD_XDICTIONARY
360
189
102
}
330
0
100
AcDbSymbolTable
 70
    18
  0
LAYER
  5
10
330
2
100
AcDbSymbolTableRecord
100
AcDbLayerTableRecord
  2
0
 70
     0
 62
     7
  6
Continuous
370
    -3
390
F
  0
LAYER
  5
6F
330
2
100
AcDbSymbolTableRecord
100
AcDbLayerTableRecord
  2
FORMAT
 70
     0
 62
     2
  6
Continuous
370
    -3
390
F
  0
LAYER
  5
70
330
2
100
AcDbSymbolTableRecord
100
AcDbLayerTableRecord
  2
외형선
 70
     0
 62
     4
  6
Continuous
370
    30
390
F
  0
LAYER
  5
71
330
2
100
AcDbSymbolTableRecord
100
AcDbLayerTableRecord
  2
숨은선
 70
     0
 62
     2
  6
HIDDEN
370
    15
390
F
  0
LAYER
  5
72
330
2
100
AcDbSymbolTableRecord
100
AcDbLayerTableRecord
  2
중심선
 70
     0
 62
     1
  6
CENTERX2
370
    -3
390
F
  0
LAYER
  5
73
330
2
100
AcDbSymbolTableRecord
100
AcDbLayerTableRecord
  2
파단선
 70
     0
 62
     4
  6
Continuous
370
    -3
390
F
  0
LAYER
  5
74
330
2
100
AcDbSymbolTableRecord
100
AcDbLayerTableRecord
  2
해칭선
 70
     0
 62
   100
  6
Continuous
370
    -3
390
F
  0
LAYER
  5
75
330
2
100
AcDbSymbolTableRecord
100
AcDbLayerTableRecord
  2
가는실선
 70
     0
 62
     4
  6
Continuous
370
    -3
390
F
  0
LAYER
  5
76
330
2
100
AcDbSymbolTableRecord
100
AcDbLayerTableRecord
  2
치수_보조선
 70
     0
 62
     4
  6
Continuous
370
    -3
390
F
  0
LAYER
  5
77
330
2
100
AcDbSymbolTableRecord
100
AcDbLayerTableRecord
  2
치수문자_일반주서
 70
     0
 62
     7
  6
Continuous
370
    15
390
F
  0
LAYER
  5
78
330
2
100
AcDbSymbolTableRecord
100
AcDbLayerTableRecord
  2
개별주서
 70
     0
 62
   100
  6
Continuous
370
    30
390
F
  0
LAYER
  5
79
330
2
100
AcDbSymbolTableRecord
100
AcDbLayerTableRecord
  2
중간선
 70
     0
 62
     2
  6
Continuous
370
    15
390
F
  0
LAYER
  5
7A
330
2
100
AcDbSymbolTableRecord
100
AcDbLayerTableRecord
  2
윤곽선
 70
     0
 62
     3
  6
Continuous
370
    40
390
F
  0
LAYER
  5
7B
330
2
100
AcDbSymbolTableRecord
100
AcDbLayerTableRecord
  2
중심마크
 70
     0
 62
   100
  6
Continuous
370
    30
390
F
  0
LAYER
  5
7C
330
2
100
AcDbSymbolTableRecord
100
AcDbLayerTableRecord
  2
가상선
 70
     0
 62
     4
  6
PHANTOM
370
    -3
390
F
  0
LAYER
  5
7D
330
2
100
AcDbSymbolTableRecord
100
AcDbLayerTableRecord
  2
특수지정선
 70
     0
 62
     5
  6
CENTERX2
370
    60
390
F
  0
LAYER
  5
7E
330
2
100
AcDbSymbolTableRecord
100
AcDbLayerTableRecord
  2
참조1
 70
     0
 62
    -4
  6
Continuous
370
    -3
390
F
  0
LAYER
  5
142
330
2
100
AcDbSymbolTableRecord
100
AcDbLayerTableRecord
  2
Defpoints
 70
     0
 62
     7
  6
Continuous
290
     0
370
    -3
390
F
  0
ENDTAB
  0
TABLE
  2
STYLE
  5
3
330
0
100
AcDbSymbolTable
 70
     2
  0
STYLE
  5
11
330
3
100
AcDbSymbolTableRecord
100
AcDbTextStyleTableRecord
  2
Standard
 70
     0
 40
0.0
 41
1.0
 50
0.0
 71
     0
 42
3.5
  3
txt
  4

  0
STYLE
  5
94
330
3
100
AcDbSymbolTableRecord
100
AcDbTextStyleTableRecord
  2
SLDTEXTSTYLE0
 70
     0
 40
0.0
 41
0.75
 50
0.0
 71
     0
 42
3.5
  3
TXT
  4

  0
ENDTAB
  0
TABLE
  2
VIEW
  5
6
330
0
100
AcDbSymbolTable
 70
     0
  0
ENDTAB
  0
TABLE
  2
UCS
  5
7
330
0
100
AcDbSymbolTable
 70
     0
  0
ENDTAB
  0
TABLE
  2
APPID
  5
9
330
0
100
AcDbSymbolTable
 70
     1
  0
APPID
  5
12
330
9
100
AcDbSymbolTableRecord
100
AcDbRegAppTableRecord
  2
ACAD
 70
     0
  0
ENDTAB
  0
TABLE
  2
DIMSTYLE
  5
A
330
0
100
AcDbSymbolTable
 70
     3
100
AcDbDimStyleTable
  0
DIMSTYLE
105
27
330
A
100
AcDbSymbolTableRecord
100
AcDbDimStyleTableRecord
  2
ISO-25
 70
     0
 41
2.5
 42
0.625
 43
3.75
 44
1.25
 73
     0
 74
     0
 77
     1
 78
     8
140
2.5
141
2.5
143
0.03937007874016
147
0.625
171
     3
172
     1
178
     0
271
     2
272
     2
274
     3
278
    44
283
     0
284
     8
340
11
  0
DIMSTYLE
105
C1
102
{ACAD_REACTORS
330
C0
330
D5
330
E8
102
}
330
A
100
AcDbSymbolTableRecord
100
AcDbDimStyleTableRecord
  2
SLDDIMSTYLE0
 70
     0
 41
3.302
 44
0.0
 45
0.000000001
 73
     0
 74
     0
 77
     1
 78
    12
 79
     3
140
3.5
143
0.0393700787401575
147
0.875
148
0.000000001
170
     1
173
     1
178
     0
271
     2
272
     2
276
     2
284
    12
340
94
  0
DIMSTYLE
105
FC
102
{ACAD_REACTORS
330
FB
102
}
330
A
100
AcDbSymbolTableRecord
100
AcDbDimStyleTableRecord
  2
SLDDIMSTYLE1
 70
     0
 41
3.302
 44
0.0
 45
0.000000001
 73
     0
 74
     0
 77
     1
 78
    12
 79
     3
140
3.5
143
0.0393700787401575
147
0.875
148
0.000000001
170
     1
172
     1
173
     1
178
     0
271
     2
272
     2
276
     2
284
    12
289
     0
340
94
  0
ENDTAB
  0
TABLE
  2
BLOCK_RECORD
  5
1
330
0
100
AcDbSymbolTable
 70
     8
  0
BLOCK_RECORD
  5
1F
330
1
100
AcDbSymbolTableRecord
100
AcDbBlockTableRecord
  2
*Model_Space
340
22
  0
BLOCK_RECORD
  5
1B
330
1
100
AcDbSymbolTableRecord
100
AcDbBlockTableRecord
  2
*Paper_Space
340
1E
  0
BLOCK_RECORD
  5
23
330
1
100
AcDbSymbolTableRecord
100
AcDbBlockTableRecord
  2
*Paper_Space0
340
26
  0
BLOCK_RECORD
  5
7F
330
1
100
AcDbSymbolTableRecord
100
AcDbBlockTableRecord
  2
블럭10
340
0
102
{BLKREFS
331
B9
102
}
  0
BLOCK_RECORD
  5
C2
330
1
100
AcDbSymbolTableRecord
100
AcDbBlockTableRecord
  2
_D
340
0
  0
BLOCK_RECORD
  5
D6
330
1
100
AcDbSymbolTableRecord
100
AcDbBlockTableRecord
  2
_D_1
340
0
  0
BLOCK_RECORD
  5
E9
330
1
100
AcDbSymbolTableRecord
100
AcDbBlockTableRecord
  2
_D_2
340
0
  0
BLOCK_RECORD
  5
FD
330
1
100
AcDbSymbolTableRecord
100
AcDbBlockTableRecord
  2
_D_3
340
0
  0
BLOCK_RECORD
  5
117
330
1
100
AcDbSymbolTableRecord
100
AcDbBlockTableRecord
  2
SW_DOWELSYMBOL_0
340
0
102
{BLKREFS
331
11D
102
}
  0
ENDTAB
  0
ENDSEC
  0
SECTION
  2
BLOCKS
  0
BLOCK
  5
20
330
1F
100
AcDbEntity
  8
0
100
AcDbBlockBegin
  2
*Model_Space
 70
     0
 10
0.0
 20
0.0
 30
0.0
  3
*Model_Space
  1
*Model_Space
  0
ENDBLK
  5
21
330
1F
100
AcDbEntity
  8
0
100
AcDbBlockEnd
  0
BLOCK
  5
1C
330
1B
100
AcDbEntity
 67
     1
  8
0
100
AcDbBlockBegin
  2
*Paper_Space
 70
     0
 10
0.0
 20
0.0
 30
0.0
  3
*Paper_Space
  1
*Paper_Space
  0
ENDBLK
  5
1D
330
1B
100
AcDbEntity
 67
     1
  8
0
100
AcDbBlockEnd
  0
BLOCK
  5
24
330
23
100
AcDbEntity
  8
0
100
AcDbBlockBegin
  2
*Paper_Space0
 70
     0
 10
0.0
 20
0.0
 30
0.0
  3
*Paper_Space0
  1
*Paper_Space0
  0
ENDBLK
  5
25
330
23
100
AcDbEntity
  8
0
100
AcDbBlockEnd
  0
BLOCK
  5
80
330
7F
100
AcDbEntity
  8
0
100
AcDbBlockBegin
  2
블럭10
 70
     2
 10
0.0
 20
0.0
 30
0.0
  3
블럭10
  1
블럭10
  0
ELLIPSE
  5
82
330
7F
100
AcDbEntity
  8
중심선
100
AcDbEllipse
 10
20.54032771741204
 20
12.0471743016438
 30
0.0
 11
6.600054785286829
 21
-1.261213355974178E-13
 31
0.0
210
0.0
220
0.0
230
1.0
 40
0.636358354079598
 41
0.9219305317359503
 42
6.513795318482858
  0
ELLIPSE
  5
83
330
7F
100
AcDbEntity
  8
중심선
100
AcDbEllipse
 10
20.54032771746488
 20
12.04717430159265
 30
0.0
 11
3.960054785062283
 21
1.540847449632565E-10
 31
0.0
210
0.0
220
0.0
230
1.0
 40
0.3939339440162632
 41
1.131841032648279
 42
5.62031148352944
  0
LINE
  5
84
330
7F
100
AcDbEntity
  8
중심선
100
AcDbLine
 10
2.268634060543552
 20
16.24717430164393
 30
0.0
 11
5.714909304380834
 21
16.24717430164393
 31
0.0
  0
LINE
  5
85
330
7F
100
AcDbEntity
  8
중심선
100
AcDbLine
 10
5.245725140726316
 20
7.84717430164391
 30
0.0
 11
8.692000384563599
 21
7.84717430164391
 31
0.0
  0
LINE
  5
86
330
7F
100
AcDbEntity
  8
중심선
100
AcDbLine
 10
15.74043728645272
 20
16.24717430164393
 30
0.0
 11
8.692000384563599
 21
7.84717430164391
 31
0.0
  0
LINE
  5
87
330
7F
100
AcDbEntity
  8
중심선
100
AcDbLine
 10
0.1404042013395286
 20
13.71084872107135
 30
0.0
 11
3.58671253028996
 21
13.71088815037384
 31
0.0
  0
LINE
  5
88
330
7F
100
AcDbEntity
  8
중심선
100
AcDbLine
 10
2.750260043222114
 20
10.84717430164391
 30
0.0
 11
6.196535287059397
 21
10.84717430164391
 31
0.0
  0
LINE
  5
89
330
7F
100
AcDbEntity
  8
중심선
100
AcDbLine
 10
12.29416204261559
 20
16.24717430164393
 30
0.0
 11
5.245725140726316
 21
7.84717430164391
 31
0.0
  0
LINE
  5
8A
330
7F
100
AcDbEntity
  8
중심선
100
AcDbLine
 10
10.72767329541681
 20
16.24717430164393
 30
0.0
 11
6.196535287059397
 21
10.84717430164391
 31
0.0
  0
LINE
  5
8B
330
7F
100
AcDbEntity
  8
중심선
100
AcDbLine
 10
7.28139805157953
 20
16.24717430164393
 30
0.0
 11
2.750260043222114
 21
10.84717430164391
 31
0.0
  0
LINE
  5
8C
330
7F
100
AcDbEntity
  8
중심선
100
AcDbLine
 10
5.714909304380834
 20
16.24717430164393
 30
0.0
 11
3.58671253028996
 21
13.71088815037384
 31
0.0
  0
LINE
  5
8D
330
7F
100
AcDbEntity
  8
중심선
100
AcDbLine
 10
2.268634060543552
 20
16.24717430164393
 30
0.0
 11
0.1404042013395286
 21
13.71084872107135
 31
0.0
  0
LINE
  5
8E
330
7F
100
AcDbEntity
  8
중심선
100
AcDbLine
 10
7.28139805157953
 20
16.24717430164393
 30
0.0
 11
10.72767329541681
 21
16.24717430164393
 31
0.0
  0
LINE
  5
8F
330
7F
100
AcDbEntity
  8
중심선
100
AcDbLine
 10
12.29416204261559
 20
16.24717430164393
 30
0.0
 11
15.74043728645272
 21
16.24717430164393
 31
0.0
  0
LINE
  5
90
330
7F
100
AcDbEntity
  8
중심선
100
AcDbLine
 10
19.22036997980202
 20
11.08717430171403
 30
0.0
 11
23.66174974927406
 21
11.08717430171406
 31
0.0
  0
LINE
  5
91
330
7F
100
AcDbEntity
  8
중심선
100
AcDbLine
 10
19.22039502424796
 20
13.00717430171391
 30
0.0
 11
19.22036997980202
 21
11.08717430171403
 31
0.0
  0
LINE
  5
92
330
7F
100
AcDbEntity
  8
중심선
100
AcDbLine
 10
19.22039502424796
 20
13.00717430171391
 30
0.0
 11
26.96566020931264
 21
13.00717430171391
 31
0.0
  0
LINE
  5
93
330
7F
100
AcDbEntity
  8
중심선
100
AcDbLine
 10
22.22332737316547
 20
13.45928029700563
 30
0.0
 11
24.52862924686651
 21
15.39360700705356
 31
0.0
  0
ATTDEF
  5
95
330
7F
100
AcDbEntity
  8
FORMAT
 62
     2
100
AcDbText
 10
4.408487351596664
 20
2.075366912832191
 30
0.0
 40
4.233333333333333
  1
E2069040
 41
0.75
  7
SLDTEXTSTYLE0
 11
4.408487351596664
 21
-0.0412997538344756
 31
0.0
100
AcDbAttributeDefinition
  3

  2
AUTOATTR0
 70
     0
 74
     1
  0
ENDBLK
  5
81
330
7F
100
AcDbEntity
  8
0
100
AcDbBlockEnd
  0
BLOCK
  5
C3
330
C2
100
AcDbEntity
  8
0
100
AcDbBlockBegin
  2
_D
 70
     0
 10
0.0
 20
0.0
 30
0.0
  3
_D
  1
_D
  0
LINE
  5
C5
330
C2
100
AcDbEntity
  8
치수문자_일반주서
 62
     0
370
    -2
100
AcDbLine
 10
63.50000000000002
 20
1.377514629548135
 30
0.0
 11
63.50000000000002
 21
22.82277225922701
 31
0.0
  0
LINE
  5
C6
330
C2
100
AcDbEntity
  8
치수문자_일반주서
 62
     0
370
    -2
100
AcDbLine
 10
28.57500000000004
 20
8.00000000000001
 30
0.0
 11
28.57500000000004
 21
22.82277225922701
 31
0.0
  0
LINE
  5
C7
330
C2
100
AcDbEntity
  8
치수문자_일반주서
 62
     0
370
    -2
100
AcDbLine
 10
60.19800000000002
 20
22.82277225922701
 30
0.0
 11
31.87700000000004
 21
22.82277225922701
 31
0.0
  0
SOLID
  5
C8
330
C2
100
AcDbEntity
  8
치수문자_일반주서
 62
     0
100
AcDbTrace
 10
60.19800000000002
 20
22.27243892589368
 30
0.0
 11
60.19800000000002
 21
23.37310559256035
 31
0.0
 12
63.50000000000002
 22
22.82277225922701
 32
0.0
 13
63.50000000000002
 23
22.82277225922701
 33
0.0
  0
SOLID
  5
C9
330
C2
100
AcDbEntity
  8
치수문자_일반주서
 62
     0
100
AcDbTrace
 10
31.87700000000004
 20
23.37310559256035
 30
0.0
 11
31.87700000000004
 21
22.27243892589368
 31
0.0
 12
28.57500000000004
 22
22.82277225922701
 32
0.0
 13
28.57500000000004
 23
22.82277225922701
 33
0.0
  0
MTEXT
  5
CA
330
C2
100
AcDbEntity
  8
치수문자_일반주서
 62
     0
100
AcDbMText
 10
46.03750000000003
 20
27.19777225922701
 30
0.0
 40
3.5
 41
0.0
 71
     2
 72
     1
  1
\A1;34.93 [1 3/8]
  7
SLDTEXTSTYLE0
 73
     1
 44
1.0
  0
POINT
  5
CB
330
C2
100
AcDbEntity
  8
Defpoints
 62
     0
100
AcDbPoint
 10
63.50000000000002
 20
1.315014629548135
 30
0.0
  0
POINT
  5
CC
330
C2
100
AcDbEntity
  8
Defpoints
 62
     0
100
AcDbPoint
 10
28.57500000000004
 20
7.937500000000011
 30
0.0
  0
POINT
  5
CD
330
C2
100
AcDbEntity
  8
Defpoints
 62
     0
100
AcDbPoint
 10
28.57500000000004
 20
22.82277225922701
 30
0.0
  0
ENDBLK
  5
C4
330
C2
100
AcDbEntity
  8
0
100
AcDbBlockEnd
  0
BLOCK
  5
D7
330
D6
100
AcDbEntity
  8
0
100
AcDbBlockBegin
  2
_D_1
 70
     0
 10
0.0
 20
0.0
 30
0.0
  3
_D_1
  1
_D_1
  0
LINE
  5
D9
330
D6
100
AcDbEntity
  8
치수문자_일반주서
 62
     0
370
    -2
100
AcDbLine
 10
63.50000000000002
 20
1.377514629548135
 30
0.0
 11
63.50000000000001
 21
35.75282056895201
 31
0.0
  0
LINE
  5
DA
330
D6
100
AcDbEntity
  8
치수문자_일반주서
 62
     0
370
    -2
100
AcDbLine
 10
-63.49999999999999
 20
6.412499999999991
 30
0.0
 11
-63.49999999999999
 21
35.75282056895201
 31
0.0
  0
LINE
  5
DB
330
D6
100
AcDbEntity
  8
치수문자_일반주서
 62
     0
370
    -2
100
AcDbLine
 10
60.19800000000001
 20
35.75282056895201
 30
0.0
 11
-60.19799999999999
 21
35.75282056895201
 31
0.0
  0
SOLID
  5
DC
330
D6
100
AcDbEntity
  8
치수문자_일반주서
 62
     0
100
AcDbTrace
 10
60.19800000000001
 20
35.20248723561868
 30
0.0
 11
60.19800000000001
 21
36.30315390228535
 31
0.0
 12
63.50000000000001
 22
35.75282056895201
 32
0.0
 13
63.50000000000001
 23
35.75282056895201
 33
0.0
  0
SOLID
  5
DD
330
D6
100
AcDbEntity
  8
치수문자_일반주서
 62
     0
100
AcDbTrace
 10
-60.19799999999999
 20
36.30315390228535
 30
0.0
 11
-60.19799999999999
 21
35.20248723561868
 31
0.0
 12
-63.49999999999999
 22
35.75282056895201
 32
0.0
 13
-63.49999999999999
 23
35.75282056895201
 33
0.0
  0
MTEXT
  5
DE
330
D6
100
AcDbEntity
  8
치수문자_일반주서
 62
     0
100
AcDbMText
 10
0.0000000000000142
 20
40.12782056895201
 30
0.0
 40
3.5
 41
0.0
 71
     2
 72
     1
  1
\A1;127 [5]
  7
SLDTEXTSTYLE0
 73
     1
 44
1.0
  0
POINT
  5
DF
330
D6
100
AcDbEntity
  8
Defpoints
 62
     0
100
AcDbPoint
 10
63.50000000000002
 20
1.315014629548135
 30
0.0
  0
POINT
  5
E0
330
D6
100
AcDbEntity
  8
Defpoints
 62
     0
100
AcDbPoint
 10
-63.49999999999999
 20
6.349999999999991
 30
0.0
  0
POINT
  5
E1
330
D6
100
AcDbEntity
  8
Defpoints
 62
     0
100
AcDbPoint
 10
-63.49999999999999
 20
35.75282056895201
 30
0.0
  0
ENDBLK
  5
D8
330
D6
100
AcDbEntity
  8
0
100
AcDbBlockEnd
  0
BLOCK
  5
EA
330
E9
100
AcDbEntity
  8
0
100
AcDbBlockBegin
  2
_D_2
 70
     0
 10
0.0
 20
0.0
 30
0.0
  3
_D_2
  1
_D_2
  0
LINE
  5
EC
330
E9
100
AcDbEntity
  8
치수문자_일반주서
 62
     0
370
    -2
100
AcDbLine
 10
34.65577948048101
 20
7.937500000000017
 30
0.0
 11
81.92504451192133
 21
7.937500000000195
 31
0.0
  0
LINE
  5
ED
330
E9
100
AcDbEntity
  8
치수문자_일반주서
 62
     0
370
    -2
100
AcDbLine
 10
34.65577948048111
 20
-7.937500000000025
 30
0.0
 11
81.92504451192139
 21
-7.937499999999844
 31
0.0
  0
LINE
  5
EE
330
E9
100
AcDbEntity
  8
치수문자_일반주서
 62
     0
370
    -2
100
AcDbLine
 10
81.92504451192133
 20
7.937500000000195
 30
0.0
 11
81.92504451192119
 21
46.03527302296295
 31
0.0
  0
LINE
  5
EF
330
E9
100
AcDbEntity
  8
치수문자_일반주서
 62
     0
370
    -2
100
AcDbLine
 10
81.92504451192134
 20
4.635500000000196
 30
0.0
 11
81.92504451192137
 21
-4.635499999999844
 31
0.0
  0
SOLID
  5
F0
330
E9
100
AcDbEntity
  8
치수문자_일반주서
 62
     0
100
AcDbTrace
 10
82.47537784525467
 20
4.635500000000198
 30
0.0
 11
81.37471117858802
 21
4.635500000000194
 31
0.0
 12
81.92504451192133
 22
7.937500000000195
 32
0.0
 13
81.92504451192133
 23
7.937500000000195
 33
0.0
  0
SOLID
  5
F1
330
E9
100
AcDbEntity
  8
치수문자_일반주서
 62
     0
100
AcDbTrace
 10
81.37471117858804
 20
-4.635499999999846
 30
0.0
 11
82.4753778452547
 21
-4.635499999999842
 31
0.0
 12
81.92504451192139
 22
-7.937499999999844
 32
0.0
 13
81.92504451192139
 23
-7.937499999999844
 33
0.0
  0
MTEXT
  5
F2
330
E9
100
AcDbEntity
  8
치수문자_일반주서
 62
     0
100
AcDbMText
 10
77.55004451192124
 20
32.03527302296293
 30
0.0
 40
3.5
 41
0.0
 71
     2
 72
     1
  1
\A1;%%c15.88 [5/8]
  7
SLDTEXTSTYLE0
 11
-3.580687802255613E-15
 21
1.0
 31
0.0
 73
     1
 44
1.0
  0
POINT
  5
F3
330
E9
100
AcDbEntity
  8
Defpoints
 62
     0
100
AcDbPoint
 10
34.59327948048101
 20
7.937500000000017
 30
0.0
  0
POINT
  5
F4
330
E9
100
AcDbEntity
  8
Defpoints
 62
     0
100
AcDbPoint
 10
34.59327948048111
 20
-7.937500000000025
 30
0.0
  0
POINT
  5
F5
330
E9
100
AcDbEntity
  8
Defpoints
 62
     0
100
AcDbPoint
 10
81.92504451192139
 20
-7.937499999999848
 30
0.0
  0
ENDBLK
  5
EB
330
E9
100
AcDbEntity
  8
0
100
AcDbBlockEnd
  0
BLOCK
  5
FE
330
FD
100
AcDbEntity
  8
0
100
AcDbBlockBegin
  2
_D_3
 70
     0
 10
0.0
 20
0.0
 30
0.0
  3
_D_3
  1
_D_3
  0
LINE
  5
100
330
FD
100
AcDbEntity
  8
치수문자_일반주서
 62
     0
370
    -2
100
AcDbLine
 10
-28.6375
 20
7.908310570256094
 30
0.0
 11
-75.86500000000004
 21
7.908310570255918
 31
0.0
  0
LINE
  5
101
330
FD
100
AcDbEntity
  8
치수문자_일반주서
 62
     0
370
    -2
100
AcDbLine
 10
-28.6375
 20
-7.937500000000004
 30
0.0
 11
-75.86499999999998
 21
-7.937500000000179
 31
0.0
  0
LINE
  5
102
330
FD
100
AcDbEntity
  8
치수문자_일반주서
 62
     0
370
    -2
100
AcDbLine
 10
-75.86500000000002
 20
4.606310570255919
 30
0.0
 11
-75.865
 21
-4.63550000000018
 31
0.0
  0
SOLID
  5
103
330
FD
100
AcDbEntity
  8
치수문자_일반주서
 62
     0
100
AcDbTrace
 10
-75.3146666666667
 20
4.60631057025592
 30
0.0
 11
-76.41533333333335
 21
4.606310570255917
 31
0.0
 12
-75.86500000000004
 22
7.908310570255918
 32
0.0
 13
-75.86500000000004
 23
7.908310570255918
 33
0.0
  0
SOLID
  5
104
330
FD
100
AcDbEntity
  8
치수문자_일반주서
 62
     0
100
AcDbTrace
 10
-76.41533333333332
 20
-4.635500000000182
 30
0.0
 11
-75.31466666666667
 21
-4.635500000000178
 31
0.0
 12
-75.86499999999998
 22
-7.937500000000179
 32
0.0
 13
-75.86499999999998
 23
-7.937500000000179
 33
0.0
  0
MTEXT
  5
105
330
FD
100
AcDbEntity
  8
치수문자_일반주서
 62
     0
100
AcDbMText
 10
-80.24000000000001
 20
-0.0000000000000065
 30
0.0
 40
3.5
 41
0.0
 71
     2
 72
     1
  1
\A1;%%c15.85 [5/8]
  7
SLDTEXTSTYLE0
 11
-3.587283756093098E-15
 21
1.0
 31
0.0
 73
     1
 44
1.0
  0
POINT
  5
106
330
FD
100
AcDbEntity
  8
Defpoints
 62
     0
100
AcDbPoint
 10
-28.575
 20
7.908310570256094
 30
0.0
  0
POINT
  5
107
330
FD
100
AcDbEntity
  8
Defpoints
 62
     0
100
AcDbPoint
 10
-28.575
 20
-7.937500000000004
 30
0.0
  0
POINT
  5
108
330
FD
100
AcDbEntity
  8
Defpoints
 62
     0
100
AcDbPoint
 10
-75.86499999999998
 20
-7.93750000000018
 30
0.0
  0
ENDBLK
  5
FF
330
FD
100
AcDbEntity
  8
0
100
AcDbBlockEnd
  0
BLOCK
  5
118
330
117
100
AcDbEntity
  8
0
100
AcDbBlockBegin
  2
SW_DOWELSYMBOL_0
 70
     0
 10
0.0
 20
0.0
 30
0.0
  3
SW_DOWELSYMBOL_0
  1
SW_DOWELSYMBOL_0
  0
CIRCLE
  5
11A
330
117
100
AcDbEntity
  8
해칭선
 62
     0
100
AcDbCircle
 10
0.0
 20
0.0
 30
0.0
 40
3.000000000000001
  0
HATCH
  5
11B
330
117
100
AcDbEntity
  8
0
  6
Continuous
 62
     0
370
     0
100
AcDbHatch
 10
0.0
 20
0.0
 30
0.0
210
0.0
220
0.0
230
1.0
  2
SOLID
 70
     1
 71
     0
 91
        1
 92
        0
 93
        3
 72
     2
 10
0.0
 20
0.0
 40
3.000000000000001
 50
0.0
 51
90.0
 73
     1
 72
     1
 10
0.0
 20
3.000000000000001
 11
0.0
 21
0.0
 72
     1
 10
0.0
 20
0.0
 11
3.000000000000003
 21
0.0
 97
        0
 75
     0
 76
     1
 98
        1
 10
0.0
 20
0.0
  0
HATCH
  5
11C
330
117
100
AcDbEntity
  8
0
  6
Continuous
 62
     0
370
     0
100
AcDbHatch
 10
0.0
 20
0.0
 30
0.0
210
0.0
220
0.0
230
1.0
  2
SOLID
 70
     1
 71
     0
 91
        1
 92
        0
 93
        3
 72
     2
 10
0.0
 20
0.0
 40
3.000000000000001
 50
180.0
 51
270.0000000000008
 73
     1
 72
     1
 10
0.0
 20
-3.000000000000001
 11
0.0
 21
0.0
 72
     1
 10
0.0
 20
0.0
 11
-3.000000000000003
 21
0.0
 97
        0
 75
     0
 76
     1
 98
        1
 10
0.0
 20
0.0
  0
ENDBLK
  5
119
330
117
100
AcDbEntity
  8
0
100
AcDbBlockEnd
  0
ENDSEC
  0
SECTION
  2
ENTITIES
  0
ARC
  5
96
330
1F
100
AcDbEntity
  8
외형선
  6
Continuous
 62
     1
370
    15
100
AcDbCircle
 10
55.56249999999994
 20
0.0000000000000019
 30
0.0
 40
7.937500000000043
100
AcDbArc
 50
336.002502002635
 51
0.0
  0
ARC
  5
97
330
1F
100
AcDbEntity
  8
외형선
  6
Continuous
 62
     1
370
    15
100
AcDbCircle
 10
55.56249999999994
 20
0.0000000000000019
 30
0.0
 40
7.93750000000004
100
AcDbArc
 50
270.0000000000008
 51
274.4202499055367
  0
ARC
  5
98
330
1F
100
AcDbEntity
  8
외형선
  6
Continuous
 62
     1
370
    15
100
AcDbCircle
 10
55.56249999999994
 20
0.0000000000000019
 30
0.0
 40
7.937500000000035
100
AcDbArc
 50
85.5921002461283
 51
90.0
  0
ARC
  5
99
330
1F
100
AcDbEntity
  8
외형선
  6
Continuous
 62
     1
370
    15
100
AcDbCircle
 10
55.56249999999994
 20
0.0000000000000019
 30
0.0
 40
7.937500000000043
100
AcDbArc
 50
0.0
 51
23.99758017103226
  0
LINE
  5
9A
330
1F
100
AcDbEntity
  8
외형선
  6
Continuous
 62
     1
370
    15
100
AcDbLine
 10
51.3485943097626
 20
-7.937500000000025
 30
0.0
 11
55.56249999999994
 21
-7.937500000000025
 31
0.0
  0
LINE
  5
9B
330
1F
100
AcDbEntity
  8
외형선
  6
Continuous
 62
     1
370
    15
100
AcDbLine
 10
34.59489234635657
 20
7.937500000000017
 30
0.0
 11
29.75451415941082
 21
7.937500000000017
 31
0.0
  0
LINE
  5
9C
330
1F
100
AcDbEntity
  8
외형선
  6
Continuous
 62
     1
370
    15
100
AcDbLine
 10
29.75451415941083
 20
-7.937500000000025
 30
0.0
 11
34.59489234635667
 21
-7.937500000000025
 31
0.0
  0
LINE
  5
9D
330
1F
100
AcDbEntity
  8
외형선
  6
Continuous
 62
     1
370
    15
100
AcDbLine
 10
55.56249999999994
 20
7.937500000000017
 30
0.0
 11
51.3485943097625
 21
7.937500000000017
 31
0.0
  0
LINE
  5
9F
330
1F
100
AcDbEntity
  8
외형선
  6
Continuous
370
    15
100
AcDbLine
 10
28.57500000000001
 20
7.937499999999996
 30
0.0
 11
6.743700000000075
 21
7.937499999999996
 31
0.0
  0
SPLINE
  5
A2
330
1F
100
AcDbEntity
  8
외형선
  6
Continuous
 62
     1
370
    15
100
AcDbSpline
210
0.0
220
0.0
230
1.0
 70
     8
 71
     3
 72
    38
 73
    34
 74
     0
 42
0.000000001
 43
0.00000001
 40
0.0
 40
0.0
 40
0.0
 40
0.0
 40
0.0625
 40
0.0625
 40
0.125
 40
0.125
 40
0.1875
 40
0.1875
 40
0.25
 40
0.25
 40
0.3125
 40
0.3125
 40
0.375
 40
0.375
 40
0.4375
 40
0.4375
 40
0.5
 40
0.5
 40
0.5625
 40
0.5625
 40
0.625
 40
0.625
 40
0.6875
 40
0.6875
 40
0.75
 40
0.75
 40
0.8125
 40
0.8125
 40
0.875
 40
0.875
 40
0.9375
 40
0.9375
 40
1.0
 40
1.0
 40
1.0
 40
1.0
 10
28.575
 20
7.908310570256083
 30
0.0
 10
29.13453155566018
 20
7.936078831399896
 30
0.0
 10
29.69913766595262
 20
7.944080487591152
 30
0.0
 10
30.8258206783112
 20
7.920101990129466
 30
0.0
 10
31.38463793504462
 20
7.888259979206212
 30
0.0
 10
32.50978605861444
 20
7.785090950073685
 30
0.0
 10
33.0749080306411
 20
7.713687724683852
 30
0.0
 10
34.19753113090856
 20
7.53293772765814
 30
0.0
 10
34.75826665339876
 20
7.423491820935906
 30
0.0
 10
35.88545828691474
 20
7.167505866111339
 30
0.0
 10
36.44622375314591
 20
7.021398202518122
 30
0.0
 10
37.5688153777644
 20
6.694712898748246
 30
0.0
 10
38.13393468139795
 20
6.513750741801775
 30
0.0
 10
39.25910380550805
 20
6.120584521138055
 30
0.0
 10
39.81791113970951
 20
5.908618542988303
 30
0.0
 10
40.94458358167952
 20
5.454983258973932
 30
0.0
 10
41.50919763424383
 20
5.213671743457067
 30
0.0
 10
42.62830249496623
 20
4.707666337643354
 30
0.0
 10
43.19285893531141
 20
4.441460321230132
 30
0.0
 10
44.31955240942994
 20
3.888434000503389
 30
0.0
 10
44.8783797949099
 20
3.602219577271758
 30
0.0
 10
46.00350680980382
 20
3.011920274432894
 30
0.0
 10
46.56863139533797
 20
2.707995474547408
 30
0.0
 10
47.69128586392824
 20
2.089467093818369
 30
0.0
 10
48.251991648277
 20
1.774305446894391
 30
0.0
 10
49.37918317300078
 20
1.13557443646995
 30
0.0
 10
49.93997878856258
 20
0.8130848877848852
 30
0.0
 10
51.06253883021613
 20
0.1654699970058728
 30
0.0
 10
51.62765541057173
 20
-0.1603027894887186
 30
0.0
 10
52.75284542707987
 20
-0.8084473506099487
 30
0.0
 10
53.31164304496707
 20
-1.130578459553327
 30
0.0
 10
54.43830480792322
 20
-1.769285681876727
 30
0.0
 10
55.00292674803871
 20
-2.085222680117612
 30
0.0
 10
55.56249999999992
 20
-2.394223111302189
 30
0.0
  0
SPLINE
  5
A3
330
1F
100
AcDbEntity
  8
외형선
  6
Continuous
 62
     1
370
    15
100
AcDbSpline
210
0.0
220
0.0
230
1.0
 70
     8
 71
     3
 72
    54
 73
    50
 74
     0
 42
0.000000001
 43
0.00000001
 40
0.0
 40
0.0
 40
0.0
 40
0.0
 40
0.0624999999999965
 40
0.0624999999999965
 40
0.0937499999999956
 40
0.0937499999999956
 40
0.1249999999999947
 40
0.1249999999999947
 40
0.1874999999999944
 40
0.1874999999999944
 40
0.2187499999999944
 40
0.2187499999999944
 40
0.2499999999999943
 40
0.2499999999999943
 40
0.3124999999999942
 40
0.3124999999999942
 40
0.3749999999999953
 40
0.3749999999999953
 40
0.4062499999999958
 40
0.4062499999999958
 40
0.4374999999999964
 40
0.4374999999999964
 40
0.4687499999999969
 40
0.4687499999999969
 40
0.4999999999999974
 40
0.4999999999999974
 40
0.5312499999999979
 40
0.5312499999999979
 40
0.5624999999999983
 40
0.5624999999999983
 40
0.5937499999999989
 40
0.5937499999999989
 40
0.6249999999999994
 40
0.6249999999999994
 40
0.65625
 40
0.65625
 40
0.6875000000000004
 40
0.6875000000000004
 40
0.7500000000000016
 40
0.7500000000000016
 40
0.7812500000000013
 40
0.7812500000000013
 40
0.8125000000000011
 40
0.8125000000000011
 40
0.8750000000000008
 40
0.8750000000000008
 40
0.9375000000000003
 40
0.9375000000000003
 40
1.0
 40
1.0
 40
1.0
 40
1.0
 10
55.56249999999992
 20
-2.394223111302181
 30
0.0
 10
55.96539498950414
 20
-2.616704663167944
 30
0.0
 10
56.36688255694026
 20
-2.815802999380566
 30
0.0
 10
56.97116735491793
 20
-3.073273559908648
 30
0.0
 10
57.17291021479748
 20
-3.152246716209736
 30
0.0
 10
57.5774269432692
 20
-3.295532455291658
 30
0.0
 10
57.78132570307358
 20
-3.360131566797283
 30
0.0
 10
58.38507315559144
 20
-3.52791555127863
 30
0.0
 10
58.77691368721784
 20
-3.605020943087363
 30
0.0
 10
59.34883199995298
 20
-3.670721681094856
 30
0.0
 10
59.53674197945806
 20
-3.684418893512185
 30
0.0
 10
59.90641711455061
 20
-3.696365109262216
 30
0.0
 10
60.08813244596845
 20
-3.694516734938822
 30
0.0
 10
60.61219840970023
 20
-3.668703665926206
 30
0.0
 10
60.93746585260735
 20
-3.624736839254913
 30
0.0
 10
61.53381519421844
 20
-3.503731483161344
 30
0.0
 10
61.80574615661283
 20
-3.425939964746941
 30
0.0
 10
62.15024674504851
 20
-3.312909762860166
 30
0.0
 10
62.25511331593037
 20
-3.275797746504351
 30
0.0
 10
62.44295575548347
 20
-3.20823108311065
 30
0.0
 10
62.52628654266469
 20
-3.17762674518172
 30
0.0
 10
62.66619629806473
 20
-3.130784192042463
 30
0.0
 10
62.72218532895005
 20
-3.114742671589432
 30
0.0
 10
62.80339219032202
 20
-3.105386274386078
 30
0.0
 10
62.8286656051742
 20
-3.112315938482802
 30
0.0
 10
62.84223603212913
 20
-3.158471168901822
 30
0.0
 10
62.83101315183033
 20
-3.197273616711055
 30
0.0
 10
62.76813249511407
 20
-3.315598568130724
 30
0.0
 10
62.71677059684631
 20
-3.39424326893642
 30
0.0
 10
62.57697166577903
 20
-3.588677069196117
 30
0.0
 10
62.48625943760094
 20
-3.707461022796178
 30
0.0
 10
62.27531509131163
 20
-3.971814451871995
 30
0.0
 10
62.15413930892091
 20
-4.118670309559596
 30
0.0
 10
61.88740912429125
 20
-4.430611933755747
 30
0.0
 10
61.7447025078804
 20
-4.592400824691051
 30
0.0
 10
61.44104772255738
 20
-4.923797474213813
 30
0.0
 10
61.28236222131434
 20
-5.090803072183654
 30
0.0
 10
60.79602774925653
 20
-5.580797537817681
 30
0.0
 10
60.44935619159764
 20
-5.900614617378579
 30
0.0
 10
59.92385144831962
 20
-6.329917708959011
 30
0.0
 10
59.74672257398537
 20
-6.46581312677793
 30
0.0
 10
59.38693393979597
 20
-6.722719028173795
 30
0.0
 10
59.20324083954575
 20
-6.844305094541312
 30
0.0
 10
58.65204274168941
 20
-7.179109654341943
 30
0.0
 10
58.28314595391922
 20
-7.364150715418599
 30
0.0
 10
57.5287456830852
 20
-7.660002228248882
 30
0.0
 10
57.1403819053286
 20
-7.770868228711179
 30
0.0
 10
56.35953577769528
 20
-7.910128505554145
 30
0.0
 10
55.96520928697667
 20
-7.939878662623527
 30
0.0
 10
55.56249999999995
 20
-7.929241996340139
 30
0.0
  0
SPLINE
  5
A4
330
1F
100
AcDbEntity
  8
외형선
  6
Continuous
 62
     1
370
    15
100
AcDbSpline
210
0.0
220
0.0
230
1.0
 70
     8
 71
     3
 72
    38
 73
    34
 74
     0
 42
0.000000001
 43
0.00000001
 40
0.0
 40
0.0
 40
0.0
 40
0.0
 40
0.0625
 40
0.0625
 40
0.125
 40
0.125
 40
0.1875
 40
0.1875
 40
0.25
 40
0.25
 40
0.3125
 40
0.3125
 40
0.375
 40
0.375
 40
0.4375
 40
0.4375
 40
0.5
 40
0.5
 40
0.5625
 40
0.5625
 40
0.625
 40
0.625
 40
0.6875
 40
0.6875
 40
0.75
 40
0.75
 40
0.8125
 40
0.8125
 40
0.875
 40
0.875
 40
0.9375
 40
0.9375
 40
1.0
 40
1.0
 40
1.0
 40
1.0
 10
28.57500000000002
 20
3.365175123507867
 30
0.0
 10
29.13453155566024
 20
3.071655046645567
 30
0.0
 10
29.69913766595263
 20
2.768803388695133
 30
0.0
 10
30.8258206783112
 20
2.151147894604105
 30
0.0
 10
31.38463793504464
 20
1.836980589422103
 30
0.0
 10
32.50978605861444
 20
1.199624025723807
 30
0.0
 10
33.0749080306411
 20
0.8766436753896577
 30
0.0
 10
34.19753113090857
 20
0.2293594242472111
 30
0.0
 10
34.75826665339875
 20
-0.0955589078592922
 30
0.0
 10
35.88545828691477
 20
-0.7443883002033891
 30
0.0
 10
36.44622375314587
 20
-1.06720201072053
 30
0.0
 10
37.56881537776436
 20
-1.706079162570814
 30
0.0
 10
38.13393468139794
 20
-2.022752156659177
 30
0.0
 10
39.25910380550803
 20
-2.643418681647919
 30
0.0
 10
39.81791113970947
 20
-2.947215024206147
 30
0.0
 10
40.94458358167948
 20
-3.540134896765068
 30
0.0
 10
41.50919763424383
 20
-3.828636068041179
 30
0.0
 10
42.62830249496623
 20
-4.383357487277141
 30
0.0
 10
43.19285893531147
 20
-4.651236631142125
 30
0.0
 10
44.31955240942998
 20
-5.161895682131821
 30
0.0
 10
44.8783797949099
 20
-5.40424150305589
 30
0.0
 10
46.00350680980382
 20
-5.861727366821265
 30
0.0
 10
46.56863139533795
 20
-6.076624760280677
 30
0.0
 10
47.69128586392829
 20
-6.473957534675879
 30
0.0
 10
48.25199164827698
 20
-6.656827799700721
 30
0.0
 10
49.37918317300072
 20
-6.988855706214828
 30
0.0
 10
49.93997878856255
 20
-7.137450331881146
 30
0.0
 10
51.06253883021606
 20
-7.398291098034245
 30
0.0
 10
51.62765541057171
 20
-7.510726731008096
 30
0.0
 10
52.75284542707983
 20
-7.697011008114419
 30
0.0
 10
53.31164304496708
 20
-7.770899040303739
 30
0.0
 10
54.43830480792322
 20
-7.879734082272932
 30
0.0
 10
55.00292674803877
 20
-7.914462118808863
 30
0.0
 10
55.56249999999998
 20
-7.929241996340138
 30
0.0
  0
SPLINE
  5
A5
330
1F
100
AcDbEntity
  8
외형선
  6
Continuous
 62
     1
370
    15
100
AcDbSpline
210
0.0
220
0.0
230
1.0
 70
     8
 71
     3
 72
    17
 73
    13
 74
     0
 42
0.000000001
 43
0.00000001
 40
0.0
 40
0.0
 40
0.0
 40
0.0
 40
0.1106264385537986
 40
0.2212418226921531
 40
0.3318478448596662
 40
0.4424462051811425
 40
0.5530386100766099
 40
0.6636267708653316
 40
0.7678837325315443
 40
0.8721424904030369
 40
0.9764130015926694
 40
1.0
 40
1.0
 40
1.0
 40
1.0
 10
28.575
 20
0.6800957097175717
 30
0.0
 10
29.41484815699919
 20
0.1948899591379987
 30
0.0
 10
31.09446054864986
 20
-0.7754730575357673
 30
0.0
 10
33.61370069500387
 20
-2.211197832659839
 30
0.0
 10
36.13268772165208
 20
-3.571241684350469
 30
0.0
 10
38.65146998725356
 20
-4.812034002543606
 30
0.0
 10
41.17006862959039
 20
-5.892034157974607
 30
0.0
 10
43.64058705795831
 20
-6.756463820943316
 30
0.0
 10
46.0627377058752
 20
-7.397718185390682
 30
0.0
 10
48.43701488941878
 20
-7.786442718241662
 30
0.0
 10
50.19894767292222
 20
-7.957479249407007
 30
0.0
 10
51.16954051805047
 20
-7.923132947980659
 30
0.0
 10
51.3485943097626
 20
-7.916796783921196
 30
0.0
  0
SPLINE
  5
A6
330
1F
100
AcDbEntity
  8
외형선
  6
Continuous
 62
     1
370
    15
100
AcDbSpline
210
0.0
220
0.0
230
1.0
 70
     8
 71
     3
 72
    14
 73
    10
 74
     0
 42
0.000000001
 43
0.00000001
 40
0.0
 40
0.0
 40
0.0
 40
0.0
 40
0.0023991867662418
 40
0.1769639779163991
 40
0.3415348075119772
 40
0.5061081346978652
 40
0.6706996774798174
 40
0.835325105742618
 40
1.0
 40
1.0
 40
1.0
 40
1.0
 10
43.00195865821762
 20
-6.497217215585493
 30
0.0
 10
42.99042067402446
 20
-6.501512440862602
 30
0.0
 10
42.13937914249964
 20
-6.818328189340095
 30
0.0
 10
40.49686423406673
 20
-7.240477190965088
 30
0.0
 10
38.07471228305614
 20
-7.72648075930139
 30
0.0
 10
35.7004471236201
 20
-7.950936090365157
 30
0.0
 10
33.32588052016536
 20
-7.940816525815655
 30
0.0
 10
30.95073645838595
 20
-7.708010200000437
 30
0.0
 10
29.36699145378237
 20
-7.361917869283005
 30
0.0
 10
28.57500000000004
 20
-7.188845709717502
 30
0.0
  0
SPLINE
  5
A7
330
1F
100
AcDbEntity
  8
외형선
  6
Continuous
 62
     1
370
    15
100
AcDbSpline
210
0.0
220
0.0
230
1.0
 70
     8
 71
     3
 72
    13
 73
     9
 74
     0
 42
0.000000001
 43
0.00000001
 40
0.0
 40
0.0
 40
0.0
 40
0.0
 40
0.0546651596256912
 40
0.2436895813366837
 40
0.4327172596807004
 40
0.6217662475289366
 40
0.8108545414596776
 40
1.0
 40
1.0
 40
1.0
 40
1.0
 10
43.00195865821753
 20
6.497217215585486
 30
0.0
 10
43.23084056065643
 20
6.578905411715533
 30
0.0
 10
44.25116384083694
 20
6.943059883254374
 30
0.0
 10
46.06273254110283
 20
7.384623692076823
 30
0.0
 10
48.4370099823985
 20
7.802054254056542
 30
0.0
 10
50.81158409708305
 20
7.967586691028196
 30
0.0
 10
53.18674413169185
 20
7.916208324379205
 30
0.0
 10
54.77050158981852
 20
7.683948033845804
 30
0.0
 10
55.56249999999991
 20
7.567800337172412
 30
0.0
  0
SPLINE
  5
A8
330
1F
100
AcDbEntity
  8
외형선
  6
Continuous
 62
     1
370
    15
100
AcDbSpline
210
0.0
220
0.0
230
1.0
 70
     8
 71
     3
 72
    54
 73
    50
 74
     0
 42
0.000000001
 43
0.00000001
 40
0.0
 40
0.0
 40
0.0
 40
0.0
 40
0.0624999999999955
 40
0.0624999999999955
 40
0.0937499999999941
 40
0.0937499999999941
 40
0.1249999999999928
 40
0.1249999999999928
 40
0.1874999999999915
 40
0.1874999999999915
 40
0.2187499999999909
 40
0.2187499999999909
 40
0.2499999999999903
 40
0.2499999999999903
 40
0.3124999999999904
 40
0.3124999999999904
 40
0.3749999999999917
 40
0.3749999999999917
 40
0.4062499999999924
 40
0.4062499999999924
 40
0.4374999999999931
 40
0.4374999999999931
 40
0.4687499999999938
 40
0.4687499999999938
 40
0.4999999999999946
 40
0.4999999999999946
 40
0.5312499999999952
 40
0.5312499999999952
 40
0.5624999999999959
 40
0.5624999999999959
 40
0.5937499999999967
 40
0.5937499999999967
 40
0.6249999999999973
 40
0.6249999999999973
 40
0.656249999999998
 40
0.656249999999998
 40
0.6874999999999987
 40
0.6874999999999987
 40
0.75
 40
0.75
 40
0.78125
 40
0.78125
 40
0.8125
 40
0.8125
 40
0.875
 40
0.875
 40
0.9375
 40
0.9375
 40
1.0
 40
1.0
 40
1.0
 40
1.0
 10
55.56249999999992
 20
7.567800337172428
 30
0.0
 10
55.96539498950415
 20
7.497413903917979
 30
0.0
 10
56.36688255694025
 20
7.391810001475507
 30
0.0
 10
56.9711673549179
 20
7.185209379582563
 30
0.0
 10
57.17291021479756
 20
7.108242201021707
 30
0.0
 10
57.57742694326917
 20
6.938063336232399
 30
0.0
 10
57.78132570307361
 20
6.844265803746721
 30
0.0
 10
58.38507315559141
 20
6.542610950603532
 30
0.0
 10
58.77691368721781
 20
6.315561016025703
 30
0.0
 10
59.34883199995298
 20
5.936847445279872
 30
0.0
 10
59.53674197945805
 20
5.804141150974766
 30
0.0
 10
59.90641711455067
 20
5.524931264327009
 30
0.0
 10
60.08813244596852
 20
5.378335937183982
 30
0.0
 10
60.61219840970026
 20
4.925306306057677
 30
0.0
 10
60.93746585260738
 20
4.603015298436939
 30
0.0
 10
61.53381519421841
 20
3.909473807738282
 30
0.0
 10
61.80574615661286
 20
3.535720717409619
 30
0.0
 10
62.15024674504851
 20
2.946740311794732
 30
0.0
 10
62.25511331593039
 20
2.745039008292577
 30
0.0
 10
62.44295575548347
 20
2.32889350203405
 30
0.0
 10
62.52628654266469
 20
2.113419041329368
 30
0.0
 10
62.66619629806478
 20
1.671485577402236
 30
0.0
 10
62.72218532895011
 20
1.447326213488651
 30
0.0
 10
62.80339219032205
 20
0.9917285228538767
 30
0.0
 10
62.82866560517423
 20
0.7577656639426392
 30
0.0
 10
62.84223603212916
 20
0.2956096783555128
 30
0.0
 10
62.83101315183035
 20
0.0677962605423221
 30
0.0
 10
62.76813249511407
 20
-0.3796114220580529
 30
0.0
 10
62.71677059684631
 20
-0.593776024731624
 30
0.0
 10
62.57697166577901
 20
-0.9877394657375204
 30
0.0
 10
62.48625943760091
 20
-1.172204488595309
 30
0.0
 10
62.27531509131166
 20
-1.490160681994649
 30
0.0
 10
62.15413930892091
 20
-1.626467050497302
 30
0.0
 10
61.88740912429123
 20
-1.850338192339523
 30
0.0
 10
61.74470250788037
 20
-1.936151972741621
 30
0.0
 10
61.44104772255741
 20
-2.063335346267682
 30
0.0
 10
61.28236222131439
 20
-2.103371156372714
 30
0.0
 10
60.79602774925656
 20
-2.163850105203626
 30
0.0
 10
60.44935619159767
 20
-2.125527987893591
 30
0.0
 10
59.92385144831962
 20
-1.991935343182973
 30
0.0
 10
59.74672257398537
 20
-1.934661886016662
 30
0.0
 10
59.38693393979599
 20
-1.798924250944133
 30
0.0
 10
59.20324083954578
 20
-1.71990596894525
 30
0.0
 10
58.65204274168941
 20
-1.460726527408786
 30
0.0
 10
58.28314595391928
 20
-1.258264592570082
 30
0.0
 10
57.52874568308525
 20
-0.8210382012208068
 30
0.0
 10
57.14038190532865
 20
-0.5842549865336345
 30
0.0
 10
56.35953577769532
 20
-0.109814476000148
 30
0.0
 10
55.96520928697667
 20
0.1289774358007535
 30
0.0
 10
55.56249999999994
 20
0.3619773659724356
 30
0.0
  0
SPLINE
  5
A9
330
1F
100
AcDbEntity
  8
외형선
  6
Continuous
 62
     1
370
    15
100
AcDbSpline
210
0.0
220
0.0
230
1.0
 70
     8
 71
     3
 72
    16
 73
    12
 74
     0
 42
0.000000001
 43
0.00000001
 40
0.0
 40
0.0
 40
0.0
 40
0.0
 40
0.1201557882486262
 40
0.2402995197611872
 40
0.3604330118102055
 40
0.4805581106676264
 40
0.6006766695011548
 40
0.7207905468584134
 40
0.8340278171715455
 40
0.9472668060171158
 40
1.0
 40
1.0
 40
1.0
 40
1.0
 10
55.56249999999998
 20
0.361977365972447
 30
0.0
 10
54.72264780983483
 20
0.845085143952955
 30
0.0
 10
53.04302770239997
 20
1.811252223656147
 30
0.0
 10
50.52377689892671
 20
3.196686261842398
 30
0.0
 10
48.00478083687673
 20
4.475852338081423
 30
0.0
 10
45.48599146886782
 20
5.605203824655305
 30
0.0
 10
42.96738699628841
 20
6.545953478009448
 30
0.0
 10
40.49686646715583
 20
7.257554701153377
 30
0.0
 10
38.07470967024995
 20
7.714615702631273
 30
0.0
 10
36.12339964688631
 20
7.934282383748458
 30
0.0
 10
34.96343871297206
 20
7.914378631104698
 30
0.0
 10
34.59489234635657
 20
7.908054749407992
 30
0.0
  0
SPLINE
  5
AA
330
1F
100
AcDbEntity
  8
외형선
  6
Continuous
 62
     1
370
    15
100
AcDbSpline
210
0.0
220
0.0
230
1.0
 70
     8
 71
     3
 72
    20
 73
    16
 74
     0
 42
0.000000001
 43
0.00000001
 40
0.0
 40
0.0
 40
0.0
 40
0.0
 40
0.0257204880752641
 40
0.0765246991664835
 40
0.1293043855473515
 40
0.2183850380633804
 40
0.3087148013149102
 40
0.3738570183448947
 40
0.4408649838601394
 40
0.5307128082895686
 40
0.6230822061820415
 40
0.7434591267387707
 40
0.8672555355680641
 40
0.9687991792483809
 40
0.9999999999999999
 40
0.9999999999999999
 40
0.9999999999999999
 40
0.9999999999999999
 10
62.80997272419543
 20
3.226802661148002
 30
0.0
 10
62.80340981563285
 20
3.243553839216017
 30
0.0
 10
62.78388356862153
 20
3.293392662592459
 30
0.0
 10
62.68241933509125
 20
3.444730368958326
 30
0.0
 10
62.46879511472914
 20
3.733811936134142
 30
0.0
 10
62.08914867825491
 20
4.202341733562761
 30
0.0
 10
61.58785308381615
 20
4.771323757693005
 30
0.0
 10
61.08564158187358
 20
5.295235761841755
 30
0.0
 10
60.55753787353256
 20
5.802424715117183
 30
0.0
 10
59.9393156354088
 20
6.330236318554839
 30
0.0
 10
59.16519704263386
 20
6.887233758521293
 30
0.0
 10
58.28009136796641
 20
7.384852556424258
 30
0.0
 10
57.34424144326341
 20
7.7217233026786
 30
0.0
 10
56.63593110488896
 20
7.885242495744484
 30
0.0
 10
56.26050925509308
 20
7.897386792360901
 30
0.0
 10
56.17226851457071
 20
7.900241239237501
 30
0.0
  0
LINE
  5
AB
330
1F
100
AcDbEntity
  8
외형선
  6
Continuous
370
    15
100
AcDbLine
 10
28.57500000000001
 20
0.6800957097175714
 30
0.0
 11
28.57500000000002
 21
3.365175123507867
 31
0.0
  0
LINE
  5
AC
330
1F
100
AcDbEntity
  8
외형선
  6
Continuous
 62
     1
370
    15
100
AcDbLine
 10
28.575
 20
-7.908310570256091
 30
0.0
 11
29.75451415941083
 21
-7.904347969044438
 31
0.0
  0
LINE
  5
AD
330
1F
100
AcDbEntity
  8
외형선
  6
Continuous
370
    15
100
AcDbLine
 10
28.57500000000001
 20
-7.908310570256091
 30
0.0
 11
28.57500000000002
 21
-7.1888457097175
 31
0.0
  0
LINE
  5
AE
330
1F
100
AcDbEntity
  8
외형선
  6
Continuous
370
    15
100
AcDbLine
 10
28.57500000000001
 20
-0.000000000000004
 30
0.0
 11
28.57500000000001
 21
7.937499999999996
 31
0.0
  0
LINE
  5
AF
330
1F
100
AcDbEntity
  8
외형선
  6
Continuous
370
    15
100
AcDbLine
 10
28.57500000000001
 20
-7.937500000000004
 30
0.0
 11
28.57500000000001
 21
-0.000000000000004
 31
0.0
  0
LINE
  5
B4
330
1F
100
AcDbEntity
  8
중심선
 62
     1
100
AcDbLine
 10
-66.49999999999999
 20
-0.0000000000000079
 30
0.0
 11
66.5
 21
0.0000000000000079
 31
0.0
  0
LINE
  5
B5
330
1F
100
AcDbEntity
  8
치수문자_일반주서
 62
     1
100
AcDbLine
 10
63.49999999999999
 20
-0.000000000000008
 30
0.0
 11
63.49999999999999
 21
1.315014629548148
 31
0.0
  0
LINE
  5
B6
330
1F
100
AcDbEntity
  8
참조1
100
AcDbLine
 10
0.0000000000000036
 20
-0.000000000000008
 30
0.0
 11
0.0000000000000107
 21
-40.00000000000001
 31
0.0
  0
LINE
  5
B7
330
1F
100
AcDbEntity
  8
참조1
100
AcDbLine
 10
0.0000000000000107
 20
-40.00000000000001
 30
0.0
 11
-39.76510681430865
 21
-40.0
 31
0.0
  0
CIRCLE
  5
B8
330
1F
100
AcDbEntity
  8
해칭선
100
AcDbCircle
 10
0.0
 20
0.0
 30
0.0
 40
3.000000000000001
  0
INSERT
  5
B9
330
1F
100
AcDbEntity
  8
0
  6
Continuous
 62
     7
100
AcDbBlockReference
 66
     1
  2
블럭10
 10
-13.9402729321252
 20
-52.04717430164393
 30
0.0
  0
ATTRIB
  5
BA
330
B9
100
AcDbEntity
  8
FORMAT
 62
     2
100
AcDbText
 10
-23.12156822086648
 20
-49.97180738881175
 30
0.0
 40
4.233333333333333
  1
E2069040 [ 4 FLUTE ]
 41
0.75
  7
SLDTEXTSTYLE0
 11
-23.12156822086648
 21
-52.08847405547841
 31
0.0
100
AcDbAttribute
  2
AUTOATTR0
 70
     0
 74
     1
  0
SEQEND
  5
BB
330
B9
100
AcDbEntity
  8
0
  6
Continuous
 62
     7
  0
HATCH
  5
BC
330
1F
100
AcDbEntity
  8
중심선
100
AcDbHatch
 10
0.0
 20
0.0
 30
0.0
210
0.0
220
0.0
230
1.0
  2
SOLID
 70
     1
 71
     0
 91
        1
 92
        0
 93
        4
 72
     1
 10
-8.225363627744352
 20
-35.8
 11
-11.67163887158164
 21
-35.8
 72
     1
 10
-11.67163887158164
 20
-35.8
 11
-13.79986873078566
 21
-38.3363255805726
 72
     1
 10
-13.79986873078566
 20
-38.3363255805726
 11
-10.3535604018352
 21
-38.33628615127011
 72
     1
 10
-10.3535604018352
 20
-38.33628615127011
 11
-8.225363627744352
 21
-35.8
 97
        0
 75
     0
 76
     1
 98
        1
 10
-10.08676131403117
 20
-0.0010749287238972
  0
HATCH
  5
BD
330
1F
100
AcDbEntity
  8
중심선
100
AcDbHatch
 10
0.0
 20
0.0
 30
0.0
210
0.0
220
0.0
230
1.0
  2
SOLID
 70
     1
 71
     0
 91
        1
 92
        0
 93
        4
 72
     1
 10
-3.212599636708373
 20
-35.79999999999998
 11
-6.658874880545655
 21
-35.79999999999998
 72
     1
 10
-6.658874880545655
 20
-35.79999999999998
 11
-11.19001288890307
 21
-41.20000000000002
 72
     1
 10
-11.19001288890307
 20
-41.20000000000002
 11
-7.743737645065789
 21
-41.20000000000002
 72
     1
 10
-7.743737645065789
 20
-41.20000000000002
 11
-3.212599636708372
 21
-35.79999999999998
 97
        0
 75
     0
 76
     1
 98
        1
 10
-10.08676131403117
 20
-0.0010749287238972
  0
HATCH
  5
BE
330
1F
100
AcDbEntity
  8
중심선
100
AcDbHatch
 10
0.0
 20
0.0
 30
0.0
210
0.0
220
0.0
230
1.0
  2
SOLID
 70
     1
 71
     0
 91
        1
 92
        0
 93
        4
 72
     1
 10
1.800164354327523
 20
-35.8
 11
-1.646110889509593
 21
-35.79999999999998
 72
     1
 10
-1.646110889509593
 20
-35.79999999999998
 11
-8.69454779139887
 21
-44.20000000000002
 72
     1
 10
-8.69454779139887
 20
-44.20000000000002
 11
-5.248272547561587
 21
-44.20000000000002
 72
     1
 10
-5.248272547561587
 20
-44.20000000000002
 11
1.800164354327523
 21
-35.8
 97
        0
 75
     0
 76
     1
 98
        1
 10
-10.08676131403117
 20
-0.0010749287238972
  0
HATCH
  5
BF
330
1F
100
AcDbEntity
  8
중심선
100
AcDbHatch
 10
0.0
 20
0.0
 30
0.0
210
0.0
220
0.0
230
1.0
  2
SOLID
 70
     1
 71
     0
 91
        1
 92
        0
 93
        6
 72
     3
 10
6.600054785339694
 20
-40.00000000005127
 11
3.960054785062283
 21
1.540882976769353E-10
 40
0.3939339440162628
 50
17.09539180608437
 51
320.0019657685082
 73
     0
 72
     1
 10
8.28305444104026
 20
-38.58789400463833
 11
10.58835631474133
 21
-36.65356729459038
 72
     3
 10
6.600054785286847
 20
-40.00000000000015
 11
6.600054785286829
 21
-1.278976924368180E-13
 40
0.636358354079598
 50
39.99873849337411
 51
368.4976242363725
 73
     1
 72
     1
 10
13.02538727718746
 20
-39.03999999993002
 11
5.280122092122797
 21
-39.03999999993
 72
     1
 10
5.280122092122797
 20
-39.03999999993
 11
5.280097047676836
 21
-40.95999999992991
 72
     1
 10
5.280097047676836
 20
-40.95999999992991
 11
9.721476817148872
 21
-40.95999999992988
 97
        0
 75
     0
 76
     1
 98
        1
 10
-10.08676131403117
 20
-0.0010749287238972
  0
DIMENSION
  5
C0
330
1F
100
AcDbEntity
  8
치수문자_일반주서
100
AcDbDimension
  2
_D
 10
28.57500000000004
 20
22.82277225922701
 30
0.0
 11
46.03750000000003
 21
22.82277225922701
 31
0.0
 70
   160
  1
<>
 71
     2
 42
34.92499999999998
  3
SLDDIMSTYLE0
100
AcDbAlignedDimension
 13
63.50000000000002
 23
1.315014629548135
 33
0.0
 14
28.57500000000004
 24
7.937500000000011
 34
0.0
 50
0.0000000000000058
100
AcDbRotatedDimension
1001
ACAD
1000
DSTYLE
1002
{
1070
   171
1070
     6
1070
   273
1070
     7
1002
}
  0
DIMENSION
  5
D5
330
1F
100
AcDbEntity
  8
치수문자_일반주서
100
AcDbDimension
  2
_D_1
 10
-63.49999999999999
 20
35.75282056895201
 30
0.0
 11
0.0000000000000142
 21
35.75282056895201
 31
0.0
 70
   160
  1
<>
 71
     2
 42
127.0
  3
SLDDIMSTYLE0
100
AcDbAlignedDimension
 13
63.50000000000002
 23
1.315014629548135
 33
0.0
 14
-63.49999999999999
 24
6.349999999999991
 34
0.0
 50
0.0000000000000064
100
AcDbRotatedDimension
1001
ACAD
1000
DSTYLE
1002
{
1070
   171
1070
     6
1070
   273
1070
     7
1002
}
  0
DIMENSION
  5
E8
330
1F
100
AcDbEntity
  8
치수문자_일반주서
100
AcDbDimension
  2
_D_2
 10
81.92504451192139
 20
-7.937499999999844
 30
0.0
 11
81.92504451192124
 21
32.03527302296295
 31
0.0
 70
   160
  1
%%c<>
 71
     2
 42
15.87500000000004
 52
-270.0
  3
SLDDIMSTYLE0
100
AcDbAlignedDimension
 13
34.59327948048101
 23
7.937500000000017
 33
0.0
 14
34.59327948048111
 24
-7.937500000000025
 34
0.0
 50
90.0000000000002
100
AcDbRotatedDimension
1001
ACAD
1000
DSTYLE
1002
{
1070
   171
1070
     6
1070
   273
1070
     7
1002
}
  0
DIMENSION
  5
FB
330
1F
100
AcDbEntity
  8
치수문자_일반주서
100
AcDbDimension
  2
_D_3
 10
-75.86499999999998
 20
-7.937500000000179
 30
0.0
 11
-75.86500000000001
 21
0.000000000000009
 31
0.0
 70
   160
  1
%%c<>
 71
     2
 42
15.8458105702561
 52
-270.0
  3
SLDDIMSTYLE1
100
AcDbAlignedDimension
 13
-28.575
 23
7.908310570256094
 33
0.0
 14
-28.575
 24
-7.937500000000004
 34
0.0
 50
90.0000000000002
100
AcDbRotatedDimension
1001
ACAD
1000
DSTYLE
1002
{
1070
   171
1070
     6
1070
   273
1070
     7
1002
}
  0
LINE
  5
110
330
1F
100
AcDbEntity
  8
참조1
100
AcDbLine
 10
58.20723381534561
 20
7.439999999999999
 30
0.0
 11
58.20723381534561
 21
-7.440000000000006
 31
0.0
  0
LINE
  5
111
330
1F
100
AcDbEntity
  8
참조1
100
AcDbLine
 10
70.90723381534562
 20
5.439999999999999
 30
0.0
 11
58.20723381534561
 21
5.439999999999999
 31
0.0
  0
SOLID
  5
112
330
1F
100
AcDbEntity
  8
참조1
100
AcDbTrace
 10
58.20723381534561
 20
5.439999999999999
 30
0.0
 11
64.5572338153456
 21
4.423999999999999
 31
0.0
 12
64.5572338153456
 22
6.455999999999999
 32
0.0
 13
64.5572338153456
 23
6.455999999999999
 33
0.0
  0
LINE
  5
113
330
1F
100
AcDbEntity
  8
참조1
100
AcDbLine
 10
70.90723381534562
 20
-5.440000000000006
 30
0.0
 11
58.20723381534561
 21
-5.440000000000006
 31
0.0
  0
SOLID
  5
114
330
1F
100
AcDbEntity
  8
참조1
100
AcDbTrace
 10
58.20723381534561
 20
-5.440000000000006
 30
0.0
 11
64.5572338153456
 21
-6.456000000000006
 31
0.0
 12
64.5572338153456
 22
-4.424000000000006
 32
0.0
 13
64.5572338153456
 23
-4.424000000000006
 33
0.0
  0
MTEXT
  5
115
330
1F
100
AcDbEntity
  8
참조1
100
AcDbMText
 10
67.6047239078159
 20
10.98821664464993
 30
0.0
 40
3.5
 41
0.0
 71
     1
 72
     1
  1
A
  7
SLDTEXTSTYLE0
 73
     1
 44
1.0
  0
MTEXT
  5
116
330
1F
100
AcDbEntity
  8
참조1
100
AcDbMText
 10
67.6047239078159
 20
0.1082166446499288
 30
0.0
 40
3.5
 41
0.0
 71
     1
 72
     1
  1
A
  7
SLDTEXTSTYLE0
 73
     1
 44
1.0
  0
INSERT
  5
11D
330
1F
100
AcDbEntity
  8
해칭선
100
AcDbBlockReference
  2
SW_DOWELSYMBOL_0
 10
0.0
 20
0.0
 30
0.0
  0
ARC
  5
144
330
1F
100
AcDbEntity
  8
외형선
  6
Continuous
 62
     1
370
    15
100
AcDbCircle
 10
-55.56249999999994
 20
0.0000000000000049
 30
0.0
 40
7.937500000000043
100
AcDbArc
 50
156.002502002635
 51
180.0
  0
ARC
  5
145
330
1F
100
AcDbEntity
  8
외형선
  6
Continuous
 62
     1
370
    15
100
AcDbCircle
 10
-55.56249999999994
 20
0.0000000000000049
 30
0.0
 40
7.93750000000004
100
AcDbArc
 50
90.00000000000082
 51
94.4202499055367
  0
ARC
  5
146
330
1F
100
AcDbEntity
  8
외형선
  6
Continuous
 62
     1
370
    15
100
AcDbCircle
 10
-55.56249999999994
 20
0.0000000000000049
 30
0.0
 40
7.937500000000035
100
AcDbArc
 50
265.5921002461283
 51
270.0
  0
ARC
  5
147
330
1F
100
AcDbEntity
  8
외형선
  6
Continuous
 62
     1
370
    15
100
AcDbCircle
 10
-55.56249999999994
 20
0.0000000000000049
 30
0.0
 40
7.937500000000043
100
AcDbArc
 50
180.0
 51
203.9975801710322
  0
LINE
  5
148
330
1F
100
AcDbEntity
  8
외형선
  6
Continuous
 62
     1
370
    15
100
AcDbLine
 10
-51.3485943097626
 20
7.937500000000031
 30
0.0
 11
-55.56249999999994
 21
7.937500000000032
 31
0.0
  0
LINE
  5
149
330
1F
100
AcDbEntity
  8
외형선
  6
Continuous
 62
     1
370
    15
100
AcDbLine
 10
-34.59489234635657
 20
-7.937500000000012
 30
0.0
 11
-29.75451415941082
 21
-7.937500000000013
 31
0.0
  0
LINE
  5
14A
330
1F
100
AcDbEntity
  8
외형선
  6
Continuous
 62
     1
370
    15
100
AcDbLine
 10
-29.75451415941083
 20
7.937500000000028
 30
0.0
 11
-34.59489234635667
 21
7.937500000000029
 31
0.0
  0
LINE
  5
14B
330
1F
100
AcDbEntity
  8
외형선
  6
Continuous
 62
     1
370
    15
100
AcDbLine
 10
-55.56249999999994
 20
-7.93750000000001
 30
0.0
 11
-51.3485943097625
 21
-7.937500000000011
 31
0.0
  0
SPLINE
  5
14C
330
1F
100
AcDbEntity
  8
외형선
  6
Continuous
 62
     1
370
    15
100
AcDbSpline
210
0.0
220
0.0
230
1.0
 70
     8
 71
     3
 72
    38
 73
    34
 74
     0
 42
0.000000001
 43
0.00000001
 40
0.0
 40
0.0
 40
0.0
 40
0.0
 40
0.0625
 40
0.0625
 40
0.125
 40
0.125
 40
0.1875
 40
0.1875
 40
0.25
 40
0.25
 40
0.3125
 40
0.3125
 40
0.375
 40
0.375
 40
0.4375
 40
0.4375
 40
0.5
 40
0.5
 40
0.5625
 40
0.5625
 40
0.625
 40
0.625
 40
0.6875
 40
0.6875
 40
0.75
 40
0.75
 40
0.8125
 40
0.8125
 40
0.875
 40
0.875
 40
0.9375
 40
0.9375
 40
1.0
 40
1.0
 40
1.0
 40
1.0
 10
-28.575
 20
-7.90831057025608
 30
0.0
 10
-29.13453155566018
 20
-7.936078831399892
 30
0.0
 10
-29.69913766595262
 20
-7.944080487591148
 30
0.0
 10
-30.8258206783112
 20
-7.920101990129462
 30
0.0
 10
-31.38463793504462
 20
-7.888259979206207
 30
0.0
 10
-32.50978605861444
 20
-7.78509095007368
 30
0.0
 10
-33.0749080306411
 20
-7.713687724683847
 30
0.0
 10
-34.19753113090856
 20
-7.532937727658135
 30
0.0
 10
-34.75826665339876
 20
-7.423491820935902
 30
0.0
 10
-35.88545828691474
 20
-7.167505866111335
 30
0.0
 10
-36.44622375314591
 20
-7.021398202518117
 30
0.0
 10
-37.5688153777644
 20
-6.694712898748241
 30
0.0
 10
-38.13393468139795
 20
-6.513750741801769
 30
0.0
 10
-39.25910380550805
 20
-6.120584521138049
 30
0.0
 10
-39.81791113970951
 20
-5.908618542988298
 30
0.0
 10
-40.94458358167952
 20
-5.454983258973926
 30
0.0
 10
-41.50919763424383
 20
-5.213671743457062
 30
0.0
 10
-42.62830249496623
 20
-4.707666337643349
 30
0.0
 10
-43.19285893531141
 20
-4.441460321230127
 30
0.0
 10
-44.31955240942994
 20
-3.888434000503384
 30
0.0
 10
-44.8783797949099
 20
-3.602219577271753
 30
0.0
 10
-46.00350680980382
 20
-3.011920274432889
 30
0.0
 10
-46.56863139533797
 20
-2.707995474547402
 30
0.0
 10
-47.69128586392824
 20
-2.089467093818363
 30
0.0
 10
-48.251991648277
 20
-1.774305446894385
 30
0.0
 10
-49.37918317300078
 20
-1.135574436469944
 30
0.0
 10
-49.93997878856258
 20
-0.8130848877848791
 30
0.0
 10
-51.06253883021613
 20
-0.1654699970058665
 30
0.0
 10
-51.62765541057173
 20
0.1603027894887249
 30
0.0
 10
-52.75284542707987
 20
0.8084473506099551
 30
0.0
 10
-53.31164304496707
 20
1.130578459553334
 30
0.0
 10
-54.43830480792322
 20
1.769285681876734
 30
0.0
 10
-55.00292674803871
 20
2.085222680117619
 30
0.0
 10
-55.56249999999992
 20
2.394223111302196
 30
0.0
  0
SPLINE
  5
14D
330
1F
100
AcDbEntity
  8
외형선
  6
Continuous
 62
     1
370
    15
100
AcDbSpline
210
0.0
220
0.0
230
1.0
 70
     8
 71
     3
 72
    54
 73
    50
 74
     0
 42
0.000000001
 43
0.00000001
 40
0.0
 40
0.0
 40
0.0
 40
0.0
 40
0.0624999999999965
 40
0.0624999999999965
 40
0.0937499999999956
 40
0.0937499999999956
 40
0.1249999999999947
 40
0.1249999999999947
 40
0.1874999999999944
 40
0.1874999999999944
 40
0.2187499999999944
 40
0.2187499999999944
 40
0.2499999999999943
 40
0.2499999999999943
 40
0.3124999999999942
 40
0.3124999999999942
 40
0.3749999999999953
 40
0.3749999999999953
 40
0.4062499999999958
 40
0.4062499999999958
 40
0.4374999999999964
 40
0.4374999999999964
 40
0.4687499999999969
 40
0.4687499999999969
 40
0.4999999999999974
 40
0.4999999999999974
 40
0.5312499999999979
 40
0.5312499999999979
 40
0.5624999999999983
 40
0.5624999999999983
 40
0.5937499999999989
 40
0.5937499999999989
 40
0.6249999999999994
 40
0.6249999999999994
 40
0.65625
 40
0.65625
 40
0.6875000000000004
 40
0.6875000000000004
 40
0.7500000000000016
 40
0.7500000000000016
 40
0.7812500000000013
 40
0.7812500000000013
 40
0.8125000000000011
 40
0.8125000000000011
 40
0.8750000000000008
 40
0.8750000000000008
 40
0.9375000000000003
 40
0.9375000000000003
 40
1.0
 40
1.0
 40
1.0
 40
1.0
 10
-55.56249999999992
 20
2.394223111302187
 30
0.0
 10
-55.96539498950414
 20
2.61670466316795
 30
0.0
 10
-56.36688255694026
 20
2.815802999380572
 30
0.0
 10
-56.97116735491793
 20
3.073273559908654
 30
0.0
 10
-57.17291021479748
 20
3.152246716209743
 30
0.0
 10
-57.5774269432692
 20
3.295532455291665
 30
0.0
 10
-57.78132570307358
 20
3.36013156679729
 30
0.0
 10
-58.38507315559144
 20
3.527915551278637
 30
0.0
 10
-58.77691368721784
 20
3.60502094308737
 30
0.0
 10
-59.34883199995298
 20
3.670721681094863
 30
0.0
 10
-59.53674197945806
 20
3.684418893512191
 30
0.0
 10
-59.90641711455061
 20
3.696365109262223
 30
0.0
 10
-60.08813244596845
 20
3.694516734938829
 30
0.0
 10
-60.61219840970023
 20
3.668703665926213
 30
0.0
 10
-60.93746585260735
 20
3.62473683925492
 30
0.0
 10
-61.53381519421844
 20
3.503731483161351
 30
0.0
 10
-61.80574615661283
 20
3.425939964746948
 30
0.0
 10
-62.15024674504851
 20
3.312909762860173
 30
0.0
 10
-62.25511331593037
 20
3.275797746504358
 30
0.0
 10
-62.44295575548347
 20
3.208231083110657
 30
0.0
 10
-62.52628654266469
 20
3.177626745181727
 30
0.0
 10
-62.66619629806473
 20
3.13078419204247
 30
0.0
 10
-62.72218532895005
 20
3.114742671589439
 30
0.0
 10
-62.80339219032202
 20
3.105386274386085
 30
0.0
 10
-62.8286656051742
 20
3.112315938482809
 30
0.0
 10
-62.84223603212913
 20
3.158471168901829
 30
0.0
 10
-62.83101315183033
 20
3.197273616711062
 30
0.0
 10
-62.76813249511407
 20
3.315598568130731
 30
0.0
 10
-62.71677059684631
 20
3.394243268936427
 30
0.0
 10
-62.57697166577903
 20
3.588677069196124
 30
0.0
 10
-62.48625943760094
 20
3.707461022796185
 30
0.0
 10
-62.27531509131163
 20
3.971814451872002
 30
0.0
 10
-62.15413930892091
 20
4.118670309559604
 30
0.0
 10
-61.88740912429125
 20
4.430611933755755
 30
0.0
 10
-61.7447025078804
 20
4.592400824691059
 30
0.0
 10
-61.44104772255738
 20
4.923797474213821
 30
0.0
 10
-61.28236222131434
 20
5.090803072183662
 30
0.0
 10
-60.79602774925653
 20
5.580797537817689
 30
0.0
 10
-60.44935619159764
 20
5.900614617378587
 30
0.0
 10
-59.92385144831962
 20
6.329917708959019
 30
0.0
 10
-59.74672257398537
 20
6.465813126777938
 30
0.0
 10
-59.38693393979597
 20
6.722719028173803
 30
0.0
 10
-59.20324083954575
 20
6.84430509454132
 30
0.0
 10
-58.65204274168941
 20
7.17910965434195
 30
0.0
 10
-58.28314595391922
 20
7.364150715418606
 30
0.0
 10
-57.5287456830852
 20
7.660002228248889
 30
0.0
 10
-57.1403819053286
 20
7.770868228711186
 30
0.0
 10
-56.35953577769528
 20
7.910128505554152
 30
0.0
 10
-55.96520928697667
 20
7.939878662623534
 30
0.0
 10
-55.56249999999995
 20
7.929241996340147
 30
0.0
  0
SPLINE
  5
14E
330
1F
100
AcDbEntity
  8
외형선
  6
Continuous
 62
     1
370
    15
100
AcDbSpline
210
0.0
220
0.0
230
1.0
 70
     8
 71
     3
 72
    38
 73
    34
 74
     0
 42
0.000000001
 43
0.00000001
 40
0.0
 40
0.0
 40
0.0
 40
0.0
 40
0.0625
 40
0.0625
 40
0.125
 40
0.125
 40
0.1875
 40
0.1875
 40
0.25
 40
0.25
 40
0.3125
 40
0.3125
 40
0.375
 40
0.375
 40
0.4375
 40
0.4375
 40
0.5
 40
0.5
 40
0.5625
 40
0.5625
 40
0.625
 40
0.625
 40
0.6875
 40
0.6875
 40
0.75
 40
0.75
 40
0.8125
 40
0.8125
 40
0.875
 40
0.875
 40
0.9375
 40
0.9375
 40
1.0
 40
1.0
 40
1.0
 40
1.0
 10
-28.57500000000002
 20
-3.365175123507864
 30
0.0
 10
-29.13453155566024
 20
-3.071655046645564
 30
0.0
 10
-29.69913766595263
 20
-2.76880338869513
 30
0.0
 10
-30.8258206783112
 20
-2.151147894604102
 30
0.0
 10
-31.38463793504464
 20
-1.836980589422099
 30
0.0
 10
-32.50978605861444
 20
-1.199624025723803
 30
0.0
 10
-33.0749080306411
 20
-0.8766436753896536
 30
0.0
 10
-34.19753113090857
 20
-0.2293594242472069
 30
0.0
 10
-34.75826665339875
 20
0.0955589078592965
 30
0.0
 10
-35.88545828691477
 20
0.7443883002033935
 30
0.0
 10
-36.44622375314587
 20
1.067202010720535
 30
0.0
 10
-37.56881537776436
 20
1.706079162570818
 30
0.0
 10
-38.13393468139794
 20
2.022752156659181
 30
0.0
 10
-39.25910380550803
 20
2.643418681647924
 30
0.0
 10
-39.81791113970947
 20
2.947215024206152
 30
0.0
 10
-40.94458358167948
 20
3.540134896765073
 30
0.0
 10
-41.50919763424383
 20
3.828636068041183
 30
0.0
 10
-42.62830249496623
 20
4.383357487277146
 30
0.0
 10
-43.19285893531147
 20
4.65123663114213
 30
0.0
 10
-44.31955240942998
 20
5.161895682131827
 30
0.0
 10
-44.8783797949099
 20
5.404241503055896
 30
0.0
 10
-46.00350680980382
 20
5.861727366821271
 30
0.0
 10
-46.56863139533795
 20
6.076624760280684
 30
0.0
 10
-47.69128586392829
 20
6.473957534675885
 30
0.0
 10
-48.25199164827698
 20
6.656827799700728
 30
0.0
 10
-49.37918317300072
 20
6.988855706214834
 30
0.0
 10
-49.93997878856255
 20
7.137450331881152
 30
0.0
 10
-51.06253883021606
 20
7.398291098034251
 30
0.0
 10
-51.62765541057171
 20
7.510726731008103
 30
0.0
 10
-52.75284542707983
 20
7.697011008114426
 30
0.0
 10
-53.31164304496708
 20
7.770899040303746
 30
0.0
 10
-54.43830480792322
 20
7.87973408227294
 30
0.0
 10
-55.00292674803877
 20
7.91446211880887
 30
0.0
 10
-55.56249999999998
 20
7.929241996340145
 30
0.0
  0
SPLINE
  5
14F
330
1F
100
AcDbEntity
  8
외형선
  6
Continuous
 62
     1
370
    15
100
AcDbSpline
210
0.0
220
0.0
230
1.0
 70
     8
 71
     3
 72
    17
 73
    13
 74
     0
 42
0.000000001
 43
0.00000001
 40
0.0
 40
0.0
 40
0.0
 40
0.0
 40
0.1106264385537986
 40
0.2212418226921531
 40
0.3318478448596662
 40
0.4424462051811425
 40
0.5530386100766099
 40
0.6636267708653316
 40
0.7678837325315443
 40
0.8721424904030369
 40
0.9764130015926694
 40
1.0
 40
1.0
 40
1.0
 40
1.0
 10
-28.575
 20
-0.6800957097175682
 30
0.0
 10
-29.41484815699919
 20
-0.1948899591379951
 30
0.0
 10
-31.09446054864986
 20
0.7754730575357711
 30
0.0
 10
-33.61370069500387
 20
2.211197832659843
 30
0.0
 10
-36.13268772165208
 20
3.571241684350473
 30
0.0
 10
-38.65146998725356
 20
4.812034002543611
 30
0.0
 10
-41.17006862959039
 20
5.892034157974612
 30
0.0
 10
-43.64058705795831
 20
6.756463820943321
 30
0.0
 10
-46.0627377058752
 20
7.397718185390688
 30
0.0
 10
-48.43701488941878
 20
7.786442718241668
 30
0.0
 10
-50.19894767292222
 20
7.957479249407013
 30
0.0
 10
-51.16954051805047
 20
7.923132947980665
 30
0.0
 10
-51.3485943097626
 20
7.916796783921202
 30
0.0
  0
SPLINE
  5
150
330
1F
100
AcDbEntity
  8
외형선
  6
Continuous
 62
     1
370
    15
100
AcDbSpline
210
0.0
220
0.0
230
1.0
 70
     8
 71
     3
 72
    14
 73
    10
 74
     0
 42
0.000000001
 43
0.00000001
 40
0.0
 40
0.0
 40
0.0
 40
0.0
 40
0.0023991867662418
 40
0.1769639779163991
 40
0.3415348075119772
 40
0.5061081346978652
 40
0.6706996774798174
 40
0.835325105742618
 40
1.0
 40
1.0
 40
1.0
 40
1.0
 10
-43.00195865821762
 20
6.497217215585498
 30
0.0
 10
-42.99042067402446
 20
6.501512440862608
 30
0.0
 10
-42.13937914249964
 20
6.8183281893401
 30
0.0
 10
-40.49686423406673
 20
7.240477190965093
 30
0.0
 10
-38.07471228305614
 20
7.726480759301396
 30
0.0
 10
-35.7004471236201
 20
7.950936090365161
 30
0.0
 10
-33.32588052016536
 20
7.940816525815659
 30
0.0
 10
-30.95073645838595
 20
7.708010200000442
 30
0.0
 10
-29.36699145378237
 20
7.361917869283008
 30
0.0
 10
-28.57500000000004
 20
7.188845709717506
 30
0.0
  0
SPLINE
  5
151
330
1F
100
AcDbEntity
  8
외형선
  6
Continuous
 62
     1
370
    15
100
AcDbSpline
210
0.0
220
0.0
230
1.0
 70
     8
 71
     3
 72
    13
 73
     9
 74
     0
 42
0.000000001
 43
0.00000001
 40
0.0
 40
0.0
 40
0.0
 40
0.0
 40
0.0546651596256912
 40
0.2436895813366837
 40
0.4327172596807004
 40
0.6217662475289366
 40
0.8108545414596776
 40
1.0
 40
1.0
 40
1.0
 40
1.0
 10
-43.00195865821753
 20
-6.497217215585481
 30
0.0
 10
-43.23084056065643
 20
-6.578905411715527
 30
0.0
 10
-44.25116384083694
 20
-6.943059883254368
 30
0.0
 10
-46.06273254110283
 20
-7.384623692076817
 30
0.0
 10
-48.4370099823985
 20
-7.802054254056536
 30
0.0
 10
-50.81158409708305
 20
-7.96758669102819
 30
0.0
 10
-53.18674413169185
 20
-7.916208324379197
 30
0.0
 10
-54.77050158981852
 20
-7.683948033845797
 30
0.0
 10
-55.56249999999991
 20
-7.567800337172405
 30
0.0
  0
SPLINE
  5
152
330
1F
100
AcDbEntity
  8
외형선
  6
Continuous
 62
     1
370
    15
100
AcDbSpline
210
0.0
220
0.0
230
1.0
 70
     8
 71
     3
 72
    54
 73
    50
 74
     0
 42
0.000000001
 43
0.00000001
 40
0.0
 40
0.0
 40
0.0
 40
0.0
 40
0.0624999999999955
 40
0.0624999999999955
 40
0.0937499999999941
 40
0.0937499999999941
 40
0.1249999999999928
 40
0.1249999999999928
 40
0.1874999999999915
 40
0.1874999999999915
 40
0.2187499999999909
 40
0.2187499999999909
 40
0.2499999999999903
 40
0.2499999999999903
 40
0.3124999999999904
 40
0.3124999999999904
 40
0.3749999999999917
 40
0.3749999999999917
 40
0.4062499999999924
 40
0.4062499999999924
 40
0.4374999999999931
 40
0.4374999999999931
 40
0.4687499999999938
 40
0.4687499999999938
 40
0.4999999999999946
 40
0.4999999999999946
 40
0.5312499999999952
 40
0.5312499999999952
 40
0.5624999999999959
 40
0.5624999999999959
 40
0.5937499999999967
 40
0.5937499999999967
 40
0.6249999999999973
 40
0.6249999999999973
 40
0.656249999999998
 40
0.656249999999998
 40
0.6874999999999987
 40
0.6874999999999987
 40
0.75
 40
0.75
 40
0.78125
 40
0.78125
 40
0.8125
 40
0.8125
 40
0.875
 40
0.875
 40
0.9375
 40
0.9375
 40
1.0
 40
1.0
 40
1.0
 40
1.0
 10
-55.56249999999992
 20
-7.567800337172421
 30
0.0
 10
-55.96539498950415
 20
-7.497413903917971
 30
0.0
 10
-56.36688255694025
 20
-7.3918100014755
 30
0.0
 10
-56.9711673549179
 20
-7.185209379582556
 30
0.0
 10
-57.17291021479756
 20
-7.108242201021699
 30
0.0
 10
-57.57742694326917
 20
-6.938063336232392
 30
0.0
 10
-57.78132570307361
 20
-6.844265803746714
 30
0.0
 10
-58.38507315559141
 20
-6.542610950603525
 30
0.0
 10
-58.77691368721781
 20
-6.315561016025696
 30
0.0
 10
-59.34883199995298
 20
-5.936847445279864
 30
0.0
 10
-59.53674197945805
 20
-5.804141150974758
 30
0.0
 10
-59.90641711455067
 20
-5.524931264327001
 30
0.0
 10
-60.08813244596852
 20
-5.378335937183974
 30
0.0
 10
-60.61219840970026
 20
-4.925306306057669
 30
0.0
 10
-60.93746585260738
 20
-4.603015298436931
 30
0.0
 10
-61.53381519421841
 20
-3.909473807738275
 30
0.0
 10
-61.80574615661286
 20
-3.535720717409612
 30
0.0
 10
-62.15024674504851
 20
-2.946740311794725
 30
0.0
 10
-62.25511331593039
 20
-2.74503900829257
 30
0.0
 10
-62.44295575548347
 20
-2.328893502034043
 30
0.0
 10
-62.52628654266469
 20
-2.113419041329361
 30
0.0
 10
-62.66619629806478
 20
-1.671485577402228
 30
0.0
 10
-62.72218532895011
 20
-1.447326213488643
 30
0.0
 10
-62.80339219032205
 20
-0.991728522853869
 30
0.0
 10
-62.82866560517423
 20
-0.7577656639426316
 30
0.0
 10
-62.84223603212916
 20
-0.295609678355505
 30
0.0
 10
-62.83101315183035
 20
-0.0677962605423144
 30
0.0
 10
-62.76813249511407
 20
0.3796114220580606
 30
0.0
 10
-62.71677059684631
 20
0.5937760247316317
 30
0.0
 10
-62.57697166577901
 20
0.987739465737528
 30
0.0
 10
-62.48625943760091
 20
1.172204488595317
 30
0.0
 10
-62.27531509131166
 20
1.490160681994656
 30
0.0
 10
-62.15413930892091
 20
1.62646705049731
 30
0.0
 10
-61.88740912429123
 20
1.850338192339531
 30
0.0
 10
-61.74470250788037
 20
1.936151972741629
 30
0.0
 10
-61.44104772255741
 20
2.06333534626769
 30
0.0
 10
-61.28236222131439
 20
2.103371156372721
 30
0.0
 10
-60.79602774925656
 20
2.163850105203633
 30
0.0
 10
-60.44935619159767
 20
2.125527987893598
 30
0.0
 10
-59.92385144831962
 20
1.991935343182981
 30
0.0
 10
-59.74672257398537
 20
1.93466188601667
 30
0.0
 10
-59.38693393979599
 20
1.79892425094414
 30
0.0
 10
-59.20324083954578
 20
1.719905968945257
 30
0.0
 10
-58.65204274168941
 20
1.460726527408793
 30
0.0
 10
-58.28314595391928
 20
1.258264592570089
 30
0.0
 10
-57.52874568308525
 20
0.821038201220814
 30
0.0
 10
-57.14038190532865
 20
0.5842549865336415
 30
0.0
 10
-56.35953577769532
 20
0.1098144760001549
 30
0.0
 10
-55.96520928697667
 20
-0.1289774358007467
 30
0.0
 10
-55.56249999999994
 20
-0.3619773659724287
 30
0.0
  0
SPLINE
  5
153
330
1F
100
AcDbEntity
  8
외형선
  6
Continuous
 62
     1
370
    15
100
AcDbSpline
210
0.0
220
0.0
230
1.0
 70
     8
 71
     3
 72
    16
 73
    12
 74
     0
 42
0.000000001
 43
0.00000001
 40
0.0
 40
0.0
 40
0.0
 40
0.0
 40
0.1201557882486262
 40
0.2402995197611872
 40
0.3604330118102055
 40
0.4805581106676264
 40
0.6006766695011548
 40
0.7207905468584134
 40
0.8340278171715455
 40
0.9472668060171158
 40
1.0
 40
1.0
 40
1.0
 40
1.0
 10
-55.56249999999998
 20
-0.3619773659724401
 30
0.0
 10
-54.72264780983483
 20
-0.8450851439529483
 30
0.0
 10
-53.04302770239997
 20
-1.81125222365614
 30
0.0
 10
-50.52377689892671
 20
-3.196686261842392
 30
0.0
 10
-48.00478083687673
 20
-4.475852338081417
 30
0.0
 10
-45.48599146886782
 20
-5.605203824655299
 30
0.0
 10
-42.96738699628841
 20
-6.545953478009443
 30
0.0
 10
-40.49686646715583
 20
-7.257554701153372
 30
0.0
 10
-38.07470967024995
 20
-7.714615702631268
 30
0.0
 10
-36.12339964688631
 20
-7.934282383748453
 30
0.0
 10
-34.96343871297206
 20
-7.914378631104693
 30
0.0
 10
-34.59489234635657
 20
-7.908054749407987
 30
0.0
  0
SPLINE
  5
154
330
1F
100
AcDbEntity
  8
외형선
  6
Continuous
 62
     1
370
    15
100
AcDbSpline
210
0.0
220
0.0
230
1.0
 70
     8
 71
     3
 72
    20
 73
    16
 74
     0
 42
0.000000001
 43
0.00000001
 40
0.0
 40
0.0
 40
0.0
 40
0.0
 40
0.0257204880752641
 40
0.0765246991664835
 40
0.1293043855473515
 40
0.2183850380633804
 40
0.3087148013149102
 40
0.3738570183448947
 40
0.4408649838601394
 40
0.5307128082895686
 40
0.6230822061820415
 40
0.7434591267387707
 40
0.8672555355680641
 40
0.9687991792483809
 40
0.9999999999999999
 40
0.9999999999999999
 40
0.9999999999999999
 40
0.9999999999999999
 10
-62.80997272419543
 20
-3.226802661147995
 30
0.0
 10
-62.80340981563285
 20
-3.24355383921601
 30
0.0
 10
-62.78388356862153
 20
-3.293392662592452
 30
0.0
 10
-62.68241933509125
 20
-3.444730368958319
 30
0.0
 10
-62.46879511472914
 20
-3.733811936134134
 30
0.0
 10
-62.08914867825491
 20
-4.202341733562753
 30
0.0
 10
-61.58785308381615
 20
-4.771323757692997
 30
0.0
 10
-61.08564158187358
 20
-5.295235761841747
 30
0.0
 10
-60.55753787353256
 20
-5.802424715117176
 30
0.0
 10
-59.9393156354088
 20
-6.330236318554831
 30
0.0
 10
-59.16519704263386
 20
-6.887233758521285
 30
0.0
 10
-58.28009136796641
 20
-7.384852556424251
 30
0.0
 10
-57.34424144326341
 20
-7.721723302678593
 30
0.0
 10
-56.63593110488896
 20
-7.885242495744476
 30
0.0
 10
-56.26050925509308
 20
-7.897386792360894
 30
0.0
 10
-56.17226851457071
 20
-7.900241239237494
 30
0.0
  0
LINE
  5
155
330
1F
100
AcDbEntity
  8
외형선
  6
Continuous
370
    15
100
AcDbLine
 10
-28.57500000000001
 20
-0.6800957097175678
 30
0.0
 11
-28.57500000000002
 21
-3.365175123507864
 31
0.0
  0
LINE
  5
156
330
1F
100
AcDbEntity
  8
외형선
  6
Continuous
 62
     1
370
    15
100
AcDbLine
 10
-28.575
 20
7.908310570256094
 30
0.0
 11
-29.75451415941083
 21
7.904347969044442
 31
0.0
  0
LINE
  5
157
330
1F
100
AcDbEntity
  8
외형선
  6
Continuous
370
    15
100
AcDbLine
 10
-28.57500000000001
 20
7.908310570256094
 30
0.0
 11
-28.57500000000002
 21
7.188845709717504
 31
0.0
  0
LINE
  5
158
330
1F
100
AcDbEntity
  8
외형선
  6
Continuous
370
    15
100
AcDbLine
 10
-28.57500000000001
 20
0.0000000000000075
 30
0.0
 11
-28.57500000000001
 21
-7.937499999999993
 31
0.0
  0
LINE
  5
159
330
1F
100
AcDbEntity
  8
외형선
  6
Continuous
370
    15
100
AcDbLine
 10
-28.57500000000001
 20
7.937500000000007
 30
0.0
 11
-28.57500000000001
 21
0.0000000000000075
 31
0.0
  0
LINE
  5
15A
330
1F
100
AcDbEntity
  8
치수문자_일반주서
 62
     1
100
AcDbLine
 10
-63.49999999999999
 20
0.0000000000000157
 30
0.0
 11
-63.49999999999999
 21
-1.31501462954814
 31
0.0
  0
LINE
  5
15B
330
1F
100
AcDbEntity
  8
외형선
  6
Continuous
370
    15
100
AcDbLine
 10
-28.575
 20
-7.937500000000004
 30
0.0
 11
28.57500000000001
 21
-7.937500000000004
 31
0.0
  0
LINE
  5
198
330
1F
100
AcDbEntity
  8
외형선
  6
Continuous
370
    15
100
AcDbLine
 10
-5.092699999999976
 20
6.286499999999975
 30
0.0
 11
5.092699999999983
 21
6.286499999999975
 31
0.0
  0
LINE
  5
199
330
1F
100
AcDbEntity
  8
외형선
  6
Continuous
370
    15
100
AcDbLine
 10
5.092699999999983
 20
6.286499999999975
 30
0.0
 11
6.74370000000005
 21
7.937499999999972
 31
0.0
  0
LINE
  5
19A
330
1F
100
AcDbEntity
  8
외형선
  6
Continuous
370
    15
100
AcDbLine
 10
-5.092699999999976
 20
6.286499999999975
 30
0.0
 11
-6.743699999999929
 21
7.937499999999972
 31
0.0
  0
LINE
  5
19B
330
1F
100
AcDbEntity
  8
외형선
  6
Continuous
370
    15
100
AcDbLine
 10
-6.743699999999954
 20
7.937499999999996
 30
0.0
 11
-28.57500000000001
 21
7.937499999999996
 31
0.0
  0
ENDSEC
  0
SECTION
  2
OBJECTS
  0
DICTIONARY
  5
C
330
0
100
AcDbDictionary
281
     1
  3
ACAD_GROUP
350
D
  3
ACAD_IMAGE_VARS
350
141
  3
ACAD_LAYOUT
350
1A
  3
ACAD_MLINESTYLE
350
17
  3
ACAD_PLOTSETTINGS
350
19
  3
ACAD_PLOTSTYLENAME
350
E
  3
ACAD_SCALELIST
350
47
  3
APPDATA
350
13F
  3
DWGPROPS
350
19C
  0
DICTIONARY
  5
189
330
2
100
AcDbDictionary
280
     1
281
     1
  3
ACAD_LAYERSTATES
360
18A
  0
DICTIONARY
  5
D
102
{ACAD_REACTORS
330
C
102
}
330
C
100
AcDbDictionary
281
     1
  0
RASTERVARIABLES
  5
141
102
{ACAD_REACTORS
330
C
102
}
330
C
100
AcDbRasterVariables
 90
        0
 70
     1
 71
     1
 72
     1
  0
DICTIONARY
  5
1A
102
{ACAD_REACTORS
330
C
102
}
330
C
100
AcDbDictionary
281
     1
  3
Layout1
350
1E
  3
Layout2
350
26
  3
Model
350
22
  0
DICTIONARY
  5
17
102
{ACAD_REACTORS
330
C
102
}
330
C
100
AcDbDictionary
281
     1
  3
Standard
350
18
  0
DICTIONARY
  5
19
102
{ACAD_REACTORS
330
C
102
}
330
C
100
AcDbDictionary
281
     1
  0
ACDBDICTIONARYWDFLT
  5
E
102
{ACAD_REACTORS
330
C
102
}
330
C
100
AcDbDictionary
281
     1
  3
Normal
350
F
100
AcDbDictionaryWithDefault
340
F
  0
DICTIONARY
  5
47
102
{ACAD_REACTORS
330
C
102
}
330
C
100
AcDbDictionary
281
     1
  3
A0
350
48
  3
A1
350
49
  3
A2
350
4A
  3
A3
350
4B
  3
A4
350
4C
  3
A5
350
4D
  3
A6
350
4E
  3
A7
350
4F
  3
A8
350
50
  3
A9
350
51
  3
B0
350
52
  3
B1
350
53
  3
B2
350
54
  3
B3
350
55
  3
B4
350
56
  3
B5
350
57
  3
B6
350
58
  3
B7
350
59
  3
B8
350
5A
  3
B9
350
5B
  3
C0
350
5C
  3
C1
350
5D
  3
C2
350
5E
  3
C3
350
5F
  3
C4
350
60
  3
C5
350
61
  3
C6
350
62
  3
C7
350
63
  3
C8
350
64
  3
C9
350
65
  3
D0
350
66
  3
D1
350
67
  3
D2
350
68
  0
DICTIONARY
  5
13F
102
{ACAD_REACTORS
330
C
102
}
330
C
100
AcDbDictionary
281
     1
  0
XRECORD
  5
19C
102
{ACAD_REACTORS
330
C
102
}
330
C
100
AcDbXrecord
280
     1
  1
DWGPROPS COOKIE
  2

  3

  4

  6

  7

  8
12016016
  9

300
=
301
=
302
=
303
=
304
=
305
=
306
=
307
=
308
=
309
=
 40
0.0
 41
2458319.999049456
 42
2458331.030724005
  1

 90
        0
  0
DICTIONARY
  5
18A
102
{ACAD_REACTORS
330
189
102
}
330
189
100
AcDbDictionary
281
     1
  0
LAYOUT
  5
1E
102
{ACAD_REACTORS
330
1A
102
}
330
1A
100
AcDbPlotSettings
  1

  2
none_device
  4

  6

 40
0.0
 41
0.0
 42
0.0
 43
0.0
 44
0.0
 45
0.0
 46
0.0
 47
0.0
 48
0.0
 49
0.0
140
0.0
141
0.0
142
1.0
143
1.0
 70
   688
 72
     1
 73
     0
 74
     5
  7

 75
    16
147
1.0
148
0.0
149
0.0
100
AcDbLayout
  1
Layout1
 70
     1
 71
     1
 10
0.0
 20
0.0
 11
420.0
 21
297.0
 12
0.0
 22
0.0
 32
0.0
 14
1.000000000000000E+20
 24
1.000000000000000E+20
 34
1.000000000000000E+20
 15
-1.000000000000000E+20
 25
-1.000000000000000E+20
 35
-1.000000000000000E+20
146
0.0
 13
0.0
 23
0.0
 33
0.0
 16
1.0
 26
0.0
 36
0.0
 17
0.0
 27
1.0
 37
0.0
 76
     0
330
1B
  0
LAYOUT
  5
26
102
{ACAD_REACTORS
330
1A
102
}
330
1A
100
AcDbPlotSettings
  1

  2
none_device
  4

  6

 40
0.0
 41
0.0
 42
0.0
 43
0.0
 44
0.0
 45
0.0
 46
0.0
 47
0.0
 48
0.0
 49
0.0
140
0.0
141
0.0
142
1.0
143
1.0
 70
   688
 72
     1
 73
     0
 74
     5
  7

 75
    16
147
1.0
148
0.0
149
0.0
100
AcDbLayout
  1
Layout2
 70
     1
 71
     2
 10
0.0
 20
0.0
 11
0.0
 21
0.0
 12
0.0
 22
0.0
 32
0.0
 14
0.0
 24
0.0
 34
0.0
 15
0.0
 25
0.0
 35
0.0
146
0.0
 13
0.0
 23
0.0
 33
0.0
 16
1.0
 26
0.0
 36
0.0
 17
0.0
 27
1.0
 37
0.0
 76
     0
330
23
  0
LAYOUT
  5
22
102
{ACAD_REACTORS
330
1A
102
}
330
1A
100
AcDbPlotSettings
  1

  2
none_device
  4
ANSI_A_(11.00_x_8.50_Inches)
  6

 40
6.35
 41
19.05
 42
6.35000508
 43
19.05000254
 44
279.4
 45
215.9
 46
119.3237653623153
 47
84.28276246898609
 48
0.0
 49
0.0
140
0.0
141
0.0
142
0.0638985835938988
143
1.0
 70
  1696
 72
     0
 73
     0
 74
     0
  7

 75
     0
147
0.0235690232323232
148
0.0
149
0.0
100
AcDbLayout
  1
Model
 70
     1
 71
     0
 10
0.0
 20
0.0
 11
420.0
 21
297.0
 12
0.0
 22
0.0
 32
0.0
 14
1.000000000000000E+20
 24
1.000000000000000E+20
 34
1.000000000000000E+20
 15
-1.000000000000000E+20
 25
-1.000000000000000E+20
 35
-1.000000000000000E+20
146
0.0
 13
0.0
 23
0.0
 33
0.0
 16
1.0
 26
0.0
 36
0.0
 17
0.0
 27
1.0
 37
0.0
 76
     0
330
1F
331
29
  0
MLINESTYLE
  5
18
102
{ACAD_REACTORS
330
17
102
}
330
17
100
AcDbMlineStyle
  2
Standard
 70
     0
  3

 62
   256
 51
90.0
 52
90.0
 71
     2
 49
0.5
 62
   256
  6
BYLAYER
 49
-0.5
 62
   256
  6
BYLAYER
  0
ACDBPLACEHOLDER
  5
F
102
{ACAD_REACTORS
330
E
102
}
330
E
  0
SCALE
  5
48
102
{ACAD_REACTORS
330
47
102
}
330
47
100
AcDbScale
 70
     0
300
1:1
140
1.0
141
1.0
290
     1
  0
SCALE
  5
49
102
{ACAD_REACTORS
330
47
102
}
330
47
100
AcDbScale
 70
     0
300
1:2
140
1.0
141
2.0
290
     0
  0
SCALE
  5
4A
102
{ACAD_REACTORS
330
47
102
}
330
47
100
AcDbScale
 70
     0
300
1:4
140
1.0
141
4.0
290
     0
  0
SCALE
  5
4B
102
{ACAD_REACTORS
330
47
102
}
330
47
100
AcDbScale
 70
     0
300
1:5
140
1.0
141
5.0
290
     0
  0
SCALE
  5
4C
102
{ACAD_REACTORS
330
47
102
}
330
47
100
AcDbScale
 70
     0
300
1:8
140
1.0
141
8.0
290
     0
  0
SCALE
  5
4D
102
{ACAD_REACTORS
330
47
102
}
330
47
100
AcDbScale
 70
     0
300
1:10
140
1.0
141
10.0
290
     0
  0
SCALE
  5
4E
102
{ACAD_REACTORS
330
47
102
}
330
47
100
AcDbScale
 70
     0
300
1:16
140
1.0
141
16.0
290
     0
  0
SCALE
  5
4F
102
{ACAD_REACTORS
330
47
102
}
330
47
100
AcDbScale
 70
     0
300
1:20
140
1.0
141
20.0
290
     0
  0
SCALE
  5
50
102
{ACAD_REACTORS
330
47
102
}
330
47
100
AcDbScale
 70
     0
300
1:30
140
1.0
141
30.0
290
     0
  0
SCALE
  5
51
102
{ACAD_REACTORS
330
47
102
}
330
47
100
AcDbScale
 70
     0
300
1:40
140
1.0
141
40.0
290
     0
  0
SCALE
  5
52
102
{ACAD_REACTORS
330
47
102
}
330
47
100
AcDbScale
 70
     0
300
1:50
140
1.0
141
50.0
290
     0
  0
SCALE
  5
53
102
{ACAD_REACTORS
330
47
102
}
330
47
100
AcDbScale
 70
     0
300
1:100
140
1.0
141
100.0
290
     0
  0
SCALE
  5
54
102
{ACAD_REACTORS
330
47
102
}
330
47
100
AcDbScale
 70
     0
300
2:1
140
2.0
141
1.0
290
     0
  0
SCALE
  5
55
102
{ACAD_REACTORS
330
47
102
}
330
47
100
AcDbScale
 70
     0
300
4:1
140
4.0
141
1.0
290
     0
  0
SCALE
  5
56
102
{ACAD_REACTORS
330
47
102
}
330
47
100
AcDbScale
 70
     0
300
8:1
140
8.0
141
1.0
290
     0
  0
SCALE
  5
57
102
{ACAD_REACTORS
330
47
102
}
330
47
100
AcDbScale
 70
     0
300
10:1
140
10.0
141
1.0
290
     0
  0
SCALE
  5
58
102
{ACAD_REACTORS
330
47
102
}
330
47
100
AcDbScale
 70
     0
300
100:1
140
100.0
141
1.0
290
     0
  0
SCALE
  5
59
102
{ACAD_REACTORS
330
47
102
}
330
47
100
AcDbScale
 70
     0
300
1/128" = 1'-0"
140
0.0078125
141
12.0
290
     0
  0
SCALE
  5
5A
102
{ACAD_REACTORS
330
47
102
}
330
47
100
AcDbScale
 70
     0
300
1/64" = 1'-0"
140
0.015625
141
12.0
290
     0
  0
SCALE
  5
5B
102
{ACAD_REACTORS
330
47
102
}
330
47
100
AcDbScale
 70
     0
300
1/32" = 1'-0"
140
0.03125
141
12.0
290
     0
  0
SCALE
  5
5C
102
{ACAD_REACTORS
330
47
102
}
330
47
100
AcDbScale
 70
     0
300
1/16" = 1'-0"
140
0.0625
141
12.0
290
     0
  0
SCALE
  5
5D
102
{ACAD_REACTORS
330
47
102
}
330
47
100
AcDbScale
 70
     0
300
3/32" = 1'-0"
140
0.09375
141
12.0
290
     0
  0
SCALE
  5
5E
102
{ACAD_REACTORS
330
47
102
}
330
47
100
AcDbScale
 70
     0
300
1/8" = 1'-0"
140
0.125
141
12.0
290
     0
  0
SCALE
  5
5F
102
{ACAD_REACTORS
330
47
102
}
330
47
100
AcDbScale
 70
     0
300
3/16" = 1'-0"
140
0.1875
141
12.0
290
     0
  0
SCALE
  5
60
102
{ACAD_REACTORS
330
47
102
}
330
47
100
AcDbScale
 70
     0
300
1/4" = 1'-0"
140
0.25
141
12.0
290
     0
  0
SCALE
  5
61
102
{ACAD_REACTORS
330
47
102
}
330
47
100
AcDbScale
 70
     0
300
3/8" = 1'-0"
140
0.375
141
12.0
290
     0
  0
SCALE
  5
62
102
{ACAD_REACTORS
330
47
102
}
330
47
100
AcDbScale
 70
     0
300
1/2" = 1'-0"
140
0.5
141
12.0
290
     0
  0
SCALE
  5
63
102
{ACAD_REACTORS
330
47
102
}
330
47
100
AcDbScale
 70
     0
300
3/4" = 1'-0"
140
0.75
141
12.0
290
     0
  0
SCALE
  5
64
102
{ACAD_REACTORS
330
47
102
}
330
47
100
AcDbScale
 70
     0
300
1" = 1'-0"
140
1.0
141
12.0
290
     0
  0
SCALE
  5
65
102
{ACAD_REACTORS
330
47
102
}
330
47
100
AcDbScale
 70
     0
300
1-1/2" = 1'-0"
140
1.5
141
12.0
290
     0
  0
SCALE
  5
66
102
{ACAD_REACTORS
330
47
102
}
330
47
100
AcDbScale
 70
     0
300
3" = 1'-0"
140
3.0
141
12.0
290
     0
  0
SCALE
  5
67
102
{ACAD_REACTORS
330
47
102
}
330
47
100
AcDbScale
 70
     0
300
6" = 1'-0"
140
6.0
141
12.0
290
     0
  0
SCALE
  5
68
102
{ACAD_REACTORS
330
47
102
}
330
47
100
AcDbScale
 70
     0
300
1'-0" = 1'-0"
140
12.0
141
12.0
290
     0
  0
ENDSEC
  0
EOF
