  0
SECTION
  2
HEADER
  9
$ACADVER
  1
AC1015
  9
$ACADMAINTVER
 70
     6
  9
$DWGCODEPAGE
  3
ANSI_949
  9
$INSBASE
 10
0.0
 20
0.0
 30
0.0
  9
$EXTMIN
 10
1.000000000000000E+20
 20
1.000000000000000E+20
 30
1.000000000000000E+20
  9
$EXTMAX
 10
-1.000000000000000E+20
 20
-1.000000000000000E+20
 30
-1.000000000000000E+20
  9
$LIMMIN
 10
0.0
 20
0.0
  9
$LIMMAX
 10
420.0
 20
297.0
  9
$ORTHOMODE
 70
     0
  9
$REGENMODE
 70
     1
  9
$FILLMODE
 70
     1
  9
$QTEXTMODE
 70
     0
  9
$MIRRTEXT
 70
     1
  9
$LTSCALE
 40
1.0
  9
$ATTMODE
 70
     1
  9
$TEXTSIZE
 40
3.5
  9
$TRACEWID
 40
1.0
  9
$TEXTSTYLE
  7
Standard
  9
$CLAYER
  8
0
  9
$CELTYPE
  6
ByLayer
  9
$CECOLOR
 62
   256
  9
$CELTSCALE
 40
1.0
  9
$DISPSILH
 70
     0
  9
$DIMSCALE
 40
1.0
  9
$DIMASZ
 40
3.302
  9
$DIMEXO
 40
1.0
  9
$DIMDLI
 40
3.75
  9
$DIMRND
 40
0.0
  9
$DIMDLE
 40
0.0
  9
$DIMEXE
 40
1.0
  9
$DIMTP
 40
0.0
  9
$DIMTM
 40
0.0
  9
$DIMTXT
 40
3.5
  9
$DIMCEN
 40
2.5
  9
$DIMTSZ
 40
0.0
  9
$DIMTOL
 70
     0
  9
$DIMLIM
 70
     0
  9
$DIMTIH
 70
     1
  9
$DIMTOH
 70
     1
  9
$DIMSE1
 70
     0
  9
$DIMSE2
 70
     0
  9
$DIMTAD
 70
     1
  9
$DIMZIN
 70
     0
  9
$DIMBLK
  1

  9
$DIMASO
 70
     1
  9
$DIMSHO
 70
     1
  9
$DIMPOST
  1

  9
$DIMAPOST
  1

  9
$DIMALT
 70
     0
  9
$DIMALTD
 70
     3
  9
$DIMALTF
 40
0.0393700787401575
  9
$DIMLFAC
 40
1.0
  9
$DIMTOFL
 70
     1
  9
$DIMTVP
 40
0.0
  9
$DIMTIX
 70
     0
  9
$DIMSOXD
 70
     0
  9
$DIMSAH
 70
     0
  9
$DIMBLK1
  1

  9
$DIMBLK2
  1

  9
$DIMSTYLE
  2
ISO-25
  9
$DIMCLRD
 70
     0
  9
$DIMCLRE
 70
     0
  9
$DIMCLRT
 70
     0
  9
$DIMTFAC
 40
1.0
  9
$DIMGAP
 40
1.524
  9
$DIMJUST
 70
     0
  9
$DIMSD1
 70
     0
  9
$DIMSD2
 70
     0
  9
$DIMTOLJ
 70
     0
  9
$DIMTZIN
 70
     0
  9
$DIMALTZ
 70
     0
  9
$DIMALTTZ
 70
     0
  9
$DIMUPT
 70
     0
  9
$DIMDEC
 70
     2
  9
$DIMTDEC
 70
     2
  9
$DIMALTU
 70
     2
  9
$DIMALTTD
 70
     3
  9
$DIMTXSTY
  7
Standard
  9
$DIMAUNIT
 70
     0
  9
$DIMADEC
 70
     2
  9
$DIMALTRND
 40
0.0
  9
$DIMAZIN
 70
     0
  9
$DIMDSEP
 70
    44
  9
$DIMATFIT
 70
     3
  9
$DIMFRAC
 70
     0
  9
$DIMLDRBLK
  1

  9
$DIMLUNIT
 70
     2
  9
$DIMLWD
 70
    -2
  9
$DIMLWE
 70
    -2
  9
$DIMTMOVE
 70
     0
  9
$LUNITS
 70
     2
  9
$LUPREC
 70
     2
  9
$SKETCHINC
 40
1.0
  9
$FILLETRAD
 40
10.0
  9
$AUNITS
 70
     0
  9
$AUPREC
 70
     2
  9
$MENU
  1
.
  9
$ELEVATION
 40
0.0
  9
$PELEVATION
 40
0.0
  9
$THICKNESS
 40
0.0
  9
$LIMCHECK
 70
     0
  9
$CHAMFERA
 40
0.0
  9
$CHAMFERB
 40
0.0
  9
$CHAMFERC
 40
0.0
  9
$CHAMFERD
 40
0.0
  9
$SKPOLY
 70
     0
  9
$TDCREATE
 40
2458320.37426125
  9
$TDUCREATE
 40
2458319.99926125
  9
$TDUPDATE
 40
2458331.403588009
  9
$TDUUPDATE
 40
2458331.028588009
  9
$TDINDWG
 40
0.0001058449
  9
$TDUSRTIMER
 40
2458331.028482454
  9
$USRTIMER
 70
     1
  9
$ANGBASE
 50
0.0
  9
$ANGDIR
 70
     0
  9
$PDMODE
 70
     0
  9
$PDSIZE
 40
-1.0
  9
$PLINEWID
 40
0.0
  9
$SPLFRAME
 70
     0
  9
$SPLINETYPE
 70
     6
  9
$SPLINESEGS
 70
     8
  9
$HANDSEED
  5
1A3
  9
$SURFTAB1
 70
     6
  9
$SURFTAB2
 70
     6
  9
$SURFTYPE
 70
     6
  9
$SURFU
 70
     6
  9
$SURFV
 70
     6
  9
$UCSBASE
  2

  9
$UCSNAME
  2

  9
$UCSORG
 10
0.0
 20
0.0
 30
0.0
  9
$UCSXDIR
 10
1.0
 20
0.0
 30
0.0
  9
$UCSYDIR
 10
0.0
 20
1.0
 30
0.0
  9
$UCSORTHOREF
  2

  9
$UCSORTHOVIEW
 70
     0
  9
$UCSORGTOP
 10
0.0
 20
0.0
 30
0.0
  9
$UCSORGBOTTOM
 10
0.0
 20
0.0
 30
0.0
  9
$UCSORGLEFT
 10
0.0
 20
0.0
 30
0.0
  9
$UCSORGRIGHT
 10
0.0
 20
0.0
 30
0.0
  9
$UCSORGFRONT
 10
0.0
 20
0.0
 30
0.0
  9
$UCSORGBACK
 10
0.0
 20
0.0
 30
0.0
  9
$PUCSBASE
  2

  9
$PUCSNAME
  2

  9
$PUCSORG
 10
0.0
 20
0.0
 30
0.0
  9
$PUCSXDIR
 10
1.0
 20
0.0
 30
0.0
  9
$PUCSYDIR
 10
0.0
 20
1.0
 30
0.0
  9
$PUCSORTHOREF
  2

  9
$PUCSORTHOVIEW
 70
     0
  9
$PUCSORGTOP
 10
0.0
 20
0.0
 30
0.0
  9
$PUCSORGBOTTOM
 10
0.0
 20
0.0
 30
0.0
  9
$PUCSORGLEFT
 10
0.0
 20
0.0
 30
0.0
  9
$PUCSORGRIGHT
 10
0.0
 20
0.0
 30
0.0
  9
$PUCSORGFRONT
 10
0.0
 20
0.0
 30
0.0
  9
$PUCSORGBACK
 10
0.0
 20
0.0
 30
0.0
  9
$USERI1
 70
     0
  9
$USERI2
 70
     0
  9
$USERI3
 70
     0
  9
$USERI4
 70
     0
  9
$USERI5
 70
     0
  9
$USERR1
 40
0.0
  9
$USERR2
 40
0.0
  9
$USERR3
 40
0.0
  9
$USERR4
 40
0.0
  9
$USERR5
 40
0.0
  9
$WORLDVIEW
 70
     1
  9
$SHADEDGE
 70
     3
  9
$SHADEDIF
 70
    70
  9
$TILEMODE
 70
     1
  9
$MAXACTVP
 70
    64
  9
$PINSBASE
 10
0.0
 20
0.0
 30
0.0
  9
$PLIMCHECK
 70
     0
  9
$PEXTMIN
 10
1.000000000000000E+20
 20
1.000000000000000E+20
 30
1.000000000000000E+20
  9
$PEXTMAX
 10
-1.000000000000000E+20
 20
-1.000000000000000E+20
 30
-1.000000000000000E+20
  9
$PLIMMIN
 10
0.0
 20
0.0
  9
$PLIMMAX
 10
0.0
 20
0.0
  9
$UNITMODE
 70
     0
  9
$VISRETAIN
 70
     1
  9
$PLINEGEN
 70
     0
  9
$PSLTSCALE
 70
     1
  9
$TREEDEPTH
 70
  3020
  9
$CMLSTYLE
  2
Standard
  9
$CMLJUST
 70
     0
  9
$CMLSCALE
 40
20.0
  9
$PROXYGRAPHICS
 70
     1
  9
$MEASUREMENT
 70
     1
  9
$CELWEIGHT
370
    -1
  9
$ENDCAPS
280
     0
  9
$JOINSTYLE
280
     0
  9
$LWDISPLAY
290
     1
  9
$INSUNITS
 70
     4
  9
$HYPERLINKBASE
  1

  9
$STYLESHEET
  1

  9
$XEDIT
290
     1
  9
$CEPSNTYPE
380
     0
  9
$PSTYLEMODE
290
     1
  9
$FINGERPRINTGUID
  2
{339EC795-6E4E-4ACE-8E73-8E2D855C1B82}
  9
$VERSIONGUID
  2
{FAEB1C32-E019-11D5-929B-00C0DF256EC4}
  9
$EXTNAMES
290
     1
  9
$PSVPSCALE
 40
0.0
  9
$OLESTARTUP
290
     0
  0
ENDSEC
  0
SECTION
  2
CLASSES
  0
CLASS
  1
ACDBDICTIONARYWDFLT
  2
AcDbDictionaryWithDefault
  3
ObjectDBX Classes
 90
        0
280
     0
281
     0
  0
CLASS
  1
VISUALSTYLE
  2
AcDbVisualStyle
  3
ObjectDBX Classes
 90
     4095
280
     0
281
     0
  0
CLASS
  1
MATERIAL
  2
AcDbMaterial
  3
ObjectDBX Classes
 90
     1153
280
     0
281
     0
  0
CLASS
  1
SCALE
  2
AcDbScale
  3
ObjectDBX Classes
 90
     1153
280
     0
281
     0
  0
CLASS
  1
SUN
  2
AcDbSun
  3
SCENEOE
 90
     1153
280
     0
281
     0
  0
CLASS
  1
ACDBPLACEHOLDER
  2
AcDbPlaceHolder
  3
ObjectDBX Classes
 90
        0
280
     0
281
     0
  0
CLASS
  1
LAYOUT
  2
AcDbLayout
  3
ObjectDBX Classes
 90
        0
280
     0
281
     0
  0
CLASS
  1
TABLESTYLE
  2
AcDbTableStyle
  3
ObjectDBX Classes
 90
     4095
280
     0
281
     0
  0
CLASS
  1
MLEADERSTYLE
  2
AcDbMLeaderStyle
  3
ACDB_MLEADERSTYLE_CLASS
 90
     4095
280
     0
281
     0
  0
CLASS
  1
RASTERVARIABLES
  2
AcDbRasterVariables
  3
ISM
 90
        0
280
     0
281
     0
  0
ENDSEC
  0
SECTION
  2
TABLES
  0
TABLE
  2
VPORT
  5
8
330
0
100
AcDbSymbolTable
 70
     1
  0
VPORT
  5
29
330
8
100
AcDbSymbolTableRecord
100
AcDbViewportTableRecord
  2
*Active
 70
     0
 10
0.0
 20
0.0
 11
1.0
 21
1.0
 12
-78.16839921642946
 22
-38.61573097473215
 13
0.0
 23
0.0
 14
10.0
 24
10.0
 15
10.0
 25
10.0
 16
0.0
 26
0.0
 36
1.0
 17
0.0
 27
0.0
 37
0.0
 40
195.4653696643755
 41
1.516441005802708
 42
50.0
 43
0.0
 44
0.0
 50
0.0
 51
0.0
 71
    16
 72
  2000
 73
     1
 74
     3
 75
     0
 76
     0
 77
     0
 78
     0
281
     0
 65
     1
110
0.0
120
0.0
130
0.0
111
1.0
121
0.0
131
0.0
112
0.0
122
1.0
132
0.0
 79
     0
146
0.0
  0
ENDTAB
  0
TABLE
  2
LTYPE
  5
5
330
0
100
AcDbSymbolTable
 70
     6
  0
LTYPE
  5
14
330
5
100
AcDbSymbolTableRecord
100
AcDbLinetypeTableRecord
  2
ByBlock
 70
     0
  3

 72
    65
 73
     0
 40
0.0
  0
LTYPE
  5
15
330
5
100
AcDbSymbolTableRecord
100
AcDbLinetypeTableRecord
  2
ByLayer
 70
     0
  3

 72
    65
 73
     0
 40
0.0
  0
LTYPE
  5
16
330
5
100
AcDbSymbolTableRecord
100
AcDbLinetypeTableRecord
  2
Continuous
 70
     0
  3
Solid line
 72
    65
 73
     0
 40
0.0
  0
LTYPE
  5
6A
330
5
100
AcDbSymbolTableRecord
100
AcDbLinetypeTableRecord
  2
HIDDEN
 70
     0
  3
Hidden __ __ __ __ __ __ __ __ __ __ __ __ __ __
 72
    65
 73
     2
 40
1.905
 49
1.27
 74
     0
 49
-0.635
 74
     0
  0
LTYPE
  5
6B
330
5
100
AcDbSymbolTableRecord
100
AcDbLinetypeTableRecord
  2
PHANTOM
 70
     0
  3
Phantom ______  __  __  ______  __  __  ______
 72
    65
 73
     6
 40
12.7
 49
6.35
 74
     0
 49
-1.27
 74
     0
 49
1.27
 74
     0
 49
-1.27
 74
     0
 49
1.27
 74
     0
 49
-1.27
 74
     0
  0
LTYPE
  5
6C
330
5
100
AcDbSymbolTableRecord
100
AcDbLinetypeTableRecord
  2
CENTER
 70
     0
  3
Center ____ _ ____ _ ____ _ ____ _ ____ _ ____
 72
    65
 73
     4
 40
10.16
 49
6.35
 74
     0
 49
-1.27
 74
     0
 49
1.27
 74
     0
 49
-1.27
 74
     0
  0
LTYPE
  5
6D
330
5
100
AcDbSymbolTableRecord
100
AcDbLinetypeTableRecord
  2
CENTERX2
 70
     0
  3
Center (2x) ________  __  ________  __  _____
 72
    65
 73
     4
 40
20.32
 49
12.7
 74
     0
 49
-2.54
 74
     0
 49
2.54
 74
     0
 49
-2.54
 74
     0
  0
LTYPE
  5
6E
330
5
100
AcDbSymbolTableRecord
100
AcDbLinetypeTableRecord
  2
DOT2
 70
     0
  3
Dot (.5x) ........................................
 72
    65
 73
     2
 40
0.635
 49
0.0
 74
     0
 49
-0.635
 74
     0
  0
ENDTAB
  0
TABLE
  2
LAYER
  5
2
102
{ACAD_XDICTIONARY
360
18C
102
}
330
0
100
AcDbSymbolTable
 70
    18
  0
LAYER
  5
10
330
2
100
AcDbSymbolTableRecord
100
AcDbLayerTableRecord
  2
0
 70
     0
 62
     7
  6
Continuous
370
    -3
390
F
  0
LAYER
  5
6F
330
2
100
AcDbSymbolTableRecord
100
AcDbLayerTableRecord
  2
FORMAT
 70
     0
 62
     2
  6
Continuous
370
    -3
390
F
  0
LAYER
  5
70
330
2
100
AcDbSymbolTableRecord
100
AcDbLayerTableRecord
  2
외형선
 70
     0
 62
     4
  6
Continuous
370
    30
390
F
  0
LAYER
  5
71
330
2
100
AcDbSymbolTableRecord
100
AcDbLayerTableRecord
  2
숨은선
 70
     0
 62
     2
  6
HIDDEN
370
    15
390
F
  0
LAYER
  5
72
330
2
100
AcDbSymbolTableRecord
100
AcDbLayerTableRecord
  2
중심선
 70
     0
 62
     1
  6
CENTERX2
370
    -3
390
F
  0
LAYER
  5
73
330
2
100
AcDbSymbolTableRecord
100
AcDbLayerTableRecord
  2
파단선
 70
     0
 62
     4
  6
Continuous
370
    -3
390
F
  0
LAYER
  5
74
330
2
100
AcDbSymbolTableRecord
100
AcDbLayerTableRecord
  2
해칭선
 70
     0
 62
   100
  6
Continuous
370
    -3
390
F
  0
LAYER
  5
75
330
2
100
AcDbSymbolTableRecord
100
AcDbLayerTableRecord
  2
가는실선
 70
     0
 62
     4
  6
Continuous
370
    -3
390
F
  0
LAYER
  5
76
330
2
100
AcDbSymbolTableRecord
100
AcDbLayerTableRecord
  2
치수_보조선
 70
     0
 62
     4
  6
Continuous
370
    -3
390
F
  0
LAYER
  5
77
330
2
100
AcDbSymbolTableRecord
100
AcDbLayerTableRecord
  2
치수문자_일반주서
 70
     0
 62
     7
  6
Continuous
370
    15
390
F
  0
LAYER
  5
78
330
2
100
AcDbSymbolTableRecord
100
AcDbLayerTableRecord
  2
개별주서
 70
     0
 62
   100
  6
Continuous
370
    30
390
F
  0
LAYER
  5
79
330
2
100
AcDbSymbolTableRecord
100
AcDbLayerTableRecord
  2
중간선
 70
     0
 62
     2
  6
Continuous
370
    15
390
F
  0
LAYER
  5
7A
330
2
100
AcDbSymbolTableRecord
100
AcDbLayerTableRecord
  2
윤곽선
 70
     0
 62
     3
  6
Continuous
370
    40
390
F
  0
LAYER
  5
7B
330
2
100
AcDbSymbolTableRecord
100
AcDbLayerTableRecord
  2
중심마크
 70
     0
 62
   100
  6
Continuous
370
    30
390
F
  0
LAYER
  5
7C
330
2
100
AcDbSymbolTableRecord
100
AcDbLayerTableRecord
  2
가상선
 70
     0
 62
     4
  6
PHANTOM
370
    -3
390
F
  0
LAYER
  5
7D
330
2
100
AcDbSymbolTableRecord
100
AcDbLayerTableRecord
  2
특수지정선
 70
     0
 62
     5
  6
CENTERX2
370
    60
390
F
  0
LAYER
  5
7E
330
2
100
AcDbSymbolTableRecord
100
AcDbLayerTableRecord
  2
참조1
 70
     0
 62
    -4
  6
Continuous
370
    -3
390
F
  0
LAYER
  5
142
330
2
100
AcDbSymbolTableRecord
100
AcDbLayerTableRecord
  2
Defpoints
 70
     0
 62
     7
  6
Continuous
290
     0
370
    -3
390
F
  0
ENDTAB
  0
TABLE
  2
STYLE
  5
3
330
0
100
AcDbSymbolTable
 70
     2
  0
STYLE
  5
11
330
3
100
AcDbSymbolTableRecord
100
AcDbTextStyleTableRecord
  2
Standard
 70
     0
 40
0.0
 41
1.0
 50
0.0
 71
     0
 42
3.5
  3
txt
  4

  0
STYLE
  5
94
330
3
100
AcDbSymbolTableRecord
100
AcDbTextStyleTableRecord
  2
SLDTEXTSTYLE0
 70
     0
 40
0.0
 41
0.75
 50
0.0
 71
     0
 42
3.5
  3
TXT
  4

  0
ENDTAB
  0
TABLE
  2
VIEW
  5
6
330
0
100
AcDbSymbolTable
 70
     0
  0
ENDTAB
  0
TABLE
  2
UCS
  5
7
330
0
100
AcDbSymbolTable
 70
     0
  0
ENDTAB
  0
TABLE
  2
APPID
  5
9
330
0
100
AcDbSymbolTable
 70
     1
  0
APPID
  5
12
330
9
100
AcDbSymbolTableRecord
100
AcDbRegAppTableRecord
  2
ACAD
 70
     0
  0
ENDTAB
  0
TABLE
  2
DIMSTYLE
  5
A
330
0
100
AcDbSymbolTable
 70
     3
100
AcDbDimStyleTable
  0
DIMSTYLE
105
27
330
A
100
AcDbSymbolTableRecord
100
AcDbDimStyleTableRecord
  2
ISO-25
 70
     0
 41
2.5
 42
0.625
 43
3.75
 44
1.25
 73
     0
 74
     0
 77
     1
 78
     8
140
2.5
141
2.5
143
0.03937007874016
147
0.625
171
     3
172
     1
178
     0
271
     2
272
     2
274
     3
278
    44
283
     0
284
     8
340
11
  0
DIMSTYLE
105
C1
102
{ACAD_REACTORS
330
C0
330
D5
330
E8
102
}
330
A
100
AcDbSymbolTableRecord
100
AcDbDimStyleTableRecord
  2
SLDDIMSTYLE0
 70
     0
 41
3.302
 44
0.0
 45
0.000000001
 73
     0
 74
     0
 77
     1
 78
    12
 79
     3
140
3.5
143
0.0393700787401575
147
0.875
148
0.000000001
170
     1
173
     1
178
     0
271
     2
272
     2
276
     2
284
    12
340
94
  0
DIMSTYLE
105
FC
102
{ACAD_REACTORS
330
FB
102
}
330
A
100
AcDbSymbolTableRecord
100
AcDbDimStyleTableRecord
  2
SLDDIMSTYLE1
 70
     0
 41
3.302
 44
0.0
 45
0.000000001
 73
     0
 74
     0
 77
     1
 78
    12
 79
     3
140
3.5
143
0.0393700787401575
147
0.875
148
0.000000001
170
     1
172
     1
173
     1
178
     0
271
     2
272
     2
276
     2
284
    12
289
     0
340
94
  0
ENDTAB
  0
TABLE
  2
BLOCK_RECORD
  5
1
330
0
100
AcDbSymbolTable
 70
     8
  0
BLOCK_RECORD
  5
1F
330
1
100
AcDbSymbolTableRecord
100
AcDbBlockTableRecord
  2
*Model_Space
340
22
  0
BLOCK_RECORD
  5
1B
330
1
100
AcDbSymbolTableRecord
100
AcDbBlockTableRecord
  2
*Paper_Space
340
1E
  0
BLOCK_RECORD
  5
23
330
1
100
AcDbSymbolTableRecord
100
AcDbBlockTableRecord
  2
*Paper_Space0
340
26
  0
BLOCK_RECORD
  5
7F
330
1
100
AcDbSymbolTableRecord
100
AcDbBlockTableRecord
  2
블럭10
340
0
102
{BLKREFS
331
B9
102
}
  0
BLOCK_RECORD
  5
C2
330
1
100
AcDbSymbolTableRecord
100
AcDbBlockTableRecord
  2
_D
340
0
  0
BLOCK_RECORD
  5
D6
330
1
100
AcDbSymbolTableRecord
100
AcDbBlockTableRecord
  2
_D_1
340
0
  0
BLOCK_RECORD
  5
E9
330
1
100
AcDbSymbolTableRecord
100
AcDbBlockTableRecord
  2
_D_2
340
0
  0
BLOCK_RECORD
  5
FD
330
1
100
AcDbSymbolTableRecord
100
AcDbBlockTableRecord
  2
_D_3
340
0
  0
BLOCK_RECORD
  5
117
330
1
100
AcDbSymbolTableRecord
100
AcDbBlockTableRecord
  2
SW_DOWELSYMBOL_0
340
0
102
{BLKREFS
331
11D
102
}
  0
ENDTAB
  0
ENDSEC
  0
SECTION
  2
BLOCKS
  0
BLOCK
  5
20
330
1F
100
AcDbEntity
  8
0
100
AcDbBlockBegin
  2
*Model_Space
 70
     0
 10
0.0
 20
0.0
 30
0.0
  3
*Model_Space
  1
*Model_Space
  0
ENDBLK
  5
21
330
1F
100
AcDbEntity
  8
0
100
AcDbBlockEnd
  0
BLOCK
  5
1C
330
1B
100
AcDbEntity
 67
     1
  8
0
100
AcDbBlockBegin
  2
*Paper_Space
 70
     0
 10
0.0
 20
0.0
 30
0.0
  3
*Paper_Space
  1
*Paper_Space
  0
ENDBLK
  5
1D
330
1B
100
AcDbEntity
 67
     1
  8
0
100
AcDbBlockEnd
  0
BLOCK
  5
24
330
23
100
AcDbEntity
  8
0
100
AcDbBlockBegin
  2
*Paper_Space0
 70
     0
 10
0.0
 20
0.0
 30
0.0
  3
*Paper_Space0
  1
*Paper_Space0
  0
ENDBLK
  5
25
330
23
100
AcDbEntity
  8
0
100
AcDbBlockEnd
  0
BLOCK
  5
80
330
7F
100
AcDbEntity
  8
0
100
AcDbBlockBegin
  2
블럭10
 70
     2
 10
0.0
 20
0.0
 30
0.0
  3
블럭10
  1
블럭10
  0
ELLIPSE
  5
82
330
7F
100
AcDbEntity
  8
중심선
100
AcDbEllipse
 10
20.54032771741204
 20
12.0471743016438
 30
0.0
 11
6.600054785286829
 21
-1.261213355974178E-13
 31
0.0
210
0.0
220
0.0
230
1.0
 40
0.636358354079598
 41
0.9219305317359503
 42
6.513795318482858
  0
ELLIPSE
  5
83
330
7F
100
AcDbEntity
  8
중심선
100
AcDbEllipse
 10
20.54032771746488
 20
12.04717430159265
 30
0.0
 11
3.960054785062283
 21
1.540847449632565E-10
 31
0.0
210
0.0
220
0.0
230
1.0
 40
0.3939339440162632
 41
1.131841032648279
 42
5.62031148352944
  0
LINE
  5
84
330
7F
100
AcDbEntity
  8
중심선
100
AcDbLine
 10
2.268634060543552
 20
16.24717430164393
 30
0.0
 11
5.714909304380834
 21
16.24717430164393
 31
0.0
  0
LINE
  5
85
330
7F
100
AcDbEntity
  8
중심선
100
AcDbLine
 10
5.245725140726316
 20
7.84717430164391
 30
0.0
 11
8.692000384563599
 21
7.84717430164391
 31
0.0
  0
LINE
  5
86
330
7F
100
AcDbEntity
  8
중심선
100
AcDbLine
 10
15.74043728645272
 20
16.24717430164393
 30
0.0
 11
8.692000384563599
 21
7.84717430164391
 31
0.0
  0
LINE
  5
87
330
7F
100
AcDbEntity
  8
중심선
100
AcDbLine
 10
0.1404042013395286
 20
13.71084872107135
 30
0.0
 11
3.58671253028996
 21
13.71088815037384
 31
0.0
  0
LINE
  5
88
330
7F
100
AcDbEntity
  8
중심선
100
AcDbLine
 10
2.750260043222114
 20
10.84717430164391
 30
0.0
 11
6.196535287059397
 21
10.84717430164391
 31
0.0
  0
LINE
  5
89
330
7F
100
AcDbEntity
  8
중심선
100
AcDbLine
 10
12.29416204261559
 20
16.24717430164393
 30
0.0
 11
5.245725140726316
 21
7.84717430164391
 31
0.0
  0
LINE
  5
8A
330
7F
100
AcDbEntity
  8
중심선
100
AcDbLine
 10
10.72767329541681
 20
16.24717430164393
 30
0.0
 11
6.196535287059397
 21
10.84717430164391
 31
0.0
  0
LINE
  5
8B
330
7F
100
AcDbEntity
  8
중심선
100
AcDbLine
 10
7.28139805157953
 20
16.24717430164393
 30
0.0
 11
2.750260043222114
 21
10.84717430164391
 31
0.0
  0
LINE
  5
8C
330
7F
100
AcDbEntity
  8
중심선
100
AcDbLine
 10
5.714909304380834
 20
16.24717430164393
 30
0.0
 11
3.58671253028996
 21
13.71088815037384
 31
0.0
  0
LINE
  5
8D
330
7F
100
AcDbEntity
  8
중심선
100
AcDbLine
 10
2.268634060543552
 20
16.24717430164393
 30
0.0
 11
0.1404042013395286
 21
13.71084872107135
 31
0.0
  0
LINE
  5
8E
330
7F
100
AcDbEntity
  8
중심선
100
AcDbLine
 10
7.28139805157953
 20
16.24717430164393
 30
0.0
 11
10.72767329541681
 21
16.24717430164393
 31
0.0
  0
LINE
  5
8F
330
7F
100
AcDbEntity
  8
중심선
100
AcDbLine
 10
12.29416204261559
 20
16.24717430164393
 30
0.0
 11
15.74043728645272
 21
16.24717430164393
 31
0.0
  0
LINE
  5
90
330
7F
100
AcDbEntity
  8
중심선
100
AcDbLine
 10
19.22036997980202
 20
11.08717430171403
 30
0.0
 11
23.66174974927406
 21
11.08717430171406
 31
0.0
  0
LINE
  5
91
330
7F
100
AcDbEntity
  8
중심선
100
AcDbLine
 10
19.22039502424796
 20
13.00717430171391
 30
0.0
 11
19.22036997980202
 21
11.08717430171403
 31
0.0
  0
LINE
  5
92
330
7F
100
AcDbEntity
  8
중심선
100
AcDbLine
 10
19.22039502424796
 20
13.00717430171391
 30
0.0
 11
26.96566020931264
 21
13.00717430171391
 31
0.0
  0
LINE
  5
93
330
7F
100
AcDbEntity
  8
중심선
100
AcDbLine
 10
22.22332737316547
 20
13.45928029700563
 30
0.0
 11
24.52862924686651
 21
15.39360700705356
 31
0.0
  0
ATTDEF
  5
95
330
7F
100
AcDbEntity
  8
FORMAT
 62
     2
100
AcDbText
 10
4.408487351596664
 20
2.075366912832191
 30
0.0
 40
4.233333333333333
  1
E2069048
 41
0.75
  7
SLDTEXTSTYLE0
 11
4.408487351596664
 21
-0.0412997538344756
 31
0.0
100
AcDbAttributeDefinition
  3

  2
AUTOATTR0
 70
     0
 74
     1
  0
ENDBLK
  5
81
330
7F
100
AcDbEntity
  8
0
100
AcDbBlockEnd
  0
BLOCK
  5
C3
330
C2
100
AcDbEntity
  8
0
100
AcDbBlockBegin
  2
_D
 70
     0
 10
0.0
 20
0.0
 30
0.0
  3
_D
  1
_D
  0
LINE
  5
C5
330
C2
100
AcDbEntity
  8
치수문자_일반주서
 62
     0
370
    -2
100
AcDbLine
 10
71.43750000000003
 20
1.377514629548134
 30
0.0
 11
71.43750000000003
 21
22.82277225922701
 31
0.0
  0
LINE
  5
C6
330
C2
100
AcDbEntity
  8
치수문자_일반주서
 62
     0
370
    -2
100
AcDbLine
 10
30.16250000000002
 20
9.5875
 30
0.0
 11
30.16250000000002
 21
22.82277225922701
 31
0.0
  0
LINE
  5
C7
330
C2
100
AcDbEntity
  8
치수문자_일반주서
 62
     0
370
    -2
100
AcDbLine
 10
68.13550000000004
 20
22.82277225922701
 30
0.0
 11
33.46450000000002
 21
22.82277225922701
 31
0.0
  0
SOLID
  5
C8
330
C2
100
AcDbEntity
  8
치수문자_일반주서
 62
     0
100
AcDbTrace
 10
68.13550000000004
 20
22.27243892589368
 30
0.0
 11
68.13550000000004
 21
23.37310559256035
 31
0.0
 12
71.43750000000003
 22
22.82277225922701
 32
0.0
 13
71.43750000000003
 23
22.82277225922701
 33
0.0
  0
SOLID
  5
C9
330
C2
100
AcDbEntity
  8
치수문자_일반주서
 62
     0
100
AcDbTrace
 10
33.46450000000002
 20
23.37310559256035
 30
0.0
 11
33.46450000000002
 21
22.27243892589368
 31
0.0
 12
30.16250000000002
 22
22.82277225922701
 32
0.0
 13
30.16250000000002
 23
22.82277225922701
 33
0.0
  0
MTEXT
  5
CA
330
C2
100
AcDbEntity
  8
치수문자_일반주서
 62
     0
100
AcDbMText
 10
50.80000000000002
 20
27.19777225922701
 30
0.0
 40
3.5
 41
0.0
 71
     2
 72
     1
  1
\A1;41.28 [1 5/8]
  7
SLDTEXTSTYLE0
 73
     1
 44
1.0
  0
POINT
  5
CB
330
C2
100
AcDbEntity
  8
Defpoints
 62
     0
100
AcDbPoint
 10
71.43750000000003
 20
1.315014629548134
 30
0.0
  0
POINT
  5
CC
330
C2
100
AcDbEntity
  8
Defpoints
 62
     0
100
AcDbPoint
 10
30.16250000000002
 20
9.525
 30
0.0
  0
POINT
  5
CD
330
C2
100
AcDbEntity
  8
Defpoints
 62
     0
100
AcDbPoint
 10
30.16250000000002
 20
22.82277225922701
 30
0.0
  0
ENDBLK
  5
C4
330
C2
100
AcDbEntity
  8
0
100
AcDbBlockEnd
  0
BLOCK
  5
D7
330
D6
100
AcDbEntity
  8
0
100
AcDbBlockBegin
  2
_D_1
 70
     0
 10
0.0
 20
0.0
 30
0.0
  3
_D_1
  1
_D_1
  0
LINE
  5
D9
330
D6
100
AcDbEntity
  8
치수문자_일반주서
 62
     0
370
    -2
100
AcDbLine
 10
71.43750000000003
 20
1.377514629548134
 30
0.0
 11
71.43750000000004
 21
35.75282056895201
 31
0.0
  0
LINE
  5
DA
330
D6
100
AcDbEntity
  8
치수문자_일반주서
 62
     0
370
    -2
100
AcDbLine
 10
-71.43750000000001
 20
7.682500000000011
 30
0.0
 11
-71.4375
 21
35.75282056895201
 31
0.0
  0
LINE
  5
DB
330
D6
100
AcDbEntity
  8
치수문자_일반주서
 62
     0
370
    -2
100
AcDbLine
 10
68.13550000000004
 20
35.75282056895201
 30
0.0
 11
-68.13550000000001
 21
35.75282056895201
 31
0.0
  0
SOLID
  5
DC
330
D6
100
AcDbEntity
  8
치수문자_일반주서
 62
     0
100
AcDbTrace
 10
68.13550000000004
 20
35.20248723561868
 30
0.0
 11
68.13550000000004
 21
36.30315390228535
 31
0.0
 12
71.43750000000004
 22
35.75282056895201
 32
0.0
 13
71.43750000000004
 23
35.75282056895201
 33
0.0
  0
SOLID
  5
DD
330
D6
100
AcDbEntity
  8
치수문자_일반주서
 62
     0
100
AcDbTrace
 10
-68.13550000000001
 20
36.30315390228535
 30
0.0
 11
-68.13550000000001
 21
35.20248723561868
 31
0.0
 12
-71.4375
 22
35.75282056895201
 32
0.0
 13
-71.4375
 23
35.75282056895201
 33
0.0
  0
MTEXT
  5
DE
330
D6
100
AcDbEntity
  8
치수문자_일반주서
 62
     0
100
AcDbMText
 10
0.0000000000000036
 20
40.12782056895201
 30
0.0
 40
3.5
 41
0.0
 71
     2
 72
     1
  1
\A1;142.88 [5 5/8]
  7
SLDTEXTSTYLE0
 73
     1
 44
1.0
  0
POINT
  5
DF
330
D6
100
AcDbEntity
  8
Defpoints
 62
     0
100
AcDbPoint
 10
71.43750000000003
 20
1.315014629548134
 30
0.0
  0
POINT
  5
E0
330
D6
100
AcDbEntity
  8
Defpoints
 62
     0
100
AcDbPoint
 10
-71.43750000000001
 20
7.620000000000011
 30
0.0
  0
POINT
  5
E1
330
D6
100
AcDbEntity
  8
Defpoints
 62
     0
100
AcDbPoint
 10
-71.43750000000001
 20
35.75282056895201
 30
0.0
  0
ENDBLK
  5
D8
330
D6
100
AcDbEntity
  8
0
100
AcDbBlockEnd
  0
BLOCK
  5
EA
330
E9
100
AcDbEntity
  8
0
100
AcDbBlockBegin
  2
_D_2
 70
     0
 10
0.0
 20
0.0
 30
0.0
  3
_D_2
  1
_D_2
  0
LINE
  5
EC
330
E9
100
AcDbEntity
  8
치수문자_일반주서
 62
     0
370
    -2
100
AcDbLine
 10
37.44740239175147
 20
9.524999999999991
 30
0.0
 11
85.7017853655851
 21
9.525000000000173
 31
0.0
  0
LINE
  5
ED
330
E9
100
AcDbEntity
  8
치수문자_일반주서
 62
     0
370
    -2
100
AcDbLine
 10
37.44740239175156
 20
-9.525000000000002
 30
0.0
 11
85.70178536558517
 21
-9.524999999999824
 31
0.0
  0
LINE
  5
EE
330
E9
100
AcDbEntity
  8
치수문자_일반주서
 62
     0
370
    -2
100
AcDbLine
 10
85.7017853655851
 20
9.525000000000173
 30
0.0
 11
85.70178536558498
 21
40.38950000000017
 31
0.0
  0
LINE
  5
EF
330
E9
100
AcDbEntity
  8
치수문자_일반주서
 62
     0
370
    -2
100
AcDbLine
 10
85.70178536558511
 20
6.223000000000173
 30
0.0
 11
85.70178536558515
 21
-6.222999999999825
 31
0.0
  0
SOLID
  5
F0
330
E9
100
AcDbEntity
  8
치수문자_일반주서
 62
     0
100
AcDbTrace
 10
86.25211869891844
 20
6.223000000000175
 30
0.0
 11
85.15145203225178
 21
6.223000000000171
 31
0.0
 12
85.7017853655851
 22
9.525000000000173
 32
0.0
 13
85.7017853655851
 23
9.525000000000173
 33
0.0
  0
SOLID
  5
F1
330
E9
100
AcDbEntity
  8
치수문자_일반주서
 62
     0
100
AcDbTrace
 10
85.15145203225183
 20
-6.222999999999827
 30
0.0
 11
86.25211869891848
 21
-6.222999999999823
 31
0.0
 12
85.70178536558517
 22
-9.524999999999824
 32
0.0
 13
85.70178536558517
 23
-9.524999999999824
 33
0.0
  0
MTEXT
  5
F2
330
E9
100
AcDbEntity
  8
치수문자_일반주서
 62
     0
100
AcDbMText
 10
81.32678536558504
 20
26.60825000000015
 30
0.0
 40
3.5
 41
0.0
 71
     2
 72
     1
  1
\A1;%%c19.05 [3/4]
  7
SLDTEXTSTYLE0
 11
-3.729883127349609E-15
 21
1.0
 31
0.0
 73
     1
 44
1.0
  0
POINT
  5
F3
330
E9
100
AcDbEntity
  8
Defpoints
 62
     0
100
AcDbPoint
 10
37.38490239175147
 20
9.524999999999991
 30
0.0
  0
POINT
  5
F4
330
E9
100
AcDbEntity
  8
Defpoints
 62
     0
100
AcDbPoint
 10
37.38490239175156
 20
-9.525000000000002
 30
0.0
  0
POINT
  5
F5
330
E9
100
AcDbEntity
  8
Defpoints
 62
     0
100
AcDbPoint
 10
85.70178536558518
 20
-9.524999999999821
 30
0.0
  0
ENDBLK
  5
EB
330
E9
100
AcDbEntity
  8
0
100
AcDbBlockEnd
  0
BLOCK
  5
FE
330
FD
100
AcDbEntity
  8
0
100
AcDbBlockBegin
  2
_D_3
 70
     0
 10
0.0
 20
0.0
 30
0.0
  3
_D_3
  1
_D_3
  0
LINE
  5
100
330
FD
100
AcDbEntity
  8
치수문자_일반주서
 62
     0
370
    -2
100
AcDbLine
 10
-30.22499999999997
 20
9.525000000000006
 30
0.0
 11
-83.48500000000008
 21
9.524999999999807
 31
0.0
  0
LINE
  5
101
330
FD
100
AcDbEntity
  8
치수문자_일반주서
 62
     0
370
    -2
100
AcDbLine
 10
-30.225
 20
-9.489972684307272
 30
0.0
 11
-83.48500000000001
 21
-9.489972684307471
 31
0.0
  0
LINE
  5
102
330
FD
100
AcDbEntity
  8
치수문자_일반주서
 62
     0
370
    -2
100
AcDbLine
 10
-83.48500000000007
 20
6.222999999999807
 30
0.0
 11
-83.48500000000003
 21
-6.187972684307471
 31
0.0
  0
SOLID
  5
103
330
FD
100
AcDbEntity
  8
치수문자_일반주서
 62
     0
100
AcDbTrace
 10
-82.93466666666674
 20
6.222999999999809
 30
0.0
 11
-84.0353333333334
 21
6.222999999999805
 31
0.0
 12
-83.48500000000008
 22
9.524999999999807
 32
0.0
 13
-83.48500000000008
 23
9.524999999999807
 33
0.0
  0
SOLID
  5
104
330
FD
100
AcDbEntity
  8
치수문자_일반주서
 62
     0
100
AcDbTrace
 10
-84.03533333333336
 20
-6.187972684307473
 30
0.0
 11
-82.9346666666667
 21
-6.18797268430747
 31
0.0
 12
-83.48500000000001
 22
-9.489972684307471
 32
0.0
 13
-83.48500000000001
 23
-9.489972684307471
 33
0.0
  0
MTEXT
  5
105
330
FD
100
AcDbEntity
  8
치수문자_일반주서
 62
     0
100
AcDbMText
 10
-87.86000000000004
 20
-0.0000000000000135
 30
0.0
 40
3.5
 41
0.0
 71
     2
 72
     1
  1
\A1;%%c19.01 [3/4]
  7
SLDTEXTSTYLE0
 11
-3.736753912596985E-15
 21
1.0
 31
0.0
 73
     1
 44
1.0
  0
POINT
  5
106
330
FD
100
AcDbEntity
  8
Defpoints
 62
     0
100
AcDbPoint
 10
-30.16249999999997
 20
9.525000000000006
 30
0.0
  0
POINT
  5
107
330
FD
100
AcDbEntity
  8
Defpoints
 62
     0
100
AcDbPoint
 10
-30.1625
 20
-9.489972684307272
 30
0.0
  0
POINT
  5
108
330
FD
100
AcDbEntity
  8
Defpoints
 62
     0
100
AcDbPoint
 10
-83.48500000000001
 20
-9.489972684307471
 30
0.0
  0
ENDBLK
  5
FF
330
FD
100
AcDbEntity
  8
0
100
AcDbBlockEnd
  0
BLOCK
  5
118
330
117
100
AcDbEntity
  8
0
100
AcDbBlockBegin
  2
SW_DOWELSYMBOL_0
 70
     0
 10
0.0
 20
0.0
 30
0.0
  3
SW_DOWELSYMBOL_0
  1
SW_DOWELSYMBOL_0
  0
CIRCLE
  5
11A
330
117
100
AcDbEntity
  8
해칭선
 62
     0
100
AcDbCircle
 10
0.0
 20
0.0
 30
0.0
 40
3.000000000000001
  0
HATCH
  5
11B
330
117
100
AcDbEntity
  8
0
  6
Continuous
 62
     0
370
     0
100
AcDbHatch
 10
0.0
 20
0.0
 30
0.0
210
0.0
220
0.0
230
1.0
  2
SOLID
 70
     1
 71
     0
 91
        1
 92
        0
 93
        3
 72
     2
 10
0.0
 20
0.0
 40
3.000000000000001
 50
0.0
 51
90.0
 73
     1
 72
     1
 10
0.0
 20
3.000000000000001
 11
0.0
 21
0.0
 72
     1
 10
0.0
 20
0.0
 11
3.000000000000003
 21
0.0
 97
        0
 75
     0
 76
     1
 98
        1
 10
0.0
 20
0.0
  0
HATCH
  5
11C
330
117
100
AcDbEntity
  8
0
  6
Continuous
 62
     0
370
     0
100
AcDbHatch
 10
0.0
 20
0.0
 30
0.0
210
0.0
220
0.0
230
1.0
  2
SOLID
 70
     1
 71
     0
 91
        1
 92
        0
 93
        3
 72
     2
 10
0.0
 20
0.0
 40
3.000000000000001
 50
180.0
 51
270.0000000000008
 73
     1
 72
     1
 10
0.0
 20
-3.000000000000001
 11
0.0
 21
0.0
 72
     1
 10
0.0
 20
0.0
 11
-3.000000000000003
 21
0.0
 97
        0
 75
     0
 76
     1
 98
        1
 10
0.0
 20
0.0
  0
ENDBLK
  5
119
330
117
100
AcDbEntity
  8
0
100
AcDbBlockEnd
  0
ENDSEC
  0
SECTION
  2
ENTITIES
  0
LINE
  5
96
330
1F
100
AcDbEntity
  8
외형선
  6
Continuous
 62
     1
370
    15
100
AcDbLine
 10
37.3865173576376
 20
9.524999999999991
 30
0.0
 11
31.577804849979
 21
9.524999999999991
 31
0.0
  0
LINE
  5
97
330
1F
100
AcDbEntity
  8
외형선
  6
Continuous
 62
     1
370
    15
100
AcDbLine
 10
57.49237498846231
 20
-9.525000000000002
 30
0.0
 11
61.9125
 21
-9.525000000000002
 31
0.0
  0
ARC
  5
98
330
1F
100
AcDbEntity
  8
외형선
  6
Continuous
 62
     1
370
    15
100
AcDbCircle
 10
61.9125
 20
0.0000000000000027
 30
0.0
 40
9.524999999999986
100
AcDbArc
 50
335.7666151870783
 51
0.0
  0
ARC
  5
99
330
1F
100
AcDbEntity
  8
외형선
  6
Continuous
 62
     1
370
    15
100
AcDbCircle
 10
61.9125
 20
0.0000000000000027
 30
0.0
 40
9.524999999999995
100
AcDbArc
 50
270.0000000000007
 51
278.1058271476205
  0
ARC
  5
9A
330
1F
100
AcDbEntity
  8
외형선
  6
Continuous
 62
     1
370
    15
100
AcDbCircle
 10
61.9125
 20
0.0000000000000027
 30
0.0
 40
9.524999999999988
100
AcDbArc
 50
81.8936166925605
 51
90.0
  0
ARC
  5
9B
330
1F
100
AcDbEntity
  8
외형선
  6
Continuous
 62
     1
370
    15
100
AcDbCircle
 10
61.9125
 20
0.0000000000000027
 30
0.0
 40
9.524999999999979
100
AcDbArc
 50
0.0
 51
24.23665848937572
  0
LINE
  5
9C
330
1F
100
AcDbEntity
  8
외형선
  6
Continuous
 62
     1
370
    15
100
AcDbLine
 10
31.57780484997898
 20
-9.525000000000002
 30
0.0
 11
37.38651735763771
 21
-9.525000000000002
 31
0.0
  0
LINE
  5
9D
330
1F
100
AcDbEntity
  8
외형선
  6
Continuous
 62
     1
370
    15
100
AcDbLine
 10
61.9125
 20
9.524999999999991
 30
0.0
 11
57.49237498846222
 21
9.524999999999991
 31
0.0
  0
LINE
  5
A1
330
1F
100
AcDbEntity
  8
외형선
  6
Continuous
370
    15
100
AcDbLine
 10
30.16249999999997
 20
9.524999999999993
 30
0.0
 11
7.696199999999987
 21
9.524999999999993
 31
0.0
  0
SPLINE
  5
A2
330
1F
100
AcDbEntity
  8
외형선
  6
Continuous
 62
     1
370
    15
100
AcDbSpline
210
0.0
220
0.0
230
1.0
 70
     8
 71
     3
 72
    17
 73
    13
 74
     0
 42
0.000000001
 43
0.00000001
 40
0.0
 40
0.0
 40
0.0
 40
0.0
 40
0.1084391854259878
 40
0.2168766117909726
 40
0.3253123823321287
 40
0.4337466004980652
 40
0.5421793699357647
 40
0.6506107944774714
 40
0.7528479524535558
 40
0.8550768383187991
 40
0.9573002295960124
 40
1.0
 40
1.0
 40
1.0
 40
1.0
 10
30.16250000000002
 20
0.8161148516610913
 30
0.0
 10
31.15040678163382
 20
0.2453505790359878
 30
0.0
 10
33.12620431943715
 20
-0.8961687074838995
 30
0.0
 10
36.08986544824605
 20
-2.586647741814464
 30
0.0
 10
39.05347204897041
 20
-4.192016974883937
 30
0.0
 10
42.01703117859185
 20
-5.662894711883088
 30
0.0
 10
44.98052932490969
 20
-6.95174765656662
 30
0.0
 10
47.8876140121145
 20
-7.995395381365648
 30
0.0
 10
50.73799748150295
 20
-8.782209020017484
 30
0.0
 10
53.531812748293
 20
-9.285804045192707
 30
0.0
 10
55.78323725553596
 20
-9.52694988655899
 30
0.0
 10
57.10340447204586
 20
-9.499799780371095
 30
0.0
 10
57.49237498846231
 20
-9.491800346138373
 30
0.0
  0
SPLINE
  5
A3
330
1F
100
AcDbEntity
  8
외형선
  6
Continuous
 62
     1
370
    15
100
AcDbSpline
210
0.0
220
0.0
230
1.0
 70
     8
 71
     3
 72
    14
 73
    10
 74
     0
 42
0.000000001
 43
0.00000001
 40
0.0
 40
0.0
 40
0.0
 40
0.0
 40
0.0202316962382279
 40
0.1916746301515826
 40
0.3533134590632336
 40
0.5149610266799007
 40
0.6766217247634857
 40
0.8382999301867958
 40
1.0
 40
1.0
 40
1.0
 40
1.0
 10
47.44615560866202
 20
-7.795519386704393
 30
0.0
 10
47.32959452569839
 20
-7.838161365077006
 30
0.0
 10
46.22529747595788
 20
-8.24215049862572
 30
0.0
 10
44.18969413114215
 20
-8.75653439621946
 30
0.0
 10
41.33962014932272
 20
-9.300686595447436
 30
0.0
 10
38.54579215541407
 20
-9.546802047041595
 30
0.0
 10
35.75171120871918
 20
-9.521010383064379
 30
0.0
 10
32.95726817408615
 20
-9.23887410616662
 30
0.0
 10
31.09413138176188
 20
-8.830710468807512
 30
0.0
 10
30.16249999999997
 20
-8.626614851660976
 30
0.0
  0
SPLINE
  5
A4
330
1F
100
AcDbEntity
  8
외형선
  6
Continuous
 62
     1
370
    15
100
AcDbSpline
210
0.0
220
0.0
230
1.0
 70
     8
 71
     3
 72
    44
 73
    40
 74
     0
 42
0.000000001
 43
0.00000001
 40
0.0
 40
0.0
 40
0.0
 40
0.0
 40
0.0625000000000002
 40
0.0625000000000002
 40
0.1250000000000005
 40
0.1250000000000005
 40
0.1875000000000007
 40
0.1875000000000007
 40
0.250000000000001
 40
0.250000000000001
 40
0.3125000000000012
 40
0.3125000000000012
 40
0.3750000000000015
 40
0.3750000000000015
 40
0.4375000000000018
 40
0.4375000000000018
 40
0.500000000000002
 40
0.500000000000002
 40
0.5625000000000022
 40
0.5625000000000022
 40
0.5937500000000023
 40
0.5937500000000023
 40
0.6250000000000024
 40
0.6250000000000024
 40
0.6562500000000027
 40
0.6562500000000027
 40
0.6875000000000028
 40
0.6875000000000028
 40
0.750000000000003
 40
0.750000000000003
 40
0.7812500000000027
 40
0.7812500000000027
 40
0.8125000000000023
 40
0.8125000000000023
 40
0.8750000000000016
 40
0.8750000000000016
 40
0.9375000000000009
 40
0.9375000000000009
 40
1.0
 40
1.0
 40
1.0
 40
1.0
 10
30.1625
 20
9.489972684307274
 30
0.0
 10
30.82114792923107
 20
9.522647822270628
 30
0.0
 10
31.48530593522398
 20
9.532512528810187
 30
0.0
 10
32.81029903146555
 20
9.506141687827895
 30
0.0
 10
33.46801369494085
 20
9.470053707919185
 30
0.0
 10
34.79244523609168
 20
9.352276488666442
 30
0.0
 10
35.45684818357155
 20
9.270531156622758
 30
0.0
 10
36.77566785655265
 20
9.063284507460523
 30
0.0
 10
37.43808020490279
 20
8.937398594669235
 30
0.0
 10
38.7634827178024
 20
8.643046111149719
 30
0.0
 10
39.42147194184752
 20
8.475031943545687
 30
0.0
 10
40.745190004481
 20
8.098357587827632
 30
0.0
 10
41.40976109626924
 20
7.889703120362599
 30
0.0
 10
42.72995480287326
 20
7.436375365745872
 30
0.0
 10
43.39089425957722
 20
7.19114625708836
 30
0.0
 10
44.71655389387622
 20
6.666694659653601
 30
0.0
 10
45.375092134057
 20
6.388325068071165
 30
0.0
 10
46.69794506775975
 20
5.801376677491791
 30
0.0
 10
47.36260744163048
 20
5.492677617703873
 30
0.0
 10
48.35367051846041
 20
5.011822706830393
 30
0.0
 10
48.68255897602591
 20
4.848664724882576
 30
0.0
 10
49.34374077675458
 20
4.5161446177279
 30
0.0
 10
49.67520586113756
 20
4.346913640131033
 30
0.0
 10
50.33808804209743
 20
4.003414004653044
 30
0.0
 10
50.66950405351424
 20
3.829145909992532
 30
0.0
 10
51.33049044755027
 20
3.476531738952688
 30
0.0
 10
51.65934975582591
 20
3.298318156350166
 30
0.0
 10
52.65072711969578
 20
2.757179596864813
 30
0.0
 10
53.31540387810178
 20
2.388198698408207
 30
0.0
 10
54.30727167333267
 20
1.828377152436367
 30
0.0
 10
54.63617975416521
 20
1.640880231160654
 30
0.0
 10
55.29681557173829
 20
1.263603934596033
 30
0.0
 10
55.62813755183284
 20
1.07389924889294
 30
0.0
 10
56.6224250435529
 20
0.503121213865834
 30
0.0
 10
57.28288373825674
 20
0.1209300575778122
 30
0.0
 10
58.60355284358514
 20
-0.6421468669736163
 30
0.0
 10
59.26816708341283
 20
-1.02387621415799
 30
0.0
 10
60.59157925385643
 20
-1.779450449809413
 30
0.0
 10
61.24974173314845
 20
-2.153188850187751
 30
0.0
 10
61.9125
 20
-2.521700735090842
 30
0.0
  0
SPLINE
  5
A5
330
1F
100
AcDbEntity
  8
외형선
  6
Continuous
 62
     1
370
    15
100
AcDbSpline
210
0.0
220
0.0
230
1.0
 70
     8
 71
     3
 72
    56
 73
    52
 74
     0
 42
0.000000001
 43
0.00000001
 40
0.0
 40
0.0
 40
0.0
 40
0.0
 40
0.0625000000000036
 40
0.0625000000000036
 40
0.0937500000000055
 40
0.0937500000000055
 40
0.1250000000000073
 40
0.1250000000000073
 40
0.1875000000000109
 40
0.1875000000000109
 40
0.2187500000000113
 40
0.2187500000000113
 40
0.2500000000000118
 40
0.2500000000000118
 40
0.3125000000000104
 40
0.3125000000000104
 40
0.375000000000009
 40
0.375000000000009
 40
0.4062500000000083
 40
0.4062500000000083
 40
0.4375000000000075
 40
0.4375000000000075
 40
0.4687500000000068
 40
0.4687500000000068
 40
0.5000000000000061
 40
0.5000000000000061
 40
0.5312500000000053
 40
0.5312500000000053
 40
0.5468750000000052
 40
0.5468750000000052
 40
0.562500000000005
 40
0.562500000000005
 40
0.5937500000000047
 40
0.5937500000000047
 40
0.6250000000000043
 40
0.6250000000000043
 40
0.6562500000000041
 40
0.6562500000000041
 40
0.6875000000000038
 40
0.6875000000000038
 40
0.750000000000003
 40
0.750000000000003
 40
0.7812500000000026
 40
0.7812500000000026
 40
0.8125000000000022
 40
0.8125000000000022
 40
0.8750000000000014
 40
0.8750000000000014
 40
0.9375000000000008
 40
0.9375000000000008
 40
1.0
 40
1.0
 40
1.0
 40
1.0
 10
61.9125
 20
-2.521700735090844
 30
0.0
 10
62.39646205611509
 20
-2.790796993018748
 30
0.0
 10
62.8783250495278
 20
-3.034169358260953
 30
0.0
 10
63.60289920786246
 20
-3.35324925026488
 30
0.0
 10
63.84464104075401
 20
-3.452051725642415
 30
0.0
 10
64.32972486845438
 20
-3.63211349712725
 30
0.0
 10
64.57435767443394
 20
-3.713865355232719
 30
0.0
 10
65.29942015633486
 20
-3.928260578914212
 30
0.0
 10
65.77009167651451
 20
-4.030188114988301
 30
0.0
 10
66.45619772490855
 20
-4.126917391168054
 30
0.0
 10
66.68149274617971
 20
-4.149910726375079
 30
0.0
 10
67.12476266624807
 20
-4.17778395325642
 30
0.0
 10
67.34284712746117
 20
-4.182481626621787
 30
0.0
 10
67.97185961046196
 20
-4.172425494364008
 30
0.0
 10
68.3624210401334
 20
-4.133749208543581
 30
0.0
 10
69.07807405825474
 20
-4.020157254743128
 30
0.0
 10
69.40437584071566
 20
-3.944364409665996
 30
0.0
 10
69.81771020651249
 20
-3.836435957205172
 30
0.0
 10
69.9435095323145
 20
-3.801386199655894
 30
0.0
 10
70.16886437852449
 20
-3.739713631415788
 30
0.0
 10
70.26880366840052
 20
-3.712993599633121
 30
0.0
 10
70.43677089750804
 20
-3.677196069864563
 30
0.0
 10
70.5039824056324
 20
-3.668278074826006
 30
0.0
 10
70.60147549192786
 20
-3.678005131322995
 30
0.0
 10
70.63183488895643
 20
-3.697047306078472
 30
0.0
 10
70.64820246947215
 20
-3.773626339526104
 30
0.0
 10
70.63476486836663
 20
-3.830616643098642
 30
0.0
 10
70.57826556006657
 20
-3.952369254790424
 30
0.0
 10
70.55323959353518
 20
-3.999083143542454
 30
0.0
 10
70.49210451637953
 20
-4.102741428846385
 30
0.0
 10
70.45587579847648
 20
-4.159971951114615
 30
0.0
 10
70.33011385116436
 20
-4.34839916752908
 30
0.0
 10
70.22131606214961
 20
-4.499287121194337
 30
0.0
 10
69.96817399955191
 20
-4.831043349365711
 30
0.0
 10
69.82283040180937
 20
-5.013430925676826
 30
0.0
 10
69.50269290133369
 20
-5.398058393266664
 30
0.0
 10
69.33144344995597
 20
-5.596090305410571
 30
0.0
 10
68.9671320674529
 20
-5.999308665328237
 30
0.0
 10
68.77666909885394
 20
-6.201437632122301
 30
0.0
 10
68.19299237978672
 20
-6.791616925618092
 30
0.0
 10
67.77680396018758
 20
-7.173285915083099
 30
0.0
 10
67.1462409026058
 20
-7.681985624702644
 30
0.0
 10
66.93378378313471
 20
-7.842314033131571
 30
0.0
 10
66.50235000359652
 20
-8.14412838841107
 30
0.0
 10
66.28204741631461
 20
-8.286264451991714
 30
0.0
 10
65.62067640237677
 20
-8.675799892658437
 30
0.0
 10
65.17743294248686
 20
-8.888421041368419
 30
0.0
 10
64.27180465916973
 20
-9.223070491685844
 30
0.0
 10
63.80627160648871
 20
-9.345045045433643
 30
0.0
 10
62.86970986911799
 20
-9.490103215975973
 30
0.0
 10
62.39635234560009
 20
-9.514778457915433
 30
0.0
 10
61.91250000000003
 20
-9.491347006548049
 30
0.0
  0
SPLINE
  5
A6
330
1F
100
AcDbEntity
  8
외형선
  6
Continuous
 62
     1
370
    15
100
AcDbSpline
210
0.0
220
0.0
230
1.0
 70
     8
 71
     3
 72
    44
 73
    40
 74
     0
 42
0.000000001
 43
0.00000001
 40
0.0
 40
0.0
 40
0.0
 40
0.0
 40
0.0625000000000003
 40
0.0625000000000003
 40
0.1250000000000006
 40
0.1250000000000006
 40
0.1875000000000008
 40
0.1875000000000008
 40
0.2500000000000011
 40
0.2500000000000011
 40
0.3125000000000014
 40
0.3125000000000014
 40
0.3750000000000017
 40
0.3750000000000017
 40
0.4375000000000019
 40
0.4375000000000019
 40
0.5000000000000022
 40
0.5000000000000022
 40
0.5625000000000024
 40
0.5625000000000024
 40
0.5937500000000027
 40
0.5937500000000027
 40
0.6250000000000028
 40
0.6250000000000028
 40
0.6562500000000029
 40
0.6562500000000029
 40
0.6875000000000031
 40
0.6875000000000031
 40
0.7500000000000033
 40
0.7500000000000033
 40
0.7812500000000029
 40
0.7812500000000029
 40
0.8125000000000024
 40
0.8125000000000024
 40
0.8750000000000017
 40
0.8750000000000017
 40
0.9375000000000008
 40
0.9375000000000008
 40
1.0
 40
1.0
 40
1.0
 40
1.0
 10
30.16249999999997
 20
4.038210148209416
 30
0.0
 10
30.82114792923107
 20
3.692822694640759
 30
0.0
 10
31.48530593522396
 20
3.336729830645201
 30
0.0
 10
32.81029903146553
 20
2.610733231137847
 30
0.0
 10
33.46801369494084
 20
2.241443918498228
 30
0.0
 10
34.79244523609168
 20
1.492176243922996
 30
0.0
 10
35.45684818357158
 20
1.112613421161631
 30
0.0
 10
36.77566785655261
 20
0.3518648205745388
 30
0.0
 10
37.43808020490277
 20
-0.0308516828806933
 30
0.0
 10
38.76348271780242
 20
-0.7944073834026858
 30
0.0
 10
39.42147194184754
 20
-1.174285074956576
 30
0.0
 10
40.74519000448103
 20
-1.928036145376073
 30
0.0
 10
41.40976109626924
 20
-2.301666799068721
 30
0.0
 10
42.72995480287319
 20
-3.034383169246449
 30
0.0
 10
43.39089425957724
 20
-3.39446755220049
 30
0.0
 10
44.71655389387622
 20
-4.097205423396753
 30
0.0
 10
45.37509213405701
 20
-4.438780675343285
 30
0.0
 10
46.69794506775977
 20
-5.099918693219894
 30
0.0
 10
47.36260744163047
 20
-5.41948168649103
 30
0.0
 10
48.35367051846044
 20
-5.877152509499471
 30
0.0
 10
48.68255897602594
 20
-6.026041978934302
 30
0.0
 10
49.34374077675461
 20
-6.316895026267719
 30
0.0
 10
49.67520586113752
 20
-6.458726975776345
 30
0.0
 10
50.33808804209726
 20
-6.734412688255008
 30
0.0
 10
50.66950405351417
 20
-6.868266001333834
 30
0.0
 10
51.33049044755024
 20
-7.127291114776582
 30
0.0
 10
51.65934975582588
 20
-7.252381789435637
 30
0.0
 10
52.65072711969578
 20
-7.614936262920483
 30
0.0
 10
53.31540387810174
 20
-7.839261215254111
 30
0.0
 10
54.3072716733327
 20
-8.146027899811587
 30
0.0
 10
54.63617975416515
 20
-8.243267464122242
 30
0.0
 10
55.29681557173823
 20
-8.427985544754312
 30
0.0
 10
55.62813755183293
 20
-8.515412757329335
 30
0.0
 10
56.6224250435529
 20
-8.762136534848683
 30
0.0
 10
57.28288373825668
 20
-8.905649271148084
 30
0.0
 10
58.60355284358511
 20
-9.1491530449414
 30
0.0
 10
59.2681670834128
 20
-9.249344795537022
 30
0.0
 10
60.5915792538564
 20
-9.404349013340989
 30
0.0
 10
61.24974173314836
 20
-9.459251702599902
 30
0.0
 10
61.9125
 20
-9.491347006548068
 30
0.0
  0
SPLINE
  5
A7
330
1F
100
AcDbEntity
  8
외형선
  6
Continuous
 62
     1
370
    15
100
AcDbSpline
210
0.0
220
0.0
230
1.0
 70
     8
 71
     3
 72
    13
 73
     9
 74
     0
 42
0.000000001
 43
0.00000001
 40
0.0
 40
0.0
 40
0.0
 40
0.0
 40
0.0344127644980981
 40
0.2275509608743423
 40
0.4206735302456922
 40
0.6137857196843153
 40
0.8068927880451576
 40
1.0
 40
1.0
 40
1.0
 40
1.0
 10
47.4461556086619
 20
7.795519386704381
 30
0.0
 10
47.61210847761846
 20
7.855759479008859
 30
0.0
 10
48.70945521339166
 20
8.254091059948847
 30
0.0
 10
50.737991742656
 20
8.766061445865608
 30
0.0
 10
53.5318144787632
 20
9.300450466878445
 30
0.0
 10
56.32544009947848
 20
9.542587549547807
 30
0.0
 10
59.11898032077335
 20
9.536186758948052
 30
0.0
 10
60.98132654278509
 20
9.302150301773768
 30
0.0
 10
61.9125
 20
9.18513202967939
 30
0.0
  0
SPLINE
  5
A8
330
1F
100
AcDbEntity
  8
외형선
  6
Continuous
 62
     1
370
    15
100
AcDbSpline
210
0.0
220
0.0
230
1.0
 70
     8
 71
     3
 72
    56
 73
    52
 74
     0
 42
0.000000001
 43
0.00000001
 40
0.0
 40
0.0
 40
0.0
 40
0.0
 40
0.0625000000000034
 40
0.0625000000000034
 40
0.0937500000000052
 40
0.0937500000000052
 40
0.1250000000000069
 40
0.1250000000000069
 40
0.1875000000000104
 40
0.1875000000000104
 40
0.2187500000000108
 40
0.2187500000000108
 40
0.2500000000000112
 40
0.2500000000000112
 40
0.3125000000000097
 40
0.3125000000000097
 40
0.3750000000000082
 40
0.3750000000000082
 40
0.4062500000000074
 40
0.4062500000000074
 40
0.4375000000000066
 40
0.4375000000000066
 40
0.4687500000000058
 40
0.4687500000000058
 40
0.500000000000005
 40
0.500000000000005
 40
0.5312500000000042
 40
0.5312500000000042
 40
0.5468750000000041
 40
0.5468750000000041
 40
0.562500000000004
 40
0.562500000000004
 40
0.5937500000000037
 40
0.5937500000000037
 40
0.6250000000000034
 40
0.6250000000000034
 40
0.6562500000000031
 40
0.6562500000000031
 40
0.6875000000000029
 40
0.6875000000000029
 40
0.7500000000000022
 40
0.7500000000000022
 40
0.7812500000000019
 40
0.7812500000000019
 40
0.8125000000000017
 40
0.8125000000000017
 40
0.8750000000000011
 40
0.8750000000000011
 40
0.9375000000000006
 40
0.9375000000000006
 40
1.0
 40
1.0
 40
1.0
 40
1.0
 10
61.9125
 20
9.185132029679385
 30
0.0
 10
62.39646205611509
 20
9.111253915653991
 30
0.0
 10
62.87832504952782
 20
8.993885336338478
 30
0.0
 10
63.60289920786243
 20
8.75783834771362
 30
0.0
 10
63.84464104075406
 20
8.669052965115364
 30
0.0
 10
64.32972486845443
 20
8.471545603321966
 30
0.0
 10
64.57435767443397
 20
8.362103289312843
 30
0.0
 10
65.29942015633483
 20
8.008300692798187
 30
0.0
 10
65.77009167651448
 20
7.739900402860506
 30
0.0
 10
66.4561977249086
 20
7.288686753380993
 30
0.0
 10
66.68149274617971
 20
7.130066138508327
 30
0.0
 10
67.1247626662481
 20
6.795684890241052
 30
0.0
 10
67.34284712746117
 20
6.61972189277857
 30
0.0
 10
67.97185961046199
 20
6.075221253833385
 30
0.0
 10
68.36242104013337
 20
5.68705467563113
 30
0.0
 10
69.07807405825471
 20
4.85024111663646
 30
0.0
 10
69.40437584071563
 20
4.398366864341536
 30
0.0
 10
69.81771020651252
 20
3.686677475408414
 30
0.0
 10
69.94350953231458
 20
3.443057466572446
 30
0.0
 10
70.16886437852449
 20
2.94096668957952
 30
0.0
 10
70.26880366840052
 20
2.681357377789537
 30
0.0
 10
70.43677089750807
 20
2.149149735718043
 30
0.0
 10
70.50398240563243
 20
1.8796014631948
 30
0.0
 10
70.60147549192791
 20
1.332936148366782
 30
0.0
 10
70.6318348889564
 20
1.052818030570717
 30
0.0
 10
70.64820246947212
 20
0.5006317100862545
 30
0.0
 10
70.63476486836657
 20
0.2292537940040835
 30
0.0
 10
70.57826556006654
 20
-0.1688925171510464
 30
0.0
 10
70.55323959353512
 20
-0.2998090823033397
 30
0.0
 10
70.49210451637944
 20
-0.5503011072411571
 30
0.0
 10
70.45587579847648
 20
-0.670906046017494
 30
0.0
 10
70.33011385116436
 20
-1.01849550566946
 30
0.0
 10
70.22131606214961
 20
-1.234180393358872
 30
0.0
 10
69.96817399955194
 20
-1.603230104016381
 30
0.0
 10
69.82283040180934
 20
-1.759693787323562
 30
0.0
 10
69.50269290133369
 20
-2.013523340041994
 30
0.0
 10
69.331443449956
 20
-2.108840460840764
 30
0.0
 10
68.96713206745287
 20
-2.2460228494424
 30
0.0
 10
68.77666909885389
 20
-2.286442476942156
 30
0.0
 10
68.19299237978674
 20
-2.337165226426389
 30
0.0
 10
67.77680396018755
 20
-2.277213512697776
 30
0.0
 10
67.14624090260585
 20
-2.096954949707988
 30
0.0
 10
66.93378378313474
 20
-2.021741980471272
 30
0.0
 10
66.50235000359658
 20
-1.846366864462554
 30
0.0
 10
66.28204741631464
 20
-1.7457946234259
 30
0.0
 10
65.6206764023768
 20
-1.419414395869321
 30
0.0
 10
65.17743294248683
 20
-1.169180276649095
 30
0.0
 10
64.27180465916965
 20
-0.6320209470388819
 30
0.0
 10
63.80627160648871
 20
-0.3420681982075847
 30
0.0
 10
62.86970986911799
 20
0.2343899902668513
 30
0.0
 10
62.39635234560014
 20
0.5219687415256377
 30
0.0
 10
61.91250000000003
 20
0.7999731253555292
 30
0.0
  0
SPLINE
  5
A9
330
1F
100
AcDbEntity
  8
외형선
  6
Continuous
 62
     1
370
    15
100
AcDbSpline
210
0.0
220
0.0
230
1.0
 70
     8
 71
     3
 72
    16
 73
    12
 74
     0
 42
0.000000001
 43
0.00000001
 40
0.0
 40
0.0
 40
0.0
 40
0.0
 40
0.1208178169623427
 40
0.2416353923576069
 40
0.3624528432033581
 40
0.483270286533164
 40
0.6040878393815554
 40
0.7249056187689918
 40
0.8388143342005726
 40
0.9527292078966584
 40
1.0
 40
1.0
 40
1.0
 40
1.0
 10
61.9125
 20
0.799973125355529
 30
0.0
 10
60.92476228712892
 20
1.365755797210626
 30
0.0
 10
58.94928883630181
 20
2.497320009676516
 30
0.0
 10
55.98608194479164
 20
4.107438750480769
 30
0.0
 10
53.0228801022462
 20
5.58714940978937
 30
0.0
 10
50.05967285372927
 20
6.886935190532219
 30
0.0
 10
47.09648350735326
 20
7.963966924651784
 30
0.0
 10
44.18969717884946
 20
8.773785361461275
 30
0.0
 10
41.33961788667917
 20
9.28684760187185
 30
0.0
 10
39.09069552560284
 20
9.527272749590033
 30
0.0
 10
37.77296665594866
 20
9.499890301513105
 30
0.0
 10
37.38651735763761
 20
9.491859872728359
 30
0.0
  0
LINE
  5
AA
330
1F
100
AcDbEntity
  8
외형선
  6
Continuous
370
    15
100
AcDbLine
 10
30.16249999999997
 20
0.8161148516610911
 30
0.0
 11
30.16249999999997
 21
4.038210148209416
 31
0.0
  0
SPLINE
  5
AB
330
1F
100
AcDbEntity
  8
외형선
  6
Continuous
 62
     1
370
    15
100
AcDbSpline
210
0.0
220
0.0
230
1.0
 70
     8
 71
     3
 72
    19
 73
    15
 74
     0
 42
0.000000001
 43
0.00000001
 40
0.0
 40
0.0
 40
0.0
 40
0.0
 40
0.0144735352675117
 40
0.0691989505172728
 40
0.1260488925714169
 40
0.2220783645984196
 40
0.3194280346884815
 40
0.3900557315978191
 40
0.4627051969240397
 40
0.5592455878076154
 40
0.6584941916581402
 40
0.7886676484279985
 40
0.9225427069228065
 40
1.0
 40
1.0
 40
1.0
 40
1.0
 10
70.59446102967945
 20
3.908562582019404
 30
0.0
 10
70.5899068464721
 20
3.9214530532967
 30
0.0
 10
70.56813298869756
 20
3.983083267862472
 30
0.0
 10
70.45300196508143
 20
4.168188773408032
 30
0.0
 10
70.19788016308209
 20
4.537625681319266
 30
0.0
 10
69.74118612984819
 20
5.123225276913081
 30
0.0
 10
69.13930695432646
 20
5.819574387574299
 30
0.0
 10
68.53495744332974
 20
6.454178977338038
 30
0.0
 10
67.90004861086905
 20
7.062283112191266
 30
0.0
 10
67.15926041511682
 20
7.686974933827733
 30
0.0
 10
66.23302037051249
 20
8.341342907519367
 30
0.0
 10
65.1689061480115
 20
8.908680002378588
 30
0.0
 10
64.14393131967338
 20
9.282520304596325
 30
0.0
 10
63.49114425716656
 20
9.37922307228414
 30
0.0
 10
63.25188548565584
 20
9.414666460683758
 30
0.0
  0
LINE
  5
AC
330
1F
100
AcDbEntity
  8
외형선
  6
Continuous
 62
     1
370
    15
100
AcDbLine
 10
30.1625
 20
-9.489972684307284
 30
0.0
 11
31.57780484997898
 21
-9.486685632365116
 31
0.0
  0
LINE
  5
AD
330
1F
100
AcDbEntity
  8
외형선
  6
Continuous
370
    15
100
AcDbLine
 10
30.16249999999997
 20
-9.489972684307284
 30
0.0
 11
30.16249999999997
 21
-8.626614851660976
 31
0.0
  0
LINE
  5
B2
330
1F
100
AcDbEntity
  8
외형선
  6
Continuous
370
    15
100
AcDbLine
 10
30.16249999999997
 20
-0.000000000000005
 30
0.0
 11
30.16249999999997
 21
9.524999999999993
 31
0.0
  0
LINE
  5
B3
330
1F
100
AcDbEntity
  8
외형선
  6
Continuous
370
    15
100
AcDbLine
 10
30.16249999999997
 20
-9.525000000000004
 30
0.0
 11
30.16249999999997
 21
-0.000000000000005
 31
0.0
  0
LINE
  5
B4
330
1F
100
AcDbEntity
  8
중심선
 62
     1
100
AcDbLine
 10
-74.43750000000001
 20
-0.0000000000000089
 30
0.0
 11
74.43750000000003
 21
0.0000000000000089
 31
0.0
  0
LINE
  5
B5
330
1F
100
AcDbEntity
  8
치수문자_일반주서
 62
     1
100
AcDbLine
 10
71.4375
 20
-0.0000000000000089
 30
0.0
 11
71.4375
 21
1.315014629548147
 31
0.0
  0
LINE
  5
B6
330
1F
100
AcDbEntity
  8
참조1
100
AcDbLine
 10
0.0000000000000036
 20
-0.0000000000000089
 30
0.0
 11
0.0000000000000036
 21
-40.00000000000001
 31
0.0
  0
LINE
  5
B7
330
1F
100
AcDbEntity
  8
참조1
100
AcDbLine
 10
0.0000000000000036
 20
-40.00000000000001
 30
0.0
 11
-47.70260681430868
 21
-40.0
 31
0.0
  0
CIRCLE
  5
B8
330
1F
100
AcDbEntity
  8
해칭선
100
AcDbCircle
 10
0.0
 20
0.0
 30
0.0
 40
3.000000000000001
  0
INSERT
  5
B9
330
1F
100
AcDbEntity
  8
0
  6
Continuous
 62
     7
100
AcDbBlockReference
 66
     1
  2
블럭10
 10
-13.94027293212521
 20
-52.04717430164393
 30
0.0
  0
ATTRIB
  5
BA
330
B9
100
AcDbEntity
  8
FORMAT
 62
     2
100
AcDbText
 10
-23.12156822086649
 20
-49.97180738881175
 30
0.0
 40
4.233333333333333
  1
E2069048 [ 4 FLUTE ]
 41
0.75
  7
SLDTEXTSTYLE0
 11
-23.12156822086649
 21
-52.08847405547841
 31
0.0
100
AcDbAttribute
  2
AUTOATTR0
 70
     0
 74
     1
  0
SEQEND
  5
BB
330
B9
100
AcDbEntity
  8
0
  6
Continuous
 62
     7
  0
HATCH
  5
BC
330
1F
100
AcDbEntity
  8
중심선
100
AcDbHatch
 10
0.0
 20
0.0
 30
0.0
210
0.0
220
0.0
230
1.0
  2
SOLID
 70
     1
 71
     0
 91
        1
 92
        0
 93
        4
 72
     1
 10
-8.225363627744366
 20
-35.8
 11
-11.67163887158165
 21
-35.8
 72
     1
 10
-11.67163887158165
 20
-35.8
 11
-13.79986873078567
 21
-38.33632558057257
 72
     1
 10
-13.79986873078567
 20
-38.33632558057257
 11
-10.35356040183524
 21
-38.33628615127008
 72
     1
 10
-10.35356040183524
 20
-38.33628615127008
 11
-8.225363627744366
 21
-35.8
 97
        0
 75
     0
 76
     1
 98
        1
 10
-18.0242613140312
 20
-0.0010749287238981
  0
HATCH
  5
BD
330
1F
100
AcDbEntity
  8
중심선
100
AcDbHatch
 10
0.0
 20
0.0
 30
0.0
210
0.0
220
0.0
230
1.0
  2
SOLID
 70
     1
 71
     0
 91
        1
 92
        0
 93
        4
 72
     1
 10
-3.21259963670836
 20
-35.79999999999998
 11
-6.658874880545643
 21
-35.79999999999998
 72
     1
 10
-6.658874880545643
 20
-35.79999999999998
 11
-11.19001288890309
 21
-41.20000000000002
 72
     1
 10
-11.19001288890309
 20
-41.20000000000002
 11
-7.743737645065803
 21
-41.20000000000002
 72
     1
 10
-7.743737645065803
 20
-41.20000000000002
 11
-3.21259963670836
 21
-35.79999999999998
 97
        0
 75
     0
 76
     1
 98
        1
 10
-18.0242613140312
 20
-0.0010749287238981
  0
HATCH
  5
BE
330
1F
100
AcDbEntity
  8
중심선
100
AcDbHatch
 10
0.0
 20
0.0
 30
0.0
210
0.0
220
0.0
230
1.0
  2
SOLID
 70
     1
 71
     0
 91
        1
 92
        0
 93
        4
 72
     1
 10
1.800164354327482
 20
-35.8
 11
-1.646110889509579
 21
-35.79999999999998
 72
     1
 10
-1.646110889509579
 20
-35.79999999999998
 11
-8.694547791398884
 21
-44.20000000000002
 72
     1
 10
-8.694547791398884
 20
-44.20000000000002
 11
-5.248272547561601
 21
-44.20000000000002
 72
     1
 10
-5.248272547561601
 20
-44.20000000000002
 11
1.800164354327482
 21
-35.8
 97
        0
 75
     0
 76
     1
 98
        1
 10
-18.0242613140312
 20
-0.0010749287238981
  0
HATCH
  5
BF
330
1F
100
AcDbEntity
  8
중심선
100
AcDbHatch
 10
0.0
 20
0.0
 30
0.0
210
0.0
220
0.0
230
1.0
  2
SOLID
 70
     1
 71
     0
 91
        1
 92
        0
 93
        6
 72
     3
 10
6.60005478533968
 20
-40.00000000005127
 11
3.960054785062283
 21
1.540882976769353E-10
 40
0.3939339440162628
 50
17.09539180608455
 51
320.0019657685085
 73
     0
 72
     1
 10
8.283054441040303
 20
-38.5878940046383
 11
10.58835631474129
 21
-36.65356729459038
 72
     3
 10
6.600054785286833
 20
-40.00000000000015
 11
6.600054785286829
 21
-1.278976924368180E-13
 40
0.636358354079598
 50
39.99873849337426
 51
368.4976242363725
 73
     1
 72
     1
 10
13.02538727718741
 20
-39.03999999993002
 11
5.280122092122784
 21
-39.03999999993002
 72
     1
 10
5.280122092122784
 20
-39.03999999993002
 11
5.280097047676822
 21
-40.95999999992991
 72
     1
 10
5.280097047676822
 20
-40.95999999992991
 11
9.72147681714883
 21
-40.95999999992988
 97
        0
 75
     0
 76
     1
 98
        1
 10
-18.0242613140312
 20
-0.0010749287238981
  0
DIMENSION
  5
C0
330
1F
100
AcDbEntity
  8
치수문자_일반주서
100
AcDbDimension
  2
_D
 10
30.16250000000002
 20
22.82277225922701
 30
0.0
 11
50.80000000000002
 21
22.82277225922701
 31
0.0
 70
   160
  1
<>
 71
     2
 42
41.27500000000001
  3
SLDDIMSTYLE0
100
AcDbAlignedDimension
 13
71.43750000000003
 23
1.315014629548134
 33
0.0
 14
30.16250000000002
 24
9.525
 34
0.0
 50
0.0000000000000049
100
AcDbRotatedDimension
1001
ACAD
1000
DSTYLE
1002
{
1070
   171
1070
     6
1070
   273
1070
     7
1002
}
  0
DIMENSION
  5
D5
330
1F
100
AcDbEntity
  8
치수문자_일반주서
100
AcDbDimension
  2
_D_1
 10
-71.4375
 20
35.75282056895201
 30
0.0
 11
0.0000000000000036
 21
35.75282056895201
 31
0.0
 70
   160
  1
<>
 71
     2
 42
142.8750000000001
  3
SLDDIMSTYLE0
100
AcDbAlignedDimension
 13
71.43750000000003
 23
1.315014629548134
 33
0.0
 14
-71.43750000000001
 24
7.620000000000011
 34
0.0
 50
0.0000000000000028
100
AcDbRotatedDimension
1001
ACAD
1000
DSTYLE
1002
{
1070
   171
1070
     6
1070
   273
1070
     7
1002
}
  0
DIMENSION
  5
E8
330
1F
100
AcDbEntity
  8
치수문자_일반주서
100
AcDbDimension
  2
_D_2
 10
85.70178536558517
 20
-9.524999999999824
 30
0.0
 11
85.70178536558504
 21
26.60825000000017
 31
0.0
 70
   160
  1
%%c<>
 71
     2
 42
19.04999999999999
 52
-270.0
  3
SLDDIMSTYLE0
100
AcDbAlignedDimension
 13
37.38490239175147
 23
9.524999999999991
 33
0.0
 14
37.38490239175156
 24
-9.525000000000002
 34
0.0
 50
90.0000000000002
100
AcDbRotatedDimension
1001
ACAD
1000
DSTYLE
1002
{
1070
   171
1070
     6
1070
   273
1070
     7
1002
}
  0
DIMENSION
  5
FB
330
1F
100
AcDbEntity
  8
치수문자_일반주서
100
AcDbDimension
  2
_D_3
 10
-83.48500000000001
 20
-9.489972684307471
 30
0.0
 11
-83.48500000000004
 21
0.0000000000000028
 31
0.0
 70
   160
  1
%%c<>
 71
     2
 42
19.01497268430728
 52
-270.0
  3
SLDDIMSTYLE1
100
AcDbAlignedDimension
 13
-30.16249999999997
 23
9.525000000000006
 33
0.0
 14
-30.1625
 24
-9.489972684307272
 34
0.0
 50
90.0000000000002
100
AcDbRotatedDimension
1001
ACAD
1000
DSTYLE
1002
{
1070
   171
1070
     6
1070
   273
1070
     7
1002
}
  0
LINE
  5
110
330
1F
100
AcDbEntity
  8
참조1
100
AcDbLine
 10
50.26973381534558
 20
7.439999999999998
 30
0.0
 11
50.26973381534558
 21
-7.440000000000007
 31
0.0
  0
LINE
  5
111
330
1F
100
AcDbEntity
  8
참조1
100
AcDbLine
 10
62.96973381534558
 20
5.439999999999998
 30
0.0
 11
50.26973381534558
 21
5.439999999999998
 31
0.0
  0
SOLID
  5
112
330
1F
100
AcDbEntity
  8
참조1
100
AcDbTrace
 10
50.26973381534558
 20
5.439999999999998
 30
0.0
 11
56.61973381534558
 21
4.423999999999998
 31
0.0
 12
56.61973381534558
 22
6.455999999999998
 32
0.0
 13
56.61973381534558
 23
6.455999999999998
 33
0.0
  0
LINE
  5
113
330
1F
100
AcDbEntity
  8
참조1
100
AcDbLine
 10
62.96973381534558
 20
-5.440000000000007
 30
0.0
 11
50.26973381534558
 21
-5.440000000000007
 31
0.0
  0
SOLID
  5
114
330
1F
100
AcDbEntity
  8
참조1
100
AcDbTrace
 10
50.26973381534558
 20
-5.440000000000007
 30
0.0
 11
56.61973381534558
 21
-6.456000000000007
 31
0.0
 12
56.61973381534558
 22
-4.424000000000007
 32
0.0
 13
56.61973381534558
 23
-4.424000000000007
 33
0.0
  0
MTEXT
  5
115
330
1F
100
AcDbEntity
  8
참조1
100
AcDbMText
 10
59.66722390781586
 20
10.98821664464993
 30
0.0
 40
3.5
 41
0.0
 71
     1
 72
     1
  1
A
  7
SLDTEXTSTYLE0
 73
     1
 44
1.0
  0
MTEXT
  5
116
330
1F
100
AcDbEntity
  8
참조1
100
AcDbMText
 10
59.66722390781586
 20
0.1082166446499278
 30
0.0
 40
3.5
 41
0.0
 71
     1
 72
     1
  1
A
  7
SLDTEXTSTYLE0
 73
     1
 44
1.0
  0
INSERT
  5
11D
330
1F
100
AcDbEntity
  8
해칭선
100
AcDbBlockReference
  2
SW_DOWELSYMBOL_0
 10
0.0
 20
0.0
 30
0.0
  0
LINE
  5
144
330
1F
100
AcDbEntity
  8
외형선
  6
Continuous
 62
     1
370
    15
100
AcDbLine
 10
-37.3865173576376
 20
-9.524999999999988
 30
0.0
 11
-31.577804849979
 21
-9.52499999999999
 31
0.0
  0
LINE
  5
145
330
1F
100
AcDbEntity
  8
외형선
  6
Continuous
 62
     1
370
    15
100
AcDbLine
 10
-57.49237498846231
 20
9.525000000000007
 30
0.0
 11
-61.9125
 21
9.52500000000001
 31
0.0
  0
ARC
  5
146
330
1F
100
AcDbEntity
  8
외형선
  6
Continuous
 62
     1
370
    15
100
AcDbCircle
 10
-61.9125
 20
0.0000000000000049
 30
0.0
 40
9.524999999999986
100
AcDbArc
 50
155.7666151870784
 51
180.0
  0
ARC
  5
147
330
1F
100
AcDbEntity
  8
외형선
  6
Continuous
 62
     1
370
    15
100
AcDbCircle
 10
-61.9125
 20
0.0000000000000049
 30
0.0
 40
9.524999999999995
100
AcDbArc
 50
90.00000000000078
 51
98.10582714762043
  0
ARC
  5
148
330
1F
100
AcDbEntity
  8
외형선
  6
Continuous
 62
     1
370
    15
100
AcDbCircle
 10
-61.9125
 20
0.0000000000000049
 30
0.0
 40
9.524999999999988
100
AcDbArc
 50
261.8936166925604
 51
270.0
  0
ARC
  5
149
330
1F
100
AcDbEntity
  8
외형선
  6
Continuous
 62
     1
370
    15
100
AcDbCircle
 10
-61.9125
 20
0.0000000000000049
 30
0.0
 40
9.524999999999979
100
AcDbArc
 50
180.0
 51
204.2366584893757
  0
LINE
  5
14A
330
1F
100
AcDbEntity
  8
외형선
  6
Continuous
 62
     1
370
    15
100
AcDbLine
 10
-31.57780484997898
 20
9.525000000000004
 30
0.0
 11
-37.38651735763771
 21
9.525000000000006
 31
0.0
  0
LINE
  5
14B
330
1F
100
AcDbEntity
  8
외형선
  6
Continuous
 62
     1
370
    15
100
AcDbLine
 10
-61.9125
 20
-9.524999999999984
 30
0.0
 11
-57.49237498846222
 21
-9.524999999999986
 31
0.0
  0
SPLINE
  5
14C
330
1F
100
AcDbEntity
  8
외형선
  6
Continuous
 62
     1
370
    15
100
AcDbSpline
210
0.0
220
0.0
230
1.0
 70
     8
 71
     3
 72
    17
 73
    13
 74
     0
 42
0.000000001
 43
0.00000001
 40
0.0
 40
0.0
 40
0.0
 40
0.0
 40
0.1084391854259878
 40
0.2168766117909726
 40
0.3253123823321287
 40
0.4337466004980652
 40
0.5421793699357647
 40
0.6506107944774714
 40
0.7528479524535558
 40
0.8550768383187991
 40
0.9573002295960124
 40
1.0
 40
1.0
 40
1.0
 40
1.0
 10
-30.16250000000002
 20
-0.8161148516610877
 30
0.0
 10
-31.15040678163382
 20
-0.245350579035984
 30
0.0
 10
-33.12620431943715
 20
0.8961687074839035
 30
0.0
 10
-36.08986544824605
 20
2.586647741814469
 30
0.0
 10
-39.05347204897041
 20
4.192016974883942
 30
0.0
 10
-42.01703117859185
 20
5.662894711883093
 30
0.0
 10
-44.98052932490969
 20
6.951747656566626
 30
0.0
 10
-47.8876140121145
 20
7.995395381365654
 30
0.0
 10
-50.73799748150295
 20
8.78220902001749
 30
0.0
 10
-53.531812748293
 20
9.285804045192712
 30
0.0
 10
-55.78323725553596
 20
9.526949886558995
 30
0.0
 10
-57.10340447204586
 20
9.4997997803711
 30
0.0
 10
-57.49237498846231
 20
9.491800346138378
 30
0.0
  0
SPLINE
  5
14D
330
1F
100
AcDbEntity
  8
외형선
  6
Continuous
 62
     1
370
    15
100
AcDbSpline
210
0.0
220
0.0
230
1.0
 70
     8
 71
     3
 72
    14
 73
    10
 74
     0
 42
0.000000001
 43
0.00000001
 40
0.0
 40
0.0
 40
0.0
 40
0.0
 40
0.0202316962382279
 40
0.1916746301515826
 40
0.3533134590632336
 40
0.5149610266799007
 40
0.6766217247634857
 40
0.8382999301867958
 40
1.0
 40
1.0
 40
1.0
 40
1.0
 10
-47.44615560866202
 20
7.795519386704399
 30
0.0
 10
-47.32959452569839
 20
7.838161365077013
 30
0.0
 10
-46.22529747595788
 20
8.242150498625724
 30
0.0
 10
-44.18969413114215
 20
8.756534396219463
 30
0.0
 10
-41.33962014932272
 20
9.30068659544744
 30
0.0
 10
-38.54579215541407
 20
9.546802047041599
 30
0.0
 10
-35.75171120871918
 20
9.521010383064382
 30
0.0
 10
-32.95726817408615
 20
9.238874106166623
 30
0.0
 10
-31.09413138176188
 20
8.830710468807514
 30
0.0
 10
-30.16249999999997
 20
8.626614851660978
 30
0.0
  0
SPLINE
  5
14E
330
1F
100
AcDbEntity
  8
외형선
  6
Continuous
 62
     1
370
    15
100
AcDbSpline
210
0.0
220
0.0
230
1.0
 70
     8
 71
     3
 72
    44
 73
    40
 74
     0
 42
0.000000001
 43
0.00000001
 40
0.0
 40
0.0
 40
0.0
 40
0.0
 40
0.0625000000000002
 40
0.0625000000000002
 40
0.1250000000000005
 40
0.1250000000000005
 40
0.1875000000000007
 40
0.1875000000000007
 40
0.250000000000001
 40
0.250000000000001
 40
0.3125000000000012
 40
0.3125000000000012
 40
0.3750000000000015
 40
0.3750000000000015
 40
0.4375000000000018
 40
0.4375000000000018
 40
0.500000000000002
 40
0.500000000000002
 40
0.5625000000000022
 40
0.5625000000000022
 40
0.5937500000000023
 40
0.5937500000000023
 40
0.6250000000000024
 40
0.6250000000000024
 40
0.6562500000000027
 40
0.6562500000000027
 40
0.6875000000000028
 40
0.6875000000000028
 40
0.750000000000003
 40
0.750000000000003
 40
0.7812500000000027
 40
0.7812500000000027
 40
0.8125000000000023
 40
0.8125000000000023
 40
0.8750000000000016
 40
0.8750000000000016
 40
0.9375000000000009
 40
0.9375000000000009
 40
1.0
 40
1.0
 40
1.0
 40
1.0
 10
-30.1625
 20
-9.489972684307272
 30
0.0
 10
-30.82114792923107
 20
-9.522647822270626
 30
0.0
 10
-31.48530593522398
 20
-9.532512528810186
 30
0.0
 10
-32.81029903146555
 20
-9.506141687827892
 30
0.0
 10
-33.46801369494085
 20
-9.470053707919181
 30
0.0
 10
-34.79244523609168
 20
-9.352276488666439
 30
0.0
 10
-35.45684818357155
 20
-9.270531156622754
 30
0.0
 10
-36.77566785655265
 20
-9.06328450746052
 30
0.0
 10
-37.43808020490279
 20
-8.937398594669231
 30
0.0
 10
-38.7634827178024
 20
-8.643046111149715
 30
0.0
 10
-39.42147194184752
 20
-8.475031943545684
 30
0.0
 10
-40.745190004481
 20
-8.098357587827628
 30
0.0
 10
-41.40976109626924
 20
-7.889703120362594
 30
0.0
 10
-42.72995480287326
 20
-7.436375365745866
 30
0.0
 10
-43.39089425957722
 20
-7.191146257088355
 30
0.0
 10
-44.71655389387622
 20
-6.666694659653595
 30
0.0
 10
-45.375092134057
 20
-6.388325068071159
 30
0.0
 10
-46.69794506775975
 20
-5.801376677491785
 30
0.0
 10
-47.36260744163048
 20
-5.492677617703866
 30
0.0
 10
-48.35367051846041
 20
-5.011822706830387
 30
0.0
 10
-48.68255897602591
 20
-4.848664724882569
 30
0.0
 10
-49.34374077675458
 20
-4.516144617727893
 30
0.0
 10
-49.67520586113756
 20
-4.346913640131027
 30
0.0
 10
-50.33808804209743
 20
-4.003414004653038
 30
0.0
 10
-50.66950405351424
 20
-3.829145909992526
 30
0.0
 10
-51.33049044755027
 20
-3.476531738952681
 30
0.0
 10
-51.65934975582591
 20
-3.29831815635016
 30
0.0
 10
-52.65072711969578
 20
-2.757179596864807
 30
0.0
 10
-53.31540387810178
 20
-2.3881986984082
 30
0.0
 10
-54.30727167333267
 20
-1.82837715243636
 30
0.0
 10
-54.63617975416521
 20
-1.640880231160647
 30
0.0
 10
-55.29681557173829
 20
-1.263603934596027
 30
0.0
 10
-55.62813755183284
 20
-1.073899248892933
 30
0.0
 10
-56.6224250435529
 20
-0.5031212138658271
 30
0.0
 10
-57.28288373825674
 20
-0.1209300575778051
 30
0.0
 10
-58.60355284358514
 20
0.6421468669736236
 30
0.0
 10
-59.26816708341283
 20
1.023876214157997
 30
0.0
 10
-60.59157925385643
 20
1.77945044980942
 30
0.0
 10
-61.24974173314845
 20
2.153188850187758
 30
0.0
 10
-61.9125
 20
2.52170073509085
 30
0.0
  0
SPLINE
  5
14F
330
1F
100
AcDbEntity
  8
외형선
  6
Continuous
 62
     1
370
    15
100
AcDbSpline
210
0.0
220
0.0
230
1.0
 70
     8
 71
     3
 72
    56
 73
    52
 74
     0
 42
0.000000001
 43
0.00000001
 40
0.0
 40
0.0
 40
0.0
 40
0.0
 40
0.0625000000000036
 40
0.0625000000000036
 40
0.0937500000000055
 40
0.0937500000000055
 40
0.1250000000000073
 40
0.1250000000000073
 40
0.1875000000000109
 40
0.1875000000000109
 40
0.2187500000000113
 40
0.2187500000000113
 40
0.2500000000000118
 40
0.2500000000000118
 40
0.3125000000000104
 40
0.3125000000000104
 40
0.375000000000009
 40
0.375000000000009
 40
0.4062500000000083
 40
0.4062500000000083
 40
0.4375000000000075
 40
0.4375000000000075
 40
0.4687500000000068
 40
0.4687500000000068
 40
0.5000000000000061
 40
0.5000000000000061
 40
0.5312500000000053
 40
0.5312500000000053
 40
0.5468750000000052
 40
0.5468750000000052
 40
0.562500000000005
 40
0.562500000000005
 40
0.5937500000000047
 40
0.5937500000000047
 40
0.6250000000000043
 40
0.6250000000000043
 40
0.6562500000000041
 40
0.6562500000000041
 40
0.6875000000000038
 40
0.6875000000000038
 40
0.750000000000003
 40
0.750000000000003
 40
0.7812500000000026
 40
0.7812500000000026
 40
0.8125000000000022
 40
0.8125000000000022
 40
0.8750000000000014
 40
0.8750000000000014
 40
0.9375000000000008
 40
0.9375000000000008
 40
1.0
 40
1.0
 40
1.0
 40
1.0
 10
-61.9125
 20
2.521700735090851
 30
0.0
 10
-62.39646205611509
 20
2.790796993018755
 30
0.0
 10
-62.8783250495278
 20
3.034169358260961
 30
0.0
 10
-63.60289920786246
 20
3.353249250264888
 30
0.0
 10
-63.84464104075401
 20
3.452051725642423
 30
0.0
 10
-64.32972486845438
 20
3.632113497127258
 30
0.0
 10
-64.57435767443394
 20
3.713865355232727
 30
0.0
 10
-65.29942015633486
 20
3.92826057891422
 30
0.0
 10
-65.77009167651451
 20
4.03018811498831
 30
0.0
 10
-66.45619772490855
 20
4.126917391168063
 30
0.0
 10
-66.68149274617971
 20
4.149910726375087
 30
0.0
 10
-67.12476266624807
 20
4.177783953256429
 30
0.0
 10
-67.34284712746117
 20
4.182481626621795
 30
0.0
 10
-67.97185961046196
 20
4.172425494364017
 30
0.0
 10
-68.3624210401334
 20
4.133749208543589
 30
0.0
 10
-69.07807405825474
 20
4.020157254743137
 30
0.0
 10
-69.40437584071566
 20
3.944364409666004
 30
0.0
 10
-69.81771020651249
 20
3.83643595720518
 30
0.0
 10
-69.9435095323145
 20
3.801386199655902
 30
0.0
 10
-70.16886437852449
 20
3.739713631415796
 30
0.0
 10
-70.26880366840052
 20
3.712993599633129
 30
0.0
 10
-70.43677089750804
 20
3.677196069864572
 30
0.0
 10
-70.5039824056324
 20
3.668278074826015
 30
0.0
 10
-70.60147549192786
 20
3.678005131323003
 30
0.0
 10
-70.63183488895643
 20
3.697047306078481
 30
0.0
 10
-70.64820246947215
 20
3.773626339526112
 30
0.0
 10
-70.63476486836663
 20
3.830616643098651
 30
0.0
 10
-70.57826556006657
 20
3.952369254790432
 30
0.0
 10
-70.55323959353518
 20
3.999083143542462
 30
0.0
 10
-70.49210451637953
 20
4.102741428846394
 30
0.0
 10
-70.45587579847648
 20
4.159971951114624
 30
0.0
 10
-70.33011385116436
 20
4.348399167529089
 30
0.0
 10
-70.22131606214961
 20
4.499287121194346
 30
0.0
 10
-69.96817399955191
 20
4.83104334936572
 30
0.0
 10
-69.82283040180937
 20
5.013430925676835
 30
0.0
 10
-69.50269290133369
 20
5.398058393266673
 30
0.0
 10
-69.33144344995597
 20
5.59609030541058
 30
0.0
 10
-68.9671320674529
 20
5.999308665328246
 30
0.0
 10
-68.77666909885394
 20
6.201437632122309
 30
0.0
 10
-68.19299237978672
 20
6.791616925618101
 30
0.0
 10
-67.77680396018758
 20
7.173285915083108
 30
0.0
 10
-67.1462409026058
 20
7.681985624702653
 30
0.0
 10
-66.93378378313471
 20
7.84231403313158
 30
0.0
 10
-66.50235000359652
 20
8.144128388411078
 30
0.0
 10
-66.28204741631461
 20
8.286264451991721
 30
0.0
 10
-65.62067640237677
 20
8.675799892658445
 30
0.0
 10
-65.17743294248686
 20
8.888421041368426
 30
0.0
 10
-64.27180465916973
 20
9.223070491685851
 30
0.0
 10
-63.80627160648871
 20
9.34504504543365
 30
0.0
 10
-62.86970986911799
 20
9.49010321597598
 30
0.0
 10
-62.39635234560009
 20
9.51477845791544
 30
0.0
 10
-61.91250000000003
 20
9.491347006548056
 30
0.0
  0
SPLINE
  5
150
330
1F
100
AcDbEntity
  8
외형선
  6
Continuous
 62
     1
370
    15
100
AcDbSpline
210
0.0
220
0.0
230
1.0
 70
     8
 71
     3
 72
    44
 73
    40
 74
     0
 42
0.000000001
 43
0.00000001
 40
0.0
 40
0.0
 40
0.0
 40
0.0
 40
0.0625000000000003
 40
0.0625000000000003
 40
0.1250000000000006
 40
0.1250000000000006
 40
0.1875000000000008
 40
0.1875000000000008
 40
0.2500000000000011
 40
0.2500000000000011
 40
0.3125000000000014
 40
0.3125000000000014
 40
0.3750000000000017
 40
0.3750000000000017
 40
0.4375000000000019
 40
0.4375000000000019
 40
0.5000000000000022
 40
0.5000000000000022
 40
0.5625000000000024
 40
0.5625000000000024
 40
0.5937500000000027
 40
0.5937500000000027
 40
0.6250000000000028
 40
0.6250000000000028
 40
0.6562500000000029
 40
0.6562500000000029
 40
0.6875000000000031
 40
0.6875000000000031
 40
0.7500000000000033
 40
0.7500000000000033
 40
0.7812500000000029
 40
0.7812500000000029
 40
0.8125000000000024
 40
0.8125000000000024
 40
0.8750000000000017
 40
0.8750000000000017
 40
0.9375000000000008
 40
0.9375000000000008
 40
1.0
 40
1.0
 40
1.0
 40
1.0
 10
-30.16249999999997
 20
-4.038210148209411
 30
0.0
 10
-30.82114792923107
 20
-3.692822694640755
 30
0.0
 10
-31.48530593522396
 20
-3.336729830645197
 30
0.0
 10
-32.81029903146553
 20
-2.610733231137843
 30
0.0
 10
-33.46801369494084
 20
-2.241443918498224
 30
0.0
 10
-34.79244523609168
 20
-1.492176243922992
 30
0.0
 10
-35.45684818357158
 20
-1.112613421161627
 30
0.0
 10
-36.77566785655261
 20
-0.3518648205745343
 30
0.0
 10
-37.43808020490277
 20
0.0308516828806979
 30
0.0
 10
-38.76348271780242
 20
0.7944073834026906
 30
0.0
 10
-39.42147194184754
 20
1.174285074956581
 30
0.0
 10
-40.74519000448103
 20
1.928036145376078
 30
0.0
 10
-41.40976109626924
 20
2.301666799068725
 30
0.0
 10
-42.72995480287319
 20
3.034383169246454
 30
0.0
 10
-43.39089425957724
 20
3.394467552200495
 30
0.0
 10
-44.71655389387622
 20
4.097205423396759
 30
0.0
 10
-45.37509213405701
 20
4.438780675343291
 30
0.0
 10
-46.69794506775977
 20
5.0999186932199
 30
0.0
 10
-47.36260744163047
 20
5.419481686491037
 30
0.0
 10
-48.35367051846044
 20
5.877152509499477
 30
0.0
 10
-48.68255897602594
 20
6.026041978934308
 30
0.0
 10
-49.34374077675461
 20
6.316895026267725
 30
0.0
 10
-49.67520586113752
 20
6.458726975776351
 30
0.0
 10
-50.33808804209726
 20
6.734412688255015
 30
0.0
 10
-50.66950405351417
 20
6.86826600133384
 30
0.0
 10
-51.33049044755024
 20
7.127291114776589
 30
0.0
 10
-51.65934975582588
 20
7.252381789435644
 30
0.0
 10
-52.65072711969578
 20
7.61493626292049
 30
0.0
 10
-53.31540387810174
 20
7.839261215254118
 30
0.0
 10
-54.3072716733327
 20
8.146027899811592
 30
0.0
 10
-54.63617975416515
 20
8.243267464122248
 30
0.0
 10
-55.29681557173823
 20
8.427985544754318
 30
0.0
 10
-55.62813755183293
 20
8.51541275732934
 30
0.0
 10
-56.6224250435529
 20
8.762136534848688
 30
0.0
 10
-57.28288373825668
 20
8.90564927114809
 30
0.0
 10
-58.60355284358511
 20
9.149153044941405
 30
0.0
 10
-59.2681670834128
 20
9.249344795537027
 30
0.0
 10
-60.5915792538564
 20
9.404349013340994
 30
0.0
 10
-61.24974173314836
 20
9.459251702599907
 30
0.0
 10
-61.9125
 20
9.491347006548075
 30
0.0
  0
SPLINE
  5
151
330
1F
100
AcDbEntity
  8
외형선
  6
Continuous
 62
     1
370
    15
100
AcDbSpline
210
0.0
220
0.0
230
1.0
 70
     8
 71
     3
 72
    13
 73
     9
 74
     0
 42
0.000000001
 43
0.00000001
 40
0.0
 40
0.0
 40
0.0
 40
0.0
 40
0.0344127644980981
 40
0.2275509608743423
 40
0.4206735302456922
 40
0.6137857196843153
 40
0.8068927880451576
 40
1.0
 40
1.0
 40
1.0
 40
1.0
 10
-47.4461556086619
 20
-7.795519386704375
 30
0.0
 10
-47.61210847761846
 20
-7.855759479008853
 30
0.0
 10
-48.70945521339166
 20
-8.254091059948841
 30
0.0
 10
-50.737991742656
 20
-8.766061445865603
 30
0.0
 10
-53.5318144787632
 20
-9.30045046687844
 30
0.0
 10
-56.32544009947848
 20
-9.542587549547802
 30
0.0
 10
-59.11898032077335
 20
-9.536186758948046
 30
0.0
 10
-60.98132654278509
 20
-9.302150301773763
 30
0.0
 10
-61.9125
 20
-9.185132029679384
 30
0.0
  0
SPLINE
  5
152
330
1F
100
AcDbEntity
  8
외형선
  6
Continuous
 62
     1
370
    15
100
AcDbSpline
210
0.0
220
0.0
230
1.0
 70
     8
 71
     3
 72
    56
 73
    52
 74
     0
 42
0.000000001
 43
0.00000001
 40
0.0
 40
0.0
 40
0.0
 40
0.0
 40
0.0625000000000034
 40
0.0625000000000034
 40
0.0937500000000052
 40
0.0937500000000052
 40
0.1250000000000069
 40
0.1250000000000069
 40
0.1875000000000104
 40
0.1875000000000104
 40
0.2187500000000108
 40
0.2187500000000108
 40
0.2500000000000112
 40
0.2500000000000112
 40
0.3125000000000097
 40
0.3125000000000097
 40
0.3750000000000082
 40
0.3750000000000082
 40
0.4062500000000074
 40
0.4062500000000074
 40
0.4375000000000066
 40
0.4375000000000066
 40
0.4687500000000058
 40
0.4687500000000058
 40
0.500000000000005
 40
0.500000000000005
 40
0.5312500000000042
 40
0.5312500000000042
 40
0.5468750000000041
 40
0.5468750000000041
 40
0.562500000000004
 40
0.562500000000004
 40
0.5937500000000037
 40
0.5937500000000037
 40
0.6250000000000034
 40
0.6250000000000034
 40
0.6562500000000031
 40
0.6562500000000031
 40
0.6875000000000029
 40
0.6875000000000029
 40
0.7500000000000022
 40
0.7500000000000022
 40
0.7812500000000019
 40
0.7812500000000019
 40
0.8125000000000017
 40
0.8125000000000017
 40
0.8750000000000011
 40
0.8750000000000011
 40
0.9375000000000006
 40
0.9375000000000006
 40
1.0
 40
1.0
 40
1.0
 40
1.0
 10
-61.9125
 20
-9.185132029679378
 30
0.0
 10
-62.39646205611509
 20
-9.111253915653984
 30
0.0
 10
-62.87832504952782
 20
-8.99388533633847
 30
0.0
 10
-63.60289920786243
 20
-8.757838347713612
 30
0.0
 10
-63.84464104075406
 20
-8.669052965115357
 30
0.0
 10
-64.32972486845443
 20
-8.471545603321958
 30
0.0
 10
-64.57435767443397
 20
-8.362103289312836
 30
0.0
 10
-65.29942015633483
 20
-8.00830069279818
 30
0.0
 10
-65.77009167651448
 20
-7.739900402860497
 30
0.0
 10
-66.4561977249086
 20
-7.288686753380984
 30
0.0
 10
-66.68149274617971
 20
-7.130066138508318
 30
0.0
 10
-67.1247626662481
 20
-6.795684890241043
 30
0.0
 10
-67.34284712746117
 20
-6.619721892778561
 30
0.0
 10
-67.97185961046199
 20
-6.075221253833377
 30
0.0
 10
-68.36242104013337
 20
-5.687054675631122
 30
0.0
 10
-69.07807405825471
 20
-4.850241116636451
 30
0.0
 10
-69.40437584071563
 20
-4.398366864341527
 30
0.0
 10
-69.81771020651252
 20
-3.686677475408405
 30
0.0
 10
-69.94350953231458
 20
-3.443057466572437
 30
0.0
 10
-70.16886437852449
 20
-2.940966689579511
 30
0.0
 10
-70.26880366840052
 20
-2.681357377789529
 30
0.0
 10
-70.43677089750807
 20
-2.149149735718035
 30
0.0
 10
-70.50398240563243
 20
-1.879601463194791
 30
0.0
 10
-70.60147549192791
 20
-1.332936148366773
 30
0.0
 10
-70.6318348889564
 20
-1.052818030570708
 30
0.0
 10
-70.64820246947212
 20
-0.5006317100862459
 30
0.0
 10
-70.63476486836657
 20
-0.2292537940040749
 30
0.0
 10
-70.57826556006654
 20
0.168892517151055
 30
0.0
 10
-70.55323959353512
 20
0.2998090823033483
 30
0.0
 10
-70.49210451637944
 20
0.5503011072411658
 30
0.0
 10
-70.45587579847648
 20
0.6709060460175027
 30
0.0
 10
-70.33011385116436
 20
1.018495505669468
 30
0.0
 10
-70.22131606214961
 20
1.234180393358881
 30
0.0
 10
-69.96817399955194
 20
1.60323010401639
 30
0.0
 10
-69.82283040180934
 20
1.759693787323571
 30
0.0
 10
-69.50269290133369
 20
2.013523340042002
 30
0.0
 10
-69.331443449956
 20
2.108840460840772
 30
0.0
 10
-68.96713206745287
 20
2.246022849442409
 30
0.0
 10
-68.77666909885389
 20
2.286442476942164
 30
0.0
 10
-68.19299237978674
 20
2.337165226426398
 30
0.0
 10
-67.77680396018755
 20
2.277213512697785
 30
0.0
 10
-67.14624090260585
 20
2.096954949707996
 30
0.0
 10
-66.93378378313474
 20
2.02174198047128
 30
0.0
 10
-66.50235000359658
 20
1.846366864462563
 30
0.0
 10
-66.28204741631464
 20
1.745794623425908
 30
0.0
 10
-65.6206764023768
 20
1.419414395869329
 30
0.0
 10
-65.17743294248683
 20
1.169180276649103
 30
0.0
 10
-64.27180465916965
 20
0.6320209470388898
 30
0.0
 10
-63.80627160648871
 20
0.3420681982075925
 30
0.0
 10
-62.86970986911799
 20
-0.2343899902668436
 30
0.0
 10
-62.39635234560014
 20
-0.52196874152563
 30
0.0
 10
-61.91250000000003
 20
-0.7999731253555217
 30
0.0
  0
SPLINE
  5
153
330
1F
100
AcDbEntity
  8
외형선
  6
Continuous
 62
     1
370
    15
100
AcDbSpline
210
0.0
220
0.0
230
1.0
 70
     8
 71
     3
 72
    16
 73
    12
 74
     0
 42
0.000000001
 43
0.00000001
 40
0.0
 40
0.0
 40
0.0
 40
0.0
 40
0.1208178169623427
 40
0.2416353923576069
 40
0.3624528432033581
 40
0.483270286533164
 40
0.6040878393815554
 40
0.7249056187689918
 40
0.8388143342005726
 40
0.9527292078966584
 40
1.0
 40
1.0
 40
1.0
 40
1.0
 10
-61.9125
 20
-0.7999731253555215
 30
0.0
 10
-60.92476228712892
 20
-1.365755797210618
 30
0.0
 10
-58.94928883630181
 20
-2.497320009676509
 30
0.0
 10
-55.98608194479164
 20
-4.107438750480762
 30
0.0
 10
-53.0228801022462
 20
-5.587149409789363
 30
0.0
 10
-50.05967285372927
 20
-6.886935190532212
 30
0.0
 10
-47.09648350735326
 20
-7.963966924651777
 30
0.0
 10
-44.18969717884946
 20
-8.773785361461272
 30
0.0
 10
-41.33961788667917
 20
-9.286847601871846
 30
0.0
 10
-39.09069552560284
 20
-9.52727274959003
 30
0.0
 10
-37.77296665594866
 20
-9.499890301513101
 30
0.0
 10
-37.38651735763761
 20
-9.491859872728355
 30
0.0
  0
LINE
  5
154
330
1F
100
AcDbEntity
  8
외형선
  6
Continuous
370
    15
100
AcDbLine
 10
-30.16249999999997
 20
-0.8161148516610874
 30
0.0
 11
-30.16249999999997
 21
-4.038210148209411
 31
0.0
  0
SPLINE
  5
155
330
1F
100
AcDbEntity
  8
외형선
  6
Continuous
 62
     1
370
    15
100
AcDbSpline
210
0.0
220
0.0
230
1.0
 70
     8
 71
     3
 72
    19
 73
    15
 74
     0
 42
0.000000001
 43
0.00000001
 40
0.0
 40
0.0
 40
0.0
 40
0.0
 40
0.0144735352675117
 40
0.0691989505172728
 40
0.1260488925714169
 40
0.2220783645984196
 40
0.3194280346884815
 40
0.3900557315978191
 40
0.4627051969240397
 40
0.5592455878076154
 40
0.6584941916581402
 40
0.7886676484279985
 40
0.9225427069228065
 40
1.0
 40
1.0
 40
1.0
 40
1.0
 10
-70.59446102967945
 20
-3.908562582019396
 30
0.0
 10
-70.5899068464721
 20
-3.921453053296692
 30
0.0
 10
-70.56813298869756
 20
-3.983083267862463
 30
0.0
 10
-70.45300196508143
 20
-4.168188773408023
 30
0.0
 10
-70.19788016308209
 20
-4.537625681319257
 30
0.0
 10
-69.74118612984819
 20
-5.123225276913072
 30
0.0
 10
-69.13930695432646
 20
-5.81957438757429
 30
0.0
 10
-68.53495744332974
 20
-6.454178977338029
 30
0.0
 10
-67.90004861086905
 20
-7.062283112191257
 30
0.0
 10
-67.15926041511682
 20
-7.686974933827724
 30
0.0
 10
-66.23302037051249
 20
-8.34134290751936
 30
0.0
 10
-65.1689061480115
 20
-8.908680002378581
 30
0.0
 10
-64.14393131967338
 20
-9.282520304596318
 30
0.0
 10
-63.49114425716656
 20
-9.379223072284132
 30
0.0
 10
-63.25188548565584
 20
-9.414666460683751
 30
0.0
  0
LINE
  5
156
330
1F
100
AcDbEntity
  8
외형선
  6
Continuous
 62
     1
370
    15
100
AcDbLine
 10
-30.1625
 20
9.489972684307286
 30
0.0
 11
-31.57780484997898
 21
9.486685632365118
 31
0.0
  0
LINE
  5
157
330
1F
100
AcDbEntity
  8
외형선
  6
Continuous
370
    15
100
AcDbLine
 10
-30.16249999999997
 20
9.489972684307286
 30
0.0
 11
-30.16249999999997
 21
8.626614851660978
 31
0.0
  0
LINE
  5
158
330
1F
100
AcDbEntity
  8
외형선
  6
Continuous
370
    15
100
AcDbLine
 10
-30.16249999999997
 20
0.0000000000000087
 30
0.0
 11
-30.16249999999997
 21
-9.524999999999991
 31
0.0
  0
LINE
  5
159
330
1F
100
AcDbEntity
  8
외형선
  6
Continuous
370
    15
100
AcDbLine
 10
-30.16249999999997
 20
9.525000000000006
 30
0.0
 11
-30.16249999999997
 21
0.0000000000000087
 31
0.0
  0
LINE
  5
15A
330
1F
100
AcDbEntity
  8
치수문자_일반주서
 62
     1
100
AcDbLine
 10
-71.4375
 20
0.0000000000000177
 30
0.0
 11
-71.4375
 21
-1.315014629548139
 31
0.0
  0
LINE
  5
15B
330
1F
100
AcDbEntity
  8
외형선
  6
Continuous
370
    15
100
AcDbLine
 10
-30.16249999999997
 20
-9.525000000000004
 30
0.0
 11
30.16249999999997
 21
-9.525000000000004
 31
0.0
  0
LINE
  5
19E
330
1F
100
AcDbEntity
  8
외형선
  6
Continuous
370
    15
100
AcDbLine
 10
-5.791200000000003
 20
7.61999999999999
 30
0.0
 11
5.791200000000003
 21
7.61999999999999
 31
0.0
  0
LINE
  5
19F
330
1F
100
AcDbEntity
  8
외형선
  6
Continuous
370
    15
100
AcDbLine
 10
5.791200000000003
 20
7.61999999999999
 30
0.0
 11
7.696199999999976
 21
9.524999999999991
 31
0.0
  0
LINE
  5
1A0
330
1F
100
AcDbEntity
  8
외형선
  6
Continuous
370
    15
100
AcDbLine
 10
-5.791200000000003
 20
7.61999999999999
 30
0.0
 11
-7.696199999999976
 21
9.524999999999991
 31
0.0
  0
LINE
  5
1A1
330
1F
100
AcDbEntity
  8
외형선
  6
Continuous
370
    15
100
AcDbLine
 10
-7.696199999999983
 20
9.524999999999993
 30
0.0
 11
-30.16249999999996
 21
9.524999999999993
 31
0.0
  0
ENDSEC
  0
SECTION
  2
OBJECTS
  0
DICTIONARY
  5
C
330
0
100
AcDbDictionary
281
     1
  3
ACAD_GROUP
350
D
  3
ACAD_IMAGE_VARS
350
141
  3
ACAD_LAYOUT
350
1A
  3
ACAD_MLINESTYLE
350
17
  3
ACAD_PLOTSETTINGS
350
19
  3
ACAD_PLOTSTYLENAME
350
E
  3
ACAD_SCALELIST
350
47
  3
APPDATA
350
13F
  3
DWGPROPS
350
1A2
  0
DICTIONARY
  5
18C
330
2
100
AcDbDictionary
280
     1
281
     1
  3
ACAD_LAYERSTATES
360
18D
  0
DICTIONARY
  5
D
102
{ACAD_REACTORS
330
C
102
}
330
C
100
AcDbDictionary
281
     1
  0
RASTERVARIABLES
  5
141
102
{ACAD_REACTORS
330
C
102
}
330
C
100
AcDbRasterVariables
 90
        0
 70
     1
 71
     1
 72
     1
  0
DICTIONARY
  5
1A
102
{ACAD_REACTORS
330
C
102
}
330
C
100
AcDbDictionary
281
     1
  3
Layout1
350
1E
  3
Layout2
350
26
  3
Model
350
22
  0
DICTIONARY
  5
17
102
{ACAD_REACTORS
330
C
102
}
330
C
100
AcDbDictionary
281
     1
  3
Standard
350
18
  0
DICTIONARY
  5
19
102
{ACAD_REACTORS
330
C
102
}
330
C
100
AcDbDictionary
281
     1
  0
ACDBDICTIONARYWDFLT
  5
E
102
{ACAD_REACTORS
330
C
102
}
330
C
100
AcDbDictionary
281
     1
  3
Normal
350
F
100
AcDbDictionaryWithDefault
340
F
  0
DICTIONARY
  5
47
102
{ACAD_REACTORS
330
C
102
}
330
C
100
AcDbDictionary
281
     1
  3
A0
350
48
  3
A1
350
49
  3
A2
350
4A
  3
A3
350
4B
  3
A4
350
4C
  3
A5
350
4D
  3
A6
350
4E
  3
A7
350
4F
  3
A8
350
50
  3
A9
350
51
  3
B0
350
52
  3
B1
350
53
  3
B2
350
54
  3
B3
350
55
  3
B4
350
56
  3
B5
350
57
  3
B6
350
58
  3
B7
350
59
  3
B8
350
5A
  3
B9
350
5B
  3
C0
350
5C
  3
C1
350
5D
  3
C2
350
5E
  3
C3
350
5F
  3
C4
350
60
  3
C5
350
61
  3
C6
350
62
  3
C7
350
63
  3
C8
350
64
  3
C9
350
65
  3
D0
350
66
  3
D1
350
67
  3
D2
350
68
  0
DICTIONARY
  5
13F
102
{ACAD_REACTORS
330
C
102
}
330
C
100
AcDbDictionary
281
     1
  0
XRECORD
  5
1A2
102
{ACAD_REACTORS
330
C
102
}
330
C
100
AcDbXrecord
280
     1
  1
DWGPROPS COOKIE
  2

  3

  4

  6

  7

  8
12016016
  9

300
=
301
=
302
=
303
=
304
=
305
=
306
=
307
=
308
=
309
=
 40
0.0
 41
2458319.99926125
 42
2458331.028588009
  1

 90
        0
  0
DICTIONARY
  5
18D
102
{ACAD_REACTORS
330
18C
102
}
330
18C
100
AcDbDictionary
281
     1
  0
LAYOUT
  5
1E
102
{ACAD_REACTORS
330
1A
102
}
330
1A
100
AcDbPlotSettings
  1

  2
none_device
  4

  6

 40
0.0
 41
0.0
 42
0.0
 43
0.0
 44
0.0
 45
0.0
 46
0.0
 47
0.0
 48
0.0
 49
0.0
140
0.0
141
0.0
142
1.0
143
1.0
 70
   688
 72
     1
 73
     0
 74
     5
  7

 75
    16
147
1.0
148
0.0
149
0.0
100
AcDbLayout
  1
Layout1
 70
     1
 71
     1
 10
0.0
 20
0.0
 11
420.0
 21
297.0
 12
0.0
 22
0.0
 32
0.0
 14
1.000000000000000E+20
 24
1.000000000000000E+20
 34
1.000000000000000E+20
 15
-1.000000000000000E+20
 25
-1.000000000000000E+20
 35
-1.000000000000000E+20
146
0.0
 13
0.0
 23
0.0
 33
0.0
 16
1.0
 26
0.0
 36
0.0
 17
0.0
 27
1.0
 37
0.0
 76
     0
330
1B
  0
LAYOUT
  5
26
102
{ACAD_REACTORS
330
1A
102
}
330
1A
100
AcDbPlotSettings
  1

  2
none_device
  4

  6

 40
0.0
 41
0.0
 42
0.0
 43
0.0
 44
0.0
 45
0.0
 46
0.0
 47
0.0
 48
0.0
 49
0.0
140
0.0
141
0.0
142
1.0
143
1.0
 70
   688
 72
     1
 73
     0
 74
     5
  7

 75
    16
147
1.0
148
0.0
149
0.0
100
AcDbLayout
  1
Layout2
 70
     1
 71
     2
 10
0.0
 20
0.0
 11
0.0
 21
0.0
 12
0.0
 22
0.0
 32
0.0
 14
0.0
 24
0.0
 34
0.0
 15
0.0
 25
0.0
 35
0.0
146
0.0
 13
0.0
 23
0.0
 33
0.0
 16
1.0
 26
0.0
 36
0.0
 17
0.0
 27
1.0
 37
0.0
 76
     0
330
23
  0
LAYOUT
  5
22
102
{ACAD_REACTORS
330
1A
102
}
330
1A
100
AcDbPlotSettings
  1

  2
none_device
  4
ANSI_A_(11.00_x_8.50_Inches)
  6

 40
6.35
 41
19.05
 42
6.35000508
 43
19.05000254
 44
279.4
 45
215.9
 46
108.4558398672504
 47
77.53828406598235
 48
0.0
 49
0.0
140
0.0
141
0.0
142
0.0585534828623792
143
1.0
 70
  1696
 72
     0
 73
     0
 74
     0
  7

 75
     0
147
0.0235690232323232
148
0.0
149
0.0
100
AcDbLayout
  1
Model
 70
     1
 71
     0
 10
0.0
 20
0.0
 11
420.0
 21
297.0
 12
0.0
 22
0.0
 32
0.0
 14
1.000000000000000E+20
 24
1.000000000000000E+20
 34
1.000000000000000E+20
 15
-1.000000000000000E+20
 25
-1.000000000000000E+20
 35
-1.000000000000000E+20
146
0.0
 13
0.0
 23
0.0
 33
0.0
 16
1.0
 26
0.0
 36
0.0
 17
0.0
 27
1.0
 37
0.0
 76
     0
330
1F
331
29
  0
MLINESTYLE
  5
18
102
{ACAD_REACTORS
330
17
102
}
330
17
100
AcDbMlineStyle
  2
Standard
 70
     0
  3

 62
   256
 51
90.0
 52
90.0
 71
     2
 49
0.5
 62
   256
  6
BYLAYER
 49
-0.5
 62
   256
  6
BYLAYER
  0
ACDBPLACEHOLDER
  5
F
102
{ACAD_REACTORS
330
E
102
}
330
E
  0
SCALE
  5
48
102
{ACAD_REACTORS
330
47
102
}
330
47
100
AcDbScale
 70
     0
300
1:1
140
1.0
141
1.0
290
     1
  0
SCALE
  5
49
102
{ACAD_REACTORS
330
47
102
}
330
47
100
AcDbScale
 70
     0
300
1:2
140
1.0
141
2.0
290
     0
  0
SCALE
  5
4A
102
{ACAD_REACTORS
330
47
102
}
330
47
100
AcDbScale
 70
     0
300
1:4
140
1.0
141
4.0
290
     0
  0
SCALE
  5
4B
102
{ACAD_REACTORS
330
47
102
}
330
47
100
AcDbScale
 70
     0
300
1:5
140
1.0
141
5.0
290
     0
  0
SCALE
  5
4C
102
{ACAD_REACTORS
330
47
102
}
330
47
100
AcDbScale
 70
     0
300
1:8
140
1.0
141
8.0
290
     0
  0
SCALE
  5
4D
102
{ACAD_REACTORS
330
47
102
}
330
47
100
AcDbScale
 70
     0
300
1:10
140
1.0
141
10.0
290
     0
  0
SCALE
  5
4E
102
{ACAD_REACTORS
330
47
102
}
330
47
100
AcDbScale
 70
     0
300
1:16
140
1.0
141
16.0
290
     0
  0
SCALE
  5
4F
102
{ACAD_REACTORS
330
47
102
}
330
47
100
AcDbScale
 70
     0
300
1:20
140
1.0
141
20.0
290
     0
  0
SCALE
  5
50
102
{ACAD_REACTORS
330
47
102
}
330
47
100
AcDbScale
 70
     0
300
1:30
140
1.0
141
30.0
290
     0
  0
SCALE
  5
51
102
{ACAD_REACTORS
330
47
102
}
330
47
100
AcDbScale
 70
     0
300
1:40
140
1.0
141
40.0
290
     0
  0
SCALE
  5
52
102
{ACAD_REACTORS
330
47
102
}
330
47
100
AcDbScale
 70
     0
300
1:50
140
1.0
141
50.0
290
     0
  0
SCALE
  5
53
102
{ACAD_REACTORS
330
47
102
}
330
47
100
AcDbScale
 70
     0
300
1:100
140
1.0
141
100.0
290
     0
  0
SCALE
  5
54
102
{ACAD_REACTORS
330
47
102
}
330
47
100
AcDbScale
 70
     0
300
2:1
140
2.0
141
1.0
290
     0
  0
SCALE
  5
55
102
{ACAD_REACTORS
330
47
102
}
330
47
100
AcDbScale
 70
     0
300
4:1
140
4.0
141
1.0
290
     0
  0
SCALE
  5
56
102
{ACAD_REACTORS
330
47
102
}
330
47
100
AcDbScale
 70
     0
300
8:1
140
8.0
141
1.0
290
     0
  0
SCALE
  5
57
102
{ACAD_REACTORS
330
47
102
}
330
47
100
AcDbScale
 70
     0
300
10:1
140
10.0
141
1.0
290
     0
  0
SCALE
  5
58
102
{ACAD_REACTORS
330
47
102
}
330
47
100
AcDbScale
 70
     0
300
100:1
140
100.0
141
1.0
290
     0
  0
SCALE
  5
59
102
{ACAD_REACTORS
330
47
102
}
330
47
100
AcDbScale
 70
     0
300
1/128" = 1'-0"
140
0.0078125
141
12.0
290
     0
  0
SCALE
  5
5A
102
{ACAD_REACTORS
330
47
102
}
330
47
100
AcDbScale
 70
     0
300
1/64" = 1'-0"
140
0.015625
141
12.0
290
     0
  0
SCALE
  5
5B
102
{ACAD_REACTORS
330
47
102
}
330
47
100
AcDbScale
 70
     0
300
1/32" = 1'-0"
140
0.03125
141
12.0
290
     0
  0
SCALE
  5
5C
102
{ACAD_REACTORS
330
47
102
}
330
47
100
AcDbScale
 70
     0
300
1/16" = 1'-0"
140
0.0625
141
12.0
290
     0
  0
SCALE
  5
5D
102
{ACAD_REACTORS
330
47
102
}
330
47
100
AcDbScale
 70
     0
300
3/32" = 1'-0"
140
0.09375
141
12.0
290
     0
  0
SCALE
  5
5E
102
{ACAD_REACTORS
330
47
102
}
330
47
100
AcDbScale
 70
     0
300
1/8" = 1'-0"
140
0.125
141
12.0
290
     0
  0
SCALE
  5
5F
102
{ACAD_REACTORS
330
47
102
}
330
47
100
AcDbScale
 70
     0
300
3/16" = 1'-0"
140
0.1875
141
12.0
290
     0
  0
SCALE
  5
60
102
{ACAD_REACTORS
330
47
102
}
330
47
100
AcDbScale
 70
     0
300
1/4" = 1'-0"
140
0.25
141
12.0
290
     0
  0
SCALE
  5
61
102
{ACAD_REACTORS
330
47
102
}
330
47
100
AcDbScale
 70
     0
300
3/8" = 1'-0"
140
0.375
141
12.0
290
     0
  0
SCALE
  5
62
102
{ACAD_REACTORS
330
47
102
}
330
47
100
AcDbScale
 70
     0
300
1/2" = 1'-0"
140
0.5
141
12.0
290
     0
  0
SCALE
  5
63
102
{ACAD_REACTORS
330
47
102
}
330
47
100
AcDbScale
 70
     0
300
3/4" = 1'-0"
140
0.75
141
12.0
290
     0
  0
SCALE
  5
64
102
{ACAD_REACTORS
330
47
102
}
330
47
100
AcDbScale
 70
     0
300
1" = 1'-0"
140
1.0
141
12.0
290
     0
  0
SCALE
  5
65
102
{ACAD_REACTORS
330
47
102
}
330
47
100
AcDbScale
 70
     0
300
1-1/2" = 1'-0"
140
1.5
141
12.0
290
     0
  0
SCALE
  5
66
102
{ACAD_REACTORS
330
47
102
}
330
47
100
AcDbScale
 70
     0
300
3" = 1'-0"
140
3.0
141
12.0
290
     0
  0
SCALE
  5
67
102
{ACAD_REACTORS
330
47
102
}
330
47
100
AcDbScale
 70
     0
300
6" = 1'-0"
140
6.0
141
12.0
290
     0
  0
SCALE
  5
68
102
{ACAD_REACTORS
330
47
102
}
330
47
100
AcDbScale
 70
     0
300
1'-0" = 1'-0"
140
12.0
141
12.0
290
     0
  0
ENDSEC
  0
EOF
