  0
SECTION
  2
HEADER
  9
$ACADVER
  1
AC1015
  9
$ACADMAINTVER
 70
     6
  9
$DWGCODEPAGE
  3
ANSI_949
  9
$INSBASE
 10
0.0
 20
0.0
 30
0.0
  9
$EXTMIN
 10
1.000000000000000E+20
 20
1.000000000000000E+20
 30
1.000000000000000E+20
  9
$EXTMAX
 10
-1.000000000000000E+20
 20
-1.000000000000000E+20
 30
-1.000000000000000E+20
  9
$LIMMIN
 10
0.0
 20
0.0
  9
$LIMMAX
 10
420.0
 20
297.0
  9
$ORTHOMODE
 70
     0
  9
$REGENMODE
 70
     1
  9
$FILLMODE
 70
     1
  9
$QTEXTMODE
 70
     0
  9
$MIRRTEXT
 70
     1
  9
$LTSCALE
 40
1.0
  9
$ATTMODE
 70
     1
  9
$TEXTSIZE
 40
3.5
  9
$TRACEWID
 40
1.0
  9
$TEXTSTYLE
  7
Standard
  9
$CLAYER
  8
0
  9
$CELTYPE
  6
ByLayer
  9
$CECOLOR
 62
   256
  9
$CELTSCALE
 40
1.0
  9
$DISPSILH
 70
     0
  9
$DIMSCALE
 40
1.0
  9
$DIMASZ
 40
3.302
  9
$DIMEXO
 40
1.0
  9
$DIMDLI
 40
3.75
  9
$DIMRND
 40
0.0
  9
$DIMDLE
 40
0.0
  9
$DIMEXE
 40
1.0
  9
$DIMTP
 40
0.0
  9
$DIMTM
 40
0.0
  9
$DIMTXT
 40
3.5
  9
$DIMCEN
 40
2.5
  9
$DIMTSZ
 40
0.0
  9
$DIMTOL
 70
     0
  9
$DIMLIM
 70
     0
  9
$DIMTIH
 70
     1
  9
$DIMTOH
 70
     1
  9
$DIMSE1
 70
     0
  9
$DIMSE2
 70
     0
  9
$DIMTAD
 70
     1
  9
$DIMZIN
 70
     0
  9
$DIMBLK
  1

  9
$DIMASO
 70
     1
  9
$DIMSHO
 70
     1
  9
$DIMPOST
  1

  9
$DIMAPOST
  1

  9
$DIMALT
 70
     0
  9
$DIMALTD
 70
     3
  9
$DIMALTF
 40
0.0393700787401575
  9
$DIMLFAC
 40
1.0
  9
$DIMTOFL
 70
     1
  9
$DIMTVP
 40
0.0
  9
$DIMTIX
 70
     0
  9
$DIMSOXD
 70
     0
  9
$DIMSAH
 70
     0
  9
$DIMBLK1
  1

  9
$DIMBLK2
  1

  9
$DIMSTYLE
  2
ISO-25
  9
$DIMCLRD
 70
     0
  9
$DIMCLRE
 70
     0
  9
$DIMCLRT
 70
     0
  9
$DIMTFAC
 40
1.0
  9
$DIMGAP
 40
1.524
  9
$DIMJUST
 70
     0
  9
$DIMSD1
 70
     0
  9
$DIMSD2
 70
     0
  9
$DIMTOLJ
 70
     0
  9
$DIMTZIN
 70
     0
  9
$DIMALTZ
 70
     0
  9
$DIMALTTZ
 70
     0
  9
$DIMUPT
 70
     0
  9
$DIMDEC
 70
     2
  9
$DIMTDEC
 70
     2
  9
$DIMALTU
 70
     2
  9
$DIMALTTD
 70
     3
  9
$DIMTXSTY
  7
Standard
  9
$DIMAUNIT
 70
     0
  9
$DIMADEC
 70
     2
  9
$DIMALTRND
 40
0.0
  9
$DIMAZIN
 70
     0
  9
$DIMDSEP
 70
    44
  9
$DIMATFIT
 70
     3
  9
$DIMFRAC
 70
     0
  9
$DIMLDRBLK
  1

  9
$DIMLUNIT
 70
     2
  9
$DIMLWD
 70
    -2
  9
$DIMLWE
 70
    -2
  9
$DIMTMOVE
 70
     0
  9
$LUNITS
 70
     2
  9
$LUPREC
 70
     2
  9
$SKETCHINC
 40
1.0
  9
$FILLETRAD
 40
10.0
  9
$AUNITS
 70
     0
  9
$AUPREC
 70
     2
  9
$MENU
  1
.
  9
$ELEVATION
 40
0.0
  9
$PELEVATION
 40
0.0
  9
$THICKNESS
 40
0.0
  9
$LIMCHECK
 70
     0
  9
$CHAMFERA
 40
0.0
  9
$CHAMFERB
 40
0.0
  9
$CHAMFERC
 40
0.0
  9
$CHAMFERD
 40
0.0
  9
$SKPOLY
 70
     0
  9
$TDCREATE
 40
2458320.374472674
  9
$TDUCREATE
 40
2458319.999472674
  9
$TDUPDATE
 40
2458331.4022739
  9
$TDUUPDATE
 40
2458331.0272739
  9
$TDINDWG
 40
0.0001422338
  9
$TDUSRTIMER
 40
2458331.02713191
  9
$USRTIMER
 70
     1
  9
$ANGBASE
 50
0.0
  9
$ANGDIR
 70
     0
  9
$PDMODE
 70
     0
  9
$PDSIZE
 40
-1.0
  9
$PLINEWID
 40
0.0
  9
$SPLFRAME
 70
     0
  9
$SPLINETYPE
 70
     6
  9
$SPLINESEGS
 70
     8
  9
$HANDSEED
  5
19F
  9
$SURFTAB1
 70
     6
  9
$SURFTAB2
 70
     6
  9
$SURFTYPE
 70
     6
  9
$SURFU
 70
     6
  9
$SURFV
 70
     6
  9
$UCSBASE
  2

  9
$UCSNAME
  2

  9
$UCSORG
 10
0.0
 20
0.0
 30
0.0
  9
$UCSXDIR
 10
1.0
 20
0.0
 30
0.0
  9
$UCSYDIR
 10
0.0
 20
1.0
 30
0.0
  9
$UCSORTHOREF
  2

  9
$UCSORTHOVIEW
 70
     0
  9
$UCSORGTOP
 10
0.0
 20
0.0
 30
0.0
  9
$UCSORGBOTTOM
 10
0.0
 20
0.0
 30
0.0
  9
$UCSORGLEFT
 10
0.0
 20
0.0
 30
0.0
  9
$UCSORGRIGHT
 10
0.0
 20
0.0
 30
0.0
  9
$UCSORGFRONT
 10
0.0
 20
0.0
 30
0.0
  9
$UCSORGBACK
 10
0.0
 20
0.0
 30
0.0
  9
$PUCSBASE
  2

  9
$PUCSNAME
  2

  9
$PUCSORG
 10
0.0
 20
0.0
 30
0.0
  9
$PUCSXDIR
 10
1.0
 20
0.0
 30
0.0
  9
$PUCSYDIR
 10
0.0
 20
1.0
 30
0.0
  9
$PUCSORTHOREF
  2

  9
$PUCSORTHOVIEW
 70
     0
  9
$PUCSORGTOP
 10
0.0
 20
0.0
 30
0.0
  9
$PUCSORGBOTTOM
 10
0.0
 20
0.0
 30
0.0
  9
$PUCSORGLEFT
 10
0.0
 20
0.0
 30
0.0
  9
$PUCSORGRIGHT
 10
0.0
 20
0.0
 30
0.0
  9
$PUCSORGFRONT
 10
0.0
 20
0.0
 30
0.0
  9
$PUCSORGBACK
 10
0.0
 20
0.0
 30
0.0
  9
$USERI1
 70
     0
  9
$USERI2
 70
     0
  9
$USERI3
 70
     0
  9
$USERI4
 70
     0
  9
$USERI5
 70
     0
  9
$USERR1
 40
0.0
  9
$USERR2
 40
0.0
  9
$USERR3
 40
0.0
  9
$USERR4
 40
0.0
  9
$USERR5
 40
0.0
  9
$WORLDVIEW
 70
     1
  9
$SHADEDGE
 70
     3
  9
$SHADEDIF
 70
    70
  9
$TILEMODE
 70
     1
  9
$MAXACTVP
 70
    64
  9
$PINSBASE
 10
0.0
 20
0.0
 30
0.0
  9
$PLIMCHECK
 70
     0
  9
$PEXTMIN
 10
1.000000000000000E+20
 20
1.000000000000000E+20
 30
1.000000000000000E+20
  9
$PEXTMAX
 10
-1.000000000000000E+20
 20
-1.000000000000000E+20
 30
-1.000000000000000E+20
  9
$PLIMMIN
 10
0.0
 20
0.0
  9
$PLIMMAX
 10
0.0
 20
0.0
  9
$UNITMODE
 70
     0
  9
$VISRETAIN
 70
     1
  9
$PLINEGEN
 70
     0
  9
$PSLTSCALE
 70
     1
  9
$TREEDEPTH
 70
  3020
  9
$CMLSTYLE
  2
Standard
  9
$CMLJUST
 70
     0
  9
$CMLSCALE
 40
20.0
  9
$PROXYGRAPHICS
 70
     1
  9
$MEASUREMENT
 70
     1
  9
$CELWEIGHT
370
    -1
  9
$ENDCAPS
280
     0
  9
$JOINSTYLE
280
     0
  9
$LWDISPLAY
290
     1
  9
$INSUNITS
 70
     4
  9
$HYPERLINKBASE
  1

  9
$STYLESHEET
  1

  9
$XEDIT
290
     1
  9
$CEPSNTYPE
380
     0
  9
$PSTYLEMODE
290
     1
  9
$FINGERPRINTGUID
  2
{B6409A40-74B4-44AE-86C4-8D568ECF2A1C}
  9
$VERSIONGUID
  2
{FAEB1C32-E019-11D5-929B-00C0DF256EC4}
  9
$EXTNAMES
290
     1
  9
$PSVPSCALE
 40
0.0
  9
$OLESTARTUP
290
     0
  0
ENDSEC
  0
SECTION
  2
CLASSES
  0
CLASS
  1
ACDBDICTIONARYWDFLT
  2
AcDbDictionaryWithDefault
  3
ObjectDBX Classes
 90
        0
280
     0
281
     0
  0
CLASS
  1
VISUALSTYLE
  2
AcDbVisualStyle
  3
ObjectDBX Classes
 90
     4095
280
     0
281
     0
  0
CLASS
  1
MATERIAL
  2
AcDbMaterial
  3
ObjectDBX Classes
 90
     1153
280
     0
281
     0
  0
CLASS
  1
SCALE
  2
AcDbScale
  3
ObjectDBX Classes
 90
     1153
280
     0
281
     0
  0
CLASS
  1
SUN
  2
AcDbSun
  3
SCENEOE
 90
     1153
280
     0
281
     0
  0
CLASS
  1
ACDBPLACEHOLDER
  2
AcDbPlaceHolder
  3
ObjectDBX Classes
 90
        0
280
     0
281
     0
  0
CLASS
  1
LAYOUT
  2
AcDbLayout
  3
ObjectDBX Classes
 90
        0
280
     0
281
     0
  0
CLASS
  1
TABLESTYLE
  2
AcDbTableStyle
  3
ObjectDBX Classes
 90
     4095
280
     0
281
     0
  0
CLASS
  1
MLEADERSTYLE
  2
AcDbMLeaderStyle
  3
ACDB_MLEADERSTYLE_CLASS
 90
     4095
280
     0
281
     0
  0
CLASS
  1
RASTERVARIABLES
  2
AcDbRasterVariables
  3
ISM
 90
        0
280
     0
281
     0
  0
ENDSEC
  0
SECTION
  2
TABLES
  0
TABLE
  2
VPORT
  5
8
330
0
100
AcDbSymbolTable
 70
     1
  0
VPORT
  5
29
330
8
100
AcDbSymbolTableRecord
100
AcDbViewportTableRecord
  2
*Active
 70
     0
 10
0.0
 20
0.0
 11
1.0
 21
1.0
 12
-25.50557662106368
 22
-85.50725546191009
 13
0.0
 23
0.0
 14
10.0
 24
10.0
 15
10.0
 25
10.0
 16
0.0
 26
0.0
 36
1.0
 17
0.0
 27
0.0
 37
0.0
 40
218.7564728036501
 41
1.516441005802708
 42
50.0
 43
0.0
 44
0.0
 50
0.0
 51
0.0
 71
    16
 72
  2000
 73
     1
 74
     3
 75
     0
 76
     0
 77
     0
 78
     0
281
     0
 65
     1
110
0.0
120
0.0
130
0.0
111
1.0
121
0.0
131
0.0
112
0.0
122
1.0
132
0.0
 79
     0
146
0.0
  0
ENDTAB
  0
TABLE
  2
LTYPE
  5
5
330
0
100
AcDbSymbolTable
 70
     6
  0
LTYPE
  5
14
330
5
100
AcDbSymbolTableRecord
100
AcDbLinetypeTableRecord
  2
ByBlock
 70
     0
  3

 72
    65
 73
     0
 40
0.0
  0
LTYPE
  5
15
330
5
100
AcDbSymbolTableRecord
100
AcDbLinetypeTableRecord
  2
ByLayer
 70
     0
  3

 72
    65
 73
     0
 40
0.0
  0
LTYPE
  5
16
330
5
100
AcDbSymbolTableRecord
100
AcDbLinetypeTableRecord
  2
Continuous
 70
     0
  3
Solid line
 72
    65
 73
     0
 40
0.0
  0
LTYPE
  5
6A
330
5
100
AcDbSymbolTableRecord
100
AcDbLinetypeTableRecord
  2
HIDDEN
 70
     0
  3
Hidden __ __ __ __ __ __ __ __ __ __ __ __ __ __
 72
    65
 73
     2
 40
1.905
 49
1.27
 74
     0
 49
-0.635
 74
     0
  0
LTYPE
  5
6B
330
5
100
AcDbSymbolTableRecord
100
AcDbLinetypeTableRecord
  2
PHANTOM
 70
     0
  3
Phantom ______  __  __  ______  __  __  ______
 72
    65
 73
     6
 40
12.7
 49
6.35
 74
     0
 49
-1.27
 74
     0
 49
1.27
 74
     0
 49
-1.27
 74
     0
 49
1.27
 74
     0
 49
-1.27
 74
     0
  0
LTYPE
  5
6C
330
5
100
AcDbSymbolTableRecord
100
AcDbLinetypeTableRecord
  2
CENTER
 70
     0
  3
Center ____ _ ____ _ ____ _ ____ _ ____ _ ____
 72
    65
 73
     4
 40
10.16
 49
6.35
 74
     0
 49
-1.27
 74
     0
 49
1.27
 74
     0
 49
-1.27
 74
     0
  0
LTYPE
  5
6D
330
5
100
AcDbSymbolTableRecord
100
AcDbLinetypeTableRecord
  2
CENTERX2
 70
     0
  3
Center (2x) ________  __  ________  __  _____
 72
    65
 73
     4
 40
20.32
 49
12.7
 74
     0
 49
-2.54
 74
     0
 49
2.54
 74
     0
 49
-2.54
 74
     0
  0
LTYPE
  5
6E
330
5
100
AcDbSymbolTableRecord
100
AcDbLinetypeTableRecord
  2
DOT2
 70
     0
  3
Dot (.5x) ........................................
 72
    65
 73
     2
 40
0.635
 49
0.0
 74
     0
 49
-0.635
 74
     0
  0
ENDTAB
  0
TABLE
  2
LAYER
  5
2
102
{ACAD_XDICTIONARY
360
189
102
}
330
0
100
AcDbSymbolTable
 70
    18
  0
LAYER
  5
10
330
2
100
AcDbSymbolTableRecord
100
AcDbLayerTableRecord
  2
0
 70
     0
 62
     7
  6
Continuous
370
    -3
390
F
  0
LAYER
  5
6F
330
2
100
AcDbSymbolTableRecord
100
AcDbLayerTableRecord
  2
FORMAT
 70
     0
 62
     2
  6
Continuous
370
    -3
390
F
  0
LAYER
  5
70
330
2
100
AcDbSymbolTableRecord
100
AcDbLayerTableRecord
  2
외형선
 70
     0
 62
     4
  6
Continuous
370
    30
390
F
  0
LAYER
  5
71
330
2
100
AcDbSymbolTableRecord
100
AcDbLayerTableRecord
  2
숨은선
 70
     0
 62
     2
  6
HIDDEN
370
    15
390
F
  0
LAYER
  5
72
330
2
100
AcDbSymbolTableRecord
100
AcDbLayerTableRecord
  2
중심선
 70
     0
 62
     1
  6
CENTERX2
370
    -3
390
F
  0
LAYER
  5
73
330
2
100
AcDbSymbolTableRecord
100
AcDbLayerTableRecord
  2
파단선
 70
     0
 62
     4
  6
Continuous
370
    -3
390
F
  0
LAYER
  5
74
330
2
100
AcDbSymbolTableRecord
100
AcDbLayerTableRecord
  2
해칭선
 70
     0
 62
   100
  6
Continuous
370
    -3
390
F
  0
LAYER
  5
75
330
2
100
AcDbSymbolTableRecord
100
AcDbLayerTableRecord
  2
가는실선
 70
     0
 62
     4
  6
Continuous
370
    -3
390
F
  0
LAYER
  5
76
330
2
100
AcDbSymbolTableRecord
100
AcDbLayerTableRecord
  2
치수_보조선
 70
     0
 62
     4
  6
Continuous
370
    -3
390
F
  0
LAYER
  5
77
330
2
100
AcDbSymbolTableRecord
100
AcDbLayerTableRecord
  2
치수문자_일반주서
 70
     0
 62
     7
  6
Continuous
370
    15
390
F
  0
LAYER
  5
78
330
2
100
AcDbSymbolTableRecord
100
AcDbLayerTableRecord
  2
개별주서
 70
     0
 62
   100
  6
Continuous
370
    30
390
F
  0
LAYER
  5
79
330
2
100
AcDbSymbolTableRecord
100
AcDbLayerTableRecord
  2
중간선
 70
     0
 62
     2
  6
Continuous
370
    15
390
F
  0
LAYER
  5
7A
330
2
100
AcDbSymbolTableRecord
100
AcDbLayerTableRecord
  2
윤곽선
 70
     0
 62
     3
  6
Continuous
370
    40
390
F
  0
LAYER
  5
7B
330
2
100
AcDbSymbolTableRecord
100
AcDbLayerTableRecord
  2
중심마크
 70
     0
 62
   100
  6
Continuous
370
    30
390
F
  0
LAYER
  5
7C
330
2
100
AcDbSymbolTableRecord
100
AcDbLayerTableRecord
  2
가상선
 70
     0
 62
     4
  6
PHANTOM
370
    -3
390
F
  0
LAYER
  5
7D
330
2
100
AcDbSymbolTableRecord
100
AcDbLayerTableRecord
  2
특수지정선
 70
     0
 62
     5
  6
CENTERX2
370
    60
390
F
  0
LAYER
  5
7E
330
2
100
AcDbSymbolTableRecord
100
AcDbLayerTableRecord
  2
참조1
 70
     0
 62
    -4
  6
Continuous
370
    -3
390
F
  0
LAYER
  5
142
330
2
100
AcDbSymbolTableRecord
100
AcDbLayerTableRecord
  2
Defpoints
 70
     0
 62
     7
  6
Continuous
290
     0
370
    -3
390
F
  0
ENDTAB
  0
TABLE
  2
STYLE
  5
3
330
0
100
AcDbSymbolTable
 70
     2
  0
STYLE
  5
11
330
3
100
AcDbSymbolTableRecord
100
AcDbTextStyleTableRecord
  2
Standard
 70
     0
 40
0.0
 41
1.0
 50
0.0
 71
     0
 42
3.5
  3
txt
  4

  0
STYLE
  5
94
330
3
100
AcDbSymbolTableRecord
100
AcDbTextStyleTableRecord
  2
SLDTEXTSTYLE0
 70
     0
 40
0.0
 41
0.75
 50
0.0
 71
     0
 42
3.5
  3
TXT
  4

  0
ENDTAB
  0
TABLE
  2
VIEW
  5
6
330
0
100
AcDbSymbolTable
 70
     0
  0
ENDTAB
  0
TABLE
  2
UCS
  5
7
330
0
100
AcDbSymbolTable
 70
     0
  0
ENDTAB
  0
TABLE
  2
APPID
  5
9
330
0
100
AcDbSymbolTable
 70
     1
  0
APPID
  5
12
330
9
100
AcDbSymbolTableRecord
100
AcDbRegAppTableRecord
  2
ACAD
 70
     0
  0
ENDTAB
  0
TABLE
  2
DIMSTYLE
  5
A
330
0
100
AcDbSymbolTable
 70
     4
100
AcDbDimStyleTable
  0
DIMSTYLE
105
27
330
A
100
AcDbSymbolTableRecord
100
AcDbDimStyleTableRecord
  2
ISO-25
 70
     0
 41
2.5
 42
0.625
 43
3.75
 44
1.25
 73
     0
 74
     0
 77
     1
 78
     8
140
2.5
141
2.5
143
0.03937007874016
147
0.625
171
     3
172
     1
178
     0
271
     2
272
     2
274
     3
278
    44
283
     0
284
     8
340
11
  0
DIMSTYLE
105
C0
102
{ACAD_REACTORS
330
BF
330
D4
102
}
330
A
100
AcDbSymbolTableRecord
100
AcDbDimStyleTableRecord
  2
SLDDIMSTYLE0
 70
     0
 41
3.302
 44
0.0
 45
0.000000001
 73
     0
 74
     0
 77
     1
 78
    12
 79
     3
140
3.5
143
0.0393700787401575
147
0.875
148
0.000000001
170
     1
173
     1
178
     0
271
     2
272
     2
276
     2
284
    12
340
94
  0
DIMSTYLE
105
E8
102
{ACAD_REACTORS
330
E7
102
}
330
A
100
AcDbSymbolTableRecord
100
AcDbDimStyleTableRecord
  2
SLDDIMSTYLE1
 70
     0
 41
3.302
 44
0.0
 45
0.000000001
 73
     0
 74
     0
 77
     1
 78
     4
 79
     1
140
3.5
143
0.0393700787401575
147
0.875
148
0.000000001
170
     1
173
     1
178
     0
271
     2
272
     2
276
     2
284
    12
340
94
  0
DIMSTYLE
105
FC
102
{ACAD_REACTORS
330
FB
102
}
330
A
100
AcDbSymbolTableRecord
100
AcDbDimStyleTableRecord
  2
SLDDIMSTYLE2
 70
     0
 41
3.302
 44
0.0
 45
0.000000001
 73
     0
 74
     0
 77
     1
 78
     4
 79
     1
140
3.5
143
0.0393700787401575
147
0.875
148
0.000000001
170
     1
172
     1
173
     1
178
     0
271
     2
272
     2
276
     2
284
    12
289
     0
340
94
  0
ENDTAB
  0
TABLE
  2
BLOCK_RECORD
  5
1
330
0
100
AcDbSymbolTable
 70
     8
  0
BLOCK_RECORD
  5
1F
330
1
100
AcDbSymbolTableRecord
100
AcDbBlockTableRecord
  2
*Model_Space
340
22
  0
BLOCK_RECORD
  5
1B
330
1
100
AcDbSymbolTableRecord
100
AcDbBlockTableRecord
  2
*Paper_Space
340
1E
  0
BLOCK_RECORD
  5
23
330
1
100
AcDbSymbolTableRecord
100
AcDbBlockTableRecord
  2
*Paper_Space0
340
26
  0
BLOCK_RECORD
  5
7F
330
1
100
AcDbSymbolTableRecord
100
AcDbBlockTableRecord
  2
블럭10
340
0
102
{BLKREFS
331
B8
102
}
  0
BLOCK_RECORD
  5
C1
330
1
100
AcDbSymbolTableRecord
100
AcDbBlockTableRecord
  2
_D
340
0
  0
BLOCK_RECORD
  5
D5
330
1
100
AcDbSymbolTableRecord
100
AcDbBlockTableRecord
  2
_D_1
340
0
  0
BLOCK_RECORD
  5
E9
330
1
100
AcDbSymbolTableRecord
100
AcDbBlockTableRecord
  2
_D_2
340
0
  0
BLOCK_RECORD
  5
FD
330
1
100
AcDbSymbolTableRecord
100
AcDbBlockTableRecord
  2
_D_3
340
0
  0
BLOCK_RECORD
  5
117
330
1
100
AcDbSymbolTableRecord
100
AcDbBlockTableRecord
  2
SW_DOWELSYMBOL_0
340
0
102
{BLKREFS
331
11D
102
}
  0
ENDTAB
  0
ENDSEC
  0
SECTION
  2
BLOCKS
  0
BLOCK
  5
20
330
1F
100
AcDbEntity
  8
0
100
AcDbBlockBegin
  2
*Model_Space
 70
     0
 10
0.0
 20
0.0
 30
0.0
  3
*Model_Space
  1
*Model_Space
  0
ENDBLK
  5
21
330
1F
100
AcDbEntity
  8
0
100
AcDbBlockEnd
  0
BLOCK
  5
1C
330
1B
100
AcDbEntity
 67
     1
  8
0
100
AcDbBlockBegin
  2
*Paper_Space
 70
     0
 10
0.0
 20
0.0
 30
0.0
  3
*Paper_Space
  1
*Paper_Space
  0
ENDBLK
  5
1D
330
1B
100
AcDbEntity
 67
     1
  8
0
100
AcDbBlockEnd
  0
BLOCK
  5
24
330
23
100
AcDbEntity
  8
0
100
AcDbBlockBegin
  2
*Paper_Space0
 70
     0
 10
0.0
 20
0.0
 30
0.0
  3
*Paper_Space0
  1
*Paper_Space0
  0
ENDBLK
  5
25
330
23
100
AcDbEntity
  8
0
100
AcDbBlockEnd
  0
BLOCK
  5
80
330
7F
100
AcDbEntity
  8
0
100
AcDbBlockBegin
  2
블럭10
 70
     2
 10
0.0
 20
0.0
 30
0.0
  3
블럭10
  1
블럭10
  0
ELLIPSE
  5
82
330
7F
100
AcDbEntity
  8
중심선
100
AcDbEllipse
 10
20.54032771741204
 20
12.0471743016438
 30
0.0
 11
6.600054785286829
 21
-1.261213355974178E-13
 31
0.0
210
0.0
220
0.0
230
1.0
 40
0.636358354079598
 41
0.9219305317359503
 42
6.513795318482858
  0
ELLIPSE
  5
83
330
7F
100
AcDbEntity
  8
중심선
100
AcDbEllipse
 10
20.54032771746488
 20
12.04717430159265
 30
0.0
 11
3.960054785062283
 21
1.540847449632565E-10
 31
0.0
210
0.0
220
0.0
230
1.0
 40
0.3939339440162632
 41
1.131841032648279
 42
5.62031148352944
  0
LINE
  5
84
330
7F
100
AcDbEntity
  8
중심선
100
AcDbLine
 10
2.268634060543552
 20
16.24717430164393
 30
0.0
 11
5.714909304380834
 21
16.24717430164393
 31
0.0
  0
LINE
  5
85
330
7F
100
AcDbEntity
  8
중심선
100
AcDbLine
 10
5.245725140726316
 20
7.84717430164391
 30
0.0
 11
8.692000384563599
 21
7.84717430164391
 31
0.0
  0
LINE
  5
86
330
7F
100
AcDbEntity
  8
중심선
100
AcDbLine
 10
15.74043728645272
 20
16.24717430164393
 30
0.0
 11
8.692000384563599
 21
7.84717430164391
 31
0.0
  0
LINE
  5
87
330
7F
100
AcDbEntity
  8
중심선
100
AcDbLine
 10
0.1404042013395286
 20
13.71084872107135
 30
0.0
 11
3.58671253028996
 21
13.71088815037384
 31
0.0
  0
LINE
  5
88
330
7F
100
AcDbEntity
  8
중심선
100
AcDbLine
 10
2.750260043222114
 20
10.84717430164391
 30
0.0
 11
6.196535287059397
 21
10.84717430164391
 31
0.0
  0
LINE
  5
89
330
7F
100
AcDbEntity
  8
중심선
100
AcDbLine
 10
12.29416204261559
 20
16.24717430164393
 30
0.0
 11
5.245725140726316
 21
7.84717430164391
 31
0.0
  0
LINE
  5
8A
330
7F
100
AcDbEntity
  8
중심선
100
AcDbLine
 10
10.72767329541681
 20
16.24717430164393
 30
0.0
 11
6.196535287059397
 21
10.84717430164391
 31
0.0
  0
LINE
  5
8B
330
7F
100
AcDbEntity
  8
중심선
100
AcDbLine
 10
7.28139805157953
 20
16.24717430164393
 30
0.0
 11
2.750260043222114
 21
10.84717430164391
 31
0.0
  0
LINE
  5
8C
330
7F
100
AcDbEntity
  8
중심선
100
AcDbLine
 10
5.714909304380834
 20
16.24717430164393
 30
0.0
 11
3.58671253028996
 21
13.71088815037384
 31
0.0
  0
LINE
  5
8D
330
7F
100
AcDbEntity
  8
중심선
100
AcDbLine
 10
2.268634060543552
 20
16.24717430164393
 30
0.0
 11
0.1404042013395286
 21
13.71084872107135
 31
0.0
  0
LINE
  5
8E
330
7F
100
AcDbEntity
  8
중심선
100
AcDbLine
 10
7.28139805157953
 20
16.24717430164393
 30
0.0
 11
10.72767329541681
 21
16.24717430164393
 31
0.0
  0
LINE
  5
8F
330
7F
100
AcDbEntity
  8
중심선
100
AcDbLine
 10
12.29416204261559
 20
16.24717430164393
 30
0.0
 11
15.74043728645272
 21
16.24717430164393
 31
0.0
  0
LINE
  5
90
330
7F
100
AcDbEntity
  8
중심선
100
AcDbLine
 10
19.22036997980202
 20
11.08717430171403
 30
0.0
 11
23.66174974927406
 21
11.08717430171406
 31
0.0
  0
LINE
  5
91
330
7F
100
AcDbEntity
  8
중심선
100
AcDbLine
 10
19.22039502424796
 20
13.00717430171391
 30
0.0
 11
19.22036997980202
 21
11.08717430171403
 31
0.0
  0
LINE
  5
92
330
7F
100
AcDbEntity
  8
중심선
100
AcDbLine
 10
19.22039502424796
 20
13.00717430171391
 30
0.0
 11
26.96566020931264
 21
13.00717430171391
 31
0.0
  0
LINE
  5
93
330
7F
100
AcDbEntity
  8
중심선
100
AcDbLine
 10
22.22332737316547
 20
13.45928029700563
 30
0.0
 11
24.52862924686651
 21
15.39360700705356
 31
0.0
  0
ATTDEF
  5
95
330
7F
100
AcDbEntity
  8
FORMAT
 62
     2
100
AcDbText
 10
4.408487351596664
 20
2.075366912832191
 30
0.0
 40
4.233333333333333
  1
E2069064
 41
0.75
  7
SLDTEXTSTYLE0
 11
4.408487351596664
 21
-0.0412997538344756
 31
0.0
100
AcDbAttributeDefinition
  3

  2
AUTOATTR0
 70
     0
 74
     1
  0
ENDBLK
  5
81
330
7F
100
AcDbEntity
  8
0
100
AcDbBlockEnd
  0
BLOCK
  5
C2
330
C1
100
AcDbEntity
  8
0
100
AcDbBlockBegin
  2
_D
 70
     0
 10
0.0
 20
0.0
 30
0.0
  3
_D
  1
_D
  0
LINE
  5
C4
330
C1
100
AcDbEntity
  8
치수문자_일반주서
 62
     0
370
    -2
100
AcDbLine
 10
80.9625
 20
1.377514629548132
 30
0.0
 11
80.9625
 21
22.82277225922701
 31
0.0
  0
LINE
  5
C5
330
C1
100
AcDbEntity
  8
치수문자_일반주서
 62
     0
370
    -2
100
AcDbLine
 10
33.33750000000003
 20
12.76249999999998
 30
0.0
 11
33.33750000000003
 21
22.82277225922701
 31
0.0
  0
LINE
  5
C6
330
C1
100
AcDbEntity
  8
치수문자_일반주서
 62
     0
370
    -2
100
AcDbLine
 10
77.66050000000001
 20
22.82277225922701
 30
0.0
 11
36.63950000000003
 21
22.82277225922701
 31
0.0
  0
SOLID
  5
C7
330
C1
100
AcDbEntity
  8
치수문자_일반주서
 62
     0
100
AcDbTrace
 10
77.66050000000001
 20
22.27243892589368
 30
0.0
 11
77.66050000000001
 21
23.37310559256035
 31
0.0
 12
80.9625
 22
22.82277225922701
 32
0.0
 13
80.9625
 23
22.82277225922701
 33
0.0
  0
SOLID
  5
C8
330
C1
100
AcDbEntity
  8
치수문자_일반주서
 62
     0
100
AcDbTrace
 10
36.63950000000003
 20
23.37310559256035
 30
0.0
 11
36.63950000000003
 21
22.27243892589368
 31
0.0
 12
33.33750000000003
 22
22.82277225922701
 32
0.0
 13
33.33750000000003
 23
22.82277225922701
 33
0.0
  0
MTEXT
  5
C9
330
C1
100
AcDbEntity
  8
치수문자_일반주서
 62
     0
100
AcDbMText
 10
57.15000000000001
 20
27.19777225922701
 30
0.0
 40
3.5
 41
0.0
 71
     2
 72
     1
  1
\A1;47.63 [1 7/8]
  7
SLDTEXTSTYLE0
 73
     1
 44
1.0
  0
POINT
  5
CA
330
C1
100
AcDbEntity
  8
Defpoints
 62
     0
100
AcDbPoint
 10
80.9625
 20
1.315014629548132
 30
0.0
  0
POINT
  5
CB
330
C1
100
AcDbEntity
  8
Defpoints
 62
     0
100
AcDbPoint
 10
33.33750000000003
 20
12.69999999999998
 30
0.0
  0
POINT
  5
CC
330
C1
100
AcDbEntity
  8
Defpoints
 62
     0
100
AcDbPoint
 10
33.33750000000003
 20
22.82277225922701
 30
0.0
  0
ENDBLK
  5
C3
330
C1
100
AcDbEntity
  8
0
100
AcDbBlockEnd
  0
BLOCK
  5
D6
330
D5
100
AcDbEntity
  8
0
100
AcDbBlockBegin
  2
_D_1
 70
     0
 10
0.0
 20
0.0
 30
0.0
  3
_D_1
  1
_D_1
  0
LINE
  5
D8
330
D5
100
AcDbEntity
  8
치수문자_일반주서
 62
     0
370
    -2
100
AcDbLine
 10
80.9625
 20
1.377514629548132
 30
0.0
 11
80.96250000000002
 21
35.752820568952
 31
0.0
  0
LINE
  5
D9
330
D5
100
AcDbEntity
  8
치수문자_일반주서
 62
     0
370
    -2
100
AcDbLine
 10
-80.96249999999999
 20
10.22249999999999
 30
0.0
 11
-80.96249999999998
 21
35.752820568952
 31
0.0
  0
LINE
  5
DA
330
D5
100
AcDbEntity
  8
치수문자_일반주서
 62
     0
370
    -2
100
AcDbLine
 10
77.66050000000001
 20
35.752820568952
 30
0.0
 11
-77.66049999999998
 21
35.752820568952
 31
0.0
  0
SOLID
  5
DB
330
D5
100
AcDbEntity
  8
치수문자_일반주서
 62
     0
100
AcDbTrace
 10
77.66050000000001
 20
35.20248723561867
 30
0.0
 11
77.66050000000001
 21
36.30315390228534
 31
0.0
 12
80.96250000000002
 22
35.752820568952
 32
0.0
 13
80.96250000000002
 23
35.752820568952
 33
0.0
  0
SOLID
  5
DC
330
D5
100
AcDbEntity
  8
치수문자_일반주서
 62
     0
100
AcDbTrace
 10
-77.66049999999998
 20
36.30315390228534
 30
0.0
 11
-77.66049999999998
 21
35.20248723561867
 31
0.0
 12
-80.96249999999998
 22
35.752820568952
 32
0.0
 13
-80.96249999999998
 23
35.752820568952
 33
0.0
  0
MTEXT
  5
DD
330
D5
100
AcDbEntity
  8
치수문자_일반주서
 62
     0
100
AcDbMText
 10
0.0000000000000036
 20
40.127820568952
 30
0.0
 40
3.5
 41
0.0
 71
     2
 72
     1
  1
\A1;161.93 [6 3/8]
  7
SLDTEXTSTYLE0
 73
     1
 44
1.0
  0
POINT
  5
DE
330
D5
100
AcDbEntity
  8
Defpoints
 62
     0
100
AcDbPoint
 10
80.9625
 20
1.315014629548132
 30
0.0
  0
POINT
  5
DF
330
D5
100
AcDbEntity
  8
Defpoints
 62
     0
100
AcDbPoint
 10
-80.96249999999999
 20
10.15999999999999
 30
0.0
  0
POINT
  5
E0
330
D5
100
AcDbEntity
  8
Defpoints
 62
     0
100
AcDbPoint
 10
-80.96249999999999
 20
35.752820568952
 30
0.0
  0
ENDBLK
  5
D7
330
D5
100
AcDbEntity
  8
0
100
AcDbBlockEnd
  0
BLOCK
  5
EA
330
E9
100
AcDbEntity
  8
0
100
AcDbBlockBegin
  2
_D_2
 70
     0
 10
0.0
 20
0.0
 30
0.0
  3
_D_2
  1
_D_2
  0
LINE
  5
EC
330
E9
100
AcDbEntity
  8
치수문자_일반주서
 62
     0
370
    -2
100
AcDbLine
 10
43.03113514085782
 20
12.70000000000001
 30
0.0
 11
108.4419187491384
 21
12.70000000000025
 31
0.0
  0
LINE
  5
ED
330
E9
100
AcDbEntity
  8
치수문자_일반주서
 62
     0
370
    -2
100
AcDbLine
 10
43.03113514085795
 20
-12.70000000000002
 30
0.0
 11
108.4419187491385
 21
-12.69999999999978
 31
0.0
  0
LINE
  5
EE
330
E9
100
AcDbEntity
  8
치수문자_일반주서
 62
     0
370
    -2
100
AcDbLine
 10
108.4419187491384
 20
12.70000000000025
 30
0.0
 11
108.4419187491383
 21
38.31450000000025
 31
0.0
  0
LINE
  5
EF
330
E9
100
AcDbEntity
  8
치수문자_일반주서
 62
     0
370
    -2
100
AcDbLine
 10
108.4419187491384
 20
9.398000000000252
 30
0.0
 11
108.4419187491385
 21
-9.397999999999776
 31
0.0
  0
SOLID
  5
F0
330
E9
100
AcDbEntity
  8
치수문자_일반주서
 62
     0
100
AcDbTrace
 10
108.9922520824718
 20
9.398000000000254
 30
0.0
 11
107.8915854158051
 21
9.39800000000025
 31
0.0
 12
108.4419187491384
 22
12.70000000000025
 32
0.0
 13
108.4419187491384
 23
12.70000000000025
 33
0.0
  0
SOLID
  5
F1
330
E9
100
AcDbEntity
  8
치수문자_일반주서
 62
     0
100
AcDbTrace
 10
107.8915854158052
 20
-9.397999999999778
 30
0.0
 11
108.9922520824718
 21
-9.397999999999774
 31
0.0
 12
108.4419187491385
 22
-12.69999999999978
 32
0.0
 13
108.4419187491385
 23
-12.69999999999978
 33
0.0
  0
MTEXT
  5
F2
330
E9
100
AcDbEntity
  8
치수문자_일반주서
 62
     0
100
AcDbMText
 10
104.0669187491384
 20
27.15825000000024
 30
0.0
 40
3.5
 41
0.0
 71
     2
 72
     1
  1
\A1;%%c25.40 [1]
  7
SLDTEXTSTYLE0
 11
-3.356894814614643E-15
 21
1.0
 31
0.0
 73
     1
 44
1.0
  0
POINT
  5
F3
330
E9
100
AcDbEntity
  8
Defpoints
 62
     0
100
AcDbPoint
 10
42.96863514085782
 20
12.70000000000001
 30
0.0
  0
POINT
  5
F4
330
E9
100
AcDbEntity
  8
Defpoints
 62
     0
100
AcDbPoint
 10
42.96863514085795
 20
-12.70000000000002
 30
0.0
  0
POINT
  5
F5
330
E9
100
AcDbEntity
  8
Defpoints
 62
     0
100
AcDbPoint
 10
108.4419187491385
 20
-12.69999999999978
 30
0.0
  0
ENDBLK
  5
EB
330
E9
100
AcDbEntity
  8
0
100
AcDbBlockEnd
  0
BLOCK
  5
FE
330
FD
100
AcDbEntity
  8
0
100
AcDbBlockBegin
  2
_D_3
 70
     0
 10
0.0
 20
0.0
 30
0.0
  3
_D_3
  1
_D_3
  0
LINE
  5
100
330
FD
100
AcDbEntity
  8
치수문자_일반주서
 62
     0
370
    -2
100
AcDbLine
 10
-33.40000000000003
 20
12.69999999999999
 30
0.0
 11
-92.37500000000007
 21
12.69999999999977
 31
0.0
  0
LINE
  5
101
330
FD
100
AcDbEntity
  8
치수문자_일반주서
 62
     0
370
    -2
100
AcDbLine
 10
-33.40000000000001
 20
-12.7
 30
0.0
 11
-92.37499999999999
 21
-12.70000000000022
 31
0.0
  0
LINE
  5
102
330
FD
100
AcDbEntity
  8
치수문자_일반주서
 62
     0
370
    -2
100
AcDbLine
 10
-92.37500000000006
 20
9.397999999999769
 30
0.0
 11
-92.375
 21
-9.398000000000224
 31
0.0
  0
SOLID
  5
103
330
FD
100
AcDbEntity
  8
치수문자_일반주서
 62
     0
100
AcDbTrace
 10
-91.82466666666673
 20
9.39799999999977
 30
0.0
 11
-92.92533333333338
 21
9.397999999999767
 31
0.0
 12
-92.37500000000007
 22
12.69999999999977
 32
0.0
 13
-92.37500000000007
 23
12.69999999999977
 33
0.0
  0
SOLID
  5
104
330
FD
100
AcDbEntity
  8
치수문자_일반주서
 62
     0
100
AcDbTrace
 10
-92.92533333333333
 20
-9.398000000000225
 30
0.0
 11
-91.82466666666667
 21
-9.398000000000222
 31
0.0
 12
-92.37499999999999
 22
-12.70000000000022
 32
0.0
 13
-92.37499999999999
 23
-12.70000000000022
 33
0.0
  0
MTEXT
  5
105
330
FD
100
AcDbEntity
  8
치수문자_일반주서
 62
     0
100
AcDbMText
 10
-96.75000000000003
 20
-0.0000000000000324
 30
0.0
 40
3.5
 41
0.0
 71
     2
 72
     1
  1
\A1;%%c25.40 [1]
  7
SLDTEXTSTYLE0
 11
-3.356894814614648E-15
 21
1.0
 31
0.0
 73
     1
 44
1.0
  0
POINT
  5
106
330
FD
100
AcDbEntity
  8
Defpoints
 62
     0
100
AcDbPoint
 10
-33.33750000000003
 20
12.69999999999999
 30
0.0
  0
POINT
  5
107
330
FD
100
AcDbEntity
  8
Defpoints
 62
     0
100
AcDbPoint
 10
-33.33750000000001
 20
-12.7
 30
0.0
  0
POINT
  5
108
330
FD
100
AcDbEntity
  8
Defpoints
 62
     0
100
AcDbPoint
 10
-92.37499999999997
 20
-12.70000000000022
 30
0.0
  0
ENDBLK
  5
FF
330
FD
100
AcDbEntity
  8
0
100
AcDbBlockEnd
  0
BLOCK
  5
118
330
117
100
AcDbEntity
  8
0
100
AcDbBlockBegin
  2
SW_DOWELSYMBOL_0
 70
     0
 10
0.0
 20
0.0
 30
0.0
  3
SW_DOWELSYMBOL_0
  1
SW_DOWELSYMBOL_0
  0
CIRCLE
  5
11A
330
117
100
AcDbEntity
  8
해칭선
 62
     0
100
AcDbCircle
 10
0.0
 20
0.0
 30
0.0
 40
3.000000000000001
  0
HATCH
  5
11B
330
117
100
AcDbEntity
  8
0
  6
Continuous
 62
     0
370
     0
100
AcDbHatch
 10
0.0
 20
0.0
 30
0.0
210
0.0
220
0.0
230
1.0
  2
SOLID
 70
     1
 71
     0
 91
        1
 92
        0
 93
        3
 72
     2
 10
0.0
 20
0.0
 40
3.000000000000001
 50
0.0
 51
90.0
 73
     1
 72
     1
 10
0.0
 20
3.000000000000001
 11
0.0
 21
0.0
 72
     1
 10
0.0
 20
0.0
 11
3.000000000000003
 21
0.0
 97
        0
 75
     0
 76
     1
 98
        1
 10
0.0
 20
0.0
  0
HATCH
  5
11C
330
117
100
AcDbEntity
  8
0
  6
Continuous
 62
     0
370
     0
100
AcDbHatch
 10
0.0
 20
0.0
 30
0.0
210
0.0
220
0.0
230
1.0
  2
SOLID
 70
     1
 71
     0
 91
        1
 92
        0
 93
        3
 72
     2
 10
0.0
 20
0.0
 40
3.000000000000001
 50
180.0
 51
270.0000000000008
 73
     1
 72
     1
 10
0.0
 20
-3.000000000000001
 11
0.0
 21
0.0
 72
     1
 10
0.0
 20
0.0
 11
-3.000000000000003
 21
0.0
 97
        0
 75
     0
 76
     1
 98
        1
 10
0.0
 20
0.0
  0
ENDBLK
  5
119
330
117
100
AcDbEntity
  8
0
100
AcDbBlockEnd
  0
ENDSEC
  0
SECTION
  2
ENTITIES
  0
ARC
  5
96
330
1F
100
AcDbEntity
  8
외형선
  6
Continuous
 62
     1
370
    15
100
AcDbCircle
 10
68.26249999999996
 20
0.000000000000003
 30
0.0
 40
12.70000000000002
100
AcDbArc
 50
325.7521775648187
 51
0.0
  0
ARC
  5
97
330
1F
100
AcDbEntity
  8
외형선
  6
Continuous
 62
     1
370
    15
100
AcDbCircle
 10
68.26249999999996
 20
0.000000000000003
 30
0.0
 40
12.70000000000002
100
AcDbArc
 50
277.0998997415044
 51
312.9975836696871
  0
ARC
  5
98
330
1F
100
AcDbEntity
  8
외형선
  6
Continuous
 62
     1
370
    15
100
AcDbCircle
 10
68.26249999999996
 20
0.000000000000003
 30
0.0
 40
12.70000000000002
100
AcDbArc
 50
47.01501779224339
 51
82.92271526220247
  0
ARC
  5
99
330
1F
100
AcDbEntity
  8
외형선
  6
Continuous
 62
     1
370
    15
100
AcDbCircle
 10
68.26249999999996
 20
0.000000000000003
 30
0.0
 40
12.70000000000002
100
AcDbArc
 50
0.0
 51
34.11108922685338
  0
LINE
  5
9A
330
1F
100
AcDbEntity
  8
외형선
  6
Continuous
 62
     1
370
    15
100
AcDbLine
 10
42.96740302196749
 20
12.70000000000001
 30
0.0
 11
35.22422316291993
 21
12.70000000000001
 31
0.0
  0
LINE
  5
9B
330
1F
100
AcDbEntity
  8
외형선
  6
Continuous
 62
     1
370
    15
100
AcDbLine
 10
35.22422316291993
 20
-12.70000000000002
 30
0.0
 11
42.96740302196762
 21
-12.70000000000002
 31
0.0
  0
LINE
  5
9C
330
1F
100
AcDbEntity
  8
외형선
  6
Continuous
370
    15
100
AcDbLine
 10
-33.33750000000001
 20
-12.7
 30
0.0
 11
33.33750000000002
 21
-12.7
 31
0.0
  0
LINE
  5
9D
330
1F
100
AcDbEntity
  8
외형선
  6
Continuous
370
    15
100
AcDbLine
 10
33.33750000000001
 20
12.69999999999999
 30
0.0
 11
8.458199999999952
 21
12.69999999999999
 31
0.0
  0
SPLINE
  5
A0
330
1F
100
AcDbEntity
  8
외형선
  6
Continuous
 62
     1
370
    15
100
AcDbSpline
210
0.0
220
0.0
230
1.0
 70
     8
 71
     3
 72
    32
 73
    28
 74
     0
 42
0.000000001
 43
0.00000001
 40
0.0
 40
0.0
 40
0.0
 40
0.0
 40
0.0624999999999993
 40
0.0624999999999993
 40
0.1249999999999987
 40
0.1249999999999987
 40
0.187499999999998
 40
0.187499999999998
 40
0.2499999999999973
 40
0.2499999999999973
 40
0.3124999999999967
 40
0.3124999999999967
 40
0.374999999999996
 40
0.374999999999996
 40
0.4374999999999953
 40
0.4374999999999953
 40
0.4999999999999947
 40
0.4999999999999947
 40
0.7499999999999956
 40
0.7499999999999956
 40
0.8124999999999967
 40
0.8124999999999967
 40
0.8749999999999978
 40
0.8749999999999978
 40
0.9374999999999989
 40
0.9374999999999989
 40
1.0
 40
1.0
 40
1.0
 40
1.0
 10
33.33750000000003
 20
1.088153135548117
 30
0.0
 10
34.0626063859759
 20
0.6700993930780108
 30
0.0
 10
34.7921862893356
 20
0.2494013667481889
 30
0.0
 10
36.24955859318935
 20
-0.5910940288528
 30
0.0
 10
36.97436147470474
 20
-1.010314101242125
 30
0.0
 10
38.42934824934169
 20
-1.845101314315943
 30
0.0
 10
39.1595296125305
 20
-2.260658501900979
 30
0.0
 10
40.61450437909686
 20
-3.081974190737005
 30
0.0
 10
41.33931527270246
 20
-3.487751048424123
 30
0.0
 10
42.7966915776077
 20
-4.28796699487762
 30
0.0
 10
43.526247541829
 20
-4.681828739912934
 30
0.0
 10
44.97648023675956
 20
-5.451351958214821
 30
0.0
 10
45.706064162981
 20
-5.828585902701644
 30
0.0
 10
47.1634324389325
 20
-6.562351517431539
 30
0.0
 10
47.8882273619467
 20
-6.918415441552958
 30
0.0
 10
49.34322611794982
 20
-7.607587304979802
 30
0.0
 10
50.07340746762156
 20
-7.940647372137773
 30
0.0
 10
53.71081429710163
 20
-9.536045511998985
 30
0.0
 10
56.61957721658813
 20
-10.59205246462205
 30
0.0
 10
60.25710399324895
 20
-11.53544239445543
 30
0.0
 10
60.98728531588639
 20
-11.70568516736907
 30
0.0
 10
62.44223598620132
 20
-12.00679223529123
 30
0.0
 10
63.16706306475258
 20
-12.13773081311277
 30
0.0
 10
64.62444729120745
 20
-12.35980434467441
 30
0.0
 10
65.35395553704745
 20
-12.45071170301766
 30
0.0
 10
66.80422799869368
 20
-12.59114181204725
 30
0.0
 10
67.53381993019772
 20
-12.64094785996685
 30
0.0
 10
68.26249999999558
 20
-12.66987756194781
 30
0.0
  0
LINE
  5
A1
330
1F
100
AcDbEntity
  8
외형선
  6
Continuous
 62
     1
370
    15
100
AcDbLine
 10
68.26249999999999
 20
-12.669877561948
 30
0.0
 11
69.83026708559862
 21
-12.58739195773532
 31
0.0
  0
SPLINE
  5
A2
330
1F
100
AcDbEntity
  8
외형선
  6
Continuous
 62
     1
370
    15
100
AcDbSpline
210
0.0
220
0.0
230
1.0
 70
     8
 71
     3
 72
    13
 73
     9
 74
     0
 42
0.000000001
 43
0.00000001
 40
0.0
 40
0.0
 40
0.0
 40
0.0
 40
0.1634963557338216
 40
0.3332332091248684
 40
0.4999343399301143
 40
0.6666298173935589
 40
0.8333186877542738
 40
1.0
 40
1.0
 40
1.0
 40
1.0
 10
56.3826124617262
 20
-10.40453377006338
 30
0.0
 10
55.12664757055546
 20
-10.79286081365538
 30
0.0
 10
52.56677882391275
 20
-11.58433696824816
 30
0.0
 10
48.72634068989652
 20
-12.32634140364224
 30
0.0
 10
44.86143636195987
 20
-12.71968514569106
 30
0.0
 10
41.01994938319179
 20
-12.71021840703525
 30
0.0
 10
37.17864840508006
 20
-12.34100794897386
 30
0.0
 10
34.61786344912559
 20
-11.78176718035112
 30
0.0
 10
33.33750000000001
 20
-11.50215313554799
 30
0.0
  0
SPLINE
  5
A3
330
1F
100
AcDbEntity
  8
외형선
  6
Continuous
 62
     1
370
    15
100
AcDbSpline
210
0.0
220
0.0
230
1.0
 70
     8
 71
     3
 72
    32
 73
    28
 74
     0
 42
0.000000001
 43
0.00000001
 40
0.0
 40
0.0
 40
0.0
 40
0.0
 40
0.0625000000000005
 40
0.0625000000000005
 40
0.1250000000000009
 40
0.1250000000000009
 40
0.1875000000000014
 40
0.1875000000000014
 40
0.2500000000000018
 40
0.2500000000000018
 40
0.3125000000000023
 40
0.3125000000000023
 40
0.3750000000000028
 40
0.3750000000000028
 40
0.4375000000000032
 40
0.4375000000000032
 40
0.5000000000000037
 40
0.5000000000000037
 40
0.75
 40
0.75
 40
0.8125000000000001
 40
0.8125000000000001
 40
0.8750000000000001
 40
0.8750000000000001
 40
0.9375000000000001
 40
0.9375000000000001
 40
1.0
 40
1.0
 40
1.0
 40
1.0
 10
33.33750000000003
 20
12.65329691240971
 30
0.0
 10
34.06260638597593
 20
12.68924852990873
 30
0.0
 10
34.7921862893356
 20
12.70450467559161
 30
0.0
 10
36.24955859318936
 20
12.693196915786
 30
0.0
 10
36.97436147470471
 20
12.66671673102545
 30
0.0
 10
38.42934824934166
 20
12.57227300320504
 30
0.0
 10
39.15952961253044
 20
12.50423406269135
 30
0.0
 10
40.61450437909684
 20
12.32752535768711
 30
0.0
 10
41.33931527270243
 20
12.21892929193726
 30
0.0
 10
42.79669157760768
 20
11.96160438519792
 30
0.0
 10
43.52624754182903
 20
11.81298195677796
 30
0.0
 10
44.97648023675959
 20
11.4781890944828
 30
0.0
 10
45.70606416298097
 20
11.29133411706692
 30
0.0
 10
47.16343243893252
 20
10.88127668658763
 30
0.0
 10
47.88822736194667
 20
10.65842277607486
 30
0.0
 10
49.34322611794988
 20
10.17796952700193
 30
0.0
 10
50.07340746762156
 20
9.920310715676619
 30
0.0
 10
53.71081429710153
 20
8.554353402824502
 30
0.0
 10
56.61957721658813
 20
7.205665324720197
 30
0.0
 10
60.25710399324893
 20
5.329166729027477
 30
0.0
 10
60.98728531588636
 20
4.944024592566705
 30
0.0
 10
62.44223598620123
 20
4.159733720807036
 30
0.0
 10
63.16706306475252
 20
3.760602580121224
 30
0.0
 10
64.62444729120739
 20
2.949894509735807
 30
0.0
 10
65.35395553704734
 20
2.538866748029396
 30
0.0
 10
66.80422799869362
 20
1.711494710721053
 30
0.0
 10
67.53381993019772
 20
1.293474511770601
 30
0.0
 10
68.26249999999558
 20
0.8741868022634477
 30
0.0
  0
SPLINE
  5
A4
330
1F
100
AcDbEntity
  8
외형선
  6
Continuous
 62
     1
370
    15
100
AcDbSpline
210
0.0
220
0.0
230
1.0
 70
     8
 71
     3
 72
    66
 73
    62
 74
     0
 42
0.000000001
 43
0.00000001
 40
0.0
 40
0.0
 40
0.0
 40
0.0
 40
0.0624999999999957
 40
0.0624999999999957
 40
0.0937499999999926
 40
0.0937499999999926
 40
0.1249999999999894
 40
0.1249999999999894
 40
0.1874999999999851
 40
0.1874999999999851
 40
0.218749999999983
 40
0.218749999999983
 40
0.2499999999999808
 40
0.2499999999999808
 40
0.3124999999999782
 40
0.3124999999999782
 40
0.3749999999999756
 40
0.3749999999999756
 40
0.4062499999999744
 40
0.4062499999999744
 40
0.4374999999999732
 40
0.4374999999999732
 40
0.4687499999999719
 40
0.4687499999999719
 40
0.4843749999999711
 40
0.4843749999999711
 40
0.4999999999999704
 40
0.4999999999999704
 40
0.5312499999999688
 40
0.5312499999999688
 40
0.5468749999999681
 40
0.5468749999999681
 40
0.5624999999999676
 40
0.5624999999999676
 40
0.5781249999999669
 40
0.5781249999999669
 40
0.5937499999999662
 40
0.5937499999999662
 40
0.6093749999999657
 40
0.6093749999999657
 40
0.624999999999965
 40
0.624999999999965
 40
0.6562499999999651
 40
0.6562499999999651
 40
0.6718749999999659
 40
0.6718749999999659
 40
0.6874999999999668
 40
0.6874999999999668
 40
0.7187499999999701
 40
0.7187499999999701
 40
0.7499999999999734
 40
0.7499999999999734
 40
0.7812499999999767
 40
0.7812499999999767
 40
0.81249999999998
 40
0.81249999999998
 40
0.8749999999999867
 40
0.8749999999999867
 40
0.9374999999999932
 40
0.9374999999999932
 40
1.0
 40
1.0
 40
1.0
 40
1.0
 10
68.26249999999999
 20
0.8741868022608992
 30
0.0
 10
68.90769846887767
 20
0.5029350013597438
 30
0.0
 10
69.54956586151627
 20
0.1437993235839553
 30
0.0
 10
70.51577086389662
 20
-0.3615541819872209
 30
0.0
 10
70.8384173337727
 20
-0.5243987883441386
 30
0.0
 10
71.4855109644069
 20
-0.8374695145060149
 30
0.0
 10
71.81176216600525
 20
-0.9884661401753292
 30
0.0
 10
72.77829520247059
 20
-1.414269212889361
 30
0.0
 10
73.40529108708714
 20
-1.662218779193846
 30
0.0
 10
74.32014170944987
 20
-1.982659276078335
 30
0.0
 10
74.62073193104641
 20
-2.080987457458856
 30
0.0
 10
75.21209194619797
 20
-2.262626330971316
 30
0.0
 10
75.50290028134435
 20
-2.345879635329337
 30
0.0
 10
76.34157294859739
 20
-2.57308556180947
 30
0.0
 10
76.86210061196937
 20
-2.696357014192972
 30
0.0
 10
77.81624217130647
 20
-2.92281039374947
 30
0.0
 10
78.2513960449109
 20
-3.026228749108956
 30
0.0
 10
78.8026819950793
 20
-3.203446087846952
 30
0.0
 10
78.97048060533356
 20
-3.266510467922867
 30
0.0
 10
79.27103563881587
 20
-3.410001365363814
 30
0.0
 10
79.40433737629422
 20
-3.490787177090188
 30
0.0
 10
79.6282664658633
 20
-3.680256152679448
 30
0.0
 10
79.71787169147012
 20
-3.787835428364589
 30
0.0
 10
79.81535201312263
 20
-3.977742815733605
 30
0.0
 10
79.84166610482814
 20
-4.045825217993532
 30
0.0
 10
79.88090626685656
 20
-4.193575357431786
 30
0.0
 10
79.89375700111688
 20
-4.273441862894462
 30
0.0
 10
79.9100939311538
 20
-4.528241055649123
 30
0.0
 10
79.89216214621356
 20
-4.719579966163812
 30
0.0
 10
79.81677241465496
 20
-5.048366527245368
 30
0.0
 10
79.78339580248561
 20
-5.164834206336767
 30
0.0
 10
79.70186332736176
 20
-5.405671507075147
 30
0.0
 10
79.65354735129449
 20
-5.530849518080576
 30
0.0
 10
79.5417296213426
 20
-5.79108111996831
 30
0.0
 10
79.47823128484933
 20
-5.926132521671549
 30
0.0
 10
79.33535404459701
 20
-6.206631126793488
 30
0.0
 10
79.25634003051402
 20
-6.351181697199703
 30
0.0
 10
79.08758290302413
 20
-6.641210025427948
 30
0.0
 10
78.99731340400388
 20
-6.787739587228993
 30
0.0
 10
78.80519755606727
 20
-7.083502843851689
 30
0.0
 10
78.70268318773572
 20
-7.233649896420773
 30
0.0
 10
78.38258785296938
 20
-7.680457213352381
 30
0.0
 10
78.15426281286923
 20
-7.971637697118512
 30
0.0
 10
77.78992229116733
 20
-8.397551658122975
 30
0.0
 10
77.66491182618702
 20
-8.537482258619189
 30
0.0
 10
77.41269580618595
 20
-8.807906398575666
 30
0.0
 10
77.28483627768534
 20
-8.939177906382026
 30
0.0
 10
76.89576214573088
 20
-9.321652111399862
 30
0.0
 10
76.62907054918816
 20
-9.561589040256314
 30
0.0
 10
76.07887827543104
 20
-10.01187434592759
 30
0.0
 10
75.80136449773588
 20
-10.2172704331916
 30
0.0
 10
75.24080870264282
 20
-10.59113093951292
 30
0.0
 10
74.95742408932955
 20
-10.75983808015178
 30
0.0
 10
74.3818689314734
 20
-11.0626276872372
 30
0.0
 10
74.08803331669148
 20
-11.19724965683174
 30
0.0
 10
73.20628432366905
 20
-11.54353537098946
 30
0.0
 10
72.61581917914026
 20
-11.70042779435162
 30
0.0
 10
71.40831607391164
 20
-11.88483207061532
 30
0.0
 10
70.7869404325281
 20
-11.91103005107261
 30
0.0
 10
69.53809012435212
 20
-11.8396158923316
 30
0.0
 10
68.90757289114345
 20
-11.74351513873489
 30
0.0
 10
68.26249999999999
 20
-11.59149258793965
 30
0.0
  0
SPLINE
  5
A5
330
1F
100
AcDbEntity
  8
외형선
  6
Continuous
 62
     1
370
    15
100
AcDbSpline
210
0.0
220
0.0
230
1.0
 70
     8
 71
     3
 72
    32
 73
    28
 74
     0
 42
0.000000001
 43
0.00000001
 40
0.0
 40
0.0
 40
0.0
 40
0.0
 40
0.0624999999999999
 40
0.0624999999999999
 40
0.1249999999999999
 40
0.1249999999999999
 40
0.1874999999999998
 40
0.1874999999999998
 40
0.2499999999999997
 40
0.2499999999999997
 40
0.3124999999999997
 40
0.3124999999999997
 40
0.3750000000000005
 40
0.3750000000000005
 40
0.4375000000000014
 40
0.4375000000000014
 40
0.5000000000000022
 40
0.5000000000000022
 40
0.7500000000000002
 40
0.7500000000000002
 40
0.8125000000000002
 40
0.8125000000000002
 40
0.8750000000000001
 40
0.8750000000000001
 40
0.9375000000000001
 40
0.9375000000000001
 40
1.0
 40
1.0
 40
1.0
 40
1.0
 10
33.33750000000001
 20
5.384280197612572
 30
0.0
 10
34.06260638597595
 20
5.004259227736793
 30
0.0
 10
34.79218628933563
 20
4.614620332921889
 30
0.0
 10
36.24955859318938
 20
3.821768414970273
 30
0.0
 10
36.9743614747047
 20
3.419126153568981
 30
0.0
 10
38.42934824934168
 20
2.602967088782072
 30
0.0
 10
39.15952961253048
 20
2.189433631091695
 30
0.0
 10
40.61450437909689
 20
1.357555001003897
 30
0.0
 10
41.33931527270244
 20
0.9392180091830328
 30
0.0
 10
42.79669157760765
 20
0.0993487381930879
 30
0.0
 10
43.52624754182906
 20
-0.3216049111173415
 30
0.0
 10
44.97648023675959
 20
-1.159374600545994
 30
0.0
 10
45.706064162981
 20
-1.577902712546094
 30
0.0
 10
47.16343243893252
 20
-2.408058814565313
 30
0.0
 10
47.8882273619467
 20
-2.819127564973014
 30
0.0
 10
49.34322611794988
 20
-3.631697053377207
 30
0.0
 10
50.07340746762156
 20
-4.033173361138901
 30
0.0
 10
53.71081429710166
 20
-6.00171766485188
 30
0.0
 10
56.61957721658822
 20
-7.457993880393025
 30
0.0
 10
60.25710399324898
 20
-8.990548246297248
 30
0.0
 10
60.98728531588645
 20
-9.283148089711727
 30
0.0
 10
62.44223598620137
 20
-9.83621361283447
 30
0.0
 10
63.1670630647526
 20
-10.0967429534269
 30
0.0
 10
64.62444729120756
 20
-10.58473022909187
 30
0.0
 10
65.3539555370474
 20
-10.81178517266399
 30
0.0
 10
66.80422799869365
 20
-11.22888144861348
 30
0.0
 10
67.53381993019772
 20
-11.4197665637245
 30
0.0
 10
68.26249999999561
 20
-11.59149258793864
 30
0.0
  0
SPLINE
  5
A6
330
1F
100
AcDbEntity
  8
외형선
  6
Continuous
 62
     1
370
    15
100
AcDbSpline
210
0.0
220
0.0
230
1.0
 70
     8
 71
     3
 72
    11
 73
     7
 74
     0
 42
0.000000001
 43
0.00000001
 40
0.0
 40
0.0
 40
0.0
 40
0.0
 40
0.0297833739905166
 40
0.3531891952965538
 40
0.6765953593012185
 40
1.0
 40
1.0
 40
1.0
 40
1.0
 10
56.38261246172603
 20
10.40453377006335
 30
0.0
 10
56.50055336268399
 20
10.44767282488692
 30
0.0
 10
57.89916763369164
 20
10.95924173121173
 30
0.0
 10
60.57846233665817
 20
11.63980080769099
 30
0.0
 10
64.4204860641025
 20
12.41042885868003
 30
0.0
 10
66.98183069877447
 20
12.58339479664273
 30
0.0
 10
68.26249999999558
 20
12.6698775619478
 30
0.0
  0
SPLINE
  5
A7
330
1F
100
AcDbEntity
  8
외형선
  6
Continuous
 62
     1
370
    15
100
AcDbSpline
210
0.0
220
0.0
230
1.0
 70
     8
 71
     3
 72
    66
 73
    62
 74
     0
 42
0.000000001
 43
0.00000001
 40
0.0
 40
0.0
 40
0.0
 40
0.0
 40
0.0624999999999957
 40
0.0624999999999957
 40
0.0937499999999945
 40
0.0937499999999945
 40
0.1249999999999934
 40
0.1249999999999934
 40
0.1874999999999911
 40
0.1874999999999911
 40
0.2187499999999901
 40
0.2187499999999901
 40
0.249999999999989
 40
0.249999999999989
 40
0.3124999999999885
 40
0.3124999999999885
 40
0.3749999999999881
 40
0.3749999999999881
 40
0.406249999999988
 40
0.406249999999988
 40
0.4374999999999878
 40
0.4374999999999878
 40
0.4687499999999876
 40
0.4687499999999876
 40
0.4843749999999873
 40
0.4843749999999873
 40
0.499999999999987
 40
0.499999999999987
 40
0.5312499999999865
 40
0.5312499999999865
 40
0.5468749999999863
 40
0.5468749999999863
 40
0.5624999999999862
 40
0.5624999999999862
 40
0.5781249999999861
 40
0.5781249999999861
 40
0.5937499999999861
 40
0.5937499999999861
 40
0.609374999999986
 40
0.609374999999986
 40
0.6249999999999859
 40
0.6249999999999859
 40
0.656249999999987
 40
0.656249999999987
 40
0.6718749999999882
 40
0.6718749999999882
 40
0.6874999999999895
 40
0.6874999999999895
 40
0.7187499999999906
 40
0.7187499999999906
 40
0.7499999999999916
 40
0.7499999999999916
 40
0.7812499999999927
 40
0.7812499999999927
 40
0.8124999999999938
 40
0.8124999999999938
 40
0.8749999999999958
 40
0.8749999999999958
 40
0.9374999999999979
 40
0.9374999999999979
 40
1.0
 40
1.0
 40
1.0
 40
1.0
 10
68.26249999999999
 20
12.66987756194799
 30
0.0
 10
68.9076984688777
 20
12.69549291798253
 30
0.0
 10
69.5495658615163
 20
12.65512055857482
 30
0.0
 10
70.51577086389662
 20
12.49867482054613
 30
0.0
 10
70.8384173337727
 20
12.43044658047631
 30
0.0
 10
71.4855109644069
 20
12.26120677279803
 30
0.0
 10
71.81176216600528
 20
12.15949346449069
 30
0.0
 10
72.77829520247059
 20
11.80880478575287
 30
0.0
 10
73.40529108708708
 20
11.51602885599268
 30
0.0
 10
74.32014170944987
 20
10.9908638025753
 30
0.0
 10
74.62073193104641
 20
10.80137856797932
 30
0.0
 10
75.21209194619792
 20
10.39283863646589
 30
0.0
 10
75.50290028134435
 20
10.17350368278013
 30
0.0
 10
76.34157294859739
 20
9.483918478518683
 30
0.0
 10
76.8621006119694
 20
8.978375414491744
 30
0.0
 10
77.81624217130656
 20
7.875143607789663
 30
0.0
 10
78.25139604491093
 20
7.273119692536554
 30
0.0
 10
78.80268199507944
 20
6.329975540857014
 30
0.0
 10
78.97048060533356
 20
6.007943702058495
 30
0.0
 10
79.27103563881587
 20
5.348865354959988
 30
0.0
 10
79.40433737629425
 20
5.010273253467982
 30
0.0
 10
79.62826646586322
 20
4.324816828960988
 30
0.0
 10
79.71787169147012
 20
3.981692036434772
 30
0.0
 10
79.81535201312266
 20
3.468926314948906
 30
0.0
 10
79.84166610482819
 20
3.298327485097009
 30
0.0
 10
79.88090626685653
 20
2.958262178460402
 30
0.0
 10
79.89375700111688
 20
2.788567898970906
 30
0.0
 10
79.91009393115377
 20
2.292773733243653
 30
0.0
 10
79.8921621462136
 20
1.976378116543259
 30
0.0
 10
79.81677241465499
 20
1.528944460221456
 30
0.0
 10
79.78339580248559
 20
1.384834218200216
 30
0.0
 10
79.70186332736174
 20
1.115347705777668
 30
0.0
 10
79.65354735129449
 20
0.9888134832519346
 30
0.0
 10
79.54172962134263
 20
0.7525734958924228
 30
0.0
 10
79.47823128484933
 20
0.6428639787593952
 30
0.0
 10
79.33535404459701
 20
0.4411149243881716
 30
0.0
 10
79.256340030514
 20
0.3499356292622253
 30
0.0
 10
79.08758290302416
 20
0.1907670118593557
 30
0.0
 10
78.99731340400382
 20
0.1219962251085484
 30
0.0
 10
78.80519755606727
 20
0.0051287615528028
 30
0.0
 10
78.70268318773572
 20
-0.0431690181039544
 30
0.0
 10
78.38258785296935
 20
-0.1559370655474394
 30
0.0
 10
78.1542628128692
 20
-0.1888062226212185
 30
0.0
 10
77.78992229116727
 20
-0.1850874452661904
 30
0.0
 10
77.66491182618697
 20
-0.1748190797367786
 30
0.0
 10
77.41269580618595
 20
-0.1386173094660859
 30
0.0
 10
77.28483627768549
 20
-0.1126930386503169
 30
0.0
 10
76.89576214573086
 20
-0.0141322083733803
 30
0.0
 10
76.6290705491881
 20
0.0790890215165205
 30
0.0
 10
76.07887827543104
 20
0.3103957785513027
 30
0.0
 10
75.80136449773579
 20
0.4460573041944745
 30
0.0
 10
75.24080870264274
 20
0.7464671536844211
 30
0.0
 10
74.95742408932946
 20
0.9114484783500887
 30
0.0
 10
74.38186893147326
 20
1.264300176282372
 30
0.0
 10
74.08803331669142
 20
1.453341478409235
 30
0.0
 10
73.206284323669
 20
2.036061569905173
 30
0.0
 10
72.61581917914026
 20
2.445638906099687
 30
0.0
 10
71.40831607391164
 20
3.269121592680194
 30
0.0
 10
70.7869404325281
 20
3.686658655760339
 30
0.0
 10
69.53809012435198
 20
4.475852296014128
 30
0.0
 10
68.90757289114342
 20
4.849565169188377
 30
0.0
 10
68.26249999999999
 20
5.189152106437101
 30
0.0
  0
SPLINE
  5
A8
330
1F
100
AcDbEntity
  8
외형선
  6
Continuous
 62
     1
370
    15
100
AcDbSpline
210
0.0
220
0.0
230
1.0
 70
     8
 71
     3
 72
    14
 73
    10
 74
     0
 42
0.000000001
 43
0.00000001
 40
0.0
 40
0.0
 40
0.0
 40
0.0
 40
0.1546518644327276
 40
0.3093044777737076
 40
0.4639557243708508
 40
0.6186034896006892
 40
0.7732456614590115
 40
0.9251220772399213
 40
1.0
 40
1.0
 40
1.0
 40
1.0
 10
68.26249999999564
 20
5.189152106439407
 30
0.0
 10
66.95850871081959
 20
5.860391566008035
 30
0.0
 10
64.35051981783394
 20
7.202873735651015
 30
0.0
 10
60.4385375124668
 20
8.945930251169157
 30
0.0
 10
56.52659637587968
 20
10.41708472468639
 30
0.0
 10
52.61476566404104
 20
11.56217036533663
 30
0.0
 10
48.72634103497801
 20
12.31789020290961
 30
0.0
 10
45.51060231796898
 20
12.69002505461316
 30
0.0
 10
43.5987329719804
 20
12.66115483275299
 30
0.0
 10
42.96740302196749
 20
12.65162142203008
 30
0.0
  0
SPLINE
  5
A9
330
1F
100
AcDbEntity
  8
외형선
  6
Continuous
 62
     1
370
    15
100
AcDbSpline
210
0.0
220
0.0
230
1.0
 70
     8
 71
     3
 72
    12
 73
     8
 74
     0
 42
0.000000001
 43
0.00000001
 40
0.0
 40
0.0
 40
0.0
 40
0.0
 40
0.0642095155343353
 40
0.308489366117946
 40
0.5580960456796998
 40
0.9138341324425933
 40
0.9999999999999999
 40
0.9999999999999999
 40
0.9999999999999999
 40
0.9999999999999999
 10
78.7740691845668
 20
7.120300151932911
 30
0.0
 10
78.74206531188429
 20
7.169612709720197
 30
0.0
 10
78.58830532296363
 20
7.40653086066497
 30
0.0
 10
78.26197317251419
 20
7.836337769586656
 30
0.0
 10
77.73925101804772
 20
8.464379998429425
 30
0.0
 10
77.28513650773812
 20
8.960946564602175
 30
0.0
 10
76.97609185455181
 20
9.231984688931966
 30
0.0
 10
76.91583192613197
 20
9.28483380896288
 30
0.0
  0
LINE
  5
AA
330
1F
100
AcDbEntity
  8
외형선
  6
Continuous
370
    15
100
AcDbLine
 10
33.33750000000001
 20
1.088153135548118
 30
0.0
 11
33.33750000000001
 21
5.384280197612572
 31
0.0
  0
LINE
  5
AB
330
1F
100
AcDbEntity
  8
외형선
  6
Continuous
 62
     1
370
    15
100
AcDbLine
 10
33.33750000000003
 20
-12.65329691240973
 30
0.0
 11
35.22422316291994
 21
-12.64990422092237
 31
0.0
  0
LINE
  5
AC
330
1F
100
AcDbEntity
  8
외형선
  6
Continuous
370
    15
100
AcDbLine
 10
33.33750000000001
 20
-12.65329691240973
 30
0.0
 11
33.33750000000001
 21
-11.50215313554798
 31
0.0
  0
LINE
  5
AD
330
1F
100
AcDbEntity
  8
외형선
  6
Continuous
370
    15
100
AcDbLine
 10
33.33750000000001
 20
-0.0000000000000066
 30
0.0
 11
33.33750000000001
 21
12.69999999999999
 31
0.0
  0
LINE
  5
AE
330
1F
100
AcDbEntity
  8
외형선
  6
Continuous
370
    15
100
AcDbLine
 10
33.33750000000001
 20
-12.7
 30
0.0
 11
33.33750000000001
 21
-0.0000000000000066
 31
0.0
  0
LINE
  5
B3
330
1F
100
AcDbEntity
  8
중심선
 62
     1
100
AcDbLine
 10
-83.96249999999999
 20
-0.0000000000000105
 30
0.0
 11
83.9625
 21
0.0000000000000105
 31
0.0
  0
LINE
  5
B4
330
1F
100
AcDbEntity
  8
치수문자_일반주서
 62
     1
100
AcDbLine
 10
80.9625
 20
-0.0000000000000105
 30
0.0
 11
80.9625
 21
1.315014629548146
 31
0.0
  0
LINE
  5
B5
330
1F
100
AcDbEntity
  8
참조1
100
AcDbLine
 10
0.0000000000000036
 20
-0.0000000000000105
 30
0.0
 11
0.0000000000000107
 21
-40.00000000000001
 31
0.0
  0
LINE
  5
B6
330
1F
100
AcDbEntity
  8
참조1
100
AcDbLine
 10
0.0000000000000107
 20
-40.00000000000001
 30
0.0
 11
-57.22760681430866
 21
-40.00000000000001
 31
0.0
  0
CIRCLE
  5
B7
330
1F
100
AcDbEntity
  8
해칭선
100
AcDbCircle
 10
-0.0000000000000071
 20
-0.0000000000000086
 30
0.0
 40
3.000000000000001
  0
INSERT
  5
B8
330
1F
100
AcDbEntity
  8
0
  6
Continuous
 62
     7
100
AcDbBlockReference
 66
     1
  2
블럭10
 10
-13.9402729321252
 20
-52.04717430164394
 30
0.0
  0
ATTRIB
  5
B9
330
B8
100
AcDbEntity
  8
FORMAT
 62
     2
100
AcDbText
 10
-23.12156822086648
 20
-49.97180738881175
 30
0.0
 40
4.233333333333333
  1
E2069064 [ 4 FLUTE ]
 41
0.75
  7
SLDTEXTSTYLE0
 11
-23.12156822086648
 21
-52.08847405547842
 31
0.0
100
AcDbAttribute
  2
AUTOATTR0
 70
     0
 74
     1
  0
SEQEND
  5
BA
330
B8
100
AcDbEntity
  8
0
  6
Continuous
 62
     7
  0
HATCH
  5
BB
330
1F
100
AcDbEntity
  8
중심선
100
AcDbHatch
 10
0.0
 20
0.0
 30
0.0
210
0.0
220
0.0
230
1.0
  2
SOLID
 70
     1
 71
     0
 91
        1
 92
        0
 93
        4
 72
     1
 10
-8.225363627744365
 20
-35.8
 11
-11.67163887158165
 21
-35.8
 72
     1
 10
-11.67163887158165
 20
-35.8
 11
-13.79986873078567
 21
-38.33632558057261
 72
     1
 10
-13.79986873078567
 20
-38.33632558057261
 11
-10.35356040183524
 21
-38.33628615127012
 72
     1
 10
-10.35356040183524
 20
-38.33628615127012
 11
-8.225363627744365
 21
-35.8
 97
        0
 75
     0
 76
     1
 98
        1
 10
-27.54926131403118
 20
-0.0010749287238997
  0
HATCH
  5
BC
330
1F
100
AcDbEntity
  8
중심선
100
AcDbHatch
 10
0.0
 20
0.0
 30
0.0
210
0.0
220
0.0
230
1.0
  2
SOLID
 70
     1
 71
     0
 91
        1
 92
        0
 93
        4
 72
     1
 10
-3.212599636708333
 20
-35.79999999999998
 11
-6.658874880545667
 21
-35.8
 72
     1
 10
-6.658874880545667
 20
-35.8
 11
-11.19001288890308
 21
-41.20000000000002
 72
     1
 10
-11.19001288890308
 20
-41.20000000000002
 11
-7.743737645065803
 21
-41.20000000000002
 72
     1
 10
-7.743737645065803
 20
-41.20000000000002
 11
-3.212599636708333
 21
-35.79999999999998
 97
        0
 75
     0
 76
     1
 98
        1
 10
-27.54926131403118
 20
-0.0010749287238997
  0
HATCH
  5
BD
330
1F
100
AcDbEntity
  8
중심선
100
AcDbHatch
 10
0.0
 20
0.0
 30
0.0
210
0.0
220
0.0
230
1.0
  2
SOLID
 70
     1
 71
     0
 91
        1
 92
        0
 93
        4
 72
     1
 10
1.800164354327453
 20
-35.80000000000003
 11
-1.646110889509607
 21
-35.8
 72
     1
 10
-1.646110889509607
 20
-35.8
 11
-8.694547791398882
 21
-44.20000000000002
 72
     1
 10
-8.694547791398882
 20
-44.20000000000002
 11
-5.248272547561601
 21
-44.20000000000002
 72
     1
 10
-5.248272547561601
 20
-44.20000000000002
 11
1.800164354327453
 21
-35.80000000000003
 97
        0
 75
     0
 76
     1
 98
        1
 10
-27.54926131403118
 20
-0.0010749287238997
  0
HATCH
  5
BE
330
1F
100
AcDbEntity
  8
중심선
100
AcDbHatch
 10
0.0
 20
0.0
 30
0.0
210
0.0
220
0.0
230
1.0
  2
SOLID
 70
     1
 71
     0
 91
        1
 92
        0
 93
        6
 72
     3
 10
6.600054785339651
 20
-40.00000000005128
 11
3.960054785062283
 21
1.540882976769353E-10
 40
0.3939339440162628
 50
17.0953918060842
 51
320.0019657685079
 73
     0
 72
     1
 10
8.283054441040278
 20
-38.58789400463828
 11
10.58835631474131
 21
-36.65356729459039
 72
     3
 10
6.600054785286808
 20
-40.00000000000016
 11
6.600054785286829
 21
-1.278976924368180E-13
 40
0.636358354079598
 50
39.99873849337392
 51
368.4976242363725
 73
     1
 72
     1
 10
13.02538727718744
 20
-39.03999999993003
 11
5.28012209212276
 21
-39.03999999993003
 72
     1
 10
5.28012209212276
 20
-39.03999999993003
 11
5.280097047676797
 21
-40.95999999992992
 72
     1
 10
5.280097047676797
 20
-40.95999999992992
 11
9.721476817148861
 21
-40.95999999992989
 97
        0
 75
     0
 76
     1
 98
        1
 10
-27.54926131403118
 20
-0.0010749287238997
  0
DIMENSION
  5
BF
330
1F
100
AcDbEntity
  8
치수문자_일반주서
100
AcDbDimension
  2
_D
 10
33.33750000000003
 20
22.82277225922701
 30
0.0
 11
57.15000000000001
 21
22.82277225922701
 31
0.0
 70
   160
  1
<>
 71
     2
 42
47.62499999999998
  3
SLDDIMSTYLE0
100
AcDbAlignedDimension
 13
80.9625
 23
1.315014629548132
 33
0.0
 14
33.33750000000003
 24
12.69999999999998
 34
0.0
 50
0.0000000000000043
100
AcDbRotatedDimension
1001
ACAD
1000
DSTYLE
1002
{
1070
   171
1070
     6
1070
   273
1070
     7
1002
}
  0
DIMENSION
  5
D4
330
1F
100
AcDbEntity
  8
치수문자_일반주서
100
AcDbDimension
  2
_D_1
 10
-80.96249999999998
 20
35.752820568952
 30
0.0
 11
0.0000000000000036
 21
35.752820568952
 31
0.0
 70
   160
  1
<>
 71
     2
 42
161.925
  3
SLDDIMSTYLE0
100
AcDbAlignedDimension
 13
80.9625
 23
1.315014629548132
 33
0.0
 14
-80.96249999999999
 24
10.15999999999999
 34
0.0
 50
0.000000000000005
100
AcDbRotatedDimension
1001
ACAD
1000
DSTYLE
1002
{
1070
   171
1070
     6
1070
   273
1070
     7
1002
}
  0
DIMENSION
  5
E7
330
1F
100
AcDbEntity
  8
치수문자_일반주서
100
AcDbDimension
  2
_D_2
 10
108.4419187491385
 20
-12.69999999999978
 30
0.0
 11
108.4419187491384
 21
27.15825000000025
 31
0.0
 70
   160
  1
%%c<>
 71
     2
 42
25.40000000000003
 52
-270.0
  3
SLDDIMSTYLE1
100
AcDbAlignedDimension
 13
42.96863514085782
 23
12.70000000000001
 33
0.0
 14
42.96863514085795
 24
-12.70000000000002
 34
0.0
 50
90.0000000000002
100
AcDbRotatedDimension
1001
ACAD
1000
DSTYLE
1002
{
1070
   171
1070
     6
1070
   273
1070
     7
1002
}
  0
DIMENSION
  5
FB
330
1F
100
AcDbEntity
  8
치수문자_일반주서
100
AcDbDimension
  2
_D_3
 10
-92.37499999999999
 20
-12.70000000000022
 30
0.0
 11
-92.37500000000003
 21
-0.0000000000000179
 31
0.0
 70
   160
  1
%%c<>
 71
     2
 42
25.39999999999999
 52
-270.0
  3
SLDDIMSTYLE2
100
AcDbAlignedDimension
 13
-33.33750000000003
 23
12.69999999999999
 33
0.0
 14
-33.33750000000001
 24
-12.7
 34
0.0
 50
90.0000000000002
100
AcDbRotatedDimension
1001
ACAD
1000
DSTYLE
1002
{
1070
   171
1070
     6
1070
   273
1070
     7
1002
}
  0
LINE
  5
110
330
1F
100
AcDbEntity
  8
참조1
100
AcDbLine
 10
40.7447338153456
 20
7.439999999999996
 30
0.0
 11
40.7447338153456
 21
-7.440000000000008
 31
0.0
  0
LINE
  5
111
330
1F
100
AcDbEntity
  8
참조1
100
AcDbLine
 10
53.44473381534561
 20
5.439999999999996
 30
0.0
 11
40.7447338153456
 21
5.439999999999996
 31
0.0
  0
SOLID
  5
112
330
1F
100
AcDbEntity
  8
참조1
100
AcDbTrace
 10
40.7447338153456
 20
5.439999999999996
 30
0.0
 11
47.0947338153456
 21
4.423999999999996
 31
0.0
 12
47.0947338153456
 22
6.455999999999996
 32
0.0
 13
47.0947338153456
 23
6.455999999999996
 33
0.0
  0
LINE
  5
113
330
1F
100
AcDbEntity
  8
참조1
100
AcDbLine
 10
53.44473381534561
 20
-5.440000000000008
 30
0.0
 11
40.7447338153456
 21
-5.440000000000008
 31
0.0
  0
SOLID
  5
114
330
1F
100
AcDbEntity
  8
참조1
100
AcDbTrace
 10
40.7447338153456
 20
-5.440000000000008
 30
0.0
 11
47.0947338153456
 21
-6.456000000000008
 31
0.0
 12
47.0947338153456
 22
-4.424000000000008
 32
0.0
 13
47.0947338153456
 23
-4.424000000000008
 33
0.0
  0
MTEXT
  5
115
330
1F
100
AcDbEntity
  8
참조1
100
AcDbMText
 10
50.14222390781588
 20
10.98821664464993
 30
0.0
 40
3.5
 41
0.0
 71
     1
 72
     1
  1
A
  7
SLDTEXTSTYLE0
 73
     1
 44
1.0
  0
MTEXT
  5
116
330
1F
100
AcDbEntity
  8
참조1
100
AcDbMText
 10
50.14222390781588
 20
0.1082166446499262
 30
0.0
 40
3.5
 41
0.0
 71
     1
 72
     1
  1
A
  7
SLDTEXTSTYLE0
 73
     1
 44
1.0
  0
INSERT
  5
11D
330
1F
100
AcDbEntity
  8
해칭선
100
AcDbBlockReference
  2
SW_DOWELSYMBOL_0
 10
-0.0000000000000071
 20
-0.0000000000000086
 30
0.0
  0
ARC
  5
144
330
1F
100
AcDbEntity
  8
외형선
  6
Continuous
 62
     1
370
    15
100
AcDbCircle
 10
-68.26249999999999
 20
-0.0000000000000118
 30
0.0
 40
12.70000000000002
100
AcDbArc
 50
145.7521775648187
 51
180.0
  0
ARC
  5
145
330
1F
100
AcDbEntity
  8
외형선
  6
Continuous
 62
     1
370
    15
100
AcDbCircle
 10
-68.26249999999999
 20
-0.0000000000000118
 30
0.0
 40
12.70000000000002
100
AcDbArc
 50
97.0998997415043
 51
132.9975836696871
  0
ARC
  5
146
330
1F
100
AcDbEntity
  8
외형선
  6
Continuous
 62
     1
370
    15
100
AcDbCircle
 10
-68.26249999999999
 20
-0.0000000000000118
 30
0.0
 40
12.70000000000002
100
AcDbArc
 50
227.0150177922434
 51
262.9227152622025
  0
ARC
  5
147
330
1F
100
AcDbEntity
  8
외형선
  6
Continuous
 62
     1
370
    15
100
AcDbCircle
 10
-68.26249999999999
 20
-0.0000000000000118
 30
0.0
 40
12.70000000000002
100
AcDbArc
 50
180.0
 51
214.1110892268534
  0
LINE
  5
148
330
1F
100
AcDbEntity
  8
외형선
  6
Continuous
 62
     1
370
    15
100
AcDbLine
 10
-42.96740302196751
 20
-12.70000000000002
 30
0.0
 11
-35.22422316291995
 21
-12.70000000000002
 31
0.0
  0
LINE
  5
149
330
1F
100
AcDbEntity
  8
외형선
  6
Continuous
 62
     1
370
    15
100
AcDbLine
 10
-35.22422316291995
 20
12.70000000000001
 30
0.0
 11
-42.96740302196763
 21
12.70000000000001
 31
0.0
  0
SPLINE
  5
14A
330
1F
100
AcDbEntity
  8
외형선
  6
Continuous
 62
     1
370
    15
100
AcDbSpline
210
0.0
220
0.0
230
1.0
 70
     8
 71
     3
 72
    32
 73
    28
 74
     0
 42
0.000000001
 43
0.00000001
 40
0.0
 40
0.0
 40
0.0
 40
0.0
 40
0.0624999999999993
 40
0.0624999999999993
 40
0.1249999999999987
 40
0.1249999999999987
 40
0.187499999999998
 40
0.187499999999998
 40
0.2499999999999973
 40
0.2499999999999973
 40
0.3124999999999967
 40
0.3124999999999967
 40
0.374999999999996
 40
0.374999999999996
 40
0.4374999999999953
 40
0.4374999999999953
 40
0.4999999999999947
 40
0.4999999999999947
 40
0.7499999999999956
 40
0.7499999999999956
 40
0.8124999999999967
 40
0.8124999999999967
 40
0.8749999999999978
 40
0.8749999999999978
 40
0.9374999999999989
 40
0.9374999999999989
 40
1.0
 40
1.0
 40
1.0
 40
1.0
 10
-33.33750000000004
 20
-1.08815313554813
 30
0.0
 10
-34.06260638597592
 20
-0.6700993930780237
 30
0.0
 10
-34.79218628933562
 20
-0.2494013667482017
 30
0.0
 10
-36.24955859318936
 20
0.5910940288527874
 30
0.0
 10
-36.97436147470476
 20
1.010314101242112
 30
0.0
 10
-38.42934824934171
 20
1.84510131431593
 30
0.0
 10
-39.15952961253051
 20
2.260658501900967
 30
0.0
 10
-40.61450437909688
 20
3.081974190736993
 30
0.0
 10
-41.33931527270247
 20
3.487751048424111
 30
0.0
 10
-42.79669157760771
 20
4.287966994877609
 30
0.0
 10
-43.52624754182902
 20
4.681828739912922
 30
0.0
 10
-44.97648023675958
 20
5.45135195821481
 30
0.0
 10
-45.70606416298101
 20
5.828585902701632
 30
0.0
 10
-47.16343243893251
 20
6.562351517431527
 30
0.0
 10
-47.88822736194671
 20
6.918415441552947
 30
0.0
 10
-49.34322611794983
 20
7.607587304979791
 30
0.0
 10
-50.07340746762157
 20
7.940647372137763
 30
0.0
 10
-53.71081429710164
 20
9.536045511998974
 30
0.0
 10
-56.61957721658815
 20
10.59205246462204
 30
0.0
 10
-60.25710399324897
 20
11.53544239445542
 30
0.0
 10
-60.9872853158864
 20
11.70568516736906
 30
0.0
 10
-62.44223598620133
 20
12.00679223529122
 30
0.0
 10
-63.16706306475259
 20
12.13773081311276
 30
0.0
 10
-64.62444729120745
 20
12.3598043446744
 30
0.0
 10
-65.35395553704745
 20
12.45071170301765
 30
0.0
 10
-66.80422799869368
 20
12.59114181204724
 30
0.0
 10
-67.53381993019772
 20
12.64094785996684
 30
0.0
 10
-68.26249999999558
 20
12.66987756194781
 30
0.0
  0
LINE
  5
14B
330
1F
100
AcDbEntity
  8
외형선
  6
Continuous
 62
     1
370
    15
100
AcDbLine
 10
-68.26250000000002
 20
12.66987756194799
 30
0.0
 11
-69.83026708559865
 21
12.58739195773531
 31
0.0
  0
SPLINE
  5
14C
330
1F
100
AcDbEntity
  8
외형선
  6
Continuous
 62
     1
370
    15
100
AcDbSpline
210
0.0
220
0.0
230
1.0
 70
     8
 71
     3
 72
    13
 73
     9
 74
     0
 42
0.000000001
 43
0.00000001
 40
0.0
 40
0.0
 40
0.0
 40
0.0
 40
0.1634963557338216
 40
0.3332332091248684
 40
0.4999343399301143
 40
0.6666298173935589
 40
0.8333186877542738
 40
1.0
 40
1.0
 40
1.0
 40
1.0
 10
-56.38261246172622
 20
10.40453377006337
 30
0.0
 10
-55.12664757055547
 20
10.79286081365537
 30
0.0
 10
-52.56677882391276
 20
11.58433696824815
 30
0.0
 10
-48.72634068989654
 20
12.32634140364223
 30
0.0
 10
-44.86143636195988
 20
12.71968514569105
 30
0.0
 10
-41.01994938319181
 20
12.71021840703524
 30
0.0
 10
-37.17864840508008
 20
12.34100794897384
 30
0.0
 10
-34.6178634491256
 20
11.78176718035111
 30
0.0
 10
-33.33750000000003
 20
11.50215313554797
 30
0.0
  0
SPLINE
  5
14D
330
1F
100
AcDbEntity
  8
외형선
  6
Continuous
 62
     1
370
    15
100
AcDbSpline
210
0.0
220
0.0
230
1.0
 70
     8
 71
     3
 72
    32
 73
    28
 74
     0
 42
0.000000001
 43
0.00000001
 40
0.0
 40
0.0
 40
0.0
 40
0.0
 40
0.0625000000000005
 40
0.0625000000000005
 40
0.1250000000000009
 40
0.1250000000000009
 40
0.1875000000000014
 40
0.1875000000000014
 40
0.2500000000000018
 40
0.2500000000000018
 40
0.3125000000000023
 40
0.3125000000000023
 40
0.3750000000000028
 40
0.3750000000000028
 40
0.4375000000000032
 40
0.4375000000000032
 40
0.5000000000000037
 40
0.5000000000000037
 40
0.75
 40
0.75
 40
0.8125000000000001
 40
0.8125000000000001
 40
0.8750000000000001
 40
0.8750000000000001
 40
0.9375000000000001
 40
0.9375000000000001
 40
1.0
 40
1.0
 40
1.0
 40
1.0
 10
-33.33750000000004
 20
-12.65329691240973
 30
0.0
 10
-34.06260638597595
 20
-12.68924852990874
 30
0.0
 10
-34.79218628933562
 20
-12.70450467559162
 30
0.0
 10
-36.24955859318938
 20
-12.69319691578601
 30
0.0
 10
-36.97436147470473
 20
-12.66671673102547
 30
0.0
 10
-38.42934824934168
 20
-12.57227300320505
 30
0.0
 10
-39.15952961253046
 20
-12.50423406269136
 30
0.0
 10
-40.61450437909685
 20
-12.32752535768712
 30
0.0
 10
-41.33931527270244
 20
-12.21892929193727
 30
0.0
 10
-42.7966915776077
 20
-11.96160438519794
 30
0.0
 10
-43.52624754182904
 20
-11.81298195677798
 30
0.0
 10
-44.97648023675961
 20
-11.47818909448281
 30
0.0
 10
-45.70606416298099
 20
-11.29133411706693
 30
0.0
 10
-47.16343243893254
 20
-10.88127668658765
 30
0.0
 10
-47.88822736194668
 20
-10.65842277607488
 30
0.0
 10
-49.34322611794989
 20
-10.17796952700194
 30
0.0
 10
-50.07340746762157
 20
-9.920310715676631
 30
0.0
 10
-53.71081429710154
 20
-8.554353402824512
 30
0.0
 10
-56.61957721658815
 20
-7.205665324720207
 30
0.0
 10
-60.25710399324894
 20
-5.329166729027487
 30
0.0
 10
-60.98728531588637
 20
-4.944024592566715
 30
0.0
 10
-62.44223598620125
 20
-4.159733720807046
 30
0.0
 10
-63.16706306475253
 20
-3.760602580121232
 30
0.0
 10
-64.62444729120739
 20
-2.949894509735816
 30
0.0
 10
-65.35395553704734
 20
-2.538866748029404
 30
0.0
 10
-66.80422799869362
 20
-1.711494710721062
 30
0.0
 10
-67.53381993019772
 20
-1.29347451177061
 30
0.0
 10
-68.26249999999558
 20
-0.8741868022634564
 30
0.0
  0
SPLINE
  5
14E
330
1F
100
AcDbEntity
  8
외형선
  6
Continuous
 62
     1
370
    15
100
AcDbSpline
210
0.0
220
0.0
230
1.0
 70
     8
 71
     3
 72
    66
 73
    62
 74
     0
 42
0.000000001
 43
0.00000001
 40
0.0
 40
0.0
 40
0.0
 40
0.0
 40
0.0624999999999957
 40
0.0624999999999957
 40
0.0937499999999926
 40
0.0937499999999926
 40
0.1249999999999894
 40
0.1249999999999894
 40
0.1874999999999851
 40
0.1874999999999851
 40
0.218749999999983
 40
0.218749999999983
 40
0.2499999999999808
 40
0.2499999999999808
 40
0.3124999999999782
 40
0.3124999999999782
 40
0.3749999999999756
 40
0.3749999999999756
 40
0.4062499999999744
 40
0.4062499999999744
 40
0.4374999999999732
 40
0.4374999999999732
 40
0.4687499999999719
 40
0.4687499999999719
 40
0.4843749999999711
 40
0.4843749999999711
 40
0.4999999999999704
 40
0.4999999999999704
 40
0.5312499999999688
 40
0.5312499999999688
 40
0.5468749999999681
 40
0.5468749999999681
 40
0.5624999999999676
 40
0.5624999999999676
 40
0.5781249999999669
 40
0.5781249999999669
 40
0.5937499999999662
 40
0.5937499999999662
 40
0.6093749999999657
 40
0.6093749999999657
 40
0.624999999999965
 40
0.624999999999965
 40
0.6562499999999651
 40
0.6562499999999651
 40
0.6718749999999659
 40
0.6718749999999659
 40
0.6874999999999668
 40
0.6874999999999668
 40
0.7187499999999701
 40
0.7187499999999701
 40
0.7499999999999734
 40
0.7499999999999734
 40
0.7812499999999767
 40
0.7812499999999767
 40
0.81249999999998
 40
0.81249999999998
 40
0.8749999999999867
 40
0.8749999999999867
 40
0.9374999999999932
 40
0.9374999999999932
 40
1.0
 40
1.0
 40
1.0
 40
1.0
 10
-68.26250000000002
 20
-0.8741868022609078
 30
0.0
 10
-68.90769846887767
 20
-0.5029350013597524
 30
0.0
 10
-69.5495658615163
 20
-0.1437993235839639
 30
0.0
 10
-70.51577086389662
 20
0.3615541819872123
 30
0.0
 10
-70.83841733377272
 20
0.5243987883441302
 30
0.0
 10
-71.48551096440693
 20
0.8374695145060066
 30
0.0
 10
-71.81176216600528
 20
0.988466140175321
 30
0.0
 10
-72.77829520247059
 20
1.414269212889353
 30
0.0
 10
-73.40529108708716
 20
1.662218779193837
 30
0.0
 10
-74.3201417094499
 20
1.982659276078327
 30
0.0
 10
-74.62073193104644
 20
2.080987457458848
 30
0.0
 10
-75.212091946198
 20
2.262626330971308
 30
0.0
 10
-75.50290028134435
 20
2.34587963532933
 30
0.0
 10
-76.34157294859739
 20
2.573085561809463
 30
0.0
 10
-76.8621006119694
 20
2.696357014192964
 30
0.0
 10
-77.81624217130647
 20
2.922810393749463
 30
0.0
 10
-78.2513960449109
 20
3.026228749108949
 30
0.0
 10
-78.80268199507933
 20
3.203446087846945
 30
0.0
 10
-78.97048060533356
 20
3.26651046792286
 30
0.0
 10
-79.27103563881587
 20
3.410001365363807
 30
0.0
 10
-79.40433737629425
 20
3.490787177090181
 30
0.0
 10
-79.62826646586333
 20
3.680256152679441
 30
0.0
 10
-79.71787169147012
 20
3.787835428364583
 30
0.0
 10
-79.81535201312266
 20
3.977742815733599
 30
0.0
 10
-79.84166610482816
 20
4.045825217993525
 30
0.0
 10
-79.88090626685658
 20
4.193575357431779
 30
0.0
 10
-79.89375700111691
 20
4.273441862894455
 30
0.0
 10
-79.91009393115382
 20
4.528241055649116
 30
0.0
 10
-79.8921621462136
 20
4.719579966163804
 30
0.0
 10
-79.81677241465499
 20
5.048366527245361
 30
0.0
 10
-79.78339580248561
 20
5.16483420633676
 30
0.0
 10
-79.70186332736176
 20
5.40567150707514
 30
0.0
 10
-79.65354735129452
 20
5.530849518080569
 30
0.0
 10
-79.5417296213426
 20
5.791081119968303
 30
0.0
 10
-79.47823128484936
 20
5.926132521671541
 30
0.0
 10
-79.33535404459701
 20
6.206631126793481
 30
0.0
 10
-79.25634003051405
 20
6.351181697199696
 30
0.0
 10
-79.08758290302416
 20
6.641210025427941
 30
0.0
 10
-78.99731340400388
 20
6.787739587228986
 30
0.0
 10
-78.80519755606727
 20
7.083502843851682
 30
0.0
 10
-78.70268318773572
 20
7.233649896420766
 30
0.0
 10
-78.38258785296941
 20
7.680457213352374
 30
0.0
 10
-78.15426281286926
 20
7.971637697118505
 30
0.0
 10
-77.78992229116736
 20
8.397551658122966
 30
0.0
 10
-77.66491182618705
 20
8.53748225861918
 30
0.0
 10
-77.41269580618595
 20
8.807906398575657
 30
0.0
 10
-77.28483627768534
 20
8.939177906382017
 30
0.0
 10
-76.89576214573091
 20
9.321652111399853
 30
0.0
 10
-76.62907054918816
 20
9.561589040256305
 30
0.0
 10
-76.07887827543107
 20
10.01187434592759
 30
0.0
 10
-75.8013644977359
 20
10.21727043319159
 30
0.0
 10
-75.24080870264282
 20
10.59113093951291
 30
0.0
 10
-74.95742408932958
 20
10.75983808015177
 30
0.0
 10
-74.38186893147343
 20
11.06262768723719
 30
0.0
 10
-74.08803331669148
 20
11.19724965683174
 30
0.0
 10
-73.20628432366908
 20
11.54353537098945
 30
0.0
 10
-72.61581917914026
 20
11.70042779435162
 30
0.0
 10
-71.40831607391166
 20
11.88483207061531
 30
0.0
 10
-70.78694043252813
 20
11.9110300510726
 30
0.0
 10
-69.53809012435215
 20
11.83961589233159
 30
0.0
 10
-68.90757289114347
 20
11.74351513873488
 30
0.0
 10
-68.26250000000002
 20
11.59149258793964
 30
0.0
  0
SPLINE
  5
14F
330
1F
100
AcDbEntity
  8
외형선
  6
Continuous
 62
     1
370
    15
100
AcDbSpline
210
0.0
220
0.0
230
1.0
 70
     8
 71
     3
 72
    32
 73
    28
 74
     0
 42
0.000000001
 43
0.00000001
 40
0.0
 40
0.0
 40
0.0
 40
0.0
 40
0.0624999999999999
 40
0.0624999999999999
 40
0.1249999999999999
 40
0.1249999999999999
 40
0.1874999999999998
 40
0.1874999999999998
 40
0.2499999999999997
 40
0.2499999999999997
 40
0.3124999999999997
 40
0.3124999999999997
 40
0.3750000000000005
 40
0.3750000000000005
 40
0.4375000000000014
 40
0.4375000000000014
 40
0.5000000000000022
 40
0.5000000000000022
 40
0.7500000000000002
 40
0.7500000000000002
 40
0.8125000000000002
 40
0.8125000000000002
 40
0.8750000000000001
 40
0.8750000000000001
 40
0.9375000000000001
 40
0.9375000000000001
 40
1.0
 40
1.0
 40
1.0
 40
1.0
 10
-33.33750000000003
 20
-5.384280197612585
 30
0.0
 10
-34.06260638597596
 20
-5.004259227736807
 30
0.0
 10
-34.79218628933565
 20
-4.614620332921901
 30
0.0
 10
-36.24955859318939
 20
-3.821768414970285
 30
0.0
 10
-36.97436147470471
 20
-3.419126153568993
 30
0.0
 10
-38.42934824934169
 20
-2.602967088782083
 30
0.0
 10
-39.1595296125305
 20
-2.189433631091707
 30
0.0
 10
-40.61450437909691
 20
-1.357555001003909
 30
0.0
 10
-41.33931527270246
 20
-0.9392180091830448
 30
0.0
 10
-42.79669157760767
 20
-0.0993487381930998
 30
0.0
 10
-43.52624754182907
 20
0.3216049111173297
 30
0.0
 10
-44.97648023675961
 20
1.159374600545982
 30
0.0
 10
-45.70606416298101
 20
1.577902712546082
 30
0.0
 10
-47.16343243893254
 20
2.408058814565303
 30
0.0
 10
-47.88822736194671
 20
2.819127564973003
 30
0.0
 10
-49.34322611794989
 20
3.631697053377196
 30
0.0
 10
-50.07340746762157
 20
4.03317336113889
 30
0.0
 10
-53.71081429710167
 20
6.00171766485187
 30
0.0
 10
-56.61957721658823
 20
7.457993880393015
 30
0.0
 10
-60.257103993249
 20
8.990548246297237
 30
0.0
 10
-60.98728531588646
 20
9.283148089711716
 30
0.0
 10
-62.44223598620139
 20
9.83621361283446
 30
0.0
 10
-63.16706306475262
 20
10.09674295342689
 30
0.0
 10
-64.62444729120756
 20
10.58473022909186
 30
0.0
 10
-65.3539555370474
 20
10.81178517266398
 30
0.0
 10
-66.80422799869365
 20
11.22888144861347
 30
0.0
 10
-67.53381993019772
 20
11.41976656372449
 30
0.0
 10
-68.26249999999561
 20
11.59149258793863
 30
0.0
  0
SPLINE
  5
150
330
1F
100
AcDbEntity
  8
외형선
  6
Continuous
 62
     1
370
    15
100
AcDbSpline
210
0.0
220
0.0
230
1.0
 70
     8
 71
     3
 72
    11
 73
     7
 74
     0
 42
0.000000001
 43
0.00000001
 40
0.0
 40
0.0
 40
0.0
 40
0.0
 40
0.0297833739905166
 40
0.3531891952965538
 40
0.6765953593012185
 40
1.0
 40
1.0
 40
1.0
 40
1.0
 10
-56.38261246172605
 20
-10.40453377006336
 30
0.0
 10
-56.50055336268401
 20
-10.44767282488693
 30
0.0
 10
-57.89916763369165
 20
-10.95924173121174
 30
0.0
 10
-60.57846233665818
 20
-11.639800807691
 30
0.0
 10
-64.42048606410253
 20
-12.41042885868004
 30
0.0
 10
-66.98183069877447
 20
-12.58339479664274
 30
0.0
 10
-68.26249999999558
 20
-12.66987756194781
 30
0.0
  0
SPLINE
  5
151
330
1F
100
AcDbEntity
  8
외형선
  6
Continuous
 62
     1
370
    15
100
AcDbSpline
210
0.0
220
0.0
230
1.0
 70
     8
 71
     3
 72
    66
 73
    62
 74
     0
 42
0.000000001
 43
0.00000001
 40
0.0
 40
0.0
 40
0.0
 40
0.0
 40
0.0624999999999957
 40
0.0624999999999957
 40
0.0937499999999945
 40
0.0937499999999945
 40
0.1249999999999934
 40
0.1249999999999934
 40
0.1874999999999911
 40
0.1874999999999911
 40
0.2187499999999901
 40
0.2187499999999901
 40
0.249999999999989
 40
0.249999999999989
 40
0.3124999999999885
 40
0.3124999999999885
 40
0.3749999999999881
 40
0.3749999999999881
 40
0.406249999999988
 40
0.406249999999988
 40
0.4374999999999878
 40
0.4374999999999878
 40
0.4687499999999876
 40
0.4687499999999876
 40
0.4843749999999873
 40
0.4843749999999873
 40
0.499999999999987
 40
0.499999999999987
 40
0.5312499999999865
 40
0.5312499999999865
 40
0.5468749999999863
 40
0.5468749999999863
 40
0.5624999999999862
 40
0.5624999999999862
 40
0.5781249999999861
 40
0.5781249999999861
 40
0.5937499999999861
 40
0.5937499999999861
 40
0.609374999999986
 40
0.609374999999986
 40
0.6249999999999859
 40
0.6249999999999859
 40
0.656249999999987
 40
0.656249999999987
 40
0.6718749999999882
 40
0.6718749999999882
 40
0.6874999999999895
 40
0.6874999999999895
 40
0.7187499999999906
 40
0.7187499999999906
 40
0.7499999999999916
 40
0.7499999999999916
 40
0.7812499999999927
 40
0.7812499999999927
 40
0.8124999999999938
 40
0.8124999999999938
 40
0.8749999999999958
 40
0.8749999999999958
 40
0.9374999999999979
 40
0.9374999999999979
 40
1.0
 40
1.0
 40
1.0
 40
1.0
 10
-68.26250000000002
 20
-12.669877561948
 30
0.0
 10
-68.9076984688777
 20
-12.69549291798254
 30
0.0
 10
-69.54956586151633
 20
-12.65512055857483
 30
0.0
 10
-70.51577086389662
 20
-12.49867482054614
 30
0.0
 10
-70.83841733377272
 20
-12.43044658047632
 30
0.0
 10
-71.48551096440693
 20
-12.26120677279804
 30
0.0
 10
-71.81176216600531
 20
-12.1594934644907
 30
0.0
 10
-72.77829520247059
 20
-11.80880478575288
 30
0.0
 10
-73.40529108708711
 20
-11.51602885599269
 30
0.0
 10
-74.3201417094499
 20
-10.99086380257531
 30
0.0
 10
-74.62073193104644
 20
-10.80137856797933
 30
0.0
 10
-75.21209194619794
 20
-10.3928386364659
 30
0.0
 10
-75.50290028134438
 20
-10.17350368278014
 30
0.0
 10
-76.34157294859739
 20
-9.483918478518692
 30
0.0
 10
-76.86210061196942
 20
-8.978375414491753
 30
0.0
 10
-77.81624217130656
 20
-7.87514360778967
 30
0.0
 10
-78.25139604491093
 20
-7.273119692536561
 30
0.0
 10
-78.80268199507944
 20
-6.329975540857021
 30
0.0
 10
-78.97048060533356
 20
-6.007943702058502
 30
0.0
 10
-79.27103563881587
 20
-5.348865354959996
 30
0.0
 10
-79.40433737629428
 20
-5.010273253467989
 30
0.0
 10
-79.62826646586325
 20
-4.324816828960995
 30
0.0
 10
-79.71787169147012
 20
-3.981692036434779
 30
0.0
 10
-79.81535201312269
 20
-3.468926314948912
 30
0.0
 10
-79.84166610482822
 20
-3.298327485097016
 30
0.0
 10
-79.88090626685656
 20
-2.958262178460409
 30
0.0
 10
-79.89375700111691
 20
-2.788567898970912
 30
0.0
 10
-79.9100939311538
 20
-2.29277373324366
 30
0.0
 10
-79.89216214621362
 20
-1.976378116543266
 30
0.0
 10
-79.81677241465502
 20
-1.528944460221463
 30
0.0
 10
-79.78339580248559
 20
-1.384834218200224
 30
0.0
 10
-79.70186332736174
 20
-1.115347705777676
 30
0.0
 10
-79.65354735129452
 20
-0.988813483251942
 30
0.0
 10
-79.54172962134265
 20
-0.7525734958924302
 30
0.0
 10
-79.47823128484936
 20
-0.6428639787594025
 30
0.0
 10
-79.33535404459701
 20
-0.4411149243881791
 30
0.0
 10
-79.25634003051402
 20
-0.3499356292622327
 30
0.0
 10
-79.08758290302418
 20
-0.1907670118593632
 30
0.0
 10
-78.99731340400382
 20
-0.1219962251085558
 30
0.0
 10
-78.80519755606727
 20
-0.0051287615528103
 30
0.0
 10
-78.70268318773572
 20
0.0431690181039469
 30
0.0
 10
-78.38258785296938
 20
0.1559370655474318
 30
0.0
 10
-78.15426281286923
 20
0.1888062226212109
 30
0.0
 10
-77.78992229116727
 20
0.1850874452661828
 30
0.0
 10
-77.664911826187
 20
0.1748190797367709
 30
0.0
 10
-77.41269580618595
 20
0.1386173094660783
 30
0.0
 10
-77.28483627768549
 20
0.1126930386503092
 30
0.0
 10
-76.89576214573088
 20
0.0141322083733726
 30
0.0
 10
-76.6290705491881
 20
-0.0790890215165282
 30
0.0
 10
-76.07887827543107
 20
-0.3103957785513105
 30
0.0
 10
-75.80136449773582
 20
-0.4460573041944824
 30
0.0
 10
-75.24080870264274
 20
-0.746467153684429
 30
0.0
 10
-74.95742408932949
 20
-0.9114484783500966
 30
0.0
 10
-74.38186893147329
 20
-1.26430017628238
 30
0.0
 10
-74.08803331669142
 20
-1.453341478409243
 30
0.0
 10
-73.20628432366902
 20
-2.036061569905181
 30
0.0
 10
-72.61581917914029
 20
-2.445638906099694
 30
0.0
 10
-71.40831607391166
 20
-3.269121592680202
 30
0.0
 10
-70.78694043252813
 20
-3.686658655760347
 30
0.0
 10
-69.53809012435201
 20
-4.475852296014136
 30
0.0
 10
-68.90757289114345
 20
-4.849565169188386
 30
0.0
 10
-68.26250000000002
 20
-5.18915210643711
 30
0.0
  0
SPLINE
  5
152
330
1F
100
AcDbEntity
  8
외형선
  6
Continuous
 62
     1
370
    15
100
AcDbSpline
210
0.0
220
0.0
230
1.0
 70
     8
 71
     3
 72
    14
 73
    10
 74
     0
 42
0.000000001
 43
0.00000001
 40
0.0
 40
0.0
 40
0.0
 40
0.0
 40
0.1546518644327276
 40
0.3093044777737076
 40
0.4639557243708508
 40
0.6186034896006892
 40
0.7732456614590115
 40
0.9251220772399213
 40
1.0
 40
1.0
 40
1.0
 40
1.0
 10
-68.26249999999564
 20
-5.189152106439416
 30
0.0
 10
-66.95850871081961
 20
-5.860391566008044
 30
0.0
 10
-64.35051981783397
 20
-7.202873735651024
 30
0.0
 10
-60.43853751246682
 20
-8.945930251169168
 30
0.0
 10
-56.5265963758797
 20
-10.4170847246864
 30
0.0
 10
-52.61476566404105
 20
-11.56217036533664
 30
0.0
 10
-48.72634103497803
 20
-12.31789020290962
 30
0.0
 10
-45.510602317969
 20
-12.69002505461317
 30
0.0
 10
-43.59873297198042
 20
-12.661154832753
 30
0.0
 10
-42.96740302196751
 20
-12.65162142203009
 30
0.0
  0
SPLINE
  5
153
330
1F
100
AcDbEntity
  8
외형선
  6
Continuous
 62
     1
370
    15
100
AcDbSpline
210
0.0
220
0.0
230
1.0
 70
     8
 71
     3
 72
    12
 73
     8
 74
     0
 42
0.000000001
 43
0.00000001
 40
0.0
 40
0.0
 40
0.0
 40
0.0
 40
0.0642095155343353
 40
0.308489366117946
 40
0.5580960456796998
 40
0.9138341324425933
 40
0.9999999999999999
 40
0.9999999999999999
 40
0.9999999999999999
 40
0.9999999999999999
 10
-78.77406918456683
 20
-7.120300151932918
 30
0.0
 10
-78.74206531188429
 20
-7.169612709720204
 30
0.0
 10
-78.58830532296366
 20
-7.406530860664978
 30
0.0
 10
-78.26197317251422
 20
-7.836337769586663
 30
0.0
 10
-77.73925101804775
 20
-8.464379998429434
 30
0.0
 10
-77.28513650773814
 20
-8.960946564602184
 30
0.0
 10
-76.97609185455181
 20
-9.231984688931975
 30
0.0
 10
-76.915831926132
 20
-9.284833808962889
 30
0.0
  0
LINE
  5
154
330
1F
100
AcDbEntity
  8
외형선
  6
Continuous
370
    15
100
AcDbLine
 10
-33.33750000000003
 20
-1.088153135548132
 30
0.0
 11
-33.33750000000003
 21
-5.384280197612585
 31
0.0
  0
LINE
  5
155
330
1F
100
AcDbEntity
  8
외형선
  6
Continuous
 62
     1
370
    15
100
AcDbLine
 10
-33.33750000000004
 20
12.65329691240971
 30
0.0
 11
-35.22422316291996
 21
12.64990422092235
 31
0.0
  0
LINE
  5
156
330
1F
100
AcDbEntity
  8
외형선
  6
Continuous
370
    15
100
AcDbLine
 10
-33.33750000000003
 20
12.65329691240971
 30
0.0
 11
-33.33750000000003
 21
11.50215313554797
 31
0.0
  0
LINE
  5
157
330
1F
100
AcDbEntity
  8
외형선
  6
Continuous
370
    15
100
AcDbLine
 10
-33.33750000000003
 20
-0.0000000000000065
 30
0.0
 11
-33.33750000000003
 21
-12.7
 31
0.0
  0
LINE
  5
158
330
1F
100
AcDbEntity
  8
외형선
  6
Continuous
370
    15
100
AcDbLine
 10
-33.33750000000003
 20
12.69999999999999
 30
0.0
 11
-33.33750000000003
 21
-0.0000000000000065
 31
0.0
  0
LINE
  5
159
330
1F
100
AcDbEntity
  8
치수문자_일반주서
 62
     1
100
AcDbLine
 10
-80.9625
 20
0.0000000000000033
 30
0.0
 11
-80.9625
 21
-1.315014629548153
 31
0.0
  0
LINE
  5
19A
330
1F
100
AcDbEntity
  8
외형선
  6
Continuous
370
    15
100
AcDbLine
 10
-6.553200000000025
 20
10.79499999999999
 30
0.0
 11
6.553199999999983
 21
10.79499999999999
 31
0.0
  0
LINE
  5
19B
330
1F
100
AcDbEntity
  8
외형선
  6
Continuous
370
    15
100
AcDbLine
 10
6.553199999999983
 20
10.79499999999999
 30
0.0
 11
8.458199999999955
 21
12.69999999999999
 31
0.0
  0
LINE
  5
19C
330
1F
100
AcDbEntity
  8
외형선
  6
Continuous
370
    15
100
AcDbLine
 10
-6.553200000000025
 20
10.79499999999999
 30
0.0
 11
-8.458199999999998
 21
12.69999999999999
 31
0.0
  0
LINE
  5
19D
330
1F
100
AcDbEntity
  8
외형선
  6
Continuous
370
    15
100
AcDbLine
 10
-8.458200000000005
 20
12.69999999999999
 30
0.0
 11
-33.33750000000003
 21
12.69999999999999
 31
0.0
  0
ENDSEC
  0
SECTION
  2
OBJECTS
  0
DICTIONARY
  5
C
330
0
100
AcDbDictionary
281
     1
  3
ACAD_GROUP
350
D
  3
ACAD_IMAGE_VARS
350
141
  3
ACAD_LAYOUT
350
1A
  3
ACAD_MLINESTYLE
350
17
  3
ACAD_PLOTSETTINGS
350
19
  3
ACAD_PLOTSTYLENAME
350
E
  3
ACAD_SCALELIST
350
47
  3
APPDATA
350
13F
  3
DWGPROPS
350
19E
  0
DICTIONARY
  5
189
330
2
100
AcDbDictionary
280
     1
281
     1
  3
ACAD_LAYERSTATES
360
18A
  0
DICTIONARY
  5
D
102
{ACAD_REACTORS
330
C
102
}
330
C
100
AcDbDictionary
281
     1
  0
RASTERVARIABLES
  5
141
102
{ACAD_REACTORS
330
C
102
}
330
C
100
AcDbRasterVariables
 90
        0
 70
     1
 71
     1
 72
     1
  0
DICTIONARY
  5
1A
102
{ACAD_REACTORS
330
C
102
}
330
C
100
AcDbDictionary
281
     1
  3
Layout1
350
1E
  3
Layout2
350
26
  3
Model
350
22
  0
DICTIONARY
  5
17
102
{ACAD_REACTORS
330
C
102
}
330
C
100
AcDbDictionary
281
     1
  3
Standard
350
18
  0
DICTIONARY
  5
19
102
{ACAD_REACTORS
330
C
102
}
330
C
100
AcDbDictionary
281
     1
  0
ACDBDICTIONARYWDFLT
  5
E
102
{ACAD_REACTORS
330
C
102
}
330
C
100
AcDbDictionary
281
     1
  3
Normal
350
F
100
AcDbDictionaryWithDefault
340
F
  0
DICTIONARY
  5
47
102
{ACAD_REACTORS
330
C
102
}
330
C
100
AcDbDictionary
281
     1
  3
A0
350
48
  3
A1
350
49
  3
A2
350
4A
  3
A3
350
4B
  3
A4
350
4C
  3
A5
350
4D
  3
A6
350
4E
  3
A7
350
4F
  3
A8
350
50
  3
A9
350
51
  3
B0
350
52
  3
B1
350
53
  3
B2
350
54
  3
B3
350
55
  3
B4
350
56
  3
B5
350
57
  3
B6
350
58
  3
B7
350
59
  3
B8
350
5A
  3
B9
350
5B
  3
C0
350
5C
  3
C1
350
5D
  3
C2
350
5E
  3
C3
350
5F
  3
C4
350
60
  3
C5
350
61
  3
C6
350
62
  3
C7
350
63
  3
C8
350
64
  3
C9
350
65
  3
D0
350
66
  3
D1
350
67
  3
D2
350
68
  0
DICTIONARY
  5
13F
102
{ACAD_REACTORS
330
C
102
}
330
C
100
AcDbDictionary
281
     1
  0
XRECORD
  5
19E
102
{ACAD_REACTORS
330
C
102
}
330
C
100
AcDbXrecord
280
     1
  1
DWGPROPS COOKIE
  2

  3

  4

  6

  7

  8
12016016
  9

300
=
301
=
302
=
303
=
304
=
305
=
306
=
307
=
308
=
309
=
 40
0.0
 41
2458319.999472674
 42
2458331.0272739
  1

 90
        0
  0
DICTIONARY
  5
18A
102
{ACAD_REACTORS
330
189
102
}
330
189
100
AcDbDictionary
281
     1
  0
LAYOUT
  5
1E
102
{ACAD_REACTORS
330
1A
102
}
330
1A
100
AcDbPlotSettings
  1

  2
none_device
  4

  6

 40
0.0
 41
0.0
 42
0.0
 43
0.0
 44
0.0
 45
0.0
 46
0.0
 47
0.0
 48
0.0
 49
0.0
140
0.0
141
0.0
142
1.0
143
1.0
 70
   688
 72
     1
 73
     0
 74
     5
  7

 75
    16
147
1.0
148
0.0
149
0.0
100
AcDbLayout
  1
Layout1
 70
     1
 71
     1
 10
0.0
 20
0.0
 11
420.0
 21
297.0
 12
0.0
 22
0.0
 32
0.0
 14
1.000000000000000E+20
 24
1.000000000000000E+20
 34
1.000000000000000E+20
 15
-1.000000000000000E+20
 25
-1.000000000000000E+20
 35
-1.000000000000000E+20
146
0.0
 13
0.0
 23
0.0
 33
0.0
 16
1.0
 26
0.0
 36
0.0
 17
0.0
 27
1.0
 37
0.0
 76
     0
330
1B
  0
LAYOUT
  5
26
102
{ACAD_REACTORS
330
1A
102
}
330
1A
100
AcDbPlotSettings
  1

  2
none_device
  4

  6

 40
0.0
 41
0.0
 42
0.0
 43
0.0
 44
0.0
 45
0.0
 46
0.0
 47
0.0
 48
0.0
 49
0.0
140
0.0
141
0.0
142
1.0
143
1.0
 70
   688
 72
     1
 73
     0
 74
     5
  7

 75
    16
147
1.0
148
0.0
149
0.0
100
AcDbLayout
  1
Layout2
 70
     1
 71
     2
 10
0.0
 20
0.0
 11
0.0
 21
0.0
 12
0.0
 22
0.0
 32
0.0
 14
0.0
 24
0.0
 34
0.0
 15
0.0
 25
0.0
 35
0.0
146
0.0
 13
0.0
 23
0.0
 33
0.0
 16
1.0
 26
0.0
 36
0.0
 17
0.0
 27
1.0
 37
0.0
 76
     0
330
23
  0
LAYOUT
  5
22
102
{ACAD_REACTORS
330
1A
102
}
330
1A
100
AcDbPlotSettings
  1

  2
none_device
  4
ANSI_A_(11.00_x_8.50_Inches)
  6

 40
6.35
 41
19.05
 42
6.35000508
 43
19.05000254
 44
279.4
 45
215.9
 46
97.3791187696239
 47
65.58534307356597
 48
0.0
 49
0.0
140
0.0
141
0.0
142
0.0532781959283148
143
1.0
 70
  1696
 72
     0
 73
     0
 74
     0
  7

 75
     0
147
0.0235690232323232
148
0.0
149
0.0
100
AcDbLayout
  1
Model
 70
     1
 71
     0
 10
0.0
 20
0.0
 11
420.0
 21
297.0
 12
0.0
 22
0.0
 32
0.0
 14
1.000000000000000E+20
 24
1.000000000000000E+20
 34
1.000000000000000E+20
 15
-1.000000000000000E+20
 25
-1.000000000000000E+20
 35
-1.000000000000000E+20
146
0.0
 13
0.0
 23
0.0
 33
0.0
 16
1.0
 26
0.0
 36
0.0
 17
0.0
 27
1.0
 37
0.0
 76
     0
330
1F
331
29
  0
MLINESTYLE
  5
18
102
{ACAD_REACTORS
330
17
102
}
330
17
100
AcDbMlineStyle
  2
Standard
 70
     0
  3

 62
   256
 51
90.0
 52
90.0
 71
     2
 49
0.5
 62
   256
  6
BYLAYER
 49
-0.5
 62
   256
  6
BYLAYER
  0
ACDBPLACEHOLDER
  5
F
102
{ACAD_REACTORS
330
E
102
}
330
E
  0
SCALE
  5
48
102
{ACAD_REACTORS
330
47
102
}
330
47
100
AcDbScale
 70
     0
300
1:1
140
1.0
141
1.0
290
     1
  0
SCALE
  5
49
102
{ACAD_REACTORS
330
47
102
}
330
47
100
AcDbScale
 70
     0
300
1:2
140
1.0
141
2.0
290
     0
  0
SCALE
  5
4A
102
{ACAD_REACTORS
330
47
102
}
330
47
100
AcDbScale
 70
     0
300
1:4
140
1.0
141
4.0
290
     0
  0
SCALE
  5
4B
102
{ACAD_REACTORS
330
47
102
}
330
47
100
AcDbScale
 70
     0
300
1:5
140
1.0
141
5.0
290
     0
  0
SCALE
  5
4C
102
{ACAD_REACTORS
330
47
102
}
330
47
100
AcDbScale
 70
     0
300
1:8
140
1.0
141
8.0
290
     0
  0
SCALE
  5
4D
102
{ACAD_REACTORS
330
47
102
}
330
47
100
AcDbScale
 70
     0
300
1:10
140
1.0
141
10.0
290
     0
  0
SCALE
  5
4E
102
{ACAD_REACTORS
330
47
102
}
330
47
100
AcDbScale
 70
     0
300
1:16
140
1.0
141
16.0
290
     0
  0
SCALE
  5
4F
102
{ACAD_REACTORS
330
47
102
}
330
47
100
AcDbScale
 70
     0
300
1:20
140
1.0
141
20.0
290
     0
  0
SCALE
  5
50
102
{ACAD_REACTORS
330
47
102
}
330
47
100
AcDbScale
 70
     0
300
1:30
140
1.0
141
30.0
290
     0
  0
SCALE
  5
51
102
{ACAD_REACTORS
330
47
102
}
330
47
100
AcDbScale
 70
     0
300
1:40
140
1.0
141
40.0
290
     0
  0
SCALE
  5
52
102
{ACAD_REACTORS
330
47
102
}
330
47
100
AcDbScale
 70
     0
300
1:50
140
1.0
141
50.0
290
     0
  0
SCALE
  5
53
102
{ACAD_REACTORS
330
47
102
}
330
47
100
AcDbScale
 70
     0
300
1:100
140
1.0
141
100.0
290
     0
  0
SCALE
  5
54
102
{ACAD_REACTORS
330
47
102
}
330
47
100
AcDbScale
 70
     0
300
2:1
140
2.0
141
1.0
290
     0
  0
SCALE
  5
55
102
{ACAD_REACTORS
330
47
102
}
330
47
100
AcDbScale
 70
     0
300
4:1
140
4.0
141
1.0
290
     0
  0
SCALE
  5
56
102
{ACAD_REACTORS
330
47
102
}
330
47
100
AcDbScale
 70
     0
300
8:1
140
8.0
141
1.0
290
     0
  0
SCALE
  5
57
102
{ACAD_REACTORS
330
47
102
}
330
47
100
AcDbScale
 70
     0
300
10:1
140
10.0
141
1.0
290
     0
  0
SCALE
  5
58
102
{ACAD_REACTORS
330
47
102
}
330
47
100
AcDbScale
 70
     0
300
100:1
140
100.0
141
1.0
290
     0
  0
SCALE
  5
59
102
{ACAD_REACTORS
330
47
102
}
330
47
100
AcDbScale
 70
     0
300
1/128" = 1'-0"
140
0.0078125
141
12.0
290
     0
  0
SCALE
  5
5A
102
{ACAD_REACTORS
330
47
102
}
330
47
100
AcDbScale
 70
     0
300
1/64" = 1'-0"
140
0.015625
141
12.0
290
     0
  0
SCALE
  5
5B
102
{ACAD_REACTORS
330
47
102
}
330
47
100
AcDbScale
 70
     0
300
1/32" = 1'-0"
140
0.03125
141
12.0
290
     0
  0
SCALE
  5
5C
102
{ACAD_REACTORS
330
47
102
}
330
47
100
AcDbScale
 70
     0
300
1/16" = 1'-0"
140
0.0625
141
12.0
290
     0
  0
SCALE
  5
5D
102
{ACAD_REACTORS
330
47
102
}
330
47
100
AcDbScale
 70
     0
300
3/32" = 1'-0"
140
0.09375
141
12.0
290
     0
  0
SCALE
  5
5E
102
{ACAD_REACTORS
330
47
102
}
330
47
100
AcDbScale
 70
     0
300
1/8" = 1'-0"
140
0.125
141
12.0
290
     0
  0
SCALE
  5
5F
102
{ACAD_REACTORS
330
47
102
}
330
47
100
AcDbScale
 70
     0
300
3/16" = 1'-0"
140
0.1875
141
12.0
290
     0
  0
SCALE
  5
60
102
{ACAD_REACTORS
330
47
102
}
330
47
100
AcDbScale
 70
     0
300
1/4" = 1'-0"
140
0.25
141
12.0
290
     0
  0
SCALE
  5
61
102
{ACAD_REACTORS
330
47
102
}
330
47
100
AcDbScale
 70
     0
300
3/8" = 1'-0"
140
0.375
141
12.0
290
     0
  0
SCALE
  5
62
102
{ACAD_REACTORS
330
47
102
}
330
47
100
AcDbScale
 70
     0
300
1/2" = 1'-0"
140
0.5
141
12.0
290
     0
  0
SCALE
  5
63
102
{ACAD_REACTORS
330
47
102
}
330
47
100
AcDbScale
 70
     0
300
3/4" = 1'-0"
140
0.75
141
12.0
290
     0
  0
SCALE
  5
64
102
{ACAD_REACTORS
330
47
102
}
330
47
100
AcDbScale
 70
     0
300
1" = 1'-0"
140
1.0
141
12.0
290
     0
  0
SCALE
  5
65
102
{ACAD_REACTORS
330
47
102
}
330
47
100
AcDbScale
 70
     0
300
1-1/2" = 1'-0"
140
1.5
141
12.0
290
     0
  0
SCALE
  5
66
102
{ACAD_REACTORS
330
47
102
}
330
47
100
AcDbScale
 70
     0
300
3" = 1'-0"
140
3.0
141
12.0
290
     0
  0
SCALE
  5
67
102
{ACAD_REACTORS
330
47
102
}
330
47
100
AcDbScale
 70
     0
300
6" = 1'-0"
140
6.0
141
12.0
290
     0
  0
SCALE
  5
68
102
{ACAD_REACTORS
330
47
102
}
330
47
100
AcDbScale
 70
     0
300
1'-0" = 1'-0"
140
12.0
141
12.0
290
     0
  0
ENDSEC
  0
EOF
