  0
SECTION
  2
HEADER
  9
$ACADVER
  1
AC1015
  9
$ACADMAINTVER
 70
     6
  9
$DWGCODEPAGE
  3
ANSI_949
  9
$INSBASE
 10
0.0
 20
0.0
 30
0.0
  9
$EXTMIN
 10
-55.37116631323124
 20
-49.97180738881174
 30
0.0
  9
$EXTMAX
 10
87.45636729337568
 20
35.15400000000007
 30
0.0
  9
$LIMMIN
 10
0.0
 20
0.0
  9
$LIMMAX
 10
420.0
 20
297.0
  9
$ORTHOMODE
 70
     1
  9
$REGENMODE
 70
     1
  9
$FILLMODE
 70
     1
  9
$QTEXTMODE
 70
     0
  9
$MIRRTEXT
 70
     1
  9
$LTSCALE
 40
1.0
  9
$ATTMODE
 70
     1
  9
$TEXTSIZE
 40
3.5
  9
$TRACEWID
 40
1.0
  9
$TEXTSTYLE
  7
Standard
  9
$CLAYER
  8
0
  9
$CELTYPE
  6
ByLayer
  9
$CECOLOR
 62
   256
  9
$CELTSCALE
 40
1.0
  9
$DISPSILH
 70
     0
  9
$DIMSCALE
 40
1.0
  9
$DIMASZ
 40
3.302
  9
$DIMEXO
 40
1.0
  9
$DIMDLI
 40
3.75
  9
$DIMRND
 40
0.0
  9
$DIMDLE
 40
0.0
  9
$DIMEXE
 40
1.0
  9
$DIMTP
 40
0.0
  9
$DIMTM
 40
0.0
  9
$DIMTXT
 40
3.5
  9
$DIMCEN
 40
2.5
  9
$DIMTSZ
 40
0.0
  9
$DIMTOL
 70
     0
  9
$DIMLIM
 70
     0
  9
$DIMTIH
 70
     1
  9
$DIMTOH
 70
     1
  9
$DIMSE1
 70
     0
  9
$DIMSE2
 70
     0
  9
$DIMTAD
 70
     1
  9
$DIMZIN
 70
     0
  9
$DIMBLK
  1

  9
$DIMASO
 70
     1
  9
$DIMSHO
 70
     1
  9
$DIMPOST
  1

  9
$DIMAPOST
  1

  9
$DIMALT
 70
     0
  9
$DIMALTD
 70
     3
  9
$DIMALTF
 40
0.0393700787401575
  9
$DIMLFAC
 40
1.0
  9
$DIMTOFL
 70
     1
  9
$DIMTVP
 40
0.0
  9
$DIMTIX
 70
     0
  9
$DIMSOXD
 70
     0
  9
$DIMSAH
 70
     0
  9
$DIMBLK1
  1

  9
$DIMBLK2
  1

  9
$DIMSTYLE
  2
ISO-25
  9
$DIMCLRD
 70
     0
  9
$DIMCLRE
 70
     0
  9
$DIMCLRT
 70
     0
  9
$DIMTFAC
 40
1.0
  9
$DIMGAP
 40
1.524
  9
$DIMJUST
 70
     0
  9
$DIMSD1
 70
     0
  9
$DIMSD2
 70
     0
  9
$DIMTOLJ
 70
     0
  9
$DIMTZIN
 70
     0
  9
$DIMALTZ
 70
     0
  9
$DIMALTTZ
 70
     0
  9
$DIMUPT
 70
     0
  9
$DIMDEC
 70
     2
  9
$DIMTDEC
 70
     2
  9
$DIMALTU
 70
     2
  9
$DIMALTTD
 70
     3
  9
$DIMTXSTY
  7
Standard
  9
$DIMAUNIT
 70
     0
  9
$DIMADEC
 70
     2
  9
$DIMALTRND
 40
0.0
  9
$DIMAZIN
 70
     0
  9
$DIMDSEP
 70
    44
  9
$DIMATFIT
 70
     3
  9
$DIMFRAC
 70
     0
  9
$DIMLDRBLK
  1

  9
$DIMLUNIT
 70
     2
  9
$DIMLWD
 70
    -2
  9
$DIMLWE
 70
    -2
  9
$DIMTMOVE
 70
     0
  9
$LUNITS
 70
     2
  9
$LUPREC
 70
     2
  9
$SKETCHINC
 40
1.0
  9
$FILLETRAD
 40
10.0
  9
$AUNITS
 70
     0
  9
$AUPREC
 70
     2
  9
$MENU
  1
.
  9
$ELEVATION
 40
0.0
  9
$PELEVATION
 40
0.0
  9
$THICKNESS
 40
0.0
  9
$LIMCHECK
 70
     0
  9
$CHAMFERA
 40
0.0
  9
$CHAMFERB
 40
0.0
  9
$CHAMFERC
 40
0.0
  9
$CHAMFERD
 40
0.0
  9
$SKPOLY
 70
     0
  9
$TDCREATE
 40
2458324.476027535
  9
$TDUCREATE
 40
2458324.101027535
  9
$TDUPDATE
 40
2458331.457576794
  9
$TDUUPDATE
 40
2458331.082576794
  9
$TDINDWG
 40
0.0008902894
  9
$TDUSRTIMER
 40
2458331.082447025
  9
$USRTIMER
 70
     1
  9
$ANGBASE
 50
0.0
  9
$ANGDIR
 70
     0
  9
$PDMODE
 70
     0
  9
$PDSIZE
 40
-1.0
  9
$PLINEWID
 40
0.0
  9
$SPLFRAME
 70
     0
  9
$SPLINETYPE
 70
     6
  9
$SPLINESEGS
 70
     8
  9
$HANDSEED
  5
28D
  9
$SURFTAB1
 70
     6
  9
$SURFTAB2
 70
     6
  9
$SURFTYPE
 70
     6
  9
$SURFU
 70
     6
  9
$SURFV
 70
     6
  9
$UCSBASE
  2

  9
$UCSNAME
  2

  9
$UCSORG
 10
0.0
 20
0.0
 30
0.0
  9
$UCSXDIR
 10
1.0
 20
0.0
 30
0.0
  9
$UCSYDIR
 10
0.0
 20
1.0
 30
0.0
  9
$UCSORTHOREF
  2

  9
$UCSORTHOVIEW
 70
     0
  9
$UCSORGTOP
 10
0.0
 20
0.0
 30
0.0
  9
$UCSORGBOTTOM
 10
0.0
 20
0.0
 30
0.0
  9
$UCSORGLEFT
 10
0.0
 20
0.0
 30
0.0
  9
$UCSORGRIGHT
 10
0.0
 20
0.0
 30
0.0
  9
$UCSORGFRONT
 10
0.0
 20
0.0
 30
0.0
  9
$UCSORGBACK
 10
0.0
 20
0.0
 30
0.0
  9
$PUCSBASE
  2

  9
$PUCSNAME
  2

  9
$PUCSORG
 10
0.0
 20
0.0
 30
0.0
  9
$PUCSXDIR
 10
1.0
 20
0.0
 30
0.0
  9
$PUCSYDIR
 10
0.0
 20
1.0
 30
0.0
  9
$PUCSORTHOREF
  2

  9
$PUCSORTHOVIEW
 70
     0
  9
$PUCSORGTOP
 10
0.0
 20
0.0
 30
0.0
  9
$PUCSORGBOTTOM
 10
0.0
 20
0.0
 30
0.0
  9
$PUCSORGLEFT
 10
0.0
 20
0.0
 30
0.0
  9
$PUCSORGRIGHT
 10
0.0
 20
0.0
 30
0.0
  9
$PUCSORGFRONT
 10
0.0
 20
0.0
 30
0.0
  9
$PUCSORGBACK
 10
0.0
 20
0.0
 30
0.0
  9
$USERI1
 70
     0
  9
$USERI2
 70
     0
  9
$USERI3
 70
     0
  9
$USERI4
 70
     0
  9
$USERI5
 70
     0
  9
$USERR1
 40
0.0
  9
$USERR2
 40
0.0
  9
$USERR3
 40
0.0
  9
$USERR4
 40
0.0
  9
$USERR5
 40
0.0
  9
$WORLDVIEW
 70
     1
  9
$SHADEDGE
 70
     3
  9
$SHADEDIF
 70
    70
  9
$TILEMODE
 70
     1
  9
$MAXACTVP
 70
    64
  9
$PINSBASE
 10
0.0
 20
0.0
 30
0.0
  9
$PLIMCHECK
 70
     0
  9
$PEXTMIN
 10
1.000000000000000E+20
 20
1.000000000000000E+20
 30
1.000000000000000E+20
  9
$PEXTMAX
 10
-1.000000000000000E+20
 20
-1.000000000000000E+20
 30
-1.000000000000000E+20
  9
$PLIMMIN
 10
0.0
 20
0.0
  9
$PLIMMAX
 10
0.0
 20
0.0
  9
$UNITMODE
 70
     0
  9
$VISRETAIN
 70
     1
  9
$PLINEGEN
 70
     0
  9
$PSLTSCALE
 70
     1
  9
$TREEDEPTH
 70
  3020
  9
$CMLSTYLE
  2
Standard
  9
$CMLJUST
 70
     0
  9
$CMLSCALE
 40
20.0
  9
$PROXYGRAPHICS
 70
     1
  9
$MEASUREMENT
 70
     1
  9
$CELWEIGHT
370
    -1
  9
$ENDCAPS
280
     0
  9
$JOINSTYLE
280
     0
  9
$LWDISPLAY
290
     1
  9
$INSUNITS
 70
     4
  9
$HYPERLINKBASE
  1

  9
$STYLESHEET
  1

  9
$XEDIT
290
     1
  9
$CEPSNTYPE
380
     0
  9
$PSTYLEMODE
290
     1
  9
$FINGERPRINTGUID
  2
{F0E41943-60DA-403C-8F1C-3CB487FE7E33}
  9
$VERSIONGUID
  2
{FAEB1C32-E019-11D5-929B-00C0DF256EC4}
  9
$EXTNAMES
290
     1
  9
$PSVPSCALE
 40
0.0
  9
$OLESTARTUP
290
     0
  0
ENDSEC
  0
SECTION
  2
CLASSES
  0
CLASS
  1
ACDBDICTIONARYWDFLT
  2
AcDbDictionaryWithDefault
  3
ObjectDBX Classes
 90
        0
280
     0
281
     0
  0
CLASS
  1
VISUALSTYLE
  2
AcDbVisualStyle
  3
ObjectDBX Classes
 90
     4095
280
     0
281
     0
  0
CLASS
  1
MATERIAL
  2
AcDbMaterial
  3
ObjectDBX Classes
 90
     1153
280
     0
281
     0
  0
CLASS
  1
SCALE
  2
AcDbScale
  3
ObjectDBX Classes
 90
     1153
280
     0
281
     0
  0
CLASS
  1
SUN
  2
AcDbSun
  3
SCENEOE
 90
     1153
280
     0
281
     0
  0
CLASS
  1
ACDBPLACEHOLDER
  2
AcDbPlaceHolder
  3
ObjectDBX Classes
 90
        0
280
     0
281
     0
  0
CLASS
  1
LAYOUT
  2
AcDbLayout
  3
ObjectDBX Classes
 90
        0
280
     0
281
     0
  0
CLASS
  1
TABLESTYLE
  2
AcDbTableStyle
  3
ObjectDBX Classes
 90
     4095
280
     0
281
     0
  0
CLASS
  1
MLEADERSTYLE
  2
AcDbMLeaderStyle
  3
ACDB_MLEADERSTYLE_CLASS
 90
     4095
280
     0
281
     0
  0
CLASS
  1
RASTERVARIABLES
  2
AcDbRasterVariables
  3
ISM
 90
        0
280
     0
281
     0
  0
ENDSEC
  0
SECTION
  2
TABLES
  0
TABLE
  2
VPORT
  5
8
330
0
100
AcDbSymbolTable
 70
     1
  0
VPORT
  5
29
330
8
100
AcDbSymbolTableRecord
100
AcDbViewportTableRecord
  2
*Active
 70
     0
 10
0.0
 20
0.0
 11
1.0
 21
1.0
 12
6.997370039191189
 22
-11.45169201272484
 13
0.0
 23
0.0
 14
10.0
 24
10.0
 15
10.0
 25
10.0
 16
0.0
 26
0.0
 36
1.0
 17
0.0
 27
0.0
 37
0.0
 40
149.4210915025935
 41
1.591876208897486
 42
50.0
 43
0.0
 44
0.0
 50
0.0
 51
0.0
 71
    16
 72
  2000
 73
     1
 74
     3
 75
     0
 76
     0
 77
     0
 78
     0
281
     0
 65
     1
110
0.0
120
0.0
130
0.0
111
1.0
121
0.0
131
0.0
112
0.0
122
1.0
132
0.0
 79
     0
146
0.0
  0
ENDTAB
  0
TABLE
  2
LTYPE
  5
5
330
0
100
AcDbSymbolTable
 70
     6
  0
LTYPE
  5
14
330
5
100
AcDbSymbolTableRecord
100
AcDbLinetypeTableRecord
  2
ByBlock
 70
     0
  3

 72
    65
 73
     0
 40
0.0
  0
LTYPE
  5
15
330
5
100
AcDbSymbolTableRecord
100
AcDbLinetypeTableRecord
  2
ByLayer
 70
     0
  3

 72
    65
 73
     0
 40
0.0
  0
LTYPE
  5
16
330
5
100
AcDbSymbolTableRecord
100
AcDbLinetypeTableRecord
  2
Continuous
 70
     0
  3
Solid line
 72
    65
 73
     0
 40
0.0
  0
LTYPE
  5
6A
330
5
100
AcDbSymbolTableRecord
100
AcDbLinetypeTableRecord
  2
HIDDEN
 70
     0
  3
Hidden __ __ __ __ __ __ __ __ __ __ __ __ __ __
 72
    65
 73
     2
 40
1.905
 49
1.27
 74
     0
 49
-0.635
 74
     0
  0
LTYPE
  5
6B
330
5
100
AcDbSymbolTableRecord
100
AcDbLinetypeTableRecord
  2
PHANTOM
 70
     0
  3
Phantom ______  __  __  ______  __  __  ______
 72
    65
 73
     6
 40
12.7
 49
6.35
 74
     0
 49
-1.27
 74
     0
 49
1.27
 74
     0
 49
-1.27
 74
     0
 49
1.27
 74
     0
 49
-1.27
 74
     0
  0
LTYPE
  5
6C
330
5
100
AcDbSymbolTableRecord
100
AcDbLinetypeTableRecord
  2
CENTER
 70
     0
  3
Center ____ _ ____ _ ____ _ ____ _ ____ _ ____
 72
    65
 73
     4
 40
10.16
 49
6.35
 74
     0
 49
-1.27
 74
     0
 49
1.27
 74
     0
 49
-1.27
 74
     0
  0
LTYPE
  5
6D
330
5
100
AcDbSymbolTableRecord
100
AcDbLinetypeTableRecord
  2
CENTERX2
 70
     0
  3
Center (2x) ________  __  ________  __  _____
 72
    65
 73
     4
 40
20.32
 49
12.7
 74
     0
 49
-2.54
 74
     0
 49
2.54
 74
     0
 49
-2.54
 74
     0
  0
LTYPE
  5
6E
330
5
100
AcDbSymbolTableRecord
100
AcDbLinetypeTableRecord
  2
DOT2
 70
     0
  3
Dot (.5x) ........................................
 72
    65
 73
     2
 40
0.635
 49
0.0
 74
     0
 49
-0.635
 74
     0
  0
ENDTAB
  0
TABLE
  2
LAYER
  5
2
102
{ACAD_XDICTIONARY
360
256
102
}
330
0
100
AcDbSymbolTable
 70
    18
  0
LAYER
  5
10
330
2
100
AcDbSymbolTableRecord
100
AcDbLayerTableRecord
  2
0
 70
     0
 62
     7
  6
Continuous
370
    -3
390
F
  0
LAYER
  5
6F
330
2
100
AcDbSymbolTableRecord
100
AcDbLayerTableRecord
  2
FORMAT
 70
     0
 62
     2
  6
Continuous
370
    -3
390
F
  0
LAYER
  5
70
330
2
100
AcDbSymbolTableRecord
100
AcDbLayerTableRecord
  2
외형선
 70
     0
 62
     4
  6
Continuous
370
    30
390
F
  0
LAYER
  5
71
330
2
100
AcDbSymbolTableRecord
100
AcDbLayerTableRecord
  2
숨은선
 70
     0
 62
     2
  6
HIDDEN
370
    15
390
F
  0
LAYER
  5
72
330
2
100
AcDbSymbolTableRecord
100
AcDbLayerTableRecord
  2
중심선
 70
     0
 62
     1
  6
CENTERX2
370
    -3
390
F
  0
LAYER
  5
73
330
2
100
AcDbSymbolTableRecord
100
AcDbLayerTableRecord
  2
파단선
 70
     0
 62
     4
  6
Continuous
370
    -3
390
F
  0
LAYER
  5
74
330
2
100
AcDbSymbolTableRecord
100
AcDbLayerTableRecord
  2
해칭선
 70
     0
 62
   100
  6
Continuous
370
    -3
390
F
  0
LAYER
  5
75
330
2
100
AcDbSymbolTableRecord
100
AcDbLayerTableRecord
  2
가는실선
 70
     0
 62
     4
  6
Continuous
370
    -3
390
F
  0
LAYER
  5
76
330
2
100
AcDbSymbolTableRecord
100
AcDbLayerTableRecord
  2
치수_보조선
 70
     0
 62
     4
  6
Continuous
370
    -3
390
F
  0
LAYER
  5
77
330
2
100
AcDbSymbolTableRecord
100
AcDbLayerTableRecord
  2
치수문자_일반주서
 70
     0
 62
     7
  6
Continuous
370
    15
390
F
  0
LAYER
  5
78
330
2
100
AcDbSymbolTableRecord
100
AcDbLayerTableRecord
  2
개별주서
 70
     0
 62
   100
  6
Continuous
370
    30
390
F
  0
LAYER
  5
79
330
2
100
AcDbSymbolTableRecord
100
AcDbLayerTableRecord
  2
중간선
 70
     0
 62
     2
  6
Continuous
370
    15
390
F
  0
LAYER
  5
7A
330
2
100
AcDbSymbolTableRecord
100
AcDbLayerTableRecord
  2
윤곽선
 70
     0
 62
     3
  6
Continuous
370
    40
390
F
  0
LAYER
  5
7B
330
2
100
AcDbSymbolTableRecord
100
AcDbLayerTableRecord
  2
중심마크
 70
     0
 62
   100
  6
Continuous
370
    30
390
F
  0
LAYER
  5
7C
330
2
100
AcDbSymbolTableRecord
100
AcDbLayerTableRecord
  2
가상선
 70
     0
 62
     4
  6
PHANTOM
370
    -3
390
F
  0
LAYER
  5
7D
330
2
100
AcDbSymbolTableRecord
100
AcDbLayerTableRecord
  2
특수지정선
 70
     0
 62
     5
  6
CENTERX2
370
    60
390
F
  0
LAYER
  5
7E
330
2
100
AcDbSymbolTableRecord
100
AcDbLayerTableRecord
  2
참조1
 70
     0
 62
    -4
  6
Continuous
370
    -3
390
F
  0
LAYER
  5
226
330
2
100
AcDbSymbolTableRecord
100
AcDbLayerTableRecord
  2
Defpoints
 70
     0
 62
     7
  6
Continuous
290
     0
370
    -3
390
F
  0
ENDTAB
  0
TABLE
  2
STYLE
  5
3
330
0
100
AcDbSymbolTable
 70
     2
  0
STYLE
  5
11
330
3
100
AcDbSymbolTableRecord
100
AcDbTextStyleTableRecord
  2
Standard
 70
     0
 40
0.0
 41
1.0
 50
0.0
 71
     0
 42
3.5
  3
txt
  4

  0
STYLE
  5
94
330
3
100
AcDbSymbolTableRecord
100
AcDbTextStyleTableRecord
  2
SLDTEXTSTYLE0
 70
     0
 40
0.0
 41
0.75
 50
0.0
 71
     0
 42
3.5
  3
TXT
  4

  0
ENDTAB
  0
TABLE
  2
VIEW
  5
6
330
0
100
AcDbSymbolTable
 70
     0
  0
ENDTAB
  0
TABLE
  2
UCS
  5
7
330
0
100
AcDbSymbolTable
 70
     0
  0
ENDTAB
  0
TABLE
  2
APPID
  5
9
330
0
100
AcDbSymbolTable
 70
     1
  0
APPID
  5
12
330
9
100
AcDbSymbolTableRecord
100
AcDbRegAppTableRecord
  2
ACAD
 70
     0
  0
ENDTAB
  0
TABLE
  2
DIMSTYLE
  5
A
330
0
100
AcDbSymbolTable
 70
     3
100
AcDbDimStyleTable
  0
DIMSTYLE
105
27
330
A
100
AcDbSymbolTableRecord
100
AcDbDimStyleTableRecord
  2
ISO-25
 70
     0
 41
2.5
 42
0.625
 43
3.75
 44
1.25
 73
     0
 74
     0
 77
     1
 78
     8
140
2.5
141
2.5
143
0.03937007874016
147
0.625
171
     3
172
     1
178
     0
271
     2
272
     2
274
     3
278
    44
283
     0
284
     8
340
11
  0
DIMSTYLE
105
1A4
102
{ACAD_REACTORS
330
1A3
330
1CC
102
}
330
A
100
AcDbSymbolTableRecord
100
AcDbDimStyleTableRecord
  2
SLDDIMSTYLE0
 70
     0
 41
3.302
 44
0.0
 45
0.000000001
 73
     0
 74
     0
 77
     1
 78
    12
 79
     3
140
3.5
143
0.0393700787401575
147
0.875
148
0.000000001
170
     1
172
     1
173
     1
178
     0
271
     2
272
     2
276
     2
284
    12
289
     0
340
94
  0
DIMSTYLE
105
1B9
102
{ACAD_REACTORS
330
1B8
330
1E1
102
}
330
A
100
AcDbSymbolTableRecord
100
AcDbDimStyleTableRecord
  2
SLDDIMSTYLE1
 70
     0
 41
3.302
 44
0.0
 45
0.000000001
 73
     0
 74
     0
 77
     1
 78
    12
 79
     3
140
3.5
143
0.0393700787401575
147
0.875
148
0.000000001
170
     1
173
     1
178
     0
271
     2
272
     2
276
     2
284
    12
340
94
  0
ENDTAB
  0
TABLE
  2
BLOCK_RECORD
  5
1
330
0
100
AcDbSymbolTable
 70
     7
  0
BLOCK_RECORD
  5
1F
330
1
100
AcDbSymbolTableRecord
100
AcDbBlockTableRecord
  2
*Model_Space
340
22
  0
BLOCK_RECORD
  5
1B
330
1
100
AcDbSymbolTableRecord
100
AcDbBlockTableRecord
  2
*Paper_Space
340
1E
  0
BLOCK_RECORD
  5
23
330
1
100
AcDbSymbolTableRecord
100
AcDbBlockTableRecord
  2
*Paper_Space0
340
26
  0
BLOCK_RECORD
  5
7F
330
1
100
AcDbSymbolTableRecord
100
AcDbBlockTableRecord
  2
블럭10
340
0
102
{BLKREFS
331
19C
102
}
  0
BLOCK_RECORD
  5
1A5
330
1
100
AcDbSymbolTableRecord
100
AcDbBlockTableRecord
  2
_D
340
0
  0
BLOCK_RECORD
  5
1BA
330
1
100
AcDbSymbolTableRecord
100
AcDbBlockTableRecord
  2
_D_1
340
0
  0
BLOCK_RECORD
  5
1CD
330
1
100
AcDbSymbolTableRecord
100
AcDbBlockTableRecord
  2
_D_2
340
0
  0
BLOCK_RECORD
  5
1E2
330
1
100
AcDbSymbolTableRecord
100
AcDbBlockTableRecord
  2
_D_3
340
0
  0
BLOCK_RECORD
  5
1FB
330
1
100
AcDbSymbolTableRecord
100
AcDbBlockTableRecord
  2
SW_DOWELSYMBOL_0
340
0
102
{BLKREFS
331
201
102
}
  0
ENDTAB
  0
ENDSEC
  0
SECTION
  2
BLOCKS
  0
BLOCK
  5
20
330
1F
100
AcDbEntity
  8
0
100
AcDbBlockBegin
  2
*Model_Space
 70
     0
 10
0.0
 20
0.0
 30
0.0
  3
*Model_Space
  1
*Model_Space
  0
ENDBLK
  5
21
330
1F
100
AcDbEntity
  8
0
100
AcDbBlockEnd
  0
BLOCK
  5
1C
330
1B
100
AcDbEntity
 67
     1
  8
0
100
AcDbBlockBegin
  2
*Paper_Space
 70
     0
 10
0.0
 20
0.0
 30
0.0
  3
*Paper_Space
  1
*Paper_Space
  0
ENDBLK
  5
1D
330
1B
100
AcDbEntity
 67
     1
  8
0
100
AcDbBlockEnd
  0
BLOCK
  5
24
330
23
100
AcDbEntity
  8
0
100
AcDbBlockBegin
  2
*Paper_Space0
 70
     0
 10
0.0
 20
0.0
 30
0.0
  3
*Paper_Space0
  1
*Paper_Space0
  0
ENDBLK
  5
25
330
23
100
AcDbEntity
  8
0
100
AcDbBlockEnd
  0
BLOCK
  5
80
330
7F
100
AcDbEntity
  8
0
100
AcDbBlockBegin
  2
블럭10
 70
     2
 10
0.0
 20
0.0
 30
0.0
  3
블럭10
  1
블럭10
  0
ELLIPSE
  5
82
330
7F
100
AcDbEntity
  8
중심선
100
AcDbEllipse
 10
20.54032771741204
 20
12.0471743016438
 30
0.0
 11
6.600054785286829
 21
-1.261213355974178E-13
 31
0.0
210
0.0
220
0.0
230
1.0
 40
0.636358354079598
 41
0.9219305317359503
 42
6.513795318482858
  0
ELLIPSE
  5
83
330
7F
100
AcDbEntity
  8
중심선
100
AcDbEllipse
 10
20.54032771746488
 20
12.04717430159265
 30
0.0
 11
3.960054785062283
 21
1.540847449632565E-10
 31
0.0
210
0.0
220
0.0
230
1.0
 40
0.3939339440162632
 41
1.131841032648279
 42
5.62031148352944
  0
LINE
  5
84
330
7F
100
AcDbEntity
  8
중심선
100
AcDbLine
 10
2.268634060543552
 20
16.24717430164393
 30
0.0
 11
5.714909304380834
 21
16.24717430164393
 31
0.0
  0
LINE
  5
85
330
7F
100
AcDbEntity
  8
중심선
100
AcDbLine
 10
5.245725140726316
 20
7.84717430164391
 30
0.0
 11
8.692000384563599
 21
7.84717430164391
 31
0.0
  0
LINE
  5
86
330
7F
100
AcDbEntity
  8
중심선
100
AcDbLine
 10
15.74043728645272
 20
16.24717430164393
 30
0.0
 11
8.692000384563599
 21
7.84717430164391
 31
0.0
  0
LINE
  5
87
330
7F
100
AcDbEntity
  8
중심선
100
AcDbLine
 10
0.1404042013395286
 20
13.71084872107135
 30
0.0
 11
3.58671253028996
 21
13.71088815037384
 31
0.0
  0
LINE
  5
88
330
7F
100
AcDbEntity
  8
중심선
100
AcDbLine
 10
2.750260043222114
 20
10.84717430164391
 30
0.0
 11
6.196535287059397
 21
10.84717430164391
 31
0.0
  0
LINE
  5
89
330
7F
100
AcDbEntity
  8
중심선
100
AcDbLine
 10
12.29416204261559
 20
16.24717430164393
 30
0.0
 11
5.245725140726316
 21
7.84717430164391
 31
0.0
  0
LINE
  5
8A
330
7F
100
AcDbEntity
  8
중심선
100
AcDbLine
 10
10.72767329541681
 20
16.24717430164393
 30
0.0
 11
6.196535287059397
 21
10.84717430164391
 31
0.0
  0
LINE
  5
8B
330
7F
100
AcDbEntity
  8
중심선
100
AcDbLine
 10
7.28139805157953
 20
16.24717430164393
 30
0.0
 11
2.750260043222114
 21
10.84717430164391
 31
0.0
  0
LINE
  5
8C
330
7F
100
AcDbEntity
  8
중심선
100
AcDbLine
 10
5.714909304380834
 20
16.24717430164393
 30
0.0
 11
3.58671253028996
 21
13.71088815037384
 31
0.0
  0
LINE
  5
8D
330
7F
100
AcDbEntity
  8
중심선
100
AcDbLine
 10
2.268634060543552
 20
16.24717430164393
 30
0.0
 11
0.1404042013395286
 21
13.71084872107135
 31
0.0
  0
LINE
  5
8E
330
7F
100
AcDbEntity
  8
중심선
100
AcDbLine
 10
7.28139805157953
 20
16.24717430164393
 30
0.0
 11
10.72767329541681
 21
16.24717430164393
 31
0.0
  0
LINE
  5
8F
330
7F
100
AcDbEntity
  8
중심선
100
AcDbLine
 10
12.29416204261559
 20
16.24717430164393
 30
0.0
 11
15.74043728645272
 21
16.24717430164393
 31
0.0
  0
LINE
  5
90
330
7F
100
AcDbEntity
  8
중심선
100
AcDbLine
 10
19.22036997980202
 20
11.08717430171403
 30
0.0
 11
23.66174974927406
 21
11.08717430171406
 31
0.0
  0
LINE
  5
91
330
7F
100
AcDbEntity
  8
중심선
100
AcDbLine
 10
19.22039502424796
 20
13.00717430171391
 30
0.0
 11
19.22036997980202
 21
11.08717430171403
 31
0.0
  0
LINE
  5
92
330
7F
100
AcDbEntity
  8
중심선
100
AcDbLine
 10
19.22039502424796
 20
13.00717430171391
 30
0.0
 11
26.96566020931264
 21
13.00717430171391
 31
0.0
  0
LINE
  5
93
330
7F
100
AcDbEntity
  8
중심선
100
AcDbLine
 10
22.22332737316547
 20
13.45928029700563
 30
0.0
 11
24.52862924686651
 21
15.39360700705356
 31
0.0
  0
ATTDEF
  5
95
330
7F
100
AcDbEntity
  8
FORMAT
 62
     2
100
AcDbText
 10
2.542683156192612
 20
2.075366912832191
 30
0.0
 40
4.233333333333333
  1
GYG68016
 41
0.75
  7
SLDTEXTSTYLE0
 11
2.542683156192612
 21
-0.0412997538344756
 31
0.0
100
AcDbAttributeDefinition
  3

  2
AUTOATTR0
 70
     0
 74
     1
  0
ENDBLK
  5
81
330
7F
100
AcDbEntity
  8
0
100
AcDbBlockEnd
  0
BLOCK
  5
1A6
330
1A5
100
AcDbEntity
  8
0
100
AcDbBlockBegin
  2
_D
 70
     0
 10
0.0
 20
0.0
 30
0.0
  3
_D
  1
_D
  0
LINE
  5
1A8
330
1A5
100
AcDbEntity
  8
치수문자_일반주서
 62
     0
370
    -2
100
AcDbLine
 10
-38.67536934298442
 20
4.762500000000004
 30
0.0
 11
-50.9961663132312
 21
4.762499999999958
 31
0.0
  0
LINE
  5
1A9
330
1A5
100
AcDbEntity
  8
치수문자_일반주서
 62
     0
370
    -2
100
AcDbLine
 10
-38.67536934298442
 20
-4.762500000000002
 30
0.0
 11
-50.99616631323116
 21
-4.762500000000048
 31
0.0
  0
LINE
  5
1AA
330
1A5
100
AcDbEntity
  8
치수문자_일반주서
 62
     0
370
    -2
100
AcDbLine
 10
-50.99616631323119
 20
1.460499999999958
 30
0.0
 11
-50.99616631323118
 21
-1.460500000000049
 31
0.0
  0
SOLID
  5
1AB
330
1A5
100
AcDbEntity
  8
치수문자_일반주서
 62
     0
100
AcDbTrace
 10
-50.44583297989785
 20
1.46049999999996
 30
0.0
 11
-51.54649964656452
 21
1.460499999999956
 31
0.0
 12
-50.9961663132312
 22
4.762499999999958
 32
0.0
 13
-50.9961663132312
 23
4.762499999999958
 33
0.0
  0
SOLID
  5
1AC
330
1A5
100
AcDbEntity
  8
치수문자_일반주서
 62
     0
100
AcDbTrace
 10
-51.54649964656451
 20
-1.460500000000051
 30
0.0
 11
-50.44583297989784
 21
-1.460500000000047
 31
0.0
 12
-50.99616631323116
 22
-4.762500000000048
 32
0.0
 13
-50.99616631323116
 23
-4.762500000000048
 33
0.0
  0
MTEXT
  5
1AD
330
1A5
100
AcDbEntity
  8
치수문자_일반주서
 62
     0
100
AcDbMText
 10
-55.37116631323119
 20
-0.0000000000000147
 30
0.0
 40
3.5
 41
0.0
 71
     2
 72
     1
  1
\A1;%%c9.53 [3/8]
  7
SLDTEXTSTYLE0
 11
-3.729883127349605E-15
 21
1.0
 31
0.0
 73
     1
 44
1.0
  0
POINT
  5
1AE
330
1A5
100
AcDbEntity
  8
Defpoints
 62
     0
100
AcDbPoint
 10
-38.61286934298442
 20
4.762500000000004
 30
0.0
  0
POINT
  5
1AF
330
1A5
100
AcDbEntity
  8
Defpoints
 62
     0
100
AcDbPoint
 10
-38.61286934298442
 20
-4.762500000000002
 30
0.0
  0
POINT
  5
1B0
330
1A5
100
AcDbEntity
  8
Defpoints
 62
     0
100
AcDbPoint
 10
-50.99616631323116
 20
-4.762500000000048
 30
0.0
  0
ENDBLK
  5
1A7
330
1A5
100
AcDbEntity
  8
0
100
AcDbBlockEnd
  0
BLOCK
  5
1BB
330
1BA
100
AcDbEntity
  8
0
100
AcDbBlockBegin
  2
_D_1
 70
     0
 10
0.0
 20
0.0
 30
0.0
  3
_D_1
  1
_D_1
  0
LINE
  5
1BD
330
1BA
100
AcDbEntity
  8
치수문자_일반주서
 62
     0
370
    -2
100
AcDbLine
 10
22.86213065701558
 20
3.175000000000001
 30
0.0
 11
41.79963065701564
 21
3.175000000000072
 31
0.0
  0
LINE
  5
1BE
330
1BA
100
AcDbEntity
  8
치수문자_일반주서
 62
     0
370
    -2
100
AcDbLine
 10
22.86213065701558
 20
-3.174999999999997
 30
0.0
 11
41.79963065701566
 21
-3.174999999999926
 31
0.0
  0
LINE
  5
1BF
330
1BA
100
AcDbEntity
  8
치수문자_일반주서
 62
     0
370
    -2
100
AcDbLine
 10
41.79963065701564
 20
3.175000000000072
 30
0.0
 11
41.79963065701553
 21
35.15400000000007
 31
0.0
  0
LINE
  5
1C0
330
1BA
100
AcDbEntity
  8
치수문자_일반주서
 62
     0
370
    -2
100
AcDbLine
 10
41.79963065701563
 20
6.477000000000071
 30
0.0
 11
41.79963065701561
 21
9.779000000000071
 31
0.0
  0
LINE
  5
1C1
330
1BA
100
AcDbEntity
  8
치수문자_일반주서
 62
     0
370
    -2
100
AcDbLine
 10
41.79963065701568
 20
-6.476999999999926
 30
0.0
 11
41.79963065701569
 21
-9.778999999999925
 31
0.0
  0
SOLID
  5
1C2
330
1BA
100
AcDbEntity
  8
치수문자_일반주서
 62
     0
100
AcDbTrace
 10
41.24929732368229
 20
6.47700000000007
 30
0.0
 11
42.34996399034896
 21
6.477000000000073
 31
0.0
 12
41.79963065701564
 22
3.175000000000072
 32
0.0
 13
41.79963065701564
 23
3.175000000000072
 33
0.0
  0
SOLID
  5
1C3
330
1BA
100
AcDbEntity
  8
치수문자_일반주서
 62
     0
100
AcDbTrace
 10
42.34996399034901
 20
-6.476999999999924
 30
0.0
 11
41.24929732368234
 21
-6.476999999999927
 31
0.0
 12
41.79963065701566
 22
-3.174999999999926
 32
0.0
 13
41.79963065701566
 23
-3.174999999999926
 33
0.0
  0
MTEXT
  5
1C4
330
1BA
100
AcDbEntity
  8
치수문자_일반주서
 62
     0
100
AcDbMText
 10
37.42463065701558
 20
22.46650000000006
 30
0.0
 40
3.5
 41
0.0
 71
     2
 72
     1
  1
\A1;%%c6.35 [1/4]
  7
SLDTEXTSTYLE0
 11
-3.356894814614648E-15
 21
1.0
 31
0.0
 73
     1
 44
1.0
  0
POINT
  5
1C5
330
1BA
100
AcDbEntity
  8
Defpoints
 62
     0
100
AcDbPoint
 10
22.79963065701558
 20
3.175000000000001
 30
0.0
  0
POINT
  5
1C6
330
1BA
100
AcDbEntity
  8
Defpoints
 62
     0
100
AcDbPoint
 10
22.79963065701558
 20
-3.174999999999997
 30
0.0
  0
POINT
  5
229
330
1BA
100
AcDbEntity
  8
Defpoints
 62
     0
100
AcDbPoint
 10
41.79963065701566
 20
-3.174999999999926
 30
0.0
  0
ENDBLK
  5
1BC
330
1BA
100
AcDbEntity
  8
0
100
AcDbBlockEnd
  0
BLOCK
  5
1CE
330
1CD
100
AcDbEntity
  8
0
100
AcDbBlockBegin
  2
_D_2
 70
     0
 10
0.0
 20
0.0
 30
0.0
  3
_D_2
  1
_D_2
  0
LINE
  5
1D0
330
1CD
100
AcDbEntity
  8
치수문자_일반주서
 62
     0
370
    -2
100
AcDbLine
 10
22.79963065701558
 20
3.033261423860894
 30
0.0
 11
22.79963065701558
 21
14.76250000000001
 31
0.0
  0
LINE
  5
1D1
330
1CD
100
AcDbEntity
  8
치수문자_일반주서
 62
     0
370
    -2
100
AcDbLine
 10
6.924630657022972
 20
2.400289385468602
 30
0.0
 11
6.924630657022972
 21
14.76250000000001
 31
0.0
  0
LINE
  5
1D2
330
1CD
100
AcDbEntity
  8
치수문자_일반주서
 62
     0
370
    -2
100
AcDbLine
 10
19.49763065701558
 20
14.76250000000001
 30
0.0
 11
10.22663065702297
 21
14.76250000000001
 31
0.0
  0
SOLID
  5
1D3
330
1CD
100
AcDbEntity
  8
치수문자_일반주서
 62
     0
100
AcDbTrace
 10
19.49763065701558
 20
14.21216666666668
 30
0.0
 11
19.49763065701558
 21
15.31283333333335
 31
0.0
 12
22.79963065701558
 22
14.76250000000001
 32
0.0
 13
22.79963065701558
 23
14.76250000000001
 33
0.0
  0
SOLID
  5
1D4
330
1CD
100
AcDbEntity
  8
치수문자_일반주서
 62
     0
100
AcDbTrace
 10
10.22663065702297
 20
15.31283333333335
 30
0.0
 11
10.22663065702297
 21
14.21216666666668
 31
0.0
 12
6.924630657022972
 22
14.76250000000001
 32
0.0
 13
6.924630657022972
 23
14.76250000000001
 33
0.0
  0
MTEXT
  5
1D5
330
1CD
100
AcDbEntity
  8
치수문자_일반주서
 62
     0
100
AcDbMText
 10
14.16906899153526
 20
19.13750000000001
 30
0.0
 40
3.5
 41
0.0
 71
     2
 72
     1
  1
\A1;15.88 [5/8]
  7
SLDTEXTSTYLE0
 73
     1
 44
1.0
  0
POINT
  5
1D6
330
1CD
100
AcDbEntity
  8
Defpoints
 62
     0
100
AcDbPoint
 10
22.79963065701558
 20
2.970761423860894
 30
0.0
  0
POINT
  5
1D7
330
1CD
100
AcDbEntity
  8
Defpoints
 62
     0
100
AcDbPoint
 10
6.924630657022972
 20
2.337789385468602
 30
0.0
  0
POINT
  5
1D8
330
1CD
100
AcDbEntity
  8
Defpoints
 62
     0
100
AcDbPoint
 10
6.924630657022972
 20
14.76250000000001
 30
0.0
  0
ENDBLK
  5
1CF
330
1CD
100
AcDbEntity
  8
0
100
AcDbBlockEnd
  0
BLOCK
  5
1E3
330
1E2
100
AcDbEntity
  8
0
100
AcDbBlockBegin
  2
_D_3
 70
     0
 10
0.0
 20
0.0
 30
0.0
  3
_D_3
  1
_D_3
  0
LINE
  5
1E5
330
1E2
100
AcDbEntity
  8
치수문자_일반주서
 62
     0
370
    -2
100
AcDbLine
 10
22.79963065701558
 20
3.033261423860894
 30
0.0
 11
22.79963065701558
 21
29.67003474188472
 31
0.0
  0
LINE
  5
1E6
330
1E2
100
AcDbEntity
  8
치수문자_일반주서
 62
     0
370
    -2
100
AcDbLine
 10
-39.11286934298442
 20
4.324999999999996
 30
0.0
 11
-39.11286934298442
 21
29.67003474188472
 31
0.0
  0
LINE
  5
1E7
330
1E2
100
AcDbEntity
  8
치수문자_일반주서
 62
     0
370
    -2
100
AcDbLine
 10
19.49763065701558
 20
29.67003474188472
 30
0.0
 11
-35.81086934298443
 21
29.67003474188472
 31
0.0
  0
SOLID
  5
1E8
330
1E2
100
AcDbEntity
  8
치수문자_일반주서
 62
     0
100
AcDbTrace
 10
19.49763065701558
 20
29.11970140855139
 30
0.0
 11
19.49763065701558
 21
30.22036807521805
 31
0.0
 12
22.79963065701558
 22
29.67003474188472
 32
0.0
 13
22.79963065701558
 23
29.67003474188472
 33
0.0
  0
SOLID
  5
1E9
330
1E2
100
AcDbEntity
  8
치수문자_일반주서
 62
     0
100
AcDbTrace
 10
-35.81086934298443
 20
30.22036807521805
 30
0.0
 11
-35.81086934298443
 21
29.11970140855139
 31
0.0
 12
-39.11286934298442
 22
29.67003474188472
 32
0.0
 13
-39.11286934298442
 23
29.67003474188472
 33
0.0
  0
MTEXT
  5
1EA
330
1E2
100
AcDbEntity
  8
치수문자_일반주서
 62
     0
100
AcDbMText
 10
-8.156619342984431
 20
34.04503474188472
 30
0.0
 40
3.5
 41
0.0
 71
     2
 72
     1
  1
\A1;61.91 [2 7/16]
  7
SLDTEXTSTYLE0
 73
     1
 44
1.0
  0
POINT
  5
1EB
330
1E2
100
AcDbEntity
  8
Defpoints
 62
     0
100
AcDbPoint
 10
22.79963065701558
 20
2.970761423860894
 30
0.0
  0
POINT
  5
1EC
330
1E2
100
AcDbEntity
  8
Defpoints
 62
     0
100
AcDbPoint
 10
-39.11286934298442
 20
4.262499999999996
 30
0.0
  0
POINT
  5
1ED
330
1E2
100
AcDbEntity
  8
Defpoints
 62
     0
100
AcDbPoint
 10
-39.11286934298442
 20
29.67003474188472
 30
0.0
  0
ENDBLK
  5
1E4
330
1E2
100
AcDbEntity
  8
0
100
AcDbBlockEnd
  0
BLOCK
  5
1FC
330
1FB
100
AcDbEntity
  8
0
100
AcDbBlockBegin
  2
SW_DOWELSYMBOL_0
 70
     0
 10
0.0
 20
0.0
 30
0.0
  3
SW_DOWELSYMBOL_0
  1
SW_DOWELSYMBOL_0
  0
CIRCLE
  5
1FE
330
1FB
100
AcDbEntity
  8
해칭선
 62
     0
100
AcDbCircle
 10
0.0
 20
0.0
 30
0.0
 40
3.000000000000001
  0
HATCH
  5
1FF
330
1FB
100
AcDbEntity
  8
0
  6
Continuous
 62
     0
370
     0
100
AcDbHatch
 10
0.0
 20
0.0
 30
0.0
210
0.0
220
0.0
230
1.0
  2
SOLID
 70
     1
 71
     0
 91
        1
 92
        0
 93
        3
 72
     2
 10
0.0
 20
0.0
 40
3.000000000000001
 50
0.0
 51
90.0
 73
     1
 72
     1
 10
0.0
 20
3.000000000000001
 11
0.0
 21
0.0
 72
     1
 10
0.0
 20
0.0
 11
3.000000000000001
 21
0.0
 97
        0
 75
     0
 76
     1
 98
        1
 10
0.0
 20
0.0
  0
HATCH
  5
200
330
1FB
100
AcDbEntity
  8
0
  6
Continuous
 62
     0
370
     0
100
AcDbHatch
 10
0.0
 20
0.0
 30
0.0
210
0.0
220
0.0
230
1.0
  2
SOLID
 70
     1
 71
     0
 91
        1
 92
        0
 93
        3
 72
     2
 10
0.0
 20
0.0
 40
3.000000000000001
 50
180.0
 51
270.0000000000007
 73
     1
 72
     1
 10
0.0
 20
-3.000000000000001
 11
0.0
 21
0.0
 72
     1
 10
0.0
 20
0.0
 11
-3.000000000000001
 21
0.0
 97
        0
 75
     0
 76
     1
 98
        1
 10
0.0
 20
0.0
  0
ENDBLK
  5
1FD
330
1FB
100
AcDbEntity
  8
0
100
AcDbBlockEnd
  0
ENDSEC
  0
SECTION
  2
ENTITIES
  0
LINE
  5
96
330
1F
100
AcDbEntity
  8
외형선
  6
Continuous
370
    15
100
AcDbLine
 10
5.488331498393682
 20
-3.291906007211116
 30
0.0
 11
5.924630657015581
 21
-3.174999999999999
 31
0.0
  0
LINE
  5
97
330
1F
100
AcDbEntity
  8
외형선
  6
Continuous
370
    15
100
AcDbLine
 10
0.0
 20
-4.762500000000001
 30
0.0
 11
5.404957859637919
 21
-3.314245906385767
 31
0.0
  0
LINE
  5
98
330
1F
100
AcDbEntity
  8
외형선
  6
Continuous
370
    15
100
AcDbLine
 10
5.404957859637917
 20
3.314245906385768
 30
0.0
 11
0.0
 21
4.762500000000001
 31
0.0
  0
LINE
  5
99
330
1F
100
AcDbEntity
  8
외형선
  6
Continuous
370
    15
100
AcDbLine
 10
-38.61286934298442
 20
4.762499999999996
 30
0.0
 11
-39.11286934298442
 21
4.262499999999995
 31
0.0
  0
LINE
  5
9A
330
1F
100
AcDbEntity
  8
외형선
  6
Continuous
370
    15
100
AcDbLine
 10
-39.11286934298442
 20
-4.262500000000006
 30
0.0
 11
-38.61286934298442
 21
-4.762500000000006
 31
0.0
  0
LINE
  5
9B
330
1F
100
AcDbEntity
  8
외형선
  6
Continuous
370
    15
100
AcDbLine
 10
0.0
 20
4.762500000000001
 30
0.0
 11
-14.4304193429843
 21
4.762499999999999
 31
0.0
  0
LINE
  5
9C
330
1F
100
AcDbEntity
  8
외형선
  6
Continuous
370
    15
100
AcDbLine
 10
-38.61286934298442
 20
-4.762500000000006
 30
0.0
 11
0.0000000000000018
 21
-4.762500000000001
 31
0.0
  0
LINE
  5
9D
330
1F
100
AcDbEntity
  8
외형선
  6
Continuous
 62
     1
370
    15
100
AcDbLine
 10
16.16317330197106
 20
0.2594004300745582
 30
0.0
 11
16.18747227137639
 21
0.235361889076364
 31
0.0
  0
LWPOLYLINE
  5
9E
330
1F
100
AcDbEntity
  8
외형선
  6
Continuous
 62
     1
370
    15
100
AcDbPolyline
 90
        4
 70
   128
 43
0.0
 10
16.13917292844227
 20
0.2808551849093736
 10
16.16267716872419
 20
0.2598912459275445
 10
16.16317330197106
 20
0.2594004300745582
 10
16.16317330197106
 20
0.2594004300745582
  0
SPLINE
  5
9F
330
1F
100
AcDbEntity
  8
외형선
  6
Continuous
 62
     1
370
    15
100
AcDbSpline
210
0.0
220
0.0
230
1.0
 70
     8
 71
     3
 72
    10
 73
     6
 74
     0
 42
0.000000001
 43
0.00000001
 40
0.0
 40
0.0
 40
0.0
 40
0.0
 40
0.0608364735253787
 40
0.5402533768652368
 40
0.9999999999999999
 40
0.9999999999999999
 40
0.9999999999999999
 40
0.9999999999999999
 10
18.79051454229445
 20
-3.161750595652951
 30
0.0
 10
18.80303028420859
 20
-3.163551617271544
 30
0.0
 10
18.914175316806
 20
-3.179545443916447
 30
0.0
 10
19.126885503741
 20
-3.132317414772916
 30
0.0
 10
19.30093410513233
 20
-3.041052089055654
 30
0.0
 10
19.38613572816742
 20
-2.996375178033238
 30
0.0
  0
LINE
  5
A0
330
1F
100
AcDbEntity
  8
외형선
  6
Continuous
 62
     1
370
    15
100
AcDbLine
 10
18.37844475427978
 20
3.033111270518155
 30
0.0
 11
18.33327204302817
 21
3.005695842799372
 31
0.0
  0
SPLINE
  5
A1
330
1F
100
AcDbEntity
  8
외형선
  6
Continuous
 62
     1
370
    15
100
AcDbSpline
210
0.0
220
0.0
230
1.0
 70
     8
 71
     3
 72
     9
 73
     5
 74
     0
 42
0.000000001
 43
0.00000001
 40
0.0
 40
0.0
 40
0.0
 40
0.0
 40
0.3764830102137072
 40
1.0
 40
1.0
 40
1.0
 40
1.0
 10
11.35795935015919
 20
3.164874517246606
 30
0.0
 10
11.34635355810662
 20
3.166377845151945
 30
0.0
 10
11.31552669012664
 20
3.170370928145211
 30
0.0
 10
11.28471961585281
 20
3.166339814088649
 30
0.0
 10
11.26551088163747
 20
3.163826345986617
 30
0.0
  0
LINE
  5
A2
330
1F
100
AcDbEntity
  8
외형선
  6
Continuous
 62
     1
370
    15
100
AcDbLine
 10
11.90168027697015
 20
-2.981167070473215
 30
0.0
 11
11.91228363744215
 21
-2.982951621613693
 31
0.0
  0
SPLINE
  5
A3
330
1F
100
AcDbEntity
  8
외형선
  6
Continuous
 62
     1
370
    15
100
AcDbSpline
210
0.0
220
0.0
230
1.0
 70
     8
 71
     3
 72
     9
 73
     5
 74
     0
 42
0.000000001
 43
0.00000001
 40
0.0
 40
0.0
 40
0.0
 40
0.0
 40
0.4227071728586732
 40
1.0
 40
1.0
 40
1.0
 40
1.0
 10
12.18027144850027
 20
-3.043846985366651
 30
0.0
 10
12.23138918219184
 20
-3.071726579179495
 30
0.0
 10
12.35231860325151
 20
-3.137681442505567
 30
0.0
 10
12.48866232668857
 20
-3.15921114948962
 30
0.0
 10
12.56737258025453
 20
-3.171640094901969
 30
0.0
  0
SPLINE
  5
A4
330
1F
100
AcDbEntity
  8
외형선
  6
Continuous
 62
     1
370
    15
100
AcDbSpline
210
0.0
220
0.0
230
1.0
 70
     8
 71
     3
 72
     9
 73
     5
 74
     0
 42
0.000000001
 43
0.00000001
 40
0.0
 40
0.0
 40
0.0
 40
0.0
 40
0.7748658721556556
 40
1.0
 40
1.0
 40
1.0
 40
1.0
 10
18.31770952820327
 20
2.993055821659269
 30
0.0
 10
18.30180345957641
 20
2.986114696409609
 30
0.0
 10
18.28127594739858
 20
2.977156855447599
 30
0.0
 10
18.2542608006967
 20
2.977287249815986
 30
0.0
 10
18.24817876920538
 20
2.977316606038389
 30
0.0
  0
SPLINE
  5
A5
330
1F
100
AcDbEntity
  8
외형선
  6
Continuous
 62
     1
370
    15
100
AcDbSpline
210
0.0
220
0.0
230
1.0
 70
     8
 71
     3
 72
    11
 73
     7
 74
     0
 42
0.000000001
 43
0.00000001
 40
0.0
 40
0.0
 40
0.0
 40
0.0
 40
0.1546598574982052
 40
0.4721277911710424
 40
0.756202428712649
 40
1.0
 40
1.0
 40
1.0
 40
1.0
 10
17.94864365396367
 20
3.080695975529333
 30
0.0
 10
17.89960190823513
 20
3.104426622021352
 30
0.0
 10
17.74989291806449
 20
3.176868805096995
 30
0.0
 10
17.48278730039706
 20
3.184280349496254
 30
0.0
 10
17.19871588750231
 20
3.130324405302982
 30
0.0
 10
17.04461020014264
 20
3.044402085076771
 30
0.0
 10
16.97343654926375
 20
3.004718895395323
 30
0.0
  0
SPLINE
  5
A6
330
1F
100
AcDbEntity
  8
외형선
  6
Continuous
 62
     1
370
    15
100
AcDbSpline
210
0.0
220
0.0
230
1.0
 70
     8
 71
     3
 72
     9
 73
     5
 74
     0
 42
0.000000001
 43
0.00000001
 40
0.0
 40
0.0
 40
0.0
 40
0.0
 40
0.5012822700912796
 40
1.0
 40
1.0
 40
1.0
 40
1.0
 10
11.28536883461507
 20
3.173182216567641
 30
0.0
 10
11.20591577348141
 20
3.158482147708419
 30
0.0
 10
11.04741612991892
 20
3.129157214958364
 30
0.0
 10
10.90623913453501
 20
3.047858755330184
 30
0.0
 10
10.83583166388181
 20
3.007313772099342
 30
0.0
  0
LINE
  5
A7
330
1F
100
AcDbEntity
  8
외형선
  6
Continuous
370
    15
100
AcDbLine
 10
5.924630657015581
 20
-3.174999999999999
 30
0.0
 11
6.924630657015582
 21
-3.01340753964677
 31
0.0
  0
SPLINE
  5
A8
330
1F
100
AcDbEntity
  8
외형선
  6
Continuous
 62
     1
370
    15
100
AcDbSpline
210
0.0
220
0.0
230
1.0
 70
     8
 71
     3
 72
     9
 73
     5
 74
     0
 42
0.000000001
 43
0.00000001
 40
0.0
 40
0.0
 40
0.0
 40
0.0
 40
0.5018996984480886
 40
1.0
 40
1.0
 40
1.0
 40
1.0
 10
12.55252881283143
 20
-3.174869128545003
 30
0.0
 10
12.63373300524653
 20
-3.160448362357946
 30
0.0
 10
12.79552667172249
 20
-3.131715995648726
 30
0.0
 10
12.94073065758999
 20
-3.048373954540422
 30
0.0
 10
13.01305680673712
 20
-3.006861258732425
 30
0.0
  0
SPLINE
  5
A9
330
1F
100
AcDbEntity
  8
외형선
  6
Continuous
 62
     1
370
    15
100
AcDbSpline
210
0.0
220
0.0
230
1.0
 70
     8
 71
     3
 72
     9
 73
     5
 74
     0
 42
0.000000001
 43
0.00000001
 40
0.0
 40
0.0
 40
0.0
 40
0.0
 40
0.5003136523618822
 40
1.0
 40
1.0
 40
1.0
 40
1.0
 10
19.37086617555987
 20
-3.007014701984385
 30
0.0
 10
19.40944597725381
 20
-2.99012643687671
 30
0.0
 10
19.48655720840213
 20
-2.956371081555208
 30
0.0
 10
19.56361940433516
 20
-2.995211621182844
 30
0.0
 10
19.60212633156191
 20
-3.014619708569671
 30
0.0
  0
SPLINE
  5
AA
330
1F
100
AcDbEntity
  8
외형선
  6
Continuous
 62
     1
370
    15
100
AcDbSpline
210
0.0
220
0.0
230
1.0
 70
     8
 71
     3
 72
     9
 73
     5
 74
     0
 42
0.000000001
 43
0.00000001
 40
0.0
 40
0.0
 40
0.0
 40
0.0
 40
0.4982172149998906
 40
1.0
 40
1.0
 40
1.0
 40
1.0
 10
19.58321751166588
 20
-3.005659970151756
 30
0.0
 10
19.65453993486315
 20
-3.04684845386982
 30
0.0
 10
19.79769521141714
 20
-3.129520193179495
 30
0.0
 10
19.95774558461107
 20
-3.15902780446017
 30
0.0
 10
20.03805610661262
 20
-3.173834215827289
 30
0.0
  0
SPLINE
  5
AB
330
1F
100
AcDbEntity
  8
외형선
  6
Continuous
 62
     1
370
    15
100
AcDbSpline
210
0.0
220
0.0
230
1.0
 70
     8
 71
     3
 72
     9
 73
     5
 74
     0
 42
0.000000001
 43
0.00000001
 40
0.0
 40
0.0
 40
0.0
 40
0.0
 40
0.4955368919979904
 40
1.0
 40
1.0
 40
1.0
 40
1.0
 10
10.83174955914867
 20
3.004672242892516
 30
0.0
 10
10.80528003546805
 20
2.989775255014362
 30
0.0
 10
10.75186418670267
 20
2.959712936509498
 30
0.0
 10
10.66090688381367
 20
2.993108294906067
 30
0.0
 10
10.6150222801028
 20
3.009955021195642
 30
0.0
  0
SPLINE
  5
AC
330
1F
100
AcDbEntity
  8
외형선
  6
Continuous
 62
     1
370
    15
100
AcDbSpline
210
0.0
220
0.0
230
1.0
 70
     8
 71
     3
 72
    11
 73
     7
 74
     0
 42
0.000000001
 43
0.00000001
 40
0.0
 40
0.0
 40
0.0
 40
0.0
 40
0.2452018148073688
 40
0.5004462761097018
 40
0.7554600654863651
 40
1.0
 40
1.0
 40
1.0
 40
1.0
 10
10.62552623430783
 20
3.004220434326631
 30
0.0
 10
10.53697882245427
 20
3.051659625617066
 30
0.0
 10
10.35625739281853
 20
3.148480958858848
 30
0.0
 10
10.04901855356476
 20
3.188505405273037
 30
0.0
 10
9.74190364455561
 20
3.148583391917356
 30
0.0
 10
9.561302021642188
 20
3.05176276128631
 30
0.0
 10
9.472894495227667
 20
3.004367437136381
 30
0.0
  0
SPLINE
  5
AD
330
1F
100
AcDbEntity
  8
외형선
  6
Continuous
 62
     1
370
    15
100
AcDbSpline
210
0.0
220
0.0
230
1.0
 70
     8
 71
     3
 72
     9
 73
     5
 74
     0
 42
0.000000001
 43
0.00000001
 40
0.0
 40
0.0
 40
0.0
 40
0.0
 40
0.4915030826388424
 40
1.0
 40
1.0
 40
1.0
 40
1.0
 10
13.01704682710714
 20
-3.00429202962732
 30
0.0
 10
13.04936663074848
 20
-2.98984769186663
 30
0.0
 10
13.11512370284622
 20
-2.960459599968734
 30
0.0
 10
13.18630400130499
 20
-2.989394182210289
 30
0.0
 10
13.22249896364812
 20
-3.004107328085253
 30
0.0
  0
SPLINE
  5
AE
330
1F
100
AcDbEntity
  8
외형선
  6
Continuous
 62
     1
370
    15
100
AcDbSpline
210
0.0
220
0.0
230
1.0
 70
     8
 71
     3
 72
    11
 73
     7
 74
     0
 42
0.000000001
 43
0.00000001
 40
0.0
 40
0.0
 40
0.0
 40
0.0
 40
0.2857136433726779
 40
0.5554023562612067
 40
0.7955083930276559
 40
1.0
 40
1.0
 40
1.0
 40
1.0
 10
13.22346288796287
 20
-3.004735825541236
 30
0.0
 10
13.33000516667878
 20
-3.059647698230743
 30
0.0
 10
13.53711404654095
 20
-3.166391580386507
 30
0.0
 10
13.86748542882951
 20
-3.186484520036553
 30
0.0
 10
14.15390864454329
 20
-3.128339050139648
 30
0.0
 10
14.30976507604732
 20
-3.040496346296333
 30
0.0
 10
14.38145086337452
 20
-3.000093307902661
 30
0.0
  0
SPLINE
  5
AF
330
1F
100
AcDbEntity
  8
외형선
  6
Continuous
 62
     1
370
    15
100
AcDbSpline
210
0.0
220
0.0
230
1.0
 70
     8
 71
     3
 72
     9
 73
     5
 74
     0
 42
0.000000001
 43
0.00000001
 40
0.0
 40
0.0
 40
0.0
 40
0.0
 40
0.5019120070499137
 40
1.0
 40
1.0
 40
1.0
 40
1.0
 10
20.05335419504527
 20
-3.174803089399625
 30
0.0
 10
20.13458096720215
 20
-3.160299473672577
 30
0.0
 10
20.29641565339406
 20
-3.131402743721253
 30
0.0
 10
20.44167144441793
 20
-3.047872288321149
 30
0.0
 10
20.5140216098334
 20
-3.006266771440705
 30
0.0
  0
SPLINE
  5
B0
330
1F
100
AcDbEntity
  8
외형선
  6
Continuous
 62
     1
370
    15
100
AcDbSpline
210
0.0
220
0.0
230
1.0
 70
     8
 71
     3
 72
     9
 73
     5
 74
     0
 42
0.000000001
 43
0.00000001
 40
0.0
 40
0.0
 40
0.0
 40
0.0
 40
0.4989280017186813
 40
1.0
 40
1.0
 40
1.0
 40
1.0
 10
16.97479356847221
 20
3.005573408278158
 30
0.0
 10
16.93939262851068
 20
2.990255605104233
 30
0.0
 10
16.86843862344465
 20
2.959554174995763
 30
0.0
 10
16.79893067621353
 20
2.990640073747164
 30
0.0
 10
16.76410219019801
 20
3.0062163471529
 30
0.0
  0
LINE
  5
B1
330
1F
100
AcDbEntity
  8
외형선
  6
Continuous
 62
     1
370
    15
100
AcDbLine
 10
6.924630657015582
 20
-3.174999999999998
 30
0.0
 11
7.548957594751407
 21
-3.174999999999998
 31
0.0
  0
SPLINE
  5
B2
330
1F
100
AcDbEntity
  8
외형선
  6
Continuous
 62
     1
370
    15
100
AcDbSpline
210
0.0
220
0.0
230
1.0
 70
     8
 71
     3
 72
     9
 73
     5
 74
     0
 42
0.000000001
 43
0.00000001
 40
0.0
 40
0.0
 40
0.0
 40
0.0
 40
0.4980005412706978
 40
1.0
 40
1.0
 40
1.0
 40
1.0
 10
16.76667324408202
 20
3.004544968630292
 30
0.0
 10
16.6941157712961
 20
3.046484358057529
 30
0.0
 10
16.54841819313526
 20
3.130699907944734
 30
0.0
 10
16.38622873890112
 20
3.159963588705737
 30
0.0
 10
16.30480972066398
 20
3.174653940608189
 30
0.0
  0
SPLINE
  5
B3
330
1F
100
AcDbEntity
  8
외형선
  6
Continuous
 62
     1
370
    15
100
AcDbSpline
210
0.0
220
0.0
230
1.0
 70
     8
 71
     3
 72
     9
 73
     5
 74
     0
 42
0.000000001
 43
0.00000001
 40
0.0
 40
0.0
 40
0.0
 40
0.0
 40
0.5123012412577853
 40
1.0
 40
1.0
 40
1.0
 40
1.0
 10
20.51661087584445
 20
-3.004586946707376
 30
0.0
 10
20.55133325761435
 20
-2.989608755013809
 30
0.0
 10
20.61911053194739
 20
-2.960371676343467
 30
0.0
 10
20.68839923991892
 20
-2.989632414996092
 30
0.0
 10
20.72219125679148
 20
-3.003902840916858
 30
0.0
  0
SPLINE
  5
B4
330
1F
100
AcDbEntity
  8
외형선
  6
Continuous
 62
     1
370
    15
100
AcDbSpline
210
0.0
220
0.0
230
1.0
 70
     8
 71
     3
 72
    10
 73
     6
 74
     0
 42
0.000000001
 43
0.00000001
 40
0.0
 40
0.0
 40
0.0
 40
0.0
 40
0.3557913254951289
 40
0.726898865516636
 40
1.0
 40
1.0
 40
1.0
 40
1.0
 10
20.7280463848688
 20
-3.007474605647185
 30
0.0
 10
20.81410777398983
 20
-3.052831327989253
 30
0.0
 10
20.98993534940862
 20
-3.14549730282189
 30
0.0
 10
21.26558980904556
 20
-3.190486434599014
 30
0.0
 10
21.43758317554852
 20
-3.157535686183963
 30
0.0
 10
21.51049679092582
 20
-3.143566785841006
 30
0.0
  0
SPLINE
  5
B5
330
1F
100
AcDbEntity
  8
외형선
  6
Continuous
 62
     1
370
    15
100
AcDbSpline
210
0.0
220
0.0
230
1.0
 70
     8
 71
     3
 72
     9
 73
     5
 74
     0
 42
0.000000001
 43
0.00000001
 40
0.0
 40
0.0
 40
0.0
 40
0.0
 40
0.7434401919103509
 40
1.0
 40
1.0
 40
1.0
 40
1.0
 10
16.29735224228985
 20
3.17497660696354
 30
0.0
 10
16.21766111959783
 20
3.163129875792529
 30
0.0
 10
16.11046874076334
 20
3.147194860037502
 30
0.0
 10
16.01510367747586
 20
3.09649143045311
 30
0.0
 10
15.99063683514037
 20
3.083482968289452
 30
0.0
  0
SPLINE
  5
B6
330
1F
100
AcDbEntity
  8
외형선
  6
Continuous
 62
     1
370
    15
100
AcDbSpline
210
0.0
220
0.0
230
1.0
 70
     8
 71
     3
 72
     9
 73
     5
 74
     0
 42
0.000000001
 43
0.00000001
 40
0.0
 40
0.0
 40
0.0
 40
0.0
 40
0.4994216699859588
 40
1.0
 40
1.0
 40
1.0
 40
1.0
 10
9.489593521283847
 20
3.012561696214152
 30
0.0
 10
9.451421411183368
 20
2.993984624558351
 30
0.0
 10
9.374988784418184
 20
2.956787456769611
 30
0.0
 10
9.29952153190137
 20
2.990677811164172
 30
0.0
 10
9.261744260665756
 20
3.007642588170584
 30
0.0
  0
LINE
  5
B7
330
1F
100
AcDbEntity
  8
외형선
  6
Continuous
 62
     1
370
    15
100
AcDbLine
 10
7.537682392638721
 20
-3.173752216925306
 30
0.0
 11
7.667761259325119
 21
-3.144009452999085
 31
0.0
  0
SPLINE
  5
B8
330
1F
100
AcDbEntity
  8
외형선
  6
Continuous
 62
     1
370
    15
100
AcDbSpline
210
0.0
220
0.0
230
1.0
 70
     8
 71
     3
 72
    11
 73
     7
 74
     0
 42
0.000000001
 43
0.00000001
 40
0.0
 40
0.0
 40
0.0
 40
0.0
 40
0.2485605739771485
 40
0.5002585116045066
 40
0.7518437674845069
 40
1.0
 40
1.0
 40
1.0
 40
1.0
 10
14.34355526778765
 20
-3.015335530595629
 30
0.0
 10
14.36147727645918
 20
-3.004068188839163
 30
0.0
 10
14.39754750770916
 20
-2.981391287484134
 30
0.0
 10
14.46403626204595
 20
-2.969582857572791
 30
0.0
 10
14.53045201747227
 20
-2.977060058515985
 30
0.0
 10
14.5664419042108
 20
-2.996644560788832
 30
0.0
 10
14.58431337357862
 20
-3.006369621470355
 30
0.0
  0
SPLINE
  5
B9
330
1F
100
AcDbEntity
  8
외형선
  6
Continuous
 62
     1
370
    15
100
AcDbSpline
210
0.0
220
0.0
230
1.0
 70
     8
 71
     3
 72
     9
 73
     5
 74
     0
 42
0.000000001
 43
0.00000001
 40
0.0
 40
0.0
 40
0.0
 40
0.0
 40
0.7175301042298378
 40
1.0
 40
1.0
 40
1.0
 40
1.0
 10
9.267018022960677
 20
3.004311622813911
 30
0.0
 10
9.197464341738726
 20
3.046800227570723
 30
0.0
 10
9.100529480313497
 20
3.106015310681999
 30
0.0
 10
8.991449005609935
 20
3.129373968276914
 30
0.0
 10
8.96063705528986
 20
3.135972085853082
 30
0.0
  0
LINE
  5
BA
330
1F
100
AcDbEntity
  8
외형선
  6
Continuous
 62
     1
370
    15
100
AcDbLine
 10
22.79963065701558
 20
2.975000000000001
 30
0.0
 11
22.60140623716281
 21
3.173224419852774
 31
0.0
  0
LINE
  5
BB
330
1F
100
AcDbEntity
  8
외형선
  6
Continuous
 62
     1
370
    15
100
AcDbLine
 10
15.77511849081723
 20
2.984632991352777
 30
0.0
 11
15.73812704589462
 21
2.979426310592446
 31
0.0
  0
LINE
  5
BC
330
1F
100
AcDbEntity
  8
외형선
  6
Continuous
 62
     1
370
    15
100
AcDbLine
 10
15.70291493440984
 20
2.978314476631723
 30
0.0
 11
15.63115917123834
 21
3.000311538314722
 31
0.0
  0
LINE
  5
BD
330
1F
100
AcDbEntity
  8
외형선
  6
Continuous
 62
     1
370
    15
100
AcDbLine
 10
22.60046631517237
 20
3.161646995100222
 30
0.0
 11
22.37799954658496
 21
3.157641819336117
 31
0.0
  0
LINE
  5
BE
330
1F
100
AcDbEntity
  8
외형선
  6
Continuous
 62
     1
370
    15
100
AcDbLine
 10
14.57074858363712
 20
-2.995906035467538
 30
0.0
 11
14.7255483842357
 21
-3.075212923829755
 31
0.0
  0
SPLINE
  5
BF
330
1F
100
AcDbEntity
  8
외형선
  6
Continuous
 62
     1
370
    15
100
AcDbSpline
210
0.0
220
0.0
230
1.0
 70
     8
 71
     3
 72
     9
 73
     5
 74
     0
 42
0.000000001
 43
0.00000001
 40
0.0
 40
0.0
 40
0.0
 40
0.0
 40
0.5987266376273047
 40
1.0
 40
1.0
 40
1.0
 40
1.0
 10
15.39870900396072
 20
3.109889961195073
 30
0.0
 10
15.39398156784107
 20
3.112884425067836
 30
0.0
 10
15.38608575058065
 20
3.117885812486693
 30
0.0
 10
15.37722722443812
 20
3.118998543476772
 30
0.0
 10
15.37367253386724
 20
3.119445052782577
 30
0.0
  0
SPLINE
  5
C0
330
1F
100
AcDbEntity
  8
외형선
  6
Continuous
 62
     1
370
    15
100
AcDbSpline
210
0.0
220
0.0
230
1.0
 70
     8
 71
     3
 72
     9
 73
     5
 74
     0
 42
0.000000001
 43
0.00000001
 40
0.0
 40
0.0
 40
0.0
 40
0.0
 40
0.0030573714246016
 40
1.0
 40
1.0
 40
1.0
 40
1.0
 10
8.276903761938893
 20
-3.030570491329902
 30
0.0
 10
8.276947657012906
 20
-3.030604017027775
 30
0.0
 10
8.291304785380941
 20
-3.041569546960709
 30
0.0
 10
8.306392802487306
 20
-3.048417545550168
 30
0.0
 10
8.321434689921315
 20
-3.055244607264424
 30
0.0
  0
LINE
  5
C1
330
1F
100
AcDbEntity
  8
외형선
  6
Continuous
370
    15
100
AcDbLine
 10
0.0
 20
4.762500000000001
 30
0.0
 11
0.0
 21
-4.762500000000001
 31
0.0
  0
SPLINE
  5
C2
330
1F
100
AcDbEntity
  8
외형선
  6
Continuous
370
    15
100
AcDbSpline
210
0.0
220
0.0
230
1.0
 70
     8
 71
     3
 72
     8
 73
     4
 74
     0
 42
0.000000001
 43
0.00000001
 40
0.0
 40
0.0
 40
0.0
 40
0.0
 40
1.0
 40
1.0
 40
1.0
 40
1.0
 10
5.40495785963841
 20
1.729294076713138
 30
0.0
 10
5.549322151822356
 20
1.583263396751285
 30
0.0
 10
5.693561984063855
 20
1.434955206174822
 30
0.0
 10
5.839761340654793
 20
1.28618896102634
 30
0.0
  0
LINE
  5
C3
330
1F
100
AcDbEntity
  8
외형선
  6
Continuous
370
    15
100
AcDbLine
 10
5.404957859637919
 20
1.729306336585229
 30
0.0
 11
5.404957859637919
 21
-2.073018855311103
 31
0.0
  0
SPLINE
  5
C4
330
1F
100
AcDbEntity
  8
외형선
  6
Continuous
370
    15
100
AcDbSpline
210
0.0
220
0.0
230
1.0
 70
     8
 71
     3
 72
     8
 73
     4
 74
     0
 42
0.000000001
 43
0.00000001
 40
0.0
 40
0.0
 40
0.0
 40
0.0
 40
1.0
 40
1.0
 40
1.0
 40
1.0
 10
5.404957859637919
 20
-2.073018855311103
 30
0.0
 10
5.388155868287617
 20
-2.185151499747608
 30
0.0
 10
5.371477349494031
 20
-2.292636920570013
 30
0.0
 10
5.355186669300247
 20
-2.393659558859999
 30
0.0
  0
LINE
  5
C5
330
1F
100
AcDbEntity
  8
외형선
  6
Continuous
370
    15
100
AcDbLine
 10
5.355186669300245
 20
-2.393659558859998
 30
0.0
 11
5.489724552149845
 21
-2.36772787906835
 31
0.0
  0
SPLINE
  5
C6
330
1F
100
AcDbEntity
  8
외형선
  6
Continuous
370
    15
100
AcDbSpline
210
0.0
220
0.0
230
1.0
 70
     8
 71
     3
 72
     8
 73
     4
 74
     0
 42
0.000000001
 43
0.00000001
 40
0.0
 40
0.0
 40
0.0
 40
0.0
 40
1.0
 40
1.0
 40
1.0
 40
1.0
 10
5.924630657015581
 20
-2.559183695341877
 30
0.0
 10
5.777334755000048
 20
-2.506343107651655
 30
0.0
 10
5.632810538701651
 20
-2.442388708113465
 30
0.0
 10
5.489724552149845
 20
-2.3677278790734
 30
0.0
  0
LINE
  5
C7
330
1F
100
AcDbEntity
  8
외형선
  6
Continuous
370
    15
100
AcDbLine
 10
5.924630657015581
 20
-2.559183695341877
 30
0.0
 11
5.924630657015581
 21
-3.174999999999999
 31
0.0
  0
LINE
  5
C8
330
1F
100
AcDbEntity
  8
외형선
  6
Continuous
370
    15
100
AcDbLine
 10
5.404957859638412
 20
-3.313182507403138
 30
0.0
 11
5.487760833674031
 21
-3.289776257483287
 31
0.0
  0
LINE
  5
C9
330
1F
100
AcDbEntity
  8
외형선
  6
Continuous
370
    15
100
AcDbLine
 10
5.404957859637919
 20
-3.313182143346973
 30
0.0
 11
5.404957859637919
 21
-3.314245906385767
 31
0.0
  0
LINE
  5
CA
330
1F
100
AcDbEntity
  8
외형선
  6
Continuous
370
    15
100
AcDbLine
 10
5.404957859637917
 20
3.314245906385768
 30
0.0
 11
5.404957859637917
 21
3.208919343153995
 31
0.0
  0
SPLINE
  5
CB
330
1F
100
AcDbEntity
  8
외형선
  6
Continuous
370
    15
100
AcDbSpline
210
0.0
220
0.0
230
1.0
 70
     8
 71
     3
 72
     8
 73
     4
 74
     0
 42
0.000000001
 43
0.00000001
 40
0.0
 40
0.0
 40
0.0
 40
0.0
 40
1.0
 40
1.0
 40
1.0
 40
1.0
 10
5.924630657015581
 20
2.906983275730637
 30
0.0
 10
5.748221774647327
 20
3.019145336290303
 30
0.0
 10
5.576020822106051
 20
3.120283091496524
 30
0.0
 10
5.40495785963841
 20
3.208924134715993
 30
0.0
  0
LINE
  5
CC
330
1F
100
AcDbEntity
  8
외형선
  6
Continuous
370
    15
100
AcDbLine
 10
5.924630657015581
 20
2.906983275730636
 30
0.0
 11
5.924630657015581
 21
1.86602276321812
 31
0.0
  0
SPLINE
  5
CD
330
1F
100
AcDbEntity
  8
외형선
  6
Continuous
370
    15
100
AcDbSpline
210
0.0
220
0.0
230
1.0
 70
     8
 71
     3
 72
     8
 73
     4
 74
     0
 42
0.000000001
 43
0.00000001
 40
0.0
 40
0.0
 40
0.0
 40
0.0
 40
1.0
 40
1.0
 40
1.0
 40
1.0
 10
5.923940837985647
 20
1.866655972506392
 30
0.0
 10
5.89491727348523
 20
1.685126853198641
 30
0.0
 10
5.867446552019847
 20
1.491362338437906
 30
0.0
 10
5.839761340654799
 20
1.286188961026386
 30
0.0
  0
LINE
  5
CE
330
1F
100
AcDbEntity
  8
외형선
  6
Continuous
370
    15
100
AcDbLine
 10
-38.61286934298442
 20
4.762499999999997
 30
0.0
 11
-38.61286934298442
 21
-4.762500000000006
 31
0.0
  0
LINE
  5
CF
330
1F
100
AcDbEntity
  8
외형선
  6
Continuous
370
    15
100
AcDbLine
 10
-39.11286934298442
 20
4.262499999999996
 30
0.0
 11
-39.11286934298442
 21
-4.26250000000001
 31
0.0
  0
SPLINE
  5
D0
330
1F
100
AcDbEntity
  8
외형선
  6
Continuous
 62
     1
370
    15
100
AcDbSpline
210
0.0
220
0.0
230
1.0
 70
     8
 71
     3
 72
     8
 73
     4
 74
     0
 42
0.000000001
 43
0.00000001
 40
0.0
 40
0.0
 40
0.0
 40
0.0
 40
1.0
 40
1.0
 40
1.0
 40
1.0
 10
22.43585128305374
 20
-3.044295981158063
 30
0.0
 10
22.30179340869809
 20
-3.06441048131702
 30
0.0
 10
22.16997628280978
 20
-3.042282576947848
 30
0.0
 10
22.05196360035532
 20
-2.975255613672434
 30
0.0
  0
SPLINE
  5
D1
330
1F
100
AcDbEntity
  8
외형선
  6
Continuous
 62
     1
370
    15
100
AcDbSpline
210
0.0
220
0.0
230
1.0
 70
     8
 71
     3
 72
     8
 73
     4
 74
     0
 42
0.000000001
 43
0.00000001
 40
0.0
 40
0.0
 40
0.0
 40
0.0
 40
1.0
 40
1.0
 40
1.0
 40
1.0
 10
22.05196360035529
 20
-2.975255613672419
 30
0.0
 10
21.97846663058937
 20
-2.933511975693035
 30
0.0
 10
21.88334217325137
 20
-2.941335172549534
 30
0.0
 10
21.80521801620966
 20
-3.003298592348277
 30
0.0
  0
SPLINE
  5
D2
330
1F
100
AcDbEntity
  8
외형선
  6
Continuous
 62
     1
370
    15
100
AcDbSpline
210
0.0
220
0.0
230
1.0
 70
     8
 71
     3
 72
    10
 73
     6
 74
     0
 42
0.000000001
 43
0.00000001
 40
0.0
 40
0.0
 40
0.0
 40
0.0
 40
0.5
 40
0.5
 40
1.0
 40
1.0
 40
1.0
 40
1.0
 10
21.80521801620966
 20
-3.00329859234828
 30
0.0
 10
21.64976267066979
 20
-3.126596496612438
 30
0.0
 10
21.48512240880176
 20
-3.179660905151378
 30
0.0
 10
21.15287099133649
 20
-3.159787009317972
 30
0.0
 10
20.98745762260769
 20
-3.085390006911297
 30
0.0
 10
20.84112999594853
 20
-2.949996225813599
 30
0.0
  0
SPLINE
  5
D3
330
1F
100
AcDbEntity
  8
외형선
  6
Continuous
 62
     1
370
    15
100
AcDbSpline
210
0.0
220
0.0
230
1.0
 70
     8
 71
     3
 72
     8
 73
     4
 74
     0
 42
0.000000001
 43
0.00000001
 40
0.0
 40
0.0
 40
0.0
 40
0.0
 40
1.0
 40
1.0
 40
1.0
 40
1.0
 10
20.84112999594853
 20
-2.949996225813598
 30
0.0
 10
20.76769065276365
 20
-2.88204439346202
 30
0.0
 10
20.67294724975434
 20
-2.8590986402006
 30
0.0
 10
20.59524490168477
 20
-2.89505913352554
 30
0.0
  0
SPLINE
  5
D4
330
1F
100
AcDbEntity
  8
외형선
  6
Continuous
 62
     1
370
    15
100
AcDbSpline
210
0.0
220
0.0
230
1.0
 70
     8
 71
     3
 72
     8
 73
     4
 74
     0
 42
0.000000001
 43
0.00000001
 40
0.0
 40
0.0
 40
0.0
 40
0.0
 40
1.0
 40
1.0
 40
1.0
 40
1.0
 10
20.59524490168477
 20
-2.895059133525541
 30
0.0
 10
20.47254155417237
 20
-2.951846000573832
 30
0.0
 10
20.34182890744002
 20
-2.957188542648579
 30
0.0
 10
20.20966149376683
 20
-2.923298463024032
 30
0.0
  0
SPLINE
  5
D5
330
1F
100
AcDbEntity
  8
외형선
  6
Continuous
 62
     1
370
    15
100
AcDbSpline
210
0.0
220
0.0
230
1.0
 70
     8
 71
     3
 72
     8
 73
     4
 74
     0
 42
0.000000001
 43
0.00000001
 40
0.0
 40
0.0
 40
0.0
 40
0.0
 40
1.0
 40
1.0
 40
1.0
 40
1.0
 10
20.20966149376683
 20
-2.923298463024033
 30
0.0
 10
20.07534118871663
 20
-2.855121002308386
 30
0.0
 10
19.94348317587102
 20
-2.749399184709025
 30
0.0
 10
19.82564393396879
 20
-2.613686899941456
 30
0.0
  0
SPLINE
  5
D6
330
1F
100
AcDbEntity
  8
외형선
  6
Continuous
 62
     1
370
    15
100
AcDbSpline
210
0.0
220
0.0
230
1.0
 70
     8
 71
     3
 72
     8
 73
     4
 74
     0
 42
0.000000001
 43
0.00000001
 40
0.0
 40
0.0
 40
0.0
 40
0.0
 40
1.0
 40
1.0
 40
1.0
 40
1.0
 10
19.82564393396876
 20
-2.613686899941428
 30
0.0
 10
19.75240800009588
 20
-2.529343045105504
 30
0.0
 10
19.65761211923885
 20
-2.481164252109737
 30
0.0
 10
19.57936359652425
 20
-2.489430885542847
 30
0.0
  0
SPLINE
  5
D7
330
1F
100
AcDbEntity
  8
외형선
  6
Continuous
 62
     1
370
    15
100
AcDbSpline
210
0.0
220
0.0
230
1.0
 70
     8
 71
     3
 72
    10
 73
     6
 74
     0
 42
0.000000001
 43
0.00000001
 40
0.0
 40
0.0
 40
0.0
 40
0.0
 40
0.5
 40
0.5
 40
1.0
 40
1.0
 40
1.0
 40
1.0
 10
19.57936359652425
 20
-2.489430885542845
 30
0.0
 10
19.42362074335899
 20
-2.505884475109497
 30
0.0
 10
19.25855127766146
 20
-2.441661654335904
 30
0.0
 10
18.92644531517945
 20
-2.219557451123444
 30
0.0
 10
18.76206205866394
 20
-2.061640571280318
 30
0.0
 10
18.61562189185963
 20
-1.879504889093643
 30
0.0
  0
SPLINE
  5
D8
330
1F
100
AcDbEntity
  8
외형선
  6
Continuous
 62
     1
370
    15
100
AcDbSpline
210
0.0
220
0.0
230
1.0
 70
     8
 71
     3
 72
     8
 73
     4
 74
     0
 42
0.000000001
 43
0.00000001
 40
0.0
 40
0.0
 40
0.0
 40
0.0
 40
1.0
 40
1.0
 40
1.0
 40
1.0
 10
18.61562189185963
 20
-1.879504889093643
 30
0.0
 10
18.54218514946961
 20
-1.788167577311827
 30
0.0
 10
18.44712281746215
 20
-1.718725662146735
 30
0.0
 10
18.36935261870477
 20
-1.695536213272559
 30
0.0
  0
SPLINE
  5
D9
330
1F
100
AcDbEntity
  8
외형선
  6
Continuous
 62
     1
370
    15
100
AcDbSpline
210
0.0
220
0.0
230
1.0
 70
     8
 71
     3
 72
     8
 73
     4
 74
     0
 42
0.000000001
 43
0.00000001
 40
0.0
 40
0.0
 40
0.0
 40
0.0
 40
1.0
 40
1.0
 40
1.0
 40
1.0
 10
18.36935261870477
 20
-1.695536213272558
 30
0.0
 10
18.24627196354617
 20
-1.658836132704331
 30
0.0
 10
18.11529930683178
 20
-1.575185803226073
 30
0.0
 10
17.98315718864502
 20
-1.468905771814753
 30
0.0
  0
SPLINE
  5
DA
330
1F
100
AcDbEntity
  8
외형선
  6
Continuous
 62
     1
370
    15
100
AcDbSpline
210
0.0
220
0.0
230
1.0
 70
     8
 71
     3
 72
     8
 73
     4
 74
     0
 42
0.000000001
 43
0.00000001
 40
0.0
 40
0.0
 40
0.0
 40
0.0
 40
1.0
 40
1.0
 40
1.0
 40
1.0
 10
17.98315718864539
 20
-1.468905771816213
 30
0.0
 10
17.84893802104713
 20
-1.343256165201322
 30
0.0
 10
17.71770692880299
 20
-1.201156228446976
 30
0.0
 10
17.59974146932379
 20
-1.058738109672906
 30
0.0
  0
SPLINE
  5
DB
330
1F
100
AcDbEntity
  8
외형선
  6
Continuous
 62
     1
370
    15
100
AcDbSpline
210
0.0
220
0.0
230
1.0
 70
     8
 71
     3
 72
     8
 73
     4
 74
     0
 42
0.000000001
 43
0.00000001
 40
0.0
 40
0.0
 40
0.0
 40
0.0
 40
1.0
 40
1.0
 40
1.0
 40
1.0
 10
17.59974146932378
 20
-1.058738109673239
 30
0.0
 10
17.52668917462616
 20
-0.9705430530109217
 30
0.0
 10
17.43173333810184
 20
-0.8891450042640954
 30
0.0
 10
17.35359907794318
 20
-0.8402665601461206
 30
0.0
  0
SPLINE
  5
DC
330
1F
100
AcDbEntity
  8
외형선
  6
Continuous
 62
     1
370
    15
100
AcDbSpline
210
0.0
220
0.0
230
1.0
 70
     8
 71
     3
 72
    10
 73
     6
 74
     0
 42
0.000000001
 43
0.00000001
 40
0.0
 40
0.0
 40
0.0
 40
0.0
 40
0.5
 40
0.5
 40
1.0
 40
1.0
 40
1.0
 40
1.0
 10
17.35359907794318
 20
-0.8402665601461193
 30
0.0
 10
17.1975880883133
 20
-0.7426707753657849
 30
0.0
 10
17.03244807913708
 20
-0.590438603881867
 30
0.0
 10
16.70095290726385
 20
-0.2668308780987335
 30
0.0
 10
16.53664526078022
 20
-0.0973701323025968
 30
0.0
 10
16.38981338888714
 20
0.0480964464441952
 30
0.0
  0
SPLINE
  5
DD
330
1F
100
AcDbEntity
  8
외형선
  6
Continuous
 62
     1
370
    15
100
AcDbSpline
210
0.0
220
0.0
230
1.0
 70
     8
 71
     3
 72
     8
 73
     4
 74
     0
 42
0.000000001
 43
0.00000001
 40
0.0
 40
0.0
 40
0.0
 40
0.0
 40
1.0
 40
1.0
 40
1.0
 40
1.0
 10
16.38981338888714
 20
0.048096446444197
 30
0.0
 10
16.31618261688486
 20
0.1210425742539644
 30
0.0
 10
16.22096617762673
 20
0.2052820067058895
 30
0.0
 10
16.14313568905385
 20
0.2770789466694955
 30
0.0
  0
SPLINE
  5
DE
330
1F
100
AcDbEntity
  8
외형선
  6
Continuous
 62
     1
370
    15
100
AcDbSpline
210
0.0
220
0.0
230
1.0
 70
     8
 71
     3
 72
     8
 73
     4
 74
     0
 42
0.000000001
 43
0.00000001
 40
0.0
 40
0.0
 40
0.0
 40
0.0
 40
1.0
 40
1.0
 40
1.0
 40
1.0
 10
16.14313568905385
 20
0.2770789466694908
 30
0.0
 10
16.01979376128877
 20
0.3908592035472656
 30
0.0
 10
15.88876255494255
 20
0.5256127006561517
 30
0.0
 10
15.75684019052972
 20
0.6562685393736727
 30
0.0
  0
SPLINE
  5
DF
330
1F
100
AcDbEntity
  8
외형선
  6
Continuous
 62
     1
370
    15
100
AcDbSpline
210
0.0
220
0.0
230
1.0
 70
     8
 71
     3
 72
     8
 73
     4
 74
     0
 42
0.000000001
 43
0.00000001
 40
0.0
 40
0.0
 40
0.0
 40
0.0
 40
1.0
 40
1.0
 40
1.0
 40
1.0
 10
15.75684019053022
 20
0.6562685393713602
 30
0.0
 10
15.62326827643247
 20
0.7822161275711204
 30
0.0
 10
15.491948534216
 20
0.8950508264856185
 30
0.0
 10
15.37395439763603
 20
0.9785102283622372
 30
0.0
  0
SPLINE
  5
E0
330
1F
100
AcDbEntity
  8
외형선
  6
Continuous
 62
     1
370
    15
100
AcDbSpline
210
0.0
220
0.0
230
1.0
 70
     8
 71
     3
 72
     8
 73
     4
 74
     0
 42
0.000000001
 43
0.00000001
 40
0.0
 40
0.0
 40
0.0
 40
0.0
 40
1.0
 40
1.0
 40
1.0
 40
1.0
 10
15.373954397636
 20
0.978510228362248
 30
0.0
 10
15.30088989363322
 20
1.030190082795952
 30
0.0
 10
15.20593529051392
 20
1.107814530064879
 30
0.0
 10
15.12792089813879
 20
1.1915615918716
 30
0.0
  0
SPLINE
  5
E1
330
1F
100
AcDbEntity
  8
외형선
  6
Continuous
 62
     1
370
    15
100
AcDbSpline
210
0.0
220
0.0
230
1.0
 70
     8
 71
     3
 72
    10
 73
     6
 74
     0
 42
0.000000001
 43
0.00000001
 40
0.0
 40
0.0
 40
0.0
 40
0.0
 40
0.5
 40
0.5
 40
1.0
 40
1.0
 40
1.0
 40
1.0
 10
15.12792089813879
 20
1.1915615918716
 30
0.0
 10
14.9717959292038
 20
1.359158967495646
 30
0.0
 10
14.80709631027618
 20
1.530373796699275
 30
0.0
 10
14.47613012856497
 20
1.808110886755594
 30
0.0
 10
14.31072476675762
 20
1.910820153305346
 30
0.0
 10
14.16367983104949
 20
1.953502252434828
 30
0.0
  0
SPLINE
  5
E2
330
1F
100
AcDbEntity
  8
외형선
  6
Continuous
 62
     1
370
    15
100
AcDbSpline
210
0.0
220
0.0
230
1.0
 70
     8
 71
     3
 72
     8
 73
     4
 74
     0
 42
0.000000001
 43
0.00000001
 40
0.0
 40
0.0
 40
0.0
 40
0.0
 40
1.0
 40
1.0
 40
1.0
 40
1.0
 10
14.16367983104949
 20
1.95350225243483
 30
0.0
 10
14.0898464575704
 20
1.974933547234009
 30
0.0
 10
13.99450461836812
 20
2.035864794131554
 30
0.0
 10
13.91661207324735
 20
2.123696162027012
 30
0.0
  0
SPLINE
  5
E3
330
1F
100
AcDbEntity
  8
외형선
  6
Continuous
 62
     1
370
    15
100
AcDbSpline
210
0.0
220
0.0
230
1.0
 70
     8
 71
     3
 72
     8
 73
     4
 74
     0
 42
0.000000001
 43
0.00000001
 40
0.0
 40
0.0
 40
0.0
 40
0.0
 40
1.0
 40
1.0
 40
1.0
 40
1.0
 10
13.91661207324735
 20
2.123696162027013
 30
0.0
 10
13.79333662953325
 20
2.262701131405579
 30
0.0
 10
13.66308469824769
 20
2.387328744245364
 30
0.0
 10
13.5309327214682
 20
2.482106408049826
 30
0.0
  0
SPLINE
  5
E4
330
1F
100
AcDbEntity
  8
외형선
  6
Continuous
 62
     1
370
    15
100
AcDbSpline
210
0.0
220
0.0
230
1.0
 70
     8
 71
     3
 72
     8
 73
     4
 74
     0
 42
0.000000001
 43
0.00000001
 40
0.0
 40
0.0
 40
0.0
 40
0.0
 40
1.0
 40
1.0
 40
1.0
 40
1.0
 10
13.53093272146819
 20
2.482106408049832
 30
0.0
 10
13.3975264774698
 20
2.550335555037954
 30
0.0
 10
13.26599498828285
 20
2.582211557136006
 30
0.0
 10
13.1482539579311
 20
2.569075141164274
 30
0.0
  0
SPLINE
  5
E5
330
1F
100
AcDbEntity
  8
외형선
  6
Continuous
 62
     1
370
    15
100
AcDbSpline
210
0.0
220
0.0
230
1.0
 70
     8
 71
     3
 72
     8
 73
     4
 74
     0
 42
0.000000001
 43
0.00000001
 40
0.0
 40
0.0
 40
0.0
 40
0.0
 40
1.0
 40
1.0
 40
1.0
 40
1.0
 10
13.14825395793108
 20
2.569075141164271
 30
0.0
 10
13.07516358222206
 20
2.560920417394861
 30
0.0
 10
12.98024145719073
 20
2.599771695855169
 30
0.0
 10
12.90232875588267
 20
2.680362480516903
 30
0.0
  0
SPLINE
  5
E6
330
1F
100
AcDbEntity
  8
외형선
  6
Continuous
 62
     1
370
    15
100
AcDbSpline
210
0.0
220
0.0
230
1.0
 70
     8
 71
     3
 72
    10
 73
     6
 74
     0
 42
0.000000001
 43
0.00000001
 40
0.0
 40
0.0
 40
0.0
 40
0.0
 40
0.5
 40
0.5
 40
1.0
 40
1.0
 40
1.0
 40
1.0
 10
12.90232875588267
 20
2.680362480516904
 30
0.0
 10
12.74626848022955
 20
2.841786996138335
 30
0.0
 10
12.58231623150677
 20
2.953516925534334
 30
0.0
 10
12.24996570708032
 20
3.057462832171944
 30
0.0
 10
12.08432833177543
 20
3.047563657185426
 30
0.0
 10
11.93722123842357
 20
2.968216139301557
 30
0.0
  0
SPLINE
  5
E7
330
1F
100
AcDbEntity
  8
외형선
  6
Continuous
 62
     1
370
    15
100
AcDbSpline
210
0.0
220
0.0
230
1.0
 70
     8
 71
     3
 72
     8
 73
     4
 74
     0
 42
0.000000001
 43
0.00000001
 40
0.0
 40
0.0
 40
0.0
 40
0.0
 40
1.0
 40
1.0
 40
1.0
 40
1.0
 10
11.93722123842357
 20
2.968216139301557
 30
0.0
 10
11.86332824184188
 20
2.928359285806714
 30
0.0
 10
11.76808982960851
 20
2.937980446973424
 30
0.0
 10
11.69033098860272
 20
3.001569997644694
 30
0.0
  0
SPLINE
  5
E8
330
1F
100
AcDbEntity
  8
외형선
  6
Continuous
 62
     1
370
    15
100
AcDbSpline
210
0.0
220
0.0
230
1.0
 70
     8
 71
     3
 72
    10
 73
     6
 74
     0
 42
0.000000001
 43
0.00000001
 40
0.0
 40
0.0
 40
0.0
 40
0.0
 40
0.3576734707938262
 40
0.7501007905479663
 40
1.0
 40
1.0
 40
1.0
 40
1.0
 10
11.69033098860272
 20
3.001569997644701
 30
0.0
 10
11.65188747577559
 20
3.030003665472823
 30
0.0
 10
11.57126503179316
 20
3.089633798702208
 30
0.0
 10
11.45924511520711
 20
3.142609054626368
 30
0.0
 10
11.38599336146317
 20
3.156941290066209
 30
0.0
 10
11.35749453023131
 20
3.162517292524838
 30
0.0
  0
SPLINE
  5
E9
330
1F
100
AcDbEntity
  8
외형선
  6
Continuous
 62
     1
370
    15
100
AcDbSpline
210
0.0
220
0.0
230
1.0
 70
     8
 71
     3
 72
     8
 73
     4
 74
     0
 42
0.000000001
 43
0.00000001
 40
0.0
 40
0.0
 40
0.0
 40
0.0
 40
1.0
 40
1.0
 40
1.0
 40
1.0
 10
13.61504623959323
 20
2.451380616619286
 30
0.0
 10
13.73774151089142
 20
2.586787842937644
 30
0.0
 10
13.86811058257489
 20
2.69906033772666
 30
0.0
 10
14.00041860914718
 20
2.777205542068702
 30
0.0
  0
SPLINE
  5
EA
330
1F
100
AcDbEntity
  8
외형선
  6
Continuous
 62
     1
370
    15
100
AcDbSpline
210
0.0
220
0.0
230
1.0
 70
     8
 71
     3
 72
     8
 73
     4
 74
     0
 42
0.000000001
 43
0.00000001
 40
0.0
 40
0.0
 40
0.0
 40
0.0
 40
1.0
 40
1.0
 40
1.0
 40
1.0
 10
14.00041860914718
 20
2.777205542068691
 30
0.0
 10
14.13453103997452
 20
2.825378665051401
 30
0.0
 10
14.26649951351808
 20
2.834108031106031
 30
0.0
 10
14.38455292806283
 20
2.7969113098495
 30
0.0
  0
SPLINE
  5
EB
330
1F
100
AcDbEntity
  8
외형선
  6
Continuous
 62
     1
370
    15
100
AcDbSpline
210
0.0
220
0.0
230
1.0
 70
     8
 71
     3
 72
     8
 73
     4
 74
     0
 42
0.000000001
 43
0.00000001
 40
0.0
 40
0.0
 40
0.0
 40
0.0
 40
1.0
 40
1.0
 40
1.0
 40
1.0
 10
14.38455292806283
 20
2.796911309849495
 30
0.0
 10
14.4579020239853
 20
2.773800196240726
 30
0.0
 10
14.55292244057713
 20
2.799730057038318
 30
0.0
 10
14.63092734999388
 20
2.873701864424891
 30
0.0
  0
SPLINE
  5
EC
330
1F
100
AcDbEntity
  8
외형선
  6
Continuous
 62
     1
370
    15
100
AcDbSpline
210
0.0
220
0.0
230
1.0
 70
     8
 71
     3
 72
    12
 73
     8
 74
     0
 42
0.000000001
 43
0.00000001
 40
0.0
 40
0.0
 40
0.0
 40
0.0
 40
0.2499999999999993
 40
0.2499999999999993
 40
0.4999999999999987
 40
0.4999999999999987
 40
1.0
 40
1.0
 40
1.0
 40
1.0
 10
14.63092734999388
 20
2.873701864424893
 30
0.0
 10
14.7086568844042
 20
2.947412534569133
 30
0.0
 10
14.78737836947618
 20
3.005210909404529
 30
0.0
 10
14.95135851762888
 20
3.093134328568321
 30
0.0
 10
15.03380933596616
 20
3.121483044641892
 30
0.0
 10
15.28294080199486
 20
3.159574879626775
 30
0.0
 10
15.44831159018129
 20
3.120904207721246
 30
0.0
 10
15.59468497201557
 20
3.015266214554687
 30
0.0
  0
SPLINE
  5
ED
330
1F
100
AcDbEntity
  8
외형선
  6
Continuous
 62
     1
370
    15
100
AcDbSpline
210
0.0
220
0.0
230
1.0
 70
     8
 71
     3
 72
     8
 73
     4
 74
     0
 42
0.000000001
 43
0.00000001
 40
0.0
 40
0.0
 40
0.0
 40
0.0
 40
1.0
 40
1.0
 40
1.0
 40
1.0
 10
15.59468497201339
 20
3.015266214556731
 30
0.0
 10
15.66824060530337
 20
2.962180951448139
 30
0.0
 10
15.76302613300058
 20
2.957584603744442
 30
0.0
 10
15.84079223261062
 20
3.010083615381602
 30
0.0
  0
SPLINE
  5
EE
330
1F
100
AcDbEntity
  8
외형선
  6
Continuous
 62
     1
370
    15
100
AcDbSpline
210
0.0
220
0.0
230
1.0
 70
     8
 71
     3
 72
     8
 73
     4
 74
     0
 42
0.000000001
 43
0.00000001
 40
0.0
 40
0.0
 40
0.0
 40
0.0
 40
1.0
 40
1.0
 40
1.0
 40
1.0
 10
15.84079223260846
 20
3.010083615380143
 30
0.0
 10
15.96366846363258
 20
3.09303596498772
 30
0.0
 10
16.09456684853527
 20
3.127993164765805
 30
0.0
 10
16.22694353019316
 20
3.122013044636445
 30
0.0
  0
SPLINE
  5
EF
330
1F
100
AcDbEntity
  8
외형선
  6
Continuous
 62
     1
370
    15
100
AcDbSpline
210
0.0
220
0.0
230
1.0
 70
     8
 71
     3
 72
     8
 73
     4
 74
     0
 42
0.000000001
 43
0.00000001
 40
0.0
 40
0.0
 40
0.0
 40
0.0
 40
1.0
 40
1.0
 40
1.0
 40
1.0
 10
16.22694353019317
 20
3.122013044636443
 30
0.0
 10
16.36111561683104
 20
3.080278079820369
 30
0.0
 10
16.49285583512439
 20
2.997404520382871
 30
0.0
 10
16.61056580770948
 20
2.877780034939794
 30
0.0
  0
SPLINE
  5
F0
330
1F
100
AcDbEntity
  8
외형선
  6
Continuous
 62
     1
370
    15
100
AcDbSpline
210
0.0
220
0.0
230
1.0
 70
     8
 71
     3
 72
     8
 73
     4
 74
     0
 42
0.000000001
 43
0.00000001
 40
0.0
 40
0.0
 40
0.0
 40
0.0
 40
1.0
 40
1.0
 40
1.0
 40
1.0
 10
16.61056580770947
 20
2.87778003493979
 30
0.0
 10
16.68373402084384
 20
2.803421765587026
 30
0.0
 10
16.7784135786458
 20
2.771720811143469
 30
0.0
 10
16.85654213806336
 20
2.798726752031303
 30
0.0
  0
SPLINE
  5
F1
330
1F
100
AcDbEntity
  8
외형선
  6
Continuous
 62
     1
370
    15
100
AcDbSpline
210
0.0
220
0.0
230
1.0
 70
     8
 71
     3
 72
    10
 73
     6
 74
     0
 42
0.000000001
 43
0.00000001
 40
0.0
 40
0.0
 40
0.0
 40
0.0
 40
0.5
 40
0.5
 40
1.0
 40
1.0
 40
1.0
 40
1.0
 10
16.85654213806336
 20
2.798726752031303
 30
0.0
 10
17.01220843457356
 20
2.852534409987915
 30
0.0
 10
17.17725897191323
 20
2.824714215455343
 30
0.0
 10
17.50945138053121
 20
2.659310869195831
 30
0.0
 10
17.67393968593484
 20
2.521340417193304
 30
0.0
 10
17.82036337215611
 20
2.3453241485377
 30
0.0
  0
SPLINE
  5
F2
330
1F
100
AcDbEntity
  8
외형선
  6
Continuous
 62
     1
370
    15
100
AcDbSpline
210
0.0
220
0.0
230
1.0
 70
     8
 71
     3
 72
     8
 73
     4
 74
     0
 42
0.000000001
 43
0.00000001
 40
0.0
 40
0.0
 40
0.0
 40
0.0
 40
1.0
 40
1.0
 40
1.0
 40
1.0
 10
17.82036337215611
 20
2.3453241485377
 30
0.0
 10
17.89389670509141
 20
2.256929550511141
 30
0.0
 10
17.98904769817997
 20
2.199513990039899
 30
0.0
 10
18.06694395438241
 20
2.195120397363354
 30
0.0
  0
SPLINE
  5
F3
330
1F
100
AcDbEntity
  8
외형선
  6
Continuous
 62
     1
370
    15
100
AcDbSpline
210
0.0
220
0.0
230
1.0
 70
     8
 71
     3
 72
     8
 73
     4
 74
     0
 42
0.000000001
 43
0.00000001
 40
0.0
 40
0.0
 40
0.0
 40
0.0
 40
1.0
 40
1.0
 40
1.0
 40
1.0
 10
18.06694395438245
 20
2.19512039736337
 30
0.0
 10
18.19009687947091
 20
2.188174186901619
 30
0.0
 10
18.32112531780186
 20
2.130240145614628
 30
0.0
 10
18.45336339715937
 20
2.042819005423709
 30
0.0
  0
SPLINE
  5
F4
330
1F
100
AcDbEntity
  8
외형선
  6
Continuous
 62
     1
370
    15
100
AcDbSpline
210
0.0
220
0.0
230
1.0
 70
     8
 71
     3
 72
     8
 73
     4
 74
     0
 42
0.000000001
 43
0.00000001
 40
0.0
 40
0.0
 40
0.0
 40
0.0
 40
1.0
 40
1.0
 40
1.0
 40
1.0
 10
18.45336339715938
 20
2.042819005423713
 30
0.0
 10
18.58742073984055
 20
1.930094224595437
 30
0.0
 10
18.71851102881156
 20
1.792823819989388
 30
0.0
 10
18.83621988742621
 20
1.64510552873421
 30
0.0
  0
SPLINE
  5
F5
330
1F
100
AcDbEntity
  8
외형선
  6
Continuous
 62
     1
370
    15
100
AcDbSpline
210
0.0
220
0.0
230
1.0
 70
     8
 71
     3
 72
     8
 73
     4
 74
     0
 42
0.000000001
 43
0.00000001
 40
0.0
 40
0.0
 40
0.0
 40
0.0
 40
1.0
 40
1.0
 40
1.0
 40
1.0
 10
18.83621988742621
 20
1.645105528734208
 30
0.0
 10
18.90918666022391
 20
1.553536150499323
 30
0.0
 10
19.00407220428563
 20
1.479182299073513
 30
0.0
 10
19.08214943800511
 20
1.447205907964613
 30
0.0
  0
SPLINE
  5
F6
330
1F
100
AcDbEntity
  8
외형선
  6
Continuous
 62
     1
370
    15
100
AcDbSpline
210
0.0
220
0.0
230
1.0
 70
     8
 71
     3
 72
    10
 73
     6
 74
     0
 42
0.000000001
 43
0.00000001
 40
0.0
 40
0.0
 40
0.0
 40
0.0
 40
0.5
 40
0.5
 40
1.0
 40
1.0
 40
1.0
 40
1.0
 10
19.0821494380051
 20
1.447205907964614
 30
0.0
 10
19.23818936785374
 20
1.383300034411614
 30
0.0
 10
19.40342049325425
 20
1.25269715615891
 30
0.0
 10
19.73522064603828
 20
0.9459030545423718
 30
0.0
 10
19.8994919887706
 20
0.7710991208107835
 30
0.0
 10
20.04640784667378
 20
0.605266287488408
 30
0.0
  0
SPLINE
  5
F7
330
1F
100
AcDbEntity
  8
외형선
  6
Continuous
 62
     1
370
    15
100
AcDbSpline
210
0.0
220
0.0
230
1.0
 70
     8
 71
     3
 72
     8
 73
     4
 74
     0
 42
0.000000001
 43
0.00000001
 40
0.0
 40
0.0
 40
0.0
 40
0.0
 40
1.0
 40
1.0
 40
1.0
 40
1.0
 10
20.04640784667378
 20
0.605266287488409
 30
0.0
 10
20.12016830525213
 20
0.5220083873012736
 30
0.0
 10
20.21551507383416
 20
0.4381800004868797
 30
0.0
 10
20.29349030605895
 20
0.3789215602980872
 30
0.0
  0
SPLINE
  5
F8
330
1F
100
AcDbEntity
  8
외형선
  6
Continuous
 62
     1
370
    15
100
AcDbSpline
210
0.0
220
0.0
230
1.0
 70
     8
 71
     3
 72
     8
 73
     4
 74
     0
 42
0.000000001
 43
0.00000001
 40
0.0
 40
0.0
 40
0.0
 40
0.0
 40
1.0
 40
1.0
 40
1.0
 40
1.0
 10
20.29349030605898
 20
0.3789215602980898
 30
0.0
 10
20.41669798100254
 20
0.2852880509371217
 30
0.0
 10
20.54755186408578
 20
0.1608193670906238
 30
0.0
 10
20.67937329492617
 20
0.0314689573193033
 30
0.0
  0
SPLINE
  5
F9
330
1F
100
AcDbEntity
  8
외형선
  6
Continuous
 62
     1
370
    15
100
AcDbSpline
210
0.0
220
0.0
230
1.0
 70
     8
 71
     3
 72
     8
 73
     4
 74
     0
 42
0.000000001
 43
0.00000001
 40
0.0
 40
0.0
 40
0.0
 40
0.0
 40
1.0
 40
1.0
 40
1.0
 40
1.0
 10
20.67937329492617
 20
0.0314689573193032
 30
0.0
 10
20.81291264399115
 20
-0.1010515730411543
 30
0.0
 10
20.94397177426873
 20
-0.2297968635436866
 30
0.0
 10
21.06182589831332
 20
-0.3375958807924136
 30
0.0
  0
SPLINE
  5
FA
330
1F
100
AcDbEntity
  8
외형선
  6
Continuous
 62
     1
370
    15
100
AcDbSpline
210
0.0
220
0.0
230
1.0
 70
     8
 71
     3
 72
     8
 73
     4
 74
     0
 42
0.000000001
 43
0.00000001
 40
0.0
 40
0.0
 40
0.0
 40
0.0
 40
1.0
 40
1.0
 40
1.0
 40
1.0
 10
21.06182589831332
 20
-0.3375958807924094
 30
0.0
 10
21.13484320887319
 20
-0.4043834827054281
 30
0.0
 10
21.22976710686849
 20
-0.487372816719202
 30
0.0
 10
21.30776206888296
 20
-0.563684896503153
 30
0.0
  0
SPLINE
  5
FB
330
1F
100
AcDbEntity
  8
외형선
  6
Continuous
 62
     1
370
    15
100
AcDbSpline
210
0.0
220
0.0
230
1.0
 70
     8
 71
     3
 72
    10
 73
     6
 74
     0
 42
0.000000001
 43
0.00000001
 40
0.0
 40
0.0
 40
0.0
 40
0.0
 40
0.5
 40
0.5
 40
1.0
 40
1.0
 40
1.0
 40
1.0
 10
21.30776206888296
 20
-0.5636848965031518
 30
0.0
 10
21.46402100899176
 20
-0.716572267642972
 30
0.0
 10
21.62911301114243
 20
-0.8907031078821377
 30
0.0
 10
21.96015397026788
 20
-1.199804404428322
 30
0.0
 10
22.12563337668816
 20
-1.330524463303396
 30
0.0
 10
22.27286844058568
 20
-1.410647693094114
 30
0.0
  0
SPLINE
  5
FC
330
1F
100
AcDbEntity
  8
외형선
  6
Continuous
 62
     1
370
    15
100
AcDbSpline
210
0.0
220
0.0
230
1.0
 70
     8
 71
     3
 72
     8
 73
     4
 74
     0
 42
0.000000001
 43
0.00000001
 40
0.0
 40
0.0
 40
0.0
 40
0.0
 40
1.0
 40
1.0
 40
1.0
 40
1.0
 10
22.27286844058569
 20
-1.410647693094119
 30
0.0
 10
22.3467082461182
 20
-1.450830266115532
 30
0.0
 10
22.44201804673546
 20
-1.522907268494235
 30
0.0
 10
22.51987746606478
 20
-1.610078177560686
 30
0.0
  0
SPLINE
  5
FD
330
1F
100
AcDbEntity
  8
외형선
  6
Continuous
 62
     1
370
    15
100
AcDbSpline
210
0.0
220
0.0
230
1.0
 70
     8
 71
     3
 72
     8
 73
     4
 74
     0
 42
0.000000001
 43
0.00000001
 40
0.0
 40
0.0
 40
0.0
 40
0.0
 40
1.0
 40
1.0
 40
1.0
 40
1.0
 10
22.51987746606483
 20
-1.610078177560708
 30
0.0
 10
22.56698133865343
 20
-1.662815372744915
 30
0.0
 10
22.61524452700565
 20
-1.715212388163673
 30
0.0
 10
22.66417730115901
 20
-1.765984836495625
 30
0.0
  0
SPLINE
  5
FE
330
1F
100
AcDbEntity
  8
외형선
  6
Continuous
 62
     1
370
    15
100
AcDbSpline
210
0.0
220
0.0
230
1.0
 70
     8
 71
     3
 72
    10
 73
     6
 74
     0
 42
0.000000001
 43
0.00000001
 40
0.0
 40
0.0
 40
0.0
 40
0.0
 40
0.1677048801695189
 40
0.5792155191875216
 40
1.0
 40
1.0
 40
1.0
 40
1.0
 10
22.10705565657263
 20
-1.30509156735948
 30
0.0
 10
22.08686920010604
 20
-1.309281061000477
 30
0.0
 10
22.01714964960141
 20
-1.323750644306285
 30
0.0
 10
21.87991845253384
 20
-1.376816113038443
 30
0.0
 10
21.7615811095834
 20
-1.438032614300358
 30
0.0
 10
21.70175315165392
 20
-1.468981917122052
 30
0.0
  0
LINE
  5
FF
330
1F
100
AcDbEntity
  8
외형선
  6
Continuous
 62
     1
370
    15
100
AcDbLine
 10
22.79963065701558
 20
-1.720915759481668
 30
0.0
 11
22.71952968902524
 21
-1.709691086748119
 31
0.0
  0
SPLINE
  5
100
330
1F
100
AcDbEntity
  8
외형선
  6
Continuous
 62
     1
370
    15
100
AcDbSpline
210
0.0
220
0.0
230
1.0
 70
     8
 71
     3
 72
     9
 73
     5
 74
     0
 42
0.000000001
 43
0.00000001
 40
0.0
 40
0.0
 40
0.0
 40
0.0
 40
0.38155198527357
 40
1.0
 40
1.0
 40
1.0
 40
1.0
 10
22.59538502792098
 20
-1.69229450306787
 30
0.0
 10
22.47927825292886
 20
-1.679872524090924
 30
0.0
 10
22.17497692709809
 20
-1.647316071873703
 30
0.0
 10
21.88258336787453
 20
-1.537127698117505
 30
0.0
 10
21.70175315165392
 20
-1.468981917122051
 30
0.0
  0
LINE
  5
101
330
1F
100
AcDbEntity
  8
외형선
  6
Continuous
 62
     1
370
    15
100
AcDbLine
 10
22.79963065701558
 20
-2.744850377275418
 30
0.0
 11
22.79963065701558
 21
-1.720915759481669
 31
0.0
  0
SPLINE
  5
102
330
1F
100
AcDbEntity
  8
외형선
  6
Continuous
 62
     1
370
    15
100
AcDbSpline
210
0.0
220
0.0
230
1.0
 70
     8
 71
     3
 72
     8
 73
     4
 74
     0
 42
0.000000001
 43
0.00000001
 40
0.0
 40
0.0
 40
0.0
 40
0.0
 40
1.0
 40
1.0
 40
1.0
 40
1.0
 10
22.66684241180359
 20
-2.910303195659501
 30
0.0
 10
22.71045413567356
 20
-2.855608117487356
 30
0.0
 10
22.75466607557752
 20
-2.800433918096981
 30
0.0
 10
22.79963065701558
 20
-2.744850377284782
 30
0.0
  0
SPLINE
  5
103
330
1F
100
AcDbEntity
  8
외형선
  6
Continuous
 62
     1
370
    15
100
AcDbSpline
210
0.0
220
0.0
230
1.0
 70
     8
 71
     3
 72
     8
 73
     4
 74
     0
 42
0.000000001
 43
0.00000001
 40
0.0
 40
0.0
 40
0.0
 40
0.0
 40
1.0
 40
1.0
 40
1.0
 40
1.0
 10
22.66684241180359
 20
-2.910303195659502
 30
0.0
 10
22.59114116441552
 20
-2.967682100321237
 30
0.0
 10
22.5138850964961
 20
-3.012598482175227
 30
0.0
 10
22.43585128305374
 20
-3.044295981158063
 30
0.0
  0
SPLINE
  5
104
330
1F
100
AcDbEntity
  8
외형선
  6
Continuous
370
    15
100
AcDbSpline
210
0.0
220
0.0
230
1.0
 70
     8
 71
     3
 72
     8
 73
     4
 74
     0
 42
0.000000001
 43
0.00000001
 40
0.0
 40
0.0
 40
0.0
 40
0.0
 40
0.0001226786802751
 40
0.0001226786802751
 40
0.0001226786802751
 40
0.0001226786802751
 10
5.491640031488791
 20
-2.265117379919845
 30
0.0
 10
5.462904655053407
 20
-2.251945710204989
 30
0.0
 10
5.433963577937179
 20
-2.236966009364239
 30
0.0
 10
5.404957859638413
 20
-2.220399957773441
 30
0.0
  0
SPLINE
  5
105
330
1F
100
AcDbEntity
  8
외형선
  6
Continuous
370
    15
100
AcDbSpline
210
0.0
220
0.0
230
1.0
 70
     8
 71
     3
 72
     8
 73
     4
 74
     0
 42
0.000000001
 43
0.00000001
 40
0.0001377065458729
 40
0.0001377065458729
 40
0.0001377065458729
 40
0.0001377065458729
 40
0.0001604469988999
 40
0.0001604469988999
 40
0.0001604469988999
 40
0.0001604469988999
 10
5.839761340654773
 20
1.286188961022883
 30
0.0
 10
5.839743120267316
 20
1.283002790132295
 30
0.0
 10
5.839721079735448
 20
1.27978909165867
 30
0.0
 10
5.839695136493948
 20
1.276548018809149
 30
0.0
  0
SPLINE
  5
106
330
1F
100
AcDbEntity
  8
외형선
  6
Continuous
370
    15
100
AcDbSpline
210
0.0
220
0.0
230
1.0
 70
     8
 71
     3
 72
     8
 73
     4
 74
     0
 42
0.000000001
 43
0.00000001
 40
0.0
 40
0.0
 40
0.0
 40
0.0
 40
1.0
 40
1.0
 40
1.0
 40
1.0
 10
5.839079946633397
 20
1.277100437165644
 30
0.0
 10
5.972664140574827
 20
1.149369402377211
 30
0.0
 10
6.104098297264503
 20
1.008786463208477
 30
0.0
 10
6.221710692407349
 20
0.870379022830033
 30
0.0
  0
SPLINE
  5
107
330
1F
100
AcDbEntity
  8
외형선
  6
Continuous
370
    15
100
AcDbSpline
210
0.0
220
0.0
230
1.0
 70
     8
 71
     3
 72
     8
 73
     4
 74
     0
 42
0.000000001
 43
0.00000001
 40
0.0
 40
0.0
 40
0.0
 40
0.0
 40
1.0
 40
1.0
 40
1.0
 40
1.0
 10
6.2217106924073
 20
0.870379022830095
 30
0.0
 10
6.295007765788355
 20
0.7841222953688309
 30
0.0
 10
6.390045272320444
 20
0.7013526768598308
 30
0.0
 10
6.468080574260448
 20
0.6472994460328452
 30
0.0
  0
SPLINE
  5
108
330
1F
100
AcDbEntity
  8
외형선
  6
Continuous
370
    15
100
AcDbSpline
210
0.0
220
0.0
230
1.0
 70
     8
 71
     3
 72
     8
 73
     4
 74
     0
 42
0.000000001
 43
0.00000001
 40
0.0
 40
0.0
 40
0.0
 40
0.0
 40
1.0
 40
1.0
 40
1.0
 40
1.0
 10
6.468080574260444
 20
0.6472994460328408
 30
0.0
 10
6.498112665822783
 20
0.6264969177273251
 30
0.0
 10
6.528278931608917
 20
0.6037746317132651
 30
0.0
 10
6.55868474866039
 20
0.5794932852490563
 30
0.0
  0
SPLINE
  5
109
330
1F
100
AcDbEntity
  8
외형선
  6
Continuous
370
    15
100
AcDbSpline
210
0.0
220
0.0
230
1.0
 70
     8
 71
     3
 72
     8
 73
     4
 74
     0
 42
0.000000001
 43
0.00000001
 40
0.0
 40
0.0
 40
0.0
 40
0.0
 40
1.0
 40
1.0
 40
1.0
 40
1.0
 10
6.558684748661125
 20
0.5794932852488954
 30
0.0
 10
6.679565136904875
 20
0.4605728006524576
 30
0.0
 10
6.801522147542503
 20
0.3422781477089194
 30
0.0
 10
6.92463065701558
 20
0.2246952600219403
 30
0.0
  0
SPLINE
  5
10A
330
1F
100
AcDbEntity
  8
외형선
  6
Continuous
370
    15
100
AcDbSpline
210
0.0
220
0.0
230
1.0
 70
    24
 71
     3
 72
     9
 73
     5
 74
     0
 42
0.000000001
 43
0.00000001
 40
0.0
 40
0.0
 40
0.0
 40
0.0
 40
0.5
 40
1.0
 40
1.0
 40
1.0
 40
1.0
 10
6.924630657015582
 20
0.2474234623666459
 30
0.0
 10
6.924630657015582
 20
0.2443944600522477
 30
0.0
 10
6.924630657015582
 20
0.2375250397344903
 30
0.0
 10
6.924630657015582
 20
0.2291911894960463
 30
0.0
 10
6.924630657015582
 20
0.2246952600219383
 30
0.0
  0
SPLINE
  5
10B
330
1F
100
AcDbEntity
  8
외형선
  6
Continuous
 62
     1
370
    15
100
AcDbSpline
210
0.0
220
0.0
230
1.0
 70
     8
 71
     3
 72
     8
 73
     4
 74
     0
 42
0.000000001
 43
0.00000001
 40
0.0
 40
0.0
 40
0.0
 40
0.0
 40
1.0
 40
1.0
 40
1.0
 40
1.0
 10
6.924630657015568
 20
0.2474234623666493
 30
0.0
 10
7.100769298654971
 20
0.0761124919676191
 30
0.0
 10
7.278480556381988
 20
-0.1019882620410905
 30
0.0
 10
7.434262677623251
 20
-0.2489299707334148
 30
0.0
  0
SPLINE
  5
10C
330
1F
100
AcDbEntity
  8
외형선
  6
Continuous
 62
     1
370
    15
100
AcDbSpline
210
0.0
220
0.0
230
1.0
 70
     8
 71
     3
 72
     8
 73
     4
 74
     0
 42
0.000000001
 43
0.00000001
 40
0.0
 40
0.0
 40
0.0
 40
0.0
 40
1.0
 40
1.0
 40
1.0
 40
1.0
 10
7.43426267762325
 20
-0.2489299707334146
 30
0.0
 10
7.507756957400771
 20
-0.3182535552601368
 30
0.0
 10
7.602433130440498
 20
-0.402543710550844
 30
0.0
 10
7.680019763581118
 20
-0.4778987956788424
 30
0.0
  0
SPLINE
  5
10D
330
1F
100
AcDbEntity
  8
외형선
  6
Continuous
 62
     1
370
    15
100
AcDbSpline
210
0.0
220
0.0
230
1.0
 70
     8
 71
     3
 72
     8
 73
     4
 74
     0
 42
0.000000001
 43
0.00000001
 40
0.0
 40
0.0
 40
0.0
 40
0.0
 40
1.0
 40
1.0
 40
1.0
 40
1.0
 10
7.680019763581115
 20
-0.4778987956788329
 30
0.0
 10
7.802384572042302
 20
-0.596744145515723
 30
0.0
 10
7.932774043926107
 20
-0.7326593459924796
 30
0.0
 10
8.064733729879363
 20
-0.861258193321545
 30
0.0
  0
SPLINE
  5
10E
330
1F
100
AcDbEntity
  8
외형선
  6
Continuous
 62
     1
370
    15
100
AcDbSpline
210
0.0
220
0.0
230
1.0
 70
     8
 71
     3
 72
     8
 73
     4
 74
     0
 42
0.000000001
 43
0.00000001
 40
0.0
 40
0.0
 40
0.0
 40
0.0
 40
1.0
 40
1.0
 40
1.0
 40
1.0
 10
8.064733729879363
 20
-0.8612581933215747
 30
0.0
 10
8.19862489100247
 20
-0.983018427943929
 30
0.0
 10
8.330082376203173
 20
-1.088903281345679
 30
0.0
 10
8.44764855077311
 20
-1.164395428022014
 30
0.0
  0
SPLINE
  5
10F
330
1F
100
AcDbEntity
  8
외형선
  6
Continuous
 62
     1
370
    15
100
AcDbSpline
210
0.0
220
0.0
230
1.0
 70
     8
 71
     3
 72
     8
 73
     4
 74
     0
 42
0.000000001
 43
0.00000001
 40
0.0
 40
0.0
 40
0.0
 40
0.0
 40
1.0
 40
1.0
 40
1.0
 40
1.0
 10
8.447648550773113
 20
-1.164395428022009
 30
0.0
 10
8.521054619317532
 20
-1.211531279075764
 30
0.0
 10
8.615936341685028
 20
-1.287823876543494
 30
0.0
 10
8.694260993446676
 20
-1.373814374543416
 30
0.0
  0
SPLINE
  5
110
330
1F
100
AcDbEntity
  8
외형선
  6
Continuous
 62
     1
370
    15
100
AcDbSpline
210
0.0
220
0.0
230
1.0
 70
     8
 71
     3
 72
    10
 73
     6
 74
     0
 42
0.000000001
 43
0.00000001
 40
0.0
 40
0.0
 40
0.0
 40
0.0
 40
0.5000000000000001
 40
0.5000000000000001
 40
1.0
 40
1.0
 40
1.0
 40
1.0
 10
8.694260993445592
 20
-1.373814374545047
 30
0.0
 10
8.850203205122979
 20
-1.545019073700718
 30
0.0
 10
9.015458841787005
 20
-1.713438475329226
 30
0.0
 10
9.348130826256352
 20
-1.97778445685312
 30
0.0
 10
9.513221090116101
 20
-2.07174562630285
 30
0.0
 10
9.659708891797507
 20
-2.103000549514704
 30
0.0
  0
SPLINE
  5
111
330
1F
100
AcDbEntity
  8
외형선
  6
Continuous
 62
     1
370
    15
100
AcDbSpline
210
0.0
220
0.0
230
1.0
 70
     8
 71
     3
 72
     8
 73
     4
 74
     0
 42
0.000000001
 43
0.00000001
 40
0.0
 40
0.0
 40
0.0
 40
0.0
 40
1.0
 40
1.0
 40
1.0
 40
1.0
 10
9.659708891797749
 20
-2.103000549514763
 30
0.0
 10
9.732988275286656
 20
-2.11863558176765
 30
0.0
 10
9.827897192248095
 20
-2.175346259054109
 30
0.0
 10
9.905540495014604
 20
-2.26237257891043
 30
0.0
  0
SPLINE
  5
112
330
1F
100
AcDbEntity
  8
외형선
  6
Continuous
 62
     1
370
    15
100
AcDbSpline
210
0.0
220
0.0
230
1.0
 70
     8
 71
     3
 72
     8
 73
     4
 74
     0
 42
0.000000001
 43
0.00000001
 40
0.0
 40
0.0
 40
0.0
 40
0.0
 40
1.0
 40
1.0
 40
1.0
 40
1.0
 10
9.905540495014613
 20
-2.262372578910439
 30
0.0
 10
10.0281479392203
 20
-2.399796854746451
 30
0.0
 10
10.15868752304339
 20
-2.51905627204839
 30
0.0
 10
10.29052545757643
 20
-2.607091806899759
 30
0.0
  0
SPLINE
  5
113
330
1F
100
AcDbEntity
  8
외형선
  6
Continuous
 62
     1
370
    15
100
AcDbSpline
210
0.0
220
0.0
230
1.0
 70
     8
 71
     3
 72
     8
 73
     4
 74
     0
 42
0.000000001
 43
0.00000001
 40
0.0
 40
0.0
 40
0.0
 40
0.0
 40
1.0
 40
1.0
 40
1.0
 40
1.0
 10
10.29052545757644
 20
-2.607091806899763
 30
0.0
 10
10.42469157820222
 20
-2.667595330876133
 30
0.0
 10
10.55595933563799
 20
-2.690770545532133
 30
0.0
 10
10.67374780503316
 20
-2.668649023182018
 30
0.0
  0
SPLINE
  5
114
330
1F
100
AcDbEntity
  8
외형선
  6
Continuous
 62
     1
370
    15
100
AcDbSpline
210
0.0
220
0.0
230
1.0
 70
     8
 71
     3
 72
     8
 73
     4
 74
     0
 42
0.000000001
 43
0.00000001
 40
0.0
 40
0.0
 40
0.0
 40
0.0
 40
1.0
 40
1.0
 40
1.0
 40
1.0
 10
10.67374780503316
 20
-2.668649023182013
 30
0.0
 10
10.7470560615785
 20
-2.654881204957164
 30
0.0
 10
10.84226582997846
 20
-2.688709960191863
 30
0.0
 10
10.92072447696886
 20
-2.767159801657517
 30
0.0
  0
SPLINE
  5
115
330
1F
100
AcDbEntity
  8
외형선
  6
Continuous
 62
     1
370
    15
100
AcDbSpline
210
0.0
220
0.0
230
1.0
 70
     8
 71
     3
 72
    10
 73
     6
 74
     0
 42
0.000000001
 43
0.00000001
 40
0.0
 40
0.0
 40
0.0
 40
0.0
 40
0.5
 40
0.5
 40
1.0
 40
1.0
 40
1.0
 40
1.0
 10
10.92072447696887
 20
-2.767159801657518
 30
0.0
 10
11.07685877617432
 20
-2.923276577690086
 30
0.0
 10
11.24211517150348
 20
-3.025507913596029
 30
0.0
 10
11.57406492336846
 20
-3.108506333398253
 30
0.0
 10
11.73842365204507
 20
-3.087709621243203
 30
0.0
 10
11.8851925455413
 20
-2.997155983149721
 30
0.0
  0
SPLINE
  5
116
330
1F
100
AcDbEntity
  8
외형선
  6
Continuous
 62
     1
370
    15
100
AcDbSpline
210
0.0
220
0.0
230
1.0
 70
     8
 71
     3
 72
     8
 73
     4
 74
     0
 42
0.000000001
 43
0.00000001
 40
0.0
 40
0.0
 40
0.0
 40
0.0
 40
1.0
 40
1.0
 40
1.0
 40
1.0
 10
11.88519254554129
 20
-2.997155983149723
 30
0.0
 10
11.95858194112212
 20
-2.951876110766446
 30
0.0
 10
12.05358690804187
 20
-2.955768094634275
 30
0.0
 10
12.13120402108611
 20
-3.015081900276749
 30
0.0
  0
LINE
  5
117
330
1F
100
AcDbEntity
  8
외형선
  6
Continuous
 62
     1
370
    15
100
AcDbLine
 10
12.13120402108547
 20
-3.015081900276148
 30
0.0
 11
12.17926405042295
 21
-3.045796220228088
 31
0.0
  0
SPLINE
  5
118
330
1F
100
AcDbEntity
  8
외형선
  6
Continuous
 62
     1
370
    15
100
AcDbSpline
210
0.0
220
0.0
230
1.0
 70
     8
 71
     3
 72
    10
 73
     6
 74
     0
 42
0.000000001
 43
0.00000001
 40
0.0
 40
0.0
 40
0.0
 40
0.0
 40
0.2293204452499959
 40
0.7223079526255788
 40
1.0
 40
1.0
 40
1.0
 40
1.0
 10
20.20833154653444
 20
2.455846448234309
 30
0.0
 10
20.25410602623666
 20
2.489984217148366
 30
0.0
 10
20.39828536742086
 20
2.597510530140811
 30
0.0
 10
20.59961511645353
 20
2.66271123782956
 30
0.0
 10
20.73851231188716
 20
2.654676712681925
 30
0.0
 10
20.78855989176235
 20
2.651781704342627
 30
0.0
  0
SPLINE
  5
119
330
1F
100
AcDbEntity
  8
외형선
  6
Continuous
 62
     1
370
    15
100
AcDbSpline
210
0.0
220
0.0
230
1.0
 70
     8
 71
     3
 72
     8
 73
     4
 74
     0
 42
0.000000001
 43
0.00000001
 40
0.0
 40
0.0
 40
0.0
 40
0.0
 40
1.0
 40
1.0
 40
1.0
 40
1.0
 10
20.78855989176142
 20
2.651781704342774
 30
0.0
 10
20.86221787608824
 20
2.640019568436551
 30
0.0
 10
20.95748282104403
 20
2.675525405759602
 30
0.0
 10
21.03554050404779
 20
2.75516223049464
 30
0.0
  0
SPLINE
  5
11A
330
1F
100
AcDbEntity
  8
외형선
  6
Continuous
 62
     1
370
    15
100
AcDbSpline
210
0.0
220
0.0
230
1.0
 70
     8
 71
     3
 72
     8
 73
     4
 74
     0
 42
0.000000001
 43
0.00000001
 40
0.0
 40
0.0
 40
0.0
 40
0.0
 40
1.0
 40
1.0
 40
1.0
 40
1.0
 10
21.03554050404782
 20
2.755162230494685
 30
0.0
 10
21.15844315924836
 20
2.880551261209383
 30
0.0
 10
21.2892024191554
 20
2.973983152878138
 30
0.0
 10
21.42132356388294
 20
3.029544995543077
 30
0.0
  0
SPLINE
  5
11B
330
1F
100
AcDbEntity
  8
외형선
  6
Continuous
 62
     1
370
    15
100
AcDbSpline
210
0.0
220
0.0
230
1.0
 70
     8
 71
     3
 72
     8
 73
     4
 74
     0
 42
0.000000001
 43
0.00000001
 40
0.0
 40
0.0
 40
0.0
 40
0.0
 40
1.0
 40
1.0
 40
1.0
 40
1.0
 10
21.42132356388294
 20
3.029544995543075
 30
0.0
 10
21.55522734344162
 20
3.05171567365836
 30
0.0
 10
21.68642306339038
 20
3.031950121177856
 30
0.0
 10
21.80374168234041
 20
2.967014993791753
 30
0.0
  0
SPLINE
  5
11C
330
1F
100
AcDbEntity
  8
외형선
  6
Continuous
 62
     1
370
    15
100
AcDbSpline
210
0.0
220
0.0
230
1.0
 70
     8
 71
     3
 72
     8
 73
     4
 74
     0
 42
0.000000001
 43
0.00000001
 40
0.0
 40
0.0
 40
0.0
 40
0.0
 40
1.0
 40
1.0
 40
1.0
 40
1.0
 10
21.8037416823404
 20
2.96701499379175
 30
0.0
 10
21.87662730243122
 20
2.926673255476298
 30
0.0
 10
21.97144164870083
 20
2.935632882711879
 30
0.0
 10
22.04950617536475
 20
2.998574458630329
 30
0.0
  0
SPLINE
  5
11D
330
1F
100
AcDbEntity
  8
외형선
  6
Continuous
 62
     1
370
    15
100
AcDbSpline
210
0.0
220
0.0
230
1.0
 70
     8
 71
     3
 72
    10
 73
     6
 74
     0
 42
0.000000001
 43
0.00000001
 40
0.0
 40
0.0
 40
0.0
 40
0.0
 40
0.5
 40
0.5
 40
1.0
 40
1.0
 40
1.0
 40
1.0
 10
22.04950617536475
 20
2.998574458630329
 30
0.0
 10
22.13779437953868
 20
3.069759143188024
 30
0.0
 10
22.22813817505161
 20
3.117683353557241
 30
0.0
 10
22.41526062371247
 20
3.173359496090885
 30
0.0
 10
22.50898361559288
 20
3.179838618391395
 30
0.0
 10
22.60271101366644
 20
3.165876203329962
 30
0.0
  0
SPLINE
  5
11E
330
1F
100
AcDbEntity
  8
외형선
  6
Continuous
 62
     1
370
    15
100
AcDbSpline
210
0.0
220
0.0
230
1.0
 70
     8
 71
     3
 72
     8
 73
     4
 74
     0
 42
0.000000001
 43
0.00000001
 40
0.000237381787159
 40
0.000237381787159
 40
0.000237381787159
 40
0.000237381787159
 40
0.0003443228731148
 40
0.0003443228731148
 40
0.0003443228731148
 40
0.0003443228731148
 10
22.66407571338077
 20
3.10019439983629
 30
0.0
 10
22.64364907730113
 20
3.122256758646879
 30
0.0
 10
22.62319290046183
 20
3.144150976818706
 30
0.0
 10
22.60271101366975
 20
3.165876203335953
 30
0.0
  0
SPLINE
  5
11F
330
1F
100
AcDbEntity
  8
외형선
  6
Continuous
 62
     1
370
    15
100
AcDbSpline
210
0.0
220
0.0
230
1.0
 70
     8
 71
     3
 72
    14
 73
    10
 74
     0
 42
0.000000001
 43
0.00000001
 40
0.0
 40
0.0
 40
0.0
 40
0.0
 40
0.160003353974342
 40
0.3226709239810457
 40
0.5332801534932002
 40
0.6380766521295381
 40
0.7467875038148546
 40
0.9322901844705926
 40
1.0
 40
1.0
 40
1.0
 40
1.0
 10
22.66407571338078
 20
3.100194399836289
 30
0.0
 10
22.66287975875482
 20
2.978290964222657
 30
0.0
 10
22.66046793566102
 20
2.732454278747787
 30
0.0
 10
22.604134751194
 20
2.330950261061776
 30
0.0
 10
22.49620243083103
 20
1.986373060748418
 30
0.0
 10
22.34243269248357
 20
1.721323682158973
 30
0.0
 10
22.16069209847564
 20
1.512502787965068
 30
0.0
 10
21.95373895413086
 20
1.379606770917108
 30
0.0
 10
21.79739724271324
 20
1.351034858712373
 30
0.0
 10
21.75559097880793
 20
1.343394639790119
 30
0.0
  0
SPLINE
  5
120
330
1F
100
AcDbEntity
  8
외형선
  6
Continuous
 62
     1
370
    15
100
AcDbSpline
210
0.0
220
0.0
230
1.0
 70
     8
 71
     3
 72
     9
 73
     5
 74
     0
 42
0.000000001
 43
0.00000001
 40
0.0
 40
0.0
 40
0.0
 40
0.0
 40
0.5764689425779823
 40
0.9999999999999999
 40
0.9999999999999999
 40
0.9999999999999999
 40
0.9999999999999999
 10
22.79963065701558
 20
0.7917171133154433
 30
0.0
 10
22.61463231533109
 20
0.8955578113974781
 30
0.0
 10
22.29371590853011
 20
1.075690148826892
 30
0.0
 10
21.98532559419672
 20
1.207395166211912
 30
0.0
 10
21.8547127182684
 20
1.263176331492775
 30
0.0
  0
LINE
  5
121
330
1F
100
AcDbEntity
  8
외형선
  6
Continuous
 62
     1
370
    15
100
AcDbLine
 10
22.79963065701558
 20
0.3842954249720957
 30
0.0
 11
22.79963065701558
 21
0.7917171133154439
 31
0.0
  0
SPLINE
  5
122
330
1F
100
AcDbEntity
  8
외형선
  6
Continuous
 62
     1
370
    15
100
AcDbSpline
210
0.0
220
0.0
230
1.0
 70
     8
 71
     3
 72
     8
 73
     4
 74
     0
 42
0.000000001
 43
0.00000001
 40
0.0
 40
0.0
 40
0.0
 40
0.0
 40
1.0
 40
1.0
 40
1.0
 40
1.0
 10
22.77222303563639
 20
0.4047306325410519
 30
0.0
 10
22.7813284518984
 20
0.3959942495288516
 30
0.0
 10
22.79046385287807
 20
0.387345990900704
 30
0.0
 10
22.79963065701558
 20
0.3787874001401488
 30
0.0
  0
SPLINE
  5
123
330
1F
100
AcDbEntity
  8
외형선
  6
Continuous
 62
     1
370
    15
100
AcDbSpline
210
0.0
220
0.0
230
1.0
 70
     8
 71
     3
 72
     8
 73
     4
 74
     0
 42
0.000000001
 43
0.00000001
 40
0.0
 40
0.0
 40
0.0
 40
0.0
 40
1.0
 40
1.0
 40
1.0
 40
1.0
 10
22.77222303563638
 20
0.404730632541018
 30
0.0
 10
22.70320944730616
 20
0.4674480260417102
 30
0.0
 10
22.61812799947884
 20
0.5424717800593987
 30
0.0
 10
22.5473695452585
 20
0.6125137174012883
 30
0.0
  0
SPLINE
  5
124
330
1F
100
AcDbEntity
  8
외형선
  6
Continuous
 62
     1
370
    15
100
AcDbSpline
210
0.0
220
0.0
230
1.0
 70
     8
 71
     3
 72
    10
 73
     6
 74
     0
 42
0.000000001
 43
0.00000001
 40
0.0
 40
0.0
 40
0.0
 40
0.0
 40
0.5
 40
0.5
 40
1.0
 40
1.0
 40
1.0
 40
1.0
 10
22.54736954525824
 20
0.6125137174015401
 30
0.0
 10
22.39135579459837
 20
0.7669476358442315
 30
0.0
 10
22.22614776135837
 20
0.940629410537268
 30
0.0
 10
21.89409330694058
 20
1.246059369374496
 30
0.0
 10
21.72977633975724
 20
1.376166637897121
 30
0.0
 10
21.58312620002057
 20
1.453596912262927
 30
0.0
  0
SPLINE
  5
125
330
1F
100
AcDbEntity
  8
외형선
  6
Continuous
 62
     1
370
    15
100
AcDbSpline
210
0.0
220
0.0
230
1.0
 70
     8
 71
     3
 72
     8
 73
     4
 74
     0
 42
0.000000001
 43
0.00000001
 40
0.0
 40
0.0
 40
0.0
 40
0.0
 40
1.0
 40
1.0
 40
1.0
 40
1.0
 10
21.58312620002057
 20
1.453596912262932
 30
0.0
 10
21.50974498670573
 20
1.492341692802921
 30
0.0
 10
21.41474040865696
 20
1.563572689805145
 30
0.0
 10
21.33709346825771
 20
1.650605216976899
 30
0.0
  0
SPLINE
  5
126
330
1F
100
AcDbEntity
  8
외형선
  6
Continuous
 62
     1
370
    15
100
AcDbSpline
210
0.0
220
0.0
230
1.0
 70
     8
 71
     3
 72
     8
 73
     4
 74
     0
 42
0.000000001
 43
0.00000001
 40
0.0
 40
0.0
 40
0.0
 40
0.0
 40
1.0
 40
1.0
 40
1.0
 40
1.0
 10
21.33709346825772
 20
1.650605216976894
 30
0.0
 10
21.21420155635735
 20
1.788351709068696
 30
0.0
 10
21.08347379285507
 20
1.921766200132292
 30
0.0
 10
20.95166884191237
 20
2.032309877896173
 30
0.0
  0
SPLINE
  5
127
330
1F
100
AcDbEntity
  8
외형선
  6
Continuous
 62
     1
370
    15
100
AcDbSpline
210
0.0
220
0.0
230
1.0
 70
     8
 71
     3
 72
     8
 73
     4
 74
     0
 42
0.000000001
 43
0.00000001
 40
0.0
 40
0.0
 40
0.0
 40
0.0
 40
1.0
 40
1.0
 40
1.0
 40
1.0
 10
20.95166884191238
 20
2.032309877896169
 30
0.0
 10
20.81744754758464
 20
2.122594241926748
 30
0.0
 10
20.68613249242735
 20
2.182814039377625
 30
0.0
 10
20.56785859642992
 20
2.199964426992541
 30
0.0
  0
SPLINE
  5
128
330
1F
100
AcDbEntity
  8
외형선
  6
Continuous
 62
     1
370
    15
100
AcDbSpline
210
0.0
220
0.0
230
1.0
 70
     8
 71
     3
 72
     8
 73
     4
 74
     0
 42
0.000000001
 43
0.00000001
 40
0.0
 40
0.0
 40
0.0
 40
0.0
 40
1.0
 40
1.0
 40
1.0
 40
1.0
 10
20.56785859642913
 20
2.199964426992659
 30
0.0
 10
20.4946217533272
 20
2.210584185784616
 30
0.0
 10
20.39951380629108
 20
2.263678862235136
 30
0.0
 10
20.32126117732672
 20
2.349601703714644
 30
0.0
  0
SPLINE
  5
129
330
1F
100
AcDbEntity
  8
외형선
  6
Continuous
 62
     1
370
    15
100
AcDbSpline
210
0.0
220
0.0
230
1.0
 70
     8
 71
     3
 72
    10
 73
     6
 74
     0
 42
0.000000001
 43
0.00000001
 40
0.0
 40
0.0
 40
0.0
 40
0.0
 40
0.5
 40
0.5
 40
1.0
 40
1.0
 40
1.0
 40
1.0
 10
20.32126117732668
 20
2.349601703714624
 30
0.0
 10
20.16516260902987
 20
2.521000833896698
 30
0.0
 10
20.00009002501589
 20
2.656812040393496
 30
0.0
 10
19.66906521730593
 20
2.820930113088165
 30
0.0
 10
19.50434140251683
 20
2.84666434557815
 30
0.0
 10
19.35748826192899
 20
2.801359766223858
 30
0.0
  0
SPLINE
  5
12A
330
1F
100
AcDbEntity
  8
외형선
  6
Continuous
 62
     1
370
    15
100
AcDbSpline
210
0.0
220
0.0
230
1.0
 70
     8
 71
     3
 72
     8
 73
     4
 74
     0
 42
0.000000001
 43
0.00000001
 40
0.0
 40
0.0
 40
0.0
 40
0.0
 40
1.0
 40
1.0
 40
1.0
 40
1.0
 10
19.35748826192899
 20
2.801359766223857
 30
0.0
 10
19.28396837460375
 20
2.77867868799748
 30
0.0
 10
19.18887440767747
 20
2.804909010037431
 30
0.0
 10
19.1112192603339
 20
2.879264056546845
 30
0.0
  0
SPLINE
  5
12B
330
1F
100
AcDbEntity
  8
외형선
  6
Continuous
 62
     1
370
    15
100
AcDbSpline
210
0.0
220
0.0
230
1.0
 70
     8
 71
     3
 72
     8
 73
     4
 74
     0
 42
0.000000001
 43
0.00000001
 40
0.0
 40
0.0
 40
0.0
 40
0.0
 40
1.0
 40
1.0
 40
1.0
 40
1.0
 10
19.1112192603339
 20
2.879264056546849
 30
0.0
 10
18.98798628847574
 20
2.997260012609734
 30
0.0
 10
18.85718774388968
 20
3.078189205588645
 30
0.0
 10
18.72543875793701
 20
3.119737412631385
 30
0.0
  0
SPLINE
  5
12C
330
1F
100
AcDbEntity
  8
외형선
  6
Continuous
 62
     1
370
    15
100
AcDbSpline
210
0.0
220
0.0
230
1.0
 70
     8
 71
     3
 72
    10
 73
     6
 74
     0
 42
0.000000001
 43
0.00000001
 40
0.0
 40
0.0
 40
0.0
 40
0.0
 40
0.4037729240455754
 40
0.7553253333815274
 40
1.0
 40
1.0
 40
1.0
 40
1.0
 10
18.72543875793701
 20
3.119737412631384
 30
0.0
 10
18.67736299607473
 20
3.118864473927488
 30
0.0
 10
18.58742917759983
 20
3.117231494898247
 30
0.0
 10
18.47095060161606
 20
3.084431317164344
 30
0.0
 10
18.40621353336598
 20
3.046584363581053
 30
0.0
 10
18.37964727827502
 20
3.031053048208144
 30
0.0
  0
SPLINE
  5
12D
330
1F
100
AcDbEntity
  8
외형선
  6
Continuous
 62
     1
370
    15
100
AcDbSpline
210
0.0
220
0.0
230
1.0
 70
     8
 71
     3
 72
     9
 73
     5
 74
     0
 42
0.000000001
 43
0.00000001
 40
0.0
 40
0.0
 40
0.0
 40
0.0
 40
0.5636695325469027
 40
0.9999999999999999
 40
0.9999999999999999
 40
0.9999999999999999
 40
0.9999999999999999
 10
18.24814702294458
 20
2.977014240514913
 30
0.0
 10
18.21853804006756
 20
2.975825362891583
 30
0.0
 10
18.1660090649015
 20
2.973716188003313
 30
0.0
 10
18.1168331374796
 20
3.002606359350678
 30
0.0
 10
18.09537618208016
 20
3.015212021319474
 30
0.0
  0
LINE
  5
12E
330
1F
100
AcDbEntity
  8
외형선
  6
Continuous
 62
     1
370
    15
100
AcDbLine
 10
18.09537618208016
 20
3.015212021319473
 30
0.0
 11
17.94873806687263
 21
3.08091329629793
 31
0.0
  0
SPLINE
  5
12F
330
1F
100
AcDbEntity
  8
외형선
  6
Continuous
 62
     1
370
    15
100
AcDbSpline
210
0.0
220
0.0
230
1.0
 70
     8
 71
     3
 72
    10
 73
     6
 74
     0
 42
0.000000001
 43
0.00000001
 40
0.0
 40
0.0
 40
0.0
 40
0.0
 40
0.007123802437473
 40
0.496686957068142
 40
1.0
 40
1.0
 40
1.0
 40
1.0
 10
10.09227832995498
 20
-2.448728858167983
 30
0.0
 10
10.09165878457011
 20
-2.449374548529839
 30
0.0
 10
10.04846273657774
 20
-2.494393481024611
 30
0.0
 10
9.957602986596626
 20
-2.572535951118284
 30
0.0
 10
9.867095892235476
 20
-2.636070433488034
 30
0.0
 10
9.821215649379756
 20
-2.66827760466519
 30
0.0
  0
SPLINE
  5
130
330
1F
100
AcDbEntity
  8
외형선
  6
Continuous
 62
     1
370
    15
100
AcDbSpline
210
0.0
220
0.0
230
1.0
 70
     8
 71
     3
 72
     8
 73
     4
 74
     0
 42
0.000000001
 43
0.00000001
 40
0.0
 40
0.0
 40
0.0
 40
0.0
 40
1.0
 40
1.0
 40
1.0
 40
1.0
 10
9.821215649379763
 20
-2.668277604665184
 30
0.0
 10
9.687471466104824
 20
-2.724613453145797
 30
0.0
 10
9.55674333815869
 20
-2.743174772012512
 30
0.0
 10
9.439117152724313
 20
-2.715537625507539
 30
0.0
  0
SPLINE
  5
131
330
1F
100
AcDbEntity
  8
외형선
  6
Continuous
 62
     1
370
    15
100
AcDbSpline
210
0.0
220
0.0
230
1.0
 70
     8
 71
     3
 72
     8
 73
     4
 74
     0
 42
0.000000001
 43
0.00000001
 40
0.0
 40
0.0
 40
0.0
 40
0.0
 40
1.0
 40
1.0
 40
1.0
 40
1.0
 10
9.43911715272431
 20
-2.715537625507542
 30
0.0
 10
9.366136302009323
 20
-2.698390232213954
 30
0.0
 10
9.271223610259293
 20
-2.729429155782831
 30
0.0
 10
9.193161761447023
 20
-2.806200208123431
 30
0.0
  0
SPLINE
  5
132
330
1F
100
AcDbEntity
  8
외형선
  6
Continuous
 62
     1
370
    15
100
AcDbSpline
210
0.0
220
0.0
230
1.0
 70
     8
 71
     3
 72
    10
 73
     6
 74
     0
 42
0.000000001
 43
0.00000001
 40
0.0
 40
0.0
 40
0.0
 40
0.0
 40
0.5
 40
0.5
 40
1.0
 40
1.0
 40
1.0
 40
1.0
 10
9.19316176144703
 20
-2.806200208123425
 30
0.0
 10
9.036729669871857
 20
-2.960045607288264
 30
0.0
 10
8.871184044613237
 20
-3.057278387772439
 30
0.0
 10
8.539047211769649
 20
-3.12939843167697
 30
0.0
 10
8.374117450013728
 20
-3.102794877835939
 30
0.0
 10
8.226853845688966
 20
-3.006801649481175
 30
0.0
  0
SPLINE
  5
133
330
1F
100
AcDbEntity
  8
외형선
  6
Continuous
 62
     1
370
    15
100
AcDbSpline
210
0.0
220
0.0
230
1.0
 70
     8
 71
     3
 72
     8
 73
     4
 74
     0
 42
0.000000001
 43
0.00000001
 40
0.0
 40
0.0
 40
0.0
 40
0.0
 40
1.0
 40
1.0
 40
1.0
 40
1.0
 10
8.22685384568901
 20
-3.006801649481163
 30
0.0
 10
8.153276557775293
 20
-2.958840570212233
 30
0.0
 10
8.058149340429203
 20
-2.959766010695171
 30
0.0
 10
7.980454263778962
 20
-3.016846264927873
 30
0.0
  0
SPLINE
  5
134
330
1F
100
AcDbEntity
  8
외형선
  6
Continuous
 62
     1
370
    15
100
AcDbSpline
210
0.0
220
0.0
230
1.0
 70
     8
 71
     3
 72
     8
 73
     4
 74
     0
 42
0.000000001
 43
0.00000001
 40
0.0
 40
0.0
 40
0.0
 40
0.0
 40
1.0
 40
1.0
 40
1.0
 40
1.0
 10
7.980454263778969
 20
-3.016846264927874
 30
0.0
 10
7.857598868634529
 20
-3.107104457480695
 30
0.0
 10
7.727095149876972
 20
-3.150947805502501
 30
0.0
 10
7.595727005481542
 20
-3.153574338451155
 30
0.0
  0
SPLINE
  5
135
330
1F
100
AcDbEntity
  8
외형선
  6
Continuous
 62
     1
370
    15
100
AcDbSpline
210
0.0
220
0.0
230
1.0
 70
     8
 71
     3
 72
     8
 73
     4
 74
     0
 42
0.000000001
 43
0.00000001
 40
0.0
 40
0.0
 40
0.0
 40
0.0
 40
1.0
 40
1.0
 40
1.0
 40
1.0
 10
7.595918294857614
 20
-3.153596292673594
 30
0.0
 10
7.374748899493587
 20
-3.12821934808627
 30
0.0
 10
7.149268459875017
 20
-3.079991911578309
 30
0.0
 10
6.924630657015673
 20
-3.009968903268822
 30
0.0
  0
SPLINE
  5
136
330
1F
100
AcDbEntity
  8
외형선
  6
Continuous
370
    15
100
AcDbSpline
210
0.0
220
0.0
230
1.0
 70
    24
 71
     3
 72
     9
 73
     5
 74
     0
 42
0.000000001
 43
0.00000001
 40
0.0
 40
0.0
 40
0.0
 40
0.0
 40
0.5
 40
1.0
 40
1.0
 40
1.0
 40
1.0
 10
6.924630657015582
 20
-2.85350817506259
 30
0.0
 10
6.924630657015582
 20
-2.879818525687381
 30
0.0
 10
6.924630657015582
 20
-2.932231943752432
 30
0.0
 10
6.924630657015582
 20
-2.984151735023793
 30
0.0
 10
6.924630657015582
 20
-3.009968903268796
 30
0.0
  0
SPLINE
  5
137
330
1F
100
AcDbEntity
  8
외형선
  6
Continuous
370
    15
100
AcDbSpline
210
0.0
220
0.0
230
1.0
 70
     8
 71
     3
 72
     8
 73
     4
 74
     0
 42
0.000000001
 43
0.00000001
 40
0.0
 40
0.0
 40
0.0
 40
0.0
 40
1.0
 40
1.0
 40
1.0
 40
1.0
 10
6.92463065701558
 20
-2.85350817506259
 30
0.0
 10
6.584342223813154
 20
-2.805632528496605
 30
0.0
 10
6.254887900135273
 20
-2.70662167724979
 30
0.0
 10
5.924630657015586
 20
-2.559183695341881
 30
0.0
  0
SPLINE
  5
138
330
1F
100
AcDbEntity
  8
외형선
  6
Continuous
370
    15
100
AcDbSpline
210
0.0
220
0.0
230
1.0
 70
     8
 71
     3
 72
     8
 73
     4
 74
     0
 42
0.000000001
 43
0.00000001
 40
0.0
 40
0.0
 40
0.0
 40
0.0
 40
1.0
 40
1.0
 40
1.0
 40
1.0
 10
5.489724552142745
 20
-2.36772787906814
 30
0.0
 10
5.489031151040706
 20
-2.333485262270209
 30
0.0
 10
5.489611623857897
 20
-2.299280058526321
 30
0.0
 10
5.491640031488762
 20
-2.265117379919824
 30
0.0
  0
SPLINE
  5
139
330
1F
100
AcDbEntity
  8
외형선
  6
Continuous
370
    15
100
AcDbSpline
210
0.0
220
0.0
230
1.0
 70
     8
 71
     3
 72
     8
 73
     4
 74
     0
 42
0.000000001
 43
0.00000001
 40
0.0
 40
0.0
 40
0.0
 40
0.0
 40
1.0
 40
1.0
 40
1.0
 40
1.0
 10
6.343985100813128
 20
2.661492468251637
 30
0.0
 10
6.203836188309369
 20
2.749756157385371
 30
0.0
 10
6.064076307076078
 20
2.831715276894545
 30
0.0
 10
5.924630657015585
 20
2.906983275730637
 30
0.0
  0
LINE
  5
13A
330
1F
100
AcDbEntity
  8
외형선
  6
Continuous
370
    15
100
AcDbLine
 10
6.703477886757764
 20
2.384743924602982
 30
0.0
 11
6.92463065701558
 21
2.490074853002279
 31
0.0
  0
SPLINE
  5
13B
330
1F
100
AcDbEntity
  8
외형선
  6
Continuous
370
    15
100
AcDbSpline
210
0.0
220
0.0
230
1.0
 70
    24
 71
     3
 72
     9
 73
     5
 74
     0
 42
0.000000001
 43
0.00000001
 40
0.0
 40
0.0
 40
0.0
 40
0.0
 40
0.5
 40
1.0
 40
1.0
 40
1.0
 40
1.0
 10
6.924630657015582
 20
2.51397563499069
 30
0.0
 10
6.924630657015582
 20
2.509948471460511
 30
0.0
 10
6.924630657015582
 20
2.501938071160742
 30
0.0
 10
6.924630657015582
 20
2.494014844043862
 30
0.0
 10
6.924630657015582
 20
2.490074853002302
 30
0.0
  0
SPLINE
  5
13C
330
1F
100
AcDbEntity
  8
외형선
  6
Continuous
370
    15
100
AcDbSpline
210
0.0
220
0.0
230
1.0
 70
     8
 71
     3
 72
     8
 73
     4
 74
     0
 42
0.000000001
 43
0.00000001
 40
0.0
 40
0.0
 40
0.0
 40
0.0
 40
1.0
 40
1.0
 40
1.0
 40
1.0
 10
6.924630657015538
 20
2.513975634990675
 30
0.0
 10
6.93775220687614
 20
2.514147575025074
 30
0.0
 10
6.950725820777485
 20
2.513807198117887
 30
0.0
 10
6.963546012660837
 20
2.512945043876027
 30
0.0
  0
SPLINE
  5
13D
330
1F
100
AcDbEntity
  8
외형선
  6
Continuous
 62
     1
370
    15
100
AcDbSpline
210
0.0
220
0.0
230
1.0
 70
     8
 71
     3
 72
     8
 73
     4
 74
     0
 42
0.000000001
 43
0.00000001
 40
0.0
 40
0.0
 40
0.0
 40
0.0
 40
1.0
 40
1.0
 40
1.0
 40
1.0
 10
6.963546012660835
 20
2.512945043876016
 30
0.0
 10
7.036811401835694
 20
2.508017967383448
 30
0.0
 10
7.131946304385444
 20
2.54952247937434
 30
0.0
 10
7.210141782112068
 20
2.631288730075674
 30
0.0
  0
SPLINE
  5
13E
330
1F
100
AcDbEntity
  8
외형선
  6
Continuous
 62
     1
370
    15
100
AcDbSpline
210
0.0
220
0.0
230
1.0
 70
     8
 71
     3
 72
    10
 73
     6
 74
     0
 42
0.000000001
 43
0.00000001
 40
0.0
 40
0.0
 40
0.0
 40
0.0
 40
0.5
 40
0.5
 40
1.0
 40
1.0
 40
1.0
 40
1.0
 10
7.210141782112021
 20
2.631288730075625
 30
0.0
 10
7.366588625802891
 20
2.79487967183548
 30
0.0
 10
7.531015361559334
 20
2.911040437806761
 30
0.0
 10
7.863060590474241
 20
3.026259297670902
 30
0.0
 10
8.028932249882065
 20
3.022700534247709
 30
0.0
 10
8.17608999061681
 20
2.948376607761495
 30
0.0
  0
SPLINE
  5
13F
330
1F
100
AcDbEntity
  8
외형선
  6
Continuous
 62
     1
370
    15
100
AcDbSpline
210
0.0
220
0.0
230
1.0
 70
     8
 71
     3
 72
     8
 73
     4
 74
     0
 42
0.000000001
 43
0.00000001
 40
0.0
 40
0.0
 40
0.0
 40
0.0
 40
1.0
 40
1.0
 40
1.0
 40
1.0
 10
8.176089990616816
 20
2.948376607761492
 30
0.0
 10
8.249581807910495
 20
2.911258611802728
 30
0.0
 10
8.344552826494485
 20
2.923753569483105
 30
0.0
 10
8.422016658668753
 20
2.989277795639004
 30
0.0
  0
SPLINE
  5
140
330
1F
100
AcDbEntity
  8
외형선
  6
Continuous
 62
     1
370
    15
100
AcDbSpline
210
0.0
220
0.0
230
1.0
 70
     8
 71
     3
 72
     8
 73
     4
 74
     0
 42
0.000000001
 43
0.00000001
 40
0.0
 40
0.0
 40
0.0
 40
0.0
 40
1.0
 40
1.0
 40
1.0
 40
1.0
 10
8.422016658669008
 20
2.98927779563917
 30
0.0
 10
8.544737928477756
 20
3.093083868891426
 30
0.0
 10
8.674565858935848
 20
3.154147412079356
 30
0.0
 10
8.80653830695973
 20
3.174422681054467
 30
0.0
  0
SPLINE
  5
141
330
1F
100
AcDbEntity
  8
외형선
  6
Continuous
 62
     1
370
    15
100
AcDbSpline
210
0.0
220
0.0
230
1.0
 70
     8
 71
     3
 72
     8
 73
     4
 74
     0
 42
0.000000001
 43
0.00000001
 40
0.0
 40
0.0
 40
0.0
 40
0.0
 40
1.0
 40
1.0
 40
1.0
 40
1.0
 10
8.806538306959723
 20
3.174422681054465
 30
0.0
 10
8.940177403102295
 20
3.158882328931209
 30
0.0
 10
9.071778686189456
 20
3.100574670106949
 30
0.0
 10
9.189646095137459
 20
3.001036742760237
 30
0.0
  0
SPLINE
  5
142
330
1F
100
AcDbEntity
  8
외형선
  6
Continuous
 62
     1
370
    15
100
AcDbSpline
210
0.0
220
0.0
230
1.0
 70
     8
 71
     3
 72
     8
 73
     4
 74
     0
 42
0.000000001
 43
0.00000001
 40
0.0
 40
0.0
 40
0.0
 40
0.0
 40
1.0
 40
1.0
 40
1.0
 40
1.0
 10
9.189646095137462
 20
3.001036742760228
 30
0.0
 10
9.263105034126365
 20
2.939001354035695
 30
0.0
 10
9.358336312663294
 20
2.924229140520153
 30
0.0
 10
9.436593005821475
 20
2.967345420541238
 30
0.0
  0
SPLINE
  5
143
330
1F
100
AcDbEntity
  8
외형선
  6
Continuous
 62
     1
370
    15
100
AcDbSpline
210
0.0
220
0.0
230
1.0
 70
     8
 71
     3
 72
    10
 73
     6
 74
     0
 42
0.000000001
 43
0.00000001
 40
0.0
 40
0.0
 40
0.0
 40
0.0
 40
0.4999999999999997
 40
0.4999999999999997
 40
1.0
 40
1.0
 40
1.0
 40
1.0
 10
9.436593005821479
 20
2.96734542054124
 30
0.0
 10
9.59266824598195
 20
3.05333657973213
 30
0.0
 10
9.756685727553613
 20
3.060021186731515
 30
0.0
 10
10.08911410871766
 20
2.954682740903733
 30
0.0
 10
10.25489721346167
 20
2.841343981620341
 30
0.0
 10
10.40168478537708
 20
2.678159729566922
 30
0.0
  0
SPLINE
  5
144
330
1F
100
AcDbEntity
  8
외형선
  6
Continuous
 62
     1
370
    15
100
AcDbSpline
210
0.0
220
0.0
230
1.0
 70
     8
 71
     3
 72
     8
 73
     4
 74
     0
 42
0.000000001
 43
0.00000001
 40
0.0
 40
0.0
 40
0.0
 40
0.0
 40
1.0
 40
1.0
 40
1.0
 40
1.0
 10
10.40168478537708
 20
2.678159729566924
 30
0.0
 10
10.47520141470154
 20
2.596431038143855
 30
0.0
 10
10.57000170184225
 20
2.55278544834517
 30
0.0
 10
10.64744826083697
 20
2.565913472958333
 30
0.0
  0
SPLINE
  5
145
330
1F
100
AcDbEntity
  8
외형선
  6
Continuous
 62
     1
370
    15
100
AcDbSpline
210
0.0
220
0.0
230
1.0
 70
     8
 71
     3
 72
     8
 73
     4
 74
     0
 42
0.000000001
 43
0.00000001
 40
0.0
 40
0.0
 40
0.0
 40
0.0
 40
1.0
 40
1.0
 40
1.0
 40
1.0
 10
10.64744826083723
 20
2.565913472958477
 30
0.0
 10
10.76982027247789
 20
2.586656844925276
 30
0.0
 10
10.90025919376064
 20
2.555179564964922
 30
0.0
 10
11.0323609848142
 20
2.489199410315565
 30
0.0
  0
SPLINE
  5
146
330
1F
100
AcDbEntity
  8
외형선
  6
Continuous
 62
     1
370
    15
100
AcDbSpline
210
0.0
220
0.0
230
1.0
 70
     8
 71
     3
 72
     8
 73
     4
 74
     0
 42
0.000000001
 43
0.00000001
 40
0.0
 40
0.0
 40
0.0
 40
0.0
 40
1.0
 40
1.0
 40
1.0
 40
1.0
 10
11.03236098481421
 20
2.489199410315569
 30
0.0
 10
11.16640397826369
 20
2.393200054843878
 30
0.0
 10
11.29812073196115
 20
2.266533700770499
 30
0.0
 10
11.41602633755532
 20
2.12044401473746
 30
0.0
  0
SPLINE
  5
147
330
1F
100
AcDbEntity
  8
외형선
  6
Continuous
 62
     1
370
    15
100
AcDbSpline
210
0.0
220
0.0
230
1.0
 70
     8
 71
     3
 72
     8
 73
     4
 74
     0
 42
0.000000001
 43
0.00000001
 40
0.0
 40
0.0
 40
0.0
 40
0.0
 40
1.0
 40
1.0
 40
1.0
 40
1.0
 10
11.41602633755532
 20
2.120444014737459
 30
0.0
 10
11.48956486446317
 20
2.029326885461371
 30
0.0
 10
11.58463528145533
 20
1.964325511949961
 30
0.0
 10
11.66286193521003
 20
1.948704540499906
 30
0.0
  0
SPLINE
  5
148
330
1F
100
AcDbEntity
  8
외형선
  6
Continuous
 62
     1
370
    15
100
AcDbSpline
210
0.0
220
0.0
230
1.0
 70
     8
 71
     3
 72
    10
 73
     6
 74
     0
 42
0.000000001
 43
0.00000001
 40
0.0
 40
0.0
 40
0.0
 40
0.0
 40
0.5
 40
0.5
 40
1.0
 40
1.0
 40
1.0
 40
1.0
 10
11.66286193521004
 20
1.948704540499903
 30
0.0
 10
11.81836904777727
 20
1.917651541948812
 30
0.0
 10
11.98327452929362
 20
1.812785320184982
 30
0.0
 10
12.31558233140076
 20
1.535804170664843
 30
0.0
 10
12.480928456823
 20
1.364376608148711
 30
0.0
 10
12.62714668879807
 20
1.186251539804253
 30
0.0
  0
SPLINE
  5
149
330
1F
100
AcDbEntity
  8
외형선
  6
Continuous
 62
     1
370
    15
100
AcDbSpline
210
0.0
220
0.0
230
1.0
 70
     8
 71
     3
 72
     8
 73
     4
 74
     0
 42
0.000000001
 43
0.00000001
 40
0.0
 40
0.0
 40
0.0
 40
0.0
 40
1.0
 40
1.0
 40
1.0
 40
1.0
 10
12.62714668879797
 20
1.186251539804341
 30
0.0
 10
12.70047675640004
 20
1.096919839325596
 30
0.0
 10
12.795312210984
 20
1.016792937399377
 30
0.0
 10
12.87301017335527
 20
0.9717940811550386
 30
0.0
  0
SPLINE
  5
14A
330
1F
100
AcDbEntity
  8
외형선
  6
Continuous
 62
     1
370
    15
100
AcDbSpline
210
0.0
220
0.0
230
1.0
 70
     8
 71
     3
 72
     8
 73
     4
 74
     0
 42
0.000000001
 43
0.00000001
 40
0.0
 40
0.0
 40
0.0
 40
0.0
 40
1.0
 40
1.0
 40
1.0
 40
1.0
 10
12.87301017335504
 20
0.9717940811547244
 30
0.0
 10
12.99570677837827
 20
0.9007342139122945
 30
0.0
 10
13.12638670957717
 20
0.7911906311884139
 30
0.0
 10
13.25845841427514
 20
0.6690679605176789
 30
0.0
  0
SPLINE
  5
14B
330
1F
100
AcDbEntity
  8
외형선
  6
Continuous
 62
     1
370
    15
100
AcDbSpline
210
0.0
220
0.0
230
1.0
 70
     8
 71
     3
 72
     8
 73
     4
 74
     0
 42
0.000000001
 43
0.00000001
 40
0.0
 40
0.0
 40
0.0
 40
0.0
 40
1.0
 40
1.0
 40
1.0
 40
1.0
 10
13.25845841427514
 20
0.6690679605176784
 30
0.0
 10
13.39280695097801
 20
0.5361076513299085
 30
0.0
 10
13.52461697750767
 20
0.3983157322361091
 30
0.0
 10
13.64241712339348
 20
0.2715481295482285
 30
0.0
  0
SPLINE
  5
14C
330
1F
100
AcDbEntity
  8
외형선
  6
Continuous
 62
     1
370
    15
100
AcDbSpline
210
0.0
220
0.0
230
1.0
 70
     8
 71
     3
 72
     8
 73
     4
 74
     0
 42
0.000000001
 43
0.00000001
 40
0.0
 40
0.0
 40
0.0
 40
0.0
 40
1.0
 40
1.0
 40
1.0
 40
1.0
 10
13.64241712339348
 20
0.2715481295482223
 30
0.0
 10
13.71560329527191
 20
0.1927907096047458
 30
0.0
 10
13.81054142017456
 20
0.107532723965694
 30
0.0
 10
13.88884451752271
 20
0.0407434878445067
 30
0.0
  0
SPLINE
  5
14D
330
1F
100
AcDbEntity
  8
외형선
  6
Continuous
 62
     1
370
    15
100
AcDbSpline
210
0.0
220
0.0
230
1.0
 70
     8
 71
     3
 72
    10
 73
     6
 74
     0
 42
0.000000001
 43
0.00000001
 40
0.0
 40
0.0
 40
0.0
 40
0.0
 40
0.5
 40
0.5
 40
1.0
 40
1.0
 40
1.0
 40
1.0
 10
13.8888445175227
 20
0.0407434878445271
 30
0.0
 10
14.0447016994328
 20
-0.0921961081141702
 30
0.0
 10
14.20982392613882
 20
-0.2611005581575902
 30
0.0
 10
14.54183910924361
 20
-0.5836266080011554
 30
0.0
 10
14.70609425591873
 20
-0.7358067390835978
 30
0.0
 10
14.85263843173735
 20
-0.8471827384801724
 30
0.0
  0
SPLINE
  5
14E
330
1F
100
AcDbEntity
  8
외형선
  6
Continuous
 62
     1
370
    15
100
AcDbSpline
210
0.0
220
0.0
230
1.0
 70
     8
 71
     3
 72
     8
 73
     4
 74
     0
 42
0.000000001
 43
0.00000001
 40
0.0
 40
0.0
 40
0.0
 40
0.0
 40
1.0
 40
1.0
 40
1.0
 40
1.0
 10
14.8526384317373
 20
-0.8471827384803124
 30
0.0
 10
14.92607057409836
 20
-0.9029923822113276
 30
0.0
 10
15.02112626724433
 20
-0.982440826289289
 30
0.0
 10
15.09885283346114
 20
-1.065049356628226
 30
0.0
  0
SPLINE
  5
14F
330
1F
100
AcDbEntity
  8
외형선
  6
Continuous
 62
     1
370
    15
100
AcDbSpline
210
0.0
220
0.0
230
1.0
 70
     8
 71
     3
 72
     8
 73
     4
 74
     0
 42
0.000000001
 43
0.00000001
 40
0.0
 40
0.0
 40
0.0
 40
0.0
 40
1.0
 40
1.0
 40
1.0
 40
1.0
 10
15.09885283345939
 20
-1.065049356626326
 30
0.0
 10
15.22190619435077
 20
-1.195831633411035
 30
0.0
 10
15.3528164620317
 20
-1.333743769984516
 30
0.0
 10
15.48483181131945
 20
-1.456678047786024
 30
0.0
  0
SPLINE
  5
150
330
1F
100
AcDbEntity
  8
외형선
  6
Continuous
 62
     1
370
    15
100
AcDbSpline
210
0.0
220
0.0
230
1.0
 70
     8
 71
     3
 72
     8
 73
     4
 74
     0
 42
0.000000001
 43
0.00000001
 40
0.0
 40
0.0
 40
0.0
 40
0.0
 40
1.0
 40
1.0
 40
1.0
 40
1.0
 10
15.48483181131946
 20
-1.456678047786014
 30
0.0
 10
15.61904746264379
 20
-1.566100403800008
 30
0.0
 10
15.75030587091432
 20
-1.65277542917572
 30
0.0
 10
15.86843741268586
 20
-1.701297913213353
 30
0.0
  0
SPLINE
  5
151
330
1F
100
AcDbEntity
  8
외형선
  6
Continuous
 62
     1
370
    15
100
AcDbSpline
210
0.0
220
0.0
230
1.0
 70
     8
 71
     3
 72
     8
 73
     4
 74
     0
 42
0.000000001
 43
0.00000001
 40
0.0
 40
0.0
 40
0.0
 40
0.0
 40
1.0
 40
1.0
 40
1.0
 40
1.0
 10
15.86843741268586
 20
-1.701297913213351
 30
0.0
 10
15.94154333624428
 20
-1.731326142386727
 30
0.0
 10
16.03654389889206
 20
-1.797423611720953
 30
0.0
 10
16.11469348877205
 20
-1.884956927300186
 30
0.0
  0
SPLINE
  5
152
330
1F
100
AcDbEntity
  8
외형선
  6
Continuous
 62
     1
370
    15
100
AcDbSpline
210
0.0
220
0.0
230
1.0
 70
     8
 71
     3
 72
    10
 73
     6
 74
     0
 42
0.000000001
 43
0.00000001
 40
0.0
 40
0.0
 40
0.0
 40
0.0
 40
0.5
 40
0.5
 40
1.0
 40
1.0
 40
1.0
 40
1.0
 10
16.11469348877206
 20
-1.884956927300188
 30
0.0
 10
16.27073795542739
 20
-2.059738260959245
 30
0.0
 10
16.43583226579302
 20
-2.215753233961854
 30
0.0
 10
16.76703296049465
 20
-2.43693949262634
 30
0.0
 10
16.93155240408871
 20
-2.499453618045694
 30
0.0
 10
17.07840918308512
 20
-2.493496954713866
 30
0.0
  0
SPLINE
  5
153
330
1F
100
AcDbEntity
  8
외형선
  6
Continuous
 62
     1
370
    15
100
AcDbSpline
210
0.0
220
0.0
230
1.0
 70
     8
 71
     3
 72
     8
 73
     4
 74
     0
 42
0.000000001
 43
0.00000001
 40
0.0
 40
0.0
 40
0.0
 40
0.0
 40
1.0
 40
1.0
 40
1.0
 40
1.0
 10
17.07840918308419
 20
-2.493496954713899
 30
0.0
 10
17.15201831354025
 20
-2.490511292007233
 30
0.0
 10
17.24720271336331
 20
-2.533517937484631
 30
0.0
 10
17.32497451437835
 20
-2.616253764388602
 30
0.0
  0
SPLINE
  5
154
330
1F
100
AcDbEntity
  8
외형선
  6
Continuous
 62
     1
370
    15
100
AcDbSpline
210
0.0
220
0.0
230
1.0
 70
     8
 71
     3
 72
     8
 73
     4
 74
     0
 42
0.000000001
 43
0.00000001
 40
0.0
 40
0.0
 40
0.0
 40
0.0
 40
1.0
 40
1.0
 40
1.0
 40
1.0
 10
17.32497451437861
 20
-2.616253764388753
 30
0.0
 10
17.44834468907511
 20
-2.747498422292784
 30
0.0
 10
17.5793756387881
 20
-2.850812122705511
 30
0.0
 10
17.71121776751635
 20
-2.918338657503111
 30
0.0
  0
SPLINE
  5
155
330
1F
100
AcDbEntity
  8
외형선
  6
Continuous
 62
     1
370
    15
100
AcDbSpline
210
0.0
220
0.0
230
1.0
 70
     8
 71
     3
 72
     8
 73
     4
 74
     0
 42
0.000000001
 43
0.00000001
 40
0.0
 40
0.0
 40
0.0
 40
0.0
 40
1.0
 40
1.0
 40
1.0
 40
1.0
 10
17.71121776751636
 20
-2.91833865750311
 30
0.0
 10
17.84464295603096
 20
-2.954065068560479
 30
0.0
 10
17.97628406689732
 20
-2.948698220739153
 30
0.0
 10
18.09432074619146
 20
-2.897010357771557
 30
0.0
  0
SPLINE
  5
156
330
1F
100
AcDbEntity
  8
외형선
  6
Continuous
 62
     1
370
    15
100
AcDbSpline
210
0.0
220
0.0
230
1.0
 70
     8
 71
     3
 72
     8
 73
     4
 74
     0
 42
0.000000001
 43
0.00000001
 40
0.0
 40
0.0
 40
0.0
 40
0.0
 40
1.0
 40
1.0
 40
1.0
 40
1.0
 10
18.09432074619145
 20
-2.897010357771553
 30
0.0
 10
18.16742214767523
 20
-2.864999501102016
 30
0.0
 10
18.26239611512227
 20
-2.882427973786067
 30
0.0
 10
18.34041050314817
 20
-2.951105173194599
 30
0.0
  0
SPLINE
  5
157
330
1F
100
AcDbEntity
  8
외형선
  6
Continuous
 62
     1
370
    15
100
AcDbSpline
210
0.0
220
0.0
230
1.0
 70
     8
 71
     3
 72
     9
 73
     5
 74
     0
 42
0.000000001
 43
0.00000001
 40
0.0
 40
0.0
 40
0.0
 40
0.0
 40
0.573663713512608
 40
1.0
 40
1.0
 40
1.0
 40
1.0
 10
18.34041050314817
 20
-2.951105173194597
 30
0.0
 10
18.42492156638774
 20
-3.016065099497892
 30
0.0
 10
18.57223969240637
 20
-3.129302044371987
 30
0.0
 10
18.72582615528874
 20
-3.148225853099275
 30
0.0
 10
18.79130563752874
 20
-3.156293759438264
 30
0.0
  0
SPLINE
  5
158
330
1F
100
AcDbEntity
  8
외형선
  6
Continuous
 62
     1
370
    15
100
AcDbSpline
210
0.0
220
0.0
230
1.0
 70
     8
 71
     3
 72
    10
 73
     6
 74
     0
 42
0.000000001
 43
0.00000001
 40
0.0
 40
0.0
 40
0.0
 40
0.0
 40
0.0617940120741674
 40
0.6083533006636432
 40
0.9999999999999999
 40
0.9999999999999999
 40
0.9999999999999999
 40
0.9999999999999999
 10
16.78156303427699
 20
-2.413489941746499
 30
0.0
 10
16.77826617500651
 20
-2.414180706349005
 30
0.0
 10
16.74580906222654
 20
-2.420981186068813
 30
0.0
 10
16.68404273215188
 20
-2.459749807567748
 30
0.0
 10
16.6330266518202
 20
-2.508094759330063
 30
0.0
 10
16.61173039094346
 20
-2.528275978626207
 30
0.0
  0
SPLINE
  5
159
330
1F
100
AcDbEntity
  8
외형선
  6
Continuous
 62
     1
370
    15
100
AcDbSpline
210
0.0
220
0.0
230
1.0
 70
     8
 71
     3
 72
    10
 73
     6
 74
     0
 42
0.000000001
 43
0.00000001
 40
0.0
 40
0.0
 40
0.0
 40
0.0
 40
0.5
 40
0.5
 40
1.0
 40
1.0
 40
1.0
 40
1.0
 10
16.61173039094346
 20
-2.528275978626203
 30
0.0
 10
16.4561711145535
 20
-2.695589523096533
 30
0.0
 10
16.29117621433567
 20
-2.819847117065208
 30
0.0
 10
15.95890298471395
 20
-2.953855734618029
 30
0.0
 10
15.79411630899814
 20
-2.961736849857305
 30
0.0
 10
15.64778979419482
 20
-2.899560360471285
 30
0.0
  0
SPLINE
  5
15A
330
1F
100
AcDbEntity
  8
외형선
  6
Continuous
 62
     1
370
    15
100
AcDbSpline
210
0.0
220
0.0
230
1.0
 70
     8
 71
     3
 72
     8
 73
     4
 74
     0
 42
0.000000001
 43
0.00000001
 40
0.0
 40
0.0
 40
0.0
 40
0.0
 40
1.0
 40
1.0
 40
1.0
 40
1.0
 10
15.64778979419482
 20
-2.899560360471287
 30
0.0
 10
15.57423906647762
 20
-2.868307473409736
 30
0.0
 10
15.47907429403561
 20
-2.886304711144806
 30
0.0
 10
15.40112033942141
 20
-2.955708164265705
 30
0.0
  0
SPLINE
  5
15B
330
1F
100
AcDbEntity
  8
외형선
  6
Continuous
 62
     1
370
    15
100
AcDbSpline
210
0.0
220
0.0
230
1.0
 70
     8
 71
     3
 72
     8
 73
     4
 74
     0
 42
0.000000001
 43
0.00000001
 40
0.0
 40
0.0
 40
0.0
 40
0.0
 40
1.0
 40
1.0
 40
1.0
 40
1.0
 10
15.40112033942141
 20
-2.955708164265705
 30
0.0
 10
15.27802158904714
 20
-3.06530463558167
 30
0.0
 10
15.14704427152724
 20
-3.134516030959698
 30
0.0
 10
15.01477582480355
 20
-3.163324794196338
 30
0.0
  0
SPLINE
  5
15C
330
1F
100
AcDbEntity
  8
외형선
  6
Continuous
 62
     1
370
    15
100
AcDbSpline
210
0.0
220
0.0
230
1.0
 70
     8
 71
     3
 72
     8
 73
     4
 74
     0
 42
0.000000001
 43
0.00000001
 40
0.0
 40
0.0
 40
0.0
 40
0.0
 40
1.0
 40
1.0
 40
1.0
 40
1.0
 10
15.01477582480279
 20
-3.163324794196503
 30
0.0
 10
14.88075169467965
 20
-3.156624735624868
 30
0.0
 10
14.74955486417129
 20
-3.107121627286935
 30
0.0
 10
14.63203010167254
 20
-3.014863701581836
 30
0.0
  0
SPLINE
  5
15D
330
1F
100
AcDbEntity
  8
외형선
  6
Continuous
 62
     1
370
    15
100
AcDbSpline
210
0.0
220
0.0
230
1.0
 70
     8
 71
     3
 72
     8
 73
     4
 74
     0
 42
0.000000001
 43
0.00000001
 40
0.0
 40
0.0
 40
0.0
 40
0.0
 40
1.0
 40
1.0
 40
1.0
 40
1.0
 10
14.63203010167241
 20
-3.014863701581727
 30
0.0
 10
14.55910430277672
 20
-2.957616336911848
 30
0.0
 10
14.46425672317436
 20
-2.948077557028543
 30
0.0
 10
14.38618127029356
 20
-2.996337065050498
 30
0.0
  0
SPLINE
  5
15E
330
1F
100
AcDbEntity
  8
외형선
  6
Continuous
 62
     1
370
    15
100
AcDbSpline
210
0.0
220
0.0
230
1.0
 70
     8
 71
     3
 72
    10
 73
     6
 74
     0
 42
0.000000001
 43
0.00000001
 40
0.0
 40
0.0
 40
0.0
 40
0.0
 40
0.4999999999999993
 40
0.4999999999999993
 40
1.0
 40
1.0
 40
1.0
 40
1.0
 10
14.38618127029357
 20
-2.996337065050497
 30
0.0
 10
14.230165877126
 20
-3.092772318901855
 30
0.0
 10
14.0648909203149
 20
-3.111356036064214
 30
0.0
 10
13.73280591168953
 20
-3.025926242442145
 30
0.0
 10
13.56857609475222
 20
-2.921242388515203
 30
0.0
 10
13.42168054853872
 20
-2.764213061702156
 30
0.0
  0
SPLINE
  5
15F
330
1F
100
AcDbEntity
  8
외형선
  6
Continuous
 62
     1
370
    15
100
AcDbSpline
210
0.0
220
0.0
230
1.0
 70
     8
 71
     3
 72
     8
 73
     4
 74
     0
 42
0.000000001
 43
0.00000001
 40
0.0
 40
0.0
 40
0.0
 40
0.0
 40
1.0
 40
1.0
 40
1.0
 40
1.0
 10
13.42168054853873
 20
-2.764213061702157
 30
0.0
 10
13.34791388339954
 20
-2.685357507080818
 30
0.0
 10
13.25255501512984
 20
-2.646575688138054
 30
0.0
 10
13.17455607933231
 20
-2.665716447824703
 30
0.0
  0
SPLINE
  5
160
330
1F
100
AcDbEntity
  8
외형선
  6
Continuous
 62
     1
370
    15
100
AcDbSpline
210
0.0
220
0.0
230
1.0
 70
     8
 71
     3
 72
     8
 73
     4
 74
     0
 42
0.000000001
 43
0.00000001
 40
0.0
 40
0.0
 40
0.0
 40
0.0
 40
1.0
 40
1.0
 40
1.0
 40
1.0
 10
13.17455607933231
 20
-2.665716447824705
 30
0.0
 10
13.05145824062965
 20
-2.695924374695267
 30
0.0
 10
12.92066221882222
 20
-2.67348917273155
 30
0.0
 10
12.78882380198781
 20
-2.614793077773915
 30
0.0
  0
SPLINE
  5
161
330
1F
100
AcDbEntity
  8
외형선
  6
Continuous
 62
     1
370
    15
100
AcDbSpline
210
0.0
220
0.0
230
1.0
 70
     8
 71
     3
 72
     8
 73
     4
 74
     0
 42
0.000000001
 43
0.00000001
 40
0.0
 40
0.0
 40
0.0
 40
0.0
 40
1.0
 40
1.0
 40
1.0
 40
1.0
 10
12.7888238019878
 20
-2.614793077773907
 30
0.0
 10
12.65516693510775
 20
-2.52492598730723
 30
0.0
 10
12.52428641022759
 20
-2.40223520881325
 30
0.0
 10
12.40649422536337
 20
-2.257656253337033
 30
0.0
  0
SPLINE
  5
162
330
1F
100
AcDbEntity
  8
외형선
  6
Continuous
 62
     1
370
    15
100
AcDbSpline
210
0.0
220
0.0
230
1.0
 70
     8
 71
     3
 72
     8
 73
     4
 74
     0
 42
0.000000001
 43
0.00000001
 40
0.0
 40
0.0
 40
0.0
 40
0.0
 40
1.0
 40
1.0
 40
1.0
 40
1.0
 10
12.40649422536323
 20
-2.257656253336857
 30
0.0
 10
12.33350080753693
 20
-2.168063619342231
 30
0.0
 10
12.23858926789104
 20
-2.107425505647412
 30
0.0
 10
12.16058088148835
 20
-2.0983347707603
 30
0.0
  0
SPLINE
  5
163
330
1F
100
AcDbEntity
  8
외형선
  6
Continuous
 62
     1
370
    15
100
AcDbSpline
210
0.0
220
0.0
230
1.0
 70
     8
 71
     3
 72
    10
 73
     6
 74
     0
 42
0.000000001
 43
0.00000001
 40
0.0
 40
0.0
 40
0.0
 40
0.0
 40
0.5
 40
0.5
 40
1.0
 40
1.0
 40
1.0
 40
1.0
 10
12.16058088148836
 20
-2.098334770760303
 30
0.0
 10
12.00427225585065
 20
-2.080119289813094
 30
0.0
 10
11.83896612208834
 20
-1.984250172512353
 30
0.0
 10
11.5076095799507
 20
-1.716920492065948
 30
0.0
 10
11.34240182039695
 20
-1.547632667625795
 30
0.0
 10
11.19514513038343
 20
-1.367674443766121
 30
0.0
  0
SPLINE
  5
164
330
1F
100
AcDbEntity
  8
외형선
  6
Continuous
 62
     1
370
    15
100
AcDbSpline
210
0.0
220
0.0
230
1.0
 70
     8
 71
     3
 72
     8
 73
     4
 74
     0
 42
0.000000001
 43
0.00000001
 40
0.0
 40
0.0
 40
0.0
 40
0.0
 40
1.0
 40
1.0
 40
1.0
 40
1.0
 10
11.19514513038342
 20
-1.367674443766113
 30
0.0
 10
11.12136965113016
 20
-1.277515523247063
 30
0.0
 10
11.02609944158769
 20
-1.199832351532816
 30
0.0
 10
10.94826974778736
 20
-1.160013579970806
 30
0.0
  0
SPLINE
  5
165
330
1F
100
AcDbEntity
  8
외형선
  6
Continuous
 62
     1
370
    15
100
AcDbSpline
210
0.0
220
0.0
230
1.0
 70
     8
 71
     3
 72
     8
 73
     4
 74
     0
 42
0.000000001
 43
0.00000001
 40
0.0
 40
0.0
 40
0.0
 40
0.0
 40
1.0
 40
1.0
 40
1.0
 40
1.0
 10
10.94826974778743
 20
-1.160013579971052
 30
0.0
 10
10.82521819128782
 20
-1.097058664188165
 30
0.0
 10
10.69490983761389
 20
-0.9924367339014804
 30
0.0
 10
10.56322201797606
 20
-0.8727324077842503
 30
0.0
  0
SPLINE
  5
166
330
1F
100
AcDbEntity
  8
외형선
  6
Continuous
 62
     1
370
    15
100
AcDbSpline
210
0.0
220
0.0
230
1.0
 70
     8
 71
     3
 72
     8
 73
     4
 74
     0
 42
0.000000001
 43
0.00000001
 40
0.0
 40
0.0
 40
0.0
 40
0.0
 40
1.0
 40
1.0
 40
1.0
 40
1.0
 10
10.56322201797606
 20
-0.8727324077842511
 30
0.0
 10
10.43003618716389
 20
-0.7406862808724847
 30
0.0
 10
10.29861611848882
 20
-0.6017293754396782
 30
0.0
 10
10.18090697480975
 20
-0.4713634338004541
 30
0.0
  0
SPLINE
  5
167
330
1F
100
AcDbEntity
  8
외형선
  6
Continuous
 62
     1
370
    15
100
AcDbSpline
210
0.0
220
0.0
230
1.0
 70
     8
 71
     3
 72
     8
 73
     4
 74
     0
 42
0.000000001
 43
0.00000001
 40
0.0
 40
0.0
 40
0.0
 40
0.0
 40
1.0
 40
1.0
 40
1.0
 40
1.0
 10
10.18090697480961
 20
-0.4713634338002844
 30
0.0
 10
10.10783321317516
 20
-0.3904323400309669
 30
0.0
 10
10.01288948405956
 20
-0.3062832382627
 30
0.0
 10
9.934929518079818
 20
-0.2439542757041463
 30
0.0
  0
SPLINE
  5
168
330
1F
100
AcDbEntity
  8
외형선
  6
Continuous
 62
     1
370
    15
100
AcDbSpline
210
0.0
220
0.0
230
1.0
 70
     8
 71
     3
 72
    10
 73
     6
 74
     0
 42
0.000000001
 43
0.00000001
 40
0.0
 40
0.0
 40
0.0
 40
0.0
 40
0.5
 40
0.5
 40
1.0
 40
1.0
 40
1.0
 40
1.0
 10
9.93492951807981
 20
-0.2439542757041288
 30
0.0
 10
9.77858622404927
 20
-0.1189578727754062
 30
0.0
 10
9.614279309140173
 20
0.0487092768147766
 30
0.0
 10
9.281894308019872
 20
0.3751439898979063
 30
0.0
 10
9.116026033307634
 20
0.5316726248179464
 30
0.0
 10
8.968766432810234
 20
0.65243505914971
 30
0.0
  0
SPLINE
  5
169
330
1F
100
AcDbEntity
  8
외형선
  6
Continuous
 62
     1
370
    15
100
AcDbSpline
210
0.0
220
0.0
230
1.0
 70
     8
 71
     3
 72
     8
 73
     4
 74
     0
 42
0.000000001
 43
0.00000001
 40
0.0
 40
0.0
 40
0.0
 40
0.0
 40
1.0
 40
1.0
 40
1.0
 40
1.0
 10
8.968766432810312
 20
0.6524350591493425
 30
0.0
 10
8.895074828144521
 20
0.7128669599503434
 30
0.0
 10
8.799962149448636
 20
0.7941721867562814
 30
0.0
 10
8.722343318451841
 20
0.8749541536064028
 30
0.0
  0
SPLINE
  5
16A
330
1F
100
AcDbEntity
  8
외형선
  6
Continuous
 62
     1
370
    15
100
AcDbSpline
210
0.0
220
0.0
230
1.0
 70
     8
 71
     3
 72
     8
 73
     4
 74
     0
 42
0.000000001
 43
0.00000001
 40
0.0
 40
0.0
 40
0.0
 40
0.0
 40
1.0
 40
1.0
 40
1.0
 40
1.0
 10
8.722343318451838
 20
0.8749541536064122
 30
0.0
 10
8.599625485371448
 20
1.002673004773226
 30
0.0
 10
8.469729604262719
 20
1.141540480688857
 30
0.0
 10
8.337678688830174
 20
1.267014536507995
 30
0.0
  0
SPLINE
  5
16B
330
1F
100
AcDbEntity
  8
외형선
  6
Continuous
 62
     1
370
    15
100
AcDbSpline
210
0.0
220
0.0
230
1.0
 70
     8
 71
     3
 72
     8
 73
     4
 74
     0
 42
0.000000001
 43
0.00000001
 40
0.0
 40
0.0
 40
0.0
 40
0.0
 40
1.0
 40
1.0
 40
1.0
 40
1.0
 10
8.337678688830167
 20
1.267014536507999
 30
0.0
 10
8.204213318957144
 20
1.380470867451835
 30
0.0
 10
8.072826225565985
 20
1.472562122655596
 30
0.0
 10
7.955268788784331
 20
1.52963210556226
 30
0.0
  0
SPLINE
  5
16C
330
1F
100
AcDbEntity
  8
외형선
  6
Continuous
 62
     1
370
    15
100
AcDbSpline
210
0.0
220
0.0
230
1.0
 70
     8
 71
     3
 72
     8
 73
     4
 74
     0
 42
0.000000001
 43
0.00000001
 40
0.0
 40
0.0
 40
0.0
 40
0.0
 40
1.0
 40
1.0
 40
1.0
 40
1.0
 10
7.955268788784328
 20
1.529632105562257
 30
0.0
 10
7.882099613669292
 20
1.565153155420343
 30
0.0
 10
7.787154757792185
 20
1.634803978356477
 30
0.0
 10
7.709226913175355
 20
1.722149665873126
 30
0.0
  0
SPLINE
  5
16D
330
1F
100
AcDbEntity
  8
외형선
  6
Continuous
 62
     1
370
    15
100
AcDbSpline
210
0.0
220
0.0
230
1.0
 70
     8
 71
     3
 72
    14
 73
    10
 74
     0
 42
0.000000001
 43
0.00000001
 40
0.0
 40
0.0
 40
0.0
 40
0.0
 40
0.25
 40
0.25
 40
0.5
 40
0.5
 40
0.75
 40
0.75
 40
1.0
 40
1.0
 40
1.0
 40
1.0
 10
7.709226913175358
 20
1.722149665873127
 30
0.0
 10
7.646527542495576
 20
1.792426467006481
 30
0.0
 10
7.583304705313529
 20
1.860035783789637
 30
0.0
 10
7.453269299605844
 20
1.988516010647157
 30
0.0
 10
7.386415842105766
 20
2.049193522745768
 30
0.0
 10
7.253685390548204
 20
2.156646543050927
 30
0.0
 10
7.186191282705551
 20
2.20473046704409
 30
0.0
 10
7.05378516216838
 20
2.283974679856994
 30
0.0
 10
6.988798681094242
 20
2.315400952246633
 30
0.0
 10
6.924630657022965
 20
2.337789385468604
 30
0.0
  0
SPLINE
  5
16E
330
1F
100
AcDbEntity
  8
외형선
  6
Continuous
370
    15
100
AcDbSpline
210
0.0
220
0.0
230
1.0
 70
     8
 71
     3
 72
     8
 73
     4
 74
     0
 42
0.000000001
 43
0.00000001
 40
0.0
 40
0.0
 40
0.0
 40
0.0
 40
1.0
 40
1.0
 40
1.0
 40
1.0
 10
6.92463065701558
 20
2.26555505983533
 30
0.0
 10
6.874419623798453
 20
2.301908327083277
 30
0.0
 10
6.824437461048838
 20
2.337614482598536
 30
0.0
 10
6.774679603707859
 20
2.372661518561296
 30
0.0
  0
SPLINE
  5
16F
330
1F
100
AcDbEntity
  8
외형선
  6
Continuous
370
    15
100
AcDbSpline
210
0.0
220
0.0
230
1.0
 70
     8
 71
     3
 72
     8
 73
     4
 74
     0
 42
0.000000001
 43
0.00000001
 40
0.0
 40
0.0
 40
0.0
 40
0.0
 40
1.0
 40
1.0
 40
1.0
 40
1.0
 10
6.774679603707853
 20
2.37266151856132
 30
0.0
 10
6.763939470056529
 20
2.373797158114673
 30
0.0
 10
6.753294381965866
 20
2.374601254694741
 30
0.0
 10
6.742747288680084
 20
2.375067341723564
 30
0.0
  0
SPLINE
  5
170
330
1F
100
AcDbEntity
  8
외형선
  6
Continuous
370
    15
100
AcDbSpline
210
0.0
220
0.0
230
1.0
 70
     8
 71
     3
 72
     8
 73
     4
 74
     0
 42
0.000000001
 43
0.00000001
 40
0.0
 40
0.0
 40
0.0
 40
0.0
 40
1.0
 40
1.0
 40
1.0
 40
1.0
 10
6.742747288680073
 20
2.375067341723545
 30
0.0
 10
6.669141462363342
 20
2.378320059791124
 30
0.0
 10
6.574348115332082
 20
2.426426993231235
 30
0.0
 10
6.496758834794708
 20
2.511254879675378
 30
0.0
  0
SPLINE
  5
171
330
1F
100
AcDbEntity
  8
외형선
  6
Continuous
370
    15
100
AcDbSpline
210
0.0
220
0.0
230
1.0
 70
     8
 71
     3
 72
     8
 73
     4
 74
     0
 42
0.000000001
 43
0.00000001
 40
0.0
 40
0.0
 40
0.0
 40
0.0
 40
1.0
 40
1.0
 40
1.0
 40
1.0
 10
6.496758834794717
 20
2.511254879675366
 30
0.0
 10
6.447047159945548
 20
2.565604350115708
 30
0.0
 10
6.395955674356388
 20
2.615935936317263
 30
0.0
 10
6.343985100813137
 20
2.661492468251638
 30
0.0
  0
SPLINE
  5
172
330
1F
100
AcDbEntity
  8
외형선
  6
Continuous
 62
     1
370
    15
100
AcDbSpline
210
0.0
220
0.0
230
1.0
 70
     8
 71
     3
 72
    12
 73
     8
 74
     0
 42
0.000000001
 43
0.00000001
 40
0.0
 40
0.0
 40
0.0
 40
0.0
 40
0.2499999999999999
 40
0.2499999999999999
 40
0.4999999999999999
 40
0.4999999999999999
 40
1.0
 40
1.0
 40
1.0
 40
1.0
 10
15.7568401905297
 20
0.6562685393736871
 30
0.0
 10
15.7345807456019
 20
0.4800386663604009
 30
0.0
 10
15.71325514168951
 20
0.3031299467856592
 30
0.0
 10
15.66822934460884
 20
-0.058190120105795
 30
0.0
 10
15.64508942893299
 20
-0.2411178200800717
 30
0.0
 10
15.57528550081758
 20
-0.7846032403945878
 30
0.0
 10
15.52830931482202
 20
-1.139073792634413
 30
0.0
 10
15.48483181131948
 20
-1.456678047785777
 30
0.0
  0
SPLINE
  5
173
330
1F
100
AcDbEntity
  8
외형선
  6
Continuous
 62
     1
370
    15
100
AcDbSpline
210
0.0
220
0.0
230
1.0
 70
     8
 71
     3
 72
    12
 73
     8
 74
     0
 42
0.000000001
 43
0.00000001
 40
0.0
 40
0.0
 40
0.0
 40
0.0
 40
0.25
 40
0.25
 40
0.5
 40
0.5
 40
1.0
 40
1.0
 40
1.0
 40
1.0
 10
8.337678688830128
 20
1.267014536507712
 30
0.0
 10
8.314435579000586
 20
1.099577597344001
 30
0.0
 10
8.291326841277348
 20
0.9261466831738465
 30
0.0
 10
8.246371900901867
 20
0.5752115030175341
 30
0.0
 10
8.225075692359834
 20
0.3992321696796844
 30
0.0
 10
8.158314525707064
 20
-0.139449433817403
 30
0.0
 10
8.110935899259184
 20
-0.5104544127395966
 30
0.0
 10
8.064733729879363
 20
-0.8612581933214547
 30
0.0
  0
SPLINE
  5
174
330
1F
100
AcDbEntity
  8
외형선
  6
Continuous
370
    15
100
AcDbSpline
210
0.0
220
0.0
230
1.0
 70
    24
 71
     3
 72
    14
 73
    10
 74
     0
 42
0.000000001
 43
0.00000001
 40
0.0
 40
0.0
 40
0.0
 40
0.0
 40
0.2500000000000001
 40
0.2500000000000001
 40
0.5000000000000001
 40
0.5000000000000001
 40
0.7500000000000002
 40
0.7500000000000002
 40
1.0
 40
1.0
 40
1.0
 40
1.0
 10
6.924630657015582
 20
-3.174999999999998
 30
0.0
 10
6.924630657015582
 20
0.4505268966092676
 30
0.0
 10
6.924630657015591
 20
0.6488519166862301
 30
0.0
 10
6.924630657015591
 20
1.036152354618161
 30
0.0
 10
6.924630657015584
 20
1.227002630813775
 30
0.0
 10
6.924630657015584
 20
1.584337010390341
 30
0.0
 10
6.92463065701558
 20
1.752044421022438
 30
0.0
 10
6.92463065701558
 20
2.065311256138522
 30
0.0
 10
6.924630657015582
 20
2.210089551134881
 30
0.0
 10
6.924630657015582
 20
2.33778938546665
 30
0.0
  0
SPLINE
  5
175
330
1F
100
AcDbEntity
  8
외형선
  6
Continuous
 62
     1
370
    15
100
AcDbSpline
210
0.0
220
0.0
230
1.0
 70
     8
 71
     3
 72
    12
 73
     8
 74
     0
 42
0.000000001
 43
0.00000001
 40
0.0
 40
0.0
 40
0.0
 40
0.0
 40
0.5
 40
0.5
 40
0.75
 40
0.75
 40
1.0
 40
1.0
 40
1.0
 40
1.0
 10
20.95166884191226
 20
2.032309877895413
 30
0.0
 10
20.90710752379071
 20
1.755602817403766
 30
0.0
 10
20.85970680481681
 20
1.432773308332663
 30
0.0
 10
20.79042674712625
 20
0.9193405286747783
 30
0.0
 10
20.76764803894497
 20
0.7435658706088777
 30
0.0
 10
20.72366685496799
 20
0.3907276263867777
 30
0.0
 10
20.7020631387396
 20
0.2126262144047316
 30
0.0
 10
20.67937329492607
 20
0.0314689573185393
 30
0.0
  0
SPLINE
  5
176
330
1F
100
AcDbEntity
  8
외형선
  6
Continuous
370
    15
100
AcDbSpline
210
0.0
220
0.0
230
1.0
 70
     8
 71
     3
 72
    12
 73
     8
 74
     0
 42
0.000000001
 43
0.00000001
 40
0.0
 40
0.0
 40
0.0
 40
0.0
 40
0.2499999999999999
 40
0.2499999999999999
 40
0.4999999999999999
 40
0.4999999999999999
 40
1.0
 40
1.0
 40
1.0
 40
1.0
 10
6.558684748663492
 20
0.5794932852473785
 30
0.0
 10
6.575851623908587
 20
0.7552562071956925
 30
0.0
 10
6.593482774652146
 20
0.927167959638418
 30
0.0
 10
6.629713044879312
 20
1.263097784173212
 30
0.0
 10
6.64805118275121
 20
1.424578642091527
 30
0.0
 10
6.702562406429792
 20
1.880170839102149
 30
0.0
 10
6.73795386124362
 20
2.153786726800729
 30
0.0
 10
6.774679603707833
 20
2.372661518561331
 30
0.0
  0
LINE
  5
177
330
1F
100
AcDbEntity
  8
외형선
  6
Continuous
 62
     1
370
    15
100
AcDbLine
 10
22.79963065701558
 20
-1.622862244781234
 30
0.0
 11
22.79963065701558
 21
0.3787874001400127
 31
0.0
  0
SPLINE
  5
178
330
1F
100
AcDbEntity
  8
외형선
  6
Continuous
 62
     1
370
    15
100
AcDbSpline
210
0.0
220
0.0
230
1.0
 70
     8
 71
     3
 72
     8
 73
     4
 74
     0
 42
0.000000001
 43
0.00000001
 40
0.0001080573750903
 40
0.0001080573750903
 40
0.0001080573750903
 40
0.0001080573750903
 40
0.0003097718223893
 40
0.0003097718223893
 40
0.0003097718223893
 40
0.0003097718223893
 10
22.66949679523731
 20
-1.763926364259146
 30
0.0
 10
22.71302082304211
 20
-1.716930872819572
 30
0.0
 10
22.7564046972329
 20
-1.669909476038561
 30
0.0
 10
22.79963065701558
 20
-1.622862244781235
 30
0.0
  0
SPLINE
  5
179
330
1F
100
AcDbEntity
  8
외형선
  6
Continuous
 62
     1
370
    15
100
AcDbSpline
210
0.0
220
0.0
230
1.0
 70
     8
 71
     3
 72
    10
 73
     6
 74
     0
 42
0.000000001
 43
0.00000001
 40
0.0
 40
0.0
 40
0.0
 40
0.0
 40
0.4999999999999999
 40
0.4999999999999999
 40
1.0
 40
1.0
 40
1.0
 40
1.0
 10
22.75778418677152
 20
0.1046226821919827
 30
0.0
 10
22.74063215314863
 20
-0.2235740251540281
 30
0.0
 10
22.72451927590611
 20
-0.5482750750761323
 30
0.0
 10
22.69456987334788
 20
-1.187728947733959
 30
0.0
 10
22.68185941228556
 20
-1.486147532994525
 30
0.0
 10
22.66949679523731
 20
-1.763926364259139
 30
0.0
  0
SPLINE
  5
17A
330
1F
100
AcDbEntity
  8
외형선
  6
Continuous
 62
     1
370
    15
100
AcDbSpline
210
0.0
220
0.0
230
1.0
 70
     8
 71
     3
 72
     8
 73
     4
 74
     0
 42
0.000000001
 43
0.00000001
 40
0.0
 40
0.0
 40
0.0
 40
0.0
 40
1.0
 40
1.0
 40
1.0
 40
1.0
 10
22.77222303563639
 20
0.4047306325410565
 30
0.0
 10
22.7678670867385
 20
0.3053991458976508
 30
0.0
 10
22.76304914320764
 20
0.205365334908468
 30
0.0
 10
22.75778418677152
 20
0.1046226821919781
 30
0.0
  0
SPLINE
  5
17B
330
1F
100
AcDbEntity
  8
외형선
  6
Continuous
 62
     1
370
    15
100
AcDbSpline
210
0.0
220
0.0
230
1.0
 70
     8
 71
     3
 72
    12
 73
     8
 74
     0
 42
0.000000001
 43
0.00000001
 40
0.0
 40
0.0
 40
0.0
 40
0.0
 40
0.2499999999999998
 40
0.2499999999999998
 40
0.4999999999999996
 40
0.4999999999999996
 40
1.0
 40
1.0
 40
1.0
 40
1.0
 10
13.53093272146821
 20
2.482106408049928
 30
0.0
 10
13.50822867524789
 20
2.369061952635259
 30
0.0
 10
13.48661421548686
 20
2.245843836387305
 30
0.0
 10
13.44259822800436
 20
1.977879705361968
 30
0.0
 10
13.41980176876982
 20
1.832120994900941
 30
0.0
 10
13.35047075098747
 20
1.367621106937593
 30
0.0
 10
13.30303947860274
 20
1.021348605983649
 30
0.0
 10
13.25845841427665
 20
0.6690679605297312
 30
0.0
  0
SPLINE
  5
17C
330
1F
100
AcDbEntity
  8
외형선
  6
Continuous
 62
     1
370
    15
100
AcDbSpline
210
0.0
220
0.0
230
1.0
 70
     8
 71
     3
 72
    12
 73
     8
 74
     0
 42
0.000000001
 43
0.00000001
 40
0.0
 40
0.0
 40
0.0
 40
0.0
 40
0.25
 40
0.25
 40
0.5
 40
0.5
 40
1.0
 40
1.0
 40
1.0
 40
1.0
 10
10.56322201797603
 20
-0.8727324077845007
 30
0.0
 10
10.54013730217207
 20
-1.0478905733595
 30
0.0
 10
10.51736926624138
 20
-1.217889475066071
 30
0.0
 10
10.47341210160138
 20
-1.540772829670366
 30
0.0
 10
10.45180366218365
 20
-1.694826340961299
 30
0.0
 10
10.38373945084796
 20
-2.137378280676212
 30
0.0
 10
10.33617699919271
 20
-2.399920254007609
 30
0.0
 10
10.29052545757623
 20
-2.607091806900701
 30
0.0
  0
SPLINE
  5
17D
330
1F
100
AcDbEntity
  8
외형선
  6
Continuous
 62
     1
370
    15
100
AcDbSpline
210
0.0
220
0.0
230
1.0
 70
     8
 71
     3
 72
     8
 73
     4
 74
     0
 42
0.000000001
 43
0.00000001
 40
0.0000760771531283
 40
0.0000760771531283
 40
0.0000760771531283
 40
0.0000760771531283
 40
0.0000829779291458
 40
0.0000829779291458
 40
0.0000829779291458
 40
0.0000829779291458
 10
22.66949679523731
 20
-1.763926364259146
 30
0.0
 10
22.66772214915825
 20
-1.764615944484379
 30
0.0
 10
22.66594897460333
 20
-1.765302106139866
 30
0.0
 10
22.66417730115872
 20
-1.765984836496882
 30
0.0
  0
SPLINE
  5
17E
330
1F
100
AcDbEntity
  8
외형선
  6
Continuous
370
    15
100
AcDbSpline
210
0.0
220
0.0
230
1.0
 70
     8
 71
     3
 72
     8
 73
     4
 74
     0
 42
0.000000001
 43
0.00000001
 40
0.0
 40
0.0
 40
0.0
 40
0.0
 40
1.0
 40
1.0
 40
1.0
 40
1.0
 10
5.925386015618304
 20
1.865945033878782
 30
0.0
 10
5.897086556236257
 20
1.683460641700903
 30
0.0
 10
5.867984265610817
 20
1.484977775771299
 30
0.0
 10
5.839063614223709
 20
1.276982977038883
 30
0.0
  0
SPLINE
  5
17F
330
1F
100
AcDbEntity
  8
외형선
  6
Continuous
370
    15
100
AcDbSpline
210
0.0
220
0.0
230
1.0
 70
     8
 71
     3
 72
    20
 73
    16
 74
     0
 42
0.000000001
 43
0.00000001
 40
0.0
 40
0.0
 40
0.0
 40
0.0
 40
0.4999999999999994
 40
0.4999999999999994
 40
0.7499999999999993
 40
0.7499999999999993
 40
0.8749999999999997
 40
0.8749999999999997
 40
0.9374999999999997
 40
0.9374999999999997
 40
0.9531249999999996
 40
0.9531249999999996
 40
0.9687499999999996
 40
0.9687499999999996
 40
1.0
 40
1.0
 40
1.0
 40
1.0
 10
6.343985100813136
 20
2.661492468251629
 30
0.0
 10
6.29447764611306
 20
2.549177187417311
 30
0.0
 10
6.24278801343855
 20
2.413695938789326
 30
0.0
 10
6.157767379231736
 20
2.1843285801895
 30
0.0
 10
6.128510310668831
 20
2.103223628447625
 30
0.0
 10
6.075323070133724
 20
1.978073737562248
 30
0.0
 10
6.056545924655212
 20
1.935756504302633
 30
0.0
 10
6.02065541601784
 20
1.874235692944989
 30
0.0
 10
6.008530831715479
 20
1.853350262941972
 30
0.0
 10
5.983390031799805
 20
1.831948940239338
 30
0.0
 10
5.97780876862641
 20
1.82798596688994
 30
0.0
 10
5.964272658648389
 20
1.823456128223793
 30
0.0
 10
5.955717290288199
 20
1.823900564600013
 30
0.0
 10
5.935889781952092
 20
1.83549645577118
 30
0.0
 10
5.929897700402194
 20
1.848839710945825
 30
0.0
 10
5.924630657015566
 20
1.861071688913416
 30
0.0
  0
SPLINE
  5
180
330
1F
100
AcDbEntity
  8
외형선
  6
Continuous
 62
     1
370
    15
100
AcDbSpline
210
0.0
220
0.0
230
1.0
 70
     8
 71
     3
 72
    12
 73
     8
 74
     0
 42
0.000000001
 43
0.00000001
 40
0.0
 40
0.0
 40
0.0
 40
0.0
 40
0.5
 40
0.5
 40
0.75
 40
0.75
 40
1.0
 40
1.0
 40
1.0
 40
1.0
 10
17.98315718864503
 20
-1.468905771814701
 30
0.0
 10
17.93974995204773
 20
-1.785714689673301
 30
0.0
 10
17.89327529190702
 20
-2.0812577526462
 30
0.0
 10
17.82337721870071
 20
-2.454065568275206
 30
0.0
 10
17.80014473549637
 20
-2.566522350272242
 30
0.0
 10
17.75482458402351
 20
-2.763540811416143
 30
0.0
 10
17.73331668985474
 20
-2.847542686309954
 30
0.0
 10
17.71121776751635
 20
-2.918338657503111
 30
0.0
  0
SPLINE
  5
181
330
1F
100
AcDbEntity
  8
외형선
  6
Continuous
 62
     1
370
    15
100
AcDbSpline
210
0.0
220
0.0
230
1.0
 70
     8
 71
     3
 72
    12
 73
     8
 74
     0
 42
0.000000001
 43
0.00000001
 40
0.0
 40
0.0
 40
0.0
 40
0.0
 40
0.5
 40
0.5
 40
0.7499999999999999
 40
0.7499999999999999
 40
1.0
 40
1.0
 40
1.0
 40
1.0
 10
18.72543875793701
 20
3.119737412631386
 30
0.0
 10
18.68194538807819
 20
3.053318503582653
 30
0.0
 10
18.63495434280447
 20
2.924029949782881
 30
0.0
 10
18.56513509485756
 20
2.646666268852857
 30
0.0
 10
18.54199121930353
 20
2.540669293493554
 30
0.0
 10
18.49696027527729
 20
2.307073113804753
 30
0.0
 10
18.47563181807941
 20
2.180745524911179
 30
0.0
 10
18.45336339715933
 20
2.042819005423449
 30
0.0
  0
LINE
  5
182
330
1F
100
AcDbEntity
  8
외형선
  6
Continuous
 62
     1
370
    15
100
AcDbLine
 10
19.38547479138025
 20
-2.988130134256057
 30
0.0
 11
19.37047917023847
 21
-2.990840446230525
 31
0.0
  0
ARC
  5
183
330
1F
100
AcDbEntity
  8
외형선
  6
Continuous
370
    15
100
AcDbCircle
 10
5.239021785106438
 20
-0.9350230889846584
 30
0.0
 40
1.353871043040518
100
AcDbArc
 50
274.9221463167624
 51
280.7538232372946
  0
LINE
  5
184
330
1F
100
AcDbEntity
  8
외형선
  6
Continuous
370
    15
100
AcDbLine
 10
5.404957859637908
 20
-2.073018855311169
 30
0.0
 11
5.404957859637919
 21
-2.220397628854026
 31
0.0
  0
SPLINE
  5
185
330
1F
100
AcDbEntity
  8
외형선
  6
Continuous
 62
     1
370
    15
100
AcDbSpline
210
0.0
220
0.0
230
1.0
 70
     8
 71
     3
 72
    11
 73
     7
 74
     0
 42
0.000000001
 43
0.00000001
 40
0.0
 40
0.0
 40
0.0
 40
0.0
 40
0.2208360482383582
 40
0.4784683530041325
 40
0.7394052957412873
 40
1.0
 40
1.0
 40
1.0
 40
1.0
 10
11.28554943488581
 20
3.162108728048313
 30
0.0
 10
11.26705062706638
 20
3.155591235579525
 30
0.0
 10
11.2269706936474
 20
3.141470289691685
 30
0.0
 10
11.16600240954296
 20
3.005095608981199
 30
0.0
 10
11.09881202293485
 20
2.796463212013503
 30
0.0
 10
11.05450163842977
 20
2.591575860622404
 30
0.0
 10
11.03236098481421
 20
2.489199410315569
 30
0.0
  0
SPLINE
  5
186
330
1F
100
AcDbEntity
  8
외형선
  6
Continuous
 62
     1
370
    15
100
AcDbSpline
210
0.0
220
0.0
230
1.0
 70
     8
 71
     3
 72
    10
 73
     6
 74
     0
 42
0.000000001
 43
0.00000001
 40
0.0
 40
0.0
 40
0.0
 40
0.0
 40
0.4059770687694669
 40
0.8167623774970462
 40
1.0
 40
1.0
 40
1.0
 40
1.0
 10
12.7888238019878
 20
-2.614793077773904
 30
0.0
 10
12.75946363139498
 20
-2.735983958050657
 30
0.0
 10
12.70039555937357
 20
-2.979801057882984
 30
0.0
 10
12.62538899633742
 20
-3.14936402955024
 30
0.0
 10
12.58111398533566
 20
-3.150717390672201
 30
0.0
 10
12.56745651973
 20
-3.151134860539675
 30
0.0
  0
LINE
  5
187
330
1F
100
AcDbEntity
  8
외형선
  6
Continuous
 62
     1
370
    15
100
AcDbLine
 10
10.83720507414321
 20
2.99962405689767
 30
0.0
 11
10.83275237980084
 21
2.996309659955332
 31
0.0
  0
LINE
  5
188
330
1F
100
AcDbEntity
  8
외형선
  6
Continuous
 62
     1
370
    15
100
AcDbLine
 10
13.0157933047516
 20
-2.993699722622759
 30
0.0
 11
13.01134703692736
 21
-2.998875374972269
 31
0.0
  0
LINE
  5
189
330
1F
100
AcDbEntity
  8
외형선
  6
Continuous
 62
     1
370
    15
100
AcDbLine
 10
19.60345606067599
 20
-2.995368236757407
 30
0.0
 11
19.5847360287479
 21
-2.987864339833819
 31
0.0
  0
SPLINE
  5
18A
330
1F
100
AcDbEntity
  8
외형선
  6
Continuous
 62
     1
370
    15
100
AcDbSpline
210
0.0
220
0.0
230
1.0
 70
     8
 71
     3
 72
    10
 73
     6
 74
     0
 42
0.000000001
 43
0.00000001
 40
0.0
 40
0.0
 40
0.0
 40
0.0
 40
0.4476014919276494
 40
0.8982839318085316
 40
1.0
 40
1.0
 40
1.0
 40
1.0
 10
20.20966149376683
 20
-2.923298463024034
 30
0.0
 10
20.18436636264324
 20
-2.990303696107758
 30
0.0
 10
20.13360198796822
 20
-3.124775375294932
 30
0.0
 10
20.07492156172072
 20
-3.191461111517804
 30
0.0
 10
20.04391118595687
 20
-3.167983001434085
 30
0.0
 10
20.03820108093351
 20
-3.163659852454888
 30
0.0
  0
LINE
  5
18B
330
1F
100
AcDbEntity
  8
외형선
  6
Continuous
 62
     1
370
    15
100
AcDbLine
 10
10.62403478686424
 20
2.992620922647097
 30
0.0
 11
10.61451166986729
 21
3.00081084792931
 31
0.0
  0
LINE
  5
18C
330
1F
100
AcDbEntity
  8
외형선
  6
Continuous
 62
     1
370
    15
100
AcDbLine
 10
20.5155199329677
 20
-2.995486256993881
 30
0.0
 11
20.51224586622619
 21
-2.999610499501443
 31
0.0
  0
SPLINE
  5
18D
330
1F
100
AcDbEntity
  8
외형선
  6
Continuous
 62
     1
370
    15
100
AcDbSpline
210
0.0
220
0.0
230
1.0
 70
     8
 71
     3
 72
     8
 73
     4
 74
     0
 42
0.000000001
 43
0.00000001
 40
0.0000996837319414
 40
0.0000996837319414
 40
0.0000996837319414
 40
0.0000996837319414
 40
0.0003097718223893
 40
0.0003097718223893
 40
0.0003097718223893
 40
0.0003097718223893
 10
22.66407571338058
 20
3.100194399836528
 30
0.0
 10
22.70941865479266
 20
3.057297757343439
 30
0.0
 10
22.75461030306209
 20
3.014161470014482
 30
0.0
 10
22.79963065701558
 20
2.970761423860894
 30
0.0
  0
LINE
  5
18E
330
1F
100
AcDbEntity
  8
외형선
  6
Continuous
 62
     1
370
    15
100
AcDbLine
 10
22.79963065701558
 20
0.3787874001400127
 30
0.0
 11
22.79963065701558
 21
0.3842954249720957
 31
0.0
  0
LINE
  5
18F
330
1F
100
AcDbEntity
  8
외형선
  6
Continuous
 62
     1
370
    15
100
AcDbLine
 10
22.79963065701558
 20
0.7917171133154433
 30
0.0
 11
22.79963065701558
 21
2.970761423860894
 31
0.0
  0
LINE
  5
190
330
1F
100
AcDbEntity
  8
외형선
  6
Continuous
370
    15
100
AcDbLine
 10
6.924630657015582
 20
-3.174999999999998
 30
0.0
 11
6.924630657015582
 21
-3.009968903268795
 31
0.0
  0
LINE
  5
191
330
1F
100
AcDbEntity
  8
외형선
  6
Continuous
 62
     1
370
    15
100
AcDbLine
 10
7.595706484808795
 20
-3.153593019819182
 30
0.0
 11
7.548957594751405
 21
-3.169462362162097
 31
0.0
  0
SPLINE
  5
192
330
1F
100
AcDbEntity
  8
외형선
  6
Continuous
 62
     1
370
    15
100
AcDbSpline
210
0.0
220
0.0
230
1.0
 70
     8
 71
     3
 72
     9
 73
     5
 74
     0
 42
0.000000001
 43
0.00000001
 40
0.0
 40
0.0
 40
0.0
 40
0.0
 40
0.9528461864032288
 40
1.0
 40
1.0
 40
1.0
 40
1.0
 10
16.29757881971488
 20
3.160180929932164
 30
0.0
 10
16.27481979788566
 20
3.158985799135808
 30
0.0
 10
16.25093449283435
 20
3.157731524507426
 30
0.0
 10
16.22802385417775
 20
3.123621464068172
 30
0.0
 10
16.22694353019316
 20
3.122013044636444
 30
0.0
  0
LINE
  5
193
330
1F
100
AcDbEntity
  8
외형선
  6
Continuous
 62
     1
370
    15
100
AcDbLine
 10
20.7294222146306
 20
-2.994515704169748
 30
0.0
 11
20.72353782078291
 21
-2.990955891093034
 31
0.0
  0
LINE
  5
194
330
1F
100
AcDbEntity
  8
외형선
  6
Continuous
 62
     1
370
    15
100
AcDbLine
 10
22.79963065701558
 20
-1.622862244781234
 30
0.0
 11
22.79963065701558
 21
-1.720915759481669
 31
0.0
  0
LINE
  5
195
330
1F
100
AcDbEntity
  8
외형선
  6
Continuous
 62
     1
370
    15
100
AcDbLine
 10
9.266310673695589
 20
2.993461945807833
 30
0.0
 11
9.261399379696115
 21
2.993947203217698
 31
0.0
  0
SPLINE
  5
196
330
1F
100
AcDbEntity
  8
외형선
  6
Continuous
 62
     1
370
    15
100
AcDbSpline
210
0.0
220
0.0
230
1.0
 70
     8
 71
     3
 72
     9
 73
     5
 74
     0
 42
0.000000001
 43
0.00000001
 40
0.0
 40
0.0
 40
0.0
 40
0.0
 40
0.2352672030529144
 40
1.0
 40
1.0
 40
1.0
 40
1.0
 10
22.60103241044114
 20
3.172850593131095
 30
0.0
 10
22.6011261082943
 20
3.172979611270102
 30
0.0
 10
22.60152436972623
 20
3.173528001089562
 30
0.0
 10
22.60219679103685
 20
3.169192048489348
 30
0.0
 10
22.60271101366643
 20
3.165876203329956
 30
0.0
  0
LINE
  5
197
330
1F
100
AcDbEntity
  8
외형선
  6
Continuous
 62
     1
370
    15
100
AcDbLine
 10
22.79963065701558
 20
2.970761423860894
 30
0.0
 11
22.79963065701558
 21
2.975000000000001
 31
0.0
  0
LINE
  5
198
330
1F
100
AcDbEntity
  8
중심선
 62
     1
100
AcDbLine
 10
-42.11286934298444
 20
-0.0000000000000063
 30
0.0
 11
25.79963065701557
 21
0.000000000000002
 31
0.0
  0
LINE
  5
199
330
1F
100
AcDbEntity
  8
참조1
100
AcDbLine
 10
-8.156619342984436
 20
-0.0000000000000059
 30
0.0
 11
-8.156619342984431
 21
-40.00000000000001
 31
0.0
  0
LINE
  5
19A
330
1F
100
AcDbEntity
  8
참조1
100
AcDbLine
 10
-8.156619342984431
 20
-40.00000000000001
 30
0.0
 11
-23.21597333627859
 21
-40.0
 31
0.0
  0
CIRCLE
  5
19B
330
1F
100
AcDbEntity
  8
해칭선
100
AcDbCircle
 10
0.0
 20
0.0
 30
0.0
 40
3.000000000000001
  0
INSERT
  5
19C
330
1F
100
AcDbEntity
  8
0
  6
Continuous
 62
     7
100
AcDbBlockReference
 66
     1
  2
블럭10
 10
-22.09689227510965
 20
-52.04717430164393
 30
0.0
  0
ATTRIB
  5
19D
330
19C
100
AcDbEntity
  8
FORMAT
 62
     2
100
AcDbText
 10
-33.14399362190012
 20
-49.97180738881174
 30
0.0
 40
4.233333333333333
  1
E2079016 [ 3 FLUTE ]
 41
0.75
  7
SLDTEXTSTYLE0
 11
-33.14399362190012
 21
-52.08847405547841
 31
0.0
100
AcDbAttribute
  2
AUTOATTR0
 70
     0
 74
     1
  0
SEQEND
  5
19E
330
19C
100
AcDbEntity
  8
0
  6
Continuous
 62
     7
  0
HATCH
  5
19F
330
1F
100
AcDbEntity
  8
중심선
100
AcDbHatch
 10
0.0
 20
0.0
 30
0.0
210
0.0
220
0.0
230
1.0
  2
SOLID
 70
     1
 71
     0
 91
        1
 92
        0
 93
        4
 72
     1
 10
-16.38198297072879
 20
-35.8
 11
-19.82825821456608
 21
-35.8
 72
     1
 10
-19.82825821456608
 20
-35.8
 11
-21.9564880737701
 21
-38.3363255805726
 72
     1
 10
-21.9564880737701
 20
-38.3363255805726
 11
-18.51017974481966
 21
-38.33628615127011
 72
     1
 10
-18.51017974481967
 20
-38.33628615127011
 11
-16.38198297072879
 21
-35.8
 97
        0
 75
     0
 76
     1
 98
        1
 10
2.991617955123344
 20
-0.0010749287238951
  0
HATCH
  5
1A0
330
1F
100
AcDbEntity
  8
중심선
100
AcDbHatch
 10
0.0
 20
0.0
 30
0.0
210
0.0
220
0.0
230
1.0
  2
SOLID
 70
     1
 71
     0
 91
        1
 92
        0
 93
        4
 72
     1
 10
-11.36921897969281
 20
-35.8
 11
-14.81549422353012
 21
-35.80000000000003
 72
     1
 10
-14.81549422353012
 20
-35.80000000000003
 11
-19.34663223188751
 21
-41.20000000000002
 72
     1
 10
-19.34663223188751
 20
-41.20000000000002
 11
-15.90035698805023
 21
-41.20000000000002
 72
     1
 10
-15.90035698805023
 20
-41.20000000000002
 11
-11.36921897969281
 21
-35.8
 97
        0
 75
     0
 76
     1
 98
        1
 10
2.991617955123344
 20
-0.0010749287238951
  0
HATCH
  5
1A1
330
1F
100
AcDbEntity
  8
중심선
100
AcDbHatch
 10
0.0
 20
0.0
 30
0.0
210
0.0
220
0.0
230
1.0
  2
SOLID
 70
     1
 71
     0
 91
        1
 92
        0
 93
        4
 72
     1
 10
-6.356454988656917
 20
-35.79999999999998
 11
-9.802730232494062
 21
-35.8
 72
     1
 10
-9.802730232494062
 20
-35.8
 11
-16.85116713438331
 21
-44.20000000000002
 72
     1
 10
-16.85116713438331
 20
-44.20000000000002
 11
-13.40489189054603
 21
-44.20000000000002
 72
     1
 10
-13.40489189054603
 20
-44.20000000000002
 11
-6.356454988656917
 21
-35.79999999999998
 97
        0
 75
     0
 76
     1
 98
        1
 10
2.991617955123344
 20
-0.0010749287238951
  0
HATCH
  5
1A2
330
1F
100
AcDbEntity
  8
중심선
100
AcDbHatch
 10
0.0
 20
0.0
 30
0.0
210
0.0
220
0.0
230
1.0
  2
SOLID
 70
     1
 71
     0
 91
        1
 92
        0
 93
        6
 72
     3
 10
-1.556564557644746
 20
-40.00000000005127
 11
3.960054785062284
 21
1.540882976769353E-10
 40
0.3939339440162627
 50
17.09539180608436
 51
320.0019657685082
 73
     0
 72
     1
 10
0.126435098055822
 20
-38.58789400463833
 11
2.431736971756887
 21
-36.65356729459038
 72
     3
 10
-1.556564557697593
 20
-40.00000000000015
 11
6.600054785286829
 21
-1.278976924368180E-13
 40
0.636358354079598
 50
39.99873849337411
 51
368.4976242363724
 73
     1
 72
     1
 10
4.868767934203017
 20
-39.03999999993002
 11
-2.87649725086167
 21
-39.03999999993
 72
     1
 10
-2.87649725086167
 20
-39.03999999993
 11
-2.876522295307604
 21
-40.95999999992991
 72
     1
 10
-2.876522295307604
 20
-40.95999999992991
 11
1.564857474164433
 21
-40.95999999992988
 97
        0
 75
     0
 76
     1
 98
        1
 10
2.991617955123344
 20
-0.0010749287238951
  0
DIMENSION
  5
1A3
330
1F
100
AcDbEntity
  8
치수문자_일반주서
100
AcDbDimension
  2
_D
 10
-50.99616631323116
 20
-4.762500000000048
 30
0.0
 11
-50.99616631323119
 21
0.0000000000000016
 31
0.0
 70
   160
  1
%%c<>
 71
     2
 42
9.525000000000006
 52
-270.0
  3
SLDDIMSTYLE0
100
AcDbAlignedDimension
 13
-38.61286934298442
 23
4.762500000000004
 33
0.0
 14
-38.61286934298442
 24
-4.762500000000002
 34
0.0
 50
90.0000000000002
100
AcDbRotatedDimension
1001
ACAD
1000
DSTYLE
1002
{
1070
   171
1070
     6
1070
   273
1070
     7
1002
}
  0
DIMENSION
  5
1B8
330
1F
100
AcDbEntity
  8
치수문자_일반주서
100
AcDbDimension
  2
_D_1
 10
41.79963065701566
 20
-3.174999999999926
 30
0.0
 11
41.79963065701558
 21
22.46650000000007
 31
0.0
 70
   160
  1
%%c<>
 71
     2
 42
6.349999999999998
 52
-270.0
  3
SLDDIMSTYLE1
100
AcDbAlignedDimension
 13
22.79963065701558
 23
3.175000000000001
 33
0.0
 14
22.79963065701558
 24
-3.174999999999997
 34
0.0
 50
90.0000000000002
100
AcDbRotatedDimension
1001
ACAD
1000
DSTYLE
1002
{
1070
   171
1070
     6
1070
   273
1070
     7
1002
}
  0
DIMENSION
  5
1CC
330
1F
100
AcDbEntity
  8
치수문자_일반주서
100
AcDbDimension
  2
_D_2
 10
6.924630657022972
 20
14.76250000000001
 30
0.0
 11
14.16906899153526
 21
14.76250000000001
 31
0.0
 70
   160
  1
<>
 71
     2
 42
15.87499999999261
  3
SLDDIMSTYLE0
100
AcDbAlignedDimension
 13
22.79963065701558
 23
2.970761423860894
 33
0.0
 14
6.924630657022972
 24
2.337789385468602
 34
0.0
100
AcDbRotatedDimension
1001
ACAD
1000
DSTYLE
1002
{
1070
   171
1070
     6
1070
   273
1070
     7
1002
}
  0
DIMENSION
  5
1E1
330
1F
100
AcDbEntity
  8
치수문자_일반주서
100
AcDbDimension
  2
_D_3
 10
-39.11286934298442
 20
29.67003474188472
 30
0.0
 11
-8.156619342984431
 21
29.67003474188472
 31
0.0
 70
   160
  1
<>
 71
     2
 42
61.91250000000001
  3
SLDDIMSTYLE1
100
AcDbAlignedDimension
 13
22.79963065701558
 23
2.970761423860894
 33
0.0
 14
-39.11286934298442
 24
4.262499999999996
 34
0.0
 50
0.0000000000000066
100
AcDbRotatedDimension
1001
ACAD
1000
DSTYLE
1002
{
1070
   171
1070
     6
1070
   273
1070
     7
1002
}
  0
LINE
  5
1F4
330
1F
100
AcDbEntity
  8
참조1
100
AcDbLine
 10
74.75636729337567
 20
7.44
 30
0.0
 11
74.75636729337567
 21
-7.440000000000004
 31
0.0
  0
LINE
  5
1F5
330
1F
100
AcDbEntity
  8
참조1
100
AcDbLine
 10
87.45636729337568
 20
5.44
 30
0.0
 11
74.75636729337567
 21
5.44
 31
0.0
  0
SOLID
  5
1F6
330
1F
100
AcDbEntity
  8
참조1
100
AcDbTrace
 10
74.75636729337567
 20
5.44
 30
0.0
 11
81.10636729337567
 21
4.424
 31
0.0
 12
81.10636729337567
 22
6.456
 32
0.0
 13
81.10636729337567
 23
6.456
 33
0.0
  0
LINE
  5
1F7
330
1F
100
AcDbEntity
  8
참조1
100
AcDbLine
 10
87.45636729337568
 20
-5.440000000000004
 30
0.0
 11
74.75636729337567
 21
-5.440000000000004
 31
0.0
  0
SOLID
  5
1F8
330
1F
100
AcDbEntity
  8
참조1
100
AcDbTrace
 10
74.75636729337567
 20
-5.440000000000004
 30
0.0
 11
81.10636729337567
 21
-6.456000000000004
 31
0.0
 12
81.10636729337567
 22
-4.424000000000004
 32
0.0
 13
81.10636729337567
 23
-4.424000000000004
 33
0.0
  0
MTEXT
  5
1F9
330
1F
100
AcDbEntity
  8
참조1
100
AcDbMText
 10
84.35648210393825
 20
11.06571756601607
 30
0.0
 40
3.5
 41
0.0
 71
     1
 72
     1
  1
A
  7
SLDTEXTSTYLE0
 73
     1
 44
1.0
  0
MTEXT
  5
1FA
330
1F
100
AcDbEntity
  8
참조1
100
AcDbMText
 10
84.35648210393825
 20
0.1857175660160707
 30
0.0
 40
3.5
 41
0.0
 71
     1
 72
     1
  1
A
  7
SLDTEXTSTYLE0
 73
     1
 44
1.0
  0
INSERT
  5
201
330
1F
100
AcDbEntity
  8
해칭선
100
AcDbBlockReference
  2
SW_DOWELSYMBOL_0
 10
0.0
 20
0.0
 30
0.0
  0
LINE
  5
228
330
1F
100
AcDbEntity
  8
0
 62
     1
100
AcDbLine
 10
22.79963065701558
 20
3.175000000000001
 30
0.0
 11
22.79963065701558
 21
-3.174999999999997
 31
0.0
  0
LINE
  5
265
330
1F
100
AcDbEntity
  8
외형선
  6
Continuous
370
    15
100
AcDbLine
 10
-22.83781934298455
 20
3.4925
 30
0.0
 11
-15.70041934298442
 21
3.4925
 31
0.0
  0
LINE
  5
266
330
1F
100
AcDbEntity
  8
외형선
  6
Continuous
370
    15
100
AcDbLine
 10
-22.83781934298455
 20
3.4925
 30
0.0
 11
-24.10781934298453
 21
4.762499999999982
 31
0.0
  0
LINE
  5
267
330
1F
100
AcDbEntity
  8
외형선
  6
Continuous
370
    15
100
AcDbLine
 10
-15.70041934298442
 20
3.4925
 30
0.0
 11
-14.43041934298432
 21
4.762499999999982
 31
0.0
  0
LINE
  5
268
330
1F
100
AcDbEntity
  8
외형선
  6
Continuous
370
    15
100
AcDbLine
 10
-24.10781934298454
 20
4.762499999999998
 30
0.0
 11
-38.61286934298442
 21
4.762499999999997
 31
0.0
  0
ENDSEC
  0
SECTION
  2
OBJECTS
  0
DICTIONARY
  5
C
330
0
100
AcDbDictionary
281
     1
  3
ACAD_GROUP
350
D
  3
ACAD_IMAGE_VARS
350
225
  3
ACAD_LAYOUT
350
1A
  3
ACAD_MLINESTYLE
350
17
  3
ACAD_PLOTSETTINGS
350
19
  3
ACAD_PLOTSTYLENAME
350
E
  3
ACAD_SCALELIST
350
47
  3
APPDATA
350
223
  3
DWGPROPS
350
28C
  0
DICTIONARY
  5
256
330
2
100
AcDbDictionary
280
     1
281
     1
  3
ACAD_LAYERSTATES
360
257
  0
DICTIONARY
  5
D
102
{ACAD_REACTORS
330
C
102
}
330
C
100
AcDbDictionary
281
     1
  0
RASTERVARIABLES
  5
225
102
{ACAD_REACTORS
330
C
102
}
330
C
100
AcDbRasterVariables
 90
        0
 70
     1
 71
     1
 72
     1
  0
DICTIONARY
  5
1A
102
{ACAD_REACTORS
330
C
102
}
330
C
100
AcDbDictionary
281
     1
  3
Layout1
350
1E
  3
Layout2
350
26
  3
Model
350
22
  0
DICTIONARY
  5
17
102
{ACAD_REACTORS
330
C
102
}
330
C
100
AcDbDictionary
281
     1
  3
Standard
350
18
  0
DICTIONARY
  5
19
102
{ACAD_REACTORS
330
C
102
}
330
C
100
AcDbDictionary
281
     1
  0
ACDBDICTIONARYWDFLT
  5
E
102
{ACAD_REACTORS
330
C
102
}
330
C
100
AcDbDictionary
281
     1
  3
Normal
350
F
100
AcDbDictionaryWithDefault
340
F
  0
DICTIONARY
  5
47
102
{ACAD_REACTORS
330
C
102
}
330
C
100
AcDbDictionary
281
     1
  3
A0
350
48
  3
A1
350
49
  3
A2
350
4A
  3
A3
350
4B
  3
A4
350
4C
  3
A5
350
4D
  3
A6
350
4E
  3
A7
350
4F
  3
A8
350
50
  3
A9
350
51
  3
B0
350
52
  3
B1
350
53
  3
B2
350
54
  3
B3
350
55
  3
B4
350
56
  3
B5
350
57
  3
B6
350
58
  3
B7
350
59
  3
B8
350
5A
  3
B9
350
5B
  3
C0
350
5C
  3
C1
350
5D
  3
C2
350
5E
  3
C3
350
5F
  3
C4
350
60
  3
C5
350
61
  3
C6
350
62
  3
C7
350
63
  3
C8
350
64
  3
C9
350
65
  3
D0
350
66
  3
D1
350
67
  3
D2
350
68
  0
DICTIONARY
  5
223
102
{ACAD_REACTORS
330
C
102
}
330
C
100
AcDbDictionary
281
     1
  0
XRECORD
  5
28C
102
{ACAD_REACTORS
330
C
102
}
330
C
100
AcDbXrecord
280
     1
  1
DWGPROPS COOKIE
  2

  3

  4

  6

  7

  8
12016016
  9

300
=
301
=
302
=
303
=
304
=
305
=
306
=
307
=
308
=
309
=
 40
0.0
 41
2458324.101027535
 42
2458331.082576794
  1

 90
        0
  0
DICTIONARY
  5
257
102
{ACAD_REACTORS
330
256
102
}
330
256
100
AcDbDictionary
281
     1
  0
LAYOUT
  5
1E
102
{ACAD_REACTORS
330
1A
102
}
330
1A
100
AcDbPlotSettings
  1

  2
none_device
  4

  6

 40
0.0
 41
0.0
 42
0.0
 43
0.0
 44
0.0
 45
0.0
 46
0.0
 47
0.0
 48
0.0
 49
0.0
140
0.0
141
0.0
142
1.0
143
1.0
 70
   688
 72
     1
 73
     0
 74
     5
  7

 75
    16
147
1.0
148
0.0
149
0.0
100
AcDbLayout
  1
Layout1
 70
     1
 71
     1
 10
0.0
 20
0.0
 11
420.0
 21
297.0
 12
0.0
 22
0.0
 32
0.0
 14
1.000000000000000E+20
 24
1.000000000000000E+20
 34
1.000000000000000E+20
 15
-1.000000000000000E+20
 25
-1.000000000000000E+20
 35
-1.000000000000000E+20
146
0.0
 13
0.0
 23
0.0
 33
0.0
 16
1.0
 26
0.0
 36
0.0
 17
0.0
 27
1.0
 37
0.0
 76
     0
330
1B
  0
LAYOUT
  5
26
102
{ACAD_REACTORS
330
1A
102
}
330
1A
100
AcDbPlotSettings
  1

  2
none_device
  4

  6

 40
0.0
 41
0.0
 42
0.0
 43
0.0
 44
0.0
 45
0.0
 46
0.0
 47
0.0
 48
0.0
 49
0.0
140
0.0
141
0.0
142
1.0
143
1.0
 70
   688
 72
     1
 73
     0
 74
     5
  7

 75
    16
147
1.0
148
0.0
149
0.0
100
AcDbLayout
  1
Layout2
 70
     1
 71
     2
 10
0.0
 20
0.0
 11
0.0
 21
0.0
 12
0.0
 22
0.0
 32
0.0
 14
0.0
 24
0.0
 34
0.0
 15
0.0
 25
0.0
 35
0.0
146
0.0
 13
0.0
 23
0.0
 33
0.0
 16
1.0
 26
0.0
 36
0.0
 17
0.0
 27
1.0
 37
0.0
 76
     0
330
23
  0
LAYOUT
  5
22
102
{ACAD_REACTORS
330
1A
102
}
330
1A
100
AcDbPlotSettings
  1

  2
none_device
  4
ANSI_A_(11.00_x_8.50_Inches)
  6

 40
6.35
 41
19.05
 42
6.35000508
 43
19.05000254
 44
279.4
 45
215.9
 46
115.1091170001025
 47
98.39914147458477
 48
0.0
 49
0.0
140
0.0
141
0.0
142
0.0729670655306711
143
1.0
 70
  1696
 72
     0
 73
     0
 74
     0
  7

 75
     0
147
0.0235690232323232
148
0.0
149
0.0
100
AcDbLayout
  1
Model
 70
     1
 71
     0
 10
0.0
 20
0.0
 11
420.0
 21
297.0
 12
0.0
 22
0.0
 32
0.0
 14
-55.37116631323124
 24
-49.97180738881174
 34
0.0
 15
87.45636729337568
 25
35.15400000000007
 35
0.0
146
0.0
 13
0.0
 23
0.0
 33
0.0
 16
1.0
 26
0.0
 36
0.0
 17
0.0
 27
1.0
 37
0.0
 76
     0
330
1F
331
29
  0
MLINESTYLE
  5
18
102
{ACAD_REACTORS
330
17
102
}
330
17
100
AcDbMlineStyle
  2
Standard
 70
     0
  3

 62
   256
 51
90.0
 52
90.0
 71
     2
 49
0.5
 62
   256
  6
BYLAYER
 49
-0.5
 62
   256
  6
BYLAYER
  0
ACDBPLACEHOLDER
  5
F
102
{ACAD_REACTORS
330
E
102
}
330
E
  0
SCALE
  5
48
102
{ACAD_REACTORS
330
47
102
}
330
47
100
AcDbScale
 70
     0
300
1:1
140
1.0
141
1.0
290
     1
  0
SCALE
  5
49
102
{ACAD_REACTORS
330
47
102
}
330
47
100
AcDbScale
 70
     0
300
1:2
140
1.0
141
2.0
290
     0
  0
SCALE
  5
4A
102
{ACAD_REACTORS
330
47
102
}
330
47
100
AcDbScale
 70
     0
300
1:4
140
1.0
141
4.0
290
     0
  0
SCALE
  5
4B
102
{ACAD_REACTORS
330
47
102
}
330
47
100
AcDbScale
 70
     0
300
1:5
140
1.0
141
5.0
290
     0
  0
SCALE
  5
4C
102
{ACAD_REACTORS
330
47
102
}
330
47
100
AcDbScale
 70
     0
300
1:8
140
1.0
141
8.0
290
     0
  0
SCALE
  5
4D
102
{ACAD_REACTORS
330
47
102
}
330
47
100
AcDbScale
 70
     0
300
1:10
140
1.0
141
10.0
290
     0
  0
SCALE
  5
4E
102
{ACAD_REACTORS
330
47
102
}
330
47
100
AcDbScale
 70
     0
300
1:16
140
1.0
141
16.0
290
     0
  0
SCALE
  5
4F
102
{ACAD_REACTORS
330
47
102
}
330
47
100
AcDbScale
 70
     0
300
1:20
140
1.0
141
20.0
290
     0
  0
SCALE
  5
50
102
{ACAD_REACTORS
330
47
102
}
330
47
100
AcDbScale
 70
     0
300
1:30
140
1.0
141
30.0
290
     0
  0
SCALE
  5
51
102
{ACAD_REACTORS
330
47
102
}
330
47
100
AcDbScale
 70
     0
300
1:40
140
1.0
141
40.0
290
     0
  0
SCALE
  5
52
102
{ACAD_REACTORS
330
47
102
}
330
47
100
AcDbScale
 70
     0
300
1:50
140
1.0
141
50.0
290
     0
  0
SCALE
  5
53
102
{ACAD_REACTORS
330
47
102
}
330
47
100
AcDbScale
 70
     0
300
1:100
140
1.0
141
100.0
290
     0
  0
SCALE
  5
54
102
{ACAD_REACTORS
330
47
102
}
330
47
100
AcDbScale
 70
     0
300
2:1
140
2.0
141
1.0
290
     0
  0
SCALE
  5
55
102
{ACAD_REACTORS
330
47
102
}
330
47
100
AcDbScale
 70
     0
300
4:1
140
4.0
141
1.0
290
     0
  0
SCALE
  5
56
102
{ACAD_REACTORS
330
47
102
}
330
47
100
AcDbScale
 70
     0
300
8:1
140
8.0
141
1.0
290
     0
  0
SCALE
  5
57
102
{ACAD_REACTORS
330
47
102
}
330
47
100
AcDbScale
 70
     0
300
10:1
140
10.0
141
1.0
290
     0
  0
SCALE
  5
58
102
{ACAD_REACTORS
330
47
102
}
330
47
100
AcDbScale
 70
     0
300
100:1
140
100.0
141
1.0
290
     0
  0
SCALE
  5
59
102
{ACAD_REACTORS
330
47
102
}
330
47
100
AcDbScale
 70
     0
300
1/128" = 1'-0"
140
0.0078125
141
12.0
290
     0
  0
SCALE
  5
5A
102
{ACAD_REACTORS
330
47
102
}
330
47
100
AcDbScale
 70
     0
300
1/64" = 1'-0"
140
0.015625
141
12.0
290
     0
  0
SCALE
  5
5B
102
{ACAD_REACTORS
330
47
102
}
330
47
100
AcDbScale
 70
     0
300
1/32" = 1'-0"
140
0.03125
141
12.0
290
     0
  0
SCALE
  5
5C
102
{ACAD_REACTORS
330
47
102
}
330
47
100
AcDbScale
 70
     0
300
1/16" = 1'-0"
140
0.0625
141
12.0
290
     0
  0
SCALE
  5
5D
102
{ACAD_REACTORS
330
47
102
}
330
47
100
AcDbScale
 70
     0
300
3/32" = 1'-0"
140
0.09375
141
12.0
290
     0
  0
SCALE
  5
5E
102
{ACAD_REACTORS
330
47
102
}
330
47
100
AcDbScale
 70
     0
300
1/8" = 1'-0"
140
0.125
141
12.0
290
     0
  0
SCALE
  5
5F
102
{ACAD_REACTORS
330
47
102
}
330
47
100
AcDbScale
 70
     0
300
3/16" = 1'-0"
140
0.1875
141
12.0
290
     0
  0
SCALE
  5
60
102
{ACAD_REACTORS
330
47
102
}
330
47
100
AcDbScale
 70
     0
300
1/4" = 1'-0"
140
0.25
141
12.0
290
     0
  0
SCALE
  5
61
102
{ACAD_REACTORS
330
47
102
}
330
47
100
AcDbScale
 70
     0
300
3/8" = 1'-0"
140
0.375
141
12.0
290
     0
  0
SCALE
  5
62
102
{ACAD_REACTORS
330
47
102
}
330
47
100
AcDbScale
 70
     0
300
1/2" = 1'-0"
140
0.5
141
12.0
290
     0
  0
SCALE
  5
63
102
{ACAD_REACTORS
330
47
102
}
330
47
100
AcDbScale
 70
     0
300
3/4" = 1'-0"
140
0.75
141
12.0
290
     0
  0
SCALE
  5
64
102
{ACAD_REACTORS
330
47
102
}
330
47
100
AcDbScale
 70
     0
300
1" = 1'-0"
140
1.0
141
12.0
290
     0
  0
SCALE
  5
65
102
{ACAD_REACTORS
330
47
102
}
330
47
100
AcDbScale
 70
     0
300
1-1/2" = 1'-0"
140
1.5
141
12.0
290
     0
  0
SCALE
  5
66
102
{ACAD_REACTORS
330
47
102
}
330
47
100
AcDbScale
 70
     0
300
3" = 1'-0"
140
3.0
141
12.0
290
     0
  0
SCALE
  5
67
102
{ACAD_REACTORS
330
47
102
}
330
47
100
AcDbScale
 70
     0
300
6" = 1'-0"
140
6.0
141
12.0
290
     0
  0
SCALE
  5
68
102
{ACAD_REACTORS
330
47
102
}
330
47
100
AcDbScale
 70
     0
300
1'-0" = 1'-0"
140
12.0
141
12.0
290
     0
  0
ENDSEC
  0
EOF
