  0
SECTION
  2
HEADER
  9
$ACADVER
  1
AC1015
  9
$ACADMAINTVER
 70
     6
  9
$DWGCODEPAGE
  3
ANSI_949
  9
$INSBASE
 10
0.0
 20
0.0
 30
0.0
  9
$EXTMIN
 10
-56.90500000000005
 20
-49.97073246008785
 30
0.0
  9
$EXTMAX
 10
100.1152646366788
 20
36.34057492872417
 30
0.0
  9
$LIMMIN
 10
0.0
 20
0.0
  9
$LIMMAX
 10
420.0
 20
297.0
  9
$ORTHOMODE
 70
     0
  9
$REGENMODE
 70
     1
  9
$FILLMODE
 70
     1
  9
$QTEXTMODE
 70
     0
  9
$MIRRTEXT
 70
     1
  9
$LTSCALE
 40
1.0
  9
$ATTMODE
 70
     1
  9
$TEXTSIZE
 40
3.5
  9
$TRACEWID
 40
1.0
  9
$TEXTSTYLE
  7
Standard
  9
$CLAYER
  8
0
  9
$CELTYPE
  6
ByLayer
  9
$CECOLOR
 62
   256
  9
$CELTSCALE
 40
1.0
  9
$DISPSILH
 70
     0
  9
$DIMSCALE
 40
1.0
  9
$DIMASZ
 40
3.302
  9
$DIMEXO
 40
1.0
  9
$DIMDLI
 40
3.75
  9
$DIMRND
 40
0.0
  9
$DIMDLE
 40
0.0
  9
$DIMEXE
 40
1.0
  9
$DIMTP
 40
0.0
  9
$DIMTM
 40
0.0
  9
$DIMTXT
 40
3.5
  9
$DIMCEN
 40
2.5
  9
$DIMTSZ
 40
0.0
  9
$DIMTOL
 70
     0
  9
$DIMLIM
 70
     0
  9
$DIMTIH
 70
     1
  9
$DIMTOH
 70
     1
  9
$DIMSE1
 70
     0
  9
$DIMSE2
 70
     0
  9
$DIMTAD
 70
     1
  9
$DIMZIN
 70
     0
  9
$DIMBLK
  1

  9
$DIMASO
 70
     1
  9
$DIMSHO
 70
     1
  9
$DIMPOST
  1

  9
$DIMAPOST
  1

  9
$DIMALT
 70
     0
  9
$DIMALTD
 70
     3
  9
$DIMALTF
 40
0.0393700787401575
  9
$DIMLFAC
 40
1.0
  9
$DIMTOFL
 70
     1
  9
$DIMTVP
 40
0.0
  9
$DIMTIX
 70
     0
  9
$DIMSOXD
 70
     0
  9
$DIMSAH
 70
     0
  9
$DIMBLK1
  1

  9
$DIMBLK2
  1

  9
$DIMSTYLE
  2
ISO-25
  9
$DIMCLRD
 70
     0
  9
$DIMCLRE
 70
     0
  9
$DIMCLRT
 70
     0
  9
$DIMTFAC
 40
1.0
  9
$DIMGAP
 40
1.524
  9
$DIMJUST
 70
     0
  9
$DIMSD1
 70
     0
  9
$DIMSD2
 70
     0
  9
$DIMTOLJ
 70
     0
  9
$DIMTZIN
 70
     0
  9
$DIMALTZ
 70
     0
  9
$DIMALTTZ
 70
     0
  9
$DIMUPT
 70
     0
  9
$DIMDEC
 70
     2
  9
$DIMTDEC
 70
     2
  9
$DIMALTU
 70
     2
  9
$DIMALTTD
 70
     3
  9
$DIMTXSTY
  7
Standard
  9
$DIMAUNIT
 70
     0
  9
$DIMADEC
 70
     2
  9
$DIMALTRND
 40
0.0
  9
$DIMAZIN
 70
     0
  9
$DIMDSEP
 70
    44
  9
$DIMATFIT
 70
     3
  9
$DIMFRAC
 70
     0
  9
$DIMLDRBLK
  1

  9
$DIMLUNIT
 70
     2
  9
$DIMLWD
 70
    -2
  9
$DIMLWE
 70
    -2
  9
$DIMTMOVE
 70
     0
  9
$LUNITS
 70
     2
  9
$LUPREC
 70
     2
  9
$SKETCHINC
 40
1.0
  9
$FILLETRAD
 40
10.0
  9
$AUNITS
 70
     0
  9
$AUPREC
 70
     2
  9
$MENU
  1
.
  9
$ELEVATION
 40
0.0
  9
$PELEVATION
 40
0.0
  9
$THICKNESS
 40
0.0
  9
$LIMCHECK
 70
     0
  9
$CHAMFERA
 40
0.0
  9
$CHAMFERB
 40
0.0
  9
$CHAMFERC
 40
0.0
  9
$CHAMFERD
 40
0.0
  9
$SKPOLY
 70
     0
  9
$TDCREATE
 40
2458324.568926181
  9
$TDUCREATE
 40
2458324.193926181
  9
$TDUPDATE
 40
2458331.499753079
  9
$TDUUPDATE
 40
2458331.124753079
  9
$TDINDWG
 40
0.0002367593
  9
$TDUSRTIMER
 40
2458331.124635278
  9
$USRTIMER
 70
     1
  9
$ANGBASE
 50
0.0
  9
$ANGDIR
 70
     0
  9
$PDMODE
 70
     0
  9
$PDSIZE
 40
-1.0
  9
$PLINEWID
 40
0.0
  9
$SPLFRAME
 70
     0
  9
$SPLINETYPE
 70
     6
  9
$SPLINESEGS
 70
     8
  9
$HANDSEED
  5
354
  9
$SURFTAB1
 70
     6
  9
$SURFTAB2
 70
     6
  9
$SURFTYPE
 70
     6
  9
$SURFU
 70
     6
  9
$SURFV
 70
     6
  9
$UCSBASE
  2

  9
$UCSNAME
  2

  9
$UCSORG
 10
0.0
 20
0.0
 30
0.0
  9
$UCSXDIR
 10
1.0
 20
0.0
 30
0.0
  9
$UCSYDIR
 10
0.0
 20
1.0
 30
0.0
  9
$UCSORTHOREF
  2

  9
$UCSORTHOVIEW
 70
     0
  9
$UCSORGTOP
 10
0.0
 20
0.0
 30
0.0
  9
$UCSORGBOTTOM
 10
0.0
 20
0.0
 30
0.0
  9
$UCSORGLEFT
 10
0.0
 20
0.0
 30
0.0
  9
$UCSORGRIGHT
 10
0.0
 20
0.0
 30
0.0
  9
$UCSORGFRONT
 10
0.0
 20
0.0
 30
0.0
  9
$UCSORGBACK
 10
0.0
 20
0.0
 30
0.0
  9
$PUCSBASE
  2

  9
$PUCSNAME
  2

  9
$PUCSORG
 10
0.0
 20
0.0
 30
0.0
  9
$PUCSXDIR
 10
1.0
 20
0.0
 30
0.0
  9
$PUCSYDIR
 10
0.0
 20
1.0
 30
0.0
  9
$PUCSORTHOREF
  2

  9
$PUCSORTHOVIEW
 70
     0
  9
$PUCSORGTOP
 10
0.0
 20
0.0
 30
0.0
  9
$PUCSORGBOTTOM
 10
0.0
 20
0.0
 30
0.0
  9
$PUCSORGLEFT
 10
0.0
 20
0.0
 30
0.0
  9
$PUCSORGRIGHT
 10
0.0
 20
0.0
 30
0.0
  9
$PUCSORGFRONT
 10
0.0
 20
0.0
 30
0.0
  9
$PUCSORGBACK
 10
0.0
 20
0.0
 30
0.0
  9
$USERI1
 70
     0
  9
$USERI2
 70
     0
  9
$USERI3
 70
     0
  9
$USERI4
 70
     0
  9
$USERI5
 70
     0
  9
$USERR1
 40
0.0
  9
$USERR2
 40
0.0
  9
$USERR3
 40
0.0
  9
$USERR4
 40
0.0
  9
$USERR5
 40
0.0
  9
$WORLDVIEW
 70
     1
  9
$SHADEDGE
 70
     3
  9
$SHADEDIF
 70
    70
  9
$TILEMODE
 70
     1
  9
$MAXACTVP
 70
    64
  9
$PINSBASE
 10
0.0
 20
0.0
 30
0.0
  9
$PLIMCHECK
 70
     0
  9
$PEXTMIN
 10
1.000000000000000E+20
 20
1.000000000000000E+20
 30
1.000000000000000E+20
  9
$PEXTMAX
 10
-1.000000000000000E+20
 20
-1.000000000000000E+20
 30
-1.000000000000000E+20
  9
$PLIMMIN
 10
0.0
 20
0.0
  9
$PLIMMAX
 10
0.0
 20
0.0
  9
$UNITMODE
 70
     0
  9
$VISRETAIN
 70
     1
  9
$PLINEGEN
 70
     0
  9
$PSLTSCALE
 70
     1
  9
$TREEDEPTH
 70
  3020
  9
$CMLSTYLE
  2
Standard
  9
$CMLJUST
 70
     0
  9
$CMLSCALE
 40
20.0
  9
$PROXYGRAPHICS
 70
     1
  9
$MEASUREMENT
 70
     1
  9
$CELWEIGHT
370
    -1
  9
$ENDCAPS
280
     0
  9
$JOINSTYLE
280
     0
  9
$LWDISPLAY
290
     1
  9
$INSUNITS
 70
     4
  9
$HYPERLINKBASE
  1

  9
$STYLESHEET
  1

  9
$XEDIT
290
     1
  9
$CEPSNTYPE
380
     0
  9
$PSTYLEMODE
290
     1
  9
$FINGERPRINTGUID
  2
{9C128D65-3DA3-4448-887E-A558D8163FBF}
  9
$VERSIONGUID
  2
{FAEB1C32-E019-11D5-929B-00C0DF256EC4}
  9
$EXTNAMES
290
     1
  9
$PSVPSCALE
 40
0.0
  9
$OLESTARTUP
290
     0
  0
ENDSEC
  0
SECTION
  2
CLASSES
  0
CLASS
  1
ACDBDICTIONARYWDFLT
  2
AcDbDictionaryWithDefault
  3
ObjectDBX Classes
 90
        0
280
     0
281
     0
  0
CLASS
  1
VISUALSTYLE
  2
AcDbVisualStyle
  3
ObjectDBX Classes
 90
     4095
280
     0
281
     0
  0
CLASS
  1
MATERIAL
  2
AcDbMaterial
  3
ObjectDBX Classes
 90
     1153
280
     0
281
     0
  0
CLASS
  1
SCALE
  2
AcDbScale
  3
ObjectDBX Classes
 90
     1153
280
     0
281
     0
  0
CLASS
  1
SUN
  2
AcDbSun
  3
SCENEOE
 90
     1153
280
     0
281
     0
  0
CLASS
  1
ACDBPLACEHOLDER
  2
AcDbPlaceHolder
  3
ObjectDBX Classes
 90
        0
280
     0
281
     0
  0
CLASS
  1
LAYOUT
  2
AcDbLayout
  3
ObjectDBX Classes
 90
        0
280
     0
281
     0
  0
CLASS
  1
TABLESTYLE
  2
AcDbTableStyle
  3
ObjectDBX Classes
 90
     4095
280
     0
281
     0
  0
CLASS
  1
MLEADERSTYLE
  2
AcDbMLeaderStyle
  3
ACDB_MLEADERSTYLE_CLASS
 90
     4095
280
     0
281
     0
  0
CLASS
  1
RASTERVARIABLES
  2
AcDbRasterVariables
  3
ISM
 90
        0
280
     0
281
     0
  0
ENDSEC
  0
SECTION
  2
TABLES
  0
TABLE
  2
VPORT
  5
8
330
0
100
AcDbSymbolTable
 70
     1
  0
VPORT
  5
29
330
8
100
AcDbSymbolTableRecord
100
AcDbViewportTableRecord
  2
*Active
 70
     0
 10
0.0
 20
0.0
 11
1.0
 21
1.0
 12
-29.32929299990077
 22
-19.05215739265704
 13
0.0
 23
0.0
 14
10.0
 24
10.0
 15
10.0
 25
10.0
 16
0.0
 26
0.0
 36
1.0
 17
0.0
 27
0.0
 37
0.0
 40
171.7703126946033
 41
1.516441005802708
 42
50.0
 43
0.0
 44
0.0
 50
0.0
 51
0.0
 71
    16
 72
  2000
 73
     1
 74
     3
 75
     0
 76
     0
 77
     0
 78
     0
281
     0
 65
     1
110
0.0
120
0.0
130
0.0
111
1.0
121
0.0
131
0.0
112
0.0
122
1.0
132
0.0
 79
     0
146
0.0
  0
ENDTAB
  0
TABLE
  2
LTYPE
  5
5
330
0
100
AcDbSymbolTable
 70
     6
  0
LTYPE
  5
14
330
5
100
AcDbSymbolTableRecord
100
AcDbLinetypeTableRecord
  2
ByBlock
 70
     0
  3

 72
    65
 73
     0
 40
0.0
  0
LTYPE
  5
15
330
5
100
AcDbSymbolTableRecord
100
AcDbLinetypeTableRecord
  2
ByLayer
 70
     0
  3

 72
    65
 73
     0
 40
0.0
  0
LTYPE
  5
16
330
5
100
AcDbSymbolTableRecord
100
AcDbLinetypeTableRecord
  2
Continuous
 70
     0
  3
Solid line
 72
    65
 73
     0
 40
0.0
  0
LTYPE
  5
6A
330
5
100
AcDbSymbolTableRecord
100
AcDbLinetypeTableRecord
  2
HIDDEN
 70
     0
  3
Hidden __ __ __ __ __ __ __ __ __ __ __ __ __ __
 72
    65
 73
     2
 40
1.905
 49
1.27
 74
     0
 49
-0.635
 74
     0
  0
LTYPE
  5
6B
330
5
100
AcDbSymbolTableRecord
100
AcDbLinetypeTableRecord
  2
PHANTOM
 70
     0
  3
Phantom ______  __  __  ______  __  __  ______
 72
    65
 73
     6
 40
12.7
 49
6.35
 74
     0
 49
-1.27
 74
     0
 49
1.27
 74
     0
 49
-1.27
 74
     0
 49
1.27
 74
     0
 49
-1.27
 74
     0
  0
LTYPE
  5
6C
330
5
100
AcDbSymbolTableRecord
100
AcDbLinetypeTableRecord
  2
CENTER
 70
     0
  3
Center ____ _ ____ _ ____ _ ____ _ ____ _ ____
 72
    65
 73
     4
 40
10.16
 49
6.35
 74
     0
 49
-1.27
 74
     0
 49
1.27
 74
     0
 49
-1.27
 74
     0
  0
LTYPE
  5
6D
330
5
100
AcDbSymbolTableRecord
100
AcDbLinetypeTableRecord
  2
CENTERX2
 70
     0
  3
Center (2x) ________  __  ________  __  _____
 72
    65
 73
     4
 40
20.32
 49
12.7
 74
     0
 49
-2.54
 74
     0
 49
2.54
 74
     0
 49
-2.54
 74
     0
  0
LTYPE
  5
6E
330
5
100
AcDbSymbolTableRecord
100
AcDbLinetypeTableRecord
  2
DOT2
 70
     0
  3
Dot (.5x) ........................................
 72
    65
 73
     2
 40
0.635
 49
0.0
 74
     0
 49
-0.635
 74
     0
  0
ENDTAB
  0
TABLE
  2
LAYER
  5
2
102
{ACAD_XDICTIONARY
360
31D
102
}
330
0
100
AcDbSymbolTable
 70
    18
  0
LAYER
  5
10
330
2
100
AcDbSymbolTableRecord
100
AcDbLayerTableRecord
  2
0
 70
     0
 62
     7
  6
Continuous
370
    -3
390
F
  0
LAYER
  5
6F
330
2
100
AcDbSymbolTableRecord
100
AcDbLayerTableRecord
  2
FORMAT
 70
     0
 62
     2
  6
Continuous
370
    -3
390
F
  0
LAYER
  5
70
330
2
100
AcDbSymbolTableRecord
100
AcDbLayerTableRecord
  2
외형선
 70
     0
 62
     4
  6
Continuous
370
    30
390
F
  0
LAYER
  5
71
330
2
100
AcDbSymbolTableRecord
100
AcDbLayerTableRecord
  2
숨은선
 70
     0
 62
     2
  6
HIDDEN
370
    15
390
F
  0
LAYER
  5
72
330
2
100
AcDbSymbolTableRecord
100
AcDbLayerTableRecord
  2
중심선
 70
     0
 62
     1
  6
CENTERX2
370
    -3
390
F
  0
LAYER
  5
73
330
2
100
AcDbSymbolTableRecord
100
AcDbLayerTableRecord
  2
파단선
 70
     0
 62
     4
  6
Continuous
370
    -3
390
F
  0
LAYER
  5
74
330
2
100
AcDbSymbolTableRecord
100
AcDbLayerTableRecord
  2
해칭선
 70
     0
 62
   100
  6
Continuous
370
    -3
390
F
  0
LAYER
  5
75
330
2
100
AcDbSymbolTableRecord
100
AcDbLayerTableRecord
  2
가는실선
 70
     0
 62
     4
  6
Continuous
370
    -3
390
F
  0
LAYER
  5
76
330
2
100
AcDbSymbolTableRecord
100
AcDbLayerTableRecord
  2
치수_보조선
 70
     0
 62
     4
  6
Continuous
370
    -3
390
F
  0
LAYER
  5
77
330
2
100
AcDbSymbolTableRecord
100
AcDbLayerTableRecord
  2
치수문자_일반주서
 70
     0
 62
     7
  6
Continuous
370
    15
390
F
  0
LAYER
  5
78
330
2
100
AcDbSymbolTableRecord
100
AcDbLayerTableRecord
  2
개별주서
 70
     0
 62
   100
  6
Continuous
370
    30
390
F
  0
LAYER
  5
79
330
2
100
AcDbSymbolTableRecord
100
AcDbLayerTableRecord
  2
중간선
 70
     0
 62
     2
  6
Continuous
370
    15
390
F
  0
LAYER
  5
7A
330
2
100
AcDbSymbolTableRecord
100
AcDbLayerTableRecord
  2
윤곽선
 70
     0
 62
     3
  6
Continuous
370
    40
390
F
  0
LAYER
  5
7B
330
2
100
AcDbSymbolTableRecord
100
AcDbLayerTableRecord
  2
중심마크
 70
     0
 62
   100
  6
Continuous
370
    30
390
F
  0
LAYER
  5
7C
330
2
100
AcDbSymbolTableRecord
100
AcDbLayerTableRecord
  2
가상선
 70
     0
 62
     4
  6
PHANTOM
370
    -3
390
F
  0
LAYER
  5
7D
330
2
100
AcDbSymbolTableRecord
100
AcDbLayerTableRecord
  2
특수지정선
 70
     0
 62
     5
  6
CENTERX2
370
    60
390
F
  0
LAYER
  5
7E
330
2
100
AcDbSymbolTableRecord
100
AcDbLayerTableRecord
  2
참조1
 70
     0
 62
    -4
  6
Continuous
370
    -3
390
F
  0
LAYER
  5
2F0
330
2
100
AcDbSymbolTableRecord
100
AcDbLayerTableRecord
  2
Defpoints
 70
     0
 62
     7
  6
Continuous
290
     0
370
    -3
390
F
  0
ENDTAB
  0
TABLE
  2
STYLE
  5
3
330
0
100
AcDbSymbolTable
 70
     2
  0
STYLE
  5
11
330
3
100
AcDbSymbolTableRecord
100
AcDbTextStyleTableRecord
  2
Standard
 70
     0
 40
0.0
 41
1.0
 50
0.0
 71
     0
 42
3.5
  3
txt
  4

  0
STYLE
  5
94
330
3
100
AcDbSymbolTableRecord
100
AcDbTextStyleTableRecord
  2
SLDTEXTSTYLE0
 70
     0
 40
0.0
 41
0.75
 50
0.0
 71
     0
 42
3.5
  3
TXT
  4

  0
ENDTAB
  0
TABLE
  2
VIEW
  5
6
330
0
100
AcDbSymbolTable
 70
     0
  0
ENDTAB
  0
TABLE
  2
UCS
  5
7
330
0
100
AcDbSymbolTable
 70
     0
  0
ENDTAB
  0
TABLE
  2
APPID
  5
9
330
0
100
AcDbSymbolTable
 70
     1
  0
APPID
  5
12
330
9
100
AcDbSymbolTableRecord
100
AcDbRegAppTableRecord
  2
ACAD
 70
     0
  0
ENDTAB
  0
TABLE
  2
DIMSTYLE
  5
A
330
0
100
AcDbSymbolTable
 70
     4
100
AcDbDimStyleTable
  0
DIMSTYLE
105
27
330
A
100
AcDbSymbolTableRecord
100
AcDbDimStyleTableRecord
  2
ISO-25
 70
     0
 41
2.5
 42
0.625
 43
3.75
 44
1.25
 73
     0
 74
     0
 77
     1
 78
     8
140
2.5
141
2.5
143
0.03937007874016
147
0.625
171
     3
172
     1
178
     0
271
     2
272
     2
274
     3
278
    44
283
     0
284
     8
340
11
  0
DIMSTYLE
105
26F
102
{ACAD_REACTORS
330
26E
102
}
330
A
100
AcDbSymbolTableRecord
100
AcDbDimStyleTableRecord
  2
SLDDIMSTYLE0
 70
     0
 41
3.302
 44
0.0
 45
0.000000001
 73
     0
 74
     0
 77
     1
 78
     4
 79
     1
140
3.5
143
0.0393700787401575
147
0.875
148
0.000000001
170
     1
172
     1
173
     1
178
     0
271
     2
272
     2
276
     2
284
    12
289
     0
340
94
  0
DIMSTYLE
105
284
102
{ACAD_REACTORS
330
283
102
}
330
A
100
AcDbSymbolTableRecord
100
AcDbDimStyleTableRecord
  2
SLDDIMSTYLE1
 70
     0
 41
3.302
 44
0.0
 45
0.000000001
 73
     0
 74
     0
 77
     1
 78
     4
 79
     1
140
3.5
143
0.0393700787401575
147
0.875
148
0.000000001
170
     1
173
     1
178
     0
271
     2
272
     2
276
     2
284
    12
340
94
  0
DIMSTYLE
105
298
102
{ACAD_REACTORS
330
297
330
2AB
102
}
330
A
100
AcDbSymbolTableRecord
100
AcDbDimStyleTableRecord
  2
SLDDIMSTYLE2
 70
     0
 41
3.302
 44
0.0
 45
0.000000001
 73
     0
 74
     0
 77
     1
 78
    12
 79
     3
140
3.5
143
0.0393700787401575
147
0.875
148
0.000000001
170
     1
173
     1
178
     0
271
     2
272
     2
276
     2
284
    12
340
94
  0
ENDTAB
  0
TABLE
  2
BLOCK_RECORD
  5
1
330
0
100
AcDbSymbolTable
 70
     7
  0
BLOCK_RECORD
  5
1F
330
1
100
AcDbSymbolTableRecord
100
AcDbBlockTableRecord
  2
*Model_Space
340
22
  0
BLOCK_RECORD
  5
1B
330
1
100
AcDbSymbolTableRecord
100
AcDbBlockTableRecord
  2
*Paper_Space
340
1E
  0
BLOCK_RECORD
  5
23
330
1
100
AcDbSymbolTableRecord
100
AcDbBlockTableRecord
  2
*Paper_Space0
340
26
  0
BLOCK_RECORD
  5
7F
330
1
100
AcDbSymbolTableRecord
100
AcDbBlockTableRecord
  2
블럭10
340
0
102
{BLKREFS
331
267
102
}
  0
BLOCK_RECORD
  5
270
330
1
100
AcDbSymbolTableRecord
100
AcDbBlockTableRecord
  2
_D
340
0
  0
BLOCK_RECORD
  5
285
330
1
100
AcDbSymbolTableRecord
100
AcDbBlockTableRecord
  2
_D_1
340
0
  0
BLOCK_RECORD
  5
299
330
1
100
AcDbSymbolTableRecord
100
AcDbBlockTableRecord
  2
_D_2
340
0
  0
BLOCK_RECORD
  5
2AC
330
1
100
AcDbSymbolTableRecord
100
AcDbBlockTableRecord
  2
_D_3
340
0
  0
BLOCK_RECORD
  5
2C5
330
1
100
AcDbSymbolTableRecord
100
AcDbBlockTableRecord
  2
SW_DOWELSYMBOL_0
340
0
102
{BLKREFS
331
2CB
102
}
  0
ENDTAB
  0
ENDSEC
  0
SECTION
  2
BLOCKS
  0
BLOCK
  5
20
330
1F
100
AcDbEntity
  8
0
100
AcDbBlockBegin
  2
*Model_Space
 70
     0
 10
0.0
 20
0.0
 30
0.0
  3
*Model_Space
  1
*Model_Space
  0
ENDBLK
  5
21
330
1F
100
AcDbEntity
  8
0
100
AcDbBlockEnd
  0
BLOCK
  5
1C
330
1B
100
AcDbEntity
 67
     1
  8
0
100
AcDbBlockBegin
  2
*Paper_Space
 70
     0
 10
0.0
 20
0.0
 30
0.0
  3
*Paper_Space
  1
*Paper_Space
  0
ENDBLK
  5
1D
330
1B
100
AcDbEntity
 67
     1
  8
0
100
AcDbBlockEnd
  0
BLOCK
  5
24
330
23
100
AcDbEntity
  8
0
100
AcDbBlockBegin
  2
*Paper_Space0
 70
     0
 10
0.0
 20
0.0
 30
0.0
  3
*Paper_Space0
  1
*Paper_Space0
  0
ENDBLK
  5
25
330
23
100
AcDbEntity
  8
0
100
AcDbBlockEnd
  0
BLOCK
  5
80
330
7F
100
AcDbEntity
  8
0
100
AcDbBlockBegin
  2
블럭10
 70
     2
 10
0.0
 20
0.0
 30
0.0
  3
블럭10
  1
블럭10
  0
ELLIPSE
  5
82
330
7F
100
AcDbEntity
  8
중심선
100
AcDbEllipse
 10
20.54032771741204
 20
12.0471743016438
 30
0.0
 11
6.600054785286829
 21
-1.261213355974178E-13
 31
0.0
210
0.0
220
0.0
230
1.0
 40
0.636358354079598
 41
0.9219305317359503
 42
6.513795318482858
  0
ELLIPSE
  5
83
330
7F
100
AcDbEntity
  8
중심선
100
AcDbEllipse
 10
20.54032771746488
 20
12.04717430159265
 30
0.0
 11
3.960054785062283
 21
1.540847449632565E-10
 31
0.0
210
0.0
220
0.0
230
1.0
 40
0.3939339440162632
 41
1.131841032648279
 42
5.62031148352944
  0
LINE
  5
84
330
7F
100
AcDbEntity
  8
중심선
100
AcDbLine
 10
2.268634060543552
 20
16.24717430164393
 30
0.0
 11
5.714909304380834
 21
16.24717430164393
 31
0.0
  0
LINE
  5
85
330
7F
100
AcDbEntity
  8
중심선
100
AcDbLine
 10
5.245725140726316
 20
7.84717430164391
 30
0.0
 11
8.692000384563599
 21
7.84717430164391
 31
0.0
  0
LINE
  5
86
330
7F
100
AcDbEntity
  8
중심선
100
AcDbLine
 10
15.74043728645272
 20
16.24717430164393
 30
0.0
 11
8.692000384563599
 21
7.84717430164391
 31
0.0
  0
LINE
  5
87
330
7F
100
AcDbEntity
  8
중심선
100
AcDbLine
 10
0.1404042013395286
 20
13.71084872107135
 30
0.0
 11
3.58671253028996
 21
13.71088815037384
 31
0.0
  0
LINE
  5
88
330
7F
100
AcDbEntity
  8
중심선
100
AcDbLine
 10
2.750260043222114
 20
10.84717430164391
 30
0.0
 11
6.196535287059397
 21
10.84717430164391
 31
0.0
  0
LINE
  5
89
330
7F
100
AcDbEntity
  8
중심선
100
AcDbLine
 10
12.29416204261559
 20
16.24717430164393
 30
0.0
 11
5.245725140726316
 21
7.84717430164391
 31
0.0
  0
LINE
  5
8A
330
7F
100
AcDbEntity
  8
중심선
100
AcDbLine
 10
10.72767329541681
 20
16.24717430164393
 30
0.0
 11
6.196535287059397
 21
10.84717430164391
 31
0.0
  0
LINE
  5
8B
330
7F
100
AcDbEntity
  8
중심선
100
AcDbLine
 10
7.28139805157953
 20
16.24717430164393
 30
0.0
 11
2.750260043222114
 21
10.84717430164391
 31
0.0
  0
LINE
  5
8C
330
7F
100
AcDbEntity
  8
중심선
100
AcDbLine
 10
5.714909304380834
 20
16.24717430164393
 30
0.0
 11
3.58671253028996
 21
13.71088815037384
 31
0.0
  0
LINE
  5
8D
330
7F
100
AcDbEntity
  8
중심선
100
AcDbLine
 10
2.268634060543552
 20
16.24717430164393
 30
0.0
 11
0.1404042013395286
 21
13.71084872107135
 31
0.0
  0
LINE
  5
8E
330
7F
100
AcDbEntity
  8
중심선
100
AcDbLine
 10
7.28139805157953
 20
16.24717430164393
 30
0.0
 11
10.72767329541681
 21
16.24717430164393
 31
0.0
  0
LINE
  5
8F
330
7F
100
AcDbEntity
  8
중심선
100
AcDbLine
 10
12.29416204261559
 20
16.24717430164393
 30
0.0
 11
15.74043728645272
 21
16.24717430164393
 31
0.0
  0
LINE
  5
90
330
7F
100
AcDbEntity
  8
중심선
100
AcDbLine
 10
19.22036997980202
 20
11.08717430171403
 30
0.0
 11
23.66174974927406
 21
11.08717430171406
 31
0.0
  0
LINE
  5
91
330
7F
100
AcDbEntity
  8
중심선
100
AcDbLine
 10
19.22039502424796
 20
13.00717430171391
 30
0.0
 11
19.22036997980202
 21
11.08717430171403
 31
0.0
  0
LINE
  5
92
330
7F
100
AcDbEntity
  8
중심선
100
AcDbLine
 10
19.22039502424796
 20
13.00717430171391
 30
0.0
 11
26.96566020931264
 21
13.00717430171391
 31
0.0
  0
LINE
  5
93
330
7F
100
AcDbEntity
  8
중심선
100
AcDbLine
 10
22.22332737316547
 20
13.45928029700563
 30
0.0
 11
24.52862924686651
 21
15.39360700705356
 31
0.0
  0
ATTDEF
  5
95
330
7F
100
AcDbEntity
  8
FORMAT
 62
     2
100
AcDbText
 10
2.542683156192612
 20
2.075366912832191
 30
0.0
 40
4.233333333333333
  1
GYG68032
 41
0.75
  7
SLDTEXTSTYLE0
 11
2.542683156192612
 21
-0.0412997538344756
 31
0.0
100
AcDbAttributeDefinition
  3

  2
AUTOATTR0
 70
     0
 74
     1
  0
ENDBLK
  5
81
330
7F
100
AcDbEntity
  8
0
100
AcDbBlockEnd
  0
BLOCK
  5
271
330
270
100
AcDbEntity
  8
0
100
AcDbBlockBegin
  2
_D
 70
     0
 10
0.0
 20
0.0
 30
0.0
  3
_D
  1
_D
  0
LINE
  5
273
330
270
100
AcDbEntity
  8
치수문자_일반주서
 62
     0
370
    -2
100
AcDbLine
 10
-37.59249999999997
 20
6.351074928723886
 30
0.0
 11
-52.53000000000004
 21
6.351074928723835
 31
0.0
  0
LINE
  5
274
330
270
100
AcDbEntity
  8
치수문자_일반주서
 62
     0
370
    -2
100
AcDbLine
 10
-37.59249999999997
 20
-6.348925071276103
 30
0.0
 11
-52.52999999999999
 21
-6.348925071276153
 31
0.0
  0
LINE
  5
275
330
270
100
AcDbEntity
  8
치수문자_일반주서
 62
     0
370
    -2
100
AcDbLine
 10
-52.53000000000002
 20
3.049074928723836
 30
0.0
 11
-52.53000000000001
 21
-3.046925071276154
 31
0.0
  0
SOLID
  5
276
330
270
100
AcDbEntity
  8
치수문자_일반주서
 62
     0
100
AcDbTrace
 10
-51.97966666666669
 20
3.049074928723837
 30
0.0
 11
-53.08033333333336
 21
3.049074928723834
 31
0.0
 12
-52.53000000000004
 22
6.351074928723835
 32
0.0
 13
-52.53000000000004
 23
6.351074928723835
 33
0.0
  0
SOLID
  5
277
330
270
100
AcDbEntity
  8
치수문자_일반주서
 62
     0
100
AcDbTrace
 10
-53.08033333333334
 20
-3.046925071276156
 30
0.0
 11
-51.97966666666667
 21
-3.046925071276152
 31
0.0
 12
-52.52999999999999
 22
-6.348925071276153
 32
0.0
 13
-52.52999999999999
 23
-6.348925071276153
 33
0.0
  0
MTEXT
  5
278
330
270
100
AcDbEntity
  8
치수문자_일반주서
 62
     0
100
AcDbMText
 10
-56.90500000000001
 20
-1.415156168965001
 30
0.0
 40
3.5
 41
0.0
 71
     2
 72
     1
  1
\A1;%%c12.70 [1/2]
  7
SLDTEXTSTYLE0
 11
-3.356894814614649E-15
 21
1.0
 31
0.0
 73
     1
 44
1.0
  0
POINT
  5
279
330
270
100
AcDbEntity
  8
Defpoints
 62
     0
100
AcDbPoint
 10
-37.52999999999997
 20
6.351074928723886
 30
0.0
  0
POINT
  5
27A
330
270
100
AcDbEntity
  8
Defpoints
 62
     0
100
AcDbPoint
 10
-37.52999999999997
 20
-6.348925071276103
 30
0.0
  0
POINT
  5
27B
330
270
100
AcDbEntity
  8
Defpoints
 62
     0
100
AcDbPoint
 10
-52.52999999999999
 20
-6.348925071276155
 30
0.0
  0
ENDBLK
  5
272
330
270
100
AcDbEntity
  8
0
100
AcDbBlockEnd
  0
BLOCK
  5
286
330
285
100
AcDbEntity
  8
0
100
AcDbBlockBegin
  2
_D_1
 70
     0
 10
0.0
 20
0.0
 30
0.0
  3
_D_1
  1
_D_1
  0
LINE
  5
288
330
285
100
AcDbEntity
  8
치수문자_일반주서
 62
     0
370
    -2
100
AcDbLine
 10
11.0625
 20
6.351074928723891
 30
0.0
 11
90.84814667819806
 21
6.35107492872417
 31
0.0
  0
LINE
  5
289
330
285
100
AcDbEntity
  8
치수문자_일반주서
 62
     0
370
    -2
100
AcDbLine
 10
11.06175885875474
 20
-6.348925071276108
 30
0.0
 11
90.8481466781981
 21
-6.348925071275829
 31
0.0
  0
LINE
  5
28A
330
285
100
AcDbEntity
  8
치수문자_일반주서
 62
     0
370
    -2
100
AcDbLine
 10
90.84814667819806
 20
6.35107492872417
 30
0.0
 11
90.84814667819796
 21
36.34057492872417
 31
0.0
  0
LINE
  5
28B
330
285
100
AcDbEntity
  8
치수문자_일반주서
 62
     0
370
    -2
100
AcDbLine
 10
90.84814667819808
 20
3.049074928724171
 30
0.0
 11
90.84814667819809
 21
-3.04692507127583
 31
0.0
  0
SOLID
  5
28C
330
285
100
AcDbEntity
  8
치수문자_일반주서
 62
     0
100
AcDbTrace
 10
91.3984800115314
 20
3.049074928724172
 30
0.0
 11
90.29781334486475
 21
3.049074928724169
 31
0.0
 12
90.84814667819806
 22
6.35107492872417
 32
0.0
 13
90.84814667819806
 23
6.35107492872417
 33
0.0
  0
SOLID
  5
28D
330
285
100
AcDbEntity
  8
치수문자_일반주서
 62
     0
100
AcDbTrace
 10
90.29781334486476
 20
-3.046925071275831
 30
0.0
 11
91.39848001153142
 21
-3.046925071275828
 31
0.0
 12
90.8481466781981
 22
-6.348925071275829
 32
0.0
 13
90.8481466781981
 23
-6.348925071275829
 33
0.0
  0
MTEXT
  5
28E
330
285
100
AcDbEntity
  8
치수문자_일반주서
 62
     0
100
AcDbMText
 10
86.473146678198
 20
22.99682492872416
 30
0.0
 40
3.5
 41
0.0
 71
     2
 72
     1
  1
\A1;%%c12.70 [1/2]
  7
SLDTEXTSTYLE0
 11
-3.356894814614647E-15
 21
1.0
 31
0.0
 73
     1
 44
1.0
  0
POINT
  5
28F
330
285
100
AcDbEntity
  8
Defpoints
 62
     0
100
AcDbPoint
 10
11.0
 20
6.351074928723891
 30
0.0
  0
POINT
  5
290
330
285
100
AcDbEntity
  8
Defpoints
 62
     0
100
AcDbPoint
 10
10.99925885875474
 20
-6.348925071276108
 30
0.0
  0
POINT
  5
291
330
285
100
AcDbEntity
  8
Defpoints
 62
     0
100
AcDbPoint
 10
90.84814667819812
 20
-6.348925071275829
 30
0.0
  0
ENDBLK
  5
287
330
285
100
AcDbEntity
  8
0
100
AcDbBlockEnd
  0
BLOCK
  5
29A
330
299
100
AcDbEntity
  8
0
100
AcDbBlockBegin
  2
_D_2
 70
     0
 10
0.0
 20
0.0
 30
0.0
  3
_D_2
  1
_D_2
  0
LINE
  5
29C
330
299
100
AcDbEntity
  8
치수문자_일반주서
 62
     0
370
    -2
100
AcDbLine
 10
43.75
 20
6.20537383051155
 30
0.0
 11
43.75
 21
15.61595918817216
 31
0.0
  0
LINE
  5
29D
330
299
100
AcDbEntity
  8
치수문자_일반주서
 62
     0
370
    -2
100
AcDbLine
 10
11.99999999999999
 20
6.410407441758197
 30
0.0
 11
11.99999999999999
 21
15.61595918817216
 31
0.0
  0
LINE
  5
29E
330
299
100
AcDbEntity
  8
치수문자_일반주서
 62
     0
370
    -2
100
AcDbLine
 10
40.448
 20
15.61595918817216
 30
0.0
 11
15.30199999999999
 21
15.61595918817216
 31
0.0
  0
SOLID
  5
29F
330
299
100
AcDbEntity
  8
치수문자_일반주서
 62
     0
100
AcDbTrace
 10
40.448
 20
15.06562585483883
 30
0.0
 11
40.448
 21
16.1662925215055
 31
0.0
 12
43.75
 22
15.61595918817216
 32
0.0
 13
43.75
 23
15.61595918817216
 33
0.0
  0
SOLID
  5
2A0
330
299
100
AcDbEntity
  8
치수문자_일반주서
 62
     0
100
AcDbTrace
 10
15.30199999999999
 20
16.1662925215055
 30
0.0
 11
15.30199999999999
 21
15.06562585483883
 31
0.0
 12
11.99999999999999
 22
15.61595918817216
 32
0.0
 13
11.99999999999999
 23
15.61595918817216
 33
0.0
  0
MTEXT
  5
2A1
330
299
100
AcDbEntity
  8
치수문자_일반주서
 62
     0
100
AcDbMText
 10
27.87499999999999
 20
19.99095918817216
 30
0.0
 40
3.5
 41
0.0
 71
     2
 72
     1
  1
\A1;31.75 [1 1/4]
  7
SLDTEXTSTYLE0
 73
     1
 44
1.0
  0
POINT
  5
2A2
330
299
100
AcDbEntity
  8
Defpoints
 62
     0
100
AcDbPoint
 10
43.75
 20
6.14287383051155
 30
0.0
  0
POINT
  5
2A3
330
299
100
AcDbEntity
  8
Defpoints
 62
     0
100
AcDbPoint
 10
11.99999999999999
 20
6.347907441758197
 30
0.0
  0
POINT
  5
2A4
330
299
100
AcDbEntity
  8
Defpoints
 62
     0
100
AcDbPoint
 10
11.99999999999999
 20
15.61595918817216
 30
0.0
  0
ENDBLK
  5
29B
330
299
100
AcDbEntity
  8
0
100
AcDbBlockEnd
  0
BLOCK
  5
2AD
330
2AC
100
AcDbEntity
  8
0
100
AcDbBlockBegin
  2
_D_3
 70
     0
 10
0.0
 20
0.0
 30
0.0
  3
_D_3
  1
_D_3
  0
LINE
  5
2AF
330
2AC
100
AcDbEntity
  8
치수문자_일반주서
 62
     0
370
    -2
100
AcDbLine
 10
43.75
 20
6.20537383051155
 30
0.0
 11
43.74999999999999
 21
27.47904842901739
 31
0.0
  0
LINE
  5
2B0
330
2AC
100
AcDbEntity
  8
치수문자_일반주서
 62
     0
370
    -2
100
AcDbLine
 10
-38.79999999999999
 20
5.143574928723884
 30
0.0
 11
-38.8
 21
27.47904842901739
 31
0.0
  0
LINE
  5
2B1
330
2AC
100
AcDbEntity
  8
치수문자_일반주서
 62
     0
370
    -2
100
AcDbLine
 10
40.44799999999999
 20
27.47904842901739
 30
0.0
 11
-35.498
 21
27.47904842901739
 31
0.0
  0
SOLID
  5
2B2
330
2AC
100
AcDbEntity
  8
치수문자_일반주서
 62
     0
100
AcDbTrace
 10
40.44799999999999
 20
26.92871509568405
 30
0.0
 11
40.44799999999999
 21
28.02938176235072
 31
0.0
 12
43.74999999999999
 22
27.47904842901739
 32
0.0
 13
43.74999999999999
 23
27.47904842901739
 33
0.0
  0
SOLID
  5
2B3
330
2AC
100
AcDbEntity
  8
치수문자_일반주서
 62
     0
100
AcDbTrace
 10
-35.498
 20
28.02938176235072
 30
0.0
 11
-35.498
 21
26.92871509568405
 31
0.0
 12
-38.8
 22
27.47904842901739
 32
0.0
 13
-38.8
 23
27.47904842901739
 33
0.0
  0
MTEXT
  5
2B4
330
2AC
100
AcDbEntity
  8
치수문자_일반주서
 62
     0
100
AcDbMText
 10
2.474999999999996
 20
31.85404842901739
 30
0.0
 40
3.5
 41
0.0
 71
     2
 72
     1
  1
\A1;82.55 [3 1/4]
  7
SLDTEXTSTYLE0
 73
     1
 44
1.0
  0
POINT
  5
2B5
330
2AC
100
AcDbEntity
  8
Defpoints
 62
     0
100
AcDbPoint
 10
43.75
 20
6.14287383051155
 30
0.0
  0
POINT
  5
2B6
330
2AC
100
AcDbEntity
  8
Defpoints
 62
     0
100
AcDbPoint
 10
-38.79999999999999
 20
5.081074928723884
 30
0.0
  0
POINT
  5
2B7
330
2AC
100
AcDbEntity
  8
Defpoints
 62
     0
100
AcDbPoint
 10
-38.79999999999999
 20
27.47904842901739
 30
0.0
  0
ENDBLK
  5
2AE
330
2AC
100
AcDbEntity
  8
0
100
AcDbBlockEnd
  0
BLOCK
  5
2C6
330
2C5
100
AcDbEntity
  8
0
100
AcDbBlockBegin
  2
SW_DOWELSYMBOL_0
 70
     0
 10
0.0
 20
0.0
 30
0.0
  3
SW_DOWELSYMBOL_0
  1
SW_DOWELSYMBOL_0
  0
CIRCLE
  5
2C8
330
2C5
100
AcDbEntity
  8
해칭선
 62
     0
100
AcDbCircle
 10
0.0
 20
0.0
 30
0.0
 40
3.000000000000002
  0
HATCH
  5
2C9
330
2C5
100
AcDbEntity
  8
0
  6
Continuous
 62
     0
370
     0
100
AcDbHatch
 10
0.0
 20
0.0
 30
0.0
210
0.0
220
0.0
230
1.0
  2
SOLID
 70
     1
 71
     0
 91
        1
 92
        0
 93
        3
 72
     2
 10
0.0000000000000104
 20
0.0
 40
3.000000000000002
 50
0.0
 51
90.0
 73
     1
 72
     1
 10
0.0000000000000104
 20
3.000000000000002
 11
0.0000000000000104
 21
0.0
 72
     1
 10
0.0000000000000104
 20
0.0
 11
3.000000000000012
 21
0.0
 97
        0
 75
     0
 76
     1
 98
        1
 10
0.0
 20
0.0
  0
HATCH
  5
2CA
330
2C5
100
AcDbEntity
  8
0
  6
Continuous
 62
     0
370
     0
100
AcDbHatch
 10
0.0
 20
0.0
 30
0.0
210
0.0
220
0.0
230
1.0
  2
SOLID
 70
     1
 71
     0
 91
        1
 92
        0
 93
        3
 72
     2
 10
0.0000000000000104
 20
0.0
 40
3.000000000000002
 50
180.0
 51
270.0000000000007
 73
     1
 72
     1
 10
0.0000000000000104
 20
-3.000000000000002
 11
0.0000000000000104
 21
0.0
 72
     1
 10
0.0000000000000104
 20
0.0
 11
-2.999999999999992
 21
0.0
 97
        0
 75
     0
 76
     1
 98
        1
 10
0.0
 20
0.0
  0
ENDBLK
  5
2C7
330
2C5
100
AcDbEntity
  8
0
100
AcDbBlockEnd
  0
ENDSEC
  0
SECTION
  2
ENTITIES
  0
LINE
  5
96
330
1F
100
AcDbEntity
  8
외형선
  6
Continuous
370
    15
100
AcDbLine
 10
-37.52999999999998
 20
6.351074928723885
 30
0.0
 11
-38.79999999999999
 21
5.081074928723883
 31
0.0
  0
LINE
  5
97
330
1F
100
AcDbEntity
  8
외형선
  6
Continuous
370
    15
100
AcDbLine
 10
-38.79999999999999
 20
-5.078925071276114
 30
0.0
 11
-37.52999999999998
 21
-6.348925071276116
 31
0.0
  0
LINE
  5
98
330
1F
100
AcDbEntity
  8
외형선
  6
Continuous
370
    15
100
AcDbLine
 10
11.0
 20
6.351074928723891
 30
0.0
 11
-9.066124999999964
 21
6.351074928723889
 31
0.0
  0
LINE
  5
99
330
1F
100
AcDbEntity
  8
외형선
  6
Continuous
370
    15
100
AcDbLine
 10
-37.52999999999998
 20
-6.348925071276114
 30
0.0
 11
11.000025
 21
-6.348925071276108
 31
0.0
  0
LINE
  5
9A
330
1F
100
AcDbEntity
  8
외형선
  6
Continuous
 62
     1
370
    15
100
AcDbLine
 10
43.51049101251938
 20
1.529007890929382
 30
0.0
 11
43.75
 21
1.409763770289412
 31
0.0
  0
LINE
  5
9B
330
1F
100
AcDbEntity
  8
외형선
  6
Continuous
 62
     1
370
    15
100
AcDbLine
 10
29.36315174449549
 20
6.224506265865763
 30
0.0
 11
29.30092784376015
 21
6.187366080257666
 31
0.0
  0
LINE
  5
9C
330
1F
100
AcDbEntity
  8
외형선
  6
Continuous
 62
     1
370
    15
100
AcDbLine
 10
23.73877825439624
 20
-6.290609299020951
 30
0.0
 11
23.94789595706676
 21
-6.185081854708071
 31
0.0
  0
LINE
  5
9D
330
1F
100
AcDbEntity
  8
외형선
  6
Continuous
370
    15
100
AcDbLine
 10
11.66792300320038
 20
6.298152385870633
 30
0.0
 11
11.0
 21
6.351074928723891
 31
0.0
  0
SPLINE
  5
9E
330
1F
100
AcDbEntity
  8
외형선
  6
Continuous
 62
     1
370
    15
100
AcDbSpline
210
0.0
220
0.0
230
1.0
 70
     8
 71
     3
 72
     9
 73
     5
 74
     0
 42
0.000000001
 43
0.00000001
 40
0.0
 40
0.0
 40
0.0
 40
0.0
 40
0.5003955432196135
 40
1.0
 40
1.0
 40
1.0
 40
1.0
 10
41.02018697377942
 20
-6.340315850682096
 30
0.0
 10
41.09775184030523
 20
-6.32562566845581
 30
0.0
 10
41.25275894933496
 20
-6.29626852803892
 30
0.0
 10
41.38970177039404
 20
-6.216309818967066
 30
0.0
 10
41.45811901411923
 20
-6.176362091556362
 30
0.0
  0
LINE
  5
9F
330
1F
100
AcDbEntity
  8
외형선
  6
Continuous
 62
     1
370
    15
100
AcDbLine
 10
29.30092778642091
 20
6.187366042462257
 30
0.0
 11
29.2534952256887
 21
6.164528930350906
 31
0.0
  0
SPLINE
  5
A0
330
1F
100
AcDbEntity
  8
외형선
  6
Continuous
 62
     1
370
    15
100
AcDbSpline
210
0.0
220
0.0
230
1.0
 70
     8
 71
     3
 72
    11
 73
     7
 74
     0
 42
0.000000001
 43
0.00000001
 40
0.0
 40
0.0
 40
0.0
 40
0.0
 40
0.1913181273649119
 40
0.4645221415658236
 40
0.7377023125603174
 40
1.0
 40
1.0
 40
1.0
 40
1.0
 10
28.97241898470797
 20
6.223126719279196
 30
0.0
 10
28.91080911894552
 20
6.254839251682403
 30
0.0
 10
28.76121980830499
 20
6.331837566841088
 30
0.0
 10
28.49113536697795
 20
6.361880223774313
 30
0.0
 10
28.19664335312435
 20
6.323576013332657
 30
0.0
 10
28.02470747962284
 20
6.23122781137731
 30
0.0
 10
27.94048666395878
 20
6.185992103811488
 30
0.0
  0
SPLINE
  5
A1
330
1F
100
AcDbEntity
  8
외형선
  6
Continuous
 62
     1
370
    15
100
AcDbSpline
210
0.0
220
0.0
230
1.0
 70
     8
 71
     3
 72
     9
 73
     5
 74
     0
 42
0.000000001
 43
0.00000001
 40
0.0
 40
0.0
 40
0.0
 40
0.0
 40
0.5790474338837988
 40
1.0
 40
1.0
 40
1.0
 40
1.0
 10
23.9566913450335
 20
-6.177817436883929
 30
0.0
 10
23.97875333016206
 20
-6.167332850096275
 30
0.0
 10
24.01685381008403
 20
-6.149226238834166
 30
0.0
 10
24.06473971675215
 20
-6.151094023086019
 30
0.0
 10
24.0848974120449
 20
-6.151880271659786
 30
0.0
  0
SPLINE
  5
A2
330
1F
100
AcDbEntity
  8
외형선
  6
Continuous
 62
     1
370
    15
100
AcDbSpline
210
0.0
220
0.0
230
1.0
 70
     8
 71
     3
 72
    11
 73
     7
 74
     0
 42
0.000000001
 43
0.00000001
 40
0.0
 40
0.0
 40
0.0
 40
0.0
 40
0.2449464392146365
 40
0.4999480303558683
 40
0.754976088236232
 40
1.0
 40
1.0
 40
1.0
 40
1.0
 10
24.20041581784262
 20
-6.18841317747016
 30
0.0
 10
24.28486070403732
 20
-6.233069222863852
 30
0.0
 10
24.45721697368559
 20
-6.324214462654398
 30
0.0
 10
24.75285593460864
 20
-6.361518958202748
 30
0.0
 10
25.04850670760728
 20
-6.322747733138391
 30
0.0
 10
25.22086707695855
 20
-6.23064149355478
 30
0.0
 10
25.30532312252028
 20
-6.185509722277708
 30
0.0
  0
SPLINE
  5
A3
330
1F
100
AcDbEntity
  8
외형선
  6
Continuous
 62
     1
370
    15
100
AcDbSpline
210
0.0
220
0.0
230
1.0
 70
     8
 71
     3
 72
    11
 73
     7
 74
     0
 42
0.000000001
 43
0.00000001
 40
0.0
 40
0.0
 40
0.0
 40
0.0
 40
0.2474600901722001
 40
0.5001264665072047
 40
0.7527310735955162
 40
1.0
 40
1.0
 40
1.0
 40
1.0
 10
41.45288278998964
 20
-6.181322835600911
 30
0.0
 10
41.47244289455606
 20
-6.170903050328129
 30
0.0
 10
41.51197462662044
 20
-6.149844259043387
 30
0.0
 10
41.58306423614322
 20
-6.141707887914702
 30
0.0
 10
41.65426268600105
 20
-6.153292434960727
 30
0.0
 10
41.69406441899009
 20
-6.176866406734955
 30
0.0
 10
41.71375286241791
 20
-6.188527577613463
 30
0.0
  0
SPLINE
  5
A4
330
1F
100
AcDbEntity
  8
외형선
  6
Continuous
 62
     1
370
    15
100
AcDbSpline
210
0.0
220
0.0
230
1.0
 70
     8
 71
     3
 72
    11
 73
     7
 74
     0
 42
0.000000001
 43
0.00000001
 40
0.0
 40
0.0
 40
0.0
 40
0.0
 40
0.244996116283197
 40
0.4999232148645114
 40
0.7548893367254346
 40
1.0
 40
1.0
 40
1.0
 40
1.0
 10
41.69664108374442
 20
-6.187129626245963
 30
0.0
 10
41.78134202537382
 20
-6.232113912638997
 30
0.0
 10
41.95417728367841
 20
-6.323905935358234
 30
0.0
 10
42.25068964875683
 20
-6.3617956758916
 30
0.0
 10
42.54721876185281
 20
-6.323227430181831
 30
0.0
 10
42.72005703387183
 20
-6.231004142808835
 30
0.0
 10
42.80477303100081
 20
-6.185801262352722
 30
0.0
  0
SPLINE
  5
A5
330
1F
100
AcDbEntity
  8
외형선
  6
Continuous
 62
     1
370
    15
100
AcDbSpline
210
0.0
220
0.0
230
1.0
 70
     8
 71
     3
 72
     9
 73
     5
 74
     0
 42
0.000000001
 43
0.00000001
 40
0.0
 40
0.0
 40
0.0
 40
0.0
 40
0.4996614015485855
 40
1.0
 40
1.0
 40
1.0
 40
1.0
 10
27.94361009123051
 20
6.187846101038176
 30
0.0
 10
27.90125848292627
 20
6.169157590181509
 30
0.0
 10
27.81649786669098
 20
6.131755239712275
 30
0.0
 10
27.732411903711
 20
6.171326174453243
 30
0.0
 10
27.69034045084416
 20
6.191125040480951
 30
0.0
  0
SPLINE
  5
A6
330
1F
100
AcDbEntity
  8
외형선
  6
Continuous
 62
     1
370
    15
100
AcDbSpline
210
0.0
220
0.0
230
1.0
 70
     8
 71
     3
 72
     9
 73
     5
 74
     0
 42
0.000000001
 43
0.00000001
 40
0.0
 40
0.0
 40
0.0
 40
0.0
 40
0.4993514516229121
 40
1.0
 40
1.0
 40
1.0
 40
1.0
 10
27.69594751425595
 20
6.188443835405419
 30
0.0
 10
27.62694610940556
 20
6.228238353906662
 30
0.0
 10
27.48876406422247
 20
6.307930759669996
 30
0.0
 10
27.33275096625709
 20
6.336299537889493
 30
0.0
 10
27.2546432352329
 20
6.350502325524315
 30
0.0
  0
SPLINE
  5
A7
330
1F
100
AcDbEntity
  8
외형선
  6
Continuous
 62
     1
370
    15
100
AcDbSpline
210
0.0
220
0.0
230
1.0
 70
     8
 71
     3
 72
     9
 73
     5
 74
     0
 42
0.000000001
 43
0.00000001
 40
0.0
 40
0.0
 40
0.0
 40
0.0
 40
0.5004256685094748
 40
1.0
 40
1.0
 40
1.0
 40
1.0
 10
25.30799552374959
 20
-6.183929493910922
 30
0.0
 10
25.34892638249778
 20
-6.166183413526245
 30
0.0
 10
25.43071846736445
 20
-6.130721442845299
 30
0.0
 10
25.51241752335063
 20
-6.168004868762974
 30
0.0
 10
25.55323227462833
 20
-6.186630711341471
 30
0.0
  0
SPLINE
  5
A8
330
1F
100
AcDbEntity
  8
외형선
  6
Continuous
 62
     1
370
    15
100
AcDbSpline
210
0.0
220
0.0
230
1.0
 70
     8
 71
     3
 72
     9
 73
     5
 74
     0
 42
0.000000001
 43
0.00000001
 40
0.0
 40
0.0
 40
0.0
 40
0.0
 40
0.4989243871067679
 40
1.0
 40
1.0
 40
1.0
 40
1.0
 10
25.54910742333301
 20
-6.183950959470344
 30
0.0
 10
25.61874657936682
 20
-6.22435341002431
 30
0.0
 10
25.75832515646875
 20
-6.305332515472049
 30
0.0
 10
25.91538998264462
 20
-6.334020738790609
 30
0.0
 10
25.99409133668466
 20
-6.348395707872772
 30
0.0
  0
SPLINE
  5
A9
330
1F
100
AcDbEntity
  8
외형선
  6
Continuous
 62
     1
370
    15
100
AcDbSpline
210
0.0
220
0.0
230
1.0
 70
     8
 71
     3
 72
     9
 73
     5
 74
     0
 42
0.000000001
 43
0.00000001
 40
0.0
 40
0.0
 40
0.0
 40
0.0
 40
0.5005088913163811
 40
1.0
 40
1.0
 40
1.0
 40
1.0
 10
42.80801767273105
 20
-6.183915262001173
 30
0.0
 10
42.84846680313682
 20
-6.166327952814876
 30
0.0
 10
42.92928281081929
 20
-6.131189098158282
 30
0.0
 10
43.01007163803077
 20
-6.166995012832543
 30
0.0
 10
43.05042493890387
 20
-6.18487974885062
 30
0.0
  0
SPLINE
  5
AA
330
1F
100
AcDbEntity
  8
외형선
  6
Continuous
 62
     1
370
    15
100
AcDbSpline
210
0.0
220
0.0
230
1.0
 70
     8
 71
     3
 72
     9
 73
     5
 74
     0
 42
0.000000001
 43
0.00000001
 40
0.0
 40
0.0
 40
0.0
 40
0.0
 40
0.500981942293924
 40
1.0
 40
1.0
 40
1.0
 40
1.0
 10
27.24439183109531
 20
6.350605392716016
 30
0.0
 10
27.16584128927129
 20
6.33630460294766
 30
0.0
 10
27.00904812929361
 20
6.307759083516611
 30
0.0
 10
26.86982215898226
 20
6.227184153414579
 30
0.0
 10
26.80034588569524
 20
6.18697580829526
 30
0.0
  0
SPLINE
  5
AB
330
1F
100
AcDbEntity
  8
외형선
  6
Continuous
 62
     1
370
    15
100
AcDbSpline
210
0.0
220
0.0
230
1.0
 70
     8
 71
     3
 72
     9
 73
     5
 74
     0
 42
0.000000001
 43
0.00000001
 40
0.0
 40
0.0
 40
0.0
 40
0.0
 40
0.4989470053927562
 40
1.0
 40
1.0
 40
1.0
 40
1.0
 10
43.04944655616416
 20
-6.184196579776073
 30
0.0
 10
43.11904664766433
 20
-6.224547699289439
 30
0.0
 10
43.258540603431
 20
-6.305420255046342
 30
0.0
 10
43.41554033560323
 20
-6.334065885865794
 30
0.0
 10
43.49420552156066
 20
-6.348418864970294
 30
0.0
  0
SPLINE
  5
AC
330
1F
100
AcDbEntity
  8
외형선
  6
Continuous
 62
     1
370
    15
100
AcDbSpline
210
0.0
220
0.0
230
1.0
 70
     8
 71
     3
 72
     9
 73
     5
 74
     0
 42
0.000000001
 43
0.00000001
 40
0.0
 40
0.0
 40
0.0
 40
0.0
 40
0.5008462749515666
 40
1.0
 40
1.0
 40
1.0
 40
1.0
 10
26.00228930828631
 20
-6.348743544130755
 30
0.0
 10
26.08081353968604
 20
-6.334601395953502
 30
0.0
 10
26.23759663926548
 20
-6.306364891292226
 30
0.0
 10
26.37673414035264
 20
-6.226178978750125
 30
0.0
 10
26.44618514231422
 20
-6.186153881808326
 30
0.0
  0
SPLINE
  5
AD
330
1F
100
AcDbEntity
  8
외형선
  6
Continuous
 62
     1
370
    15
100
AcDbSpline
210
0.0
220
0.0
230
1.0
 70
     8
 71
     3
 72
     9
 73
     5
 74
     0
 42
0.000000001
 43
0.00000001
 40
0.0
 40
0.0
 40
0.0
 40
0.0
 40
0.4994880052367008
 40
1.0
 40
1.0
 40
1.0
 40
1.0
 10
26.80090541286771
 20
6.187351284952487
 30
0.0
 10
26.76061934475917
 20
6.169381828858132
 30
0.0
 10
26.67996461894758
 20
6.133406077877204
 30
0.0
 10
26.59928552451841
 20
6.168110083698816
 30
0.0
 10
26.55890467002998
 20
6.185479854878869
 30
0.0
  0
LINE
  5
AE
330
1F
100
AcDbEntity
  8
외형선
  6
Continuous
 62
     1
370
    15
100
AcDbLine
 10
43.55958244248254
 20
-6.339342628793572
 30
0.0
 11
43.75000000000001
 21
-6.14892507127611
 31
0.0
  0
SPLINE
  5
AF
330
1F
100
AcDbEntity
  8
외형선
  6
Continuous
 62
     1
370
    15
100
AcDbSpline
210
0.0
220
0.0
230
1.0
 70
     8
 71
     3
 72
    11
 73
     7
 74
     0
 42
0.000000001
 43
0.00000001
 40
0.0
 40
0.0
 40
0.0
 40
0.0
 40
0.2838182292070243
 40
0.55201722887598
 40
0.7923901420788968
 40
1.0
 40
1.0
 40
1.0
 40
1.0
 10
26.55805520515759
 20
6.186040960283031
 30
0.0
 10
26.45501650233982
 20
6.239159172444244
 30
0.0
 10
26.25460957514786
 20
6.34247236822453
 30
0.0
 10
25.93305299124617
 20
6.362289365399468
 30
0.0
 10
25.65464728269093
 20
6.305942524651267
 30
0.0
 10
25.50662622564568
 20
6.222795791543156
 30
0.0
 10
25.43802842991932
 20
6.184262877869117
 30
0.0
  0
SPLINE
  5
B0
330
1F
100
AcDbEntity
  8
외형선
  6
Continuous
 62
     1
370
    15
100
AcDbSpline
210
0.0
220
0.0
230
1.0
 70
     8
 71
     3
 72
     9
 73
     5
 74
     0
 42
0.000000001
 43
0.00000001
 40
0.0
 40
0.0
 40
0.0
 40
0.0
 40
0.500580973199214
 40
1.0
 40
1.0
 40
1.0
 40
1.0
 10
26.44785310849121
 20
-6.18511006303215
 30
0.0
 10
26.48816405126694
 20
-6.167097678636059
 30
0.0
 10
26.5686923672317
 20
-6.131114720112938
 30
0.0
 10
26.65008067852707
 20
-6.166384487953509
 30
0.0
 10
26.69072754974716
 20
-6.183998881083935
 30
0.0
  0
SPLINE
  5
B1
330
1F
100
AcDbEntity
  8
외형선
  6
Continuous
 62
     1
370
    15
100
AcDbSpline
210
0.0
220
0.0
230
1.0
 70
     8
 71
     3
 72
    11
 73
     7
 74
     0
 42
0.000000001
 43
0.00000001
 40
0.0
 40
0.0
 40
0.0
 40
0.0
 40
0.234626813267477
 40
0.4853606207165795
 40
0.7437992812283382
 40
1.0
 40
1.0
 40
1.0
 40
1.0
 10
26.68883604603542
 20
-6.182707428801375
 30
0.0
 10
26.7708913795306
 20
-6.227231528575299
 30
0.0
 10
26.94063509741047
 20
-6.319336281660284
 30
0.0
 10
27.23601880433564
 20
-6.362102963593935
 30
0.0
 10
27.54122786354059
 20
-6.326381703602451
 30
0.0
 10
27.72109852827226
 20
-6.230051948403964
 30
0.0
 10
27.8106427711834
 20
-6.182096518807196
 30
0.0
  0
SPLINE
  5
B2
330
1F
100
AcDbEntity
  8
외형선
  6
Continuous
 62
     1
370
    15
100
AcDbSpline
210
0.0
220
0.0
230
1.0
 70
     8
 71
     3
 72
     9
 73
     5
 74
     0
 42
0.000000001
 43
0.00000001
 40
0.0
 40
0.0
 40
0.0
 40
0.0
 40
0.4592602699310374
 40
1.0
 40
1.0
 40
1.0
 40
1.0
 10
43.59235617518542
 20
6.346839799824388
 30
0.0
 10
43.48987378154056
 20
6.348766427579109
 30
0.0
 10
43.26672712515712
 20
6.352961494909905
 30
0.0
 10
43.05436522917385
 20
6.244174697728357
 30
0.0
 10
42.93953271486293
 20
6.185349354385341
 30
0.0
  0
SPLINE
  5
B3
330
1F
100
AcDbEntity
  8
외형선
  6
Continuous
 62
     1
370
    15
100
AcDbSpline
210
0.0
220
0.0
230
1.0
 70
     8
 71
     3
 72
     9
 73
     5
 74
     0
 42
0.000000001
 43
0.00000001
 40
0.0
 40
0.0
 40
0.0
 40
0.0
 40
0.4994395517441456
 40
1.0
 40
1.0
 40
1.0
 40
1.0
 10
42.94142068800272
 20
6.186586708205374
 30
0.0
 10
42.90066017672799
 20
6.168786489369742
 30
0.0
 10
42.81904767501003
 20
6.133146102513176
 30
0.0
 10
42.73827896997533
 20
6.169210153449157
 30
0.0
 10
42.69784935077811
 20
6.187262390951592
 30
0.0
  0
SPLINE
  5
B4
330
1F
100
AcDbEntity
  8
외형선
  6
Continuous
 62
     1
370
    15
100
AcDbSpline
210
0.0
220
0.0
230
1.0
 70
     8
 71
     3
 72
     9
 73
     5
 74
     0
 42
0.000000001
 43
0.00000001
 40
0.0
 40
0.0
 40
0.0
 40
0.0
 40
0.4995287879514537
 40
1.0
 40
1.0
 40
1.0
 40
1.0
 10
25.44452547949681
 20
6.188316899437424
 30
0.0
 10
25.40325528737831
 20
6.169752410831888
 30
0.0
 10
25.32063704171574
 20
6.132588409370294
 30
0.0
 10
25.23879314056133
 20
6.169033608310446
 30
0.0
 10
25.19783262415179
 20
6.187273381197374
 30
0.0
  0
SPLINE
  5
B5
330
1F
100
AcDbEntity
  8
외형선
  6
Continuous
 62
     1
370
    15
100
AcDbSpline
210
0.0
220
0.0
230
1.0
 70
     8
 71
     3
 72
     9
 73
     5
 74
     0
 42
0.000000001
 43
0.00000001
 40
0.0
 40
0.0
 40
0.0
 40
0.0
 40
0.4990280675094748
 40
1.0
 40
1.0
 40
1.0
 40
1.0
 10
42.69596314175964
 20
6.188434688058782
 30
0.0
 10
42.62621559619995
 20
6.228577073224997
 30
0.0
 10
42.48644881733362
 20
6.309018210266759
 30
0.0
 10
42.32915679788943
 20
6.337021949402478
 30
0.0
 10
42.25035791094314
 20
6.351051036714258
 30
0.0
  0
SPLINE
  5
B6
330
1F
100
AcDbEntity
  8
외형선
  6
Continuous
 62
     1
370
    15
100
AcDbSpline
210
0.0
220
0.0
230
1.0
 70
     8
 71
     3
 72
     9
 73
     5
 74
     0
 42
0.000000001
 43
0.00000001
 40
0.0
 40
0.0
 40
0.0
 40
0.0
 40
0.9266329184835528
 40
1.0
 40
1.0
 40
1.0
 40
1.0
 10
43.50290105300856
 20
-6.348662913115982
 30
0.0
 10
43.51998990444705
 20
-6.346570448458468
 30
0.0
 10
43.53843178266832
 20
-6.344312310833765
 30
0.0
 10
43.55665852679238
 20
-6.340664849231421
 30
0.0
 10
43.55799576981431
 20
-6.340397245618712
 30
0.0
  0
SPLINE
  5
B7
330
1F
100
AcDbEntity
  8
외형선
  6
Continuous
 62
     1
370
    15
100
AcDbSpline
210
0.0
220
0.0
230
1.0
 70
     8
 71
     3
 72
     9
 73
     5
 74
     0
 42
0.000000001
 43
0.00000001
 40
0.0
 40
0.0
 40
0.0
 40
0.0
 40
0.4992717956696457
 40
1.0
 40
1.0
 40
1.0
 40
1.0
 10
25.19500403396312
 20
6.188978865080153
 30
0.0
 10
25.12582127491599
 20
6.228797211453291
 30
0.0
 10
24.98725394616406
 20
6.308550056934444
 30
0.0
 10
24.83093012226519
 20
6.336734376234611
 30
0.0
 10
24.75265437463026
 20
6.350847059828056
 30
0.0
  0
SPLINE
  5
B8
330
1F
100
AcDbEntity
  8
외형선
  6
Continuous
 62
     1
370
    15
100
AcDbSpline
210
0.0
220
0.0
230
1.0
 70
     8
 71
     3
 72
    11
 73
     7
 74
     0
 42
0.000000001
 43
0.00000001
 40
0.0
 40
0.0
 40
0.0
 40
0.0
 40
0.2485054552320046
 40
0.5002170889540773
 40
0.7518254324915427
 40
1.0
 40
1.0
 40
1.0
 40
1.0
 10
27.79877000746952
 20
-6.18823224431094
 30
0.0
 10
27.81789964409763
 20
-6.177379103740526
 30
0.0
 10
27.85640572493165
 20
-6.155532797078672
 30
0.0
 10
27.9264233017843
 20
-6.145436731521708
 30
0.0
 10
27.9963437893356
 20
-6.154934015039407
 30
0.0
 10
28.03467597605117
 20
-6.176292279758418
 30
0.0
 10
28.05371038809195
 20
-6.186898040764292
 30
0.0
  0
SPLINE
  5
B9
330
1F
100
AcDbEntity
  8
외형선
  6
Continuous
 62
     1
370
    15
100
AcDbSpline
210
0.0
220
0.0
230
1.0
 70
     8
 71
     3
 72
     9
 73
     5
 74
     0
 42
0.000000001
 43
0.00000001
 40
0.0
 40
0.0
 40
0.0
 40
0.0
 40
0.5004424053872577
 40
1.0
 40
1.0
 40
1.0
 40
1.0
 10
42.25281280831233
 20
6.350825312573059
 30
0.0
 10
42.17519397892651
 20
6.337164319223357
 30
0.0
 10
42.02009355468136
 20
6.309866485940961
 30
0.0
 10
41.88302536521834
 20
6.231740661753808
 30
0.0
 10
41.81455191019226
 20
6.192712312945736
 30
0.0
  0
SPLINE
  5
BA
330
1F
100
AcDbEntity
  8
외형선
  6
Continuous
 62
     1
370
    15
100
AcDbSpline
210
0.0
220
0.0
230
1.0
 70
     8
 71
     3
 72
     9
 73
     5
 74
     0
 42
0.000000001
 43
0.00000001
 40
0.0
 40
0.0
 40
0.0
 40
0.0
 40
0.4994075330249916
 40
1.0
 40
1.0
 40
1.0
 40
1.0
 10
28.05147221989597
 20
-6.185569214668921
 30
0.0
 10
28.12023489868024
 20
-6.225314310880862
 30
0.0
 10
28.25792340803805
 20
-6.304898805674524
 30
0.0
 10
28.41351618847015
 20
-6.333422317702965
 30
0.0
 10
28.49140476227015
 20
-6.347700972956075
 30
0.0
  0
LINE
  5
BB
330
1F
100
AcDbEntity
  8
외형선
  6
Continuous
 62
     1
370
    15
100
AcDbLine
 10
43.75000000000001
 20
6.151074928723892
 30
0.0
 11
43.55
 21
6.351074928723891
 31
0.0
  0
LINE
  5
BC
330
1F
100
AcDbEntity
  8
외형선
  6
Continuous
370
    15
100
AcDbLine
 10
11.00229915137299
 20
-6.348742363605978
 30
0.0
 11
11.07225356794052
 21
-6.33194891039314
 31
0.0
  0
SPLINE
  5
BD
330
1F
100
AcDbEntity
  8
외형선
  6
Continuous
 62
     1
370
    15
100
AcDbSpline
210
0.0
220
0.0
230
1.0
 70
     8
 71
     3
 72
    11
 73
     7
 74
     0
 42
0.000000001
 43
0.00000001
 40
0.0
 40
0.0
 40
0.0
 40
0.0
 40
0.2346827831841424
 40
0.4914752300928648
 40
0.7482960551237698
 40
1.0
 40
1.0
 40
1.0
 40
1.0
 10
41.81775592944012
 20
6.190501140253478
 30
0.0
 10
41.79953005446597
 20
6.179565796315853
 30
0.0
 10
41.76136122940334
 20
6.156664880428588
 30
0.0
 10
41.69185067024216
 20
6.145008309850422
 30
0.0
 10
41.62078153598819
 20
6.152575053619304
 30
0.0
 10
41.58112125267184
 20
6.173330009577981
 30
0.0
 10
41.56149064595142
 20
6.183603067253197
 30
0.0
  0
LINE
  5
BE
330
1F
100
AcDbEntity
  8
외형선
  6
Continuous
 62
     1
370
    15
100
AcDbLine
 10
28.5022991701523
 20
-6.348742361350033
 30
0.0
 11
28.53153317370053
 21
-6.341911722593241
 31
0.0
  0
SPLINE
  5
BF
330
1F
100
AcDbEntity
  8
외형선
  6
Continuous
 62
     1
370
    15
100
AcDbSpline
210
0.0
220
0.0
230
1.0
 70
     8
 71
     3
 72
     9
 73
     5
 74
     0
 42
0.000000001
 43
0.00000001
 40
0.0
 40
0.0
 40
0.0
 40
0.0
 40
0.4356761741361577
 40
1.0
 40
1.0
 40
1.0
 40
1.0
 10
24.2082592363904
 20
6.155242301804695
 30
0.0
 10
24.18528983666965
 20
6.153314804968907
 30
0.0
 10
24.13256857008606
 20
6.148890654762371
 30
0.0
 10
24.08944933434229
 20
6.169125842763213
 30
0.0
 10
24.06511612225906
 20
6.180545041472924
 30
0.0
  0
SPLINE
  5
C0
330
1F
100
AcDbEntity
  8
외형선
  6
Continuous
 62
     1
370
    15
100
AcDbSpline
210
0.0
220
0.0
230
1.0
 70
     8
 71
     3
 72
    10
 73
     6
 74
     0
 42
0.000000001
 43
0.00000001
 40
0.0
 40
0.0
 40
0.0
 40
0.0
 40
0.4685673721487314
 40
0.952660698498666
 40
1.0
 40
1.0
 40
1.0
 40
1.0
 10
41.56938753630617
 20
6.176304264812904
 30
0.0
 10
41.49957454812369
 20
6.215272693427126
 30
0.0
 10
41.35763532222069
 20
6.294500767402447
 30
0.0
 10
41.18911430263904
 20
6.345432330434726
 30
0.0
 10
41.09862071057299
 20
6.343939145664626
 30
0.0
 10
41.09055966348208
 20
6.343806134779849
 30
0.0
  0
SPLINE
  5
C1
330
1F
100
AcDbEntity
  8
외형선
  6
Continuous
370
    15
100
AcDbSpline
210
0.0
220
0.0
230
1.0
 70
     8
 71
     3
 72
     9
 73
     5
 74
     0
 42
0.000000001
 43
0.00000001
 40
0.0
 40
0.0
 40
0.0
 40
0.0
 40
0.4258236605708009
 40
1.0
 40
1.0
 40
1.0
 40
1.0
 10
11.5501707167382
 20
-6.152235269927633
 30
0.0
 10
11.57090738338761
 20
-6.151038859486464
 30
0.0
 10
11.61960516270222
 20
-6.148229221244276
 30
0.0
 10
11.65944206793266
 20
-6.166614255173369
 30
0.0
 10
11.68231547635207
 20
-6.177170506655058
 30
0.0
  0
LINE
  5
C2
330
1F
100
AcDbEntity
  8
외형선
  6
Continuous
 62
     1
370
    15
100
AcDbLine
 10
24.05805301388066
 20
6.186042372252939
 30
0.0
 11
24.01196204143921
 21
6.205342082195058
 31
0.0
  0
LINE
  5
C3
330
1F
100
AcDbEntity
  8
외형선
  6
Continuous
 62
     1
370
    15
100
AcDbLine
 10
29.10076535204818
 20
-6.153800709666972
 30
0.0
 11
29.12027947584299
 21
-6.155124436831282
 31
0.0
  0
LINE
  5
C4
330
1F
100
AcDbEntity
  8
외형선
  6
Continuous
 62
     1
370
    15
100
AcDbLine
 10
29.13006275157738
 20
-6.158055843478405
 30
0.0
 11
29.19075734027901
 21
-6.184018093495405
 31
0.0
  0
SPLINE
  5
C5
330
1F
100
AcDbEntity
  8
외형선
  6
Continuous
370
    15
100
AcDbSpline
210
0.0
220
0.0
230
1.0
 70
     8
 71
     3
 72
     9
 73
     5
 74
     0
 42
0.000000001
 43
0.00000001
 40
0.0
 40
0.0
 40
0.0
 40
0.0
 40
0.5767690222511641
 40
0.9999999999999999
 40
0.9999999999999999
 40
0.9999999999999999
 40
0.9999999999999999
 10
11.69075735027925
 20
-6.184018099938838
 30
0.0
 10
11.72454692062784
 20
-6.2046760253936
 30
0.0
 10
11.78313115286816
 20
-6.240492660229731
 30
0.0
 10
11.84696967628718
 20
-6.265654536676784
 30
0.0
 10
11.87398811697185
 20
-6.276303822247467
 30
0.0
  0
LINE
  5
C6
330
1F
100
AcDbEntity
  8
외형선
  6
Continuous
 62
     1
370
    15
100
AcDbLine
 10
29.19075736770887
 20
-6.18401811116929
 30
0.0
 11
29.30352652515786
 21
-6.245120162414029
 31
0.0
  0
SPLINE
  5
C7
330
1F
100
AcDbEntity
  8
외형선
  6
Continuous
 62
     1
370
    15
100
AcDbSpline
210
0.0
220
0.0
230
1.0
 70
     8
 71
     3
 72
    12
 73
     8
 74
     0
 42
0.000000001
 43
0.00000001
 40
0.0
 40
0.0
 40
0.0
 40
0.0
 40
0.4999999999999967
 40
0.4999999999999967
 40
0.7499999999999983
 40
0.7499999999999983
 40
1.0
 40
1.0
 40
1.0
 40
1.0
 10
27.21503369707881
 20
-1.79797958286607
 30
0.0
 10
27.38124775243771
 20
-1.899947144591701
 30
0.0
 10
27.56556470539951
 20
-2.012765339600795
 30
0.0
 10
27.84022246517366
 20
-2.16214882133955
 30
0.0
 10
27.92896088402572
 20
-2.207445187204416
 30
0.0
 10
28.10148774982491
 20
-2.28861835094301
 30
0.0
 10
28.18460987549098
 20
-2.324079540536275
 30
0.0
 10
28.26098485169291
 20
-2.353101666968188
 30
0.0
  0
SPLINE
  5
C8
330
1F
100
AcDbEntity
  8
외형선
  6
Continuous
 62
     1
370
    15
100
AcDbSpline
210
0.0
220
0.0
230
1.0
 70
     8
 71
     3
 72
    12
 73
     8
 74
     0
 42
0.000000001
 43
0.00000001
 40
0.0
 40
0.0
 40
0.0
 40
0.0
 40
0.4999999999999964
 40
0.4999999999999964
 40
0.7499999999999982
 40
0.7499999999999982
 40
1.0
 40
1.0
 40
1.0
 40
1.0
 10
28.43716424254145
 20
0.3039512865316672
 30
0.0
 10
28.27076841017554
 20
0.3822664652390883
 30
0.0
 10
28.08611950014917
 20
0.4871772292676413
 30
0.0
 10
27.81120521134574
 20
0.6455580770469758
 30
0.0
 10
27.7224338182683
 20
0.6972657042909862
 30
0.0
 10
27.54991421925915
 20
0.797777438498618
 30
0.0
 10
27.4667788336606
 20
0.8461181099916465
 30
0.0
 10
27.3903678471887
 20
0.8908240507896366
 30
0.0
  0
SPLINE
  5
C9
330
1F
100
AcDbEntity
  8
외형선
  6
Continuous
 62
     1
370
    15
100
AcDbSpline
210
0.0
220
0.0
230
1.0
 70
     8
 71
     3
 72
    12
 73
     8
 74
     0
 42
0.000000001
 43
0.00000001
 40
0.0
 40
0.0
 40
0.0
 40
0.0
 40
0.4999999999999982
 40
0.4999999999999982
 40
0.7499999999999991
 40
0.7499999999999991
 40
1.0
 40
1.0
 40
1.0
 40
1.0
 10
24.80354245560153
 20
-0.4665816831521369
 30
0.0
 10
24.96970358224806
 20
-0.5477001169616796
 30
0.0
 10
25.15403538901205
 20
-0.6537854095129252
 30
0.0
 10
25.42852190256981
 20
-0.8117375795299907
 30
0.0
 10
25.51720758441346
 20
-0.8628431139979692
 30
0.0
 10
25.68963290650351
 20
-0.9612880382758504
 30
0.0
 10
25.77270099988262
 20
-1.008230288158745
 30
0.0
 10
25.84901742600136
 20
-1.051236183170549
 30
0.0
  0
SPLINE
  5
CA
330
1F
100
AcDbEntity
  8
외형선
  6
Continuous
 62
     1
370
    15
100
AcDbSpline
210
0.0
220
0.0
230
1.0
 70
     8
 71
     3
 72
    12
 73
     8
 74
     0
 42
0.000000001
 43
0.00000001
 40
0.0
 40
0.0
 40
0.0
 40
0.0
 40
0.4999999999999998
 40
0.4999999999999998
 40
0.7499999999999999
 40
0.7499999999999999
 40
1.0
 40
1.0
 40
1.0
 40
1.0
 10
26.0229687480407
 20
1.642918611730921
 30
0.0
 10
25.85673099760258
 20
1.742505370411575
 30
0.0
 10
25.67228436806148
 20
1.854528997861868
 30
0.0
 10
25.39764197986701
 20
2.005266500269787
 30
0.0
 10
25.30897975400829
 20
2.051479292333354
 30
0.0
 10
25.13657265713665
 20
2.135103309688716
 30
0.0
 10
25.05350615223629
 20
2.172106110676129
 30
0.0
 10
24.97718507947528
 20
2.202938682903173
 30
0.0
  0
SPLINE
  5
CB
330
1F
100
AcDbEntity
  8
외형선
  6
Continuous
 62
     1
370
    15
100
AcDbSpline
210
0.0
220
0.0
230
1.0
 70
    24
 71
     3
 72
     8
 73
     4
 74
     0
 42
0.000000001
 43
0.00000001
 40
0.0
 40
0.0
 40
0.0
 40
0.0
 40
1.0
 40
1.0
 40
1.0
 40
1.0
 10
43.37259550860559
 20
-0.6938295626705274
 30
0.0
 10
43.26969432551617
 20
-0.796730745759954
 30
0.0
 10
43.163799286822
 20
-0.9026257844541329
 30
0.0
 10
43.05549281405777
 20
-1.010932257218357
 30
0.0
  0
SPLINE
  5
CC
330
1F
100
AcDbEntity
  8
외형선
  6
Continuous
 62
     1
370
    15
100
AcDbSpline
210
0.0
220
0.0
230
1.0
 70
     8
 71
     3
 72
    10
 73
     6
 74
     0
 42
0.000000001
 43
0.00000001
 40
0.0
 40
0.0
 40
0.0
 40
0.0
 40
0.5
 40
0.5
 40
1.0
 40
1.0
 40
1.0
 40
1.0
 10
42.29559558469332
 20
-0.5882348401689766
 30
0.0
 10
42.4137494238464
 20
-0.6472847005696367
 30
0.0
 10
42.5408298947419
 20
-0.7183413555884415
 30
0.0
 10
42.80057760622839
 20
-0.8656886175589922
 30
0.0
 10
42.93171184853972
 20
-0.9411180839042955
 30
0.0
 10
43.05549281405776
 20
-1.01093225721835
 30
0.0
  0
SPLINE
  5
CD
330
1F
100
AcDbEntity
  8
외형선
  6
Continuous
 62
     1
370
    15
100
AcDbSpline
210
0.0
220
0.0
230
1.0
 70
     8
 71
     3
 72
    12
 73
     8
 74
     0
 42
0.000000001
 43
0.00000001
 40
0.0
 40
0.0
 40
0.0
 40
0.0
 40
0.5000000000000001
 40
0.5000000000000001
 40
0.75
 40
0.75
 40
1.0
 40
1.0
 40
1.0
 40
1.0
 10
43.5152292475417
 20
1.526203607591754
 30
0.0
 10
43.349123352121
 20
1.624237578776572
 30
0.0
 10
43.16478047188628
 20
1.735771340880119
 30
0.0
 10
42.88999520148907
 20
1.887059413864987
 30
0.0
 10
42.80123397026308
 20
1.933631430244214
 30
0.0
 10
42.62869647995002
 20
2.018572752941341
 30
0.0
 10
42.54559444202077
 20
2.056527301621877
 30
0.0
 10
42.4692580886584
 20
2.088570511283672
 30
0.0
  0
SPLINE
  5
CE
330
1F
100
AcDbEntity
  8
외형선
  6
Continuous
 62
     1
370
    15
100
AcDbSpline
210
0.0
220
0.0
230
1.0
 70
     8
 71
     3
 72
     8
 73
     4
 74
     0
 42
0.000000001
 43
0.00000001
 40
0.0
 40
0.0
 40
0.0
 40
0.0
 40
1.0
 40
1.0
 40
1.0
 40
1.0
 10
26.53362314143092
 20
-1.439034164234827
 30
0.0
 10
26.68187607148364
 20
-1.520653248407062
 30
0.0
 10
26.82403695334685
 20
-1.594196768641113
 30
0.0
 10
26.94818215794658
 20
-1.653919737275565
 30
0.0
  0
SPLINE
  5
CF
330
1F
100
AcDbEntity
  8
외형선
  6
Continuous
 62
     1
370
    15
100
AcDbSpline
210
0.0
220
0.0
230
1.0
 70
     8
 71
     3
 72
    12
 73
     8
 74
     0
 42
0.000000001
 43
0.00000001
 40
0.0
 40
0.0
 40
0.0
 40
0.0
 40
0.2500000000000001
 40
0.2500000000000001
 40
0.5
 40
0.5
 40
1.0
 40
1.0
 40
1.0
 40
1.0
 10
26.70490847234451
 20
1.27712749649391
 30
0.0
 10
26.69092919208201
 20
1.055176489247586
 30
0.0
 10
26.67745725383266
 20
0.833487125537747
 30
0.0
 10
26.64970817578943
 20
0.3835357349930777
 30
0.0
 10
26.63552639098836
 20
0.155758528215131
 30
0.0
 10
26.59240473221129
 20
-0.5302018434383652
 30
0.0
 10
26.56288601512106
 20
-0.9909748584763414
 30
0.0
 10
26.53362319183456
 20
-1.439034191983581
 30
0.0
  0
SPLINE
  5
D0
330
1F
100
AcDbEntity
  8
외형선
  6
Continuous
 62
     1
370
    15
100
AcDbSpline
210
0.0
220
0.0
230
1.0
 70
     8
 71
     3
 72
     8
 73
     4
 74
     0
 42
0.000000001
 43
0.00000001
 40
0.0
 40
0.0
 40
0.0
 40
0.0
 40
1.0
 40
1.0
 40
1.0
 40
1.0
 10
27.12313175518292
 20
1.039481911185346
 30
0.0
 10
26.99322130327848
 20
1.110226110714008
 30
0.0
 10
26.84971021058082
 20
1.194291360744812
 30
0.0
 10
26.70490847234455
 20
1.277127496493968
 30
0.0
  0
SPLINE
  5
D1
330
1F
100
AcDbEntity
  8
외형선
  6
Continuous
 62
     1
370
    15
100
AcDbSpline
210
0.0
220
0.0
230
1.0
 70
     8
 71
     3
 72
     8
 73
     4
 74
     0
 42
0.000000001
 43
0.00000001
 40
0.0
 40
0.0
 40
0.0
 40
0.0
 40
1.0
 40
1.0
 40
1.0
 40
1.0
 10
26.11585266822308
 20
-1.19880892692557
 30
0.0
 10
26.24560768498296
 20
-1.271404509226
 30
0.0
 10
26.38897630287568
 20
-1.356294315259446
 30
0.0
 10
26.5336231918345
 20
-1.439034191984008
 30
0.0
  0
SPLINE
  5
D2
330
1F
100
AcDbEntity
  8
외형선
  6
Continuous
 62
     1
370
    15
100
AcDbSpline
210
0.0
220
0.0
230
1.0
 70
     8
 71
     3
 72
     8
 73
     4
 74
     0
 42
0.000000001
 43
0.00000001
 40
0.0
 40
0.0
 40
0.0
 40
0.0
 40
1.0
 40
1.0
 40
1.0
 40
1.0
 10
26.70490847236663
 20
1.277127496481381
 30
0.0
 10
26.55654862184694
 20
1.359800513519423
 30
0.0
 10
26.41424598581959
 20
1.435340933901619
 30
0.0
 10
26.28995953784456
 20
1.49784892009895
 30
0.0
  0
SPLINE
  5
D3
330
1F
100
AcDbEntity
  8
외형선
  6
Continuous
 62
     1
370
    15
100
AcDbSpline
210
0.0
220
0.0
230
1.0
 70
     8
 71
     3
 72
    12
 73
     8
 74
     0
 42
0.000000001
 43
0.00000001
 40
0.0
 40
0.0
 40
0.0
 40
0.0
 40
0.5
 40
0.5
 40
0.75
 40
0.75
 40
1.0
 40
1.0
 40
1.0
 40
1.0
 10
39.88258415033885
 20
0.7669624035028403
 30
0.0
 10
40.04887753823981
 20
0.7081621936328241
 30
0.0
 10
40.23341012629987
 20
0.6127002204072515
 30
0.0
 10
40.50837075257508
 20
0.4541380556751874
 30
0.0
 10
40.59717722634517
 20
0.4000017760727729
 30
0.0
 10
40.76978550792972
 20
0.290061530712528
 30
0.0
 10
40.85291741902132
 20
0.2346146351435897
 30
0.0
 10
40.92928139590078
 20
0.1806068163266015
 30
0.0
  0
SPLINE
  5
D4
330
1F
100
AcDbEntity
  8
외형선
  6
Continuous
 62
     1
370
    15
100
AcDbSpline
210
0.0
220
0.0
230
1.0
 70
     8
 71
     3
 72
    12
 73
     8
 74
     0
 42
0.000000001
 43
0.00000001
 40
0.0
 40
0.0
 40
0.0
 40
0.0
 40
0.5000000000000031
 40
0.5000000000000031
 40
0.7500000000000016
 40
0.7500000000000016
 40
1.0
 40
1.0
 40
1.0
 40
1.0
 10
41.10336046792637
 20
2.79488057899335
 30
0.0
 10
40.93732117414181
 20
2.909773725857346
 30
0.0
 10
40.7530153254302
 20
3.023540003884085
 30
0.0
 10
40.47832302856939
 20
3.160569346035631
 30
0.0
 10
40.38959621993956
 20
3.199589304017043
 30
0.0
 10
40.21713065040225
 20
3.264105658169725
 30
0.0
 10
40.13406822420662
 20
3.289181496062549
 30
0.0
 10
40.05776484770775
 20
3.306079746790723
 30
0.0
  0
SPLINE
  5
D5
330
1F
100
AcDbEntity
  8
외형선
  6
Continuous
 62
     1
370
    15
100
AcDbSpline
210
0.0
220
0.0
230
1.0
 70
     8
 71
     3
 72
    12
 73
     8
 74
     0
 42
0.000000001
 43
0.00000001
 40
0.0
 40
0.0
 40
0.0
 40
0.0
 40
0.5
 40
0.5
 40
0.75
 40
0.75
 40
1.0
 40
1.0
 40
1.0
 40
1.0
 10
22.39020302679414
 20
0.8882030841455973
 30
0.0
 10
22.55661506602549
 20
0.8316703003174152
 30
0.0
 10
22.74120562608924
 20
0.7371503465571317
 30
0.0
 10
23.01605107422256
 20
0.5781556421176582
 30
0.0
 10
23.10479859920778
 20
0.5235718825204483
 30
0.0
 10
23.27739822779014
 20
0.4124020726662517
 30
0.0
 10
23.36056658167547
 20
0.3561329670961536
 30
0.0
 10
23.43698262393333
 20
0.3011045314731904
 30
0.0
  0
SPLINE
  5
D6
330
1F
100
AcDbEntity
  8
외형선
  6
Continuous
 62
     1
370
    15
100
AcDbSpline
210
0.0
220
0.0
230
1.0
 70
     8
 71
     3
 72
    12
 73
     8
 74
     0
 42
0.000000001
 43
0.00000001
 40
0.0
 40
0.0
 40
0.0
 40
0.0
 40
0.5000000000000002
 40
0.5000000000000002
 40
0.7500000000000001
 40
0.7500000000000001
 40
1.0
 40
1.0
 40
1.0
 40
1.0
 10
23.61123432539011
 20
2.901905448938805
 30
0.0
 10
23.44505640957997
 20
3.018026945001001
 30
0.0
 10
23.26066735179153
 20
3.131884981431014
 30
0.0
 10
22.98614070722661
 20
3.267856393696504
 30
0.0
 10
22.89748362114619
 20
3.30631340401169
 30
0.0
 10
22.72507197414068
 20
3.369124591964405
 30
0.0
 10
22.64200610493514
 20
3.39308415915758
 30
0.0
 10
22.56568399332867
 20
3.408638752310852
 30
0.0
  0
SPLINE
  5
D7
330
1F
100
AcDbEntity
  8
외형선
  6
Continuous
 62
     1
370
    15
100
AcDbSpline
210
0.0
220
0.0
230
1.0
 70
     8
 71
     3
 72
    12
 73
     8
 74
     0
 42
0.000000001
 43
0.00000001
 40
0.0
 40
0.0
 40
0.0
 40
0.0
 40
0.5
 40
0.5
 40
0.7500000000000002
 40
0.7500000000000002
 40
1.0
 40
1.0
 40
1.0
 40
1.0
 10
12.13623281015757
 20
-2.938623648955989
 30
0.0
 10
12.3025289741167
 20
-3.055215148347893
 30
0.0
 10
12.48706139297021
 20
-3.168902223324157
 30
0.0
 10
12.76204478580867
 20
-3.303855414602586
 30
0.0
 10
12.85086169342339
 20
-3.341875043105405
 30
0.0
 10
13.02349484012087
 20
-3.403796275969409
 30
0.0
 10
13.10664189229811
 20
-3.42728035273723
 30
0.0
 10
13.18302060390911
 20
-3.442329215378877
 30
0.0
  0
SPLINE
  5
D8
330
1F
100
AcDbEntity
  8
외형선
  6
Continuous
 62
     1
370
    15
100
AcDbSpline
210
0.0
220
0.0
230
1.0
 70
     8
 71
     3
 72
    12
 73
     8
 74
     0
 42
0.000000001
 43
0.00000001
 40
0.0
 40
0.0
 40
0.0
 40
0.0
 40
0.5000000000000003
 40
0.5000000000000003
 40
0.7500000000000001
 40
0.7500000000000001
 40
1.0
 40
1.0
 40
1.0
 40
1.0
 10
13.35718220650221
 20
-0.927884986689218
 30
0.0
 10
13.19112746493338
 20
-0.8722546209165648
 30
0.0
 10
13.00680099483271
 20
-0.7785179074493954
 30
0.0
 10
12.73210087465148
 20
-0.6204151359838351
 30
0.0
 10
12.64337428081108
 20
-0.5660782271407181
 30
0.0
 10
12.47091321546796
 20
-0.4550487586082486
 30
0.0
 10
12.38785514084848
 20
-0.3987116781159507
 30
0.0
 10
12.3115558787411
 20
-0.34348333689328
 30
0.0
  0
SPLINE
  5
D9
330
1F
100
AcDbEntity
  8
외형선
  6
Continuous
 62
     1
370
    15
100
AcDbSpline
210
0.0
220
0.0
230
1.0
 70
     8
 71
     3
 72
    12
 73
     8
 74
     0
 42
0.000000001
 43
0.00000001
 40
0.0
 40
0.0
 40
0.0
 40
0.0
 40
0.4999999999999964
 40
0.4999999999999964
 40
0.7499999999999982
 40
0.7499999999999982
 40
1.0
 40
1.0
 40
1.0
 40
1.0
 10
29.62869027598455
 20
-3.044333608862765
 30
0.0
 10
29.79499251387226
 20
-3.1622848006915
 30
0.0
 10
29.97932126267932
 20
-3.276309197806959
 30
0.0
 10
30.25417269326135
 20
-3.410005555941629
 30
0.0
 10
30.3429723415308
 20
-3.447332019385581
 30
0.0
 10
30.51561217899831
 20
-3.507342557376512
 30
0.0
 10
30.59878678097102
 20
-3.529608917557649
 30
0.0
 10
30.67519838664287
 20
-3.543219891550058
 30
0.0
  0
SPLINE
  5
DA
330
1F
100
AcDbEntity
  8
외형선
  6
Continuous
 62
     1
370
    15
100
AcDbSpline
210
0.0
220
0.0
230
1.0
 70
     8
 71
     3
 72
    12
 73
     8
 74
     0
 42
0.000000001
 43
0.00000001
 40
0.0
 40
0.0
 40
0.0
 40
0.0
 40
0.5
 40
0.5
 40
0.75
 40
0.75
 40
1.0
 40
1.0
 40
1.0
 40
1.0
 10
30.84920952170292
 20
-1.048339087340384
 30
0.0
 10
30.68303736476462
 20
-0.995210752822284
 30
0.0
 10
30.49860807134015
 20
-0.9026874433719513
 30
0.0
 10
30.22396712587962
 20
-0.7445517059970089
 30
0.0
 10
30.13528502809117
 20
-0.6898964460230027
 30
0.0
 10
29.96294637956489
 20
-0.5776529351349243
 30
0.0
 10
29.87996979191527
 20
-0.5204019466829479
 30
0.0
 10
29.8037046119074
 20
-0.4640949690138704
 30
0.0
  0
SPLINE
  5
DB
330
1F
100
AcDbEntity
  8
외형선
  6
Continuous
 62
     1
370
    15
100
AcDbSpline
210
0.0
220
0.0
230
1.0
 70
     8
 71
     3
 72
    10
 73
     6
 74
     0
 42
0.000000001
 43
0.00000001
 40
0.0
 40
0.0
 40
0.0
 40
0.0
 40
0.5
 40
0.5
 40
1.0
 40
1.0
 40
1.0
 40
1.0
 10
29.11895866259308
 20
-0.1077767408383874
 30
0.0
 10
29.09030404000726
 20
-0.5631615425841422
 30
0.0
 10
29.06091057428117
 20
-1.021571543191963
 30
0.0
 10
29.00267439471528
 20
-1.912536102342551
 30
0.0
 10
28.9738470714825
 20
-2.344860145436432
 30
0.0
 10
28.9462618740949
 20
-2.750213500737158
 30
0.0
  0
SPLINE
  5
DC
330
1F
100
AcDbEntity
  8
외형선
  6
Continuous
 62
     1
370
    15
100
AcDbSpline
210
0.0
220
0.0
230
1.0
 70
     8
 71
     3
 72
     8
 73
     4
 74
     0
 42
0.000000001
 43
0.00000001
 40
0.0
 40
0.0
 40
0.0
 40
0.0
 40
1.0
 40
1.0
 40
1.0
 40
1.0
 10
28.52806725852613
 20
-2.491594063339875
 30
0.0
 10
28.65797087750505
 20
-2.578921253978358
 30
0.0
 10
28.80148668975427
 20
-2.669555556190826
 30
0.0
 10
28.94626187409485
 20
-2.750213500737685
 30
0.0
  0
SPLINE
  5
DD
330
1F
100
AcDbEntity
  8
외형선
  6
Continuous
 62
     1
370
    15
100
AcDbSpline
210
0.0
220
0.0
230
1.0
 70
     8
 71
     3
 72
     8
 73
     4
 74
     0
 42
0.000000001
 43
0.00000001
 40
0.0
 40
0.0
 40
0.0
 40
0.0
 40
1.0
 40
1.0
 40
1.0
 40
1.0
 10
29.11895866259314
 20
-0.1077767408377056
 30
0.0
 10
28.97066288448436
 20
-0.0193018902253912
 30
0.0
 10
28.82842585457504
 20
0.0702077190640365
 30
0.0
 10
28.70418390337666
 20
0.1537796195080766
 30
0.0
  0
SPLINE
  5
DE
330
1F
100
AcDbEntity
  8
외형선
  6
Continuous
370
    15
100
AcDbSpline
210
0.0
220
0.0
230
1.0
 70
     8
 71
     3
 72
     8
 73
     4
 74
     0
 42
0.000000001
 43
0.00000001
 40
0.0
 40
0.0
 40
0.0
 40
0.0
 40
1.0
 40
1.0
 40
1.0
 40
1.0
 10
11.88405025799303
 20
-0.1203753575969087
 30
0.0
 10
11.58876698170799
 20
0.0440457524078918
 30
0.0
 10
11.29438436118668
 20
0.2108885802579684
 30
0.0
 10
11.0
 20
0.378563265521768
 30
0.0
  0
SPLINE
  5
DF
330
1F
100
AcDbEntity
  8
외형선
  6
Continuous
370
    15
100
AcDbSpline
210
0.0
220
0.0
230
1.0
 70
     8
 71
     3
 72
     8
 73
     4
 74
     0
 42
0.000000001
 43
0.00000001
 40
0.0
 40
0.0
 40
0.0
 40
0.0
 40
1.0
 40
1.0
 40
1.0
 40
1.0
 10
11.0
 20
0.378563265521768
 30
0.0
 10
10.6572924208337
 20
0.5760599743294335
 30
0.0
 10
10.31316118555568
 20
0.7732786605544689
 30
0.0
 10
9.969858431261267
 20
0.968926748683542
 30
0.0
  0
SPLINE
  5
E0
330
1F
100
AcDbEntity
  8
외형선
  6
Continuous
370
    15
100
AcDbSpline
210
0.0
220
0.0
230
1.0
 70
     8
 71
     3
 72
     8
 73
     4
 74
     0
 42
0.000000001
 43
0.00000001
 40
0.0
 40
0.0
 40
0.0
 40
0.0
 40
1.0
 40
1.0
 40
1.0
 40
1.0
 10
11.0
 20
5.881044912270282
 30
0.0
 10
10.6572924208337
 20
5.955746593280137
 30
0.0
 10
10.31316118555567
 20
6.021970724871151
 30
0.0
 10
9.969858431261267
 20
6.079268749428722
 30
0.0
  0
SPLINE
  5
E1
330
1F
100
AcDbEntity
  8
외형선
  6
Continuous
370
    15
100
AcDbSpline
210
0.0
220
0.0
230
1.0
 70
     8
 71
     3
 72
     8
 73
     4
 74
     0
 42
0.000000001
 43
0.00000001
 40
0.0
 40
0.0
 40
0.0
 40
0.0
 40
1.0
 40
1.0
 40
1.0
 40
1.0
 10
11.0
 20
5.881044912270299
 30
0.0
 10
11.33313314864905
 20
5.782549886592416
 30
0.0
 10
11.66605631325339
 20
5.676107087260203
 30
0.0
 10
11.99999999999999
 20
5.562679385086526
 30
0.0
  0
SPLINE
  5
E2
330
1F
100
AcDbEntity
  8
외형선
  6
Continuous
370
    15
100
AcDbSpline
210
0.0
220
0.0
230
1.0
 70
    24
 71
     3
 72
     9
 73
     5
 74
     0
 42
0.000000001
 43
0.00000001
 40
0.0
 40
0.0
 40
0.0
 40
0.0
 40
0.5
 40
1.0
 40
1.0
 40
1.0
 40
1.0
 10
11.99999999999999
 20
5.638634947115246
 30
0.0
 10
11.99999999999999
 20
5.6259083197441
 30
0.0
 10
11.99999999999999
 20
5.600521629852301
 30
0.0
 10
11.99999999999999
 20
5.575270493849438
 30
0.0
 10
11.99999999999999
 20
5.562679385086962
 30
0.0
  0
SPLINE
  5
E3
330
1F
100
AcDbEntity
  8
외형선
  6
Continuous
370
    15
100
AcDbSpline
210
0.0
220
0.0
230
1.0
 70
     8
 71
     3
 72
     8
 73
     4
 74
     0
 42
0.000000001
 43
0.00000001
 40
0.0
 40
0.0
 40
0.0
 40
0.0
 40
1.0
 40
1.0
 40
1.0
 40
1.0
 10
12.05766195072994
 20
5.6232397343559
 30
0.0
 10
12.03843708437785
 20
5.628397615935493
 30
0.0
 10
12.0192163026491
 20
5.633529384913968
 30
0.0
 10
12.00000000000011
 20
5.63863494711516
 30
0.0
  0
SPLINE
  5
E4
330
1F
100
AcDbEntity
  8
외형선
  6
Continuous
 62
     1
370
    15
100
AcDbSpline
210
0.0
220
0.0
230
1.0
 70
     8
 71
     3
 72
     8
 73
     4
 74
     0
 42
0.000000001
 43
0.00000001
 40
0.0
 40
0.0
 40
0.0
 40
0.0
 40
1.0
 40
1.0
 40
1.0
 40
1.0
 10
12.05766190035371
 20
5.623239753854275
 30
0.0
 10
12.20585712516146
 20
5.565880008355466
 30
0.0
 10
12.34801534848072
 20
5.475152726650279
 30
0.0
 10
12.4721721448974
 20
5.358131005535682
 30
0.0
  0
SPLINE
  5
E5
330
1F
100
AcDbEntity
  8
외형선
  6
Continuous
 62
     1
370
    15
100
AcDbSpline
210
0.0
220
0.0
230
1.0
 70
     8
 71
     3
 72
     8
 73
     4
 74
     0
 42
0.000000001
 43
0.00000001
 40
0.0
 40
0.0
 40
0.0
 40
0.0
 40
1.0
 40
1.0
 40
1.0
 40
1.0
 10
12.47217214489738
 20
5.358131005535727
 30
0.0
 10
12.5495050599298
 20
5.285242278723455
 30
0.0
 10
12.65424360550509
 20
5.251474232064613
 30
0.0
 10
12.7389938221091
 20
5.280006715664664
 30
0.0
  0
SPLINE
  5
E6
330
1F
100
AcDbEntity
  8
외형선
  6
Continuous
 62
     1
370
    15
100
AcDbSpline
210
0.0
220
0.0
230
1.0
 70
     8
 71
     3
 72
    12
 73
     8
 74
     0
 42
0.000000001
 43
0.00000001
 40
0.0
 40
0.0
 40
0.0
 40
0.0
 40
0.5000000000000004
 40
0.5000000000000004
 40
0.7500000000000002
 40
0.7500000000000002
 40
1.0
 40
1.0
 40
1.0
 40
1.0
 10
12.73899382210911
 20
5.280006715664635
 30
0.0
 10
12.90517472631066
 20
5.335954111597874
 30
0.0
 10
13.08962609090388
 20
5.324793218700345
 30
0.0
 10
13.36432667238489
 20
5.233574899269659
 30
0.0
 10
13.45303229767943
 20
5.19157182276197
 30
0.0
 10
13.62542311119674
 20
5.085694062478955
 30
0.0
 10
13.70843468526727
 20
5.021874946203569
 30
0.0
 10
13.78469169463309
 20
4.94919225832098
 30
0.0
  0
SPLINE
  5
E7
330
1F
100
AcDbEntity
  8
외형선
  6
Continuous
 62
     1
370
    15
100
AcDbSpline
210
0.0
220
0.0
230
1.0
 70
     8
 71
     3
 72
     8
 73
     4
 74
     0
 42
0.000000001
 43
0.00000001
 40
0.0
 40
0.0
 40
0.0
 40
0.0
 40
1.0
 40
1.0
 40
1.0
 40
1.0
 10
13.78469169463413
 20
4.949192258318023
 30
0.0
 10
13.86250144337273
 20
4.875029611122345
 30
0.0
 10
13.9673260722047
 20
4.836548289173995
 30
0.0
 10
14.05162749283789
 20
4.858514160194437
 30
0.0
  0
SPLINE
  5
E8
330
1F
100
AcDbEntity
  8
외형선
  6
Continuous
 62
     1
370
    15
100
AcDbSpline
210
0.0
220
0.0
230
1.0
 70
     8
 71
     3
 72
     8
 73
     4
 74
     0
 42
0.000000001
 43
0.00000001
 40
0.0
 40
0.0
 40
0.0
 40
0.0
 40
1.0
 40
1.0
 40
1.0
 40
1.0
 10
14.05162749283789
 20
4.858514160194431
 30
0.0
 10
14.18144901415779
 20
4.892340906785076
 30
0.0
 10
14.32487949899233
 20
4.885001227521965
 30
0.0
 10
14.46961647996934
 20
4.846444646292287
 30
0.0
  0
SPLINE
  5
E9
330
1F
100
AcDbEntity
  8
외형선
  6
Continuous
 62
     1
370
    15
100
AcDbSpline
210
0.0
220
0.0
230
1.0
 70
     8
 71
     3
 72
     8
 73
     4
 74
     0
 42
0.000000001
 43
0.00000001
 40
0.0
 40
0.0
 40
0.0
 40
0.0
 40
1.0
 40
1.0
 40
1.0
 40
1.0
 10
14.46961642954346
 20
4.846444670472678
 30
0.0
 10
14.61796089352576
 20
4.775308936294604
 30
0.0
 10
14.76026041123009
 20
4.675314586887904
 30
0.0
 10
14.88457765619686
 20
4.554260732457141
 30
0.0
  0
SPLINE
  5
EA
330
1F
100
AcDbEntity
  8
외형선
  6
Continuous
 62
     1
370
    15
100
AcDbSpline
210
0.0
220
0.0
230
1.0
 70
     8
 71
     3
 72
     8
 73
     4
 74
     0
 42
0.000000001
 43
0.00000001
 40
0.0
 40
0.0
 40
0.0
 40
0.0
 40
1.0
 40
1.0
 40
1.0
 40
1.0
 10
14.88457765619686
 20
4.554260732457151
 30
0.0
 10
14.9620282677197
 20
4.478843238646332
 30
0.0
 10
15.06686447114269
 20
4.435438463805098
 30
0.0
 10
15.15172649797547
 20
4.449969742859007
 30
0.0
  0
SPLINE
  5
EB
330
1F
100
AcDbEntity
  8
외형선
  6
Continuous
 62
     1
370
    15
100
AcDbSpline
210
0.0
220
0.0
230
1.0
 70
     8
 71
     3
 72
    12
 73
     8
 74
     0
 42
0.000000001
 43
0.00000001
 40
0.0
 40
0.0
 40
0.0
 40
0.0
 40
0.4999999999999996
 40
0.4999999999999996
 40
0.7499999999999998
 40
0.7499999999999998
 40
1.0
 40
1.0
 40
1.0
 40
1.0
 10
15.15172649797546
 20
4.449969742859001
 30
0.0
 10
15.3181544585923
 20
4.478467897196775
 30
0.0
 10
15.50282744870667
 20
4.442768189688525
 30
0.0
 10
15.77783066425407
 20
4.325205831714501
 30
0.0
 10
15.86663635154344
 20
4.276352611760734
 30
0.0
 10
16.0392234746726
 20
4.160614331518403
 30
0.0
 10
16.12233047984648
 20
4.093854759208075
 30
0.0
 10
16.19871268622138
 20
4.02041430344678
 30
0.0
  0
SPLINE
  5
EC
330
1F
100
AcDbEntity
  8
외형선
  6
Continuous
 62
     1
370
    15
100
AcDbSpline
210
0.0
220
0.0
230
1.0
 70
     8
 71
     3
 72
     8
 73
     4
 74
     0
 42
0.000000001
 43
0.00000001
 40
0.0
 40
0.0
 40
0.0
 40
0.0
 40
1.0
 40
1.0
 40
1.0
 40
1.0
 10
16.19871268622136
 20
4.020414303446801
 30
0.0
 10
16.27657497726114
 20
3.945550766348717
 30
0.0
 10
16.38145329153889
 20
3.898394558140764
 30
0.0
 10
16.4657965112887
 20
3.905824502950501
 30
0.0
  0
SPLINE
  5
ED
330
1F
100
AcDbEntity
  8
외형선
  6
Continuous
 62
     1
370
    15
100
AcDbSpline
210
0.0
220
0.0
230
1.0
 70
     8
 71
     3
 72
     8
 73
     4
 74
     0
 42
0.000000001
 43
0.00000001
 40
0.0
 40
0.0
 40
0.0
 40
0.0
 40
1.0
 40
1.0
 40
1.0
 40
1.0
 10
16.46579651128875
 20
3.905824502950314
 30
0.0
 10
16.59563988739553
 20
3.91726263776713
 30
0.0
 10
16.73908501468556
 20
3.89013551681308
 30
0.0
 10
16.88383290930864
 20
3.836555347540365
 30
0.0
  0
SPLINE
  5
EE
330
1F
100
AcDbEntity
  8
외형선
  6
Continuous
 62
     1
370
    15
100
AcDbSpline
210
0.0
220
0.0
230
1.0
 70
     8
 71
     3
 72
     8
 73
     4
 74
     0
 42
0.000000001
 43
0.00000001
 40
0.0
 40
0.0
 40
0.0
 40
0.0
 40
1.0
 40
1.0
 40
1.0
 40
1.0
 10
16.88383285889697
 20
3.836555375224301
 30
0.0
 10
17.03212372372938
 20
3.755121107574873
 30
0.0
 10
17.17436583862209
 20
3.650729549421148
 30
0.0
 10
17.29859431804751
 20
3.531509164354835
 30
0.0
  0
SPLINE
  5
EF
330
1F
100
AcDbEntity
  8
외형선
  6
Continuous
 62
     1
370
    15
100
AcDbSpline
210
0.0
220
0.0
230
1.0
 70
     8
 71
     3
 72
     8
 73
     4
 74
     0
 42
0.000000001
 43
0.00000001
 40
0.0
 40
0.0
 40
0.0
 40
0.0
 40
1.0
 40
1.0
 40
1.0
 40
1.0
 10
17.29859431804752
 20
3.531509164354846
 30
0.0
 10
17.37596252034772
 20
3.457259951028074
 30
0.0
 10
17.48072356270165
 20
3.406361865449375
 30
0.0
 10
17.56549739609823
 20
3.406234412873824
 30
0.0
  0
SPLINE
  5
F0
330
1F
100
AcDbEntity
  8
외형선
  6
Continuous
 62
     1
370
    15
100
AcDbSpline
210
0.0
220
0.0
230
1.0
 70
     8
 71
     3
 72
    12
 73
     8
 74
     0
 42
0.000000001
 43
0.00000001
 40
0.0
 40
0.0
 40
0.0
 40
0.0
 40
0.4999999999999991
 40
0.4999999999999991
 40
0.7499999999999996
 40
0.7499999999999996
 40
1.0
 40
1.0
 40
1.0
 40
1.0
 10
17.56549739609824
 20
3.406234412873833
 30
0.0
 10
17.73169322334201
 20
3.405984547020435
 30
0.0
 10
17.9161256375214
 20
3.34771477724656
 30
0.0
 10
18.19076752770921
 20
3.20967789860034
 30
0.0
 10
18.27944862520599
 20
3.15638639240754
 30
0.0
 10
18.45178269132936
 20
3.036487183996182
 30
0.0
 10
18.53478467054852
 20
2.970139444861104
 30
0.0
 10
18.6110646452193
 20
2.899609935310123
 30
0.0
  0
SPLINE
  5
F1
330
1F
100
AcDbEntity
  8
외형선
  6
Continuous
 62
     1
370
    15
100
AcDbSpline
210
0.0
220
0.0
230
1.0
 70
     8
 71
     3
 72
     8
 73
     4
 74
     0
 42
0.000000001
 43
0.00000001
 40
0.0
 40
0.0
 40
0.0
 40
0.0
 40
1.0
 40
1.0
 40
1.0
 40
1.0
 10
18.6110646452193
 20
2.899609935310121
 30
0.0
 10
18.68883088814757
 20
2.827706201767664
 30
0.0
 10
18.79363662888403
 20
2.774234073662787
 30
0.0
 10
18.87788493808753
 20
2.766827155860854
 30
0.0
  0
SPLINE
  5
F2
330
1F
100
AcDbEntity
  8
외형선
  6
Continuous
 62
     1
370
    15
100
AcDbSpline
210
0.0
220
0.0
230
1.0
 70
     8
 71
     3
 72
     8
 73
     4
 74
     0
 42
0.000000001
 43
0.00000001
 40
0.0
 40
0.0
 40
0.0
 40
0.0
 40
1.0
 40
1.0
 40
1.0
 40
1.0
 10
18.87788493808755
 20
2.766827155860797
 30
0.0
 10
19.00762630811235
 20
2.755420592662448
 30
0.0
 10
19.15097993725047
 20
2.709881054567475
 30
0.0
 10
19.2956341607479
 20
2.643909925881916
 30
0.0
  0
SPLINE
  5
F3
330
1F
100
AcDbEntity
  8
외형선
  6
Continuous
 62
     1
370
    15
100
AcDbSpline
210
0.0
220
0.0
230
1.0
 70
     8
 71
     3
 72
     8
 73
     4
 74
     0
 42
0.000000001
 43
0.00000001
 40
0.0
 40
0.0
 40
0.0
 40
0.0
 40
1.0
 40
1.0
 40
1.0
 40
1.0
 10
19.2956341103694
 20
2.643909955727219
 30
0.0
 10
19.4438593157847
 20
2.556098161755477
 30
0.0
 10
19.58601907432342
 20
2.452313256021066
 30
0.0
 10
19.71016802813293
 20
2.340661756388381
 30
0.0
  0
SPLINE
  5
F4
330
1F
100
AcDbEntity
  8
외형선
  6
Continuous
 62
     1
370
    15
100
AcDbSpline
210
0.0
220
0.0
230
1.0
 70
     8
 71
     3
 72
     8
 73
     4
 74
     0
 42
0.000000001
 43
0.00000001
 40
0.0
 40
0.0
 40
0.0
 40
0.0
 40
1.0
 40
1.0
 40
1.0
 40
1.0
 10
19.71016802813294
 20
2.340661756388392
 30
0.0
 10
19.78751196885457
 20
2.271103643298515
 30
0.0
 10
19.89225289531682
 20
2.215138334455587
 30
0.0
 10
19.97700461066368
 20
2.200346692245272
 30
0.0
  0
SPLINE
  5
F5
330
1F
100
AcDbEntity
  8
외형선
  6
Continuous
 62
     1
370
    15
100
AcDbSpline
210
0.0
220
0.0
230
1.0
 70
     8
 71
     3
 72
    12
 73
     8
 74
     0
 42
0.000000001
 43
0.00000001
 40
0.0
 40
0.0
 40
0.0
 40
0.0
 40
0.4999999999999984
 40
0.4999999999999984
 40
0.7499999999999992
 40
0.7499999999999992
 40
1.0
 40
1.0
 40
1.0
 40
1.0
 10
19.97700461066366
 20
2.200346692245301
 30
0.0
 10
20.14323074853008
 20
2.171335390854412
 30
0.0
 10
20.32769685232279
 20
2.093106803792277
 30
0.0
 10
20.60234904154685
 20
1.941007979273025
 30
0.0
 10
20.69101547147474
 20
1.885741283739903
 30
0.0
 10
20.86340350563042
 20
1.767374622314387
 30
0.0
 10
20.94646544116025
 20
1.704587170325734
 30
0.0
 10
21.02279317548853
 20
1.640282544677252
 30
0.0
  0
SPLINE
  5
F6
330
1F
100
AcDbEntity
  8
외형선
  6
Continuous
 62
     1
370
    15
100
AcDbSpline
210
0.0
220
0.0
230
1.0
 70
     8
 71
     3
 72
     8
 73
     4
 74
     0
 42
0.000000001
 43
0.00000001
 40
0.0
 40
0.0
 40
0.0
 40
0.0
 40
1.0
 40
1.0
 40
1.0
 40
1.0
 10
21.02279317548852
 20
1.640282544677251
 30
0.0
 10
21.1006264150808
 20
1.574709560243271
 30
0.0
 10
21.20549313125582
 20
1.517401719727355
 30
0.0
 10
21.28980240322365
 20
1.495462522336843
 30
0.0
  0
SPLINE
  5
F7
330
1F
100
AcDbEntity
  8
외형선
  6
Continuous
 62
     1
370
    15
100
AcDbSpline
210
0.0
220
0.0
230
1.0
 70
     8
 71
     3
 72
     8
 73
     4
 74
     0
 42
0.000000001
 43
0.00000001
 40
0.0
 40
0.0
 40
0.0
 40
0.0
 40
1.0
 40
1.0
 40
1.0
 40
1.0
 10
21.28980240322367
 20
1.495462522336828
 30
0.0
 10
21.41966217269785
 20
1.461670045553642
 30
0.0
 10
21.56313627565059
 20
1.399773459722171
 30
0.0
 10
21.70789502813818
 20
1.324462123752855
 30
0.0
  0
SPLINE
  5
F8
330
1F
100
AcDbEntity
  8
외형선
  6
Continuous
 62
     1
370
    15
100
AcDbSpline
210
0.0
220
0.0
230
1.0
 70
     8
 71
     3
 72
     8
 73
     4
 74
     0
 42
0.000000001
 43
0.00000001
 40
0.0
 40
0.0
 40
0.0
 40
0.0
 40
1.0
 40
1.0
 40
1.0
 40
1.0
 10
21.70789497770466
 20
1.324462154378035
 30
0.0
 10
21.85630045903758
 20
1.234344602345394
 30
0.0
 10
21.99863446765778
 20
1.136003395712942
 30
0.0
 10
22.12298085051478
 20
1.03710858600391
 30
0.0
  0
SPLINE
  5
F9
330
1F
100
AcDbEntity
  8
외형선
  6
Continuous
 62
     1
370
    15
100
AcDbSpline
210
0.0
220
0.0
230
1.0
 70
     8
 71
     3
 72
     8
 73
     4
 74
     0
 42
0.000000001
 43
0.00000001
 40
0.0
 40
0.0
 40
0.0
 40
0.0
 40
1.0
 40
1.0
 40
1.0
 40
1.0
 10
22.12298085051478
 20
1.037108586003909
 30
0.0
 10
22.2004639675494
 20
0.9754849348872269
 30
0.0
 10
22.30531800806829
 20
0.917039858432104
 30
0.0
 10
22.39020302679414
 20
0.8882030841455453
 30
0.0
  0
SPLINE
  5
FA
330
1F
100
AcDbEntity
  8
외형선
  6
Continuous
 62
     1
370
    15
100
AcDbSpline
210
0.0
220
0.0
230
1.0
 70
     8
 71
     3
 72
     8
 73
     4
 74
     0
 42
0.000000001
 43
0.00000001
 40
0.0
 40
0.0
 40
0.0
 40
0.0
 40
1.0
 40
1.0
 40
1.0
 40
1.0
 10
23.43698262393334
 20
0.3011045314731648
 30
0.0
 10
23.51483241039878
 20
0.245043633313601
 30
0.0
 10
23.61971028724465
 20
0.1866654010676254
 30
0.0
 10
23.70402237645696
 20
0.1512580917698469
 30
0.0
  0
SPLINE
  5
FB
330
1F
100
AcDbEntity
  8
외형선
  6
Continuous
 62
     1
370
    15
100
AcDbSpline
210
0.0
220
0.0
230
1.0
 70
     8
 71
     3
 72
     8
 73
     4
 74
     0
 42
0.000000001
 43
0.00000001
 40
0.0
 40
0.0
 40
0.0
 40
0.0
 40
1.0
 40
1.0
 40
1.0
 40
1.0
 10
23.70402237645696
 20
0.151258091769837
 30
0.0
 10
23.83384894757484
 20
0.0967367342564973
 30
0.0
 10
23.9772820988515
 20
0.0215360814813027
 30
0.0
 10
24.12199850930842
 20
-0.0594345495981769
 30
0.0
  0
SPLINE
  5
FC
330
1F
100
AcDbEntity
  8
외형선
  6
Continuous
 62
     1
370
    15
100
AcDbSpline
210
0.0
220
0.0
230
1.0
 70
     8
 71
     3
 72
     8
 73
     4
 74
     0
 42
0.000000001
 43
0.00000001
 40
0.0
 40
0.0
 40
0.0
 40
0.0
 40
1.0
 40
1.0
 40
1.0
 40
1.0
 10
24.12199845890498
 20
-0.0594345197052102
 30
0.0
 10
24.27028582133738
 20
-0.1473798990946681
 30
0.0
 10
24.41249585890387
 20
-0.2353989191803925
 30
0.0
 10
24.53668329131391
 20
-0.3166112480115402
 30
0.0
  0
SPLINE
  5
FD
330
1F
100
AcDbEntity
  8
외형선
  6
Continuous
 62
     1
370
    15
100
AcDbSpline
210
0.0
220
0.0
230
1.0
 70
     8
 71
     3
 72
     8
 73
     4
 74
     0
 42
0.000000001
 43
0.00000001
 40
0.0
 40
0.0
 40
0.0
 40
0.0
 40
1.0
 40
1.0
 40
1.0
 40
1.0
 10
24.53668329131365
 20
-0.3166112480113593
 30
0.0
 10
24.61404201273843
 20
-0.3671999573548602
 30
0.0
 10
24.71878432771501
 20
-0.4252034936469244
 30
0.0
 10
24.80354245560152
 20
-0.4665816831521559
 30
0.0
  0
SPLINE
  5
FE
330
1F
100
AcDbEntity
  8
외형선
  6
Continuous
 62
     1
370
    15
100
AcDbSpline
210
0.0
220
0.0
230
1.0
 70
     8
 71
     3
 72
     8
 73
     4
 74
     0
 42
0.000000001
 43
0.00000001
 40
0.0
 40
0.0
 40
0.0
 40
0.0
 40
1.0
 40
1.0
 40
1.0
 40
1.0
 10
25.84901742600138
 20
-1.051236183170542
 30
0.0
 10
25.92679267799072
 20
-1.095064156932918
 30
0.0
 10
26.03161361578961
 20
-1.15167870247219
 30
0.0
 10
26.11585266822308
 20
-1.198808926925567
 30
0.0
  0
SPLINE
  5
FF
330
1F
100
AcDbEntity
  8
외형선
  6
Continuous
 62
     1
370
    15
100
AcDbSpline
210
0.0
220
0.0
230
1.0
 70
     8
 71
     3
 72
     8
 73
     4
 74
     0
 42
0.000000001
 43
0.00000001
 40
0.0
 40
0.0
 40
0.0
 40
0.0
 40
1.0
 40
1.0
 40
1.0
 40
1.0
 10
26.94818215794657
 20
-1.653919737275571
 30
0.0
 10
27.02553824064292
 20
-1.691133699066958
 30
0.0
 10
27.13027605346176
 20
-1.745983196407782
 30
0.0
 10
27.215033697079
 20
-1.797979582866193
 30
0.0
  0
SPLINE
  5
100
330
1F
100
AcDbEntity
  8
외형선
  6
Continuous
 62
     1
370
    15
100
AcDbSpline
210
0.0
220
0.0
230
1.0
 70
     8
 71
     3
 72
     8
 73
     4
 74
     0
 42
0.000000001
 43
0.00000001
 40
0.0
 40
0.0
 40
0.0
 40
0.0
 40
1.0
 40
1.0
 40
1.0
 40
1.0
 10
28.26098485169293
 20
-2.353101666968215
 30
0.0
 10
28.33884837740361
 20
-2.382689435108861
 30
0.0
 10
28.44374572515146
 20
-2.434909248260696
 30
0.0
 10
28.52806725852612
 20
-2.491594063339885
 30
0.0
  0
SPLINE
  5
101
330
1F
100
AcDbEntity
  8
외형선
  6
Continuous
 62
     1
370
    15
100
AcDbSpline
210
0.0
220
0.0
230
1.0
 70
     8
 71
     3
 72
     8
 73
     4
 74
     0
 42
0.000000001
 43
0.00000001
 40
0.0
 40
0.0
 40
0.0
 40
0.0
 40
1.0
 40
1.0
 40
1.0
 40
1.0
 10
28.94626182364177
 20
-2.750213476434098
 30
0.0
 10
29.09472612797207
 20
-2.821729306607345
 30
0.0
 10
29.23709526230647
 20
-2.877404971443728
 30
0.0
 10
29.36147367817304
 20
-2.91290564822728
 30
0.0
  0
SPLINE
  5
102
330
1F
100
AcDbEntity
  8
외형선
  6
Continuous
 62
     1
370
    15
100
AcDbSpline
210
0.0
220
0.0
230
1.0
 70
     8
 71
     3
 72
     8
 73
     4
 74
     0
 42
0.000000001
 43
0.00000001
 40
0.0
 40
0.0
 40
0.0
 40
0.0
 40
1.0
 40
1.0
 40
1.0
 40
1.0
 10
29.36147367817303
 20
-2.912905648227278
 30
0.0
 10
29.43896855080531
 20
-2.935024601958385
 30
0.0
 10
29.54380897834608
 20
-2.984130869876242
 30
0.0
 10
29.62869027598455
 20
-3.044333608862755
 30
0.0
  0
SPLINE
  5
103
330
1F
100
AcDbEntity
  8
외형선
  6
Continuous
 62
     1
370
    15
100
AcDbSpline
210
0.0
220
0.0
230
1.0
 70
     8
 71
     3
 72
     8
 73
     4
 74
     0
 42
0.000000001
 43
0.00000001
 40
0.0
 40
0.0
 40
0.0
 40
0.0
 40
1.0
 40
1.0
 40
1.0
 40
1.0
 10
30.67519838664285
 20
-3.543219891550051
 30
0.0
 10
30.75303657249249
 20
-3.557084978062771
 30
0.0
 10
30.85790850858513
 20
-3.602355888456459
 30
0.0
 10
30.94219428829182
 20
-3.665827261098677
 30
0.0
  0
SPLINE
  5
104
330
1F
100
AcDbEntity
  8
외형선
  6
Continuous
 62
     1
370
    15
100
AcDbSpline
210
0.0
220
0.0
230
1.0
 70
     8
 71
     3
 72
     8
 73
     4
 74
     0
 42
0.000000001
 43
0.00000001
 40
0.0
 40
0.0
 40
0.0
 40
0.0
 40
1.0
 40
1.0
 40
1.0
 40
1.0
 10
30.94219428829183
 20
-3.665827261098677
 30
0.0
 10
31.07200981237581
 20
-3.763584789504436
 30
0.0
 10
31.2154292105348
 20
-3.855509291851555
 30
0.0
 10
31.36010891190645
 20
-3.930109395949454
 30
0.0
  0
SPLINE
  5
105
330
1F
100
AcDbEntity
  8
외형선
  6
Continuous
 62
     1
370
    15
100
AcDbSpline
210
0.0
220
0.0
230
1.0
 70
     8
 71
     3
 72
     8
 73
     4
 74
     0
 42
0.000000001
 43
0.00000001
 40
0.0
 40
0.0
 40
0.0
 40
0.0
 40
1.0
 40
1.0
 40
1.0
 40
1.0
 10
31.36010886151081
 20
-3.930109376310777
 30
0.0
 10
31.50839054820316
 20
-3.987893173888765
 30
0.0
 10
31.65056804829762
 20
-4.022827649739941
 30
0.0
 10
31.77471843403151
 20
-4.032173346234742
 30
0.0
  0
SPLINE
  5
106
330
1F
100
AcDbEntity
  8
외형선
  6
Continuous
 62
     1
370
    15
100
AcDbSpline
210
0.0
220
0.0
230
1.0
 70
     8
 71
     3
 72
     8
 73
     4
 74
     0
 42
0.000000001
 43
0.00000001
 40
0.0
 40
0.0
 40
0.0
 40
0.0
 40
1.0
 40
1.0
 40
1.0
 40
1.0
 10
31.77471843403221
 20
-4.032173346236652
 30
0.0
 10
31.8520687669038
 20
-4.037996064631874
 30
0.0
 10
31.95678676748798
 20
-4.078919030196089
 30
0.0
 10
32.04153354278812
 20
-4.144294465336244
 30
0.0
  0
SPLINE
  5
107
330
1F
100
AcDbEntity
  8
외형선
  6
Continuous
 62
     1
370
    15
100
AcDbSpline
210
0.0
220
0.0
230
1.0
 70
     8
 71
     3
 72
    12
 73
     8
 74
     0
 42
0.000000001
 43
0.00000001
 40
0.0
 40
0.0
 40
0.0
 40
0.0
 40
0.5000000000000036
 40
0.5000000000000036
 40
0.7500000000000018
 40
0.7500000000000018
 40
1.0
 40
1.0
 40
1.0
 40
1.0
 10
32.04153354278811
 20
-4.144294465336242
 30
0.0
 10
32.2076091560494
 20
-4.272408667259228
 30
0.0
 10
32.3917596571273
 20
-4.381994912619196
 30
0.0
 10
32.66638755035753
 20
-4.493435549097073
 30
0.0
 10
32.7551081995632
 20
-4.520947847524052
 30
0.0
 10
32.92758441110796
 20
-4.556827618465093
 30
0.0
 10
33.01066590683143
 20
-4.564794230757006
 30
0.0
 10
33.08698854454745
 20
-4.562331320980476
 30
0.0
  0
SPLINE
  5
108
330
1F
100
AcDbEntity
  8
외형선
  6
Continuous
 62
     1
370
    15
100
AcDbSpline
210
0.0
220
0.0
230
1.0
 70
     8
 71
     3
 72
     8
 73
     4
 74
     0
 42
0.000000001
 43
0.00000001
 40
0.0
 40
0.0
 40
0.0
 40
0.0
 40
1.0
 40
1.0
 40
1.0
 40
1.0
 10
33.08698854454736
 20
-4.562331320980488
 30
0.0
 10
33.16477362098935
 20
-4.559821218722889
 30
0.0
 10
33.26960420813926
 20
-4.596001185594957
 30
0.0
 10
33.35383866423737
 20
-4.66320767582141
 30
0.0
  0
SPLINE
  5
109
330
1F
100
AcDbEntity
  8
외형선
  6
Continuous
 62
     1
370
    15
100
AcDbSpline
210
0.0
220
0.0
230
1.0
 70
     8
 71
     3
 72
     8
 73
     4
 74
     0
 42
0.000000001
 43
0.00000001
 40
0.0
 40
0.0
 40
0.0
 40
0.0
 40
1.0
 40
1.0
 40
1.0
 40
1.0
 10
33.35383866423737
 20
-4.663207675821405
 30
0.0
 10
33.48361303676003
 20
-4.766748204277265
 30
0.0
 10
33.6269948341135
 20
-4.855595542427583
 30
0.0
 10
33.77162903246482
 20
-4.920600437300061
 30
0.0
  0
SPLINE
  5
10A
330
1F
100
AcDbEntity
  8
외형선
  6
Continuous
 62
     1
370
    15
100
AcDbSpline
210
0.0
220
0.0
230
1.0
 70
     8
 71
     3
 72
     8
 73
     4
 74
     0
 42
0.000000001
 43
0.00000001
 40
0.0
 40
0.0
 40
0.0
 40
0.0
 40
1.0
 40
1.0
 40
1.0
 40
1.0
 10
33.77162898208115
 20
-4.920600423237024
 30
0.0
 10
33.91990758048762
 20
-4.961987666941363
 30
0.0
 10
34.06206913229594
 20
-4.974603783148076
 30
0.0
 10
34.1862145834461
 20
-4.957481458405844
 30
0.0
  0
SPLINE
  5
10B
330
1F
100
AcDbEntity
  8
외형선
  6
Continuous
 62
     1
370
    15
100
AcDbSpline
210
0.0
220
0.0
230
1.0
 70
     8
 71
     3
 72
     8
 73
     4
 74
     0
 42
0.000000001
 43
0.00000001
 40
0.0
 40
0.0
 40
0.0
 40
0.0
 40
1.0
 40
1.0
 40
1.0
 40
1.0
 10
34.1862145834461
 20
-4.957481458405844
 30
0.0
 10
34.26358401082447
 20
-4.946810552235547
 30
0.0
 10
34.3683131643881
 20
-4.977641025204699
 30
0.0
 10
34.4530811705151
 20
-5.045129012665804
 30
0.0
  0
SPLINE
  5
10C
330
1F
100
AcDbEntity
  8
외형선
  6
Continuous
 62
     1
370
    15
100
AcDbSpline
210
0.0
220
0.0
230
1.0
 70
     8
 71
     3
 72
    12
 73
     8
 74
     0
 42
0.000000001
 43
0.00000001
 40
0.0
 40
0.0
 40
0.0
 40
0.0
 40
0.5000000000000001
 40
0.5000000000000001
 40
0.75
 40
0.75
 40
1.0
 40
1.0
 40
1.0
 40
1.0
 10
34.4530811705151
 20
-5.045129012665803
 30
0.0
 10
34.6192308942032
 20
-5.177408996367766
 30
0.0
 10
34.80353998823258
 20
-5.277374109766167
 30
0.0
 10
35.07835480623868
 20
-5.361418827850752
 30
0.0
 10
35.16713450397801
 20
-5.377865228280719
 30
0.0
 10
35.33972679849549
 20
-5.388032810849635
 30
0.0
 10
35.42287259187414
 20
-5.381391824010134
 30
0.0
 10
35.49926642727012
 20
-5.363043314610057
 30
0.0
  0
SPLINE
  5
10D
330
1F
100
AcDbEntity
  8
외형선
  6
Continuous
 62
     1
370
    15
100
AcDbSpline
210
0.0
220
0.0
230
1.0
 70
     8
 71
     3
 72
     8
 73
     4
 74
     0
 42
0.000000001
 43
0.00000001
 40
0.0
 40
0.0
 40
0.0
 40
0.0
 40
1.0
 40
1.0
 40
1.0
 40
1.0
 10
35.49926642727071
 20
-5.363043314611439
 30
0.0
 10
35.57716102731913
 20
-5.344334346881286
 30
0.0
 10
35.68208343906998
 20
-5.36972026575404
 30
0.0
 10
35.76642183159593
 20
-5.437517064747444
 30
0.0
  0
SPLINE
  5
10E
330
1F
100
AcDbEntity
  8
외형선
  6
Continuous
 62
     1
370
    15
100
AcDbSpline
210
0.0
220
0.0
230
1.0
 70
     8
 71
     3
 72
     8
 73
     4
 74
     0
 42
0.000000001
 43
0.00000001
 40
0.0
 40
0.0
 40
0.0
 40
0.0
 40
1.0
 40
1.0
 40
1.0
 40
1.0
 10
35.76642183159593
 20
-5.437517064747449
 30
0.0
 10
35.8963751113932
 20
-5.54198213842355
 30
0.0
 10
36.03993087963126
 20
-5.623536537280282
 30
0.0
 10
36.18471709306861
 20
-5.675875353448509
 30
0.0
  0
SPLINE
  5
10F
330
1F
100
AcDbEntity
  8
외형선
  6
Continuous
 62
     1
370
    15
100
AcDbSpline
210
0.0
220
0.0
230
1.0
 70
     8
 71
     3
 72
     8
 73
     4
 74
     0
 42
0.000000001
 43
0.00000001
 40
0.0
 40
0.0
 40
0.0
 40
0.0
 40
1.0
 40
1.0
 40
1.0
 40
1.0
 10
36.18471704260777
 20
-5.675875345615053
 30
0.0
 10
36.33320341880379
 20
-5.698926124383204
 30
0.0
 10
36.47558206511453
 20
-5.688680252521543
 30
0.0
 10
36.59994011951491
 20
-5.645891927314073
 30
0.0
  0
SPLINE
  5
110
330
1F
100
AcDbEntity
  8
외형선
  6
Continuous
 62
     1
370
    15
100
AcDbSpline
210
0.0
220
0.0
230
1.0
 70
     8
 71
     3
 72
     8
 73
     4
 74
     0
 42
0.000000001
 43
0.00000001
 40
0.0
 40
0.0
 40
0.0
 40
0.0
 40
1.0
 40
1.0
 40
1.0
 40
1.0
 10
36.59994011951491
 20
-5.645891927314081
 30
0.0
 10
36.67740622519084
 20
-5.619237884371707
 30
0.0
 10
36.78219414134237
 20
-5.638459333983117
 30
0.0
 10
36.8670549835564
 20
-5.704835942014799
 30
0.0
  0
SPLINE
  5
111
330
1F
100
AcDbEntity
  8
외형선
  6
Continuous
 62
     1
370
    15
100
AcDbSpline
210
0.0
220
0.0
230
1.0
 70
     8
 71
     3
 72
    12
 73
     8
 74
     0
 42
0.000000001
 43
0.00000001
 40
0.0
 40
0.0
 40
0.0
 40
0.0
 40
0.5
 40
0.5
 40
0.75
 40
0.75
 40
1.0
 40
1.0
 40
1.0
 40
1.0
 10
36.86705498355639
 20
-5.704835942014792
 30
0.0
 10
37.03320618660052
 20
-5.834796392450085
 30
0.0
 10
37.21757114318046
 20
-5.920333098666347
 30
0.0
 10
37.49243212723138
 20
-5.972963482485984
 30
0.0
 10
37.58122458558292
 20
-5.977555975048291
 30
0.0
 10
37.75383360452619
 20
-5.961485282382124
 30
0.0
 10
37.8369800535311
 20
-5.940514148702764
 30
0.0
 10
37.91336025106571
 20
-5.907087695251658
 30
0.0
  0
SPLINE
  5
112
330
1F
100
AcDbEntity
  8
외형선
  6
Continuous
 62
     1
370
    15
100
AcDbSpline
210
0.0
220
0.0
230
1.0
 70
     8
 71
     3
 72
     8
 73
     4
 74
     0
 42
0.000000001
 43
0.00000001
 40
0.0
 40
0.0
 40
0.0
 40
0.0
 40
1.0
 40
1.0
 40
1.0
 40
1.0
 10
37.91336025106572
 20
-5.907087695251655
 30
0.0
 10
37.99118773064129
 20
-5.873027864206161
 30
0.0
 10
38.09604825974449
 20
-5.886363756544413
 30
0.0
 10
38.18031240542471
 20
-5.951433211755458
 30
0.0
  0
SPLINE
  5
113
330
1F
100
AcDbEntity
  8
외형선
  6
Continuous
 62
     1
370
    15
100
AcDbSpline
210
0.0
220
0.0
230
1.0
 70
     8
 71
     3
 72
     8
 73
     4
 74
     0
 42
0.000000001
 43
0.00000001
 40
0.0
 40
0.0
 40
0.0
 40
0.0
 40
1.0
 40
1.0
 40
1.0
 40
1.0
 10
38.18031240542475
 20
-5.951433211755482
 30
0.0
 10
38.31012268259473
 20
-6.051673758289938
 30
0.0
 10
38.45352654830915
 20
-6.121971799171043
 30
0.0
 10
38.59816409325965
 20
-6.159056453739183
 30
0.0
  0
SPLINE
  5
114
330
1F
100
AcDbEntity
  8
외형선
  6
Continuous
 62
     1
370
    15
100
AcDbSpline
210
0.0
220
0.0
230
1.0
 70
     8
 71
     3
 72
     8
 73
     4
 74
     0
 42
0.000000001
 43
0.00000001
 40
0.0
 40
0.0
 40
0.0
 40
0.0
 40
1.0
 40
1.0
 40
1.0
 40
1.0
 10
38.5981640428739
 20
-6.159056452554316
 30
0.0
 10
38.74643798686971
 20
-6.162543171234352
 30
0.0
 10
38.88858236318229
 20
-6.129763537047365
 30
0.0
 10
39.0126995406128
 20
-6.063291946525121
 30
0.0
  0
SPLINE
  5
115
330
1F
100
AcDbEntity
  8
외형선
  6
Continuous
 62
     1
370
    15
100
AcDbSpline
210
0.0
220
0.0
230
1.0
 70
     8
 71
     3
 72
     8
 73
     4
 74
     0
 42
0.000000001
 43
0.00000001
 40
0.0
 40
0.0
 40
0.0
 40
0.0
 40
1.0
 40
1.0
 40
1.0
 40
1.0
 10
39.01269954061281
 20
-6.063291946525125
 30
0.0
 10
39.09003449334802
 20
-6.021874816215749
 30
0.0
 10
39.19470874725685
 20
-6.028544499229341
 30
0.0
 10
39.27947669324933
 20
-6.090534141657104
 30
0.0
  0
SPLINE
  5
116
330
1F
100
AcDbEntity
  8
외형선
  6
Continuous
 62
     1
370
    15
100
AcDbSpline
210
0.0
220
0.0
230
1.0
 70
     8
 71
     3
 72
    12
 73
     8
 74
     0
 42
0.000000001
 43
0.00000001
 40
0.0
 40
0.0
 40
0.0
 40
0.0
 40
0.4999999999999964
 40
0.4999999999999964
 40
0.7499999999999982
 40
0.7499999999999982
 40
1.0
 40
1.0
 40
1.0
 40
1.0
 10
39.27947669324934
 20
-6.090534141657108
 30
0.0
 10
39.44548420086579
 20
-6.211933167161186
 30
0.0
 10
39.62974153790552
 20
-6.279019176759904
 30
0.0
 10
39.90440931025118
 20
-6.297692248521706
 30
0.0
 10
39.99313364784027
 20
-6.290201464759994
 30
0.0
 10
40.16560232645146
 20
-6.248676064355145
 30
0.0
 10
40.24867032579582
 20
-6.214405457416913
 30
0.0
 10
40.32497793548957
 20
-6.167564037285002
 30
0.0
  0
SPLINE
  5
117
330
1F
100
AcDbEntity
  8
외형선
  6
Continuous
 62
     1
370
    15
100
AcDbSpline
210
0.0
220
0.0
230
1.0
 70
     8
 71
     3
 72
     8
 73
     4
 74
     0
 42
0.000000001
 43
0.00000001
 40
0.0
 40
0.0
 40
0.0
 40
0.0
 40
1.0
 40
1.0
 40
1.0
 40
1.0
 10
40.32497793548963
 20
-6.167564037284993
 30
0.0
 10
40.40277370102667
 20
-6.119809112807228
 30
0.0
 10
40.5076084520493
 20
-6.120497847961175
 30
0.0
 10
40.5918429004955
 20
-6.179739960058402
 30
0.0
  0
SPLINE
  5
118
330
1F
100
AcDbEntity
  8
외형선
  6
Continuous
 62
     1
370
    15
100
AcDbSpline
210
0.0
220
0.0
230
1.0
 70
     8
 71
     3
 72
     8
 73
     4
 74
     0
 42
0.000000001
 43
0.00000001
 40
0.0
 40
0.0
 40
0.0
 40
0.0
 40
1.0
 40
1.0
 40
1.0
 40
1.0
 10
40.59184290049551
 20
-6.1797399600584
 30
0.0
 10
40.72164248790382
 20
-6.271028047643221
 30
0.0
 10
40.86503572409858
 20
-6.326716990663925
 30
0.0
 10
41.00965171574389
 20
-6.346795236686892
 30
0.0
  0
SPLINE
  5
119
330
1F
100
AcDbEntity
  8
외형선
  6
Continuous
 62
     1
370
    15
100
AcDbSpline
210
0.0
220
0.0
230
1.0
 70
     8
 71
     3
 72
    11
 73
     7
 74
     0
 42
0.000000001
 43
0.00000001
 40
0.0
 40
0.0
 40
0.0
 40
0.0
 40
0.2053559349584538
 40
0.4371255701856231
 40
0.7899970722432338
 40
1.0
 40
1.0
 40
1.0
 40
1.0
 10
34.96937837143399
 20
-5.327180932805581
 30
0.0
 10
34.90527394181584
 20
-5.371382752692885
 30
0.0
 10
34.76881971489549
 20
-5.465471807023792
 30
0.0
 10
34.50592407121584
 20
-5.559807748260134
 30
0.0
 10
34.24522618035385
 20
-5.597278671175745
 30
0.0
 10
34.08526871089359
 20
-5.561754170600445
 30
0.0
 10
34.0255901482801
 20
-5.548500327944332
 30
0.0
  0
SPLINE
  5
11A
330
1F
100
AcDbEntity
  8
외형선
  6
Continuous
 62
     1
370
    15
100
AcDbSpline
210
0.0
220
0.0
230
1.0
 70
     8
 71
     3
 72
     8
 73
     4
 74
     0
 42
0.000000001
 43
0.00000001
 40
0.0
 40
0.0
 40
0.0
 40
0.0
 40
1.0
 40
1.0
 40
1.0
 40
1.0
 10
34.0255901482801
 20
-5.548500327944322
 30
0.0
 10
33.94781285744541
 20
-5.525228979783262
 30
0.0
 10
33.84299006430064
 20
-5.547231318190576
 30
0.0
 10
33.75874766602403
 20
-5.614555412284937
 30
0.0
  0
SPLINE
  5
11B
330
1F
100
AcDbEntity
  8
외형선
  6
Continuous
 62
     1
370
    15
100
AcDbSpline
210
0.0
220
0.0
230
1.0
 70
     8
 71
     3
 72
     8
 73
     4
 74
     0
 42
0.000000001
 43
0.00000001
 40
0.0
 40
0.0
 40
0.0
 40
0.0
 40
1.0
 40
1.0
 40
1.0
 40
1.0
 10
33.75874766602402
 20
-5.614555412284936
 30
0.0
 10
33.62898539921176
 20
-5.718257671948555
 30
0.0
 10
33.48560889945386
 20
-5.796912558662265
 30
0.0
 10
33.34095371175191
 20
-5.84501044309999
 30
0.0
  0
SPLINE
  5
11C
330
1F
100
AcDbEntity
  8
외형선
  6
Continuous
 62
     1
370
    15
100
AcDbSpline
210
0.0
220
0.0
230
1.0
 70
     8
 71
     3
 72
     8
 73
     4
 74
     0
 42
0.000000001
 43
0.00000001
 40
0.0
 40
0.0
 40
0.0
 40
0.0
 40
1.0
 40
1.0
 40
1.0
 40
1.0
 10
33.34095371175186
 20
-5.845010443100001
 30
0.0
 10
33.19268595793552
 20
-5.862393850398469
 30
0.0
 10
33.0505090035358
 20
-5.845419021905761
 30
0.0
 10
32.92634429552019
 20
-5.795441763333015
 30
0.0
  0
SPLINE
  5
11D
330
1F
100
AcDbEntity
  8
외형선
  6
Continuous
 62
     1
370
    15
100
AcDbSpline
210
0.0
220
0.0
230
1.0
 70
     8
 71
     3
 72
     8
 73
     4
 74
     0
 42
0.000000001
 43
0.00000001
 40
0.0
 40
0.0
 40
0.0
 40
0.0
 40
1.0
 40
1.0
 40
1.0
 40
1.0
 10
32.92634429552019
 20
-5.795441763333009
 30
0.0
 10
32.84897443547609
 20
-5.764299794226336
 30
0.0
 10
32.74422405101279
 20
-5.779918963981204
 30
0.0
 10
32.6594525440162
 20
-5.845265786928386
 30
0.0
  0
SPLINE
  5
11E
330
1F
100
AcDbEntity
  8
외형선
  6
Continuous
 62
     1
370
    15
100
AcDbSpline
210
0.0
220
0.0
230
1.0
 70
     8
 71
     3
 72
    12
 73
     8
 74
     0
 42
0.000000001
 43
0.00000001
 40
0.0
 40
0.0
 40
0.0
 40
0.0
 40
0.4999999999999967
 40
0.4999999999999967
 40
0.7499999999999983
 40
0.7499999999999983
 40
1.0
 40
1.0
 40
1.0
 40
1.0
 10
32.65945254401618
 20
-5.845265786928394
 30
0.0
 10
32.49319665841311
 20
-5.973425522496968
 30
0.0
 10
32.30882720335301
 20
-6.054032178148163
 30
0.0
 10
32.03412545056238
 20
-6.097110279352279
 30
0.0
 10
31.9453716306089
 20
-6.098230422487444
 30
0.0
 10
31.77281220071428
 20
-6.074718999183594
 30
0.0
 10
31.68967051500074
 20
-6.049797456172414
 30
0.0
 10
31.61327409982835
 20
-6.012328376285819
 30
0.0
  0
SPLINE
  5
11F
330
1F
100
AcDbEntity
  8
외형선
  6
Continuous
 62
     1
370
    15
100
AcDbSpline
210
0.0
220
0.0
230
1.0
 70
     8
 71
     3
 72
     8
 73
     4
 74
     0
 42
0.000000001
 43
0.00000001
 40
0.0
 40
0.0
 40
0.0
 40
0.0
 40
1.0
 40
1.0
 40
1.0
 40
1.0
 10
31.61327409982835
 20
-6.01232837628582
 30
0.0
 10
31.53538377954505
 20
-5.974126601680275
 30
0.0
 10
31.43046409651784
 20
-5.983844369240252
 30
0.0
 10
31.34611572836965
 20
-6.047565765854718
 30
0.0
  0
SPLINE
  5
120
330
1F
100
AcDbEntity
  8
외형선
  6
Continuous
 62
     1
370
    15
100
AcDbSpline
210
0.0
220
0.0
230
1.0
 70
     8
 71
     3
 72
     8
 73
     4
 74
     0
 42
0.000000001
 43
0.00000001
 40
0.0
 40
0.0
 40
0.0
 40
0.0
 40
1.0
 40
1.0
 40
1.0
 40
1.0
 10
31.34611572836965
 20
-6.047565765854728
 30
0.0
 10
31.21617161238066
 20
-6.145732698238117
 30
0.0
 10
31.07261572258571
 20
-6.212109176582135
 30
0.0
 10
30.92780205051126
 20
-6.244411561571103
 30
0.0
  0
SPLINE
  5
121
330
1F
100
AcDbEntity
  8
외형선
  6
Continuous
 62
     1
370
    15
100
AcDbSpline
210
0.0
220
0.0
230
1.0
 70
     8
 71
     3
 72
     8
 73
     4
 74
     0
 42
0.000000001
 43
0.00000001
 40
0.0
 40
0.0
 40
0.0
 40
0.0
 40
1.0
 40
1.0
 40
1.0
 40
1.0
 10
30.92780205051129
 20
-6.244411561571091
 30
0.0
 10
30.77932938083842
 20
-6.242178910192791
 30
0.0
 10
30.63693863253571
 20
-6.203157678139399
 30
0.0
 10
30.51256745078479
 20
-6.130349985743296
 30
0.0
  0
SPLINE
  5
122
330
1F
100
AcDbEntity
  8
외형선
  6
Continuous
 62
     1
370
    15
100
AcDbSpline
210
0.0
220
0.0
230
1.0
 70
     8
 71
     3
 72
     8
 73
     4
 74
     0
 42
0.000000001
 43
0.00000001
 40
0.0
 40
0.0
 40
0.0
 40
0.0
 40
1.0
 40
1.0
 40
1.0
 40
1.0
 10
30.51256745078479
 20
-6.130349985743291
 30
0.0
 10
30.43510516411759
 20
-6.085003063244319
 30
0.0
 10
30.33029009996734
 20
-6.087929737619548
 30
0.0
 10
30.24543902325821
 20
-6.148099566463004
 30
0.0
  0
SPLINE
  5
123
330
1F
100
AcDbEntity
  8
외형선
  6
Continuous
 62
     1
370
    15
100
AcDbSpline
210
0.0
220
0.0
230
1.0
 70
     8
 71
     3
 72
    12
 73
     8
 74
     0
 42
0.000000001
 43
0.00000001
 40
0.0
 40
0.0
 40
0.0
 40
0.0
 40
0.5
 40
0.5
 40
0.75
 40
0.75
 40
1.0
 40
1.0
 40
1.0
 40
1.0
 10
30.2454390232582
 20
-6.148099566463004
 30
0.0
 10
30.07918200757344
 20
-6.265996198606746
 30
0.0
 10
29.89489118518004
 20
-6.327084952928413
 30
0.0
 10
29.6201131394359
 20
-6.335760379431114
 30
0.0
 10
29.53133754244549
 20
-6.324838575620413
 30
0.0
 10
29.35874503220544
 20
-6.276284789281298
 30
0.0
 10
29.27559575786035
 20
-6.238435807490153
 30
0.0
 10
29.19920833282452
 20
-6.188062967654176
 30
0.0
  0
SPLINE
  5
124
330
1F
100
AcDbEntity
  8
외형선
  6
Continuous
 62
     1
370
    15
100
AcDbSpline
210
0.0
220
0.0
230
1.0
 70
     8
 71
     3
 72
     8
 73
     4
 74
     0
 42
0.000000001
 43
0.00000001
 40
0.0
 40
0.0
 40
0.0
 40
0.0
 40
1.0
 40
1.0
 40
1.0
 40
1.0
 10
29.19920833282453
 20
-6.188062967654181
 30
0.0
 10
29.12138946760542
 20
-6.136746180472779
 30
0.0
 10
29.01653304987192
 20
-6.133704062883458
 30
0.0
 10
28.93226441700677
 20
-6.19072287694022
 30
0.0
  0
SPLINE
  5
125
330
1F
100
AcDbEntity
  8
외형선
  6
Continuous
 62
     1
370
    15
100
AcDbSpline
210
0.0
220
0.0
230
1.0
 70
     8
 71
     3
 72
     8
 73
     4
 74
     0
 42
0.000000001
 43
0.00000001
 40
0.0
 40
0.0
 40
0.0
 40
0.0
 40
1.0
 40
1.0
 40
1.0
 40
1.0
 10
28.93226441700677
 20
-6.190722876940236
 30
0.0
 10
28.80247068168579
 20
-6.278545410763036
 30
0.0
 10
28.65907119506685
 20
-6.329472266574236
 30
0.0
 10
28.51440909181293
 20
-6.344405723770937
 30
0.0
  0
SPLINE
  5
126
330
1F
100
AcDbEntity
  8
외형선
  6
Continuous
 62
     1
370
    15
100
AcDbSpline
210
0.0
220
0.0
230
1.0
 70
     8
 71
     3
 72
     8
 73
     4
 74
     0
 42
0.000000001
 43
0.00000001
 40
0.0
 40
0.0
 40
0.0
 40
0.0
 40
1.0
 40
1.0
 40
1.0
 40
1.0
 10
28.51440909181288
 20
-6.34440572377094
 30
0.0
 10
28.36614490655864
 20
-6.322611676313521
 30
0.0
 10
28.22398508204266
 20
-6.263322810027258
 30
0.0
 10
28.09985171785955
 20
-6.171190371970899
 30
0.0
  0
SPLINE
  5
127
330
1F
100
AcDbEntity
  8
외형선
  6
Continuous
 62
     1
370
    15
100
AcDbSpline
210
0.0
220
0.0
230
1.0
 70
     8
 71
     3
 72
     8
 73
     4
 74
     0
 42
0.000000001
 43
0.00000001
 40
0.0
 40
0.0
 40
0.0
 40
0.0
 40
1.0
 40
1.0
 40
1.0
 40
1.0
 10
28.09985171785953
 20
-6.17119037197088
 30
0.0
 10
28.02250916793909
 20
-6.113786323216067
 30
0.0
 10
27.91779604066047
 20
-6.103917660594517
 30
0.0
 10
27.83305597306657
 20
-6.155963648922063
 30
0.0
  0
SPLINE
  5
128
330
1F
100
AcDbEntity
  8
외형선
  6
Continuous
 62
     1
370
    15
100
AcDbSpline
210
0.0
220
0.0
230
1.0
 70
     8
 71
     3
 72
    12
 73
     8
 74
     0
 42
0.000000001
 43
0.00000001
 40
0.0
 40
0.0
 40
0.0
 40
0.0
 40
0.5000000000000037
 40
0.5000000000000037
 40
0.7500000000000018
 40
0.7500000000000018
 40
1.0
 40
1.0
 40
1.0
 40
1.0
 10
27.83305597306657
 20
-6.155963648922063
 30
0.0
 10
27.66697777116727
 20
-6.25796621279699
 30
0.0
 10
27.48282789851312
 20
-6.296619776607464
 30
0.0
 10
27.20820681068065
 20
-6.270494799856693
 30
0.0
 10
27.11948792705493
 20
-6.248058679157459
 30
0.0
 10
26.94701406134234
 20
-6.176832977616223
 30
0.0
 10
26.86393278993477
 20
-6.127913026665004
 30
0.0
 10
26.78760900808733
 20
-6.067128545307113
 30
0.0
  0
SPLINE
  5
129
330
1F
100
AcDbEntity
  8
외형선
  6
Continuous
 62
     1
370
    15
100
AcDbSpline
210
0.0
220
0.0
230
1.0
 70
     8
 71
     3
 72
     8
 73
     4
 74
     0
 42
0.000000001
 43
0.00000001
 40
0.0
 40
0.0
 40
0.0
 40
0.0
 40
1.0
 40
1.0
 40
1.0
 40
1.0
 10
26.78760900808733
 20
-6.067128545307106
 30
0.0
 10
26.70981841129652
 20
-6.005175888271562
 30
0.0
 10
26.60498278415491
 20
-5.989561972939106
 30
0.0
 10
26.52074186656026
 20
-6.037169114006929
 30
0.0
  0
SPLINE
  5
12A
330
1F
100
AcDbEntity
  8
외형선
  6
Continuous
 62
     1
370
    15
100
AcDbSpline
210
0.0
220
0.0
230
1.0
 70
     8
 71
     3
 72
     8
 73
     4
 74
     0
 42
0.000000001
 43
0.00000001
 40
0.0
 40
0.0
 40
0.0
 40
0.0
 40
1.0
 40
1.0
 40
1.0
 40
1.0
 10
26.52074186656027
 20
-6.037169114006923
 30
0.0
 10
26.39095578369043
 20
-6.110515232879413
 30
0.0
 10
26.24756142061448
 20
-6.143552736973056
 30
0.0
 10
26.10291434995605
 20
-6.140415047637302
 30
0.0
  0
SPLINE
  5
12B
330
1F
100
AcDbEntity
  8
외형선
  6
Continuous
 62
     1
370
    15
100
AcDbSpline
210
0.0
220
0.0
230
1.0
 70
     8
 71
     3
 72
     8
 73
     4
 74
     0
 42
0.000000001
 43
0.00000001
 40
0.0
 40
0.0
 40
0.0
 40
0.0
 40
1.0
 40
1.0
 40
1.0
 40
1.0
 10
26.10291434995604
 20
-6.140415047637299
 30
0.0
 10
25.95461547130869
 20
-6.100124660447539
 30
0.0
 10
25.81243225280333
 20
-6.023432913525462
 30
0.0
 10
25.68826150222453
 20
-5.916379882571658
 30
0.0
  0
SPLINE
  5
12C
330
1F
100
AcDbEntity
  8
외형선
  6
Continuous
 62
     1
370
    15
100
AcDbSpline
210
0.0
220
0.0
230
1.0
 70
     8
 71
     3
 72
     8
 73
     4
 74
     0
 42
0.000000001
 43
0.00000001
 40
0.0
 40
0.0
 40
0.0
 40
0.0
 40
1.0
 40
1.0
 40
1.0
 40
1.0
 10
25.68826150222455
 20
-5.916379882571689
 30
0.0
 10
25.61087479178513
 20
-5.84966141731745
 30
0.0
 10
25.50612985698351
 20
-5.827431338802972
 30
0.0
 10
25.42134482593976
 20
-5.86887152639952
 30
0.0
  0
SPLINE
  5
12D
330
1F
100
AcDbEntity
  8
외형선
  6
Continuous
 62
     1
370
    15
100
AcDbSpline
210
0.0
220
0.0
230
1.0
 70
     8
 71
     3
 72
    12
 73
     8
 74
     0
 42
0.000000001
 43
0.00000001
 40
0.0
 40
0.0
 40
0.0
 40
0.0
 40
0.4999999999999984
 40
0.4999999999999984
 40
0.7499999999999992
 40
0.7499999999999992
 40
1.0
 40
1.0
 40
1.0
 40
1.0
 10
25.42134482593977
 20
-5.868871526399509
 30
0.0
 10
25.25514343251244
 20
-5.950105405041169
 30
0.0
 10
25.07079661028351
 20
-5.964441859351791
 30
0.0
 10
24.79592279559279
 20
-5.904746710791739
 30
0.0
 10
24.70712283211732
 20
-5.871865027629947
 30
0.0
 10
24.53448842531729
 20
-5.781369347878038
 30
0.0
 10
24.45131805959239
 20
-5.723709890756355
 30
0.0
 10
24.37489806039068
 20
-5.655403219919545
 30
0.0
  0
SPLINE
  5
12E
330
1F
100
AcDbEntity
  8
외형선
  6
Continuous
 62
     1
370
    15
100
AcDbSpline
210
0.0
220
0.0
230
1.0
 70
     8
 71
     3
 72
     8
 73
     4
 74
     0
 42
0.000000001
 43
0.00000001
 40
0.0
 40
0.0
 40
0.0
 40
0.0
 40
1.0
 40
1.0
 40
1.0
 40
1.0
 10
24.37489806039068
 20
-5.655403219919543
 30
0.0
 10
24.29697327140536
 20
-5.585751519227962
 30
0.0
 10
24.19202542441504
 20
-5.558255295252499
 30
0.0
 10
24.10765716860704
 20
-5.594162523796868
 30
0.0
  0
SPLINE
  5
12F
330
1F
100
AcDbEntity
  8
외형선
  6
Continuous
 62
     1
370
    15
100
AcDbSpline
210
0.0
220
0.0
230
1.0
 70
     8
 71
     3
 72
     8
 73
     4
 74
     0
 42
0.000000001
 43
0.00000001
 40
0.0
 40
0.0
 40
0.0
 40
0.0
 40
1.0
 40
1.0
 40
1.0
 40
1.0
 10
24.10765716860704
 20
-5.594162523796846
 30
0.0
 10
23.97767731975935
 20
-5.649482099791857
 30
0.0
 10
23.83410008671197
 20
-5.662958262738722
 30
0.0
 10
23.68929132122532
 20
-5.641828221448264
 30
0.0
  0
SPLINE
  5
130
330
1F
100
AcDbEntity
  8
외형선
  6
Continuous
 62
     1
370
    15
100
AcDbSpline
210
0.0
220
0.0
230
1.0
 70
     8
 71
     3
 72
     8
 73
     4
 74
     0
 42
0.000000001
 43
0.00000001
 40
0.0
 40
0.0
 40
0.0
 40
0.0
 40
1.0
 40
1.0
 40
1.0
 40
1.0
 10
23.68929132123337
 20
-5.641828221450964
 30
0.0
 10
23.54084919559045
 20
-5.584914167131794
 30
0.0
 10
23.39851665830116
 20
-5.494449602733295
 30
0.0
 10
23.274207945341
 20
-5.377494476240842
 30
0.0
  0
SPLINE
  5
131
330
1F
100
AcDbEntity
  8
외형선
  6
Continuous
 62
     1
370
    15
100
AcDbSpline
210
0.0
220
0.0
230
1.0
 70
     8
 71
     3
 72
     8
 73
     4
 74
     0
 42
0.000000001
 43
0.00000001
 40
0.0
 40
0.0
 40
0.0
 40
0.0
 40
1.0
 40
1.0
 40
1.0
 40
1.0
 10
23.27420794534099
 20
-5.377494476240842
 30
0.0
 10
23.1967708267298
 20
-5.304638215511266
 30
0.0
 10
23.09200111578961
 20
-5.271045079206712
 30
0.0
 10
23.00717198754332
 20
-5.299864786954033
 30
0.0
  0
SPLINE
  5
132
330
1F
100
AcDbEntity
  8
외형선
  6
Continuous
 62
     1
370
    15
100
AcDbSpline
210
0.0
220
0.0
230
1.0
 70
     8
 71
     3
 72
    12
 73
     8
 74
     0
 42
0.000000001
 43
0.00000001
 40
0.0
 40
0.0
 40
0.0
 40
0.0
 40
0.5
 40
0.5
 40
0.75
 40
0.75
 40
1.0
 40
1.0
 40
1.0
 40
1.0
 10
23.00717198754333
 20
-5.299864786954049
 30
0.0
 10
22.84106596256773
 20
-5.356297373187491
 30
0.0
 10
22.6567423355626
 20
-5.345799523845499
 30
0.0
 10
22.3819401798444
 20
-5.255535616606377
 30
0.0
 10
22.29316703116071
 20
-5.213828046836396
 30
0.0
 10
22.12059599796598
 20
-5.108444511345426
 30
0.0
 10
22.03746994626632
 20
-5.044819002048753
 30
0.0
 10
21.96110925181853
 20
-4.972251726709563
 30
0.0
  0
SPLINE
  5
133
330
1F
100
AcDbEntity
  8
외형선
  6
Continuous
 62
     1
370
    15
100
AcDbSpline
210
0.0
220
0.0
230
1.0
 70
     8
 71
     3
 72
     8
 73
     4
 74
     0
 42
0.000000001
 43
0.00000001
 40
0.0
 40
0.0
 40
0.0
 40
0.0
 40
1.0
 40
1.0
 40
1.0
 40
1.0
 10
21.96110925181854
 20
-4.972251726709561
 30
0.0
 10
21.88329763819789
 20
-4.898305610438225
 30
0.0
 10
21.77844946351171
 20
-4.860309993606363
 30
0.0
 10
21.6941993592215
 20
-4.882811464078861
 30
0.0
  0
SPLINE
  5
134
330
1F
100
AcDbEntity
  8
외형선
  6
Continuous
 62
     1
370
    15
100
AcDbSpline
210
0.0
220
0.0
230
1.0
 70
     8
 71
     3
 72
     8
 73
     4
 74
     0
 42
0.000000001
 43
0.00000001
 40
0.0
 40
0.0
 40
0.0
 40
0.0
 40
1.0
 40
1.0
 40
1.0
 40
1.0
 10
21.69419935922151
 20
-4.882811464078857
 30
0.0
 10
21.56440644773948
 20
-4.917476481883381
 30
0.0
 10
21.42101783732669
 20
-4.910882306006112
 30
0.0
 10
21.27639332244588
 20
-4.872855140988155
 30
0.0
  0
SPLINE
  5
135
330
1F
100
AcDbEntity
  8
외형선
  6
Continuous
 62
     1
370
    15
100
AcDbSpline
210
0.0
220
0.0
230
1.0
 70
     8
 71
     3
 72
     8
 73
     4
 74
     0
 42
0.000000001
 43
0.00000001
 40
0.0
 40
0.0
 40
0.0
 40
0.0
 40
1.0
 40
1.0
 40
1.0
 40
1.0
 10
21.27639332244554
 20
-4.872855140988061
 30
0.0
 10
21.1281314558137
 20
-4.802110250932237
 30
0.0
 10
20.98599917335379
 20
-4.702252427163491
 30
0.0
 10
20.86189322139167
 20
-4.581132856885637
 30
0.0
  0
SPLINE
  5
136
330
1F
100
AcDbEntity
  8
외형선
  6
Continuous
 62
     1
370
    15
100
AcDbSpline
210
0.0
220
0.0
230
1.0
 70
     8
 71
     3
 72
     8
 73
     4
 74
     0
 42
0.000000001
 43
0.00000001
 40
0.0
 40
0.0
 40
0.0
 40
0.0
 40
1.0
 40
1.0
 40
1.0
 40
1.0
 10
20.86189322139166
 20
-4.581132856885633
 30
0.0
 10
20.78456051330379
 20
-4.505661018315916
 30
0.0
 10
20.67988907480627
 20
-4.462359895030746
 30
0.0
 10
20.59512704564009
 20
-4.477243763169413
 30
0.0
  0
SPLINE
  5
137
330
1F
100
AcDbEntity
  8
외형선
  6
Continuous
 62
     1
370
    15
100
AcDbSpline
210
0.0
220
0.0
230
1.0
 70
     8
 71
     3
 72
    12
 73
     8
 74
     0
 42
0.000000001
 43
0.00000001
 40
0.0
 40
0.0
 40
0.0
 40
0.0
 40
0.4999999999999997
 40
0.4999999999999997
 40
0.7499999999999998
 40
0.7499999999999998
 40
1.0
 40
1.0
 40
1.0
 40
1.0
 10
20.59512704564007
 20
-4.477243763169399
 30
0.0
 10
20.42911751293568
 20
-4.506394363017488
 30
0.0
 10
20.24485659681138
 20
-4.471546485570258
 30
0.0
 10
19.97018336153636
 20
-4.355056517916842
 30
0.0
 10
19.88145676085171
 20
-4.306525200468524
 30
0.0
 10
19.70898245203452
 20
-4.19133931326933
 30
0.0
 10
19.62591042932296
 20
-4.124827686456998
 30
0.0
 10
19.54959757541721
 20
-4.051529558702518
 30
0.0
  0
SPLINE
  5
138
330
1F
100
AcDbEntity
  8
외형선
  6
Continuous
 62
     1
370
    15
100
AcDbSpline
210
0.0
220
0.0
230
1.0
 70
     8
 71
     3
 72
     8
 73
     4
 74
     0
 42
0.000000001
 43
0.00000001
 40
0.0
 40
0.0
 40
0.0
 40
0.0
 40
1.0
 40
1.0
 40
1.0
 40
1.0
 10
19.54959757541721
 20
-4.051529558702524
 30
0.0
 10
19.47179281401878
 20
-3.976798461003931
 30
0.0
 10
19.3669498439545
 20
-3.930107035523527
 30
0.0
 10
19.28270581875561
 20
-3.938117638855272
 30
0.0
  0
SPLINE
  5
139
330
1F
100
AcDbEntity
  8
외형선
  6
Continuous
 62
     1
370
    15
100
AcDbSpline
210
0.0
220
0.0
230
1.0
 70
     8
 71
     3
 72
     8
 73
     4
 74
     0
 42
0.000000001
 43
0.00000001
 40
0.0
 40
0.0
 40
0.0
 40
0.0
 40
1.0
 40
1.0
 40
1.0
 40
1.0
 10
19.28270581875563
 20
-3.938117638855277
 30
0.0
 10
19.15289005636875
 20
-3.950461571570206
 30
0.0
 10
19.00947956336823
 20
-3.924018679269085
 30
0.0
 10
18.86484611144667
 20
-3.870847862330321
 30
0.0
  0
SPLINE
  5
13A
330
1F
100
AcDbEntity
  8
외형선
  6
Continuous
 62
     1
370
    15
100
AcDbSpline
210
0.0
220
0.0
230
1.0
 70
     8
 71
     3
 72
     8
 73
     4
 74
     0
 42
0.000000001
 43
0.00000001
 40
0.0
 40
0.0
 40
0.0
 40
0.0
 40
1.0
 40
1.0
 40
1.0
 40
1.0
 10
18.86484611144667
 20
-3.870847862330319
 30
0.0
 10
18.71651796704518
 20
-3.789571919384093
 30
0.0
 10
18.57432895935006
 20
-3.685012919038437
 30
0.0
 10
18.45014820773134
 20
-3.565401640461134
 30
0.0
  0
SPLINE
  5
13B
330
1F
100
AcDbEntity
  8
외형선
  6
Continuous
 62
     1
370
    15
100
AcDbSpline
210
0.0
220
0.0
230
1.0
 70
     8
 71
     3
 72
     8
 73
     4
 74
     0
 42
0.000000001
 43
0.00000001
 40
0.0
 40
0.0
 40
0.0
 40
0.0
 40
1.0
 40
1.0
 40
1.0
 40
1.0
 10
18.45014820773132
 20
-3.565401640461121
 30
0.0
 10
18.37276784797449
 20
-3.490868642016204
 30
0.0
 10
18.26802650462896
 20
-3.439929644204743
 30
0.0
 10
18.18318902731189
 20
-3.440137363815074
 30
0.0
  0
SPLINE
  5
13C
330
1F
100
AcDbEntity
  8
외형선
  6
Continuous
 62
     1
370
    15
100
AcDbSpline
210
0.0
220
0.0
230
1.0
 70
     8
 71
     3
 72
    12
 73
     8
 74
     0
 42
0.000000001
 43
0.00000001
 40
0.0
 40
0.0
 40
0.0
 40
0.0
 40
0.5000000000000009
 40
0.5000000000000009
 40
0.7500000000000004
 40
0.7500000000000004
 40
1.0
 40
1.0
 40
1.0
 40
1.0
 10
18.18318902731188
 20
-3.440137363815083
 30
0.0
 10
18.01696437420713
 20
-3.440544355173891
 30
0.0
 10
17.83247242867331
 20
-3.382858025768815
 30
0.0
 10
17.5575085668548
 20
-3.245538646064029
 30
0.0
 10
17.46868773641575
 20
-3.192447895526867
 30
0.0
 10
17.29602540137459
 20
-3.072854838552173
 30
0.0
 10
17.21284763099471
 20
-3.006569596027296
 30
0.0
 10
17.13642060101515
 20
-2.935969034856564
 30
0.0
  0
SPLINE
  5
13D
330
1F
100
AcDbEntity
  8
외형선
  6
Continuous
 62
     1
370
    15
100
AcDbSpline
210
0.0
220
0.0
230
1.0
 70
     8
 71
     3
 72
     8
 73
     4
 74
     0
 42
0.000000001
 43
0.00000001
 40
0.0
 40
0.0
 40
0.0
 40
0.0
 40
1.0
 40
1.0
 40
1.0
 40
1.0
 10
17.13642060101515
 20
-2.935969034856568
 30
0.0
 10
17.05847143736289
 20
-2.863962380952693
 30
0.0
 10
16.9535135319463
 20
-2.810713246959273
 30
0.0
 10
16.86913885415624
 20
-2.803785718187199
 30
0.0
  0
SPLINE
  5
13E
330
1F
100
AcDbEntity
  8
외형선
  6
Continuous
 62
     1
370
    15
100
AcDbSpline
210
0.0
220
0.0
230
1.0
 70
     8
 71
     3
 72
     8
 73
     4
 74
     0
 42
0.000000001
 43
0.00000001
 40
0.0
 40
0.0
 40
0.0
 40
0.0
 40
1.0
 40
1.0
 40
1.0
 40
1.0
 10
16.8691388541562
 20
-2.80378571818718
 30
0.0
 10
16.73917400039694
 20
-2.793115037274901
 30
0.0
 10
16.5956349709806
 20
-2.747999219940516
 30
0.0
 10
16.45088858781567
 20
-2.682145258654213
 30
0.0
  0
SPLINE
  5
13F
330
1F
100
AcDbEntity
  8
외형선
  6
Continuous
 62
     1
370
    15
100
AcDbSpline
210
0.0
220
0.0
230
1.0
 70
     8
 71
     3
 72
     8
 73
     4
 74
     0
 42
0.000000001
 43
0.00000001
 40
0.0
 40
0.0
 40
0.0
 40
0.0
 40
1.0
 40
1.0
 40
1.0
 40
1.0
 10
16.45088858781568
 20
-2.682145258654224
 30
0.0
 10
16.30248513553716
 20
-2.594194440437004
 30
0.0
 10
16.16024168502547
 20
-2.48987615820079
 30
0.0
 10
16.03596016533169
 20
-2.377519439158065
 30
0.0
  0
SPLINE
  5
140
330
1F
100
AcDbEntity
  8
외형선
  6
Continuous
 62
     1
370
    15
100
AcDbSpline
210
0.0
220
0.0
230
1.0
 70
     8
 71
     3
 72
     8
 73
     4
 74
     0
 42
0.000000001
 43
0.00000001
 40
0.0
 40
0.0
 40
0.0
 40
0.0
 40
1.0
 40
1.0
 40
1.0
 40
1.0
 10
16.03596016533168
 20
-2.377519439158069
 30
0.0
 10
15.95857867531968
 20
-2.307562696161947
 30
0.0
 10
15.85381695956309
 20
-2.251489488727851
 30
0.0
 10
15.76898066735275
 20
-2.237025302851339
 30
0.0
  0
SPLINE
  5
141
330
1F
100
AcDbEntity
  8
외형선
  6
Continuous
 62
     1
370
    15
100
AcDbSpline
210
0.0
220
0.0
230
1.0
 70
     8
 71
     3
 72
    12
 73
     8
 74
     0
 42
0.000000001
 43
0.00000001
 40
0.0
 40
0.0
 40
0.0
 40
0.0
 40
0.5000000000000013
 40
0.5000000000000013
 40
0.7500000000000011
 40
0.7500000000000011
 40
1.0
 40
1.0
 40
1.0
 40
1.0
 10
15.76898066735276
 20
-2.237025302851334
 30
0.0
 10
15.60287321285392
 20
-2.208704768858778
 30
0.0
 10
15.41852166429126
 20
-2.131169874186766
 30
0.0
 10
15.14374524681498
 20
-1.979878195656991
 30
0.0
 10
15.05498985010551
 20
-1.924861645729024
 30
0.0
 10
14.88246835229912
 20
-1.806745608782264
 30
0.0
 10
14.79937734140247
 20
-1.743943130488076
 30
0.0
 10
14.72305198653916
 20
-1.67949711544545
 30
0.0
  0
SPLINE
  5
142
330
1F
100
AcDbEntity
  8
외형선
  6
Continuous
 62
     1
370
    15
100
AcDbSpline
210
0.0
220
0.0
230
1.0
 70
     8
 71
     3
 72
     8
 73
     4
 74
     0
 42
0.000000001
 43
0.00000001
 40
0.0
 40
0.0
 40
0.0
 40
0.0
 40
1.0
 40
1.0
 40
1.0
 40
1.0
 10
14.72305198653918
 20
-1.679497115445474
 30
0.0
 10
14.6452467268803
 20
-1.613801529183849
 30
0.0
 10
14.54041227092598
 20
-1.556690997259344
 30
0.0
 10
14.4561761296709
 20
-1.535248877753778
 30
0.0
  0
SPLINE
  5
143
330
1F
100
AcDbEntity
  8
외형선
  6
Continuous
 62
     1
370
    15
100
AcDbSpline
210
0.0
220
0.0
230
1.0
 70
     8
 71
     3
 72
     8
 73
     4
 74
     0
 42
0.000000001
 43
0.00000001
 40
0.0
 40
0.0
 40
0.0
 40
0.0
 40
1.0
 40
1.0
 40
1.0
 40
1.0
 10
14.45617612967091
 20
-1.535248877753798
 30
0.0
 10
14.32637814699645
 20
-1.502209094418294
 30
0.0
 10
14.18300219671218
 20
-1.440740970195685
 30
0.0
 10
14.03842095603295
 20
-1.365495104330442
 30
0.0
  0
SPLINE
  5
144
330
1F
100
AcDbEntity
  8
외형선
  6
Continuous
 62
     1
370
    15
100
AcDbSpline
210
0.0
220
0.0
230
1.0
 70
     8
 71
     3
 72
     8
 73
     4
 74
     0
 42
0.000000001
 43
0.00000001
 40
0.0
 40
0.0
 40
0.0
 40
0.0
 40
1.0
 40
1.0
 40
1.0
 40
1.0
 10
14.03842095603245
 20
-1.365495104330189
 30
0.0
 10
13.89018537947824
 20
-1.27519524108264
 30
0.0
 10
13.74812045828481
 20
-1.176257086679455
 30
0.0
 10
13.62396593393416
 20
-1.076730702286436
 30
0.0
  0
SPLINE
  5
145
330
1F
100
AcDbEntity
  8
외형선
  6
Continuous
 62
     1
370
    15
100
AcDbSpline
210
0.0
220
0.0
230
1.0
 70
     8
 71
     3
 72
     8
 73
     4
 74
     0
 42
0.000000001
 43
0.00000001
 40
0.0
 40
0.0
 40
0.0
 40
0.0
 40
1.0
 40
1.0
 40
1.0
 40
1.0
 10
13.62396593393403
 20
-1.076730702286452
 30
0.0
 10
13.54665650127792
 20
-1.014756897046735
 30
0.0
 10
13.44194690763983
 20
-0.956282196454776
 30
0.0
 10
13.35718220650221
 20
-0.9278849866892201
 30
0.0
  0
SPLINE
  5
146
330
1F
100
AcDbEntity
  8
외형선
  6
Continuous
 62
     1
370
    15
100
AcDbSpline
210
0.0
220
0.0
230
1.0
 70
     8
 71
     3
 72
     8
 73
     4
 74
     0
 42
0.000000001
 43
0.00000001
 40
0.0
 40
0.0
 40
0.0
 40
0.0
 40
1.0
 40
1.0
 40
1.0
 40
1.0
 10
12.31155587874111
 20
-0.3434833368932715
 30
0.0
 10
12.23373602221375
 20
-0.2871543309306353
 30
0.0
 10
12.12889117766539
 20
-0.2288311709108894
 30
0.0
 10
12.04463948563597
 20
-0.193843186822912
 30
0.0
  0
SPLINE
  5
147
330
1F
100
AcDbEntity
  8
외형선
  6
Continuous
370
    15
100
AcDbSpline
210
0.0
220
0.0
230
1.0
 70
     8
 71
     3
 72
     8
 73
     4
 74
     0
 42
0.000000001
 43
0.00000001
 40
0.0
 40
0.0
 40
0.0
 40
0.0
 40
1.0
 40
1.0
 40
1.0
 40
1.0
 10
12.04463948563598
 20
-0.1938431868229319
 30
0.0
 10
11.99301633042412
 20
-0.1724051588187817
 30
0.0
 10
11.9392650037503
 20
-0.1475932111396505
 30
0.0
 10
11.88405025799313
 20
-0.1203753575968936
 30
0.0
  0
SPLINE
  5
148
330
1F
100
AcDbEntity
  8
외형선
  6
Continuous
370
    15
100
AcDbSpline
210
0.0
220
0.0
230
1.0
 70
     8
 71
     3
 72
     8
 73
     4
 74
     0
 42
0.000000001
 43
0.00000001
 40
0.0
 40
0.0
 40
0.0
 40
0.0
 40
1.0
 40
1.0
 40
1.0
 40
1.0
 10
12.22838018582602
 20
6.342379580148602
 30
0.0
 10
12.15219960925669
 20
6.344678026135245
 30
0.0
 10
12.07606470942709
 20
6.346520613996101
 30
0.0
 10
12.00000000000009
 20
6.347907441756695
 30
0.0
  0
LINE
  5
149
330
1F
100
AcDbEntity
  8
외형선
  6
Continuous
370
    15
100
AcDbLine
 10
11.99999999999999
 20
6.269084974588538
 30
0.0
 11
11.6678134022133
 21
6.296769137513751
 31
0.0
  0
SPLINE
  5
14A
330
1F
100
AcDbEntity
  8
외형선
  6
Continuous
 62
     1
370
    15
100
AcDbSpline
210
0.0
220
0.0
230
1.0
 70
     8
 71
     3
 72
    11
 73
     7
 74
     0
 42
0.000000001
 43
0.00000001
 40
0.0
 40
0.0
 40
0.0
 40
0.0
 40
0.1594082683172434
 40
0.51076216309367
 40
0.8636644483409301
 40
0.9999999999999999
 40
0.9999999999999999
 40
0.9999999999999999
 40
0.9999999999999999
 10
17.62270660595999
 20
5.285860138716246
 30
0.0
 10
17.63269483438979
 20
5.287102034826757
 30
0.0
 10
17.66469825059982
 20
5.291081210753064
 30
0.0
 10
17.71698580438488
 20
5.292194113436991
 30
0.0
 10
17.76723304684939
 20
5.2916910639243
 30
0.0
 10
17.79514372601575
 20
5.288573779165614
 30
0.0
 10
17.80292157464942
 20
5.28770508769248
 30
0.0
  0
SPLINE
  5
14B
330
1F
100
AcDbEntity
  8
외형선
  6
Continuous
 62
     1
370
    15
100
AcDbSpline
210
0.0
220
0.0
230
1.0
 70
     8
 71
     3
 72
    10
 73
     6
 74
     0
 42
0.000000001
 43
0.00000001
 40
0.0
 40
0.0
 40
0.0
 40
0.0
 40
0.3441013701704723
 40
0.6663428643164229
 40
1.0
 40
1.0
 40
1.0
 40
1.0
 10
18.03180851061412
 20
5.279741036885658
 30
0.0
 10
18.04779392580296
 20
5.284907972121547
 30
0.0
 10
18.07874924382143
 20
5.294913600472038
 30
0.0
 10
18.12504014292281
 20
5.318417836567702
 30
0.0
 10
18.15309126607836
 20
5.338866674091975
 30
0.0
 10
18.1673609366938
 20
5.349269044589657
 30
0.0
  0
SPLINE
  5
14C
330
1F
100
AcDbEntity
  8
외형선
  6
Continuous
 62
     1
370
    15
100
AcDbSpline
210
0.0
220
0.0
230
1.0
 70
     8
 71
     3
 72
    12
 73
     8
 74
     0
 42
0.000000001
 43
0.00000001
 40
0.0
 40
0.0
 40
0.0
 40
0.0
 40
0.5000000000000002
 40
0.5000000000000002
 40
0.7500000000000001
 40
0.7500000000000001
 40
1.0
 40
1.0
 40
1.0
 40
1.0
 10
18.1673609366938
 20
5.349269044589658
 30
0.0
 10
18.33369593789829
 20
5.48142078403048
 30
0.0
 10
18.51810126590351
 20
5.576090181295353
 30
0.0
 10
18.79305610708239
 20
5.647741795132676
 30
0.0
 10
18.88188858880057
 20
5.659416068587904
 30
0.0
 10
19.05459818804156
 20
5.658866877825486
 30
0.0
 10
19.13781592345396
 20
5.646299616704644
 30
0.0
 10
19.21427578181571
 20
5.621627412228288
 30
0.0
  0
SPLINE
  5
14D
330
1F
100
AcDbEntity
  8
외형선
  6
Continuous
 62
     1
370
    15
100
AcDbSpline
210
0.0
220
0.0
230
1.0
 70
     8
 71
     3
 72
     8
 73
     4
 74
     0
 42
0.000000001
 43
0.00000001
 40
0.0
 40
0.0
 40
0.0
 40
0.0
 40
1.0
 40
1.0
 40
1.0
 40
1.0
 10
19.2142757818157
 20
5.621627412228296
 30
0.0
 10
19.29219379543761
 20
5.596484687592636
 30
0.0
 10
19.39713018935808
 20
5.617024369181117
 30
0.0
 10
19.48148806159508
 20
5.684113327364195
 30
0.0
  0
SPLINE
  5
14E
330
1F
100
AcDbEntity
  8
외형선
  6
Continuous
 62
     1
370
    15
100
AcDbSpline
210
0.0
220
0.0
230
1.0
 70
     8
 71
     3
 72
     8
 73
     4
 74
     0
 42
0.000000001
 43
0.00000001
 40
0.0
 40
0.0
 40
0.0
 40
0.0
 40
1.0
 40
1.0
 40
1.0
 40
1.0
 10
19.48148806159508
 20
5.684113327364191
 30
0.0
 10
19.61139884955746
 20
5.787430056319287
 30
0.0
 10
19.75490658880735
 20
5.864801395052714
 30
0.0
 10
19.89966526018821
 20
5.911123167190653
 30
0.0
  0
SPLINE
  5
14F
330
1F
100
AcDbEntity
  8
외형선
  6
Continuous
 62
     1
370
    15
100
AcDbSpline
210
0.0
220
0.0
230
1.0
 70
     8
 71
     3
 72
     8
 73
     4
 74
     0
 42
0.000000001
 43
0.00000001
 40
0.0
 40
0.0
 40
0.0
 40
0.0
 40
1.0
 40
1.0
 40
1.0
 40
1.0
 10
19.8996652097603
 20
5.911123162071192
 30
0.0
 10
20.04803302964569
 20
5.926185498614495
 30
0.0
 10
20.19029791643182
 20
5.90652076824128
 30
0.0
 10
20.31453669217808
 20
5.853647165097849
 30
0.0
  0
SPLINE
  5
150
330
1F
100
AcDbEntity
  8
외형선
  6
Continuous
 62
     1
370
    15
100
AcDbSpline
210
0.0
220
0.0
230
1.0
 70
     8
 71
     3
 72
     8
 73
     4
 74
     0
 42
0.000000001
 43
0.00000001
 40
0.0
 40
0.0
 40
0.0
 40
0.0
 40
1.0
 40
1.0
 40
1.0
 40
1.0
 10
20.31453669217806
 20
5.853647165097859
 30
0.0
 10
20.39193276615833
 20
5.820708903464874
 30
0.0
 10
20.4966831897598
 20
5.834832188586703
 30
0.0
 10
20.5814713787139
 20
5.899752503167451
 30
0.0
  0
SPLINE
  5
151
330
1F
100
AcDbEntity
  8
외형선
  6
Continuous
 62
     1
370
    15
100
AcDbSpline
210
0.0
220
0.0
230
1.0
 70
     8
 71
     3
 72
    12
 73
     8
 74
     0
 42
0.000000001
 43
0.00000001
 40
0.0
 40
0.0
 40
0.0
 40
0.0
 40
0.499999999999998
 40
0.499999999999998
 40
0.749999999999999
 40
0.749999999999999
 40
1.0
 40
1.0
 40
1.0
 40
1.0
 10
20.58147137871393
 20
5.899752503167469
 30
0.0
 10
20.74757779822181
 20
6.026936267101516
 30
0.0
 10
20.9317788326847
 20
6.105384077079028
 30
0.0
 10
21.20648504249393
 20
6.144317131560978
 30
0.0
 10
21.2952302364889
 20
6.143949219370911
 30
0.0
 10
21.46775213718666
 20
6.117266408500235
 30
0.0
 10
21.55085583052133
 20
6.090671104238758
 30
0.0
 10
21.62719688413299
 20
6.051493429294769
 30
0.0
  0
SPLINE
  5
152
330
1F
100
AcDbEntity
  8
외형선
  6
Continuous
 62
     1
370
    15
100
AcDbSpline
210
0.0
220
0.0
230
1.0
 70
     8
 71
     3
 72
     8
 73
     4
 74
     0
 42
0.000000001
 43
0.00000001
 40
0.0
 40
0.0
 40
0.0
 40
0.0
 40
1.0
 40
1.0
 40
1.0
 40
1.0
 10
21.62719688413302
 20
6.051493429294772
 30
0.0
 10
21.70498806768717
 20
6.011571558183388
 30
0.0
 10
21.80982204008594
 20
6.01975287490825
 30
0.0
 10
21.89405850997838
 20
6.082787504657902
 30
0.0
  0
SPLINE
  5
153
330
1F
100
AcDbEntity
  8
외형선
  6
Continuous
 62
     1
370
    15
100
AcDbSpline
210
0.0
220
0.0
230
1.0
 70
     8
 71
     3
 72
     8
 73
     4
 74
     0
 42
0.000000001
 43
0.00000001
 40
0.0
 40
0.0
 40
0.0
 40
0.0
 40
1.0
 40
1.0
 40
1.0
 40
1.0
 10
21.89405850997665
 20
6.082787504656569
 30
0.0
 10
22.023828631971
 20
6.179895225373322
 30
0.0
 10
22.16720219759268
 20
6.244562593478822
 30
0.0
 10
22.31182468915549
 20
6.274825482191614
 30
0.0
  0
SPLINE
  5
154
330
1F
100
AcDbEntity
  8
외형선
  6
Continuous
 62
     1
370
    15
100
AcDbSpline
210
0.0
220
0.0
230
1.0
 70
     8
 71
     3
 72
     8
 73
     4
 74
     0
 42
0.000000001
 43
0.00000001
 40
0.0
 40
0.0
 40
0.0
 40
0.0
 40
1.0
 40
1.0
 40
1.0
 40
1.0
 10
22.31182463877658
 20
6.274825483767793
 30
0.0
 10
22.46007684841329
 20
6.270185953505525
 30
0.0
 10
22.60220861715641
 20
6.228561959925094
 30
0.0
 10
22.72631638657327
 20
6.153235977211225
 30
0.0
  0
SPLINE
  5
155
330
1F
100
AcDbEntity
  8
외형선
  6
Continuous
 62
     1
370
    15
100
AcDbSpline
210
0.0
220
0.0
230
1.0
 70
     8
 71
     3
 72
     8
 73
     4
 74
     0
 42
0.000000001
 43
0.00000001
 40
0.0
 40
0.0
 40
0.0
 40
0.0
 40
1.0
 40
1.0
 40
1.0
 40
1.0
 10
22.72631638657327
 20
6.153235977211225
 30
0.0
 10
22.8036568109141
 20
6.106294971870841
 30
0.0
 10
22.90835669419328
 20
6.107699958348983
 30
0.0
 10
22.99309534648602
 20
6.167019299712958
 30
0.0
  0
SPLINE
  5
156
330
1F
100
AcDbEntity
  8
외형선
  6
Continuous
 62
     1
370
    15
100
AcDbSpline
210
0.0
220
0.0
230
1.0
 70
     8
 71
     3
 72
    12
 73
     8
 74
     0
 42
0.000000001
 43
0.00000001
 40
0.0
 40
0.0
 40
0.0
 40
0.0
 40
0.5
 40
0.5
 40
0.75
 40
0.75
 40
1.0
 40
1.0
 40
1.0
 40
1.0
 10
22.99309534648602
 20
6.167019299712961
 30
0.0
 10
23.15912829635792
 20
6.283246841273293
 30
0.0
 10
23.34337620256269
 20
6.341786565651512
 30
0.0
 10
23.61807212586517
 20
6.346204233779981
 30
0.0
 10
23.70681034238217
 20
6.333835844622028
 30
0.0
 10
23.8793150811114
 20
6.282385909561838
 30
0.0
 10
23.96240873438001
 20
6.243099492364212
 30
0.0
 10
24.0387459872768
 20
6.191361117377427
 30
0.0
  0
SPLINE
  5
157
330
1F
100
AcDbEntity
  8
외형선
  6
Continuous
 62
     1
370
    15
100
AcDbSpline
210
0.0
220
0.0
230
1.0
 70
     8
 71
     3
 72
     8
 73
     4
 74
     0
 42
0.000000001
 43
0.00000001
 40
0.0
 40
0.0
 40
0.0
 40
0.0
 40
1.0
 40
1.0
 40
1.0
 40
1.0
 10
24.03874598727682
 20
6.191361117377418
 30
0.0
 10
24.11657277971507
 20
6.138613191320495
 30
0.0
 10
24.22143740138258
 20
6.134051757957371
 30
0.0
 10
24.30570768291073
 20
6.190067705317042
 30
0.0
  0
SPLINE
  5
158
330
1F
100
AcDbEntity
  8
외형선
  6
Continuous
 62
     1
370
    15
100
AcDbSpline
210
0.0
220
0.0
230
1.0
 70
     8
 71
     3
 72
     8
 73
     4
 74
     0
 42
0.000000001
 43
0.00000001
 40
0.0
 40
0.0
 40
0.0
 40
0.0
 40
1.0
 40
1.0
 40
1.0
 40
1.0
 10
24.3057076829107
 20
6.190067705317032
 30
0.0
 10
24.43555730428681
 20
6.276381046435377
 30
0.0
 10
24.57900851767631
 20
6.325246012256726
 30
0.0
 10
24.7236927064354
 20
6.338010620026564
 30
0.0
  0
SPLINE
  5
159
330
1F
100
AcDbEntity
  8
외형선
  6
Continuous
 62
     1
370
    15
100
AcDbSpline
210
0.0
220
0.0
230
1.0
 70
     8
 71
     3
 72
     8
 73
     4
 74
     0
 42
0.000000001
 43
0.00000001
 40
0.0
 40
0.0
 40
0.0
 40
0.0
 40
1.0
 40
1.0
 40
1.0
 40
1.0
 10
24.72369265602115
 20
6.338010628218169
 30
0.0
 10
24.87207587976307
 20
6.313900584191993
 30
0.0
 10
25.0143316146435
 20
6.252319141994237
 30
0.0
 10
25.13858593678699
 20
6.158126901133482
 30
0.0
  0
SPLINE
  5
15A
330
1F
100
AcDbEntity
  8
외형선
  6
Continuous
 62
     1
370
    15
100
AcDbSpline
210
0.0
220
0.0
230
1.0
 70
     8
 71
     3
 72
     8
 73
     4
 74
     0
 42
0.000000001
 43
0.00000001
 40
0.0
 40
0.0
 40
0.0
 40
0.0
 40
1.0
 40
1.0
 40
1.0
 40
1.0
 10
25.13858593678697
 20
6.1581269011335
 30
0.0
 10
25.21603231898614
 20
6.099417890774297
 30
0.0
 10
25.32080094019112
 20
6.087972903904202
 30
0.0
 10
25.40566600476087
 20
6.138872653706029
 30
0.0
  0
SPLINE
  5
15B
330
1F
100
AcDbEntity
  8
외형선
  6
Continuous
 62
     1
370
    15
100
AcDbSpline
210
0.0
220
0.0
230
1.0
 70
     8
 71
     3
 72
    12
 73
     8
 74
     0
 42
0.000000001
 43
0.00000001
 40
0.0
 40
0.0
 40
0.0
 40
0.0
 40
0.5000000000000001
 40
0.5000000000000001
 40
0.75
 40
0.75
 40
1.0
 40
1.0
 40
1.0
 40
1.0
 10
25.40566600476089
 20
6.138872653706044
 30
0.0
 10
25.57193275163307
 20
6.238594911139828
 30
0.0
 10
25.75644025805271
 20
6.274391423670026
 30
0.0
 10
26.03147180608641
 20
6.244090466118031
 30
0.0
 10
26.12032160677244
 20
6.220323319363414
 30
0.0
 10
26.29304540324872
 20
6.146561697049917
 30
0.0
 10
26.3762556736747
 20
6.096442356538734
 30
0.0
 10
26.45270029296871
 20
6.034562154179921
 30
0.0
  0
SPLINE
  5
15C
330
1F
100
AcDbEntity
  8
외형선
  6
Continuous
 62
     1
370
    15
100
AcDbSpline
210
0.0
220
0.0
230
1.0
 70
     8
 71
     3
 72
     8
 73
     4
 74
     0
 42
0.000000001
 43
0.00000001
 40
0.0
 40
0.0
 40
0.0
 40
0.0
 40
1.0
 40
1.0
 40
1.0
 40
1.0
 10
26.4527002929687
 20
6.034562154179919
 30
0.0
 10
26.53059735429409
 20
5.971506232618822
 30
0.0
 10
26.63551281596683
 20
5.954370822075355
 30
0.0
 10
26.71983991541527
 20
6.000675581984174
 30
0.0
  0
SPLINE
  5
15D
330
1F
100
AcDbEntity
  8
외형선
  6
Continuous
 62
     1
370
    15
100
AcDbSpline
210
0.0
220
0.0
230
1.0
 70
     8
 71
     3
 72
     8
 73
     4
 74
     0
 42
0.000000001
 43
0.00000001
 40
0.0
 40
0.0
 40
0.0
 40
0.0
 40
1.0
 40
1.0
 40
1.0
 40
1.0
 10
26.71983991541535
 20
6.000675581984076
 30
0.0
 10
26.84973245101962
 20
6.072000727926986
 30
0.0
 10
26.99321078104264
 20
6.102699423835481
 30
0.0
 10
27.1379135772131
 20
6.097316149842159
 30
0.0
  0
SPLINE
  5
15E
330
1F
100
AcDbEntity
  8
외형선
  6
Continuous
 62
     1
370
    15
100
AcDbSpline
210
0.0
220
0.0
230
1.0
 70
     8
 71
     3
 72
     8
 73
     4
 74
     0
 42
0.000000001
 43
0.00000001
 40
0.0
 40
0.0
 40
0.0
 40
0.0
 40
1.0
 40
1.0
 40
1.0
 40
1.0
 10
27.13791352679923
 20
6.097316164272181
 30
0.0
 10
27.28625743791604
 20
6.054855633997441
 30
0.0
 10
27.42847257901199
 20
5.976243422219821
 30
0.0
 10
27.55266097054264
 20
5.867636824713377
 30
0.0
  0
SPLINE
  5
15F
330
1F
100
AcDbEntity
  8
외형선
  6
Continuous
 62
     1
370
    15
100
AcDbSpline
210
0.0
220
0.0
230
1.0
 70
     8
 71
     3
 72
     8
 73
     4
 74
     0
 42
0.000000001
 43
0.00000001
 40
0.0
 40
0.0
 40
0.0
 40
0.0
 40
1.0
 40
1.0
 40
1.0
 40
1.0
 10
27.5526609705426
 20
5.867636824713414
 30
0.0
 10
27.63002221927914
 20
5.799982014947628
 30
0.0
 10
27.73472955640894
 20
5.776230935065178
 30
0.0
 10
27.81953475882574
 20
5.816260549595489
 30
0.0
  0
SPLINE
  5
160
330
1F
100
AcDbEntity
  8
외형선
  6
Continuous
 62
     1
370
    15
100
AcDbSpline
210
0.0
220
0.0
230
1.0
 70
     8
 71
     3
 72
    12
 73
     8
 74
     0
 42
0.000000001
 43
0.00000001
 40
0.0
 40
0.0
 40
0.0
 40
0.0
 40
0.5000000000000002
 40
0.5000000000000002
 40
0.7500000000000001
 40
0.7500000000000001
 40
1.0
 40
1.0
 40
1.0
 40
1.0
 10
27.81953475882566
 20
5.816260549595443
 30
0.0
 10
27.98557992586667
 20
5.894636920877551
 30
0.0
 10
28.16986834064927
 20
5.906143853336023
 30
0.0
 10
28.44457800280298
 20
5.842688487348607
 30
0.0
 10
28.53331491249621
 20
5.808680807892472
 30
0.0
 10
28.70580557874512
 20
5.716187130804929
 30
0.0
 10
28.78888318410949
 20
5.657673388088093
 30
0.0
 10
28.86519705572631
 20
5.58868690847105
 30
0.0
  0
SPLINE
  5
161
330
1F
100
AcDbEntity
  8
외형선
  6
Continuous
 62
     1
370
    15
100
AcDbSpline
210
0.0
220
0.0
230
1.0
 70
     8
 71
     3
 72
     8
 73
     4
 74
     0
 42
0.000000001
 43
0.00000001
 40
0.0
 40
0.0
 40
0.0
 40
0.0
 40
1.0
 40
1.0
 40
1.0
 40
1.0
 10
28.86519705572577
 20
5.588686908471531
 30
0.0
 10
28.94298851318691
 20
5.518364715653572
 30
0.0
 10
29.04781697941365
 20
5.489554451079113
 30
0.0
 10
29.13204417783394
 20
5.523918066169702
 30
0.0
  0
SPLINE
  5
162
330
1F
100
AcDbEntity
  8
외형선
  6
Continuous
 62
     1
370
    15
100
AcDbSpline
210
0.0
220
0.0
230
1.0
 70
     8
 71
     3
 72
     8
 73
     4
 74
     0
 42
0.000000001
 43
0.00000001
 40
0.0
 40
0.0
 40
0.0
 40
0.0
 40
1.0
 40
1.0
 40
1.0
 40
1.0
 10
29.13204417783394
 20
5.523918066169696
 30
0.0
 10
29.26182624935504
 20
5.576867484351167
 30
0.0
 10
29.40519712717237
 20
5.587963003163394
 30
0.0
 10
29.54978749124471
 20
5.564712560496245
 30
0.0
  0
SPLINE
  5
163
330
1F
100
AcDbEntity
  8
외형선
  6
Continuous
 62
     1
370
    15
100
AcDbSpline
210
0.0
220
0.0
230
1.0
 70
     8
 71
     3
 72
     8
 73
     4
 74
     0
 42
0.000000001
 43
0.00000001
 40
0.0
 40
0.0
 40
0.0
 40
0.0
 40
1.0
 40
1.0
 40
1.0
 40
1.0
 10
29.54978744086257
 20
5.564712580467034
 30
0.0
 10
29.69804611807771
 20
5.505943654567072
 30
0.0
 10
29.84014519305778
 20
5.414045056543038
 30
0.0
 10
29.96425693057123
 20
5.296284018087007
 30
0.0
  0
SPLINE
  5
164
330
1F
100
AcDbEntity
  8
외형선
  6
Continuous
 62
     1
370
    15
100
AcDbSpline
210
0.0
220
0.0
230
1.0
 70
     8
 71
     3
 72
     8
 73
     4
 74
     0
 42
0.000000001
 43
0.00000001
 40
0.0
 40
0.0
 40
0.0
 40
0.0
 40
1.0
 40
1.0
 40
1.0
 40
1.0
 10
29.96425693057122
 20
5.296284018087009
 30
0.0
 10
30.04156854825432
 20
5.222928374491336
 30
0.0
 10
30.14627493218526
 20
5.188085742915537
 30
0.0
 10
30.23105182964984
 20
5.215347412036434
 30
0.0
  0
SPLINE
  5
165
330
1F
100
AcDbEntity
  8
외형선
  6
Continuous
 62
     1
370
    15
100
AcDbSpline
210
0.0
220
0.0
230
1.0
 70
     8
 71
     3
 72
    12
 73
     8
 74
     0
 42
0.000000001
 43
0.00000001
 40
0.0
 40
0.0
 40
0.0
 40
0.0
 40
0.4999999999999996
 40
0.4999999999999996
 40
0.7499999999999998
 40
0.7499999999999998
 40
1.0
 40
1.0
 40
1.0
 40
1.0
 10
30.23105182964978
 20
5.215347412036413
 30
0.0
 10
30.39712405514433
 20
5.268751183547338
 30
0.0
 10
30.58146463323342
 20
5.255352844135153
 30
0.0
 10
30.85620896285513
 20
5.161733411697023
 30
0.0
 10
30.94495426631795
 20
5.119103735732299
 30
0.0
 10
31.11745954349637
 20
5.012295656542978
 30
0.0
 10
31.20054595049377
 20
4.948180192269679
 30
0.0
 10
31.27687587296883
 20
4.875373752632044
 30
0.0
  0
SPLINE
  5
166
330
1F
100
AcDbEntity
  8
외형선
  6
Continuous
 62
     1
370
    15
100
AcDbSpline
210
0.0
220
0.0
230
1.0
 70
     8
 71
     3
 72
     8
 73
     4
 74
     0
 42
0.000000001
 43
0.00000001
 40
0.0
 40
0.0
 40
0.0
 40
0.0
 40
1.0
 40
1.0
 40
1.0
 40
1.0
 10
31.27687587296883
 20
4.875373752632037
 30
0.0
 10
31.35472436433151
 20
4.801118843109096
 30
0.0
 10
31.45959905016739
 20
4.761952772323726
 30
0.0
 10
31.54388166779312
 20
4.782719339182321
 30
0.0
  0
SPLINE
  5
167
330
1F
100
AcDbEntity
  8
외형선
  6
Continuous
 62
     1
370
    15
100
AcDbSpline
210
0.0
220
0.0
230
1.0
 70
     8
 71
     3
 72
     8
 73
     4
 74
     0
 42
0.000000001
 43
0.00000001
 40
0.0
 40
0.0
 40
0.0
 40
0.0
 40
1.0
 40
1.0
 40
1.0
 40
1.0
 10
31.54388166779312
 20
4.782719339182339
 30
0.0
 10
31.67377388335209
 20
4.814723748333396
 30
0.0
 10
31.81724949067595
 20
4.805583209918937
 30
0.0
 10
31.96192549340645
 20
4.765495954488087
 30
0.0
  0
SPLINE
  5
168
330
1F
100
AcDbEntity
  8
외형선
  6
Continuous
 62
     1
370
    15
100
AcDbSpline
210
0.0
220
0.0
230
1.0
 70
     8
 71
     3
 72
     8
 73
     4
 74
     0
 42
0.000000001
 43
0.00000001
 40
0.0
 40
0.0
 40
0.0
 40
0.0
 40
1.0
 40
1.0
 40
1.0
 40
1.0
 10
31.96192544293493
 20
4.765495979093485
 30
0.0
 10
32.11033358515035
 20
4.69313748302014
 30
0.0
 10
32.252566230197
 20
4.592252547843075
 30
0.0
 10
32.37690562794528
 20
4.470904874360487
 30
0.0
  0
SPLINE
  5
169
330
1F
100
AcDbEntity
  8
외형선
  6
Continuous
 62
     1
370
    15
100
AcDbSpline
210
0.0
220
0.0
230
1.0
 70
     8
 71
     3
 72
     8
 73
     4
 74
     0
 42
0.000000001
 43
0.00000001
 40
0.0
 40
0.0
 40
0.0
 40
0.0
 40
1.0
 40
1.0
 40
1.0
 40
1.0
 10
32.37690562794528
 20
4.47090487436049
 30
0.0
 10
32.45435181355775
 20
4.395322117693143
 30
0.0
 10
32.55917581893193
 20
4.351000959764977
 30
0.0
 10
32.64407720077992
 20
4.364160811553266
 30
0.0
  0
SPLINE
  5
16A
330
1F
100
AcDbEntity
  8
외형선
  6
Continuous
 62
     1
370
    15
100
AcDbSpline
210
0.0
220
0.0
230
1.0
 70
     8
 71
     3
 72
    12
 73
     8
 74
     0
 42
0.000000001
 43
0.00000001
 40
0.0
 40
0.0
 40
0.0
 40
0.0
 40
0.5000000000000032
 40
0.5000000000000032
 40
0.7500000000000016
 40
0.7500000000000016
 40
1.0
 40
1.0
 40
1.0
 40
1.0
 10
32.64407720077991
 20
4.364160811553266
 30
0.0
 10
32.81037166839854
 20
4.389936723551872
 30
0.0
 10
32.99490544941942
 20
4.352186760608695
 30
0.0
 10
33.26992937313889
 20
4.232819606098461
 30
0.0
 10
33.35876611241094
 20
4.18358740410897
 30
0.0
 10
33.53144806754823
 20
4.067507250562637
 30
0.0
 10
33.61462605261647
 20
4.000806120713954
 30
0.0
 10
33.69103550784303
 20
3.927588941613906
 30
0.0
  0
SPLINE
  5
16B
330
1F
100
AcDbEntity
  8
외형선
  6
Continuous
 62
     1
370
    15
100
AcDbSpline
210
0.0
220
0.0
230
1.0
 70
     8
 71
     3
 72
     8
 73
     4
 74
     0
 42
0.000000001
 43
0.00000001
 40
0.0
 40
0.0
 40
0.0
 40
0.0
 40
1.0
 40
1.0
 40
1.0
 40
1.0
 10
33.691035507843
 20
3.927588941613911
 30
0.0
 10
33.76891251961817
 20
3.852965518347611
 30
0.0
 10
33.8738015575658
 20
3.805295267995312
 30
0.0
 10
33.95810245139906
 20
3.811452130735346
 30
0.0
  0
SPLINE
  5
16C
330
1F
100
AcDbEntity
  8
외형선
  6
Continuous
 62
     1
370
    15
100
AcDbSpline
210
0.0
220
0.0
230
1.0
 70
     8
 71
     3
 72
     8
 73
     4
 74
     0
 42
0.000000001
 43
0.00000001
 40
0.0
 40
0.0
 40
0.0
 40
0.0
 40
1.0
 40
1.0
 40
1.0
 40
1.0
 10
33.95810245139906
 20
3.81145213073534
 30
0.0
 10
34.08798262443863
 20
3.820937847454285
 30
0.0
 10
34.23142970457686
 20
3.792028346331449
 30
0.0
 10
34.37607084552676
 20
3.73703282385695
 30
0.0
  0
SPLINE
  5
16D
330
1F
100
AcDbEntity
  8
외형선
  6
Continuous
 62
     1
370
    15
100
AcDbSpline
210
0.0
220
0.0
230
1.0
 70
     8
 71
     3
 72
     8
 73
     4
 74
     0
 42
0.000000001
 43
0.00000001
 40
0.0
 40
0.0
 40
0.0
 40
0.0
 40
1.0
 40
1.0
 40
1.0
 40
1.0
 10
34.37607079512729
 20
3.737032851867556
 30
0.0
 10
34.52434446186531
 20
3.654626603525196
 30
0.0
 10
34.66648417074377
 20
3.549734552454026
 30
0.0
 10
34.79071687441054
 20
3.430747846187161
 30
0.0
  0
SPLINE
  5
16E
330
1F
100
AcDbEntity
  8
외형선
  6
Continuous
 62
     1
370
    15
100
AcDbSpline
210
0.0
220
0.0
230
1.0
 70
     8
 71
     3
 72
     8
 73
     4
 74
     0
 42
0.000000001
 43
0.00000001
 40
0.0
 40
0.0
 40
0.0
 40
0.0
 40
1.0
 40
1.0
 40
1.0
 40
1.0
 10
34.79071687441054
 20
3.43074784618716
 30
0.0
 10
34.86805498193528
 20
3.356675509260781
 30
0.0
 10
34.97278885042567
 20
3.305100205200423
 30
0.0
 10
35.05757412698898
 20
3.303596679718778
 30
0.0
  0
SPLINE
  5
16F
330
1F
100
AcDbEntity
  8
외형선
  6
Continuous
 62
     1
370
    15
100
AcDbSpline
210
0.0
220
0.0
230
1.0
 70
     8
 71
     3
 72
    12
 73
     8
 74
     0
 42
0.000000001
 43
0.00000001
 40
0.0
 40
0.0
 40
0.0
 40
0.0
 40
0.4999999999999962
 40
0.4999999999999962
 40
0.7499999999999981
 40
0.7499999999999981
 40
1.0
 40
1.0
 40
1.0
 40
1.0
 10
35.05757412698898
 20
3.303596679718784
 30
0.0
 10
35.22363988037405
 20
3.300651780533889
 30
0.0
 10
35.40796797307454
 20
3.240599605668692
 30
0.0
 10
35.68266656009028
 20
3.101431208315274
 30
0.0
 10
35.77139077874332
 20
3.048026784576074
 30
0.0
 10
35.94384282259482
 20
2.92839549031519
 30
0.0
 10
36.02689276675819
 20
2.862404954788987
 30
0.0
 10
36.10317940939953
 20
2.792407451537601
 30
0.0
  0
SPLINE
  5
170
330
1F
100
AcDbEntity
  8
외형선
  6
Continuous
 62
     1
370
    15
100
AcDbSpline
210
0.0
220
0.0
230
1.0
 70
     8
 71
     3
 72
     8
 73
     4
 74
     0
 42
0.000000001
 43
0.00000001
 40
0.0
 40
0.0
 40
0.0
 40
0.0
 40
1.0
 40
1.0
 40
1.0
 40
1.0
 10
36.10317940939953
 20
2.792407451537605
 30
0.0
 10
36.18097206204901
 20
2.72102809509683
 30
0.0
 10
36.28578953296753
 20
2.667204693520535
 30
0.0
 10
36.37001198914354
 20
2.658486936651652
 30
0.0
  0
SPLINE
  5
171
330
1F
100
AcDbEntity
  8
외형선
  6
Continuous
 62
     1
370
    15
100
AcDbSpline
210
0.0
220
0.0
230
1.0
 70
     8
 71
     3
 72
     8
 73
     4
 74
     0
 42
0.000000001
 43
0.00000001
 40
0.0
 40
0.0
 40
0.0
 40
0.0
 40
1.0
 40
1.0
 40
1.0
 40
1.0
 10
36.37001198914352
 20
2.658486936651672
 30
0.0
 10
36.49981202892096
 20
2.645051503398733
 30
0.0
 10
36.64317846775989
 20
2.59778213978327
 30
0.0
 10
36.78773089459055
 20
2.530533731810876
 30
0.0
  0
SPLINE
  5
172
330
1F
100
AcDbEntity
  8
외형선
  6
Continuous
 62
     1
370
    15
100
AcDbSpline
210
0.0
220
0.0
230
1.0
 70
     8
 71
     3
 72
     8
 73
     4
 74
     0
 42
0.000000001
 43
0.00000001
 40
0.0
 40
0.0
 40
0.0
 40
0.0
 40
1.0
 40
1.0
 40
1.0
 40
1.0
 10
36.78773084419107
 20
2.53053376192032
 30
0.0
 10
36.93590539680238
 20
2.442008861128103
 30
0.0
 10
37.07803129597319
 20
2.338198369644946
 30
0.0
 10
37.20222329585888
 20
2.227290689745378
 30
0.0
  0
SPLINE
  5
173
330
1F
100
AcDbEntity
  8
외형선
  6
Continuous
 62
     1
370
    15
100
AcDbSpline
210
0.0
220
0.0
230
1.0
 70
     8
 71
     3
 72
     8
 73
     4
 74
     0
 42
0.000000001
 43
0.00000001
 40
0.0
 40
0.0
 40
0.0
 40
0.0
 40
1.0
 40
1.0
 40
1.0
 40
1.0
 10
37.20222329585887
 20
2.227290689745379
 30
0.0
 10
37.27955374168423
 20
2.158231971470585
 30
0.0
 10
37.38428711440218
 20
2.101848963694152
 30
0.0
 10
37.4690627042356
 20
2.085738191856503
 30
0.0
  0
SPLINE
  5
174
330
1F
100
AcDbEntity
  8
외형선
  6
Continuous
 62
     1
370
    15
100
AcDbSpline
210
0.0
220
0.0
230
1.0
 70
     8
 71
     3
 72
    12
 73
     8
 74
     0
 42
0.000000001
 43
0.00000001
 40
0.0
 40
0.0
 40
0.0
 40
0.0
 40
0.4999999999999998
 40
0.4999999999999998
 40
0.7499999999999999
 40
0.7499999999999999
 40
1.0
 40
1.0
 40
1.0
 40
1.0
 10
37.4690627042356
 20
2.085738191856506
 30
0.0
 10
37.63519930654166
 20
2.054165555217886
 30
0.0
 10
37.8196173067645
 20
1.974513862904678
 30
0.0
 10
38.09440301472864
 20
1.822018938559406
 30
0.0
 10
38.18315328426175
 20
1.766936503367053
 30
0.0
 10
38.35565600695658
 20
1.649352504582028
 30
0.0
 10
38.43873569709012
 20
1.587153982523116
 30
0.0
 10
38.51505999153752
 20
1.523639373205752
 30
0.0
  0
SPLINE
  5
175
330
1F
100
AcDbEntity
  8
외형선
  6
Continuous
 62
     1
370
    15
100
AcDbSpline
210
0.0
220
0.0
230
1.0
 70
     8
 71
     3
 72
     8
 73
     4
 74
     0
 42
0.000000001
 43
0.00000001
 40
0.0
 40
0.0
 40
0.0
 40
0.0
 40
1.0
 40
1.0
 40
1.0
 40
1.0
 10
38.51505999153752
 20
1.52363937320575
 30
0.0
 10
38.59293118311706
 20
1.458837486125605
 30
0.0
 10
38.69781047058437
 20
1.4013452761749
 30
0.0
 10
38.78211001109435
 20
1.378100867264499
 30
0.0
  0
SPLINE
  5
176
330
1F
100
AcDbEntity
  8
외형선
  6
Continuous
 62
     1
370
    15
100
AcDbSpline
210
0.0
220
0.0
230
1.0
 70
     8
 71
     3
 72
     8
 73
     4
 74
     0
 42
0.000000001
 43
0.00000001
 40
0.0
 40
0.0
 40
0.0
 40
0.0
 40
1.0
 40
1.0
 40
1.0
 40
1.0
 10
38.78211001109434
 20
1.378100867264498
 30
0.0
 10
38.9120491275083
 20
1.342271989228979
 30
0.0
 10
39.05551455291881
 20
1.278704194050937
 30
0.0
 10
39.20021269774072
 20
1.20236494355614
 30
0.0
  0
SPLINE
  5
177
330
1F
100
AcDbEntity
  8
외형선
  6
Continuous
 62
     1
370
    15
100
AcDbSpline
210
0.0
220
0.0
230
1.0
 70
     8
 71
     3
 72
     8
 73
     4
 74
     0
 42
0.000000001
 43
0.00000001
 40
0.0
 40
0.0
 40
0.0
 40
0.0
 40
1.0
 40
1.0
 40
1.0
 40
1.0
 10
39.20021264730118
 20
1.202364974319914
 30
0.0
 10
39.34856115426254
 20
1.111884930212219
 30
0.0
 10
39.49092271736698
 20
1.014030270992786
 30
0.0
 10
39.61533987962616
 20
0.9163743155965285
 30
0.0
  0
SPLINE
  5
178
330
1F
100
AcDbEntity
  8
외형선
  6
Continuous
 62
     1
370
    15
100
AcDbSpline
210
0.0
220
0.0
230
1.0
 70
     8
 71
     3
 72
     8
 73
     4
 74
     0
 42
0.000000001
 43
0.00000001
 40
0.0
 40
0.0
 40
0.0
 40
0.0
 40
1.0
 40
1.0
 40
1.0
 40
1.0
 10
39.61533987962616
 20
0.9163743155965369
 30
0.0
 10
39.69281831593335
 20
0.8555609150752664
 30
0.0
 10
39.79767615995441
 20
0.7969852908663484
 30
0.0
 10
39.88258415033885
 20
0.7669624035028405
 30
0.0
  0
SPLINE
  5
179
330
1F
100
AcDbEntity
  8
외형선
  6
Continuous
 62
     1
370
    15
100
AcDbSpline
210
0.0
220
0.0
230
1.0
 70
     8
 71
     3
 72
     8
 73
     4
 74
     0
 42
0.000000001
 43
0.00000001
 40
0.0
 40
0.0
 40
0.0
 40
0.0
 40
1.0
 40
1.0
 40
1.0
 40
1.0
 10
40.92928139590078
 20
0.180606816326614
 30
0.0
 10
41.00713925713384
 20
0.1255424596130987
 30
0.0
 10
41.11199629010375
 20
0.0671700776255443
 30
0.0
 10
41.19627544508123
 20
0.0305369274849325
 30
0.0
  0
SPLINE
  5
17A
330
1F
100
AcDbEntity
  8
외형선
  6
Continuous
 62
     1
370
    15
100
AcDbSpline
210
0.0
220
0.0
230
1.0
 70
     8
 71
     3
 72
     8
 73
     4
 74
     0
 42
0.000000001
 43
0.00000001
 40
0.0
 40
0.0
 40
0.0
 40
0.0
 40
1.0
 40
1.0
 40
1.0
 40
1.0
 10
41.19627544508119
 20
0.0305369274849441
 30
0.0
 10
41.32613254788208
 20
-0.025907334978308
 30
0.0
 10
41.4694774659841
 20
-0.1025795895344401
 30
0.0
 10
41.61414602794232
 20
-0.1841792035714323
 30
0.0
  0
SPLINE
  5
17B
330
1F
100
AcDbEntity
  8
외형선
  6
Continuous
 62
     1
370
    15
100
AcDbSpline
210
0.0
220
0.0
230
1.0
 70
     8
 71
     3
 72
     8
 73
     4
 74
     0
 42
0.000000001
 43
0.00000001
 40
0.0
 40
0.0
 40
0.0
 40
0.0
 40
1.0
 40
1.0
 40
1.0
 40
1.0
 10
41.61414597755147
 20
-0.1841791737043113
 30
0.0
 10
41.76234163282874
 20
-0.2720161150756756
 30
0.0
 10
41.90454074400805
 20
-0.3590616303466125
 30
0.0
 10
42.02875297970074
 20
-0.4385563890168546
 30
0.0
  0
SPLINE
  5
17C
330
1F
100
AcDbEntity
  8
외형선
  6
Continuous
 62
     1
370
    15
100
AcDbSpline
210
0.0
220
0.0
230
1.0
 70
     8
 71
     3
 72
     8
 73
     4
 74
     0
 42
0.000000001
 43
0.00000001
 40
0.0
 40
0.0
 40
0.0
 40
0.0
 40
1.0
 40
1.0
 40
1.0
 40
1.0
 10
42.02875297970073
 20
-0.4385563890168525
 30
0.0
 10
42.10608921161431
 20
-0.4880509098919625
 30
0.0
 10
42.21082879132069
 20
-0.5458708564738519
 30
0.0
 10
42.2955955846945
 20
-0.5882348401684787
 30
0.0
  0
SPLINE
  5
17D
330
1F
100
AcDbEntity
  8
외형선
  6
Continuous
 62
     1
370
    15
100
AcDbSpline
210
0.0
220
0.0
230
1.0
 70
    24
 71
     3
 72
    13
 73
     9
 74
     0
 42
0.000000001
 43
0.00000001
 40
0.0
 40
0.0
 40
0.0
 40
0.0
 40
0.2060980795576283
 40
0.4561589109993272
 40
0.6322376928850162
 40
0.8129500221566875
 40
0.906044714344996
 40
1.0
 40
1.0
 40
1.0
 40
1.0
 10
43.05196495181708
 20
-1.014460119458959
 30
0.0
 10
43.04727563005458
 20
-1.019149441221495
 30
0.0
 10
43.03689670797488
 20
-1.029528363301288
 30
0.0
 10
42.93278409593641
 20
-1.133640975339641
 30
0.0
 10
42.7689687261356
 20
-1.297456345140726
 30
0.0
 10
42.60032178012221
 20
-1.466103291153266
 30
0.0
 10
42.43627955998304
 20
-1.630145511294217
 30
0.0
 10
42.34143924122977
 20
-1.724985830046749
 30
0.0
 10
42.29380090765275
 20
-1.772624163623404
 30
0.0
  0
SPLINE
  5
17E
330
1F
100
AcDbEntity
  8
외형선
  6
Continuous
 62
     1
370
    15
100
AcDbSpline
210
0.0
220
0.0
230
1.0
 70
     8
 71
     3
 72
     8
 73
     4
 74
     0
 42
0.000000001
 43
0.00000001
 40
0.0
 40
0.0
 40
0.0
 40
0.0
 40
1.0
 40
1.0
 40
1.0
 40
1.0
 10
43.75
 20
-2.855763510562045
 30
0.0
 10
43.26362109378203
 20
-2.50755105744845
 30
0.0
 10
42.77824197751171
 20
-2.146234861330134
 30
0.0
 10
42.2938009076527
 20
-1.772624163623387
 30
0.0
  0
LINE
  5
17F
330
1F
100
AcDbEntity
  8
외형선
  6
Continuous
 62
     1
370
    15
100
AcDbLine
 10
43.75
 20
-5.988672307168022
 30
0.0
 11
43.75
 21
-2.855763510562044
 31
0.0
  0
SPLINE
  5
180
330
1F
100
AcDbEntity
  8
외형선
  6
Continuous
 62
     1
370
    15
100
AcDbSpline
210
0.0
220
0.0
230
1.0
 70
     8
 71
     3
 72
     8
 73
     4
 74
     0
 42
0.000000001
 43
0.00000001
 40
0.0000085119559816
 40
0.0000085119559816
 40
0.0000085119559816
 40
0.0000085119559816
 40
0.0002938981015471
 40
0.0002938981015471
 40
0.0002938981015471
 40
0.0002938981015471
 10
43.55575700160169
 20
-6.159560503182776
 30
0.0
 10
43.6200867307556
 20
-6.103732295437478
 30
0.0
 10
43.68486011296283
 20
-6.046733200905352
 30
0.0
 10
43.74999999999963
 20
-5.988672307166556
 30
0.0
  0
SPLINE
  5
181
330
1F
100
AcDbEntity
  8
외형선
  6
Continuous
 62
     1
370
    15
100
AcDbSpline
210
0.0
220
0.0
230
1.0
 70
     8
 71
     3
 72
     8
 73
     4
 74
     0
 42
0.000000001
 43
0.00000001
 40
0.0
 40
0.0
 40
0.0
 40
0.0
 40
1.0
 40
1.0
 40
1.0
 40
1.0
 10
43.55575700160171
 20
-6.159560503182783
 30
0.0
 10
43.42202979541472
 20
-6.118452898058304
 30
0.0
 10
43.29365084507397
 20
-6.047293097988431
 30
0.0
 10
43.18047119304141
 20
-5.950756936550142
 30
0.0
  0
SPLINE
  5
182
330
1F
100
AcDbEntity
  8
외형선
  6
Continuous
 62
     1
370
    15
100
AcDbSpline
210
0.0
220
0.0
230
1.0
 70
     8
 71
     3
 72
     8
 73
     4
 74
     0
 42
0.000000001
 43
0.00000001
 40
0.0
 40
0.0
 40
0.0
 40
0.0
 40
1.0
 40
1.0
 40
1.0
 40
1.0
 10
43.18047119304142
 20
-5.950756936550139
 30
0.0
 10
43.10311275333255
 20
-5.884774344359443
 30
0.0
 10
42.99835198969722
 20
-5.863630293960174
 30
0.0
 10
42.91355945189959
 20
-5.906164621038453
 30
0.0
  0
SPLINE
  5
183
330
1F
100
AcDbEntity
  8
외형선
  6
Continuous
 62
     1
370
    15
100
AcDbSpline
210
0.0
220
0.0
230
1.0
 70
     8
 71
     3
 72
    12
 73
     8
 74
     0
 42
0.000000001
 43
0.00000001
 40
0.0
 40
0.0
 40
0.0
 40
0.0
 40
0.4999999999999998
 40
0.4999999999999998
 40
0.7499999999999999
 40
0.7499999999999999
 40
1.0
 40
1.0
 40
1.0
 40
1.0
 10
42.9135594518996
 20
-5.906164621038455
 30
0.0
 10
42.74733465952205
 20
-5.989547662413893
 30
0.0
 10
42.56282542999527
 20
-6.006283775128329
 30
0.0
 10
42.28795860449611
 20
-5.949561975383945
 30
0.0
 10
42.19918672085055
 20
-5.917564899754832
 30
0.0
 10
42.0266473683001
 20
-5.828643396550233
 30
0.0
 10
41.94354889459391
 20
-5.771668512433397
 30
0.0
 10
41.86720306518943
 20
-5.70392638076428
 30
0.0
  0
SPLINE
  5
184
330
1F
100
AcDbEntity
  8
외형선
  6
Continuous
 62
     1
370
    15
100
AcDbSpline
210
0.0
220
0.0
230
1.0
 70
     8
 71
     3
 72
     8
 73
     4
 74
     0
 42
0.000000001
 43
0.00000001
 40
0.0
 40
0.0
 40
0.0
 40
0.0
 40
1.0
 40
1.0
 40
1.0
 40
1.0
 10
41.86720306518943
 20
-5.703926380764276
 30
0.0
 10
41.78928737172334
 20
-5.634791298900061
 30
0.0
 10
41.68438325111463
 20
-5.608265688770894
 30
0.0
 10
41.60004188761258
 20
-5.645226248997393
 30
0.0
  0
SPLINE
  5
185
330
1F
100
AcDbEntity
  8
외형선
  6
Continuous
 62
     1
370
    15
100
AcDbSpline
210
0.0
220
0.0
230
1.0
 70
     8
 71
     3
 72
     8
 73
     4
 74
     0
 42
0.000000001
 43
0.00000001
 40
0.0
 40
0.0
 40
0.0
 40
0.0
 40
1.0
 40
1.0
 40
1.0
 40
1.0
 10
41.60004188761258
 20
-5.645226248997392
 30
0.0
 10
41.47006322041468
 20
-5.702186252460135
 30
0.0
 10
41.32657809114083
 20
-5.717229708547626
 30
0.0
 10
41.1817530558129
 20
-5.69757906783853
 30
0.0
  0
SPLINE
  5
186
330
1F
100
AcDbEntity
  8
외형선
  6
Continuous
 62
     1
370
    15
100
AcDbSpline
210
0.0
220
0.0
230
1.0
 70
     8
 71
     3
 72
     8
 73
     4
 74
     0
 42
0.000000001
 43
0.00000001
 40
0.0
 40
0.0
 40
0.0
 40
0.0
 40
1.0
 40
1.0
 40
1.0
 40
1.0
 10
41.18175305581297
 20
-5.697579067838576
 30
0.0
 10
41.03337006806316
 20
-5.641979211769681
 30
0.0
 10
40.89098190752141
 20
-5.552596172921336
 30
0.0
 10
40.76658058482088
 20
-5.436311549180416
 30
0.0
  0
SPLINE
  5
187
330
1F
100
AcDbEntity
  8
외형선
  6
Continuous
 62
     1
370
    15
100
AcDbSpline
210
0.0
220
0.0
230
1.0
 70
     8
 71
     3
 72
     8
 73
     4
 74
     0
 42
0.000000001
 43
0.00000001
 40
0.0
 40
0.0
 40
0.0
 40
0.0
 40
1.0
 40
1.0
 40
1.0
 40
1.0
 10
40.76658058482087
 20
-5.436311549180414
 30
0.0
 10
40.68914208832798
 20
-5.363925611215627
 30
0.0
 10
40.58431992334781
 20
-5.331363823203614
 30
0.0
 10
40.49946319206548
 20
-5.361493334607261
 30
0.0
  0
SPLINE
  5
188
330
1F
100
AcDbEntity
  8
외형선
  6
Continuous
 62
     1
370
    15
100
AcDbSpline
210
0.0
220
0.0
230
1.0
 70
     8
 71
     3
 72
    12
 73
     8
 74
     0
 42
0.000000001
 43
0.00000001
 40
0.0
 40
0.0
 40
0.0
 40
0.0
 40
0.4999999999999968
 40
0.4999999999999968
 40
0.7499999999999983
 40
0.7499999999999983
 40
1.0
 40
1.0
 40
1.0
 40
1.0
 10
40.49946319206549
 20
-5.361493334607269
 30
0.0
 10
40.33322214828677
 20
-5.42051942892642
 30
0.0
 10
40.14873395692584
 20
-5.412378066293143
 30
0.0
 10
39.87388692304987
 20
-5.324736208361797
 30
0.0
 10
39.7851241231969
 20
-5.283734812816572
 30
0.0
 10
39.61261100001541
 20
-5.179451778169915
 30
0.0
 10
39.5295336961362
 20
-5.116213372024141
 30
0.0
 10
39.4532223686392
 20
-5.043862874643111
 30
0.0
  0
SPLINE
  5
189
330
1F
100
AcDbEntity
  8
외형선
  6
Continuous
 62
     1
370
    15
100
AcDbSpline
210
0.0
220
0.0
230
1.0
 70
     8
 71
     3
 72
     8
 73
     4
 74
     0
 42
0.000000001
 43
0.00000001
 40
0.0
 40
0.0
 40
0.0
 40
0.0
 40
1.0
 40
1.0
 40
1.0
 40
1.0
 10
39.4532223686392
 20
-5.043862874643112
 30
0.0
 10
39.37539490728078
 20
-4.970074936156443
 30
0.0
 10
39.27057605117215
 20
-4.932836632341338
 30
0.0
 10
39.18632566057357
 20
-4.956454876022002
 30
0.0
  0
SPLINE
  5
18A
330
1F
100
AcDbEntity
  8
외형선
  6
Continuous
 62
     1
370
    15
100
AcDbSpline
210
0.0
220
0.0
230
1.0
 70
     8
 71
     3
 72
     8
 73
     4
 74
     0
 42
0.000000001
 43
0.00000001
 40
0.0
 40
0.0
 40
0.0
 40
0.0
 40
1.0
 40
1.0
 40
1.0
 40
1.0
 10
39.18632566057356
 20
-4.956454876021999
 30
0.0
 10
39.05655230707043
 20
-4.992834751112415
 30
0.0
 10
38.91321973962366
 20
-4.987830442712002
 30
0.0
 10
38.76854407022358
 20
-4.951174887648176
 30
0.0
  0
SPLINE
  5
18B
330
1F
100
AcDbEntity
  8
외형선
  6
Continuous
 62
     1
370
    15
100
AcDbSpline
210
0.0
220
0.0
230
1.0
 70
     8
 71
     3
 72
     8
 73
     4
 74
     0
 42
0.000000001
 43
0.00000001
 40
0.0
 40
0.0
 40
0.0
 40
0.0
 40
1.0
 40
1.0
 40
1.0
 40
1.0
 10
38.76854407026547
 20
-4.951174887665447
 30
0.0
 10
38.62035344387179
 20
-4.881508318695664
 30
0.0
 10
38.47818110167202
 20
-4.782390789160721
 30
0.0
 10
38.35400570678088
 20
-4.661523519232081
 30
0.0
  0
SPLINE
  5
18C
330
1F
100
AcDbEntity
  8
외형선
  6
Continuous
 62
     1
370
    15
100
AcDbSpline
210
0.0
220
0.0
230
1.0
 70
     8
 71
     3
 72
     8
 73
     4
 74
     0
 42
0.000000001
 43
0.00000001
 40
0.0
 40
0.0
 40
0.0
 40
0.0
 40
1.0
 40
1.0
 40
1.0
 40
1.0
 10
38.35400570678089
 20
-4.661523519232077
 30
0.0
 10
38.27667708026011
 20
-4.586254984889249
 30
0.0
 10
38.17194199219875
 20
-4.543937307220189
 30
0.0
 10
38.08719051472478
 20
-4.560241558741717
 30
0.0
  0
SPLINE
  5
18D
330
1F
100
AcDbEntity
  8
외형선
  6
Continuous
 62
     1
370
    15
100
AcDbSpline
210
0.0
220
0.0
230
1.0
 70
     8
 71
     3
 72
    12
 73
     8
 74
     0
 42
0.000000001
 43
0.00000001
 40
0.0
 40
0.0
 40
0.0
 40
0.0
 40
0.5000000000000004
 40
0.5000000000000004
 40
0.7500000000000002
 40
0.7500000000000002
 40
1.0
 40
1.0
 40
1.0
 40
1.0
 10
38.08719051472477
 20
-4.560241558741723
 30
0.0
 10
37.92106922695043
 20
-4.592199506139004
 30
0.0
 10
37.73667669030523
 20
-4.559611254971567
 30
0.0
 10
37.46200955812322
 20
-4.445254787856282
 30
0.0
 10
37.37331022419174
 20
-4.397213209064001
 30
0.0
 10
37.20092696596146
 20
-4.282592974795166
 30
0.0
 10
37.11792016658731
 20
-4.216150677659698
 30
0.0
 10
37.04167233001429
 20
-4.142713018585515
 30
0.0
  0
SPLINE
  5
18E
330
1F
100
AcDbEntity
  8
외형선
  6
Continuous
 62
     1
370
    15
100
AcDbSpline
210
0.0
220
0.0
230
1.0
 70
     8
 71
     3
 72
     8
 73
     4
 74
     0
 42
0.000000001
 43
0.00000001
 40
0.0
 40
0.0
 40
0.0
 40
0.0
 40
1.0
 40
1.0
 40
1.0
 40
1.0
 10
37.04167233001428
 20
-4.142713018585512
 30
0.0
 10
36.96386989917679
 20
-4.067778061112797
 30
0.0
 10
36.85908881343713
 20
-4.021569462287604
 30
0.0
 10
36.77484102720778
 20
-4.030743068796268
 30
0.0
  0
SPLINE
  5
18F
330
1F
100
AcDbEntity
  8
외형선
  6
Continuous
 62
     1
370
    15
100
AcDbSpline
210
0.0
220
0.0
230
1.0
 70
     8
 71
     3
 72
     8
 73
     4
 74
     0
 42
0.000000001
 43
0.00000001
 40
0.0
 40
0.0
 40
0.0
 40
0.0
 40
1.0
 40
1.0
 40
1.0
 40
1.0
 10
36.77484102720778
 20
-4.030743068796274
 30
0.0
 10
36.64508427348946
 20
-4.044872073886253
 30
0.0
 10
36.50172482169199
 20
-4.020026732816349
 30
0.0
 10
36.35704468162253
 20
-3.968099186889657
 30
0.0
  0
SPLINE
  5
190
330
1F
100
AcDbEntity
  8
외형선
  6
Continuous
 62
     1
370
    15
100
AcDbSpline
210
0.0
220
0.0
230
1.0
 70
     8
 71
     3
 72
     8
 73
     4
 74
     0
 42
0.000000001
 43
0.00000001
 40
0.0
 40
0.0
 40
0.0
 40
0.0
 40
1.0
 40
1.0
 40
1.0
 40
1.0
 10
36.35704468162249
 20
-3.968099186889631
 30
0.0
 10
36.20880071353073
 20
-3.887657129148109
 30
0.0
 10
36.06658747631132
 20
-3.783502650753523
 30
0.0
 10
35.94236059866417
 20
-3.663745907753063
 30
0.0
  0
SPLINE
  5
191
330
1F
100
AcDbEntity
  8
외형선
  6
Continuous
 62
     1
370
    15
100
AcDbSpline
210
0.0
220
0.0
230
1.0
 70
     8
 71
     3
 72
     8
 73
     4
 74
     0
 42
0.000000001
 43
0.00000001
 40
0.0
 40
0.0
 40
0.0
 40
0.0
 40
1.0
 40
1.0
 40
1.0
 40
1.0
 10
35.94236059866418
 20
-3.663745907753061
 30
0.0
 10
35.86497829234941
 20
-3.589148098119279
 30
0.0
 10
35.76019683327763
 20
-3.539033925991987
 30
0.0
 10
35.67539489489377
 20
-3.540706996035007
 30
0.0
  0
SPLINE
  5
192
330
1F
100
AcDbEntity
  8
외형선
  6
Continuous
 62
     1
370
    15
100
AcDbSpline
210
0.0
220
0.0
230
1.0
 70
     8
 71
     3
 72
    12
 73
     8
 74
     0
 42
0.000000001
 43
0.00000001
 40
0.0
 40
0.0
 40
0.0
 40
0.0
 40
0.4999999999999962
 40
0.4999999999999962
 40
0.7499999999999981
 40
0.7499999999999981
 40
1.0
 40
1.0
 40
1.0
 40
1.0
 10
35.67539489489377
 20
-3.540706996035007
 30
0.0
 10
35.50908136126529
 20
-3.543988220452349
 30
0.0
 10
35.32448994613623
 20
-3.488337868184446
 30
0.0
 10
35.0495832561862
 20
-3.352533713065482
 30
0.0
 10
34.96080672321136
 20
-3.299683931162038
 30
0.0
 10
34.78826889299222
 20
-3.180077956339153
 30
0.0
 10
34.7051730018939
 20
-3.11353328921852
 30
0.0
 10
34.62882672010203
 20
-3.042437020820587
 30
0.0
  0
SPLINE
  5
193
330
1F
100
AcDbEntity
  8
외형선
  6
Continuous
 62
     1
370
    15
100
AcDbSpline
210
0.0
220
0.0
230
1.0
 70
     8
 71
     3
 72
     8
 73
     4
 74
     0
 42
0.000000001
 43
0.00000001
 40
0.0
 40
0.0
 40
0.0
 40
0.0
 40
1.0
 40
1.0
 40
1.0
 40
1.0
 10
34.62882672010204
 20
-3.042437020820591
 30
0.0
 10
34.55089662522602
 20
-2.969865851517469
 30
0.0
 10
34.44600155875814
 20
-2.916842894407413
 30
0.0
 10
34.36160112175298
 20
-2.911096314680233
 30
0.0
  0
SPLINE
  5
194
330
1F
100
AcDbEntity
  8
외형선
  6
Continuous
 62
     1
370
    15
100
AcDbSpline
210
0.0
220
0.0
230
1.0
 70
     8
 71
     3
 72
     8
 73
     4
 74
     0
 42
0.000000001
 43
0.00000001
 40
0.0
 40
0.0
 40
0.0
 40
0.0
 40
1.0
 40
1.0
 40
1.0
 40
1.0
 10
34.36160112175298
 20
-2.911096314680238
 30
0.0
 10
34.23166163966928
 20
-2.90224911412064
 30
0.0
 10
34.0881300485118
 20
-2.858628338476233
 30
0.0
 10
33.94329109761009
 20
-2.793834473164304
 30
0.0
  0
SPLINE
  5
195
330
1F
100
AcDbEntity
  8
외형선
  6
Continuous
 62
     1
370
    15
100
AcDbSpline
210
0.0
220
0.0
230
1.0
 70
     8
 71
     3
 72
     8
 73
     4
 74
     0
 42
0.000000001
 43
0.00000001
 40
0.0
 40
0.0
 40
0.0
 40
0.0
 40
1.0
 40
1.0
 40
1.0
 40
1.0
 10
33.94329109761912
 20
-2.793834473169314
 30
0.0
 10
33.79491849701436
 20
-2.706431449445165
 30
0.0
 10
33.65257298178332
 20
-2.602198489034997
 30
0.0
 10
33.52823127871926
 20
-2.489228033765658
 30
0.0
  0
SPLINE
  5
196
330
1F
100
AcDbEntity
  8
외형선
  6
Continuous
 62
     1
370
    15
100
AcDbSpline
210
0.0
220
0.0
230
1.0
 70
     8
 71
     3
 72
     8
 73
     4
 74
     0
 42
0.000000001
 43
0.00000001
 40
0.0
 40
0.0
 40
0.0
 40
0.0
 40
1.0
 40
1.0
 40
1.0
 40
1.0
 10
33.52823127871926
 20
-2.489228033765643
 30
0.0
 10
33.45081091768777
 20
-2.418887888687057
 30
0.0
 10
33.34600464760543
 20
-2.363363554436855
 30
0.0
 10
33.2611772199112
 20
-2.350314297384981
 30
0.0
  0
SPLINE
  5
197
330
1F
100
AcDbEntity
  8
외형선
  6
Continuous
 62
     1
370
    15
100
AcDbSpline
210
0.0
220
0.0
230
1.0
 70
     8
 71
     3
 72
    12
 73
     8
 74
     0
 42
0.000000001
 43
0.00000001
 40
0.0
 40
0.0
 40
0.0
 40
0.0
 40
0.5000000000000034
 40
0.5000000000000034
 40
0.7500000000000016
 40
0.7500000000000016
 40
1.0
 40
1.0
 40
1.0
 40
1.0
 10
33.26117721991119
 20
-2.350314297384974
 30
0.0
 10
33.09492439216478
 20
-2.324739127374122
 30
0.0
 10
32.91043087601673
 20
-2.248847768802673
 30
0.0
 10
32.63565535199172
 20
-2.098290065910703
 30
0.0
 10
32.54692522453037
 20
-2.043225376050718
 30
0.0
 10
32.37448874506367
 20
-1.924463432375989
 30
0.0
 10
32.29146015355546
 20
-1.861048021422237
 30
0.0
 10
32.21518451463754
 20
-1.795754997219448
 30
0.0
  0
SPLINE
  5
198
330
1F
100
AcDbEntity
  8
외형선
  6
Continuous
 62
     1
370
    15
100
AcDbSpline
210
0.0
220
0.0
230
1.0
 70
     8
 71
     3
 72
     8
 73
     4
 74
     0
 42
0.000000001
 43
0.00000001
 40
0.0
 40
0.0
 40
0.0
 40
0.0
 40
1.0
 40
1.0
 40
1.0
 40
1.0
 10
32.21518451463752
 20
-1.795754997219433
 30
0.0
 10
32.1374048874138
 20
-1.7291745377851
 30
0.0
 10
32.03259604962928
 20
-1.672095777489593
 30
0.0
 10
31.94832444718656
 20
-1.651811162316319
 30
0.0
  0
SPLINE
  5
199
330
1F
100
AcDbEntity
  8
외형선
  6
Continuous
 62
     1
370
    15
100
AcDbSpline
210
0.0
220
0.0
230
1.0
 70
     8
 71
     3
 72
     8
 73
     4
 74
     0
 42
0.000000001
 43
0.00000001
 40
0.0
 40
0.0
 40
0.0
 40
0.0
 40
1.0
 40
1.0
 40
1.0
 40
1.0
 10
31.94832444718657
 20
-1.651811162316331
 30
0.0
 10
31.81857328511052
 20
-1.620579379429722
 30
0.0
 10
31.67521598561529
 20
-1.560478320836598
 30
0.0
 10
31.5305473660006
 20
-1.486097836488718
 30
0.0
  0
SPLINE
  5
19A
330
1F
100
AcDbEntity
  8
외형선
  6
Continuous
 62
     1
370
    15
100
AcDbSpline
210
0.0
220
0.0
230
1.0
 70
     8
 71
     3
 72
     8
 73
     4
 74
     0
 42
0.000000001
 43
0.00000001
 40
0.0
 40
0.0
 40
0.0
 40
0.0
 40
1.0
 40
1.0
 40
1.0
 40
1.0
 10
31.53054736600058
 20
-1.486097836488716
 30
0.0
 10
31.38233609586759
 20
-1.396069849199971
 30
0.0
 10
31.24017316415426
 20
-1.296892196237944
 30
0.0
 10
31.11601997517641
 20
-1.196295871424611
 30
0.0
  0
SPLINE
  5
19B
330
1F
100
AcDbEntity
  8
외형선
  6
Continuous
 62
     1
370
    15
100
AcDbSpline
210
0.0
220
0.0
230
1.0
 70
     8
 71
     3
 72
     8
 73
     4
 74
     0
 42
0.000000001
 43
0.00000001
 40
0.0
 40
0.0
 40
0.0
 40
0.0
 40
1.0
 40
1.0
 40
1.0
 40
1.0
 10
31.1160199751764
 20
-1.196295871424591
 30
0.0
 10
31.03868800465561
 20
-1.133636892714405
 30
0.0
 10
30.93395328929229
 20
-1.075433248695487
 30
0.0
 10
30.84920952170291
 20
-1.048339087340379
 30
0.0
  0
SPLINE
  5
19C
330
1F
100
AcDbEntity
  8
외형선
  6
Continuous
 62
     1
370
    15
100
AcDbSpline
210
0.0
220
0.0
230
1.0
 70
     8
 71
     3
 72
     8
 73
     4
 74
     0
 42
0.000000001
 43
0.00000001
 40
0.0
 40
0.0
 40
0.0
 40
0.0
 40
1.0
 40
1.0
 40
1.0
 40
1.0
 10
29.8037046119074
 20
-0.4640949690138767
 30
0.0
 10
29.72592197216904
 20
-0.4066676429610465
 30
0.0
 10
29.62110367426454
 20
-0.3482018986300759
 30
0.0
 10
29.53683278858389
 20
-0.3143083635818838
 30
0.0
  0
SPLINE
  5
19D
330
1F
100
AcDbEntity
  8
외형선
  6
Continuous
 62
     1
370
    15
100
AcDbSpline
210
0.0
220
0.0
230
1.0
 70
     8
 71
     3
 72
     8
 73
     4
 74
     0
 42
0.000000001
 43
0.00000001
 40
0.0
 40
0.0
 40
0.0
 40
0.0
 40
1.0
 40
1.0
 40
1.0
 40
1.0
 10
29.53683278858387
 20
-0.3143083635818714
 30
0.0
 10
29.40705022688899
 20
-0.2621101486477362
 30
0.0
 10
29.26365507714173
 20
-0.1882872902966262
 30
0.0
 10
29.11895866259314
 20
-0.1077767408376928
 30
0.0
  0
SPLINE
  5
19E
330
1F
100
AcDbEntity
  8
외형선
  6
Continuous
 62
     1
370
    15
100
AcDbSpline
210
0.0
220
0.0
230
1.0
 70
     8
 71
     3
 72
     8
 73
     4
 74
     0
 42
0.000000001
 43
0.00000001
 40
0.0
 40
0.0
 40
0.0
 40
0.0
 40
1.0
 40
1.0
 40
1.0
 40
1.0
 10
28.70418390337666
 20
0.1537796195080782
 30
0.0
 10
28.62677669855243
 20
0.2058479197305451
 30
0.0
 10
28.52198005096329
 20
0.2640322266650302
 30
0.0
 10
28.43716424254147
 20
0.3039512865316418
 30
0.0
  0
SPLINE
  5
19F
330
1F
100
AcDbEntity
  8
외형선
  6
Continuous
 62
     1
370
    15
100
AcDbSpline
210
0.0
220
0.0
230
1.0
 70
     8
 71
     3
 72
     8
 73
     4
 74
     0
 42
0.000000001
 43
0.00000001
 40
0.0
 40
0.0
 40
0.0
 40
0.0
 40
1.0
 40
1.0
 40
1.0
 40
1.0
 10
27.39036784718872
 20
0.8908240507896261
 30
0.0
 10
27.3124486287418
 20
0.9364124161249573
 30
0.0
 10
27.20751916768675
 20
0.9935277954051104
 30
0.0
 10
27.12313175518291
 20
1.039481911185342
 30
0.0
  0
SPLINE
  5
1A0
330
1F
100
AcDbEntity
  8
외형선
  6
Continuous
 62
     1
370
    15
100
AcDbSpline
210
0.0
220
0.0
230
1.0
 70
     8
 71
     3
 72
     8
 73
     4
 74
     0
 42
0.000000001
 43
0.00000001
 40
0.0
 40
0.0
 40
0.0
 40
0.0
 40
1.0
 40
1.0
 40
1.0
 40
1.0
 10
26.28995953784456
 20
1.497848920098965
 30
0.0
 10
26.21255624664323
 20
1.536777732828508
 30
0.0
 10
26.10777135934423
 20
1.592116569685001
 30
0.0
 10
26.0229687480407
 20
1.642918611730906
 30
0.0
  0
SPLINE
  5
1A1
330
1F
100
AcDbEntity
  8
외형선
  6
Continuous
 62
     1
370
    15
100
AcDbSpline
210
0.0
220
0.0
230
1.0
 70
     8
 71
     3
 72
     8
 73
     4
 74
     0
 42
0.000000001
 43
0.00000001
 40
0.0
 40
0.0
 40
0.0
 40
0.0
 40
1.0
 40
1.0
 40
1.0
 40
1.0
 10
24.97718507947528
 20
2.202938682903171
 30
0.0
 10
24.89940398606296
 20
2.234361081642813
 30
0.0
 10
24.79458265867418
 20
2.287280639091014
 30
0.0
 10
24.71032973467534
 20
2.34295834372702
 30
0.0
  0
SPLINE
  5
1A2
330
1F
100
AcDbEntity
  8
외형선
  6
Continuous
 62
     1
370
    15
100
AcDbSpline
210
0.0
220
0.0
230
1.0
 70
     8
 71
     3
 72
     8
 73
     4
 74
     0
 42
0.000000001
 43
0.00000001
 40
0.0
 40
0.0
 40
0.0
 40
0.0
 40
1.0
 40
1.0
 40
1.0
 40
1.0
 10
24.71032973467532
 20
2.342958343727031
 30
0.0
 10
24.58057761405807
 20
2.428703738720363
 30
0.0
 10
24.43721349687739
 20
2.518843543027282
 30
0.0
 10
24.2925579216997
 20
2.599906305917008
 30
0.0
  0
SPLINE
  5
1A3
330
1F
100
AcDbEntity
  8
외형선
  6
Continuous
 62
     1
370
    15
100
AcDbSpline
210
0.0
220
0.0
230
1.0
 70
     8
 71
     3
 72
     8
 73
     4
 74
     0
 42
0.000000001
 43
0.00000001
 40
0.0
 40
0.0
 40
0.0
 40
0.0
 40
1.0
 40
1.0
 40
1.0
 40
1.0
 10
24.29255792170013
 20
2.599906305916517
 30
0.0
 10
24.1443283751426
 20
2.672723529324943
 30
0.0
 10
24.00217522151823
 20
2.730576071911146
 30
0.0
 10
23.87804005170066
 20
2.768951356568877
 30
0.0
  0
SPLINE
  5
1A4
330
1F
100
AcDbEntity
  8
외형선
  6
Continuous
 62
     1
370
    15
100
AcDbSpline
210
0.0
220
0.0
230
1.0
 70
     8
 71
     3
 72
     8
 73
     4
 74
     0
 42
0.000000001
 43
0.00000001
 40
0.0
 40
0.0
 40
0.0
 40
0.0
 40
1.0
 40
1.0
 40
1.0
 40
1.0
 10
23.87804005170068
 20
2.768951356568878
 30
0.0
 10
23.80070366843866
 20
2.792859212226875
 30
0.0
 10
23.69597481741192
 20
2.842690644958096
 30
0.0
 10
23.61123432539011
 20
2.901905448938797
 30
0.0
  0
SPLINE
  5
1A5
330
1F
100
AcDbEntity
  8
외형선
  6
Continuous
 62
     1
370
    15
100
AcDbSpline
210
0.0
220
0.0
230
1.0
 70
     8
 71
     3
 72
     8
 73
     4
 74
     0
 42
0.000000001
 43
0.00000001
 40
0.0
 40
0.0
 40
0.0
 40
0.0
 40
1.0
 40
1.0
 40
1.0
 40
1.0
 10
22.5656839933287
 20
3.40863875231081
 30
0.0
 10
22.4878784259309
 20
3.424495676607828
 30
0.0
 10
22.38303205246287
 20
3.470771738828316
 30
0.0
 10
22.2987580900767
 20
3.533592709870292
 30
0.0
  0
SPLINE
  5
1A6
330
1F
100
AcDbEntity
  8
외형선
  6
Continuous
 62
     1
370
    15
100
AcDbSpline
210
0.0
220
0.0
230
1.0
 70
     8
 71
     3
 72
     8
 73
     4
 74
     0
 42
0.000000001
 43
0.00000001
 40
0.0
 40
0.0
 40
0.0
 40
0.0
 40
1.0
 40
1.0
 40
1.0
 40
1.0
 10
22.29875809007669
 20
3.533592709870308
 30
0.0
 10
22.16894419737424
 20
3.630360852288216
 30
0.0
 10
22.02551532857697
 20
3.722377353316223
 30
0.0
 10
21.8808079265614
 20
3.797898455359491
 30
0.0
  0
SPLINE
  5
1A7
330
1F
100
AcDbEntity
  8
외형선
  6
Continuous
 62
     1
370
    15
100
AcDbSpline
210
0.0
220
0.0
230
1.0
 70
     8
 71
     3
 72
     8
 73
     4
 74
     0
 42
0.000000001
 43
0.00000001
 40
0.0
 40
0.0
 40
0.0
 40
0.0
 40
1.0
 40
1.0
 40
1.0
 40
1.0
 10
21.88080792656105
 20
3.797898455359469
 30
0.0
 10
21.7324626413007
 20
3.85751013121549
 30
0.0
 10
21.59020224261219
 20
3.895042558031339
 30
0.0
 10
21.46594111584595
 20
3.907588035818799
 30
0.0
  0
SPLINE
  5
1A8
330
1F
100
AcDbEntity
  8
외형선
  6
Continuous
 62
     1
370
    15
100
AcDbSpline
210
0.0
220
0.0
230
1.0
 70
     8
 71
     3
 72
     8
 73
     4
 74
     0
 42
0.000000001
 43
0.00000001
 40
0.0
 40
0.0
 40
0.0
 40
0.0
 40
1.0
 40
1.0
 40
1.0
 40
1.0
 10
21.46594111584595
 20
3.907588035818782
 30
0.0
 10
21.38850787931851
 20
3.915405741759058
 30
0.0
 10
21.28370151408796
 20
3.957398769638192
 30
0.0
 10
21.19886736028833
 20
4.022273465434654
 30
0.0
  0
SPLINE
  5
1A9
330
1F
100
AcDbEntity
  8
외형선
  6
Continuous
 62
     1
370
    15
100
AcDbSpline
210
0.0
220
0.0
230
1.0
 70
     8
 71
     3
 72
    12
 73
     8
 74
     0
 42
0.000000001
 43
0.00000001
 40
0.0
 40
0.0
 40
0.0
 40
0.0
 40
0.5000000000000024
 40
0.5000000000000024
 40
0.7500000000000012
 40
0.7500000000000012
 40
1.0
 40
1.0
 40
1.0
 40
1.0
 10
21.19886736028833
 20
4.022273465434624
 30
0.0
 10
21.0324649903346
 20
4.149525316806395
 30
0.0
 10
20.84791454524096
 20
4.259895653643376
 30
0.0
 10
20.57305993520491
 20
4.374647654582879
 30
0.0
 10
20.48425033424375
 20
4.40353093856838
 30
0.0
 10
20.31157415480601
 20
4.442644098521451
 30
0.0
 10
20.2283666065081
 20
4.45246983394221
 30
0.0
 10
20.15191298694038
 20
4.452034098646634
 30
0.0
  0
SPLINE
  5
1AA
330
1F
100
AcDbEntity
  8
외형선
  6
Continuous
 62
     1
370
    15
100
AcDbSpline
210
0.0
220
0.0
230
1.0
 70
     8
 71
     3
 72
     8
 73
     4
 74
     0
 42
0.000000001
 43
0.00000001
 40
0.0
 40
0.0
 40
0.0
 40
0.0
 40
1.0
 40
1.0
 40
1.0
 40
1.0
 10
20.1519129869404
 20
4.452034098646625
 30
0.0
 10
20.07401286765862
 20
4.451590119255034
 30
0.0
 10
19.96909203376607
 20
4.48900662268653
 30
0.0
 10
19.88474031388238
 20
4.556004358878051
 30
0.0
  0
SPLINE
  5
1AB
330
1F
100
AcDbEntity
  8
외형선
  6
Continuous
 62
     1
370
    15
100
AcDbSpline
210
0.0
220
0.0
230
1.0
 70
     8
 71
     3
 72
     8
 73
     4
 74
     0
 42
0.000000001
 43
0.00000001
 40
0.0
 40
0.0
 40
0.0
 40
0.0
 40
1.0
 40
1.0
 40
1.0
 40
1.0
 10
19.88474031388238
 20
4.55600435887805
 30
0.0
 10
19.754853547078
 20
4.659169052486286
 30
0.0
 10
19.61136429712944
 20
4.748653603180538
 30
0.0
 10
19.46660486852286
 20
4.81500735203144
 30
0.0
  0
SPLINE
  5
1AC
330
1F
100
AcDbEntity
  8
외형선
  6
Continuous
 62
     1
370
    15
100
AcDbSpline
210
0.0
220
0.0
230
1.0
 70
     8
 71
     3
 72
     8
 73
     4
 74
     0
 42
0.000000001
 43
0.00000001
 40
0.0
 40
0.0
 40
0.0
 40
0.0
 40
1.0
 40
1.0
 40
1.0
 40
1.0
 10
19.46660486852285
 20
4.815007352031447
 30
0.0
 10
19.31826001004618
 20
4.85849132528794
 30
0.0
 10
19.17600063231569
 20
4.873842128947001
 30
0.0
 10
19.0517653195407
 20
4.859843696541519
 30
0.0
  0
SPLINE
  5
1AD
330
1F
100
AcDbEntity
  8
외형선
  6
Continuous
 62
     1
370
    15
100
AcDbSpline
210
0.0
220
0.0
230
1.0
 70
     8
 71
     3
 72
     8
 73
     4
 74
     0
 42
0.000000001
 43
0.00000001
 40
0.0
 40
0.0
 40
0.0
 40
0.0
 40
1.0
 40
1.0
 40
1.0
 40
1.0
 10
19.05176531954069
 20
4.859843696541517
 30
0.0
 10
18.97437803351861
 20
4.851123947959356
 30
0.0
 10
18.8696200799454
 20
4.883200495832433
 30
0.0
 10
18.7848379017383
 20
4.950552917175074
 30
0.0
  0
SPLINE
  5
1AE
330
1F
100
AcDbEntity
  8
외형선
  6
Continuous
 62
     1
370
    15
100
AcDbSpline
210
0.0
220
0.0
230
1.0
 70
     8
 71
     3
 72
    12
 73
     8
 74
     0
 42
0.000000001
 43
0.00000001
 40
0.0
 40
0.0
 40
0.0
 40
0.0
 40
0.4999999999999998
 40
0.4999999999999998
 40
0.7499999999999999
 40
0.7499999999999999
 40
1.0
 40
1.0
 40
1.0
 40
1.0
 10
18.78483790173831
 20
4.95055291717506
 30
0.0
 10
18.61867243433323
 20
5.082557623941682
 30
0.0
 10
18.43444359644451
 20
5.183964310726735
 30
0.0
 10
18.15983252914789
 20
5.271694646156171
 30
0.0
 10
18.07111090198975
 20
5.28956987605884
 30
0.0
 10
17.8986230432077
 20
5.302940627539172
 30
0.0
 10
17.81552836453115
 20
5.298067446847485
 30
0.0
 10
17.73919148515391
 20
5.281588922744083
 30
0.0
  0
SPLINE
  5
1AF
330
1F
100
AcDbEntity
  8
외형선
  6
Continuous
 62
     1
370
    15
100
AcDbSpline
210
0.0
220
0.0
230
1.0
 70
     8
 71
     3
 72
     8
 73
     4
 74
     0
 42
0.000000001
 43
0.00000001
 40
0.0
 40
0.0
 40
0.0
 40
0.0
 40
1.0
 40
1.0
 40
1.0
 40
1.0
 10
17.73919148515392
 20
5.28158892274407
 30
0.0
 10
17.6614080962429
 20
5.264798146654308
 30
0.0
 10
17.55657985511512
 20
5.29155453130635
 30
0.0
 10
17.472340851711
 20
5.359426379656941
 30
0.0
  0
SPLINE
  5
1B0
330
1F
100
AcDbEntity
  8
외형선
  6
Continuous
 62
     1
370
    15
100
AcDbSpline
210
0.0
220
0.0
230
1.0
 70
     8
 71
     3
 72
     8
 73
     4
 74
     0
 42
0.000000001
 43
0.00000001
 40
0.0
 40
0.0
 40
0.0
 40
0.0
 40
1.0
 40
1.0
 40
1.0
 40
1.0
 10
17.472340851711
 20
5.359426379656987
 30
0.0
 10
17.34258209942214
 20
5.463973750846332
 30
0.0
 10
17.19921299830066
 20
5.546594822790446
 30
0.0
 10
17.05457572001741
 20
5.600554414917857
 30
0.0
  0
SPLINE
  5
1B1
330
1F
100
AcDbEntity
  8
외형선
  6
Continuous
 62
     1
370
    15
100
AcDbSpline
210
0.0
220
0.0
230
1.0
 70
     8
 71
     3
 72
     8
 73
     4
 74
     0
 42
0.000000001
 43
0.00000001
 40
0.0
 40
0.0
 40
0.0
 40
0.0
 40
1.0
 40
1.0
 40
1.0
 40
1.0
 10
17.05457572001752
 20
5.600554414917797
 30
0.0
 10
16.90633007633394
 20
5.625811633920417
 30
0.0
 10
16.76418713396581
 20
5.618211957967714
 30
0.0
 10
16.64006594208285
 20
5.57836899413825
 30
0.0
  0
SPLINE
  5
1B2
330
1F
100
AcDbEntity
  8
외형선
  6
Continuous
 62
     1
370
    15
100
AcDbSpline
210
0.0
220
0.0
230
1.0
 70
     8
 71
     3
 72
     8
 73
     4
 74
     0
 42
0.000000001
 43
0.00000001
 40
0.0
 40
0.0
 40
0.0
 40
0.0
 40
1.0
 40
1.0
 40
1.0
 40
1.0
 10
16.64006594208283
 20
5.578368994138263
 30
0.0
 10
16.56272401907179
 20
5.553542198695177
 30
0.0
 10
16.45800656182487
 20
5.574192925556123
 30
0.0
 10
16.37326494407924
 20
5.640790166794877
 30
0.0
  0
SPLINE
  5
1B3
330
1F
100
AcDbEntity
  8
외형선
  6
Continuous
 62
     1
370
    15
100
AcDbSpline
210
0.0
220
0.0
230
1.0
 70
     8
 71
     3
 72
    12
 73
     8
 74
     0
 42
0.000000001
 43
0.00000001
 40
0.0
 40
0.0
 40
0.0
 40
0.0
 40
0.4999999999999989
 40
0.4999999999999989
 40
0.7499999999999994
 40
0.7499999999999994
 40
1.0
 40
1.0
 40
1.0
 40
1.0
 10
16.37326494407925
 20
5.640790166794864
 30
0.0
 10
16.20713587410399
 20
5.771348657938167
 30
0.0
 10
16.022940088726
 20
5.858933672468766
 30
0.0
 10
15.74828517175575
 20
5.915584292963318
 30
0.0
 10
15.65955309479004
 20
5.92164804343632
 30
0.0
 10
15.48704841537631
 20
5.908765074057317
 30
0.0
 10
15.40394623814126
 20
5.889503192698156
 30
0.0
 10
15.32759696551472
 20
5.857852096270831
 30
0.0
  0
SPLINE
  5
1B4
330
1F
100
AcDbEntity
  8
외형선
  6
Continuous
 62
     1
370
    15
100
AcDbSpline
210
0.0
220
0.0
230
1.0
 70
     8
 71
     3
 72
     8
 73
     4
 74
     0
 42
0.000000001
 43
0.00000001
 40
0.0
 40
0.0
 40
0.0
 40
0.0
 40
1.0
 40
1.0
 40
1.0
 40
1.0
 10
15.32759696551476
 20
5.857852096270851
 30
0.0
 10
15.2497677151987
 20
5.82558746529434
 30
0.0
 10
15.14489888143848
 20
5.840440161222337
 30
0.0
 10
15.06061721253386
 20
5.906010798847196
 30
0.0
  0
SPLINE
  5
1B5
330
1F
100
AcDbEntity
  8
외형선
  6
Continuous
 62
     1
370
    15
100
AcDbSpline
210
0.0
220
0.0
230
1.0
 70
     8
 71
     3
 72
     8
 73
     4
 74
     0
 42
0.000000001
 43
0.00000001
 40
0.0
 40
0.0
 40
0.0
 40
0.0
 40
1.0
 40
1.0
 40
1.0
 40
1.0
 10
15.06061721253387
 20
5.906010798847193
 30
0.0
 10
14.93076631227654
 20
6.007034027702224
 30
0.0
 10
14.78730556329924
 20
6.078879651103107
 30
0.0
 10
14.64259252856054
 20
6.117911841538088
 30
0.0
  0
SPLINE
  5
1B6
330
1F
100
AcDbEntity
  8
외형선
  6
Continuous
 62
     1
370
    15
100
AcDbSpline
210
0.0
220
0.0
230
1.0
 70
     8
 71
     3
 72
     8
 73
     4
 74
     0
 42
0.000000001
 43
0.00000001
 40
0.0
 40
0.0
 40
0.0
 40
0.0
 40
1.0
 40
1.0
 40
1.0
 40
1.0
 10
14.64259252856054
 20
6.117911841538094
 30
0.0
 10
14.49419978156537
 20
6.12379106024106
 30
0.0
 10
14.35191642472082
 20
6.093661973619479
 30
0.0
 10
14.22763206891902
 20
6.029916685389078
 30
0.0
  0
SPLINE
  5
1B7
330
1F
100
AcDbEntity
  8
외형선
  6
Continuous
 62
     1
370
    15
100
AcDbSpline
210
0.0
220
0.0
230
1.0
 70
     8
 71
     3
 72
     8
 73
     4
 74
     0
 42
0.000000001
 43
0.00000001
 40
0.0
 40
0.0
 40
0.0
 40
0.0
 40
1.0
 40
1.0
 40
1.0
 40
1.0
 10
14.22763206891901
 20
6.029916685389067
 30
0.0
 10
14.15017154847524
 20
5.990187282840288
 30
0.0
 10
14.04536094868945
 20
5.998407773761491
 30
0.0
 10
13.96050393607954
 20
6.061096402711037
 30
0.0
  0
SPLINE
  5
1B8
330
1F
100
AcDbEntity
  8
외형선
  6
Continuous
 62
     1
370
    15
100
AcDbSpline
210
0.0
220
0.0
230
1.0
 70
     8
 71
     3
 72
    12
 73
     8
 74
     0
 42
0.000000001
 43
0.00000001
 40
0.0
 40
0.0
 40
0.0
 40
0.0
 40
0.5000000000000004
 40
0.5000000000000004
 40
0.7500000000000002
 40
0.7500000000000002
 40
1.0
 40
1.0
 40
1.0
 40
1.0
 10
13.96050393607954
 20
6.061096402711041
 30
0.0
 10
13.79417794838047
 20
6.18397072749392
 30
0.0
 10
13.60977137324251
 20
6.253478635118517
 30
0.0
 10
13.33477306132667
 20
6.276420712817067
 30
0.0
 10
13.2459281533288
 20
6.270413487135866
 30
0.0
 10
13.07320406291969
 20
6.231923605042598
 30
0.0
 10
12.98998751612304
 20
6.199191039191081
 30
0.0
 10
12.91353606629338
 20
6.153841187200862
 30
0.0
  0
SPLINE
  5
1B9
330
1F
100
AcDbEntity
  8
외형선
  6
Continuous
 62
     1
370
    15
100
AcDbSpline
210
0.0
220
0.0
230
1.0
 70
     8
 71
     3
 72
     8
 73
     4
 74
     0
 42
0.000000001
 43
0.00000001
 40
0.0
 40
0.0
 40
0.0
 40
0.0
 40
1.0
 40
1.0
 40
1.0
 40
1.0
 10
12.91353606629337
 20
6.153841187200851
 30
0.0
 10
12.83565411733071
 20
6.107642784606315
 30
0.0
 10
12.73074737206056
 20
6.109844098367046
 30
0.0
 10
12.64642654719746
 20
6.169969758365182
 30
0.0
  0
SPLINE
  5
1BA
330
1F
100
AcDbEntity
  8
외형선
  6
Continuous
 62
     1
370
    15
100
AcDbSpline
210
0.0
220
0.0
230
1.0
 70
     8
 71
     3
 72
     8
 73
     4
 74
     0
 42
0.000000001
 43
0.00000001
 40
0.0
 40
0.0
 40
0.0
 40
0.0
 40
1.0
 40
1.0
 40
1.0
 40
1.0
 10
12.64642654719749
 20
6.169969758365167
 30
0.0
 10
12.51655766050342
 20
6.262573839722078
 30
0.0
 10
12.37309201252029
 20
6.320181689542625
 30
0.0
 10
12.22838018582584
 20
6.342379580150103
 30
0.0
  0
SPLINE
  5
1BB
330
1F
100
AcDbEntity
  8
외형선
  6
Continuous
 62
     1
370
    15
100
AcDbSpline
210
0.0
220
0.0
230
1.0
 70
     8
 71
     3
 72
    12
 73
     8
 74
     0
 42
0.000000001
 43
0.00000001
 40
0.0
 40
0.0
 40
0.0
 40
0.0
 40
0.5000000000000001
 40
0.5000000000000001
 40
0.75
 40
0.75
 40
1.0
 40
1.0
 40
1.0
 40
1.0
 10
41.78459993368518
 20
2.485323984679223
 30
0.0
 10
41.75525901086237
 20
2.060869242688523
 30
0.0
 10
41.72617943764632
 20
1.61789168527753
 30
0.0
 10
41.68441704058573
 20
0.9496521673813779
 30
0.0
 10
41.67091785690675
 20
0.726919069455759
 30
0.0
 10
41.64290968476707
 20
0.2741632357013378
 30
0.0
 10
41.62861436610523
 20
0.0452687016021929
 30
0.0
 10
41.6141460279423
 20
-0.1841792035718696
 30
0.0
  0
SPLINE
  5
1BC
330
1F
100
AcDbEntity
  8
외형선
  6
Continuous
 62
     1
370
    15
100
AcDbSpline
210
0.0
220
0.0
230
1.0
 70
     8
 71
     3
 72
     8
 73
     4
 74
     0
 42
0.000000001
 43
0.00000001
 40
0.0
 40
0.0
 40
0.0
 40
0.0
 40
1.0
 40
1.0
 40
1.0
 40
1.0
 10
42.20237142557451
 20
2.229414166184049
 30
0.0
 10
42.07257569888666
 20
2.313947095113895
 30
0.0
 10
41.92919553746754
 20
2.403777587128149
 30
0.0
 10
41.78459993368492
 20
2.485323984674876
 30
0.0
  0
SPLINE
  5
1BD
330
1F
100
AcDbEntity
  8
외형선
  6
Continuous
 62
     1
370
    15
100
AcDbSpline
210
0.0
220
0.0
230
1.0
 70
     8
 71
     3
 72
    12
 73
     8
 74
     0
 42
0.000000001
 43
0.00000001
 40
0.0
 40
0.0
 40
0.0
 40
0.0
 40
0.5
 40
0.5
 40
0.75
 40
0.75
 40
1.0
 40
1.0
 40
1.0
 40
1.0
 10
24.29255792169969
 20
2.599906305917334
 30
0.0
 10
24.26318515987257
 20
2.17897824738714
 30
0.0
 10
24.23397770230597
 20
1.73811990174995
 30
0.0
 10
24.19190093636284
 20
1.070862398198381
 30
0.0
 10
24.17838885583438
 20
0.848691795545356
 30
0.0
 10
24.15060243940616
 20
0.3979437618487694
 30
0.0
 10
24.13639817670762
 20
0.169714511086739
 30
0.0
 10
24.12199850930839
 20
-0.0594345495989908
 30
0.0
  0
SPLINE
  5
1BE
330
1F
100
AcDbEntity
  8
외형선
  6
Continuous
 62
     1
370
    15
100
AcDbSpline
210
0.0
220
0.0
230
1.0
 70
     8
 71
     3
 72
     8
 73
     4
 74
     0
 42
0.000000001
 43
0.00000001
 40
0.0
 40
0.0
 40
0.0
 40
0.0
 40
1.0
 40
1.0
 40
1.0
 40
1.0
 10
41.78459993368489
 20
2.485323984674891
 30
0.0
 10
41.63634468474968
 20
2.559391901354422
 30
0.0
 10
41.49426093310668
 20
2.619320403762908
 30
0.0
 10
41.37013630066724
 20
2.660205586272058
 30
0.0
  0
LINE
  5
1BF
330
1F
100
AcDbEntity
  8
외형선
  6
Continuous
370
    15
100
AcDbLine
 10
-37.52999999999998
 20
6.351074928723886
 30
0.0
 11
-37.52999999999998
 21
-6.348925071276116
 31
0.0
  0
LINE
  5
1C0
330
1F
100
AcDbEntity
  8
외형선
  6
Continuous
370
    15
100
AcDbLine
 10
-38.79999999999999
 20
5.081074928723884
 30
0.0
 11
-38.79999999999999
 21
-5.078925071276116
 31
0.0
  0
LINE
  5
1C1
330
1F
100
AcDbEntity
  8
외형선
  6
Continuous
370
    15
100
AcDbLine
 10
11.0
 20
6.351074928723891
 30
0.0
 11
11.0
 21
5.881044912270299
 31
0.0
  0
LINE
  5
1C2
330
1F
100
AcDbEntity
  8
외형선
  6
Continuous
370
    15
100
AcDbLine
 10
9.969858431261267
 20
6.079279569503013
 30
0.0
 11
9.969858431261269
 21
0.9689203881698414
 31
0.0
  0
LINE
  5
1C3
330
1F
100
AcDbEntity
  8
외형선
  6
Continuous
370
    15
100
AcDbLine
 10
11.0
 20
0.3785632655217679
 30
0.0
 11
11.0
 21
-2.396518237889983
 31
0.0
  0
SPLINE
  5
1C4
330
1F
100
AcDbEntity
  8
외형선
  6
Continuous
370
    15
100
AcDbSpline
210
0.0
220
0.0
230
1.0
 70
     8
 71
     3
 72
     8
 73
     4
 74
     0
 42
0.000000001
 43
0.00000001
 40
0.0
 40
0.0
 40
0.0
 40
0.0
 40
1.0
 40
1.0
 40
1.0
 40
1.0
 10
11.0
 20
-2.396518237889978
 30
0.0
 10
10.6572924208337
 20
-2.213316330170683
 30
0.0
 10
10.31316118555568
 20
-2.026362463891552
 30
0.0
 10
9.969858431261267
 20
-1.836874982983605
 30
0.0
  0
LINE
  5
1C5
330
1F
100
AcDbEntity
  8
외형선
  6
Continuous
370
    15
100
AcDbLine
 10
9.969858431261267
 20
-1.836839200067597
 30
0.0
 11
9.969858431261269
 21
-6.274733797379064
 31
0.0
  0
SPLINE
  5
1C6
330
1F
100
AcDbEntity
  8
외형선
  6
Continuous
370
    15
100
AcDbSpline
210
0.0
220
0.0
230
1.0
 70
     8
 71
     3
 72
     8
 73
     4
 74
     0
 42
0.000000001
 43
0.00000001
 40
0.0
 40
0.0
 40
0.0
 40
0.0
 40
1.0
 40
1.0
 40
1.0
 40
1.0
 10
11.0
 20
-6.337694869555713
 30
0.0
 10
10.6572924208337
 20
-6.325933485800921
 30
0.0
 10
10.31316118555568
 20
-6.304905563284159
 30
0.0
 10
9.969858431261269
 20
-6.274732816467235
 30
0.0
  0
LINE
  5
1C7
330
1F
100
AcDbEntity
  8
외형선
  6
Continuous
370
    15
100
AcDbLine
 10
11.0
 20
-6.337694869555709
 30
0.0
 11
11.00000000000949
 21
-6.34891420521631
 31
0.0
  0
SPLINE
  5
1C8
330
1F
100
AcDbEntity
  8
외형선
  6
Continuous
370
    15
100
AcDbSpline
210
0.0
220
0.0
230
1.0
 70
     8
 71
     3
 72
     8
 73
     4
 74
     0
 42
0.000000001
 43
0.00000001
 40
0.0
 40
0.0
 40
0.0
 40
0.0
 40
1.0
 40
1.0
 40
1.0
 40
1.0
 10
11.0
 20
-2.396518237889983
 30
0.0
 10
11.22260043610666
 20
-2.511212045583742
 30
0.0
 10
11.44508547696723
 20
-2.623870765361061
 30
0.0
 10
11.66786543878987
 20
-2.73385840037996
 30
0.0
  0
SPLINE
  5
1C9
330
1F
100
AcDbEntity
  8
외형선
  6
Continuous
 62
     1
370
    15
100
AcDbSpline
210
0.0
220
0.0
230
1.0
 70
     8
 71
     3
 72
    10
 73
     6
 74
     0
 42
0.000000001
 43
0.00000001
 40
0.0
 40
0.0
 40
0.0
 40
0.0
 40
0.5
 40
0.5
 40
1.0
 40
1.0
 40
1.0
 40
1.0
 10
11.88405025799183
 20
-0.1203753575962383
 30
0.0
 10
11.84854190151144
 20
-0.5724136570226086
 30
0.0
 10
11.81220146354902
 20
-1.023689873602849
 30
0.0
 10
11.74004020789449
 20
-1.89654446429362
 30
0.0
 10
11.70368303914829
 20
-2.324664598613342
 30
0.0
 10
11.66786543879025
 20
-2.733858400379975
 30
0.0
  0
SPLINE
  5
1CA
330
1F
100
AcDbEntity
  8
외형선
  6
Continuous
 62
     1
370
    15
100
AcDbSpline
210
0.0
220
0.0
230
1.0
 70
     8
 71
     3
 72
     8
 73
     4
 74
     0
 42
0.000000001
 43
0.00000001
 40
0.0
 40
0.0
 40
0.0
 40
0.0
 40
1.0
 40
1.0
 40
1.0
 40
1.0
 10
11.66786543878989
 20
-2.733858400379989
 30
0.0
 10
11.73848335809764
 20
-2.762574375586475
 30
0.0
 10
11.80606029497378
 20
-2.786686324314022
 30
0.0
 10
11.86899607126158
 20
-2.805822458991091
 30
0.0
  0
SPLINE
  5
1CB
330
1F
100
AcDbEntity
  8
외형선
  6
Continuous
 62
     1
370
    15
100
AcDbSpline
210
0.0
220
0.0
230
1.0
 70
     8
 71
     3
 72
    10
 73
     6
 74
     0
 42
0.000000001
 43
0.00000001
 40
0.0
 40
0.0
 40
0.0
 40
0.0
 40
0.5
 40
0.5
 40
1.0
 40
1.0
 40
1.0
 40
1.0
 10
39.37297533216243
 20
3.697043133289804
 30
0.0
 10
39.34440361365068
 20
3.327150779599569
 30
0.0
 10
39.31504792023146
 20
2.925123168595867
 30
0.0
 10
39.25678882834292
 20
2.08364104238649
 30
0.0
 10
39.22790087561474
 20
1.644419930336235
 30
0.0
 10
39.20021269774072
 20
1.202364943556145
 30
0.0
  0
SPLINE
  5
1CC
330
1F
100
AcDbEntity
  8
외형선
  6
Continuous
 62
     1
370
    15
100
AcDbSpline
210
0.0
220
0.0
230
1.0
 70
     8
 71
     3
 72
     8
 73
     4
 74
     0
 42
0.000000001
 43
0.00000001
 40
0.0
 40
0.0
 40
0.0
 40
0.0
 40
1.0
 40
1.0
 40
1.0
 40
1.0
 10
39.79085627791631
 20
3.432540187936098
 30
0.0
 10
39.66101677741497
 20
3.528538891683703
 30
0.0
 10
39.51759623306121
 20
3.62067520899584
 30
0.0
 10
39.37297533216273
 20
3.697043133287515
 30
0.0
  0
SPLINE
  5
1CD
330
1F
100
AcDbEntity
  8
외형선
  6
Continuous
 62
     1
370
    15
100
AcDbSpline
210
0.0
220
0.0
230
1.0
 70
     8
 71
     3
 72
    10
 73
     6
 74
     0
 42
0.000000001
 43
0.00000001
 40
0.0
 40
0.0
 40
0.0
 40
0.0
 40
0.5
 40
0.5
 40
1.0
 40
1.0
 40
1.0
 40
1.0
 10
21.88080792656138
 20
3.797898455359504
 30
0.0
 10
21.85239379815133
 20
3.434016413271693
 30
0.0
 10
21.82310772122874
 20
3.036992935022389
 30
0.0
 10
21.76479650397098
 20
2.202745627788078
 30
0.0
 10
21.73578691296354
 20
1.765750349762288
 30
0.0
 10
21.70789502813818
 20
1.324462123752859
 30
0.0
  0
SPLINE
  5
1CE
330
1F
100
AcDbEntity
  8
외형선
  6
Continuous
 62
     1
370
    15
100
AcDbSpline
210
0.0
220
0.0
230
1.0
 70
     8
 71
     3
 72
    12
 73
     8
 74
     0
 42
0.000000001
 43
0.00000001
 40
0.0
 40
0.0
 40
0.0
 40
0.0
 40
0.4999999999999998
 40
0.4999999999999998
 40
0.7499999999999999
 40
0.7499999999999999
 40
1.0
 40
1.0
 40
1.0
 40
1.0
 10
14.03842095603241
 20
-1.365495104330479
 30
0.0
 10
14.00906472201456
 20
-1.815937192818533
 30
0.0
 10
13.97992372056028
 20
-2.254243805885144
 30
0.0
 10
13.93801037240256
 20
-2.871942702221681
 30
0.0
 10
13.92452236412497
 20
-3.070454980170522
 30
0.0
 10
13.8966211797164
 20
-3.459411840597399
 30
0.0
 10
13.88236978346786
 20
-3.649009058518513
 30
0.0
 10
13.86793456107873
 20
-3.831863578603999
 30
0.0
  0
SPLINE
  5
1CF
330
1F
100
AcDbEntity
  8
외형선
  6
Continuous
 62
     1
370
    15
100
AcDbSpline
210
0.0
220
0.0
230
1.0
 70
     8
 71
     3
 72
     8
 73
     4
 74
     0
 42
0.000000001
 43
0.00000001
 40
0.0
 40
0.0
 40
0.0
 40
0.0
 40
1.0
 40
1.0
 40
1.0
 40
1.0
 10
13.45003781731729
 20
-3.56680781258071
 30
0.0
 10
13.57991051913878
 20
-3.664003569348513
 30
0.0
 10
13.72329905497223
 20
-3.756293422767573
 30
0.0
 10
13.86793456107873
 20
-3.831863578603927
 30
0.0
  0
SPLINE
  5
1D0
330
1F
100
AcDbEntity
  8
외형선
  6
Continuous
 62
     1
370
    15
100
AcDbSpline
210
0.0
220
0.0
230
1.0
 70
     8
 71
     3
 72
     8
 73
     4
 74
     0
 42
0.000000001
 43
0.00000001
 40
0.0
 40
0.0
 40
0.0
 40
0.0
 40
1.0
 40
1.0
 40
1.0
 40
1.0
 10
43.73384379395602
 20
1.405309363616726
 30
0.0
 10
43.72682472668524
 20
1.015466634868117
 30
0.0
 10
43.71836604837197
 20
0.6172464614125197
 30
0.0
 10
43.70815352975595
 20
0.2158050811583418
 30
0.0
  0
SPLINE
  5
1D1
330
1F
100
AcDbEntity
  8
외형선
  6
Continuous
 62
     1
370
    15
100
AcDbSpline
210
0.0
220
0.0
230
1.0
 70
     8
 71
     3
 72
     8
 73
     4
 74
     0
 42
0.000000001
 43
0.00000001
 40
0.0
 40
0.0
 40
0.0
 40
0.0
 40
1.0
 40
1.0
 40
1.0
 40
1.0
 10
43.73384379395604
 20
1.405309363616715
 30
0.0
 10
43.6650534185473
 20
1.441912973267025
 30
0.0
 10
43.58314943373954
 20
1.486117820391243
 30
0.0
 10
43.5152292475417
 20
1.526203607591754
 30
0.0
  0
SPLINE
  5
1D2
330
1F
100
AcDbEntity
  8
외형선
  6
Continuous
 62
     1
370
    15
100
AcDbSpline
210
0.0
220
0.0
230
1.0
 70
    24
 71
     3
 72
    10
 73
     6
 74
     0
 42
0.000000001
 43
0.00000001
 40
0.0
 40
0.0
 40
0.0
 40
0.0
 40
0.5
 40
0.5
 40
1.0
 40
1.0
 40
1.0
 40
1.0
 10
43.66856890018024
 20
-0.3978561710958829
 30
0.0
 10
43.622541910708
 20
-0.4438831605681215
 30
0.0
 10
43.57289958401165
 20
-0.4935254872644803
 30
0.0
 10
43.47192171473544
 20
-0.5945033565406697
 30
0.0
 10
43.4208018389976
 20
-0.6456232322785208
 30
0.0
 10
43.37259550860558
 20
-0.6938295626705387
 30
0.0
  0
SPLINE
  5
1D3
330
1F
100
AcDbEntity
  8
외형선
  6
Continuous
 62
     1
370
    15
100
AcDbSpline
210
0.0
220
0.0
230
1.0
 70
     8
 71
     3
 72
     8
 73
     4
 74
     0
 42
0.000000001
 43
0.00000001
 40
0.0
 40
0.0
 40
0.0
 40
0.0
 40
1.0
 40
1.0
 40
1.0
 40
1.0
 10
39.37297533216229
 20
3.69704313328775
 30
0.0
 10
39.22465140139904
 20
3.758205109823066
 30
0.0
 10
39.0824976218523
 20
3.798017539419791
 30
0.0
 10
38.95823427189439
 20
3.813077861045251
 30
0.0
  0
LINE
  5
1D4
330
1F
100
AcDbEntity
  8
외형선
  6
Continuous
 62
     1
370
    15
100
AcDbLine
 10
43.75
 20
-0.3164250712761261
 30
0.0
 11
43.75
 21
1.39586095179225
 31
0.0
  0
SPLINE
  5
1D5
330
1F
100
AcDbEntity
  8
외형선
  6
Continuous
 62
     1
370
    15
100
AcDbSpline
210
0.0
220
0.0
230
1.0
 70
     8
 71
     3
 72
     8
 73
     4
 74
     0
 42
0.000000001
 43
0.00000001
 40
0.0
 40
0.0
 40
0.0
 40
0.0
 40
1.0
 40
1.0
 40
1.0
 40
1.0
 10
43.70815352975593
 20
0.2158050811583036
 30
0.0
 10
43.70316011794653
 20
0.0195202855741326
 30
0.0
 10
43.69822550776995
 20
-0.1767715539327722
 30
0.0
 10
43.6933545281149
 20
-0.3730705431598925
 30
0.0
  0
SPLINE
  5
1D6
330
1F
100
AcDbEntity
  8
외형선
  6
Continuous
 62
     1
370
    15
100
AcDbSpline
210
0.0
220
0.0
230
1.0
 70
     8
 71
     3
 72
     8
 73
     4
 74
     0
 42
0.000000001
 43
0.00000001
 40
0.0002702999074775
 40
0.0002702999074775
 40
0.0002702999074775
 40
0.0002702999074775
 40
0.0002938981015471
 40
0.0002938981015471
 40
0.0002938981015471
 40
0.0002938981015471
 10
43.73384379395603
 20
1.405309363616766
 30
0.0
 10
43.73922651975668
 20
1.402144055420481
 30
0.0
 10
43.74461193777132
 20
1.398994545552631
 30
0.0
 10
43.74999999999963
 20
1.395860951792404
 30
0.0
  0
SPLINE
  5
1D7
330
1F
100
AcDbEntity
  8
외형선
  6
Continuous
 62
     1
370
    15
100
AcDbSpline
210
0.0
220
0.0
230
1.0
 70
    24
 71
     3
 72
     8
 73
     4
 74
     0
 42
0.000000001
 43
0.00000001
 40
0.0002430890809575
 40
0.0002430890809575
 40
0.0002430890809575
 40
0.0002430890809575
 40
0.0003394518759109
 40
0.0003394518759109
 40
0.0003394518759109
 40
0.0003394518759109
 10
43.69335452811553
 20
-0.3730705431606003
 30
0.0
 10
43.71226156086728
 20
-0.3541635104088524
 30
0.0
 10
43.73114361274757
 20
-0.3352814585285467
 30
0.0
 10
43.75
 20
-0.3164250712761257
 30
0.0
  0
SPLINE
  5
1D8
330
1F
100
AcDbEntity
  8
외형선
  6
Continuous
 62
     1
370
    15
100
AcDbSpline
210
0.0
220
0.0
230
1.0
 70
     8
 71
     3
 72
     8
 73
     4
 74
     0
 42
0.000000001
 43
0.00000001
 40
0.0
 40
0.0
 40
0.0
 40
0.0
 40
1.0
 40
1.0
 40
1.0
 40
1.0
 10
42.46925808865841
 20
2.088570511283672
 30
0.0
 10
42.39145091154349
 20
2.121231118971479
 30
0.0
 10
42.28661150749731
 20
2.174550565972228
 30
0.0
 10
42.2023714255749
 20
2.229414166183961
 30
0.0
  0
SPLINE
  5
1D9
330
1F
100
AcDbEntity
  8
외형선
  6
Continuous
 62
     1
370
    15
100
AcDbSpline
210
0.0
220
0.0
230
1.0
 70
     8
 71
     3
 72
    12
 73
     8
 74
     0
 42
0.000000001
 43
0.00000001
 40
0.0
 40
0.0
 40
0.0
 40
0.0
 40
0.4999999999999999
 40
0.4999999999999999
 40
0.7499999999999999
 40
0.7499999999999999
 40
1.0
 40
1.0
 40
1.0
 40
1.0
 10
31.53054736600054
 20
-1.486097836489317
 30
0.0
 10
31.50122575448955
 20
-1.934446447604059
 30
0.0
 10
31.47221436452143
 20
-2.369213523208547
 30
0.0
 10
31.43061604974419
 20
-2.979923919072237
 30
0.0
 10
31.41707103168613
 20
-3.176718950776715
 30
0.0
 10
31.38895163724414
 20
-3.562177880365906
 30
0.0
 10
31.37461099962947
 20
-3.74967812518755
 30
0.0
 10
31.36010891190644
 20
-3.93010939594955
 30
0.0
  0
SPLINE
  5
1DA
330
1F
100
AcDbEntity
  8
외형선
  6
Continuous
 62
     1
370
    15
100
AcDbSpline
210
0.0
220
0.0
230
1.0
 70
     8
 71
     3
 72
    12
 73
     8
 74
     0
 42
0.000000001
 43
0.00000001
 40
0.0
 40
0.0
 40
0.0
 40
0.0
 40
0.5
 40
0.5
 40
0.75
 40
0.75
 40
1.0
 40
1.0
 40
1.0
 40
1.0
 10
38.69121863212016
 20
3.929815528995944
 30
0.0
 10
38.52493812819249
 20
4.056263120901664
 30
0.0
 10
38.34038052647303
 20
4.166942379759473
 30
0.0
 10
38.06536731784325
 20
4.283330992744932
 30
0.0
 10
37.97653580358521
 20
4.312989823557859
 30
0.0
 10
37.80386022424887
 20
4.354115228300698
 30
0.0
 10
37.72067735079892
 20
4.365182333704832
 30
0.0
 10
37.64425484705095
 20
4.366178895572919
 30
0.0
  0
SPLINE
  5
1DB
330
1F
100
AcDbEntity
  8
외형선
  6
Continuous
 62
     1
370
    15
100
AcDbSpline
210
0.0
220
0.0
230
1.0
 70
    24
 71
     3
 72
     8
 73
     4
 74
     0
 42
0.000000001
 43
0.00000001
 40
0.0000869570417261
 40
0.0000869570417261
 40
0.0000869570417261
 40
0.0000869570417261
 40
0.0001256331029939
 40
0.0001256331029939
 40
0.0001256331029939
 40
0.0001256331029939
 10
43.6933545281162
 20
-0.3730705431599255
 30
0.0
 10
43.6850483341187
 20
-0.3813767371574286
 30
0.0
 10
43.67678512295846
 20
-0.3896399483177297
 30
0.0
 10
43.66856890018028
 20
-0.3978561710959096
 30
0.0
  0
SPLINE
  5
1DC
330
1F
100
AcDbEntity
  8
외형선
  6
Continuous
 62
     1
370
    15
100
AcDbSpline
210
0.0
220
0.0
230
1.0
 70
     8
 71
     3
 72
     8
 73
     4
 74
     0
 42
0.000000001
 43
0.00000001
 40
0.0
 40
0.0
 40
0.0
 40
0.0
 40
1.0
 40
1.0
 40
1.0
 40
1.0
 10
13.86793451068694
 20
-3.831863558405437
 30
0.0
 10
14.01612425044226
 20
-3.891262261447524
 30
0.0
 10
14.15832800728633
 20
-3.928257120504834
 30
0.0
 10
14.2825510082177
 20
-3.939957403387713
 30
0.0
  0
LINE
  5
1DD
330
1F
100
AcDbEntity
  8
외형선
  6
Continuous
 62
     1
370
    15
100
AcDbLine
 10
34.93979993806504
 20
5.316082788110824
 30
0.0
 11
34.97766956341328
 21
5.332741174129862
 31
0.0
  0
SPLINE
  5
1DE
330
1F
100
AcDbEntity
  8
외형선
  6
Continuous
 62
     1
370
    15
100
AcDbSpline
210
0.0
220
0.0
230
1.0
 70
     8
 71
     3
 72
     8
 73
     4
 74
     0
 42
0.000000001
 43
0.00000001
 40
0.0
 40
0.0
 40
0.0
 40
0.0
 40
1.0
 40
1.0
 40
1.0
 40
1.0
 10
34.97766951300293
 20
5.332741163099254
 30
0.0
 10
35.12597094253348
 20
5.365191779078763
 30
0.0
 10
35.26824665772522
 20
5.36633906402312
 30
0.0
 10
35.39254637184419
 20
5.336114523298551
 30
0.0
  0
SPLINE
  5
1DF
330
1F
100
AcDbEntity
  8
외형선
  6
Continuous
 62
     1
370
    15
100
AcDbSpline
210
0.0
220
0.0
230
1.0
 70
     8
 71
     3
 72
     8
 73
     4
 74
     0
 42
0.000000001
 43
0.00000001
 40
0.0
 40
0.0
 40
0.0
 40
0.0
 40
1.0
 40
1.0
 40
1.0
 40
1.0
 10
35.39254637184448
 20
5.336114523298475
 30
0.0
 10
35.46997543028417
 20
5.317286984179283
 30
0.0
 10
35.57479631352032
 20
5.342369117430825
 30
0.0
 10
35.65964522369802
 20
5.40959970624145
 30
0.0
  0
SPLINE
  5
1E0
330
1F
100
AcDbEntity
  8
외형선
  6
Continuous
 62
     1
370
    15
100
AcDbSpline
210
0.0
220
0.0
230
1.0
 70
     8
 71
     3
 72
    12
 73
     8
 74
     0
 42
0.000000001
 43
0.00000001
 40
0.0
 40
0.0
 40
0.0
 40
0.0
 40
0.5000000000000036
 40
0.5000000000000036
 40
0.7500000000000018
 40
0.7500000000000018
 40
1.0
 40
1.0
 40
1.0
 40
1.0
 10
35.65964522369804
 20
5.409599706241472
 30
0.0
 10
35.82603712374132
 20
5.541441416285843
 30
0.0
 10
36.01069791640314
 20
5.634605169699055
 30
0.0
 10
36.28572200071646
 20
5.70329160279695
 30
0.0
 10
36.37454151086487
 20
5.713887028980972
 30
0.0
 10
36.54716583395008
 20
5.711011967662071
 30
0.0
 10
36.6303063146215
 20
5.697204277444653
 30
0.0
 10
36.70668372668853
 20
5.671260740857137
 30
0.0
  0
SPLINE
  5
1E1
330
1F
100
AcDbEntity
  8
외형선
  6
Continuous
 62
     1
370
    15
100
AcDbSpline
210
0.0
220
0.0
230
1.0
 70
     8
 71
     3
 72
     8
 73
     4
 74
     0
 42
0.000000001
 43
0.00000001
 40
0.0
 40
0.0
 40
0.0
 40
0.0
 40
1.0
 40
1.0
 40
1.0
 40
1.0
 10
36.70668372668852
 20
5.671260740857131
 30
0.0
 10
36.78458765824395
 20
5.644798682980047
 30
0.0
 10
36.88944708643633
 20
5.664369590055151
 30
0.0
 10
36.97380363078792
 20
5.731317597680659
 30
0.0
  0
SPLINE
  5
1E2
330
1F
100
AcDbEntity
  8
외형선
  6
Continuous
 62
     1
370
    15
100
AcDbSpline
210
0.0
220
0.0
230
1.0
 70
     8
 71
     3
 72
     8
 73
     4
 74
     0
 42
0.000000001
 43
0.00000001
 40
0.0
 40
0.0
 40
0.0
 40
0.0
 40
1.0
 40
1.0
 40
1.0
 40
1.0
 10
36.97380363078806
 20
5.73131759768074
 30
0.0
 10
37.10366178796652
 20
5.834377116818691
 30
0.0
 10
37.24711406405755
 20
5.910827999274844
 30
0.0
 10
37.39188055053175
 20
5.955819688719679
 30
0.0
  0
SPLINE
  5
1E3
330
1F
100
AcDbEntity
  8
외형선
  6
Continuous
 62
     1
370
    15
100
AcDbSpline
210
0.0
220
0.0
230
1.0
 70
     8
 71
     3
 72
     8
 73
     4
 74
     0
 42
0.000000001
 43
0.00000001
 40
0.0
 40
0.0
 40
0.0
 40
0.0
 40
1.0
 40
1.0
 40
1.0
 40
1.0
 10
37.39188050011096
 20
5.955819684188776
 30
0.0
 10
37.5401724415735
 20
5.969145019581412
 30
0.0
 10
37.68243625354965
 20
5.947437456819422
 30
0.0
 10
37.80669515256225
 20
5.892360956595262
 30
0.0
  0
SPLINE
  5
1E4
330
1F
100
AcDbEntity
  8
외형선
  6
Continuous
 62
     1
370
    15
100
AcDbSpline
210
0.0
220
0.0
230
1.0
 70
     8
 71
     3
 72
     8
 73
     4
 74
     0
 42
0.000000001
 43
0.00000001
 40
0.0
 40
0.0
 40
0.0
 40
0.0
 40
1.0
 40
1.0
 40
1.0
 40
1.0
 10
37.80669515256254
 20
5.892360956595131
 30
0.0
 10
37.8840704408429
 20
5.858065142643892
 30
0.0
 10
37.98884110068701
 20
5.871008369996381
 30
0.0
 10
38.07362818939265
 20
5.935489798359637
 30
0.0
  0
SPLINE
  5
1E5
330
1F
100
AcDbEntity
  8
외형선
  6
Continuous
 62
     1
370
    15
100
AcDbSpline
210
0.0
220
0.0
230
1.0
 70
     8
 71
     3
 72
    12
 73
     8
 74
     0
 42
0.000000001
 43
0.00000001
 40
0.0
 40
0.0
 40
0.0
 40
0.0
 40
0.5
 40
0.5
 40
0.75
 40
0.75
 40
1.0
 40
1.0
 40
1.0
 40
1.0
 10
38.07362818939265
 20
5.935489798359638
 30
0.0
 10
38.23981394920116
 20
6.061875729633774
 30
0.0
 10
38.42425141460807
 20
6.138581475460141
 30
0.0
 10
38.69895116121958
 20
6.174388903184067
 30
0.0
 10
38.78765687028647
 20
6.172924939506402
 30
0.0
 10
38.96004593171262
 20
6.143990390682539
 30
0.0
 10
39.04305367740159
 20
6.116247738919455
 30
0.0
 10
39.11929974080335
 20
6.075942172188095
 30
0.0
  0
SPLINE
  5
1E6
330
1F
100
AcDbEntity
  8
외형선
  6
Continuous
 62
     1
370
    15
100
AcDbSpline
210
0.0
220
0.0
230
1.0
 70
     8
 71
     3
 72
     8
 73
     4
 74
     0
 42
0.000000001
 43
0.00000001
 40
0.0
 40
0.0
 40
0.0
 40
0.0
 40
1.0
 40
1.0
 40
1.0
 40
1.0
 10
39.11929974080336
 20
6.075942172188089
 30
0.0
 10
39.19706763132363
 20
6.034832129766561
 30
0.0
 10
39.30185292795683
 20
6.041899604243725
 30
0.0
 10
39.38610995631926
 20
6.104474006350343
 30
0.0
  0
SPLINE
  5
1E7
330
1F
100
AcDbEntity
  8
외형선
  6
Continuous
 62
     1
370
    15
100
AcDbSpline
210
0.0
220
0.0
230
1.0
 70
     8
 71
     3
 72
     8
 73
     4
 74
     0
 42
0.000000001
 43
0.00000001
 40
0.0
 40
0.0
 40
0.0
 40
0.0
 40
1.0
 40
1.0
 40
1.0
 40
1.0
 10
39.38610995631939
 20
6.104474006350424
 30
0.0
 10
39.51584523443235
 20
6.200823327206242
 30
0.0
 10
39.65918754841723
 20
6.264215313288532
 30
0.0
 10
39.80384376810474
 20
6.292960711966071
 30
0.0
  0
SPLINE
  5
1E8
330
1F
100
AcDbEntity
  8
외형선
  6
Continuous
 62
     1
370
    15
100
AcDbSpline
210
0.0
220
0.0
230
1.0
 70
     8
 71
     3
 72
     8
 73
     4
 74
     0
 42
0.000000001
 43
0.00000001
 40
0.0
 40
0.0
 40
0.0
 40
0.0
 40
1.0
 40
1.0
 40
1.0
 40
1.0
 10
39.80384371772821
 20
6.292960714144847
 30
0.0
 10
39.9520487127343
 20
6.286550888512624
 30
0.0
 10
40.09420746547728
 20
6.243034563387564
 30
0.0
 10
40.21836132279451
 20
6.165817561982718
 30
0.0
  0
SPLINE
  5
1E9
330
1F
100
AcDbEntity
  8
외형선
  6
Continuous
 62
     1
370
    15
100
AcDbSpline
210
0.0
220
0.0
230
1.0
 70
     8
 71
     3
 72
     8
 73
     4
 74
     0
 42
0.000000001
 43
0.00000001
 40
0.0
 40
0.0
 40
0.0
 40
0.0
 40
1.0
 40
1.0
 40
1.0
 40
1.0
 10
40.21836132279479
 20
6.16581756198253
 30
0.0
 10
40.29569761983751
 20
6.117718557356839
 30
0.0
 10
40.40043751484706
 20
6.117947543403208
 30
0.0
 10
40.48518772624224
 20
6.176603069061914
 30
0.0
  0
SPLINE
  5
1EA
330
1F
100
AcDbEntity
  8
외형선
  6
Continuous
 62
     1
370
    15
100
AcDbSpline
210
0.0
220
0.0
230
1.0
 70
     8
 71
     3
 72
    12
 73
     8
 74
     0
 42
0.000000001
 43
0.00000001
 40
0.0
 40
0.0
 40
0.0
 40
0.0
 40
0.5
 40
0.5
 40
0.75
 40
0.75
 40
1.0
 40
1.0
 40
1.0
 40
1.0
 10
40.48518772624224
 20
6.176603069061917
 30
0.0
 10
40.65138920395937
 20
6.291630924217301
 30
0.0
 10
40.83585540154022
 20
6.348216412016344
 30
0.0
 10
41.11055207402983
 20
6.349445480896607
 30
0.0
 10
41.1992536929711
 20
6.336005686987614
 30
0.0
 10
41.37163337159261
 20
6.282446318328762
 30
0.0
 10
41.45462799537023
 20
6.242137419034486
 30
0.0
 10
41.53090662221666
 20
6.189420046663653
 30
0.0
  0
SPLINE
  5
1EB
330
1F
100
AcDbEntity
  8
외형선
  6
Continuous
 62
     1
370
    15
100
AcDbSpline
210
0.0
220
0.0
230
1.0
 70
     8
 71
     3
 72
     8
 73
     4
 74
     0
 42
0.000000001
 43
0.00000001
 40
0.0
 40
0.0
 40
0.0
 40
0.0
 40
1.0
 40
1.0
 40
1.0
 40
1.0
 10
41.53090662221665
 20
6.18942004666365
 30
0.0
 10
41.60871958910253
 20
6.135642267484947
 30
0.0
 10
41.71356212655311
 20
6.129900217544178
 30
0.0
 10
41.7978656849474
 20
6.185162695522293
 30
0.0
  0
SPLINE
  5
1EC
330
1F
100
AcDbEntity
  8
외형선
  6
Continuous
 62
     1
370
    15
100
AcDbSpline
210
0.0
220
0.0
230
1.0
 70
     8
 71
     3
 72
     8
 73
     4
 74
     0
 42
0.000000001
 43
0.00000001
 40
0.0
 40
0.0
 40
0.0
 40
0.0
 40
1.0
 40
1.0
 40
1.0
 40
1.0
 10
41.79786568494751
 20
6.185162695522368
 30
0.0
 10
41.92769874640134
 20
6.270270570398304
 30
0.0
 10
42.07114328794703
 20
6.317585911136514
 30
0.0
 10
42.21588775284698
 20
6.328737792455703
 30
0.0
  0
SPLINE
  5
1ED
330
1F
100
AcDbEntity
  8
외형선
  6
Continuous
 62
     1
370
    15
100
AcDbSpline
210
0.0
220
0.0
230
1.0
 70
     8
 71
     3
 72
     8
 73
     4
 74
     0
 42
0.000000001
 43
0.00000001
 40
0.0
 40
0.0
 40
0.0
 40
0.0
 40
1.0
 40
1.0
 40
1.0
 40
1.0
 10
42.21588770242391
 20
6.328737801227528
 30
0.0
 10
42.36425177571112
 20
6.302927721302867
 30
0.0
 10
42.50656228378718
 20
6.239712489625428
 30
0.0
 10
42.63088833045322
 20
6.144044286804085
 30
0.0
  0
SPLINE
  5
1EE
330
1F
100
AcDbEntity
  8
외형선
  6
Continuous
 62
     1
370
    15
100
AcDbSpline
210
0.0
220
0.0
230
1.0
 70
     8
 71
     3
 72
     8
 73
     4
 74
     0
 42
0.000000001
 43
0.00000001
 40
0.0
 40
0.0
 40
0.0
 40
0.0
 40
1.0
 40
1.0
 40
1.0
 40
1.0
 10
42.6308883304535
 20
6.14404428680386
 30
0.0
 10
42.70834913096503
 20
6.084438630766625
 30
0.0
 10
42.81319158519452
 20
6.071907280402879
 30
0.0
 10
42.89806041956136
 20
6.121944194778865
 30
0.0
  0
SPLINE
  5
1EF
330
1F
100
AcDbEntity
  8
외형선
  6
Continuous
 62
     1
370
    15
100
AcDbSpline
210
0.0
220
0.0
230
1.0
 70
     8
 71
     3
 72
     8
 73
     4
 74
     0
 42
0.000000001
 43
0.00000001
 40
0.0
 40
0.0
 40
0.0
 40
0.0
 40
1.0
 40
1.0
 40
1.0
 40
1.0
 10
42.89806041956136
 20
6.121944194778864
 30
0.0
 10
42.94927024865308
 20
6.152136453840602
 30
0.0
 10
43.00178783102094
 20
6.175895292145435
 30
0.0
 10
43.05563139452067
 20
6.194035167689444
 30
0.0
  0
SPLINE
  5
1F0
330
1F
100
AcDbEntity
  8
외형선
  6
Continuous
 62
     1
370
    15
100
AcDbSpline
210
0.0
220
0.0
230
1.0
 70
     8
 71
     3
 72
    16
 73
    12
 74
     0
 42
0.000000001
 43
0.00000001
 40
0.0
 40
0.0
 40
0.0
 40
0.0
 40
0.2500000000000009
 40
0.2500000000000009
 40
0.5000000000000018
 40
0.5000000000000018
 40
0.7500000000000027
 40
0.7500000000000027
 40
0.8750000000000013
 40
0.8750000000000013
 40
1.0
 40
1.0
 40
1.0
 40
1.0
 10
43.05563139452074
 20
6.194035167689468
 30
0.0
 10
43.05558838557771
 20
5.944953706703119
 30
0.0
 10
43.04226783058661
 20
5.698661819449252
 30
0.0
 10
42.98518294200577
 20
5.212474194108757
 30
0.0
 10
42.9409666099813
 20
4.970598463699075
 30
0.0
 10
42.81651337301028
 20
4.503889264133344
 30
0.0
 10
42.73762647309702
 20
4.283025612544933
 30
0.0
 10
42.59068662464036
 20
3.97317993877249
 30
0.0
 10
42.53648868287295
 20
3.872949314403136
 30
0.0
 10
42.42086855473111
 20
3.68573681088607
 30
0.0
 10
42.35924881560783
 20
3.598162871198341
 30
0.0
 10
42.29380090765272
 20
3.516650526984069
 30
0.0
  0
SPLINE
  5
1F1
330
1F
100
AcDbEntity
  8
외형선
  6
Continuous
 62
     1
370
    15
100
AcDbSpline
210
0.0
220
0.0
230
1.0
 70
     8
 71
     3
 72
     8
 73
     4
 74
     0
 42
0.000000001
 43
0.00000001
 40
0.0
 40
0.0
 40
0.0
 40
0.0
 40
1.0
 40
1.0
 40
1.0
 40
1.0
 10
43.75
 20
2.540413368009813
 30
0.0
 10
43.26362109378203
 20
2.880044560521867
 30
0.0
 10
42.77824197751173
 20
3.205158093525662
 30
0.0
 10
42.29380090765272
 20
3.516650526984068
 30
0.0
  0
LINE
  5
1F2
330
1F
100
AcDbEntity
  8
외형선
  6
Continuous
 62
     1
370
    15
100
AcDbLine
 10
43.75
 20
1.410203890431963
 30
0.0
 11
43.75
 21
2.540413368009813
 31
0.0
  0
SPLINE
  5
1F3
330
1F
100
AcDbEntity
  8
외형선
  6
Continuous
 62
     1
370
    15
100
AcDbSpline
210
0.0
220
0.0
230
1.0
 70
     8
 71
     3
 72
     8
 73
     4
 74
     0
 42
0.000000001
 43
0.00000001
 40
0.0
 40
0.0
 40
0.0
 40
0.0
 40
1.0
 40
1.0
 40
1.0
 40
1.0
 10
41.37013630066717
 20
2.660205586272091
 30
0.0
 10
41.29283052489632
 20
2.685669192401555
 30
0.0
 10
41.18812803782529
 20
2.736224506471527
 30
0.0
 10
41.10336046792637
 20
2.794880578993356
 30
0.0
  0
SPLINE
  5
1F4
330
1F
100
AcDbEntity
  8
외형선
  6
Continuous
 62
     1
370
    15
100
AcDbSpline
210
0.0
220
0.0
230
1.0
 70
     8
 71
     3
 72
     8
 73
     4
 74
     0
 42
0.000000001
 43
0.00000001
 40
0.0
 40
0.0
 40
0.0
 40
0.0
 40
1.0
 40
1.0
 40
1.0
 40
1.0
 10
40.05776484770776
 20
3.306079746790715
 30
0.0
 10
39.97994988656516
 20
3.323312755133544
 30
0.0
 10
39.87510504389328
 20
3.370249650042136
 30
0.0
 10
39.7908562779167
 20
3.43254018793595
 30
0.0
  0
SPLINE
  5
1F5
330
1F
100
AcDbEntity
  8
외형선
  6
Continuous
 62
     1
370
    15
100
AcDbSpline
210
0.0
220
0.0
230
1.0
 70
     8
 71
     3
 72
     8
 73
     4
 74
     0
 42
0.000000001
 43
0.00000001
 40
0.0
 40
0.0
 40
0.0
 40
0.0
 40
1.0
 40
1.0
 40
1.0
 40
1.0
 10
38.95823427189429
 20
3.813077861045262
 30
0.0
 10
38.88084331435027
 20
3.822457398229071
 30
0.0
 10
38.77606399572666
 20
3.865295085173662
 30
0.0
 10
38.69121863212016
 20
3.929815528995947
 30
0.0
  0
SPLINE
  5
1F6
330
1F
100
AcDbEntity
  8
외형선
  6
Continuous
 62
     1
370
    15
100
AcDbSpline
210
0.0
220
0.0
230
1.0
 70
     8
 71
     3
 72
     8
 73
     4
 74
     0
 42
0.000000001
 43
0.00000001
 40
0.0
 40
0.0
 40
0.0
 40
0.0
 40
1.0
 40
1.0
 40
1.0
 40
1.0
 10
37.64425484705095
 20
4.366178895572921
 30
0.0
 10
37.56632008419383
 20
4.367195177545547
 30
0.0
 10
37.46138599135725
 20
4.405504115352859
 30
0.0
 10
37.37703184414487
 20
4.472293959321158
 30
0.0
  0
SPLINE
  5
1F7
330
1F
100
AcDbEntity
  8
외형선
  6
Continuous
 62
     1
370
    15
100
AcDbSpline
210
0.0
220
0.0
230
1.0
 70
     8
 71
     3
 72
     8
 73
     4
 74
     0
 42
0.000000001
 43
0.00000001
 40
0.0
 40
0.0
 40
0.0
 40
0.0
 40
1.0
 40
1.0
 40
1.0
 40
1.0
 10
37.37703184414449
 20
4.472293959321342
 30
0.0
 10
37.24708057297192
 20
4.575186649389544
 30
0.0
 10
37.10356932999987
 20
4.665219062660126
 30
0.0
 10
36.95887190969471
 20
4.732747710922023
 30
0.0
  0
SPLINE
  5
1F8
330
1F
100
AcDbEntity
  8
외형선
  6
Continuous
 62
     1
370
    15
100
AcDbSpline
210
0.0
220
0.0
230
1.0
 70
     8
 71
     3
 72
     8
 73
     4
 74
     0
 42
0.000000001
 43
0.00000001
 40
0.0
 40
0.0
 40
0.0
 40
0.0
 40
1.0
 40
1.0
 40
1.0
 40
1.0
 10
36.95887190969468
 20
4.732747710922041
 30
0.0
 10
36.81055006807718
 20
4.77801546207341
 30
0.0
 10
36.66833019875268
 20
4.795683017601699
 30
0.0
 10
36.54402270710498
 20
4.784118400290851
 30
0.0
  0
SPLINE
  5
1F9
330
1F
100
AcDbEntity
  8
외형선
  6
Continuous
 62
     1
370
    15
100
AcDbSpline
210
0.0
220
0.0
230
1.0
 70
     8
 71
     3
 72
     8
 73
     4
 74
     0
 42
0.000000001
 43
0.00000001
 40
0.0
 40
0.0
 40
0.0
 40
0.0
 40
1.0
 40
1.0
 40
1.0
 40
1.0
 10
36.54402270710489
 20
4.784118400290847
 30
0.0
 10
36.46664786184092
 20
4.776920037077951
 30
0.0
 10
36.36188350260324
 20
4.809948174546292
 30
0.0
 10
36.27706676247266
 20
4.87720203498534
 30
0.0
  0
SPLINE
  5
1FA
330
1F
100
AcDbEntity
  8
외형선
  6
Continuous
 62
     1
370
    15
100
AcDbSpline
210
0.0
220
0.0
230
1.0
 70
     8
 71
     3
 72
    12
 73
     8
 74
     0
 42
0.000000001
 43
0.00000001
 40
0.0
 40
0.0
 40
0.0
 40
0.0
 40
0.5
 40
0.5
 40
0.75
 40
0.75
 40
1.0
 40
1.0
 40
1.0
 40
1.0
 10
36.27706676247266
 20
4.877202034985343
 30
0.0
 10
36.11095241877579
 20
5.008919321817104
 30
0.0
 10
35.92658274371507
 20
5.111065186602483
 30
0.0
 10
35.65182755346154
 20
5.201048805635418
 30
0.0
 10
35.56308536776981
 20
5.219858832906818
 30
0.0
 10
35.39059921281667
 20
5.235455533884379
 30
0.0
 10
35.30753168750092
 20
5.231870978230884
 30
0.0
 10
35.2312293686907
 20
5.216816050084729
 30
0.0
  0
SPLINE
  5
1FB
330
1F
100
AcDbEntity
  8
외형선
  6
Continuous
 62
     1
370
    15
100
AcDbSpline
210
0.0
220
0.0
230
1.0
 70
     8
 71
     3
 72
     8
 73
     4
 74
     0
 42
0.000000001
 43
0.00000001
 40
0.0
 40
0.0
 40
0.0
 40
0.0
 40
1.0
 40
1.0
 40
1.0
 40
1.0
 10
35.23122936869069
 20
5.216816050084734
 30
0.0
 10
35.15342791747902
 20
5.201465333672409
 30
0.0
 10
35.04860599693215
 20
5.229273170063128
 30
0.0
 10
34.96437680187805
 20
5.297236323394655
 30
0.0
  0
SPLINE
  5
1FC
330
1F
100
AcDbEntity
  8
외형선
  6
Continuous
 62
     1
370
    15
100
AcDbSpline
210
0.0
220
0.0
230
1.0
 70
     8
 71
     3
 72
     8
 73
     4
 74
     0
 42
0.000000001
 43
0.00000001
 40
0.0
 40
0.0
 40
0.0
 40
0.0
 40
1.0
 40
1.0
 40
1.0
 40
1.0
 10
34.96437680187766
 20
5.297236323394878
 30
0.0
 10
34.83457189271012
 20
5.401973771488274
 30
0.0
 10
34.69120562006715
 20
5.48549825016222
 30
0.0
 10
34.5466573348403
 20
5.540857296390639
 30
0.0
  0
SPLINE
  5
1FD
330
1F
100
AcDbEntity
  8
외형선
  6
Continuous
 62
     1
370
    15
100
AcDbSpline
210
0.0
220
0.0
230
1.0
 70
     8
 71
     3
 72
     8
 73
     4
 74
     0
 42
0.000000001
 43
0.00000001
 40
0.0
 40
0.0
 40
0.0
 40
0.0
 40
1.0
 40
1.0
 40
1.0
 40
1.0
 10
34.54665733483998
 20
5.540857296390675
 30
0.0
 10
34.39851593690676
 20
5.567998157878616
 30
0.0
 10
34.25637324206804
 20
5.562571340280317
 30
0.0
 10
34.1321955015373
 20
5.524965153944112
 30
0.0
  0
SPLINE
  5
1FE
330
1F
100
AcDbEntity
  8
외형선
  6
Continuous
 62
     1
370
    15
100
AcDbSpline
210
0.0
220
0.0
230
1.0
 70
     8
 71
     3
 72
     8
 73
     4
 74
     0
 42
0.000000001
 43
0.00000001
 40
0.0
 40
0.0
 40
0.0
 40
0.0
 40
1.0
 40
1.0
 40
1.0
 40
1.0
 10
34.1321955015372
 20
5.52496515394408
 30
0.0
 10
34.054877884215
 20
5.50155016256428
 30
0.0
 10
33.95015494037755
 20
5.523229953327537
 30
0.0
 10
33.86539483514358
 20
5.589990286558824
 30
0.0
  0
SPLINE
  5
1FF
330
1F
100
AcDbEntity
  8
외형선
  6
Continuous
 62
     1
370
    15
100
AcDbSpline
210
0.0
220
0.0
230
1.0
 70
     8
 71
     3
 72
    12
 73
     8
 74
     0
 42
0.000000001
 43
0.00000001
 40
0.0
 40
0.0
 40
0.0
 40
0.0
 40
0.4999999999999998
 40
0.4999999999999998
 40
0.7499999999999999
 40
0.7499999999999999
 40
1.0
 40
1.0
 40
1.0
 40
1.0
 10
33.8653948351436
 20
5.589990286558804
 30
0.0
 10
33.69930330057923
 20
5.720810395427323
 30
0.0
 10
33.51493293048016
 20
5.809616349273572
 30
0.0
 10
33.24021819651809
 20
5.868963416875533
 30
0.0
 10
33.15149274706698
 20
5.876050299980254
 30
0.0
 10
32.9790423721597
 20
5.865456762350315
 30
0.0
 10
32.89599346320789
 20
5.847457734228629
 30
0.0
 10
32.81970246474381
 20
5.817148546192359
 30
0.0
  0
SPLINE
  5
200
330
1F
100
AcDbEntity
  8
외형선
  6
Continuous
 62
     1
370
    15
100
AcDbSpline
210
0.0
220
0.0
230
1.0
 70
     8
 71
     3
 72
     8
 73
     4
 74
     0
 42
0.000000001
 43
0.00000001
 40
0.0
 40
0.0
 40
0.0
 40
0.0
 40
1.0
 40
1.0
 40
1.0
 40
1.0
 10
32.81970246474381
 20
5.81714854619235
 30
0.0
 10
32.74187172388078
 20
5.78622764323772
 30
0.0
 10
32.63702875202718
 20
5.80222920990773
 30
0.0
 10
32.55276920617828
 20
5.86817368083774
 30
0.0
  0
SPLINE
  5
201
330
1F
100
AcDbEntity
  8
외형선
  6
Continuous
 62
     1
370
    15
100
AcDbSpline
210
0.0
220
0.0
230
1.0
 70
     8
 71
     3
 72
     8
 73
     4
 74
     0
 42
0.000000001
 43
0.00000001
 40
0.0
 40
0.0
 40
0.0
 40
0.0
 40
1.0
 40
1.0
 40
1.0
 40
1.0
 10
32.55276920617791
 20
5.868173680837977
 30
0.0
 10
32.42289542615029
 20
5.969817448618872
 30
0.0
 10
32.27951194603006
 20
6.042878513093033
 30
0.0
 10
32.13485497494455
 20
6.083420442536011
 30
0.0
  0
SPLINE
  5
202
330
1F
100
AcDbEntity
  8
외형선
  6
Continuous
 62
     1
370
    15
100
AcDbSpline
210
0.0
220
0.0
230
1.0
 70
     8
 71
     3
 72
     8
 73
     4
 74
     0
 42
0.000000001
 43
0.00000001
 40
0.0
 40
0.0
 40
0.0
 40
0.0
 40
1.0
 40
1.0
 40
1.0
 40
1.0
 10
32.13485497494431
 20
6.083420442535991
 30
0.0
 10
31.98658642143176
 20
6.091148360787535
 30
0.0
 10
31.84431116869369
 20
6.063036476552665
 30
0.0
 10
31.71999315820717
 20
6.001272074795788
 30
0.0
  0
SPLINE
  5
203
330
1F
100
AcDbEntity
  8
외형선
  6
Continuous
 62
     1
370
    15
100
AcDbSpline
210
0.0
220
0.0
230
1.0
 70
     8
 71
     3
 72
     8
 73
     4
 74
     0
 42
0.000000001
 43
0.00000001
 40
0.0
 40
0.0
 40
0.0
 40
0.0
 40
1.0
 40
1.0
 40
1.0
 40
1.0
 10
31.71999315820709
 20
6.001272074795745
 30
0.0
 10
31.64256897818694
 20
5.962805740418715
 30
0.0
 10
31.53775381686649
 20
5.972116663590448
 30
0.0
 10
31.45289445175471
 20
6.035249904124188
 30
0.0
  0
SPLINE
  5
204
330
1F
100
AcDbEntity
  8
외형선
  6
Continuous
 62
     1
370
    15
100
AcDbSpline
210
0.0
220
0.0
230
1.0
 70
     8
 71
     3
 72
    12
 73
     8
 74
     0
 42
0.000000001
 43
0.00000001
 40
0.0
 40
0.0
 40
0.0
 40
0.0
 40
0.5000000000000001
 40
0.5000000000000001
 40
0.7500000000000002
 40
0.7500000000000002
 40
1.0
 40
1.0
 40
1.0
 40
1.0
 10
31.45289445175472
 20
6.035249904124188
 30
0.0
 10
31.28654924470112
 20
6.159006568514934
 30
0.0
 10
31.10193157258284
 20
6.230206266570447
 30
0.0
 10
30.826888772492
 20
6.256112272175375
 30
0.0
 10
30.73805382954269
 20
6.251156606373516
 30
0.0
 10
30.56538698711736
 20
6.214898474779521
 30
0.0
 10
30.48222053960387
 20
6.18334125741361
 30
0.0
 10
30.40581931452061
 20
6.139188862160662
 30
0.0
  0
SPLINE
  5
205
330
1F
100
AcDbEntity
  8
외형선
  6
Continuous
 62
     1
370
    15
100
AcDbSpline
210
0.0
220
0.0
230
1.0
 70
     8
 71
     3
 72
     8
 73
     4
 74
     0
 42
0.000000001
 43
0.00000001
 40
0.0
 40
0.0
 40
0.0
 40
0.0
 40
1.0
 40
1.0
 40
1.0
 40
1.0
 10
30.40581931452062
 20
6.139188862160663
 30
0.0
 10
30.32791042987623
 20
6.09416518793572
 30
0.0
 10
30.22301468192746
 20
6.097537282637161
 30
0.0
 10
30.13868825409576
 20
6.158297621759862
 30
0.0
  0
SPLINE
  5
206
330
1F
100
AcDbEntity
  8
외형선
  6
Continuous
 62
     1
370
    15
100
AcDbSpline
210
0.0
220
0.0
230
1.0
 70
     8
 71
     3
 72
     8
 73
     4
 74
     0
 42
0.000000001
 43
0.00000001
 40
0.0
 40
0.0
 40
0.0
 40
0.0
 40
1.0
 40
1.0
 40
1.0
 40
1.0
 10
30.13868825409537
 20
6.158297621760119
 30
0.0
 10
30.00877726764659
 20
6.251903337018594
 30
0.0
 10
29.86538122179715
 20
6.310920314819119
 30
0.0
 10
29.72064804290459
 20
6.334691602021558
 30
0.0
  0
SPLINE
  5
207
330
1F
100
AcDbEntity
  8
외형선
  6
Continuous
 62
     1
370
    15
100
AcDbSpline
210
0.0
220
0.0
230
1.0
 70
     8
 71
     3
 72
    13
 73
     9
 74
     0
 42
0.000000001
 43
0.00000001
 40
0.0
 40
0.0
 40
0.0
 40
0.0
 40
0.224591664690022
 40
0.4507438042241871
 40
0.6300298837881911
 40
0.8101063804406381
 40
0.9926419381709418
 40
1.0
 40
1.0
 40
1.0
 40
1.0
 10
29.7206480429046
 20
6.334691602021636
 30
0.0
 10
29.69249678797857
 20
6.331610563228244
 30
0.0
 10
29.63599868170844
 20
6.325427078419882
 30
0.0
 10
29.55895005423869
 20
6.30714433284763
 30
0.0
 10
29.48897494133629
 20
6.284625830226509
 30
0.0
 10
29.42625276440841
 20
6.258125116610155
 30
0.0
 10
29.38409504047073
 20
6.238099205106849
 30
0.0
 10
29.36362558189041
 20
6.22552223182562
 30
0.0
 10
29.36283242442578
 20
6.225034895035471
 30
0.0
  0
SPLINE
  5
208
330
1F
100
AcDbEntity
  8
외형선
  6
Continuous
 62
     1
370
    15
100
AcDbSpline
210
0.0
220
0.0
230
1.0
 70
     8
 71
     3
 72
    12
 73
     8
 74
     0
 42
0.000000001
 43
0.00000001
 40
0.0
 40
0.0
 40
0.0
 40
0.0
 40
0.1583108807464097
 40
0.3694340432972977
 40
0.5871192971887078
 40
0.7899531140577013
 40
1.0
 40
1.0
 40
1.0
 40
1.0
 10
29.25342312509245
 20
6.164827988523377
 30
0.0
 10
29.24261910025511
 20
6.161100744060129
 30
0.0
 10
29.21740684345554
 20
6.152402851748984
 30
0.0
 10
29.17438123940862
 20
6.148830732062406
 30
0.0
 10
29.12765638543767
 20
6.153248866418996
 30
0.0
 10
29.08128736608814
 20
6.166637850625866
 30
0.0
 10
29.05322341085865
 20
6.183036771045959
 30
0.0
 10
29.03894629312697
 20
6.191379476683694
 30
0.0
  0
LINE
  5
209
330
1F
100
AcDbEntity
  8
외형선
  6
Continuous
 62
     1
370
    15
100
AcDbLine
 10
29.03894629312697
 20
6.191379476683695
 30
0.0
 11
28.97149388019688
 21
6.221063360104317
 31
0.0
  0
SPLINE
  5
20A
330
1F
100
AcDbEntity
  8
외형선
  6
Continuous
 62
     1
370
    15
100
AcDbSpline
210
0.0
220
0.0
230
1.0
 70
     8
 71
     3
 72
     8
 73
     4
 74
     0
 42
0.000000001
 43
0.00000001
 40
0.0
 40
0.0
 40
0.0
 40
0.0
 40
1.0
 40
1.0
 40
1.0
 40
1.0
 10
11.86899607126159
 20
-2.805822458991107
 30
0.0
 10
11.94646835647245
 20
-2.829378537440921
 30
0.0
 10
12.05132138117977
 20
-2.879091603331273
 30
0.0
 10
12.13623281015757
 20
-2.938623648955992
 30
0.0
  0
SPLINE
  5
20B
330
1F
100
AcDbEntity
  8
외형선
  6
Continuous
 62
     1
370
    15
100
AcDbSpline
210
0.0
220
0.0
230
1.0
 70
     8
 71
     3
 72
    12
 73
     8
 74
     0
 42
0.000000001
 43
0.00000001
 40
0.0
 40
0.0
 40
0.0
 40
0.0
 40
0.5
 40
0.5
 40
0.75
 40
0.75
 40
1.0
 40
1.0
 40
1.0
 40
1.0
 10
14.54939825149794
 20
-4.053844038715991
 30
0.0
 10
14.71548405053276
 20
-4.181071084858568
 30
0.0
 10
14.89983842639571
 20
-4.290872920822929
 30
0.0
 10
15.17452574491576
 20
-4.404220185222757
 30
0.0
 10
15.26324016331725
 20
-4.432599921461835
 30
0.0
 10
15.43566418593543
 20
-4.470658930543788
 30
0.0
 10
15.51869559509322
 20
-4.479935764676619
 30
0.0
 10
15.59496465297588
 20
-4.478959198826955
 30
0.0
  0
SPLINE
  5
20C
330
1F
100
AcDbEntity
  8
외형선
  6
Continuous
 62
     1
370
    15
100
AcDbSpline
210
0.0
220
0.0
230
1.0
 70
     8
 71
     3
 72
     8
 73
     4
 74
     0
 42
0.000000001
 43
0.00000001
 40
0.0
 40
0.0
 40
0.0
 40
0.0
 40
1.0
 40
1.0
 40
1.0
 40
1.0
 10
13.18302060390908
 20
-3.442329215378895
 30
0.0
 10
13.26088444373368
 20
-3.457670692153727
 30
0.0
 10
13.36575224371022
 20
-3.503729120935307
 30
0.0
 10
13.45003781731731
 20
-3.56680781258069
 30
0.0
  0
SPLINE
  5
20D
330
1F
100
AcDbEntity
  8
외형선
  6
Continuous
370
    15
100
AcDbSpline
210
0.0
220
0.0
230
1.0
 70
     8
 71
     3
 72
     8
 73
     4
 74
     0
 42
0.000000001
 43
0.00000001
 40
0.0
 40
0.0
 40
0.0
 40
0.0
 40
1.0
 40
1.0
 40
1.0
 40
1.0
 10
11.05134403105485
 20
-6.335293699857576
 30
0.0
 10
11.03422873249107
 20
-6.336116546729785
 30
0.0
 10
11.01711405575955
 20
-6.336916946268278
 30
0.0
 10
11.0
 20
-6.337694869555716
 30
0.0
  0
SPLINE
  5
20E
330
1F
100
AcDbEntity
  8
외형선
  6
Continuous
 62
     1
370
    15
100
AcDbSpline
210
0.0
220
0.0
230
1.0
 70
     8
 71
     3
 72
     8
 73
     4
 74
     0
 42
0.000000001
 43
0.00000001
 40
0.0
 40
0.0
 40
0.0
 40
0.0
 40
1.0
 40
1.0
 40
1.0
 40
1.0
 10
14.28255100821769
 20
-3.939957403387706
 30
0.0
 10
14.35988772536788
 20
-3.947241573477837
 30
0.0
 10
14.46462609432487
 20
-3.988905848845681
 30
0.0
 10
14.54939825149861
 20
-4.053844038715206
 30
0.0
  0
SPLINE
  5
20F
330
1F
100
AcDbEntity
  8
외형선
  6
Continuous
 62
     1
370
    15
100
AcDbSpline
210
0.0
220
0.0
230
1.0
 70
     8
 71
     3
 72
     8
 73
     4
 74
     0
 42
0.000000001
 43
0.00000001
 40
0.0
 40
0.0
 40
0.0
 40
0.0
 40
1.0
 40
1.0
 40
1.0
 40
1.0
 10
15.59496465297588
 20
-4.478959198826971
 30
0.0
 10
15.67275867835704
 20
-4.477963106956898
 30
0.0
 10
15.77756545846145
 20
-4.515122849960471
 30
0.0
 10
15.86178726243033
 20
-4.582224050931756
 30
0.0
  0
SPLINE
  5
210
330
1F
100
AcDbEntity
  8
외형선
  6
Continuous
 62
     1
370
    15
100
AcDbSpline
210
0.0
220
0.0
230
1.0
 70
     8
 71
     3
 72
     8
 73
     4
 74
     0
 42
0.000000001
 43
0.00000001
 40
0.0
 40
0.0
 40
0.0
 40
0.0
 40
1.0
 40
1.0
 40
1.0
 40
1.0
 10
15.86178726243033
 20
-4.582224050931751
 30
0.0
 10
15.99158566984391
 20
-4.685637046274732
 30
0.0
 10
16.13487854902826
 20
-4.775222095882546
 30
0.0
 10
16.27949864041045
 20
-4.841391331490484
 30
0.0
  0
SPLINE
  5
211
330
1F
100
AcDbEntity
  8
외형선
  6
Continuous
 62
     1
370
    15
100
AcDbSpline
210
0.0
220
0.0
230
1.0
 70
     8
 71
     3
 72
     8
 73
     4
 74
     0
 42
0.000000001
 43
0.00000001
 40
0.0
 40
0.0
 40
0.0
 40
0.0
 40
1.0
 40
1.0
 40
1.0
 40
1.0
 10
16.27949859003549
 20
-4.841391316839841
 30
0.0
 10
16.42767269782087
 20
-4.8844848905757
 30
0.0
 10
16.56984459588913
 20
-4.899175176900332
 30
0.0
 10
16.69403921397139
 20
-4.884326453801052
 30
0.0
  0
SPLINE
  5
212
330
1F
100
AcDbEntity
  8
외형선
  6
Continuous
 62
     1
370
    15
100
AcDbSpline
210
0.0
220
0.0
230
1.0
 70
     8
 71
     3
 72
     8
 73
     4
 74
     0
 42
0.000000001
 43
0.00000001
 40
0.0
 40
0.0
 40
0.0
 40
0.0
 40
1.0
 40
1.0
 40
1.0
 40
1.0
 10
16.69403921397136
 20
-4.884326453801053
 30
0.0
 10
16.771383035115
 20
-4.875079217476842
 30
0.0
 10
16.8761315758338
 20
-4.906777767286902
 30
0.0
 10
16.96090888730568
 20
-4.974092548140325
 30
0.0
  0
SPLINE
  5
213
330
1F
100
AcDbEntity
  8
외형선
  6
Continuous
 62
     1
370
    15
100
AcDbSpline
210
0.0
220
0.0
230
1.0
 70
     8
 71
     3
 72
    12
 73
     8
 74
     0
 42
0.000000001
 43
0.00000001
 40
0.0
 40
0.0
 40
0.0
 40
0.0
 40
0.5000000000000004
 40
0.5000000000000004
 40
0.7500000000000002
 40
0.7500000000000002
 40
1.0
 40
1.0
 40
1.0
 40
1.0
 10
16.96090888730569
 20
-4.974092548140342
 30
0.0
 10
17.12709552057673
 20
-5.10604786266008
 30
0.0
 10
17.31156569122361
 20
-5.206825213515546
 30
0.0
 10
17.58637592029416
 20
-5.293315088808402
 30
0.0
 10
17.67512841791079
 20
-5.31075544110366
 30
0.0
 10
17.84762766439484
 20
-5.323254945415147
 30
0.0
 10
17.93070306221356
 20
-5.317949161931524
 30
0.0
 10
18.00702447136621
 20
-5.301060581423696
 30
0.0
  0
SPLINE
  5
214
330
1F
100
AcDbEntity
  8
외형선
  6
Continuous
 62
     1
370
    15
100
AcDbSpline
210
0.0
220
0.0
230
1.0
 70
     8
 71
     3
 72
     8
 73
     4
 74
     0
 42
0.000000001
 43
0.00000001
 40
0.0
 40
0.0
 40
0.0
 40
0.0
 40
1.0
 40
1.0
 40
1.0
 40
1.0
 10
18.00702447136622
 20
-5.301060581423678
 30
0.0
 10
18.08491179434142
 20
-5.283825491830731
 30
0.0
 10
18.18979106743582
 20
-5.310327569338635
 30
0.0
 10
18.274104816711
 20
-5.378301402055341
 30
0.0
  0
SPLINE
  5
215
330
1F
100
AcDbEntity
  8
외형선
  6
Continuous
 62
     1
370
    15
100
AcDbSpline
210
0.0
220
0.0
230
1.0
 70
     8
 71
     3
 72
     8
 73
     4
 74
     0
 42
0.000000001
 43
0.00000001
 40
0.0
 40
0.0
 40
0.0
 40
0.0
 40
1.0
 40
1.0
 40
1.0
 40
1.0
 10
18.274104816711
 20
-5.378301402055342
 30
0.0
 10
18.4040367535737
 20
-5.483052665245384
 30
0.0
 10
18.54748189772187
 20
-5.565618875576237
 30
0.0
 10
18.69227130882303
 20
-5.619289369019818
 30
0.0
  0
SPLINE
  5
216
330
1F
100
AcDbEntity
  8
외형선
  6
Continuous
 62
     1
370
    15
100
AcDbSpline
210
0.0
220
0.0
230
1.0
 70
     8
 71
     3
 72
     8
 73
     4
 74
     0
 42
0.000000001
 43
0.00000001
 40
0.0
 40
0.0
 40
0.0
 40
0.0
 40
1.0
 40
1.0
 40
1.0
 40
1.0
 10
18.69227125837526
 20
-5.619289360584332
 30
0.0
 10
18.84067101459872
 20
-5.644103495085668
 30
0.0
 10
18.98307105944912
 20
-5.63588601844317
 30
0.0
 10
19.10749943553473
 20
-5.595245383561521
 30
0.0
  0
SPLINE
  5
217
330
1F
100
AcDbEntity
  8
외형선
  6
Continuous
 62
     1
370
    15
100
AcDbSpline
210
0.0
220
0.0
230
1.0
 70
     8
 71
     3
 72
     8
 73
     4
 74
     0
 42
0.000000001
 43
0.00000001
 40
0.0
 40
0.0
 40
0.0
 40
0.0
 40
1.0
 40
1.0
 40
1.0
 40
1.0
 10
19.10749943553473
 20
-5.595245383561518
 30
0.0
 10
19.18496961557006
 20
-5.569942173794759
 30
0.0
 10
19.28981742851616
 20
-5.590145144109286
 30
0.0
 10
19.37470298993289
 20
-5.656663962612562
 30
0.0
  0
SPLINE
  5
218
330
1F
100
AcDbEntity
  8
외형선
  6
Continuous
 62
     1
370
    15
100
AcDbSpline
210
0.0
220
0.0
230
1.0
 70
     8
 71
     3
 72
    12
 73
     8
 74
     0
 42
0.000000001
 43
0.00000001
 40
0.0
 40
0.0
 40
0.0
 40
0.0
 40
0.5000000000000016
 40
0.5000000000000016
 40
0.7500000000000008
 40
0.7500000000000008
 40
1.0
 40
1.0
 40
1.0
 40
1.0
 10
19.3747029899329
 20
-5.656663962612566
 30
0.0
 10
19.54099407962439
 20
-5.786974543461475
 30
0.0
 10
19.72552664368573
 20
-5.873869258303671
 30
0.0
 10
20.00043605570961
 20
-5.929352643242401
 30
0.0
 10
20.08921937466788
 20
-5.935013618698648
 30
0.0
 10
20.26177308213429
 20
-5.921307939535426
 30
0.0
 10
20.34487256036127
 20
-5.901629009554617
 30
0.0
 10
20.42120536836678
 20
-5.869560488466687
 30
0.0
  0
SPLINE
  5
219
330
1F
100
AcDbEntity
  8
외형선
  6
Continuous
 62
     1
370
    15
100
AcDbSpline
210
0.0
220
0.0
230
1.0
 70
     8
 71
     3
 72
     8
 73
     4
 74
     0
 42
0.000000001
 43
0.00000001
 40
0.0
 40
0.0
 40
0.0
 40
0.0
 40
1.0
 40
1.0
 40
1.0
 40
1.0
 10
20.42120536836677
 20
-5.869560488466679
 30
0.0
 10
20.49905067737119
 20
-5.836856543745762
 30
0.0
 10
20.60388258468772
 20
-5.851372149119749
 30
0.0
 10
20.68814942760266
 20
-5.916891144553475
 30
0.0
  0
SPLINE
  5
21A
330
1F
100
AcDbEntity
  8
외형선
  6
Continuous
 62
     1
370
    15
100
AcDbSpline
210
0.0
220
0.0
230
1.0
 70
     8
 71
     3
 72
     8
 73
     4
 74
     0
 42
0.000000001
 43
0.00000001
 40
0.0
 40
0.0
 40
0.0
 40
0.0
 40
1.0
 40
1.0
 40
1.0
 40
1.0
 10
20.68814942760267
 20
-5.916891144553484
 30
0.0
 10
20.81793636032166
 20
-6.017802833635698
 30
0.0
 10
20.9612938806683
 20
-6.089328865862352
 30
0.0
 10
21.10598781462403
 20
-6.12788237655054
 30
0.0
  0
SPLINE
  5
21B
330
1F
100
AcDbEntity
  8
외형선
  6
Continuous
 62
     1
370
    15
100
AcDbSpline
210
0.0
220
0.0
230
1.0
 70
     8
 71
     3
 72
     8
 73
     4
 74
     0
 42
0.000000001
 43
0.00000001
 40
0.0
 40
0.0
 40
0.0
 40
0.0
 40
1.0
 40
1.0
 40
1.0
 40
1.0
 10
21.10598776423458
 20
-6.127882374762768
 30
0.0
 10
21.25419523285664
 20
-6.133140509969722
 30
0.0
 10
21.39638426553563
 20
-6.102296469123033
 30
0.0
 10
21.52057487815031
 20
-6.03773638068748
 30
0.0
  0
SPLINE
  5
21C
330
1F
100
AcDbEntity
  8
외형선
  6
Continuous
 62
     1
370
    15
100
AcDbSpline
210
0.0
220
0.0
230
1.0
 70
     8
 71
     3
 72
     8
 73
     4
 74
     0
 42
0.000000001
 43
0.00000001
 40
0.0
 40
0.0
 40
0.0
 40
0.0
 40
1.0
 40
1.0
 40
1.0
 40
1.0
 10
21.52057487815035
 20
-6.037736380687481
 30
0.0
 10
21.59791041479342
 20
-5.997533752004276
 30
0.0
 10
21.70265071700614
 20
-6.005292988544074
 30
0.0
 10
21.7874075250832
 20
-6.067738490803908
 30
0.0
  0
SPLINE
  5
21D
330
1F
100
AcDbEntity
  8
외형선
  6
Continuous
 62
     1
370
    15
100
AcDbSpline
210
0.0
220
0.0
230
1.0
 70
     8
 71
     3
 72
    12
 73
     8
 74
     0
 42
0.000000001
 43
0.00000001
 40
0.0
 40
0.0
 40
0.0
 40
0.0
 40
0.4999999999999999
 40
0.4999999999999999
 40
0.7499999999999999
 40
0.7499999999999999
 40
1.0
 40
1.0
 40
1.0
 40
1.0
 10
21.7874075250832
 20
-6.067738490803911
 30
0.0
 10
21.95353174687395
 20
-6.190132322079569
 30
0.0
 10
22.137923744614
 20
-6.258970670412139
 30
0.0
 10
22.41258906478059
 20
-6.280689777121486
 30
0.0
 10
22.50128738516752
 20
-6.274264343883423
 30
0.0
 10
22.67366770014394
 20
-6.234969848951518
 30
0.0
 10
22.7566723086523
 20
-6.201859229940047
 30
0.0
 10
22.83291692430117
 20
-6.156184063941998
 30
0.0
  0
SPLINE
  5
21E
330
1F
100
AcDbEntity
  8
외형선
  6
Continuous
 62
     1
370
    15
100
AcDbSpline
210
0.0
220
0.0
230
1.0
 70
     8
 71
     3
 72
     8
 73
     4
 74
     0
 42
0.000000001
 43
0.00000001
 40
0.0
 40
0.0
 40
0.0
 40
0.0
 40
1.0
 40
1.0
 40
1.0
 40
1.0
 10
22.83291692430117
 20
-6.156184063942
 30
0.0
 10
22.91071132153144
 20
-6.109580484437132
 30
0.0
 10
23.01548359622083
 20
-6.111427488786573
 30
0.0
 10
23.09972709956904
 20
-6.171341937900333
 30
0.0
  0
SPLINE
  5
21F
330
1F
100
AcDbEntity
  8
외형선
  6
Continuous
 62
     1
370
    15
100
AcDbSpline
210
0.0
220
0.0
230
1.0
 70
     8
 71
     3
 72
     8
 73
     4
 74
     0
 42
0.000000001
 43
0.00000001
 40
0.0
 40
0.0
 40
0.0
 40
0.0
 40
1.0
 40
1.0
 40
1.0
 40
1.0
 10
23.09972709956823
 20
-6.171341937899748
 30
0.0
 10
23.22947027876148
 20
-6.263616010067654
 30
0.0
 10
23.37281656310569
 20
-6.320743704186281
 30
0.0
 10
23.51748382993263
 20
-6.342391137829519
 30
0.0
  0
SPLINE
  5
220
330
1F
100
AcDbEntity
  8
외형선
  6
Continuous
 62
     1
370
    15
100
AcDbSpline
210
0.0
220
0.0
230
1.0
 70
     8
 71
     3
 72
    10
 73
     6
 74
     0
 42
0.000000001
 43
0.00000001
 40
0.0
 40
0.0
 40
0.0
 40
0.0
 40
0.3723364361073984
 40
0.7472608764901457
 40
1.0
 40
1.0
 40
1.0
 40
1.0
 10
23.51748382993264
 20
-6.342391137829521
 30
0.0
 10
23.54559597818673
 20
-6.33881808512411
 30
0.0
 10
23.60201567421214
 20
-6.331647144443947
 30
0.0
 10
23.67589248751085
 20
-6.313450683094381
 30
0.0
 10
23.72081671268311
 20
-6.297378789455355
 30
0.0
 10
23.73890619556464
 20
-6.290907175448831
 30
0.0
  0
SPLINE
  5
221
330
1F
100
AcDbEntity
  8
외형선
  6
Continuous
 62
     1
370
    15
100
AcDbSpline
210
0.0
220
0.0
230
1.0
 70
     8
 71
     3
 72
    10
 73
     6
 74
     0
 42
0.000000001
 43
0.00000001
 40
0.0
 40
0.0
 40
0.0
 40
0.0
 40
0.2227785963383029
 40
0.6045896317684624
 40
1.0
 40
1.0
 40
1.0
 40
1.0
 10
24.08504109866404
 20
-6.150490936663129
 30
0.0
 10
24.09378526261154
 20
-6.150956051227642
 30
0.0
 10
24.11751568801162
 20
-6.152218306434887
 30
0.0
 10
24.15663109803396
 20
-6.163991384283911
 30
0.0
 10
24.18472060259005
 20
-6.179904563663695
 30
0.0
 10
24.19901110113735
 20
-6.188000372771176
 30
0.0
  0
SPLINE
  5
222
330
1F
100
AcDbEntity
  8
외형선
  6
Continuous
 62
     1
370
    15
100
AcDbSpline
210
0.0
220
0.0
230
1.0
 70
     8
 71
     3
 72
     9
 73
     5
 74
     0
 42
0.000000001
 43
0.00000001
 40
0.0
 40
0.0
 40
0.0
 40
0.0
 40
0.2595122671143013
 40
1.0
 40
1.0
 40
1.0
 40
1.0
 10
17.63850079884207
 20
-5.287707129982733
 30
0.0
 10
17.63311031112181
 20
-5.290352968441122
 30
0.0
 10
17.61233870066887
 20
-5.300548395762576
 30
0.0
 10
17.59317723611668
 20
-5.31510360739415
 30
0.0
 10
17.57898840667165
 20
-5.325881563056885
 30
0.0
  0
SPLINE
  5
223
330
1F
100
AcDbEntity
  8
외형선
  6
Continuous
 62
     1
370
    15
100
AcDbSpline
210
0.0
220
0.0
230
1.0
 70
     8
 71
     3
 72
    12
 73
     8
 74
     0
 42
0.000000001
 43
0.00000001
 40
0.0
 40
0.0
 40
0.0
 40
0.0
 40
0.5000000000000009
 40
0.5000000000000009
 40
0.7500000000000004
 40
0.7500000000000004
 40
1.0
 40
1.0
 40
1.0
 40
1.0
 10
17.57898840667166
 20
-5.325881563056857
 30
0.0
 10
17.41289874538705
 20
-5.457801507763315
 30
0.0
 10
17.22853618827374
 20
-5.552622453166991
 30
0.0
 10
16.95385978379342
 20
-5.624971514096392
 30
0.0
 10
16.86515139413156
 20
-5.636947089880753
 30
0.0
 10
16.69274228074025
 20
-5.637131259326936
 30
0.0
 10
16.60971957727491
 20
-5.62499794801825
 30
0.0
 10
16.53345756509572
 20
-5.60083485630808
 30
0.0
  0
SPLINE
  5
224
330
1F
100
AcDbEntity
  8
외형선
  6
Continuous
 62
     1
370
    15
100
AcDbSpline
210
0.0
220
0.0
230
1.0
 70
     8
 71
     3
 72
     8
 73
     4
 74
     0
 42
0.000000001
 43
0.00000001
 40
0.0
 40
0.0
 40
0.0
 40
0.0
 40
1.0
 40
1.0
 40
1.0
 40
1.0
 10
16.53345756509574
 20
-5.600834856308077
 30
0.0
 10
16.45565803142724
 20
-5.576184611535843
 30
0.0
 10
16.35085170287285
 20
-5.597188316927153
 30
0.0
 10
16.26662439114666
 20
-5.664378268619726
 30
0.0
  0
SPLINE
  5
225
330
1F
100
AcDbEntity
  8
외형선
  6
Continuous
 62
     1
370
    15
100
AcDbSpline
210
0.0
220
0.0
230
1.0
 70
     8
 71
     3
 72
     8
 73
     4
 74
     0
 42
0.000000001
 43
0.00000001
 40
0.0
 40
0.0
 40
0.0
 40
0.0
 40
1.0
 40
1.0
 40
1.0
 40
1.0
 10
16.26662439114666
 20
-5.664378268619727
 30
0.0
 10
16.13682928922351
 20
-5.767918633964651
 30
0.0
 10
15.99352765783716
 20
-5.84577988838596
 30
0.0
 10
15.84887366488016
 20
-5.892646471471481
 30
0.0
  0
SPLINE
  5
226
330
1F
100
AcDbEntity
  8
외형선
  6
Continuous
 62
     1
370
    15
100
AcDbSpline
210
0.0
220
0.0
230
1.0
 70
     8
 71
     3
 72
     8
 73
     4
 74
     0
 42
0.000000001
 43
0.00000001
 40
0.0
 40
0.0
 40
0.0
 40
0.0
 40
1.0
 40
1.0
 40
1.0
 40
1.0
 10
15.84887366490292
 20
-5.89264647146774
 30
0.0
 10
15.70066653545935
 20
-5.908386285322138
 30
0.0
 10
15.55846979423871
 20
-5.889435878057358
 30
0.0
 10
15.43425080962583
 20
-5.837278518911711
 30
0.0
  0
SPLINE
  5
227
330
1F
100
AcDbEntity
  8
외형선
  6
Continuous
 62
     1
370
    15
100
AcDbSpline
210
0.0
220
0.0
230
1.0
 70
     8
 71
     3
 72
     8
 73
     4
 74
     0
 42
0.000000001
 43
0.00000001
 40
0.0
 40
0.0
 40
0.0
 40
0.0
 40
1.0
 40
1.0
 40
1.0
 40
1.0
 10
15.43425080962581
 20
-5.837278518911702
 30
0.0
 10
15.35688490343385
 20
-5.804793940427519
 30
0.0
 10
15.25211697262388
 20
-5.819267928619132
 30
0.0
 10
15.16732193711662
 20
-5.884253221675638
 30
0.0
  0
SPLINE
  5
228
330
1F
100
AcDbEntity
  8
외형선
  6
Continuous
 62
     1
370
    15
100
AcDbSpline
210
0.0
220
0.0
230
1.0
 70
     8
 71
     3
 72
    12
 73
     8
 74
     0
 42
0.000000001
 43
0.00000001
 40
0.0
 40
0.0
 40
0.0
 40
0.0
 40
0.4999999999999997
 40
0.4999999999999997
 40
0.7499999999999998
 40
0.7499999999999998
 40
1.0
 40
1.0
 40
1.0
 40
1.0
 10
15.16732193711662
 20
-5.884253221675634
 30
0.0
 10
15.00107020696135
 20
-6.011665367217645
 30
0.0
 10
14.81653483667523
 20
-6.090570780465425
 30
0.0
 10
14.54165466846015
 20
-6.130451765729573
 30
0.0
 10
14.45288108352816
 20
-6.130443059318184
 30
0.0
 10
14.2803418599332
 20
-6.104600751591039
 30
0.0
 10
14.19724424091967
 20
-6.078485379490496
 30
0.0
 10
14.1208984307425
 20
-6.039839743859645
 30
0.0
  0
SPLINE
  5
229
330
1F
100
AcDbEntity
  8
외형선
  6
Continuous
 62
     1
370
    15
100
AcDbSpline
210
0.0
220
0.0
230
1.0
 70
     8
 71
     3
 72
     8
 73
     4
 74
     0
 42
0.000000001
 43
0.00000001
 40
0.0
 40
0.0
 40
0.0
 40
0.0
 40
1.0
 40
1.0
 40
1.0
 40
1.0
 10
14.12089843074252
 20
-6.039839743859648
 30
0.0
 10
14.04297394822519
 20
-6.000394996975709
 30
0.0
 10
13.93806970385147
 20
-6.009035264510688
 30
0.0
 10
13.85372000060245
 20
-6.072325494070236
 30
0.0
  0
SPLINE
  5
22A
330
1F
100
AcDbEntity
  8
외형선
  6
Continuous
 62
     1
370
    15
100
AcDbSpline
210
0.0
220
0.0
230
1.0
 70
     8
 71
     3
 72
     8
 73
     4
 74
     0
 42
0.000000001
 43
0.00000001
 40
0.0
 40
0.0
 40
0.0
 40
0.0
 40
1.0
 40
1.0
 40
1.0
 40
1.0
 10
13.85372000060243
 20
-6.072325494070243
 30
0.0
 10
13.72376295270914
 20
-6.169836345646866
 30
0.0
 10
13.58024944589239
 20
-6.234999101623311
 30
0.0
 10
13.43540539922273
 20
-6.265831830692823
 30
0.0
  0
SPLINE
  5
22B
330
1F
100
AcDbEntity
  8
외형선
  6
Continuous
 62
     1
370
    15
100
AcDbSpline
210
0.0
220
0.0
230
1.0
 70
     8
 71
     3
 72
     8
 73
     4
 74
     0
 42
0.000000001
 43
0.00000001
 40
0.0
 40
0.0
 40
0.0
 40
0.0
 40
1.0
 40
1.0
 40
1.0
 40
1.0
 10
13.43540539922235
 20
-6.2658318306929
 30
0.0
 10
13.28702544279503
 20
-6.261855107764946
 30
0.0
 10
13.1446507967859
 20
-6.220935788644866
 30
0.0
 10
13.02026888028635
 20
-6.146197249584289
 30
0.0
  0
SPLINE
  5
22C
330
1F
100
AcDbEntity
  8
외형선
  6
Continuous
 62
     1
370
    15
100
AcDbSpline
210
0.0
220
0.0
230
1.0
 70
     8
 71
     3
 72
     8
 73
     4
 74
     0
 42
0.000000001
 43
0.00000001
 40
0.0
 40
0.0
 40
0.0
 40
0.0
 40
1.0
 40
1.0
 40
1.0
 40
1.0
 10
13.02026888028633
 20
-6.146197249584283
 30
0.0
 10
12.94283625422635
 20
-6.099669574901214
 30
0.0
 10
12.83801854008096
 20
-6.101419545238278
 30
0.0
 10
12.75317160032028
 20
-6.160960479343412
 30
0.0
  0
SPLINE
  5
22D
330
1F
100
AcDbEntity
  8
외형선
  6
Continuous
 62
     1
370
    15
100
AcDbSpline
210
0.0
220
0.0
230
1.0
 70
     8
 71
     3
 72
    10
 73
     6
 74
     0
 42
0.000000001
 43
0.00000001
 40
0.0
 40
0.0
 40
0.0
 40
0.0
 40
0.5
 40
0.5
 40
1.0
 40
1.0
 40
1.0
 40
1.0
 10
12.7531716003203
 20
-6.160960479343403
 30
0.0
 10
12.63605897085337
 20
-6.243143706854461
 30
0.0
 10
12.51024770631036
 20
-6.296485851829706
 30
0.0
 10
12.25287980309863
 20
-6.34849619826183
 30
0.0
 10
12.12283946873891
 20
-6.346205058016567
 30
0.0
 10
12.0
 20
-6.317436836432377
 30
0.0
  0
SPLINE
  5
22E
330
1F
100
AcDbEntity
  8
외형선
  6
Continuous
370
    15
100
AcDbSpline
210
0.0
220
0.0
230
1.0
 70
    24
 71
     3
 72
     9
 73
     5
 74
     0
 42
0.000000001
 43
0.00000001
 40
0.0
 40
0.0
 40
0.0
 40
0.0
 40
0.5
 40
1.0
 40
1.0
 40
1.0
 40
1.0
 10
12.0
 20
-6.266935117140754
 30
0.0
 10
12.0
 20
-6.27534435912272
 30
0.0
 10
12.0
 20
-6.292170838866855
 30
0.0
 10
12.0
 20
-6.309012456634166
 30
0.0
 10
12.0
 20
-6.317436836424199
 30
0.0
  0
SPLINE
  5
22F
330
1F
100
AcDbEntity
  8
외형선
  6
Continuous
 62
     1
370
    15
100
AcDbSpline
210
0.0
220
0.0
230
1.0
 70
     8
 71
     3
 72
     8
 73
     4
 74
     0
 42
0.000000001
 43
0.00000001
 40
0.0
 40
0.0
 40
0.0
 40
0.0
 40
1.0
 40
1.0
 40
1.0
 40
1.0
 10
12.0
 20
-6.266935117140755
 30
0.0
 10
11.95858276593242
 20
-6.270899224627608
 30
0.0
 10
11.9171812162059
 20
-6.274736010738875
 30
0.0
 10
11.87579533653463
 20
-6.278444727362256
 30
0.0
  0
SPLINE
  5
230
330
1F
100
AcDbEntity
  8
외형선
  6
Continuous
 62
     1
370
    15
100
AcDbSpline
210
0.0
220
0.0
230
1.0
 70
     8
 71
     3
 72
     8
 73
     4
 74
     0
 42
0.000000001
 43
0.00000001
 40
0.0
 40
0.0
 40
0.0
 40
0.0
 40
1.0
 40
1.0
 40
1.0
 40
1.0
 10
11.87579533653463
 20
-6.278444727362258
 30
0.0
 10
11.81673695204154
 20
-6.254978984515975
 30
0.0
 10
11.76043800484956
 20
-6.225292592827996
 30
0.0
 10
11.70700945329712
 20
-6.189327711238994
 30
0.0
  0
SPLINE
  5
231
330
1F
100
AcDbEntity
  8
외형선
  6
Continuous
370
    15
100
AcDbSpline
210
0.0
220
0.0
230
1.0
 70
     8
 71
     3
 72
     8
 73
     4
 74
     0
 42
0.000000001
 43
0.00000001
 40
0.0
 40
0.0
 40
0.0
 40
0.0
 40
1.0
 40
1.0
 40
1.0
 40
1.0
 10
11.70700945329713
 20
-6.189327711238996
 30
0.0
 10
11.62918797579296
 20
-6.136942981685332
 30
0.0
 10
11.5243931909466
 20
-6.132765269853865
 30
0.0
 10
11.44013174316084
 20
-6.189051815374816
 30
0.0
  0
SPLINE
  5
232
330
1F
100
AcDbEntity
  8
외형선
  6
Continuous
370
    15
100
AcDbSpline
210
0.0
220
0.0
230
1.0
 70
     8
 71
     3
 72
     8
 73
     4
 74
     0
 42
0.000000001
 43
0.00000001
 40
0.0
 40
0.0
 40
0.0
 40
0.0
 40
1.0
 40
1.0
 40
1.0
 40
1.0
 10
11.44013174316086
 20
-6.189051815374791
 30
0.0
 10
11.31905848913878
 20
-6.26992860307503
 30
0.0
 10
11.18593484711274
 20
-6.318383257490552
 30
0.0
 10
11.05134403105484
 20
-6.33529369985757
 30
0.0
  0
SPLINE
  5
233
330
1F
100
AcDbEntity
  8
외형선
  6
Continuous
 62
     1
370
    15
100
AcDbSpline
210
0.0
220
0.0
230
1.0
 70
     8
 71
     3
 72
    12
 73
     8
 74
     0
 42
0.000000001
 43
0.00000001
 40
0.0
 40
0.0
 40
0.0
 40
0.0
 40
0.2499999999999997
 40
0.2499999999999997
 40
0.4999999999999993
 40
0.4999999999999993
 40
1.0
 40
1.0
 40
1.0
 40
1.0
 10
36.95887190969473
 20
4.732747710922726
 30
0.0
 10
36.94483677441875
 20
4.581427039198561
 30
0.0
 10
36.93131127197768
 20
4.422973172287179
 30
0.0
 10
36.90367391484203
 20
4.087796928115389
 30
0.0
 10
36.88953777769117
 20
3.910851903988184
 30
0.0
 10
36.84651856046955
 20
3.355620101079699
 30
0.0
 10
36.8170214012172
 20
2.952693594778005
 30
0.0
 10
36.7877308945906
 20
2.530533731811561
 30
0.0
  0
SPLINE
  5
234
330
1F
100
AcDbEntity
  8
외형선
  6
Continuous
 62
     1
370
    15
100
AcDbSpline
210
0.0
220
0.0
230
1.0
 70
     8
 71
     3
 72
    10
 73
     6
 74
     0
 42
0.000000001
 43
0.00000001
 40
0.0
 40
0.0
 40
0.0
 40
0.0
 40
0.4999999999999998
 40
0.4999999999999998
 40
1.0
 40
1.0
 40
1.0
 40
1.0
 10
19.4666048685228
 20
4.815007352031118
 30
0.0
 10
19.43831699793862
 20
4.518149361133822
 30
0.0
 10
19.41152871271173
 20
4.190163678059435
 30
0.0
 10
19.35443321697879
 20
3.46120594816326
 30
0.0
 10
19.32497783635957
 20
3.062883647582103
 30
0.0
 10
19.29563416074791
 20
2.64390992588201
 30
0.0
  0
SPLINE
  5
235
330
1F
100
AcDbEntity
  8
외형선
  6
Continuous
 62
     1
370
    15
100
AcDbSpline
210
0.0
220
0.0
230
1.0
 70
     8
 71
     3
 72
    12
 73
     8
 74
     0
 42
0.000000001
 43
0.00000001
 40
0.0
 40
0.0
 40
0.0
 40
0.0
 40
0.25
 40
0.25
 40
0.5
 40
0.5
 40
1.0
 40
1.0
 40
1.0
 40
1.0
 10
16.4508885878157
 20
-2.68214525865363
 30
0.0
 10
16.43697249940395
 20
-2.887120327483689
 30
0.0
 10
16.42352282278388
 20
-3.084794336840937
 30
0.0
 10
16.39567296893842
 20
-3.472195771835534
 30
0.0
 10
16.38145149289463
 20
-3.66099856069251
 30
0.0
 10
16.33824627445792
 20
-4.207183868724608
 30
0.0
 10
16.30871994749171
 20
-4.544039053121595
 30
0.0
 10
16.27949864041048
 20
-4.841391331490486
 30
0.0
  0
SPLINE
  5
236
330
1F
100
AcDbEntity
  8
외형선
  6
Continuous
 62
     1
370
    15
100
AcDbSpline
210
0.0
220
0.0
230
1.0
 70
     8
 71
     3
 72
    12
 73
     8
 74
     0
 42
0.000000001
 43
0.00000001
 40
0.0
 40
0.0
 40
0.0
 40
0.0
 40
0.2500000000000002
 40
0.2500000000000002
 40
0.5000000000000004
 40
0.5000000000000004
 40
1.0
 40
1.0
 40
1.0
 40
1.0
 10
33.94329109761007
 20
-2.793834473164115
 30
0.0
 10
33.92949743166532
 20
-2.996216424838875
 30
0.0
 10
33.91598596288816
 20
-3.192022706882244
 30
0.0
 10
33.88794933229531
 20
-3.575454475049745
 30
0.0
 10
33.87365506035299
 20
-3.76193533529029
 30
0.0
 10
33.83029950459804
 20
-4.300227813638996
 30
0.0
 10
33.80076510403939
 20
-4.630569809659868
 30
0.0
 10
33.77162903246481
 20
-4.92060043730006
 30
0.0
  0
SPLINE
  5
237
330
1F
100
AcDbEntity
  8
외형선
  6
Continuous
 62
     1
370
    15
100
AcDbSpline
210
0.0
220
0.0
230
1.0
 70
     8
 71
     3
 72
    12
 73
     8
 74
     0
 42
0.000000001
 43
0.00000001
 40
0.0
 40
0.0
 40
0.0
 40
0.0
 40
0.4999999999999994
 40
0.4999999999999994
 40
0.7499999999999997
 40
0.7499999999999997
 40
1.0
 40
1.0
 40
1.0
 40
1.0
 10
34.54665733484022
 20
5.540857296391174
 30
0.0
 10
34.51728253321108
 20
5.315412520923533
 30
0.0
 10
34.48802340929403
 20
5.045969876254034
 30
0.0
 10
34.44580358076077
 20
4.592360648644361
 30
0.0
 10
34.43223654032547
 20
4.433943719633681
 30
0.0
 10
34.40457803892272
 20
4.09899656399647
 30
0.0
 10
34.39042784041619
 20
3.922109657530515
 30
0.0
 10
34.37607084552676
 20
3.73703282385695
 30
0.0
  0
SPLINE
  5
238
330
1F
100
AcDbEntity
  8
외형선
  6
Continuous
 62
     1
370
    15
100
AcDbSpline
210
0.0
220
0.0
230
1.0
 70
     8
 71
     3
 72
    10
 73
     6
 74
     0
 42
0.000000001
 43
0.00000001
 40
0.0
 40
0.0
 40
0.0
 40
0.0
 40
0.5
 40
0.5
 40
1.0
 40
1.0
 40
1.0
 40
1.0
 10
17.05457572001739
 20
5.600554414917831
 30
0.0
 10
17.025197960516
 20
5.383060018564818
 30
0.0
 10
16.99584012121819
 20
5.120846204753994
 30
0.0
 10
16.93918045358664
 20
4.528141513430354
 30
0.0
 10
16.91238307244863
 20
4.200627156767093
 30
0.0
 10
16.88383290930861
 20
3.836555347540359
 30
0.0
  0
SPLINE
  5
239
330
1F
100
AcDbEntity
  8
외형선
  6
Continuous
 62
     1
370
    15
100
AcDbSpline
210
0.0
220
0.0
230
1.0
 70
     8
 71
     3
 72
    10
 73
     6
 74
     0
 42
0.000000001
 43
0.00000001
 40
0.0
 40
0.0
 40
0.0
 40
0.0
 40
0.5
 40
0.5
 40
1.0
 40
1.0
 40
1.0
 40
1.0
 10
18.86484611144665
 20
-3.870847862330369
 30
0.0
 10
18.83611591126894
 20
-4.232216851450882
 30
0.0
 10
18.80669366653624
 20
-4.566162655125811
 30
0.0
 10
18.74849981625967
 20
-5.15522532782754
 30
0.0
 10
18.71974351543618
 20
-5.410211401044401
 30
0.0
 10
18.69227130882306
 20
-5.619289369019829
 30
0.0
  0
SPLINE
  5
23A
330
1F
100
AcDbEntity
  8
외형선
  6
Continuous
 62
     1
370
    15
100
AcDbSpline
210
0.0
220
0.0
230
1.0
 70
     8
 71
     3
 72
    10
 73
     6
 74
     0
 42
0.000000001
 43
0.00000001
 40
0.0
 40
0.0
 40
0.0
 40
0.0
 40
0.4999999999999998
 40
0.4999999999999998
 40
1.0
 40
1.0
 40
1.0
 40
1.0
 10
36.35704468162247
 20
-3.968099186889815
 30
0.0
 10
36.32817347560869
 20
-4.324772619169283
 30
0.0
 10
36.29869941509287
 20
-4.65270387971671
 30
0.0
 10
36.24059141976151
 20
-5.227877130169657
 30
0.0
 10
36.21197260596914
 20
-5.47500049646301
 30
0.0
 10
36.1847170930686
 20
-5.675875353448508
 30
0.0
  0
SPLINE
  5
23B
330
1F
100
AcDbEntity
  8
외형선
  6
Continuous
 62
     1
370
    15
100
AcDbSpline
210
0.0
220
0.0
230
1.0
 70
     8
 71
     3
 72
    10
 73
     6
 74
     0
 42
0.000000001
 43
0.00000001
 40
0.0
 40
0.0
 40
0.0
 40
0.0
 40
0.5
 40
0.5
 40
1.0
 40
1.0
 40
1.0
 40
1.0
 10
32.13485497494456
 20
6.083420442536299
 30
0.0
 10
32.10653252621425
 20
5.953170677257063
 30
0.0
 10
32.07729341497439
 20
5.774467488371517
 30
0.0
 10
32.01897639272546
 20
5.329852245275191
 30
0.0
 10
31.98991404973235
 20
5.064066719646524
 30
0.0
 10
31.96192549340647
 20
4.765495954488423
 30
0.0
  0
SPLINE
  5
23C
330
1F
100
AcDbEntity
  8
외형선
  6
Continuous
 62
     1
370
    15
100
AcDbSpline
210
0.0
220
0.0
230
1.0
 70
     8
 71
     3
 72
    10
 73
     6
 74
     0
 42
0.000000001
 43
0.00000001
 40
0.0
 40
0.0
 40
0.0
 40
0.0
 40
0.5
 40
0.5
 40
1.0
 40
1.0
 40
1.0
 40
1.0
 10
14.64259252856052
 20
6.117911841538103
 30
0.0
 10
14.6144426708537
 20
5.99641914046942
 30
0.0
 10
14.58529067599873
 20
5.826360044726337
 30
0.0
 10
14.52695752312779
 20
5.397593085320525
 30
0.0
 10
14.497791962037
 20
5.13899926247139
 30
0.0
 10
14.46961647996934
 20
4.846444646292273
 30
0.0
  0
SPLINE
  5
23D
330
1F
100
AcDbEntity
  8
외형선
  6
Continuous
 62
     1
370
    15
100
AcDbSpline
210
0.0
220
0.0
230
1.0
 70
     8
 71
     3
 72
    12
 73
     8
 74
     0
 42
0.000000001
 43
0.00000001
 40
0.0
 40
0.0
 40
0.0
 40
0.0
 40
0.4999999999999996
 40
0.4999999999999996
 40
0.7499999999999998
 40
0.7499999999999998
 40
1.0
 40
1.0
 40
1.0
 40
1.0
 10
21.27639332244553
 20
-4.872855140988073
 30
0.0
 10
21.24710109560073
 20
-5.168371935914836
 30
0.0
 10
21.21816897599555
 20
-5.423644503515736
 30
0.0
 10
21.17675117434993
 20
-5.736611124728039
 30
0.0
 10
21.16312609744187
 20
-5.829882998144071
 30
0.0
 10
21.13490191235482
 20
-5.995735195729844
 30
0.0
 10
21.1205196234707
 20
-6.067748223529212
 30
0.0
 10
21.10598781462405
 20
-6.127882376550538
 30
0.0
  0
SPLINE
  5
23E
330
1F
100
AcDbEntity
  8
외형선
  6
Continuous
 62
     1
370
    15
100
AcDbSpline
210
0.0
220
0.0
230
1.0
 70
     8
 71
     3
 72
    10
 73
     6
 74
     0
 42
0.000000001
 43
0.00000001
 40
0.0
 40
0.0
 40
0.0
 40
0.0
 40
0.5
 40
0.5
 40
1.0
 40
1.0
 40
1.0
 40
1.0
 10
38.76854407022353
 20
-4.951174887648165
 30
0.0
 10
38.73931972275145
 20
-5.239538123277772
 30
0.0
 10
38.71054936937895
 20
-5.486809757983381
 30
0.0
 10
38.65580112980299
 20
-5.887591468172507
 30
0.0
 10
38.62732825457741
 20
-6.047318109267494
 30
0.0
 10
38.59816409325965
 20
-6.159056453739185
 30
0.0
  0
LINE
  5
23F
330
1F
100
AcDbEntity
  8
외형선
  6
Continuous
 62
     1
370
    15
100
AcDbLine
 10
43.75
 20
-0.3164250712761046
 30
0.0
 11
43.75
 21
-2.855763510562044
 31
0.0
  0
SPLINE
  5
240
330
1F
100
AcDbEntity
  8
외형선
  6
Continuous
 62
     1
370
    15
100
AcDbSpline
210
0.0
220
0.0
230
1.0
 70
     8
 71
     3
 72
    10
 73
     6
 74
     0
 42
0.000000001
 43
0.00000001
 40
0.0
 40
0.0
 40
0.0
 40
0.0
 40
0.5
 40
0.5
 40
1.0
 40
1.0
 40
1.0
 40
1.0
 10
29.7206480429046
 20
6.334691602021636
 30
0.0
 10
29.69225929852988
 20
6.301970685101624
 30
0.0
 10
29.6654976432821
 20
6.221999008002144
 30
0.0
 10
29.60856541896
 20
5.964688698554546
 30
0.0
 10
29.57914565627008
 20
5.78687925751447
 30
0.0
 10
29.54978749124472
 20
5.564712560496262
 30
0.0
  0
SPLINE
  5
241
330
1F
100
AcDbEntity
  8
외형선
  6
Continuous
 62
     1
370
    15
100
AcDbSpline
210
0.0
220
0.0
230
1.0
 70
     8
 71
     3
 72
    10
 73
     6
 74
     0
 42
0.000000001
 43
0.00000001
 40
0.0
 40
0.0
 40
0.0
 40
0.0
 40
0.5
 40
0.5
 40
1.0
 40
1.0
 40
1.0
 40
1.0
 10
12.22838018582583
 20
6.342379580150108
 30
0.0
 10
12.19980565207045
 20
6.318473983134535
 30
0.0
 10
12.17299470459614
 20
6.24685631409787
 30
0.0
 10
12.11638528353732
 20
6.006910335811163
 30
0.0
 10
12.08704039824616
 20
5.837632415216715
 30
0.0
 10
12.05766195072959
 20
5.623239734356043
 30
0.0
  0
SPLINE
  5
242
330
1F
100
AcDbEntity
  8
외형선
  6
Continuous
 62
     1
370
    15
100
AcDbSpline
210
0.0
220
0.0
230
1.0
 70
     8
 71
     3
 72
    12
 73
     8
 74
     0
 42
0.000000001
 43
0.00000001
 40
0.0
 40
0.0
 40
0.0
 40
0.0
 40
0.25
 40
0.25
 40
0.5
 40
0.5
 40
1.0
 40
1.0
 40
1.0
 40
1.0
 10
23.68929132122478
 20
-5.641828221448181
 30
0.0
 10
23.67556662380561
 20
-5.744985454340916
 30
0.0
 10
23.66197002602038
 20
-5.837299936909531
 30
0.0
 10
23.63384331849162
 20
-6.001281040510618
 30
0.0
 10
23.61951514351818
 20
-6.07242589139057
 30
0.0
 10
23.57609423831964
 20
-6.250490257392741
 30
0.0
 10
23.54656549721219
 20
-6.321594115176112
 30
0.0
 10
23.51748382993265
 20
-6.34239113782951
 30
0.0
  0
SPLINE
  5
243
330
1F
100
AcDbEntity
  8
외형선
  6
Continuous
 62
     1
370
    15
100
AcDbSpline
210
0.0
220
0.0
230
1.0
 70
     8
 71
     3
 72
    10
 73
     6
 74
     0
 42
0.000000001
 43
0.00000001
 40
0.0
 40
0.0
 40
0.0
 40
0.0
 40
0.3517194541546934
 40
0.7079005040319822
 40
0.9999999999999999
 40
0.9999999999999999
 40
0.9999999999999999
 40
0.9999999999999999
 10
41.18175305581288
 20
-5.697579067838523
 30
0.0
 10
41.16327147732387
 20
-5.818655457304918
 30
0.0
 10
41.12607387971271
 20
-6.062344102096046
 30
0.0
 10
41.07146116177386
 20
-6.272617104841485
 30
0.0
 10
41.03616028171746
 20
-6.31250168570812
 30
0.0
 10
41.02025456105719
 20
-6.330472710818627
 30
0.0
  0
LINE
  5
244
330
1F
100
AcDbEntity
  8
외형선
  6
Continuous
370
    15
100
AcDbLine
 10
11.99999999999999
 20
5.638634947115239
 30
0.0
 11
11.99999999999999
 21
6.347907441758197
 31
0.0
  0
LINE
  5
245
330
1F
100
AcDbEntity
  8
외형선
  6
Continuous
 62
     1
370
    15
100
AcDbLine
 10
23.95541459581123
 20
-6.163208430844795
 30
0.0
 11
23.94693779323064
 21
-6.173214550257633
 31
0.0
  0
LINE
  5
246
330
1F
100
AcDbEntity
  8
외형선
  6
Continuous
 62
     1
370
    15
100
AcDbLine
 10
41.45791696516918
 20
-6.160351890844901
 30
0.0
 11
41.45259870590206
 21
-6.165033786807659
 31
0.0
  0
LINE
  5
247
330
1F
100
AcDbEntity
  8
외형선
  6
Continuous
 62
     1
370
    15
100
AcDbLine
 10
27.9436979172758
 20
6.184325551146785
 30
0.0
 11
27.94075552567088
 21
6.185365267318669
 31
0.0
  0
LINE
  5
248
330
1F
100
AcDbEntity
  8
외형선
  6
Continuous
 62
     1
370
    15
100
AcDbLine
 10
25.30780946876546
 20
-6.179293990227565
 30
0.0
 11
25.30460997123649
 21
-6.18434536531722
 31
0.0
  0
LINE
  5
249
330
1F
100
AcDbEntity
  8
외형선
  6
Continuous
 62
     1
370
    15
100
AcDbLine
 10
42.80757985273816
 20
-6.173249900616456
 30
0.0
 11
42.80406323951858
 21
-6.177744605365246
 31
0.0
  0
LINE
  5
24A
330
1F
100
AcDbEntity
  8
외형선
  6
Continuous
 62
     1
370
    15
100
AcDbLine
 10
27.69563035286718
 20
6.172502809515143
 30
0.0
 11
27.6900520252961
 21
6.176026861596828
 31
0.0
  0
SPLINE
  5
24B
330
1F
100
AcDbEntity
  8
외형선
  6
Continuous
 62
     1
370
    15
100
AcDbSpline
210
0.0
220
0.0
230
1.0
 70
     8
 71
     3
 72
    10
 73
     6
 74
     0
 42
0.000000001
 43
0.00000001
 40
0.0
 40
0.0
 40
0.0
 40
0.0
 40
0.0086434429169923
 40
0.5978947113813546
 40
1.0
 40
1.0
 40
1.0
 40
1.0
 10
27.24438798117285
 20
6.34941546130362
 30
0.0
 10
27.2440726814601
 20
6.349750097686238
 30
0.0
 10
27.22226238751122
 20
6.372897971204309
 30
0.0
 10
27.18724139740908
 20
6.289167121911873
 30
0.0
 10
27.15214789402487
 20
6.152677759299802
 30
0.0
 10
27.13791357721309
 20
6.09731614984216
 30
0.0
  0
SPLINE
  5
24C
330
1F
100
AcDbEntity
  8
외형선
  6
Continuous
 62
     1
370
    15
100
AcDbSpline
210
0.0
220
0.0
230
1.0
 70
     8
 71
     3
 72
     8
 73
     4
 74
     0
 42
0.000000001
 43
0.00000001
 40
0.0
 40
0.0
 40
0.0
 40
0.0
 40
1.0
 40
1.0
 40
1.0
 40
1.0
 10
43.5537701479753
 20
6.326477285402629
 30
0.0
 10
43.38450946626079
 20
6.326601766578764
 30
0.0
 10
43.21335061089601
 20
6.281066831444287
 30
0.0
 10
43.05563139452102
 20
6.19403516768952
 30
0.0
  0
SPLINE
  5
24D
330
1F
100
AcDbEntity
  8
외형선
  6
Continuous
 62
     1
370
    15
100
AcDbSpline
210
0.0
220
0.0
230
1.0
 70
     8
 71
     3
 72
     8
 73
     4
 74
     0
 42
0.000000001
 43
0.00000001
 40
0.0000067019150037
 40
0.0000067019150037
 40
0.0000067019150037
 40
0.0000067019150037
 40
0.0003394518759109
 40
0.0003394518759109
 40
0.0003394518759109
 40
0.0003394518759109
 10
43.55377014797507
 20
6.326477285402153
 30
0.0
 10
43.61946892602138
 20
6.265898036629063
 30
0.0
 10
43.68488789011668
 20
6.204706916707823
 30
0.0
 10
43.75
 20
6.14287383051155
 30
0.0
  0
LINE
  5
24E
330
1F
100
AcDbEntity
  8
외형선
  6
Continuous
 62
     1
370
    15
100
AcDbLine
 10
43.75
 20
2.540413368009813
 30
0.0
 11
43.75
 21
6.14287383051155
 31
0.0
  0
LINE
  5
24F
330
1F
100
AcDbEntity
  8
외형선
  6
Continuous
 62
     1
370
    15
100
AcDbLine
 10
25.55388315840303
 20
-6.173749330721673
 30
0.0
 11
25.54989170246459
 21
-6.169541896798995
 31
0.0
  0
SPLINE
  5
250
330
1F
100
AcDbEntity
  8
외형선
  6
Continuous
 62
     1
370
    15
100
AcDbSpline
210
0.0
220
0.0
230
1.0
 70
     8
 71
     3
 72
     9
 73
     5
 74
     0
 42
0.000000001
 43
0.00000001
 40
0.0
 40
0.0
 40
0.0
 40
0.0
 40
0.5796417780112436
 40
1.0
 40
1.0
 40
1.0
 40
1.0
 10
26.10291434995604
 20
-6.140415047637298
 30
0.0
 10
26.08345254872892
 20
-6.209215871872974
 30
0.0
 10
26.04987698194715
 20
-6.327911291778235
 30
0.0
 10
26.01649684516773
 20
-6.333350790369694
 30
0.0
 10
26.00246523022139
 20
-6.33563732832611
 30
0.0
  0
SPLINE
  5
251
330
1F
100
AcDbEntity
  8
외형선
  6
Continuous
 62
     1
370
    15
100
AcDbSpline
210
0.0
220
0.0
230
1.0
 70
     8
 71
     3
 72
     8
 73
     4
 74
     0
 42
0.000000001
 43
0.00000001
 40
0.0
 40
0.0
 40
0.0
 40
0.0
 40
1.0
 40
1.0
 40
1.0
 40
1.0
 10
43.5557570016017
 20
-6.159560503182781
 30
0.0
 10
43.55359587308234
 20
-6.21997369830999
 30
0.0
 10
43.55166823320523
 20
-6.266354953509199
 30
0.0
 10
43.54999999999989
 20
-6.298671737604464
 30
0.0
  0
SPLINE
  5
252
330
1F
100
AcDbEntity
  8
외형선
  6
Continuous
 62
     1
370
    15
100
AcDbSpline
210
0.0
220
0.0
230
1.0
 70
     8
 71
     3
 72
     9
 73
     5
 74
     0
 42
0.000000001
 43
0.00000001
 40
0.0
 40
0.0
 40
0.0
 40
0.0
 40
0.8016431038917252
 40
1.0
 40
1.0
 40
1.0
 40
1.0
 10
43.55
 20
-6.298671737604526
 30
0.0
 10
43.53497618809096
 20
-6.325623491526538
 30
0.0
 10
43.51623491552701
 20
-6.359244131174246
 30
0.0
 10
43.49787790604315
 20
-6.344169359751567
 30
0.0
 10
43.4942366666201
 20
-6.341179174882624
 30
0.0
  0
SPLINE
  5
253
330
1F
100
AcDbEntity
  8
외형선
  6
Continuous
 62
     1
370
    15
100
AcDbSpline
210
0.0
220
0.0
230
1.0
 70
     8
 71
     3
 72
    11
 73
     7
 74
     0
 42
0.000000001
 43
0.00000001
 40
0.0
 40
0.0
 40
0.0
 40
0.0
 40
0.2974839716977178
 40
0.5954211660199754
 40
0.8947393442702546
 40
1.0
 40
1.0
 40
1.0
 40
1.0
 10
43.55
 20
-6.298671737604526
 30
0.0
 10
43.55072056386866
 20
-6.307085382135329
 30
0.0
 10
43.55216278939904
 20
-6.323925489548233
 30
0.0
 10
43.55481361927301
 20
-6.336903639026071
 30
0.0
 10
43.55709557799055
 20
-6.342154478991173
 30
0.0
 10
43.55866021517524
 20
-6.339514365751515
 30
0.0
 10
43.5590672921704
 20
-6.338827478481429
 30
0.0
  0
LINE
  5
254
330
1F
100
AcDbEntity
  8
외형선
  6
Continuous
 62
     1
370
    15
100
AcDbLine
 10
43.75000000000001
 20
-6.14892507127611
 30
0.0
 11
43.75
 21
-5.988672307168022
 31
0.0
  0
LINE
  5
255
330
1F
100
AcDbEntity
  8
외형선
  6
Continuous
 62
     1
370
    15
100
AcDbLine
 10
25.44516357541296
 20
6.17441592992821
 30
0.0
 11
25.43930182467276
 21
6.169141027642705
 31
0.0
  0
LINE
  5
256
330
1F
100
AcDbEntity
  8
외형선
  6
Continuous
 62
     1
370
    15
100
AcDbLine
 10
26.69187451066346
 20
-6.163489802123718
 30
0.0
 11
26.6900311357814
 21
-6.161129915975835
 31
0.0
  0
LINE
  5
257
330
1F
100
AcDbEntity
  8
외형선
  6
Continuous
 62
     1
370
    15
100
AcDbLine
 10
27.80977617063231
 20
-6.168086633174329
 30
0.0
 11
27.79840947869681
 21
-6.174005851248608
 31
0.0
  0
LINE
  5
258
330
1F
100
AcDbEntity
  8
외형선
  6
Continuous
 62
     1
370
    15
100
AcDbLine
 10
43.55146885484954
 20
6.344124971575066
 30
0.0
 11
43.55377014797529
 21
6.326477285402628
 31
0.0
  0
LINE
  5
259
330
1F
100
AcDbEntity
  8
외형선
  6
Continuous
 62
     1
370
    15
100
AcDbLine
 10
42.69750389839551
 20
6.179046091127528
 30
0.0
 11
42.69525076472323
 21
6.182261881757563
 31
0.0
  0
SPLINE
  5
25A
330
1F
100
AcDbEntity
  8
외형선
  6
Continuous
 62
     1
370
    15
100
AcDbSpline
210
0.0
220
0.0
230
1.0
 70
     8
 71
     3
 72
     9
 73
     5
 74
     0
 42
0.000000001
 43
0.00000001
 40
0.0
 40
0.0
 40
0.0
 40
0.0
 40
0.4639497403559369
 40
1.0
 40
1.0
 40
1.0
 40
1.0
 10
25.19778282810498
 20
6.186030601003043
 30
0.0
 10
25.19739350378999
 20
6.18690255399154
 30
0.0
 10
25.19655435187087
 20
6.188781966593057
 30
0.0
 10
25.19573337424978
 20
6.187855765841284
 30
0.0
 10
25.19529328898282
 20
6.187359275687814
 30
0.0
  0
LINE
  5
25B
330
1F
100
AcDbEntity
  8
외형선
  6
Continuous
 62
     1
370
    15
100
AcDbLine
 10
42.25064123529279
 20
6.335494019123978
 30
0.0
 11
42.21588775284699
 21
6.328737792455706
 31
0.0
  0
LINE
  5
25C
330
1F
100
AcDbEntity
  8
외형선
  6
Continuous
 62
     1
370
    15
100
AcDbLine
 10
24.75289974829273
 20
6.334494758840395
 30
0.0
 11
24.72369270643539
 21
6.338010620026561
 31
0.0
  0
LINE
  5
25D
330
1F
100
AcDbEntity
  8
외형선
  6
Continuous
 62
     1
370
    15
100
AcDbLine
 10
28.053876230899
 20
-6.182288069602051
 30
0.0
 11
28.05192295875035
 21
-6.182759556151302
 31
0.0
  0
LINE
  5
25E
330
1F
100
AcDbEntity
  8
외형선
  6
Continuous
 62
     1
370
    15
100
AcDbLine
 10
28.51440909181291
 20
-6.344405723770925
 30
0.0
 11
28.50242734220884
 21
-6.341430126767559
 31
0.0
  0
LINE
  5
25F
330
1F
100
AcDbEntity
  8
외형선
  6
Continuous
 62
     1
370
    15
100
AcDbLine
 10
43.75
 20
6.14287383051155
 30
0.0
 11
43.75000000000001
 21
6.151074928723892
 31
0.0
  0
LINE
  5
260
330
1F
100
AcDbEntity
  8
외형선
  6
Continuous
 62
     1
370
    15
100
AcDbLine
 10
24.3193639682076
 20
6.181051877741789
 30
0.0
 11
24.3057076829107
 21
6.19006770531703
 31
0.0
  0
SPLINE
  5
261
330
1F
100
AcDbEntity
  8
외형선
  6
Continuous
370
    15
100
AcDbSpline
210
0.0
220
0.0
230
1.0
 70
     8
 71
     3
 72
     8
 73
     4
 74
     0
 42
0.000000001
 43
0.00000001
 40
0.0
 40
0.0
 40
0.0
 40
0.0
 40
1.0
 40
1.0
 40
1.0
 40
1.0
 10
11.05134403105482
 20
-6.335293699857574
 30
0.0
 10
11.03629610132464
 20
-6.342663011397311
 30
0.0
 10
11.0207120421636
 20
-6.3470663614119
 30
0.0
 10
11.00000000023596
 20
-6.348914205180257
 30
0.0
  0
LINE
  5
262
330
1F
100
AcDbEntity
  8
외형선
  6
Continuous
370
    15
100
AcDbLine
 10
11.87361544373465
 20
-6.277194632437151
 30
0.0
 11
11.87579533653463
 21
-6.278444727362256
 31
0.0
  0
LINE
  5
263
330
1F
100
AcDbEntity
  8
외형선
  6
CENTER
 62
     1
370
    15
100
AcDbLine
 10
-41.79999999999998
 20
0.0010749287238888
 30
0.0
 11
46.75000000000001
 21
0.0010749287238997
 31
0.0
  0
LINE
  5
264
330
1F
100
AcDbEntity
  8
참조1
100
AcDbLine
 10
2.475000000000019
 20
0.0010749287238892
 30
0.0
 11
2.475000000000024
 21
-39.99892507127611
 31
0.0
  0
LINE
  5
265
330
1F
100
AcDbEntity
  8
참조1
100
AcDbLine
 10
2.475000000000024
 20
-39.99892507127611
 30
0.0
 11
-10.55707599297551
 21
-39.9989250712761
 31
0.0
  0
CIRCLE
  5
266
330
1F
100
AcDbEntity
  8
해칭선
100
AcDbCircle
 10
0.0000000000000104
 20
0.0
 30
0.0
 40
3.000000000000002
  0
INSERT
  5
267
330
1F
100
AcDbEntity
  8
0
  6
Continuous
 62
     7
100
AcDbBlockReference
 66
     1
  2
블럭10
 10
-11.46527293212519
 20
-52.04609937292004
 30
0.0
  0
ATTRIB
  5
268
330
267
100
AcDbEntity
  8
FORMAT
 62
     2
100
AcDbText
 10
-22.51237427891567
 20
-49.97073246008785
 30
0.0
 40
4.233333333333333
  1
E2079032 [ 4 FLUTE ]
 41
0.75
  7
SLDTEXTSTYLE0
 11
-22.51237427891567
 21
-52.08739912675452
 31
0.0
100
AcDbAttribute
  2
AUTOATTR0
 70
     0
 74
     1
  0
SEQEND
  5
269
330
267
100
AcDbEntity
  8
0
  6
Continuous
 62
     7
  0
HATCH
  5
26A
330
1F
100
AcDbEntity
  8
중심선
100
AcDbHatch
 10
0.0
 20
0.0
 30
0.0
210
0.0
220
0.0
230
1.0
  2
SOLID
 70
     1
 71
     0
 91
        1
 92
        0
 93
        4
 72
     1
 10
-5.750363627744337
 20
-35.7989250712761
 11
-9.19663887158162
 21
-35.7989250712761
 72
     1
 10
-9.19663887158162
 20
-35.7989250712761
 11
-11.32486873078564
 21
-38.3352506518487
 72
     1
 10
-11.32486873078564
 20
-38.3352506518487
 11
-7.878560401835211
 21
-38.33521122254621
 72
     1
 10
-7.878560401835211
 20
-38.33521122254621
 11
-5.750363627744337
 21
-35.7989250712761
 97
        0
 75
     0
 76
     1
 98
        1
 10
0.0
 20
0.0
  0
HATCH
  5
26B
330
1F
100
AcDbEntity
  8
중심선
100
AcDbHatch
 10
0.0
 20
0.0
 30
0.0
210
0.0
220
0.0
230
1.0
  2
SOLID
 70
     1
 71
     0
 91
        1
 92
        0
 93
        4
 72
     1
 10
-0.7375996367083582
 20
-35.79892507127608
 11
-4.183874880545668
 21
-35.79892507127613
 72
     1
 10
-4.183874880545668
 20
-35.79892507127613
 11
-8.715012888903056
 21
-41.19892507127612
 72
     1
 10
-8.715012888903056
 20
-41.19892507127612
 11
-5.268737645065774
 21
-41.19892507127612
 72
     1
 10
-5.268737645065774
 20
-41.19892507127612
 11
-0.7375996367083584
 21
-35.79892507127608
 97
        0
 75
     0
 76
     1
 98
        1
 10
0.0
 20
0.0
  0
HATCH
  5
26C
330
1F
100
AcDbEntity
  8
중심선
100
AcDbHatch
 10
0.0
 20
0.0
 30
0.0
210
0.0
220
0.0
230
1.0
  2
SOLID
 70
     1
 71
     0
 91
        1
 92
        0
 93
        4
 72
     1
 10
4.27516435432751
 20
-35.7989250712761
 11
0.8288891104903664
 21
-35.79892507127613
 72
     1
 10
0.8288891104903662
 20
-35.79892507127613
 11
-6.219547791398855
 21
-44.19892507127612
 72
     1
 10
-6.219547791398855
 20
-44.19892507127612
 11
-2.773272547561572
 21
-44.19892507127612
 72
     1
 10
-2.773272547561572
 20
-44.19892507127612
 11
4.27516435432751
 21
-35.7989250712761
 97
        0
 75
     0
 76
     1
 98
        1
 10
0.0
 20
0.0
  0
HATCH
  5
26D
330
1F
100
AcDbEntity
  8
중심선
100
AcDbHatch
 10
0.0
 20
0.0
 30
0.0
210
0.0
220
0.0
230
1.0
  2
SOLID
 70
     1
 71
     0
 91
        1
 92
        0
 93
        6
 72
     3
 10
9.07505478533971
 20
-39.99892507132738
 11
3.960054785062284
 21
1.540850780301639E-10
 40
0.3939339440162633
 50
17.09539180608434
 51
320.0019657685081
 73
     0
 72
     1
 10
10.75805444104028
 20
-38.58681907591443
 11
13.06335631474134
 21
-36.65249236586649
 72
     3
 10
9.075054785286863
 20
-39.99892507127625
 11
6.600054785286829
 21
-1.249000902703301E-13
 40
0.6363583540795982
 50
39.99873849337408
 51
368.4976242363724
 73
     1
 72
     1
 10
15.50038727718747
 20
-39.03892507120613
 11
7.755122092122813
 21
-39.0389250712061
 72
     1
 10
7.755122092122813
 20
-39.0389250712061
 11
7.755097047676851
 21
-40.95892507120602
 72
     1
 10
7.755097047676851
 20
-40.95892507120602
 11
12.19647681714889
 21
-40.95892507120599
 97
        0
 75
     0
 76
     1
 98
        1
 10
0.0
 20
0.0
  0
DIMENSION
  5
26E
330
1F
100
AcDbEntity
  8
치수문자_일반주서
100
AcDbDimension
  2
_D
 10
-52.52999999999999
 20
-6.348925071276153
 30
0.0
 11
-52.53000000000001
 21
-1.415156168964987
 31
0.0
 70
   160
  1
%%c<>
 71
     2
 42
12.69999999999999
  3
SLDDIMSTYLE0
100
AcDbAlignedDimension
 13
-37.52999999999997
 23
6.351074928723886
 33
0.0
 14
-37.52999999999997
 24
-6.348925071276103
 34
0.0
 50
90.0000000000002
100
AcDbRotatedDimension
1001
ACAD
1000
DSTYLE
1002
{
1070
   171
1070
     6
1070
   273
1070
     7
1002
}
  0
DIMENSION
  5
283
330
1F
100
AcDbEntity
  8
치수문자_일반주서
100
AcDbDimension
  2
_D_1
 10
90.8481466781981
 20
-6.348925071275829
 30
0.0
 11
90.848146678198
 21
22.99682492872417
 31
0.0
 70
   160
  1
%%c<>
 71
     2
 42
12.7
  3
SLDDIMSTYLE1
100
AcDbAlignedDimension
 13
11.0
 23
6.351074928723891
 33
0.0
 14
10.99925885875474
 24
-6.348925071276108
 34
0.0
 50
90.0000000000002
100
AcDbRotatedDimension
1001
ACAD
1000
DSTYLE
1002
{
1070
   171
1070
     6
1070
   273
1070
     7
1002
}
  0
DIMENSION
  5
297
330
1F
100
AcDbEntity
  8
치수문자_일반주서
100
AcDbDimension
  2
_D_2
 10
11.99999999999999
 20
15.61595918817216
 30
0.0
 11
27.87499999999999
 21
15.61595918817216
 31
0.0
 70
   160
  1
<>
 71
     2
 42
31.75000000000001
  3
SLDDIMSTYLE2
100
AcDbAlignedDimension
 13
43.75
 23
6.14287383051155
 33
0.0
 14
11.99999999999999
 24
6.347907441758197
 34
0.0
 50
0.0000000000000385
100
AcDbRotatedDimension
1001
ACAD
1000
DSTYLE
1002
{
1070
   171
1070
     6
1070
   273
1070
     7
1002
}
  0
DIMENSION
  5
2AB
330
1F
100
AcDbEntity
  8
치수문자_일반주서
100
AcDbDimension
  2
_D_3
 10
-38.8
 20
27.47904842901739
 30
0.0
 11
2.474999999999996
 21
27.47904842901739
 31
0.0
 70
   160
  1
<>
 71
     2
 42
82.54999999999998
  3
SLDDIMSTYLE2
100
AcDbAlignedDimension
 13
43.75
 23
6.14287383051155
 33
0.0
 14
-38.79999999999999
 24
5.081074928723884
 34
0.0
 50
0.0000000000000247
100
AcDbRotatedDimension
1001
ACAD
1000
DSTYLE
1002
{
1070
   171
1070
     6
1070
   273
1070
     7
1002
}
  0
LINE
  5
2BE
330
1F
100
AcDbEntity
  8
참조1
100
AcDbLine
 10
87.41526463667876
 20
7.441074928723896
 30
0.0
 11
87.41526463667876
 21
-7.438925071276109
 31
0.0
  0
LINE
  5
2BF
330
1F
100
AcDbEntity
  8
참조1
100
AcDbLine
 10
100.1152646366788
 20
5.441074928723896
 30
0.0
 11
87.41526463667876
 21
5.441074928723896
 31
0.0
  0
SOLID
  5
2C0
330
1F
100
AcDbEntity
  8
참조1
100
AcDbTrace
 10
87.41526463667876
 20
5.441074928723896
 30
0.0
 11
93.76526463667875
 21
4.425074928723896
 31
0.0
 12
93.76526463667875
 22
6.457074928723896
 32
0.0
 13
93.76526463667875
 23
6.457074928723896
 33
0.0
  0
LINE
  5
2C1
330
1F
100
AcDbEntity
  8
참조1
100
AcDbLine
 10
100.1152646366788
 20
-5.438925071276109
 30
0.0
 11
87.41526463667876
 21
-5.438925071276109
 31
0.0
  0
SOLID
  5
2C2
330
1F
100
AcDbEntity
  8
참조1
100
AcDbTrace
 10
87.41526463667876
 20
-5.438925071276109
 30
0.0
 11
93.76526463667875
 21
-6.454925071276109
 31
0.0
 12
93.76526463667875
 22
-4.422925071276109
 32
0.0
 13
93.76526463667875
 23
-4.422925071276109
 33
0.0
  0
MTEXT
  5
2C3
330
1F
100
AcDbEntity
  8
참조1
100
AcDbMText
 10
97.01537944724133
 20
11.06679249473997
 30
0.0
 40
3.5
 41
0.0
 71
     1
 72
     1
  1
A
  7
SLDTEXTSTYLE0
 73
     1
 44
1.0
  0
MTEXT
  5
2C4
330
1F
100
AcDbEntity
  8
참조1
100
AcDbMText
 10
97.01537944724133
 20
0.1867924947399659
 30
0.0
 40
3.5
 41
0.0
 71
     1
 72
     1
  1
A
  7
SLDTEXTSTYLE0
 73
     1
 44
1.0
  0
INSERT
  5
2CB
330
1F
100
AcDbEntity
  8
해칭선
100
AcDbBlockReference
  2
SW_DOWELSYMBOL_0
 10
0.0000000000000104
 20
0.0
 30
0.0
  0
LINE
  5
32C
330
1F
100
AcDbEntity
  8
외형선
  6
Continuous
370
    15
100
AcDbLine
 10
-21.76612499999996
 20
4.827074928723874
 30
0.0
 11
-10.59012500000009
 21
4.827074928723874
 31
0.0
  0
LINE
  5
32D
330
1F
100
AcDbEntity
  8
외형선
  6
Continuous
370
    15
100
AcDbLine
 10
-21.76612499999996
 20
4.827074928723874
 30
0.0
 11
-23.29012499999996
 21
6.351074928723875
 31
0.0
  0
LINE
  5
32E
330
1F
100
AcDbEntity
  8
외형선
  6
Continuous
370
    15
100
AcDbLine
 10
-10.59012499999997
 20
4.827074928723874
 30
0.0
 11
-9.066124999999971
 21
6.351074928723875
 31
0.0
  0
LINE
  5
32F
330
1F
100
AcDbEntity
  8
외형선
  6
Continuous
370
    15
100
AcDbLine
 10
-23.29012499999997
 20
6.351074928723887
 30
0.0
 11
-37.52999999999997
 21
6.351074928723885
 31
0.0
  0
ENDSEC
  0
SECTION
  2
OBJECTS
  0
DICTIONARY
  5
C
330
0
100
AcDbDictionary
281
     1
  3
ACAD_GROUP
350
D
  3
ACAD_IMAGE_VARS
350
2EF
  3
ACAD_LAYOUT
350
1A
  3
ACAD_MLINESTYLE
350
17
  3
ACAD_PLOTSETTINGS
350
19
  3
ACAD_PLOTSTYLENAME
350
E
  3
ACAD_SCALELIST
350
47
  3
APPDATA
350
2ED
  3
DWGPROPS
350
353
  0
DICTIONARY
  5
31D
330
2
100
AcDbDictionary
280
     1
281
     1
  3
ACAD_LAYERSTATES
360
31E
  0
DICTIONARY
  5
D
102
{ACAD_REACTORS
330
C
102
}
330
C
100
AcDbDictionary
281
     1
  0
RASTERVARIABLES
  5
2EF
102
{ACAD_REACTORS
330
C
102
}
330
C
100
AcDbRasterVariables
 90
        0
 70
     1
 71
     1
 72
     1
  0
DICTIONARY
  5
1A
102
{ACAD_REACTORS
330
C
102
}
330
C
100
AcDbDictionary
281
     1
  3
Layout1
350
1E
  3
Layout2
350
26
  3
Model
350
22
  0
DICTIONARY
  5
17
102
{ACAD_REACTORS
330
C
102
}
330
C
100
AcDbDictionary
281
     1
  3
Standard
350
18
  0
DICTIONARY
  5
19
102
{ACAD_REACTORS
330
C
102
}
330
C
100
AcDbDictionary
281
     1
  0
ACDBDICTIONARYWDFLT
  5
E
102
{ACAD_REACTORS
330
C
102
}
330
C
100
AcDbDictionary
281
     1
  3
Normal
350
F
100
AcDbDictionaryWithDefault
340
F
  0
DICTIONARY
  5
47
102
{ACAD_REACTORS
330
C
102
}
330
C
100
AcDbDictionary
281
     1
  3
A0
350
48
  3
A1
350
49
  3
A2
350
4A
  3
A3
350
4B
  3
A4
350
4C
  3
A5
350
4D
  3
A6
350
4E
  3
A7
350
4F
  3
A8
350
50
  3
A9
350
51
  3
B0
350
52
  3
B1
350
53
  3
B2
350
54
  3
B3
350
55
  3
B4
350
56
  3
B5
350
57
  3
B6
350
58
  3
B7
350
59
  3
B8
350
5A
  3
B9
350
5B
  3
C0
350
5C
  3
C1
350
5D
  3
C2
350
5E
  3
C3
350
5F
  3
C4
350
60
  3
C5
350
61
  3
C6
350
62
  3
C7
350
63
  3
C8
350
64
  3
C9
350
65
  3
D0
350
66
  3
D1
350
67
  3
D2
350
68
  0
DICTIONARY
  5
2ED
102
{ACAD_REACTORS
330
C
102
}
330
C
100
AcDbDictionary
281
     1
  0
XRECORD
  5
353
102
{ACAD_REACTORS
330
C
102
}
330
C
100
AcDbXrecord
280
     1
  1
DWGPROPS COOKIE
  2

  3

  4

  6

  7

  8
12016016
  9

300
=
301
=
302
=
303
=
304
=
305
=
306
=
307
=
308
=
309
=
 40
0.0
 41
2458324.193926181
 42
2458331.124753079
  1

 90
        0
  0
DICTIONARY
  5
31E
102
{ACAD_REACTORS
330
31D
102
}
330
31D
100
AcDbDictionary
281
     1
  0
LAYOUT
  5
1E
102
{ACAD_REACTORS
330
1A
102
}
330
1A
100
AcDbPlotSettings
  1

  2
none_device
  4

  6

 40
0.0
 41
0.0
 42
0.0
 43
0.0
 44
0.0
 45
0.0
 46
0.0
 47
0.0
 48
0.0
 49
0.0
140
0.0
141
0.0
142
1.0
143
1.0
 70
   688
 72
     1
 73
     0
 74
     5
  7

 75
    16
147
1.0
148
0.0
149
0.0
100
AcDbLayout
  1
Layout1
 70
     1
 71
     1
 10
0.0
 20
0.0
 11
420.0
 21
297.0
 12
0.0
 22
0.0
 32
0.0
 14
1.000000000000000E+20
 24
1.000000000000000E+20
 34
1.000000000000000E+20
 15
-1.000000000000000E+20
 25
-1.000000000000000E+20
 35
-1.000000000000000E+20
146
0.0
 13
0.0
 23
0.0
 33
0.0
 16
1.0
 26
0.0
 36
0.0
 17
0.0
 27
1.0
 37
0.0
 76
     0
330
1B
  0
LAYOUT
  5
26
102
{ACAD_REACTORS
330
1A
102
}
330
1A
100
AcDbPlotSettings
  1

  2
none_device
  4

  6

 40
0.0
 41
0.0
 42
0.0
 43
0.0
 44
0.0
 45
0.0
 46
0.0
 47
0.0
 48
0.0
 49
0.0
140
0.0
141
0.0
142
1.0
143
1.0
 70
   688
 72
     1
 73
     0
 74
     5
  7

 75
    16
147
1.0
148
0.0
149
0.0
100
AcDbLayout
  1
Layout2
 70
     1
 71
     2
 10
0.0
 20
0.0
 11
0.0
 21
0.0
 12
0.0
 22
0.0
 32
0.0
 14
0.0
 24
0.0
 34
0.0
 15
0.0
 25
0.0
 35
0.0
146
0.0
 13
0.0
 23
0.0
 33
0.0
 16
1.0
 26
0.0
 36
0.0
 17
0.0
 27
1.0
 37
0.0
 76
     0
330
23
  0
LAYOUT
  5
22
102
{ACAD_REACTORS
330
1A
102
}
330
1A
100
AcDbPlotSettings
  1

  2
none_device
  4
ANSI_A_(11.00_x_8.50_Inches)
  6

 40
6.35
 41
19.05
 42
6.35000508
 43
19.05000254
 44
279.4
 45
215.9
 46
102.2159137186741
 47
99.42919395414667
 48
0.0
 49
0.0
140
0.0
141
0.0
142
0.0666307116363025
143
1.0
 70
  1696
 72
     0
 73
     0
 74
     0
  7

 75
     0
147
0.0235690232323232
148
0.0
149
0.0
100
AcDbLayout
  1
Model
 70
     1
 71
     0
 10
0.0
 20
0.0
 11
420.0
 21
297.0
 12
0.0
 22
0.0
 32
0.0
 14
-56.90500000000005
 24
-49.97073246008785
 34
0.0
 15
100.1152646366788
 25
36.34057492872417
 35
0.0
146
0.0
 13
0.0
 23
0.0
 33
0.0
 16
1.0
 26
0.0
 36
0.0
 17
0.0
 27
1.0
 37
0.0
 76
     0
330
1F
331
29
  0
MLINESTYLE
  5
18
102
{ACAD_REACTORS
330
17
102
}
330
17
100
AcDbMlineStyle
  2
Standard
 70
     0
  3

 62
   256
 51
90.0
 52
90.0
 71
     2
 49
0.5
 62
   256
  6
BYLAYER
 49
-0.5
 62
   256
  6
BYLAYER
  0
ACDBPLACEHOLDER
  5
F
102
{ACAD_REACTORS
330
E
102
}
330
E
  0
SCALE
  5
48
102
{ACAD_REACTORS
330
47
102
}
330
47
100
AcDbScale
 70
     0
300
1:1
140
1.0
141
1.0
290
     1
  0
SCALE
  5
49
102
{ACAD_REACTORS
330
47
102
}
330
47
100
AcDbScale
 70
     0
300
1:2
140
1.0
141
2.0
290
     0
  0
SCALE
  5
4A
102
{ACAD_REACTORS
330
47
102
}
330
47
100
AcDbScale
 70
     0
300
1:4
140
1.0
141
4.0
290
     0
  0
SCALE
  5
4B
102
{ACAD_REACTORS
330
47
102
}
330
47
100
AcDbScale
 70
     0
300
1:5
140
1.0
141
5.0
290
     0
  0
SCALE
  5
4C
102
{ACAD_REACTORS
330
47
102
}
330
47
100
AcDbScale
 70
     0
300
1:8
140
1.0
141
8.0
290
     0
  0
SCALE
  5
4D
102
{ACAD_REACTORS
330
47
102
}
330
47
100
AcDbScale
 70
     0
300
1:10
140
1.0
141
10.0
290
     0
  0
SCALE
  5
4E
102
{ACAD_REACTORS
330
47
102
}
330
47
100
AcDbScale
 70
     0
300
1:16
140
1.0
141
16.0
290
     0
  0
SCALE
  5
4F
102
{ACAD_REACTORS
330
47
102
}
330
47
100
AcDbScale
 70
     0
300
1:20
140
1.0
141
20.0
290
     0
  0
SCALE
  5
50
102
{ACAD_REACTORS
330
47
102
}
330
47
100
AcDbScale
 70
     0
300
1:30
140
1.0
141
30.0
290
     0
  0
SCALE
  5
51
102
{ACAD_REACTORS
330
47
102
}
330
47
100
AcDbScale
 70
     0
300
1:40
140
1.0
141
40.0
290
     0
  0
SCALE
  5
52
102
{ACAD_REACTORS
330
47
102
}
330
47
100
AcDbScale
 70
     0
300
1:50
140
1.0
141
50.0
290
     0
  0
SCALE
  5
53
102
{ACAD_REACTORS
330
47
102
}
330
47
100
AcDbScale
 70
     0
300
1:100
140
1.0
141
100.0
290
     0
  0
SCALE
  5
54
102
{ACAD_REACTORS
330
47
102
}
330
47
100
AcDbScale
 70
     0
300
2:1
140
2.0
141
1.0
290
     0
  0
SCALE
  5
55
102
{ACAD_REACTORS
330
47
102
}
330
47
100
AcDbScale
 70
     0
300
4:1
140
4.0
141
1.0
290
     0
  0
SCALE
  5
56
102
{ACAD_REACTORS
330
47
102
}
330
47
100
AcDbScale
 70
     0
300
8:1
140
8.0
141
1.0
290
     0
  0
SCALE
  5
57
102
{ACAD_REACTORS
330
47
102
}
330
47
100
AcDbScale
 70
     0
300
10:1
140
10.0
141
1.0
290
     0
  0
SCALE
  5
58
102
{ACAD_REACTORS
330
47
102
}
330
47
100
AcDbScale
 70
     0
300
100:1
140
100.0
141
1.0
290
     0
  0
SCALE
  5
59
102
{ACAD_REACTORS
330
47
102
}
330
47
100
AcDbScale
 70
     0
300
1/128" = 1'-0"
140
0.0078125
141
12.0
290
     0
  0
SCALE
  5
5A
102
{ACAD_REACTORS
330
47
102
}
330
47
100
AcDbScale
 70
     0
300
1/64" = 1'-0"
140
0.015625
141
12.0
290
     0
  0
SCALE
  5
5B
102
{ACAD_REACTORS
330
47
102
}
330
47
100
AcDbScale
 70
     0
300
1/32" = 1'-0"
140
0.03125
141
12.0
290
     0
  0
SCALE
  5
5C
102
{ACAD_REACTORS
330
47
102
}
330
47
100
AcDbScale
 70
     0
300
1/16" = 1'-0"
140
0.0625
141
12.0
290
     0
  0
SCALE
  5
5D
102
{ACAD_REACTORS
330
47
102
}
330
47
100
AcDbScale
 70
     0
300
3/32" = 1'-0"
140
0.09375
141
12.0
290
     0
  0
SCALE
  5
5E
102
{ACAD_REACTORS
330
47
102
}
330
47
100
AcDbScale
 70
     0
300
1/8" = 1'-0"
140
0.125
141
12.0
290
     0
  0
SCALE
  5
5F
102
{ACAD_REACTORS
330
47
102
}
330
47
100
AcDbScale
 70
     0
300
3/16" = 1'-0"
140
0.1875
141
12.0
290
     0
  0
SCALE
  5
60
102
{ACAD_REACTORS
330
47
102
}
330
47
100
AcDbScale
 70
     0
300
1/4" = 1'-0"
140
0.25
141
12.0
290
     0
  0
SCALE
  5
61
102
{ACAD_REACTORS
330
47
102
}
330
47
100
AcDbScale
 70
     0
300
3/8" = 1'-0"
140
0.375
141
12.0
290
     0
  0
SCALE
  5
62
102
{ACAD_REACTORS
330
47
102
}
330
47
100
AcDbScale
 70
     0
300
1/2" = 1'-0"
140
0.5
141
12.0
290
     0
  0
SCALE
  5
63
102
{ACAD_REACTORS
330
47
102
}
330
47
100
AcDbScale
 70
     0
300
3/4" = 1'-0"
140
0.75
141
12.0
290
     0
  0
SCALE
  5
64
102
{ACAD_REACTORS
330
47
102
}
330
47
100
AcDbScale
 70
     0
300
1" = 1'-0"
140
1.0
141
12.0
290
     0
  0
SCALE
  5
65
102
{ACAD_REACTORS
330
47
102
}
330
47
100
AcDbScale
 70
     0
300
1-1/2" = 1'-0"
140
1.5
141
12.0
290
     0
  0
SCALE
  5
66
102
{ACAD_REACTORS
330
47
102
}
330
47
100
AcDbScale
 70
     0
300
3" = 1'-0"
140
3.0
141
12.0
290
     0
  0
SCALE
  5
67
102
{ACAD_REACTORS
330
47
102
}
330
47
100
AcDbScale
 70
     0
300
6" = 1'-0"
140
6.0
141
12.0
290
     0
  0
SCALE
  5
68
102
{ACAD_REACTORS
330
47
102
}
330
47
100
AcDbScale
 70
     0
300
1'-0" = 1'-0"
140
12.0
141
12.0
290
     0
  0
ENDSEC
  0
EOF
