  0
SECTION
  2
HEADER
  9
$ACADVER
  1
AC1015
  9
$ACADMAINTVER
 70
     6
  9
$DWGCODEPAGE
  3
ANSI_949
  9
$INSBASE
 10
0.0
 20
0.0
 30
0.0
  9
$EXTMIN
 10
-55.36268467149226
 20
-49.97073246008785
 30
0.0
  9
$EXTMAX
 10
90.52153940838579
 20
39.42093538382493
 30
0.0
  9
$LIMMIN
 10
0.0
 20
0.0
  9
$LIMMAX
 10
420.0
 20
297.0
  9
$ORTHOMODE
 70
     1
  9
$REGENMODE
 70
     1
  9
$FILLMODE
 70
     1
  9
$QTEXTMODE
 70
     0
  9
$MIRRTEXT
 70
     1
  9
$LTSCALE
 40
1.0
  9
$ATTMODE
 70
     1
  9
$TEXTSIZE
 40
3.5
  9
$TRACEWID
 40
1.0
  9
$TEXTSTYLE
  7
Standard
  9
$CLAYER
  8
0
  9
$CELTYPE
  6
ByLayer
  9
$CECOLOR
 62
   256
  9
$CELTSCALE
 40
1.0
  9
$DISPSILH
 70
     0
  9
$DIMSCALE
 40
1.0
  9
$DIMASZ
 40
3.302
  9
$DIMEXO
 40
1.0
  9
$DIMDLI
 40
3.75
  9
$DIMRND
 40
0.0
  9
$DIMDLE
 40
0.0
  9
$DIMEXE
 40
1.0
  9
$DIMTP
 40
0.0
  9
$DIMTM
 40
0.0
  9
$DIMTXT
 40
3.5
  9
$DIMCEN
 40
2.5
  9
$DIMTSZ
 40
0.0
  9
$DIMTOL
 70
     0
  9
$DIMLIM
 70
     0
  9
$DIMTIH
 70
     1
  9
$DIMTOH
 70
     1
  9
$DIMSE1
 70
     0
  9
$DIMSE2
 70
     0
  9
$DIMTAD
 70
     1
  9
$DIMZIN
 70
     0
  9
$DIMBLK
  1

  9
$DIMASO
 70
     1
  9
$DIMSHO
 70
     1
  9
$DIMPOST
  1

  9
$DIMAPOST
  1

  9
$DIMALT
 70
     0
  9
$DIMALTD
 70
     3
  9
$DIMALTF
 40
0.0393700787401575
  9
$DIMLFAC
 40
1.0
  9
$DIMTOFL
 70
     1
  9
$DIMTVP
 40
0.0
  9
$DIMTIX
 70
     0
  9
$DIMSOXD
 70
     0
  9
$DIMSAH
 70
     0
  9
$DIMBLK1
  1

  9
$DIMBLK2
  1

  9
$DIMSTYLE
  2
ISO-25
  9
$DIMCLRD
 70
     0
  9
$DIMCLRE
 70
     0
  9
$DIMCLRT
 70
     0
  9
$DIMTFAC
 40
1.0
  9
$DIMGAP
 40
1.524
  9
$DIMJUST
 70
     0
  9
$DIMSD1
 70
     0
  9
$DIMSD2
 70
     0
  9
$DIMTOLJ
 70
     0
  9
$DIMTZIN
 70
     0
  9
$DIMALTZ
 70
     0
  9
$DIMALTTZ
 70
     0
  9
$DIMUPT
 70
     0
  9
$DIMDEC
 70
     2
  9
$DIMTDEC
 70
     2
  9
$DIMALTU
 70
     2
  9
$DIMALTTD
 70
     3
  9
$DIMTXSTY
  7
Standard
  9
$DIMAUNIT
 70
     0
  9
$DIMADEC
 70
     2
  9
$DIMALTRND
 40
0.0
  9
$DIMAZIN
 70
     0
  9
$DIMDSEP
 70
    44
  9
$DIMATFIT
 70
     3
  9
$DIMFRAC
 70
     0
  9
$DIMLDRBLK
  1

  9
$DIMLUNIT
 70
     2
  9
$DIMLWD
 70
    -2
  9
$DIMLWE
 70
    -2
  9
$DIMTMOVE
 70
     0
  9
$LUNITS
 70
     2
  9
$LUPREC
 70
     2
  9
$SKETCHINC
 40
1.0
  9
$FILLETRAD
 40
10.0
  9
$AUNITS
 70
     0
  9
$AUPREC
 70
     2
  9
$MENU
  1
.
  9
$ELEVATION
 40
0.0
  9
$PELEVATION
 40
0.0
  9
$THICKNESS
 40
0.0
  9
$LIMCHECK
 70
     0
  9
$CHAMFERA
 40
0.0
  9
$CHAMFERB
 40
0.0
  9
$CHAMFERC
 40
0.0
  9
$CHAMFERD
 40
0.0
  9
$SKPOLY
 70
     0
  9
$TDCREATE
 40
2458311.470038947
  9
$TDUCREATE
 40
2458311.095038947
  9
$TDUPDATE
 40
2458319.718079954
  9
$TDUUPDATE
 40
2458319.343079954
  9
$TDINDWG
 40
0.0009002662
  9
$TDUSRTIMER
 40
2458319.342513426
  9
$USRTIMER
 70
     1
  9
$ANGBASE
 50
0.0
  9
$ANGDIR
 70
     0
  9
$PDMODE
 70
     0
  9
$PDSIZE
 40
-1.0
  9
$PLINEWID
 40
0.0
  9
$SPLFRAME
 70
     0
  9
$SPLINETYPE
 70
     6
  9
$SPLINESEGS
 70
     8
  9
$HANDSEED
  5
1E7
  9
$SURFTAB1
 70
     6
  9
$SURFTAB2
 70
     6
  9
$SURFTYPE
 70
     6
  9
$SURFU
 70
     6
  9
$SURFV
 70
     6
  9
$UCSBASE
  2

  9
$UCSNAME
  2

  9
$UCSORG
 10
0.0
 20
0.0
 30
0.0
  9
$UCSXDIR
 10
1.0
 20
0.0
 30
0.0
  9
$UCSYDIR
 10
0.0
 20
1.0
 30
0.0
  9
$UCSORTHOREF
  2

  9
$UCSORTHOVIEW
 70
     0
  9
$UCSORGTOP
 10
0.0
 20
0.0
 30
0.0
  9
$UCSORGBOTTOM
 10
0.0
 20
0.0
 30
0.0
  9
$UCSORGLEFT
 10
0.0
 20
0.0
 30
0.0
  9
$UCSORGRIGHT
 10
0.0
 20
0.0
 30
0.0
  9
$UCSORGFRONT
 10
0.0
 20
0.0
 30
0.0
  9
$UCSORGBACK
 10
0.0
 20
0.0
 30
0.0
  9
$PUCSBASE
  2

  9
$PUCSNAME
  2

  9
$PUCSORG
 10
0.0
 20
0.0
 30
0.0
  9
$PUCSXDIR
 10
1.0
 20
0.0
 30
0.0
  9
$PUCSYDIR
 10
0.0
 20
1.0
 30
0.0
  9
$PUCSORTHOREF
  2

  9
$PUCSORTHOVIEW
 70
     0
  9
$PUCSORGTOP
 10
0.0
 20
0.0
 30
0.0
  9
$PUCSORGBOTTOM
 10
0.0
 20
0.0
 30
0.0
  9
$PUCSORGLEFT
 10
0.0
 20
0.0
 30
0.0
  9
$PUCSORGRIGHT
 10
0.0
 20
0.0
 30
0.0
  9
$PUCSORGFRONT
 10
0.0
 20
0.0
 30
0.0
  9
$PUCSORGBACK
 10
0.0
 20
0.0
 30
0.0
  9
$USERI1
 70
     0
  9
$USERI2
 70
     0
  9
$USERI3
 70
     0
  9
$USERI4
 70
     0
  9
$USERI5
 70
     0
  9
$USERR1
 40
0.0
  9
$USERR2
 40
0.0
  9
$USERR3
 40
0.0
  9
$USERR4
 40
0.0
  9
$USERR5
 40
0.0
  9
$WORLDVIEW
 70
     1
  9
$SHADEDGE
 70
     3
  9
$SHADEDIF
 70
    70
  9
$TILEMODE
 70
     1
  9
$MAXACTVP
 70
    64
  9
$PINSBASE
 10
0.0
 20
0.0
 30
0.0
  9
$PLIMCHECK
 70
     0
  9
$PEXTMIN
 10
1.000000000000000E+20
 20
1.000000000000000E+20
 30
1.000000000000000E+20
  9
$PEXTMAX
 10
-1.000000000000000E+20
 20
-1.000000000000000E+20
 30
-1.000000000000000E+20
  9
$PLIMMIN
 10
0.0
 20
0.0
  9
$PLIMMAX
 10
0.0
 20
0.0
  9
$UNITMODE
 70
     0
  9
$VISRETAIN
 70
     1
  9
$PLINEGEN
 70
     0
  9
$PSLTSCALE
 70
     1
  9
$TREEDEPTH
 70
  3020
  9
$CMLSTYLE
  2
Standard
  9
$CMLJUST
 70
     0
  9
$CMLSCALE
 40
20.0
  9
$PROXYGRAPHICS
 70
     1
  9
$MEASUREMENT
 70
     1
  9
$CELWEIGHT
370
    -1
  9
$ENDCAPS
280
     0
  9
$JOINSTYLE
280
     0
  9
$LWDISPLAY
290
     1
  9
$INSUNITS
 70
     4
  9
$HYPERLINKBASE
  1

  9
$STYLESHEET
  1

  9
$XEDIT
290
     1
  9
$CEPSNTYPE
380
     0
  9
$PSTYLEMODE
290
     1
  9
$FINGERPRINTGUID
  2
{8188447E-6BDF-44E5-AAE3-3B64FE8B90BF}
  9
$VERSIONGUID
  2
{FAEB1C32-E019-11D5-929B-00C0DF256EC4}
  9
$EXTNAMES
290
     1
  9
$PSVPSCALE
 40
0.0
  9
$OLESTARTUP
290
     0
  0
ENDSEC
  0
SECTION
  2
CLASSES
  0
CLASS
  1
ACDBDICTIONARYWDFLT
  2
AcDbDictionaryWithDefault
  3
ObjectDBX Classes
 90
        0
280
     0
281
     0
  0
CLASS
  1
VISUALSTYLE
  2
AcDbVisualStyle
  3
ObjectDBX Classes
 90
     4095
280
     0
281
     0
  0
CLASS
  1
MATERIAL
  2
AcDbMaterial
  3
ObjectDBX Classes
 90
     1153
280
     0
281
     0
  0
CLASS
  1
SCALE
  2
AcDbScale
  3
ObjectDBX Classes
 90
     1153
280
     0
281
     0
  0
CLASS
  1
SUN
  2
AcDbSun
  3
SCENEOE
 90
     1153
280
     0
281
     0
  0
CLASS
  1
ACDBPLACEHOLDER
  2
AcDbPlaceHolder
  3
ObjectDBX Classes
 90
        0
280
     0
281
     0
  0
CLASS
  1
LAYOUT
  2
AcDbLayout
  3
ObjectDBX Classes
 90
        0
280
     0
281
     0
  0
CLASS
  1
TABLESTYLE
  2
AcDbTableStyle
  3
ObjectDBX Classes
 90
     4095
280
     0
281
     0
  0
CLASS
  1
MLEADERSTYLE
  2
AcDbMLeaderStyle
  3
ACDB_MLEADERSTYLE_CLASS
 90
     4095
280
     0
281
     0
  0
CLASS
  1
RASTERVARIABLES
  2
AcDbRasterVariables
  3
ISM
 90
        0
280
     0
281
     0
  0
ENDSEC
  0
SECTION
  2
TABLES
  0
TABLE
  2
VPORT
  5
8
330
0
100
AcDbSymbolTable
 70
     1
  0
VPORT
  5
29
330
8
100
AcDbSymbolTableRecord
100
AcDbViewportTableRecord
  2
*Active
 70
     0
 10
0.0
 20
0.0
 11
1.0
 21
1.0
 12
11.61198859733176
 22
-6.210898823518022
 13
0.0
 23
0.0
 14
10.0
 24
10.0
 15
10.0
 25
10.0
 16
0.0
 26
0.0
 36
1.0
 17
0.0
 27
0.0
 37
0.0
 40
105.6117055057996
 41
1.632093933463796
 42
50.0
 43
0.0
 44
0.0
 50
0.0
 51
0.0
 71
    16
 72
  2000
 73
     1
 74
     3
 75
     0
 76
     0
 77
     0
 78
     0
281
     0
 65
     1
110
0.0
120
0.0
130
0.0
111
1.0
121
0.0
131
0.0
112
0.0
122
1.0
132
0.0
 79
     0
146
0.0
  0
ENDTAB
  0
TABLE
  2
LTYPE
  5
5
330
0
100
AcDbSymbolTable
 70
     6
  0
LTYPE
  5
14
330
5
100
AcDbSymbolTableRecord
100
AcDbLinetypeTableRecord
  2
ByBlock
 70
     0
  3

 72
    65
 73
     0
 40
0.0
  0
LTYPE
  5
15
330
5
100
AcDbSymbolTableRecord
100
AcDbLinetypeTableRecord
  2
ByLayer
 70
     0
  3

 72
    65
 73
     0
 40
0.0
  0
LTYPE
  5
16
330
5
100
AcDbSymbolTableRecord
100
AcDbLinetypeTableRecord
  2
Continuous
 70
     0
  3
Solid line
 72
    65
 73
     0
 40
0.0
  0
LTYPE
  5
6A
330
5
100
AcDbSymbolTableRecord
100
AcDbLinetypeTableRecord
  2
HIDDEN
 70
     0
  3
Hidden __ __ __ __ __ __ __ __ __ __ __ __ __ __
 72
    65
 73
     2
 40
1.905
 49
1.27
 74
     0
 49
-0.635
 74
     0
  0
LTYPE
  5
6B
330
5
100
AcDbSymbolTableRecord
100
AcDbLinetypeTableRecord
  2
PHANTOM
 70
     0
  3
Phantom ______  __  __  ______  __  __  ______
 72
    65
 73
     6
 40
12.7
 49
6.35
 74
     0
 49
-1.27
 74
     0
 49
1.27
 74
     0
 49
-1.27
 74
     0
 49
1.27
 74
     0
 49
-1.27
 74
     0
  0
LTYPE
  5
6C
330
5
100
AcDbSymbolTableRecord
100
AcDbLinetypeTableRecord
  2
CENTER
 70
     0
  3
Center ____ _ ____ _ ____ _ ____ _ ____ _ ____
 72
    65
 73
     4
 40
10.16
 49
6.35
 74
     0
 49
-1.27
 74
     0
 49
1.27
 74
     0
 49
-1.27
 74
     0
  0
LTYPE
  5
6D
330
5
100
AcDbSymbolTableRecord
100
AcDbLinetypeTableRecord
  2
CENTERX2
 70
     0
  3
Center (2x) ________  __  ________  __  _____
 72
    65
 73
     4
 40
20.32
 49
12.7
 74
     0
 49
-2.54
 74
     0
 49
2.54
 74
     0
 49
-2.54
 74
     0
  0
LTYPE
  5
6E
330
5
100
AcDbSymbolTableRecord
100
AcDbLinetypeTableRecord
  2
DOT2
 70
     0
  3
Dot (.5x) ........................................
 72
    65
 73
     2
 40
0.635
 49
0.0
 74
     0
 49
-0.635
 74
     0
  0
ENDTAB
  0
TABLE
  2
LAYER
  5
2
102
{ACAD_XDICTIONARY
360
186
102
}
330
0
100
AcDbSymbolTable
 70
    18
  0
LAYER
  5
10
330
2
100
AcDbSymbolTableRecord
100
AcDbLayerTableRecord
  2
0
 70
     0
 62
     7
  6
Continuous
370
    -3
390
F
  0
LAYER
  5
6F
330
2
100
AcDbSymbolTableRecord
100
AcDbLayerTableRecord
  2
FORMAT
 70
     0
 62
     2
  6
Continuous
370
    -3
390
F
  0
LAYER
  5
70
330
2
100
AcDbSymbolTableRecord
100
AcDbLayerTableRecord
  2
외형선
 70
     0
 62
     4
  6
Continuous
370
    30
390
F
  0
LAYER
  5
71
330
2
100
AcDbSymbolTableRecord
100
AcDbLayerTableRecord
  2
숨은선
 70
     0
 62
     2
  6
HIDDEN
370
    15
390
F
  0
LAYER
  5
72
330
2
100
AcDbSymbolTableRecord
100
AcDbLayerTableRecord
  2
중심선
 70
     0
 62
     1
  6
CENTERX2
370
    -3
390
F
  0
LAYER
  5
73
330
2
100
AcDbSymbolTableRecord
100
AcDbLayerTableRecord
  2
파단선
 70
     0
 62
     4
  6
Continuous
370
    -3
390
F
  0
LAYER
  5
74
330
2
100
AcDbSymbolTableRecord
100
AcDbLayerTableRecord
  2
해칭선
 70
     0
 62
   100
  6
Continuous
370
    -3
390
F
  0
LAYER
  5
75
330
2
100
AcDbSymbolTableRecord
100
AcDbLayerTableRecord
  2
가는실선
 70
     0
 62
     4
  6
Continuous
370
    -3
390
F
  0
LAYER
  5
76
330
2
100
AcDbSymbolTableRecord
100
AcDbLayerTableRecord
  2
치수_보조선
 70
     0
 62
     4
  6
Continuous
370
    -3
390
F
  0
LAYER
  5
77
330
2
100
AcDbSymbolTableRecord
100
AcDbLayerTableRecord
  2
치수문자_일반주서
 70
     0
 62
     7
  6
Continuous
370
    15
390
F
  0
LAYER
  5
78
330
2
100
AcDbSymbolTableRecord
100
AcDbLayerTableRecord
  2
개별주서
 70
     0
 62
   100
  6
Continuous
370
    30
390
F
  0
LAYER
  5
79
330
2
100
AcDbSymbolTableRecord
100
AcDbLayerTableRecord
  2
중간선
 70
     0
 62
     2
  6
Continuous
370
    15
390
F
  0
LAYER
  5
7A
330
2
100
AcDbSymbolTableRecord
100
AcDbLayerTableRecord
  2
윤곽선
 70
     0
 62
     3
  6
Continuous
370
    40
390
F
  0
LAYER
  5
7B
330
2
100
AcDbSymbolTableRecord
100
AcDbLayerTableRecord
  2
중심마크
 70
     0
 62
   100
  6
Continuous
370
    30
390
F
  0
LAYER
  5
7C
330
2
100
AcDbSymbolTableRecord
100
AcDbLayerTableRecord
  2
가상선
 70
     0
 62
     4
  6
PHANTOM
370
    -3
390
F
  0
LAYER
  5
7D
330
2
100
AcDbSymbolTableRecord
100
AcDbLayerTableRecord
  2
특수지정선
 70
     0
 62
     5
  6
CENTERX2
370
    60
390
F
  0
LAYER
  5
7E
330
2
100
AcDbSymbolTableRecord
100
AcDbLayerTableRecord
  2
참조1
 70
     0
 62
    -4
  6
Continuous
370
    -3
390
F
  0
LAYER
  5
18D
330
2
100
AcDbSymbolTableRecord
100
AcDbLayerTableRecord
  2
Defpoints
 70
     0
 62
     7
  6
Continuous
290
     0
370
    -3
390
F
  0
ENDTAB
  0
TABLE
  2
STYLE
  5
3
330
0
100
AcDbSymbolTable
 70
     2
  0
STYLE
  5
11
330
3
100
AcDbSymbolTableRecord
100
AcDbTextStyleTableRecord
  2
Standard
 70
     0
 40
0.0
 41
1.0
 50
0.0
 71
     0
 42
3.5
  3
txt
  4

  0
STYLE
  5
94
330
3
100
AcDbSymbolTableRecord
100
AcDbTextStyleTableRecord
  2
SLDTEXTSTYLE0
 70
     0
 40
0.0
 41
0.75
 50
0.0
 71
     0
 42
3.5
  3
TXT
  4

  0
ENDTAB
  0
TABLE
  2
VIEW
  5
6
330
0
100
AcDbSymbolTable
 70
     0
  0
ENDTAB
  0
TABLE
  2
UCS
  5
7
330
0
100
AcDbSymbolTable
 70
     0
  0
ENDTAB
  0
TABLE
  2
APPID
  5
9
330
0
100
AcDbSymbolTable
 70
     1
  0
APPID
  5
12
330
9
100
AcDbSymbolTableRecord
100
AcDbRegAppTableRecord
  2
ACAD
 70
     0
  0
ENDTAB
  0
TABLE
  2
DIMSTYLE
  5
A
330
0
100
AcDbSymbolTable
 70
     4
100
AcDbDimStyleTable
  0
DIMSTYLE
105
27
330
A
100
AcDbSymbolTableRecord
100
AcDbDimStyleTableRecord
  2
ISO-25
 70
     0
 41
2.5
 42
0.625
 43
3.75
 44
1.25
 73
     0
 74
     0
 77
     1
 78
     8
140
2.5
141
2.5
143
0.03937007874016
147
0.625
171
     3
172
     1
178
     0
271
     2
272
     2
274
     3
278
    44
283
     0
284
     8
340
11
  0
DIMSTYLE
105
DE
102
{ACAD_REACTORS
330
DD
330
107
330
F2
330
11B
102
}
330
A
100
AcDbSymbolTableRecord
100
AcDbDimStyleTableRecord
  2
SLDDIMSTYLE0
 70
     0
 41
3.302
 44
0.0
 45
0.000000001
 73
     0
 74
     0
 77
     1
 78
    12
 79
     3
140
3.5
143
0.0393700787401575
147
0.875
148
0.000000001
170
     1
172
     1
173
     1
178
     0
271
     2
272
     2
276
     2
284
    12
289
     0
340
94
  0
DIMSTYLE
105
F3
330
A
100
AcDbSymbolTableRecord
100
AcDbDimStyleTableRecord
  2
SLDDIMSTYLE1
 70
     0
 41
3.302
 44
0.0
 45
0.000000001
 73
     0
 74
     0
 77
     1
 78
     4
 79
     1
140
3.5
143
0.0393700787401575
147
0.875
148
0.000000001
170
     1
173
     1
178
     0
271
     2
272
     2
276
     2
284
    12
340
94
  0
DIMSTYLE
105
108
330
A
100
AcDbSymbolTableRecord
100
AcDbDimStyleTableRecord
  2
SLDDIMSTYLE2
 70
     0
 41
3.302
 44
0.0
 45
0.000000001
 73
     0
 74
     0
 77
     1
 78
    12
 79
     3
140
3.5
143
0.0393700787401575
147
0.875
148
0.000000001
170
     1
173
     1
178
     0
271
     2
272
     2
276
     2
284
    12
340
94
  0
ENDTAB
  0
TABLE
  2
BLOCK_RECORD
  5
1
330
0
100
AcDbSymbolTable
 70
     7
  0
BLOCK_RECORD
  5
1F
330
1
100
AcDbSymbolTableRecord
100
AcDbBlockTableRecord
  2
*Model_Space
340
22
  0
BLOCK_RECORD
  5
1B
330
1
100
AcDbSymbolTableRecord
100
AcDbBlockTableRecord
  2
*Paper_Space
340
1E
  0
BLOCK_RECORD
  5
23
330
1
100
AcDbSymbolTableRecord
100
AcDbBlockTableRecord
  2
*Paper_Space0
340
26
  0
BLOCK_RECORD
  5
7F
330
1
100
AcDbSymbolTableRecord
100
AcDbBlockTableRecord
  2
블럭10
340
0
102
{BLKREFS
331
D6
102
}
  0
BLOCK_RECORD
  5
DF
330
1
100
AcDbSymbolTableRecord
100
AcDbBlockTableRecord
  2
_D
340
0
  0
BLOCK_RECORD
  5
F4
330
1
100
AcDbSymbolTableRecord
100
AcDbBlockTableRecord
  2
_D_1
340
0
  0
BLOCK_RECORD
  5
109
330
1
100
AcDbSymbolTableRecord
100
AcDbBlockTableRecord
  2
_D_2
340
0
  0
BLOCK_RECORD
  5
11C
330
1
100
AcDbSymbolTableRecord
100
AcDbBlockTableRecord
  2
_D_3
340
0
  0
BLOCK_RECORD
  5
135
330
1
100
AcDbSymbolTableRecord
100
AcDbBlockTableRecord
  2
SW_DOWELSYMBOL_0
340
0
102
{BLKREFS
331
13B
102
}
  0
ENDTAB
  0
ENDSEC
  0
SECTION
  2
BLOCKS
  0
BLOCK
  5
20
330
1F
100
AcDbEntity
  8
0
100
AcDbBlockBegin
  2
*Model_Space
 70
     0
 10
0.0
 20
0.0
 30
0.0
  3
*Model_Space
  1
*Model_Space
  0
ENDBLK
  5
21
330
1F
100
AcDbEntity
  8
0
100
AcDbBlockEnd
  0
BLOCK
  5
1C
330
1B
100
AcDbEntity
 67
     1
  8
0
100
AcDbBlockBegin
  2
*Paper_Space
 70
     0
 10
0.0
 20
0.0
 30
0.0
  3
*Paper_Space
  1
*Paper_Space
  0
ENDBLK
  5
1D
330
1B
100
AcDbEntity
 67
     1
  8
0
100
AcDbBlockEnd
  0
BLOCK
  5
24
330
23
100
AcDbEntity
  8
0
100
AcDbBlockBegin
  2
*Paper_Space0
 70
     0
 10
0.0
 20
0.0
 30
0.0
  3
*Paper_Space0
  1
*Paper_Space0
  0
ENDBLK
  5
25
330
23
100
AcDbEntity
  8
0
100
AcDbBlockEnd
  0
BLOCK
  5
80
330
7F
100
AcDbEntity
  8
0
100
AcDbBlockBegin
  2
블럭10
 70
     2
 10
0.0
 20
0.0
 30
0.0
  3
블럭10
  1
블럭10
  0
ELLIPSE
  5
82
330
7F
100
AcDbEntity
  8
중심선
100
AcDbEllipse
 10
20.54032771741204
 20
12.0471743016438
 30
0.0
 11
6.600054785286829
 21
-1.261213355974178E-13
 31
0.0
210
0.0
220
0.0
230
1.0
 40
0.636358354079598
 41
0.9219305317359503
 42
6.513795318482858
  0
ELLIPSE
  5
83
330
7F
100
AcDbEntity
  8
중심선
100
AcDbEllipse
 10
20.54032771746488
 20
12.04717430159265
 30
0.0
 11
3.960054785062283
 21
1.540847449632565E-10
 31
0.0
210
0.0
220
0.0
230
1.0
 40
0.3939339440162632
 41
1.131841032648279
 42
5.62031148352944
  0
LINE
  5
84
330
7F
100
AcDbEntity
  8
중심선
100
AcDbLine
 10
2.268634060543552
 20
16.24717430164393
 30
0.0
 11
5.714909304380834
 21
16.24717430164393
 31
0.0
  0
LINE
  5
85
330
7F
100
AcDbEntity
  8
중심선
100
AcDbLine
 10
5.245725140726316
 20
7.84717430164391
 30
0.0
 11
8.692000384563599
 21
7.84717430164391
 31
0.0
  0
LINE
  5
86
330
7F
100
AcDbEntity
  8
중심선
100
AcDbLine
 10
15.74043728645272
 20
16.24717430164393
 30
0.0
 11
8.692000384563599
 21
7.84717430164391
 31
0.0
  0
LINE
  5
87
330
7F
100
AcDbEntity
  8
중심선
100
AcDbLine
 10
0.1404042013395286
 20
13.71084872107135
 30
0.0
 11
3.58671253028996
 21
13.71088815037384
 31
0.0
  0
LINE
  5
88
330
7F
100
AcDbEntity
  8
중심선
100
AcDbLine
 10
2.750260043222114
 20
10.84717430164391
 30
0.0
 11
6.196535287059397
 21
10.84717430164391
 31
0.0
  0
LINE
  5
89
330
7F
100
AcDbEntity
  8
중심선
100
AcDbLine
 10
12.29416204261559
 20
16.24717430164393
 30
0.0
 11
5.245725140726316
 21
7.84717430164391
 31
0.0
  0
LINE
  5
8A
330
7F
100
AcDbEntity
  8
중심선
100
AcDbLine
 10
10.72767329541681
 20
16.24717430164393
 30
0.0
 11
6.196535287059397
 21
10.84717430164391
 31
0.0
  0
LINE
  5
8B
330
7F
100
AcDbEntity
  8
중심선
100
AcDbLine
 10
7.28139805157953
 20
16.24717430164393
 30
0.0
 11
2.750260043222114
 21
10.84717430164391
 31
0.0
  0
LINE
  5
8C
330
7F
100
AcDbEntity
  8
중심선
100
AcDbLine
 10
5.714909304380834
 20
16.24717430164393
 30
0.0
 11
3.58671253028996
 21
13.71088815037384
 31
0.0
  0
LINE
  5
8D
330
7F
100
AcDbEntity
  8
중심선
100
AcDbLine
 10
2.268634060543552
 20
16.24717430164393
 30
0.0
 11
0.1404042013395286
 21
13.71084872107135
 31
0.0
  0
LINE
  5
8E
330
7F
100
AcDbEntity
  8
중심선
100
AcDbLine
 10
7.28139805157953
 20
16.24717430164393
 30
0.0
 11
10.72767329541681
 21
16.24717430164393
 31
0.0
  0
LINE
  5
8F
330
7F
100
AcDbEntity
  8
중심선
100
AcDbLine
 10
12.29416204261559
 20
16.24717430164393
 30
0.0
 11
15.74043728645272
 21
16.24717430164393
 31
0.0
  0
LINE
  5
90
330
7F
100
AcDbEntity
  8
중심선
100
AcDbLine
 10
19.22036997980202
 20
11.08717430171403
 30
0.0
 11
23.66174974927406
 21
11.08717430171406
 31
0.0
  0
LINE
  5
91
330
7F
100
AcDbEntity
  8
중심선
100
AcDbLine
 10
19.22039502424796
 20
13.00717430171391
 30
0.0
 11
19.22036997980202
 21
11.08717430171403
 31
0.0
  0
LINE
  5
92
330
7F
100
AcDbEntity
  8
중심선
100
AcDbLine
 10
19.22039502424796
 20
13.00717430171391
 30
0.0
 11
26.96566020931264
 21
13.00717430171391
 31
0.0
  0
LINE
  5
93
330
7F
100
AcDbEntity
  8
중심선
100
AcDbLine
 10
22.22332737316547
 20
13.45928029700563
 30
0.0
 11
24.52862924686651
 21
15.39360700705356
 31
0.0
  0
ATTDEF
  5
95
330
7F
100
AcDbEntity
  8
FORMAT
 62
     2
100
AcDbText
 10
4.408487351596664
 20
2.075366912832191
 30
0.0
 40
4.233333333333333
  1
E1080024
 41
0.75
  7
SLDTEXTSTYLE0
 11
4.408487351596664
 21
-0.0412997538344756
 31
0.0
100
AcDbAttributeDefinition
  3

  2
AUTOATTR0
 70
     0
 74
     1
  0
ENDBLK
  5
81
330
7F
100
AcDbEntity
  8
0
100
AcDbBlockEnd
  0
BLOCK
  5
E0
330
DF
100
AcDbEntity
  8
0
100
AcDbBlockBegin
  2
_D
 70
     0
 10
0.0
 20
0.0
 30
0.0
  3
_D
  1
_D
  0
LINE
  5
E2
330
DF
100
AcDbEntity
  8
치수문자_일반주서
 62
     0
370
    -2
100
AcDbLine
 10
-37.5501846714922
 20
4.763574928723897
 30
0.0
 11
-50.98768467149223
 21
4.763574928723846
 31
0.0
  0
LINE
  5
E3
330
DF
100
AcDbEntity
  8
치수문자_일반주서
 62
     0
370
    -2
100
AcDbLine
 10
-37.5501846714922
 20
-4.761425071276109
 30
0.0
 11
-50.98768467149219
 21
-4.761425071276159
 31
0.0
  0
LINE
  5
E4
330
DF
100
AcDbEntity
  8
치수문자_일반주서
 62
     0
370
    -2
100
AcDbLine
 10
-50.98768467149221
 20
1.461574928723847
 30
0.0
 11
-50.9876846714922
 21
-1.45942507127616
 31
0.0
  0
SOLID
  5
E5
330
DF
100
AcDbEntity
  8
치수문자_일반주서
 62
     0
100
AcDbTrace
 10
-50.43735133815888
 20
1.461574928723849
 30
0.0
 11
-51.53801800482555
 21
1.461574928723845
 31
0.0
 12
-50.98768467149223
 22
4.763574928723846
 32
0.0
 13
-50.98768467149223
 23
4.763574928723846
 33
0.0
  0
SOLID
  5
E6
330
DF
100
AcDbEntity
  8
치수문자_일반주서
 62
     0
100
AcDbTrace
 10
-51.53801800482554
 20
-1.459425071276162
 30
0.0
 11
-50.43735133815887
 21
-1.459425071276158
 31
0.0
 12
-50.98768467149219
 22
-4.761425071276159
 32
0.0
 13
-50.98768467149219
 23
-4.761425071276159
 33
0.0
  0
MTEXT
  5
E7
330
DF
100
AcDbEntity
  8
치수문자_일반주서
 62
     0
100
AcDbMText
 10
-55.36268467149221
 20
0.0010749287238838
 30
0.0
 40
3.5
 41
0.0
 71
     2
 72
     1
  1
\A1;%%c9.53 [3/8]
  7
SLDTEXTSTYLE0
 11
-3.729883127349605E-15
 21
1.0
 31
0.0
 73
     1
 44
1.0
  0
POINT
  5
E8
330
DF
100
AcDbEntity
  8
Defpoints
 62
     0
100
AcDbPoint
 10
-37.4876846714922
 20
4.763574928723897
 30
0.0
  0
POINT
  5
E9
330
DF
100
AcDbEntity
  8
Defpoints
 62
     0
100
AcDbPoint
 10
-37.4876846714922
 20
-4.761425071276109
 30
0.0
  0
POINT
  5
EA
330
DF
100
AcDbEntity
  8
Defpoints
 62
     0
100
AcDbPoint
 10
-50.98768467149219
 20
-4.761425071276159
 30
0.0
  0
ENDBLK
  5
E1
330
DF
100
AcDbEntity
  8
0
100
AcDbBlockEnd
  0
BLOCK
  5
F5
330
F4
100
AcDbEntity
  8
0
100
AcDbBlockBegin
  2
_D_1
 70
     0
 10
0.0
 20
0.0
 30
0.0
  3
_D_1
  1
_D_1
  0
LINE
  5
F7
330
F4
100
AcDbEntity
  8
치수문자_일반주서
 62
     0
370
    -2
100
AcDbLine
 10
44.06231532850779
 20
4.826074928723899
 30
0.0
 11
44.06231532850779
 21
17.93589146707801
 31
0.0
  0
LINE
  5
F8
330
F4
100
AcDbEntity
  8
치수문자_일반주서
 62
     0
370
    -2
100
AcDbLine
 10
5.96231532850779
 20
3.856888653613098
 30
0.0
 11
5.96231532850779
 21
17.93589146707801
 31
0.0
  0
LINE
  5
F9
330
F4
100
AcDbEntity
  8
치수문자_일반주서
 62
     0
370
    -2
100
AcDbLine
 10
5.96231532850779
 20
17.93589146707801
 30
0.0
 11
-26.89168467149221
 21
17.93589146707801
 31
0.0
  0
LINE
  5
FA
330
F4
100
AcDbEntity
  8
치수문자_일반주서
 62
     0
370
    -2
100
AcDbLine
 10
44.06231532850779
 20
17.93589146707801
 30
0.0
 11
5.96231532850779
 21
17.93589146707801
 31
0.0
  0
LINE
  5
FB
330
F4
100
AcDbEntity
  8
치수문자_일반주서
 62
     0
370
    -2
100
AcDbLine
 10
47.36431532850779
 20
17.93589146707801
 30
0.0
 11
50.66631532850779
 21
17.93589146707801
 31
0.0
  0
LINE
  5
FC
330
F4
100
AcDbEntity
  8
치수문자_일반주서
 62
     0
370
    -2
100
AcDbLine
 10
2.660315328507791
 20
17.93589146707801
 30
0.0
 11
-0.6416846714922091
 21
17.93589146707801
 31
0.0
  0
SOLID
  5
FD
330
F4
100
AcDbEntity
  8
치수문자_일반주서
 62
     0
100
AcDbTrace
 10
47.36431532850779
 20
18.48622480041135
 30
0.0
 11
47.36431532850779
 21
17.38555813374468
 31
0.0
 12
44.06231532850779
 22
17.93589146707801
 32
0.0
 13
44.06231532850779
 23
17.93589146707801
 33
0.0
  0
SOLID
  5
FE
330
F4
100
AcDbEntity
  8
치수문자_일반주서
 62
     0
100
AcDbTrace
 10
2.660315328507791
 20
17.38555813374468
 30
0.0
 11
2.660315328507791
 21
18.48622480041135
 31
0.0
 12
5.96231532850779
 22
17.93589146707801
 32
0.0
 13
5.96231532850779
 23
17.93589146707801
 33
0.0
  0
MTEXT
  5
FF
330
F4
100
AcDbEntity
  8
치수문자_일반주서
 62
     0
100
AcDbMText
 10
-13.76668467149221
 20
22.31089146707801
 30
0.0
 40
3.5
 41
0.0
 71
     2
 72
     1
  1
\A1;38.1 [1 1/2]
  7
SLDTEXTSTYLE0
 73
     1
 44
1.0
  0
POINT
  5
100
330
F4
100
AcDbEntity
  8
Defpoints
 62
     0
100
AcDbPoint
 10
44.06231532850779
 20
4.763574928723899
 30
0.0
  0
POINT
  5
18E
330
F4
100
AcDbEntity
  8
Defpoints
 62
     0
100
AcDbPoint
 10
5.96231532850779
 20
3.794388653613098
 30
0.0
  0
POINT
  5
18F
330
F4
100
AcDbEntity
  8
Defpoints
 62
     0
100
AcDbPoint
 10
5.96231532850779
 20
17.93589146707801
 30
0.0
  0
ENDBLK
  5
F6
330
F4
100
AcDbEntity
  8
0
100
AcDbBlockEnd
  0
BLOCK
  5
10A
330
109
100
AcDbEntity
  8
0
100
AcDbBlockBegin
  2
_D_2
 70
     0
 10
0.0
 20
0.0
 30
0.0
  3
_D_2
  1
_D_2
  0
LINE
  5
10C
330
109
100
AcDbEntity
  8
치수문자_일반주서
 62
     0
370
    -2
100
AcDbLine
 10
44.0623153285078
 20
4.8260749287239
 30
0.0
 11
44.06231532850779
 21
35.04593538382493
 31
0.0
  0
LINE
  5
10D
330
109
100
AcDbEntity
  8
치수문자_일반주서
 62
     0
370
    -2
100
AcDbLine
 10
-38.48768467149221
 20
3.826074928723889
 30
0.0
 11
-38.48768467149222
 21
35.04593538382493
 31
0.0
  0
LINE
  5
10E
330
109
100
AcDbEntity
  8
치수문자_일반주서
 62
     0
370
    -2
100
AcDbLine
 10
40.76031532850779
 20
35.04593538382493
 30
0.0
 11
-35.18568467149222
 21
35.04593538382493
 31
0.0
  0
SOLID
  5
10F
330
109
100
AcDbEntity
  8
치수문자_일반주서
 62
     0
100
AcDbTrace
 10
40.76031532850779
 20
34.49560205049159
 30
0.0
 11
40.76031532850779
 21
35.59626871715826
 31
0.0
 12
44.06231532850779
 22
35.04593538382493
 32
0.0
 13
44.06231532850779
 23
35.04593538382493
 33
0.0
  0
SOLID
  5
110
330
109
100
AcDbEntity
  8
치수문자_일반주서
 62
     0
100
AcDbTrace
 10
-35.18568467149222
 20
35.59626871715826
 30
0.0
 11
-35.18568467149222
 21
34.49560205049159
 31
0.0
 12
-38.48768467149222
 22
35.04593538382493
 32
0.0
 13
-38.48768467149222
 23
35.04593538382493
 33
0.0
  0
MTEXT
  5
111
330
109
100
AcDbEntity
  8
치수문자_일반주서
 62
     0
100
AcDbMText
 10
2.787315328507649
 20
39.42093538382493
 30
0.0
 40
3.5
 41
0.0
 71
     2
 72
     1
  1
\A1;82.55 [3 1/4]
  7
SLDTEXTSTYLE0
 73
     1
 44
1.0
  0
POINT
  5
112
330
109
100
AcDbEntity
  8
Defpoints
 62
     0
100
AcDbPoint
 10
44.0623153285078
 20
4.7635749287239
 30
0.0
  0
POINT
  5
113
330
109
100
AcDbEntity
  8
Defpoints
 62
     0
100
AcDbPoint
 10
-38.48768467149221
 20
3.763574928723889
 30
0.0
  0
POINT
  5
114
330
109
100
AcDbEntity
  8
Defpoints
 62
     0
100
AcDbPoint
 10
-38.48768467149221
 20
35.04593538382493
 30
0.0
  0
ENDBLK
  5
10B
330
109
100
AcDbEntity
  8
0
100
AcDbBlockEnd
  0
BLOCK
  5
11D
330
11C
100
AcDbEntity
  8
0
100
AcDbBlockBegin
  2
_D_3
 70
     0
 10
0.0
 20
0.0
 30
0.0
  3
_D_3
  1
_D_3
  0
LINE
  5
11F
330
11C
100
AcDbEntity
  8
치수문자_일반주서
 62
     0
370
    -2
100
AcDbLine
 10
44.12481532850779
 20
-4.7614250712761
 30
0.0
 11
62.70393699763314
 21
-4.761425071276033
 31
0.0
  0
LINE
  5
120
330
11C
100
AcDbEntity
  8
치수문자_일반주서
 62
     0
370
    -2
100
AcDbLine
 10
44.12481532850779
 20
4.763574928723899
 30
0.0
 11
62.7039369976331
 21
4.763574928723965
 31
0.0
  0
LINE
  5
121
330
11C
100
AcDbEntity
  8
치수문자_일반주서
 62
     0
370
    -2
100
AcDbLine
 10
62.7039369976331
 20
4.763574928723965
 30
0.0
 11
62.70393699763298
 21
37.61757492872397
 31
0.0
  0
LINE
  5
122
330
11C
100
AcDbEntity
  8
치수문자_일반주서
 62
     0
370
    -2
100
AcDbLine
 10
62.70393699763314
 20
-4.761425071276033
 30
0.0
 11
62.7039369976331
 21
4.763574928723965
 31
0.0
  0
LINE
  5
123
330
11C
100
AcDbEntity
  8
치수문자_일반주서
 62
     0
370
    -2
100
AcDbLine
 10
62.70393699763315
 20
-8.063425071276033
 30
0.0
 11
62.70393699763316
 21
-11.36542507127603
 31
0.0
  0
LINE
  5
124
330
11C
100
AcDbEntity
  8
치수문자_일반주서
 62
     0
370
    -2
100
AcDbLine
 10
62.70393699763309
 20
8.065574928723965
 30
0.0
 11
62.70393699763307
 21
11.36757492872396
 31
0.0
  0
SOLID
  5
125
330
11C
100
AcDbEntity
  8
치수문자_일반주서
 62
     0
100
AcDbTrace
 10
63.25427033096648
 20
-8.063425071276031
 30
0.0
 11
62.15360366429982
 21
-8.063425071276034
 31
0.0
 12
62.70393699763314
 22
-4.761425071276033
 32
0.0
 13
62.70393699763314
 23
-4.761425071276033
 33
0.0
  0
SOLID
  5
126
330
11C
100
AcDbEntity
  8
치수문자_일반주서
 62
     0
100
AcDbTrace
 10
62.15360366429975
 20
8.065574928723963
 30
0.0
 11
63.25427033096642
 21
8.065574928723967
 31
0.0
 12
62.7039369976331
 22
4.763574928723965
 32
0.0
 13
62.7039369976331
 23
4.763574928723965
 33
0.0
  0
MTEXT
  5
127
330
11C
100
AcDbEntity
  8
치수문자_일반주서
 62
     0
100
AcDbMText
 10
58.32893699763303
 20
24.49257492872395
 30
0.0
 40
3.5
 41
0.0
 71
     2
 72
     1
  1
\A1;%%c9.53 [3/8]
  7
SLDTEXTSTYLE0
 11
-3.729883127349608E-15
 21
1.0
 31
0.0
 73
     1
 44
1.0
  0
POINT
  5
128
330
11C
100
AcDbEntity
  8
Defpoints
 62
     0
100
AcDbPoint
 10
44.06231532850779
 20
-4.7614250712761
 30
0.0
  0
POINT
  5
190
330
11C
100
AcDbEntity
  8
Defpoints
 62
     0
100
AcDbPoint
 10
44.06231532850779
 20
4.763574928723899
 30
0.0
  0
POINT
  5
191
330
11C
100
AcDbEntity
  8
Defpoints
 62
     0
100
AcDbPoint
 10
62.70393699763309
 20
4.763574928723968
 30
0.0
  0
ENDBLK
  5
11E
330
11C
100
AcDbEntity
  8
0
100
AcDbBlockEnd
  0
BLOCK
  5
136
330
135
100
AcDbEntity
  8
0
100
AcDbBlockBegin
  2
SW_DOWELSYMBOL_0
 70
     0
 10
0.0
 20
0.0
 30
0.0
  3
SW_DOWELSYMBOL_0
  1
SW_DOWELSYMBOL_0
  0
CIRCLE
  5
138
330
135
100
AcDbEntity
  8
해칭선
 62
     0
100
AcDbCircle
 10
0.0
 20
0.0
 30
0.0
 40
2.999999999999996
  0
HATCH
  5
139
330
135
100
AcDbEntity
  8
0
  6
Continuous
 62
     0
370
     0
100
AcDbHatch
 10
0.0
 20
0.0
 30
0.0
210
0.0
220
0.0
230
1.0
  2
SOLID
 70
     1
 71
     0
 91
        1
 92
        0
 93
        3
 72
     2
 10
0.0
 20
0.0
 40
2.999999999999996
 50
0.0
 51
90.0
 73
     1
 72
     1
 10
0.0
 20
2.999999999999996
 11
0.0
 21
0.0
 72
     1
 10
0.0
 20
0.0
 11
2.999999999999996
 21
0.0
 97
        0
 75
     0
 76
     1
 98
        1
 10
0.0
 20
0.0
  0
HATCH
  5
13A
330
135
100
AcDbEntity
  8
0
  6
Continuous
 62
     0
370
     0
100
AcDbHatch
 10
0.0
 20
0.0
 30
0.0
210
0.0
220
0.0
230
1.0
  2
SOLID
 70
     1
 71
     0
 91
        1
 92
        0
 93
        3
 72
     2
 10
0.0
 20
0.0
 40
2.999999999999996
 50
180.0
 51
270.0000000000007
 73
     1
 72
     1
 10
0.0
 20
-2.999999999999996
 11
0.0
 21
0.0
 72
     1
 10
0.0
 20
0.0
 11
-2.999999999999996
 21
0.0
 97
        0
 75
     0
 76
     1
 98
        1
 10
0.0
 20
0.0
  0
ENDBLK
  5
137
330
135
100
AcDbEntity
  8
0
100
AcDbBlockEnd
  0
ENDSEC
  0
SECTION
  2
ENTITIES
  0
LINE
  5
96
330
1F
100
AcDbEntity
  8
외형선
  6
Continuous
370
    15
100
AcDbLine
 10
4.442365607290917
 20
4.763574928723894
 30
0.0
 11
-12.8052346714921
 21
4.763574928723893
 31
0.0
  0
LINE
  5
97
330
1F
100
AcDbEntity
  8
외형선
  6
Continuous
370
    15
100
AcDbLine
 10
-37.4876846714922
 20
-4.761425071276108
 30
0.0
 11
4.442365607290917
 21
-4.761425071276105
 31
0.0
  0
LINE
  5
98
330
1F
100
AcDbEntity
  8
외형선
  6
Continuous
370
    15
100
AcDbLine
 10
-37.4876846714922
 20
4.763574928723889
 30
0.0
 11
-38.48768467149221
 21
3.763574928723888
 31
0.0
  0
LINE
  5
99
330
1F
100
AcDbEntity
  8
외형선
  6
Continuous
370
    15
100
AcDbLine
 10
-38.48768467149221
 20
-3.761425071276106
 30
0.0
 11
-37.4876846714922
 21
-4.761425071276106
 31
0.0
  0
SPLINE
  5
9A
330
1F
100
AcDbEntity
  8
외형선
  6
Continuous
370
    15
100
AcDbSpline
210
0.0
220
0.0
230
1.0
 70
     8
 71
     3
 72
     9
 73
     5
 74
     0
 42
0.000000001
 43
0.00000001
 40
0.0
 40
0.0
 40
0.0
 40
0.0
 40
0.4368974310639008
 40
1.0
 40
1.0
 40
1.0
 40
1.0
 10
5.705685532872863
 20
1.269420363134918
 30
0.0
 10
5.552809162045106
 20
1.34295221381012
 30
0.0
 10
5.202895521089422
 20
1.51125682136101
 30
0.0
 10
4.850306438162919
 20
1.693061956830396
 30
0.0
 10
4.65176261978818
 20
1.795436895658983
 30
0.0
  0
SPLINE
  5
9B
330
1F
100
AcDbEntity
  8
0
  6
Continuous
 62
     1
370
    15
100
AcDbSpline
210
0.0
220
0.0
230
1.0
 70
     8
 71
     3
 72
     9
 73
     5
 74
     0
 42
0.000000001
 43
0.00000001
 40
0.0
 40
0.0
 40
0.0
 40
0.0
 40
0.4404647664277515
 40
1.0
 40
1.0
 40
1.0
 40
1.0
 10
31.72320209404025
 20
1.221442519598422
 30
0.0
 10
31.52898423665146
 20
1.313917458510497
 30
0.0
 10
31.08804577302828
 20
1.523866008225524
 30
0.0
 10
30.64892529302778
 20
1.753660394392219
 30
0.0
 10
30.40322191268433
 20
1.882238449929593
 30
0.0
  0
LINE
  5
9C
330
1F
100
AcDbEntity
  8
0
  6
Continuous
 62
     1
370
    15
100
AcDbLine
 10
20.79548891213982
 20
4.763574928723898
 30
0.0
 11
18.48742222796017
 21
4.763574928723898
 31
0.0
  0
LINE
  5
9D
330
1F
100
AcDbEntity
  8
0
  6
Continuous
 62
     1
370
    15
100
AcDbLine
 10
18.48742222796018
 20
-4.761425071276109
 30
0.0
 11
20.79548891213982
 21
-4.761425071276109
 31
0.0
  0
SPLINE
  5
9E
330
1F
100
AcDbEntity
  8
0
  6
Continuous
 62
     1
370
    15
100
AcDbSpline
210
0.0
220
0.0
230
1.0
 70
     8
 71
     3
 72
    21
 73
    17
 74
     0
 42
0.000000001
 43
0.00000001
 40
0.0
 40
0.0
 40
0.0
 40
0.0
 40
0.1121788558320866
 40
0.2071419087078815
 40
0.2864308877632895
 40
0.3552081205445763
 40
0.416052075087934
 40
0.4733640357417046
 40
0.5383616546710462
 40
0.6074648485117417
 40
0.664485161891519
 40
0.6924897033656113
 40
0.7315136392382829
 40
0.7818897176902907
 40
0.878263159080597
 40
1.0
 40
1.0
 40
1.0
 40
1.0
 10
22.98692952781641
 20
-3.961987128625343
 30
0.0
 10
23.24964431718743
 20
-3.936578948637973
 30
0.0
 10
23.73475572710907
 20
-3.889661917256803
 30
0.0
 10
24.42236194160171
 20
-3.836440018655301
 30
0.0
 10
25.01359000443021
 20
-3.79876774945295
 30
0.0
 10
25.52102992698906
 20
-3.77043774851895
 30
0.0
 10
25.96969098089436
 20
-3.751091447789119
 30
0.0
 10
26.39058639245647
 20
-3.737418676348477
 30
0.0
 10
26.84553665315691
 20
-3.725931024116278
 30
0.0
 10
27.30297163606865
 20
-3.719413535425052
 30
0.0
 10
27.67068726516461
 20
-3.717857049897749
 30
0.0
 10
27.96640910004797
 20
-3.718619644412966
 30
0.0
 10
28.24691039148286
 20
-3.720829002468038
 30
0.0
 10
28.69115622305421
 20
-3.727580803206463
 30
0.0
 10
29.33373958623407
 20
-3.744177734526569
 30
0.0
 10
29.85718424906358
 20
-3.769343130661116
 30
0.0
 10
30.14934149618733
 20
-3.783389033465255
 30
0.0
  0
SPLINE
  5
9F
330
1F
100
AcDbEntity
  8
0
  6
Continuous
 62
     1
370
    15
100
AcDbSpline
210
0.0
220
0.0
230
1.0
 70
     8
 71
     3
 72
    16
 73
    12
 74
     0
 42
0.000000001
 43
0.00000001
 40
0.0
 40
0.0
 40
0.0
 40
0.0
 40
0.1577520741182084
 40
0.3005138850277297
 40
0.4311882102281086
 40
0.5475149085486241
 40
0.6419502840657557
 40
0.7149697547716016
 40
0.7953495294166361
 40
0.9170463984797975
 40
1.0
 40
1.0
 40
1.0
 40
1.0
 10
30.14934149618733
 20
3.785538890913043
 30
0.0
 10
29.95252008095181
 20
3.775481681222125
 30
0.0
 10
29.57758004621881
 20
3.756322940054059
 30
0.0
 10
29.01999088441055
 20
3.73607739493713
 30
0.0
 10
28.50347374400234
 20
3.725532263564165
 30
0.0
 10
28.0500801748074
 20
3.721036484123462
 30
0.0
 10
27.67347774032711
 20
3.719828492124618
 30
0.0
 10
27.35005582963853
 20
3.721472800673741
 30
0.0
 10
26.99870888215366
 20
3.72579244209436
 30
0.0
 10
26.62917567385666
 20
3.732608330224825
 30
0.0
 10
26.36349294039358
 20
3.741455459527952
 30
0.0
 10
26.25580034853358
 20
3.745041579983563
 30
0.0
  0
SPLINE
  5
A0
330
1F
100
AcDbEntity
  8
0
  6
Continuous
 62
     1
370
    15
100
AcDbSpline
210
0.0
220
0.0
230
1.0
 70
     8
 71
     3
 72
    17
 73
    13
 74
     0
 42
0.000000001
 43
0.00000001
 40
0.0
 40
0.0
 40
0.0
 40
0.0
 40
0.1488967318632882
 40
0.2640348040804321
 40
0.3461400480638458
 40
0.421942328458117
 40
0.5151459198801192
 40
0.6231322441173057
 40
0.7215447216107476
 40
0.8641854265807204
 40
0.9880836042003738
 40
0.9999999999999999
 40
0.9999999999999999
 40
0.9999999999999999
 40
0.9999999999999999
 10
33.97311969650092
 20
-3.580961341593578
 30
0.0
 10
34.14768115296391
 20
-3.554171920285276
 30
0.0
 10
34.45722656326554
 20
-3.50666691787152
 30
0.0
 10
34.86334117603406
 20
-3.45014149154917
 30
0.0
 10
35.18692359573146
 20
-3.408023719072497
 30
0.0
 10
35.4858416154267
 20
-3.371528567515154
 30
0.0
 10
35.81350368853335
 20
-3.334205323295846
 30
0.0
 10
36.16689874695823
 20
-3.297489258347386
 30
0.0
 10
36.57808345041086
 20
-3.258781521783996
 30
0.0
 10
37.00844683363218
 20
-3.22416615334933
 30
0.0
 10
37.33522519256197
 20
-3.200817930179187
 30
0.0
 10
37.49504434188781
 20
-3.192281450772406
 30
0.0
 10
37.50906690361867
 20
-3.191532458489872
 30
0.0
  0
SPLINE
  5
A1
330
1F
100
AcDbEntity
  8
0
  6
Continuous
 62
     1
370
    15
100
AcDbSpline
210
0.0
220
0.0
230
1.0
 70
     8
 71
     3
 72
    29
 73
    25
 74
     0
 42
0.000000001
 43
0.00000001
 40
0.0
 40
0.0
 40
0.0
 40
0.0
 40
0.0706398528652521
 40
0.1253531125689292
 40
0.1672512536392598
 40
0.1923462685979007
 40
0.2173507212884188
 40
0.2442545489657845
 40
0.2732172003232325
 40
0.3043676186267408
 40
0.3377013461208718
 40
0.4019733477213748
 40
0.4557001412742768
 40
0.5002933864655049
 40
0.5434751297354626
 40
0.5951103263251878
 40
0.6571532337652091
 40
0.7155181344484114
 40
0.7678005961817398
 40
0.8136054862712864
 40
0.8369735772128717
 40
0.8750079332836478
 40
0.9292032351376124
 40
1.0
 40
1.0
 40
1.0
 40
1.0
 10
16.37754564645081
 20
3.258388518169932
 30
0.0
 10
16.1803415274533
 20
3.242341236206804
 30
0.0
 10
15.83039529844704
 20
3.213864722443582
 30
0.0
 10
15.36517953662947
 20
3.185590739607067
 30
0.0
 10
15.0273129283268
 20
3.168790002341361
 30
0.0
 10
14.77533328000898
 20
3.158459868206034
 30
0.0
 10
14.5632487397721
 20
3.151047702110713
 30
0.0
 10
14.33977516557368
 20
3.1446981798279
 30
0.0
 10
14.09840533428016
 20
3.139592188491752
 30
0.0
 10
13.83851677276177
 20
3.136112457166427
 30
0.0
 10
13.47976136085933
 20
3.134286190855321
 30
0.0
 10
13.05646076012225
 20
3.137402510641356
 30
0.0
 10
12.60616738859845
 20
3.1477277178323
 30
0.0
 10
12.21972976700198
 20
3.16143125790817
 30
0.0
 10
11.833063552605
 20
3.179287781722787
 30
0.0
 10
11.39805041651481
 20
3.20457040422393
 30
0.0
 10
10.92095564501433
 20
3.239059405215771
 30
0.0
 10
10.44237271324341
 20
3.280937338438918
 30
0.0
 10
10.00799651476397
 20
3.324467713779487
 30
0.0
 10
9.672827378101799
 20
3.361862973736466
 30
0.0
 10
9.378372376779682
 20
3.396985552605202
 30
0.0
 10
9.057556682297262
 20
3.437609807603261
 30
0.0
 10
8.604653424184699
 20
3.499528909038219
 30
0.0
 10
8.255957743893601
 20
3.552888876575183
 30
0.0
 10
8.058453000315586
 20
3.583112499353994
 30
0.0
  0
SPLINE
  5
A2
330
1F
100
AcDbEntity
  8
0
  6
Continuous
 62
     1
370
    15
100
AcDbSpline
210
0.0
220
0.0
230
1.0
 70
     8
 71
     3
 72
    18
 73
    14
 74
     0
 42
0.000000001
 43
0.00000001
 40
0.0
 40
0.0
 40
0.0
 40
0.0
 40
0.1652102345194664
 40
0.2916795519600376
 40
0.3885322495896702
 40
0.4469815119084561
 40
0.5059831072524664
 40
0.5697880580558397
 40
0.6383044978397951
 40
0.7112788099058219
 40
0.7886251303999801
 40
0.9376075678596469
 40
1.0
 40
1.0
 40
1.0
 40
1.0
 10
8.058453000315586
 20
-3.580962641906206
 30
0.0
 10
8.255956934464317
 20
-3.55073950881112
 30
0.0
 10
8.60465118570369
 20
-3.49738040581339
 30
0.0
 10
9.067201161450596
 20
-3.434138614411716
 30
0.0
 10
9.402272304700984
 20
-3.391846031687697
 30
0.0
 10
9.654255179919042
 20
-3.362039368745547
 30
0.0
 10
9.868526593211113
 20
-3.33789120676457
 30
0.0
 10
10.09539290885422
 20
-3.313693402372167
 30
0.0
 10
10.33954150166029
 20
-3.289255100193595
 30
0.0
 10
10.59961842576501
 20
-3.265022720299021
 30
0.0
 10
10.95511237444124
 20
-3.234736913471509
 30
0.0
 10
11.29819843358198
 20
-3.208769266937632
 30
0.0
 10
11.54940374516794
 20
-3.194506887916635
 30
0.0
 10
11.62355310069957
 20
-3.190296999972474
 30
0.0
  0
SPLINE
  5
A3
330
1F
100
AcDbEntity
  8
0
  6
Continuous
 62
     1
370
    15
100
AcDbSpline
210
0.0
220
0.0
230
1.0
 70
     8
 71
     3
 72
    27
 73
    23
 74
     0
 42
0.000000001
 43
0.00000001
 40
0.0
 40
0.0
 40
0.0
 40
0.0
 40
0.0658815538681415
 40
0.1159906280124328
 40
0.1499689943921986
 40
0.1807226108090222
 40
0.2194568544945329
 40
0.2650650839941238
 40
0.3076434825375963
 40
0.3716915626978258
 40
0.4257384888453765
 40
0.4791749179547002
 40
0.5326899664439336
 40
0.5928528306639388
 40
0.6567745356888858
 40
0.710347992470496
 40
0.7402194582938343
 40
0.7678249439991459
 40
0.7957818426163187
 40
0.8421265386567771
 40
0.9100752646215624
 40
1.0
 40
1.0
 40
1.0
 40
1.0
 10
42.29230819008233
 20
3.258397505910055
 30
0.0
 10
42.11036544579386
 20
3.243521509923689
 30
0.0
 10
41.79003825353357
 20
3.217330929777042
 30
0.0
 10
41.37551473285325
 20
3.191278928069317
 30
0.0
 10
41.05573156661993
 20
3.17424411372843
 30
0.0
 10
40.76647206143112
 20
3.161259375037149
 30
0.0
 10
40.44659082125651
 20
3.149675610359688
 30
0.0
 10
40.09478419904761
 20
3.140727200284542
 30
0.0
 10
39.67275053967948
 20
3.134825237706404
 30
0.0
 10
39.22727746144436
 20
3.134681935974558
 30
0.0
 10
38.75154631443152
 20
3.141720267703175
 30
0.0
 10
38.30514231209767
 20
3.154569696263809
 30
0.0
 10
37.8420006869089
 20
3.17414906516816
 30
0.0
 10
37.34726859125745
 20
3.202099783969743
 30
0.0
 10
36.84999803179704
 20
3.237878084810463
 30
0.0
 10
36.44180829905604
 20
3.273463232875555
 30
0.0
 10
36.13871801039942
 20
3.302779242329921
 30
0.0
 10
35.90466814874539
 20
3.326907876646442
 30
0.0
 10
35.62503480941958
 20
3.357468638402731
 30
0.0
 10
35.23071226353049
 20
3.404008136672727
 30
0.0
 10
34.66391595418269
 20
3.47805371234717
 30
0.0
 10
34.22380622890628
 20
3.544986358685442
 30
0.0
 10
33.97311969650093
 20
3.583111199041366
 30
0.0
  0
SPLINE
  5
A4
330
1F
100
AcDbEntity
  8
외형선
  6
Continuous
370
    15
100
AcDbSpline
210
0.0
220
0.0
230
1.0
 70
     8
 71
     3
 72
     8
 73
     4
 74
     0
 42
0.000000001
 43
0.00000001
 40
0.0
 40
0.0
 40
0.0
 40
0.0
 40
1.0
 40
1.0
 40
1.0
 40
1.0
 10
5.96231532850779
 20
-0.2488785099464841
 30
0.0
 10
5.45386231061814
 20
0.0437081858478467
 30
0.0
 10
4.950774216501118
 20
0.3366810902188725
 30
0.0
 10
4.442365607290913
 20
0.6271206748941768
 30
0.0
  0
SPLINE
  5
A5
330
1F
100
AcDbEntity
  8
외형선
  6
Continuous
370
    15
100
AcDbSpline
210
0.0
220
0.0
230
1.0
 70
    24
 71
     3
 72
     9
 73
     5
 74
     0
 42
0.000000001
 43
0.00000001
 40
0.0
 40
0.0
 40
0.0
 40
0.0
 40
0.2230663096542548
 40
1.0
 40
1.0
 40
1.0
 40
1.0
 10
5.96231532850779
 20
-0.2488785099464887
 30
0.0
 10
5.96231532850779
 20
-0.25277446340384
 30
0.0
 10
5.96231532850779
 20
-0.2702399133114922
 30
0.0
 10
5.96231532850779
 20
-0.2929481330775113
 30
0.0
 10
5.96231532850779
 20
-0.3105909140615069
 30
0.0
  0
SPLINE
  5
A6
330
1F
100
AcDbEntity
  8
외형선
  6
Continuous
370
    15
100
AcDbSpline
210
0.0
220
0.0
230
1.0
 70
     8
 71
     3
 72
     8
 73
     4
 74
     0
 42
0.000000001
 43
0.00000001
 40
0.0
 40
0.0
 40
0.0
 40
0.0
 40
1.0
 40
1.0
 40
1.0
 40
1.0
 10
5.96231532850779
 20
-0.3105909140617116
 30
0.0
 10
5.580704114413573
 20
-0.1573355566867769
 30
0.0
 10
5.202781328995373
 20
-0.00358038576325
 30
0.0
 10
4.82237434772312
 20
0.1500335271986689
 30
0.0
  0
SPLINE
  5
A7
330
1F
100
AcDbEntity
  8
외형선
  6
Continuous
370
    15
100
AcDbSpline
210
0.0
220
0.0
230
1.0
 70
     8
 71
     3
 72
    12
 73
     8
 74
     0
 42
0.000000001
 43
0.00000001
 40
0.0
 40
0.0
 40
0.0
 40
0.0
 40
0.5000000000000006
 40
0.5000000000000006
 40
0.7500000000000002
 40
0.7500000000000002
 40
1.0
 40
1.0
 40
1.0
 40
1.0
 10
4.44236560729107
 20
0.5303839143682694
 30
0.0
 10
4.442365707584221
 20
0.4868023470900323
 30
0.0
 10
4.485774429889799
 20
0.416671059099698
 30
0.0
 10
4.583707500659543
 20
0.3090738221071657
 30
0.0
 10
4.622184686891702
 20
0.272907447321808
 30
0.0
 10
4.71230444697399
 20
0.2051608811799746
 30
0.0
 10
4.76457115684018
 20
0.1733753026401098
 30
0.0
 10
4.82237434772312
 20
0.1500335271986689
 30
0.0
  0
LINE
  5
A8
330
1F
100
AcDbEntity
  8
외형선
  6
Continuous
370
    15
100
AcDbLine
 10
4.442365607290913
 20
1.906827463462036
 30
0.0
 11
4.442365607290917
 21
4.763574928723894
 31
0.0
  0
SPLINE
  5
A9
330
1F
100
AcDbEntity
  8
외형선
  6
Continuous
370
    15
100
AcDbSpline
210
0.0
220
0.0
230
1.0
 70
     8
 71
     3
 72
     8
 73
     4
 74
     0
 42
0.000000001
 43
0.00000001
 40
0.0
 40
0.0
 40
0.0
 40
0.0
 40
1.0
 40
1.0
 40
1.0
 40
1.0
 10
5.96231532850779
 20
1.074341409604905
 30
0.0
 10
5.453879879449838
 20
1.359785180180734
 30
0.0
 10
4.950809246594622
 20
1.638142478212415
 30
0.0
 10
4.44241830917716
 20
1.906640408312553
 30
0.0
  0
LINE
  5
AA
330
1F
100
AcDbEntity
  8
외형선
  6
Continuous
370
    15
100
AcDbLine
 10
5.96231532850779
 20
1.074341409604904
 30
0.0
 11
5.96231532850779
 21
-0.248878509946486
 31
0.0
  0
LINE
  5
AB
330
1F
100
AcDbEntity
  8
외형선
  6
Continuous
370
    15
100
AcDbLine
 10
4.442365607290917
 20
-4.761425071276105
 30
0.0
 11
4.442365607290913
 21
0.6271171794868544
 31
0.0
  0
LINE
  5
AC
330
1F
100
AcDbEntity
  8
외형선
  6
Continuous
370
    15
100
AcDbLine
 10
-37.4876846714922
 20
4.763574928723889
 30
0.0
 11
-37.4876846714922
 21
-4.761425071276108
 31
0.0
  0
LINE
  5
AD
330
1F
100
AcDbEntity
  8
외형선
  6
Continuous
370
    15
100
AcDbLine
 10
-38.48768467149221
 20
3.763574928723889
 30
0.0
 11
-38.48768467149221
 21
-3.761425071276104
 31
0.0
  0
LINE
  5
AE
330
1F
100
AcDbEntity
  8
외형선
  6
Continuous
370
    15
100
AcDbLine
 10
5.962315328507797
 20
1.149404927268267
 30
0.0
 11
5.688971140441209
 21
1.273868110833614
 31
0.0
  0
SPLINE
  5
AF
330
1F
100
AcDbEntity
  8
외형선
  6
Continuous
370
    15
100
AcDbSpline
210
0.0
220
0.0
230
1.0
 70
    24
 71
     3
 72
     8
 73
     4
 74
     0
 42
0.000000001
 43
0.00000001
 40
0.0
 40
0.0
 40
0.0
 40
0.0
 40
1.0
 40
1.0
 40
1.0
 40
1.0
 10
5.96231532850779
 20
1.14940492726827
 30
0.0
 10
5.96231532850779
 20
1.144688089468971
 30
0.0
 10
5.96231532850779
 20
1.119596201908114
 30
0.0
 10
5.96231532850779
 20
1.074341409606741
 30
0.0
  0
SPLINE
  5
B0
330
1F
100
AcDbEntity
  8
외형선
  6
Continuous
370
    15
100
AcDbSpline
210
0.0
220
0.0
230
1.0
 70
     8
 71
     3
 72
     8
 73
     4
 74
     0
 42
0.000000001
 43
0.00000001
 40
0.0
 40
0.0
 40
0.0
 40
0.0
 40
1.0
 40
1.0
 40
1.0
 40
1.0
 10
5.96231532850779
 20
3.794388653613099
 30
0.0
 10
5.453868724625083
 20
3.816301269566088
 30
0.0
 10
4.95078700524753
 20
3.816641852891745
 30
0.0
 10
4.442384847630402
 20
3.795408889150784
 30
0.0
  0
SPLINE
  5
B1
330
1F
100
AcDbEntity
  8
외형선
  6
Continuous
370
    15
100
AcDbSpline
210
0.0
220
0.0
230
1.0
 70
    24
 71
     3
 72
    14
 73
    10
 74
     0
 42
0.000000001
 43
0.00000001
 40
0.0
 40
0.0
 40
0.0
 40
0.0
 40
0.25
 40
0.25
 40
0.5
 40
0.5
 40
0.75
 40
0.75
 40
1.0
 40
1.0
 40
1.0
 40
1.0
 10
5.962315328507787
 20
3.794388653613099
 30
0.0
 10
5.962315328507787
 20
3.718017000652128
 30
0.0
 10
5.962315328507787
 20
3.601628349003618
 30
0.0
 10
5.962315328507787
 20
3.28854650573883
 30
0.0
 10
5.962315328507787
 20
3.091851120533556
 30
0.0
 10
5.962315328507787
 20
2.629574681526082
 30
0.0
 10
5.962315328507783
 20
2.364127119126554
 30
0.0
 10
5.962315328507787
 20
1.785717449036946
 30
0.0
 10
5.962315328507787
 20
1.472962077974798
 30
0.0
 10
5.962315328507787
 20
1.149404927268274
 30
0.0
  0
SPLINE
  5
B2
330
1F
100
AcDbEntity
  8
외형선
  6
Continuous
370
    15
100
AcDbSpline
210
0.0
220
0.0
230
1.0
 70
     8
 71
     3
 72
     8
 73
     4
 74
     0
 42
0.000000001
 43
0.00000001
 40
0.0
 40
0.0
 40
0.0
 40
0.0
 40
1.0
 40
1.0
 40
1.0
 40
1.0
 10
5.96231532850779
 20
-3.792238796165311
 30
0.0
 10
5.629812284752703
 20
-3.806568740441398
 30
0.0
 10
5.29986712719335
 20
-3.811662092331852
 30
0.0
 10
4.969089850854324
 20
-3.807547095624562
 30
0.0
  0
SPLINE
  5
B3
330
1F
100
AcDbEntity
  8
외형선
  6
Continuous
370
    15
100
AcDbSpline
210
0.0
220
0.0
230
1.0
 70
     8
 71
     3
 72
    15
 73
    11
 74
     0
 42
0.000000001
 43
0.00000001
 40
0.0
 40
0.0
 40
0.0
 40
0.0
 40
0.4261759796912223
 40
0.5510682848635388
 40
0.6561343073195827
 40
0.7747491473796349
 40
0.8678676563245078
 40
0.9357177206181359
 40
0.9788798057142933
 40
0.9999999999999999
 40
0.9999999999999999
 40
0.9999999999999999
 40
0.9999999999999999
 10
4.720707939075462
 20
-3.971362758722313
 30
0.0
 10
4.753712623945248
 20
-3.94657999418521
 30
0.0
 10
4.796389442795601
 20
-3.914534557092458
 30
0.0
 10
4.848249095723412
 20
-3.878096505060773
 30
0.0
 10
4.876139789658078
 20
-3.858993312577312
 30
0.0
 10
4.902145204724748
 20
-3.842003520416432
 30
0.0
 10
4.925893015390708
 20
-3.827159970319159
 30
0.0
 10
4.944791235637684
 20
-3.817049243102529
 30
0.0
 10
4.957520343043502
 20
-3.809997852172118
 30
0.0
 10
4.966227325242137
 20
-3.808154551437863
 30
0.0
 10
4.969088038294716
 20
-3.807548927772853
 30
0.0
  0
SPLINE
  5
B4
330
1F
100
AcDbEntity
  8
외형선
  6
Continuous
370
    15
100
AcDbSpline
210
0.0
220
0.0
230
1.0
 70
    24
 71
     3
 72
    14
 73
    10
 74
     0
 42
0.000000001
 43
0.00000001
 40
0.0
 40
0.0
 40
0.0
 40
0.0
 40
0.25
 40
0.25
 40
0.5
 40
0.5
 40
0.75
 40
0.75
 40
1.0
 40
1.0
 40
1.0
 40
1.0
 10
5.96231532850779
 20
-0.3105909140617116
 30
0.0
 10
5.96231532850779
 20
-0.7126010056825873
 30
0.0
 10
5.96231532850779
 20
-1.111835567707424
 30
0.0
 10
5.96231532850779
 20
-1.863492398490939
 30
0.0
 10
5.96231532850779
 20
-2.215458228693151
 30
0.0
 10
5.96231532850779
 20
-2.83424743711633
 30
0.0
 10
5.96231532850779
 20
-3.100741098576571
 30
0.0
 10
5.96231532850779
 20
-3.52672134984314
 30
0.0
 10
5.96231532850779
 20
-3.686208931421623
 30
0.0
 10
5.96231532850779
 20
-3.792238796165309
 30
0.0
  0
SPLINE
  5
B5
330
1F
100
AcDbEntity
  8
외형선
  6
Continuous
370
    15
100
AcDbSpline
210
0.0
220
0.0
230
1.0
 70
     8
 71
     3
 72
    14
 73
    10
 74
     0
 42
0.000000001
 43
0.00000001
 40
0.0
 40
0.0
 40
0.0
 40
0.0
 40
0.2500000000000001
 40
0.2500000000000001
 40
0.5000000000000001
 40
0.5000000000000001
 40
0.7500000000000002
 40
0.7500000000000002
 40
1.0
 40
1.0
 40
1.0
 40
1.0
 10
4.720715798743493
 20
-3.971363540503304
 30
0.0
 10
4.691724285515155
 20
-3.993448174158017
 30
0.0
 10
4.661217739235068
 20
-4.018001022736291
 30
0.0
 10
4.594110044267905
 20
-4.077899708847309
 30
0.0
 10
4.556175884334658
 20
-4.114848287092773
 30
0.0
 10
4.490202065328999
 20
-4.191831343927046
 30
0.0
 10
4.468088397855304
 20
-4.225454282130989
 30
0.0
 10
4.445497046487221
 20
-4.269873477624922
 30
0.0
 10
4.442365607290917
 20
-4.28361930876055
 30
0.0
 10
4.442365607290917
 20
-4.293307500712393
 30
0.0
  0
SPLINE
  5
B6
330
1F
100
AcDbEntity
  8
0
  6
Continuous
 62
     1
370
    15
100
AcDbSpline
210
0.0
220
0.0
230
1.0
 70
     8
 71
     3
 72
    22
 73
    18
 74
     0
 42
0.000000001
 43
0.00000001
 40
0.0
 40
0.0
 40
0.0
 40
0.0
 40
0.0709844993982653
 40
0.1419460738394112
 40
0.2128910023659038
 40
0.2838256104544935
 40
0.3547562524350302
 40
0.4256892937385218
 40
0.496631093079395
 40
0.5675879846775721
 40
0.6385662606255844
 40
0.7095555936816349
 40
0.7805222316289491
 40
0.8514706728200048
 40
0.922407232922272
 40
0.993338260804557
 40
1.0
 40
1.0
 40
1.0
 40
1.0
 10
44.0623153285078
 20
-4.518255960993033
 30
0.0
 10
43.51172994788546
 20
-4.400543550949181
 30
0.0
 10
42.41073700216884
 20
-4.165156746935066
 30
0.0
 10
40.75960836107755
 20
-3.597348510060122
 30
0.0
 10
39.10893442315771
 20
-2.898899438954047
 30
0.0
 10
37.45855105939541
 20
-2.081271910684128
 30
0.0
 10
35.80827761605553
 20
-1.181483096011689
 30
0.0
 10
34.15793760430197
 20
-0.2342324094254893
 30
0.0
 10
32.50735244146905
 20
0.7223823609669978
 30
0.0
 10
30.85634893958621
 20
1.650334043094717
 30
0.0
 10
29.20486717339678
 20
2.512350820622183
 30
0.0
 10
27.55321956599222
 20
3.274406781021853
 30
0.0
 10
25.90196600770441
 20
3.904460090332815
 30
0.0
 10
24.25119365545271
 20
4.383931505456701
 30
0.0
 10
22.600754824625
 20
4.668561394786843
 30
0.0
 10
21.44889587420229
 20
4.7889531940955
 30
0.0
 10
20.84715174849463
 20
4.758127485565942
 30
0.0
 10
20.79548891213982
 20
4.755480939522121
 30
0.0
  0
SPLINE
  5
B7
330
1F
100
AcDbEntity
  8
0
  6
Continuous
 62
     1
370
    15
100
AcDbSpline
210
0.0
220
0.0
230
1.0
 70
     8
 71
     3
 72
    15
 73
    11
 74
     0
 42
0.000000001
 43
0.00000001
 40
0.0
 40
0.0
 40
0.0
 40
0.0
 40
0.1336741497768804
 40
0.26730320012764
 40
0.4008995023349363
 40
0.5344755002247794
 40
0.6680436951297516
 40
0.8016166105084477
 40
0.9352067564324327
 40
1.0
 40
1.0
 40
1.0
 40
1.0
 10
44.0623153285078
 20
-3.756405480329736
 30
0.0
 10
43.51173172461599
 20
-3.641381972874264
 30
0.0
 10
42.41075027454701
 20
-3.411373764974139
 30
0.0
 10
40.7596166511606
 20
-2.889887830499994
 30
0.0
 10
39.10893994048892
 20
-2.263764291225314
 30
0.0
 10
37.45855293324556
 20
-1.544583593767926
 30
0.0
 10
35.80827699547233
 20
-0.7637918024554728
 30
0.0
 10
34.15793071550505
 20
0.0450946044567876
 30
0.0
 10
32.79080753313823
 20
0.7217975440117462
 30
0.0
 10
31.97375059815511
 20
1.099972557715344
 30
0.0
 10
31.70689474327425
 20
1.223486859174079
 30
0.0
  0
LINE
  5
B8
330
1F
100
AcDbEntity
  8
0
  6
Continuous
 62
     1
370
    15
100
AcDbLine
 10
44.06231532850751
 20
-4.518255960993034
 30
0.0
 11
44.0623153285078
 21
-3.756405480329736
 31
0.0
  0
SPLINE
  5
B9
330
1F
100
AcDbEntity
  8
0
  6
Continuous
 62
     1
370
    15
100
AcDbSpline
210
0.0
220
0.0
230
1.0
 70
     8
 71
     3
 72
    20
 73
    16
 74
     0
 42
0.000000001
 43
0.00000001
 40
0.0
 40
0.0
 40
0.0
 40
0.0
 40
0.0175196331836731
 40
0.0988569170160159
 40
0.1801805800347821
 40
0.2614979007613235
 40
0.3428161754656967
 40
0.4241426977472522
 40
0.5054847381310554
 40
0.5868495238009916
 40
0.6695102107561977
 40
0.7521557319770324
 40
0.8347826984856578
 40
0.9173958611354964
 40
1.0
 40
1.0
 40
1.0
 40
1.0
 10
26.25741294331223
 20
-3.742279454144662
 30
0.0
 10
26.13888707208896
 20
-3.788129310541941
 30
0.0
 10
25.47008869640781
 20
-4.046843371592371
 30
0.0
 10
24.25119908084832
 20
-4.370707275418776
 30
0.0
 10
22.60075423573469
 20
-4.680927637277653
 30
0.0
 10
20.95047195273807
 20
-4.791909640426325
 30
0.0
 10
19.30016420252859
 20
-4.714908211428678
 30
0.0
 10
17.64965651028002
 20
-4.448781555311266
 30
0.0
 10
15.9987702129717
 20
-4.005237053240479
 30
0.0
 10
14.3387684878563
 20
-3.398482431426757
 30
0.0
 10
12.66981374804029
 20
-2.6503209544452
 30
0.0
 10
10.9924274142809
 20
-1.788764924663925
 30
0.0
 10
9.315434402653173
 20
-0.8543912578744018
 30
0.0
 10
7.638777151031691
 20
0.1183191879585424
 30
0.0
 10
6.521115587988362
 20
0.7556789394265376
 30
0.0
 10
5.962315328506243
 20
1.074341409605773
 30
0.0
  0
SPLINE
  5
BA
330
1F
100
AcDbEntity
  8
외형선
  6
Continuous
370
    15
100
AcDbSpline
210
0.0
220
0.0
230
1.0
 70
    24
 71
     3
 72
     8
 73
     4
 74
     0
 42
0.000000001
 43
0.00000001
 40
0.0
 40
0.0
 40
0.0
 40
0.0
 40
1.0
 40
1.0
 40
1.0
 40
1.0
 10
5.96231532850779
 20
1.14940492726827
 30
0.0
 10
5.96231532850779
 20
1.144688089468971
 30
0.0
 10
5.96231532850779
 20
1.119596201908114
 30
0.0
 10
5.96231532850779
 20
1.074341409606741
 30
0.0
  0
SPLINE
  5
BB
330
1F
100
AcDbEntity
  8
0
  6
Continuous
 62
     1
370
    15
100
AcDbSpline
210
0.0
220
0.0
230
1.0
 70
     8
 71
     3
 72
    18
 73
    14
 74
     0
 42
0.000000001
 43
0.00000001
 40
0.0
 40
0.0
 40
0.0
 40
0.0
 40
0.0228508030492528
 40
0.1197721018803525
 40
0.2166945886729964
 40
0.3136273458605758
 40
0.4105794267675632
 40
0.5075598300439935
 40
0.604566754636668
 40
0.7015466595978888
 40
0.7984983786620399
 40
0.8992521723439353
 40
1.0
 40
1.0
 40
1.0
 40
1.0
 10
22.98979305496113
 20
-3.94744736462612
 30
0.0
 10
22.86010086977171
 20
-3.964758210630364
 30
0.0
 10
22.1803214508991
 20
-4.05549272034481
 30
0.0
 10
20.95047264893736
 20
-4.062593438443621
 30
0.0
 10
19.30016013597847
 20
-3.957974889466292
 30
0.0
 10
17.64964960556382
 20
-3.682453995568396
 30
0.0
 10
15.99875963641932
 20
-3.263324357039685
 30
0.0
 10
14.34738156307497
 20
-2.712874416628472
 30
0.0
 10
12.69573534150775
 20
-2.054504095756926
 30
0.0
 10
11.04435827154994
 20
-1.313640123124266
 30
0.0
 10
9.371809145083711
 20
-0.5108503409164269
 30
0.0
 10
7.677816637648766
 20
0.327609786445326
 30
0.0
 10
6.534137810938542
 20
0.8754786207297965
 30
0.0
 10
5.962315328507797
 20
1.149404927268267
 30
0.0
  0
SPLINE
  5
BC
330
1F
100
AcDbEntity
  8
0
  6
Continuous
 62
     1
370
    15
100
AcDbSpline
210
0.0
220
0.0
230
1.0
 70
     8
 71
     3
 72
    27
 73
    23
 74
     0
 42
0.000000001
 43
0.00000001
 40
0.0
 40
0.0
 40
0.0
 40
0.0
 40
0.0322512880499927
 40
0.0839671885667914
 40
0.1348726229298866
 40
0.1857638279954234
 40
0.2366453252635659
 40
0.2875216633472283
 40
0.338397405292888
 40
0.3892771158159035
 40
0.4401653485259364
 40
0.4910666332181837
 40
0.5419841951951303
 40
0.5928938238243444
 40
0.6437881151384479
 40
0.6946715820307164
 40
0.7455487676082517
 40
0.7964242325453752
 40
0.8473025423330042
 40
0.8981882544994769
 40
0.9490859058785734
 40
1.0
 40
1.0
 40
1.0
 40
1.0
 10
11.62343391130119
 20
3.19239726434774
 30
0.0
 10
11.97218508964545
 20
3.342466504829509
 30
0.0
 10
12.88016916487157
 20
3.733176240021333
 30
0.0
 10
14.33873481963902
 20
4.198835702596845
 30
0.0
 10
15.99873244760642
 20
4.579816287848222
 30
0.0
 10
17.64962157602118
 20
4.77050878016821
 30
0.0
 10
19.30013134538392
 20
4.772275781022103
 30
0.0
 10
20.95044081070065
 20
4.583218144651449
 30
0.0
 10
22.60072721128046
 20
4.211386809059306
 30
0.0
 10
24.25116709134363
 20
3.671466413575027
 30
0.0
 10
25.90194200125909
 20
2.985008749050556
 30
0.0
 10
27.55319771704458
 20
2.179327439261635
 30
0.0
 10
29.20484755178714
 20
1.28681321810289
 30
0.0
 10
30.85633145898992
 20
0.342866928848977
 30
0.0
 10
32.50733710958829
 20
-0.6147082752485816
 30
0.0
 10
34.15792443936943
 20
-1.547596530948862
 30
0.0
 10
35.80826663623372
 20
-2.418697357912278
 30
0.0
 10
37.45854227553687
 20
-3.192946968291099
 30
0.0
 10
39.10892784071233
 20
-3.840710691648828
 30
0.0
 10
40.7596039794781
 20
-4.331509710932957
 30
0.0
 10
42.41073481532984
 20
-4.663018212022254
 30
0.0
 10
43.51172922005879
 20
-4.725935936111502
 30
0.0
 10
44.0623153285078
 20
-4.761425071276095
 30
0.0
  0
SPLINE
  5
BD
330
1F
100
AcDbEntity
  8
0
  6
Continuous
 62
     1
370
    15
100
AcDbSpline
210
0.0
220
0.0
230
1.0
 70
     8
 71
     3
 72
    17
 73
    13
 74
     0
 42
0.000000001
 43
0.00000001
 40
0.0
 40
0.0
 40
0.0
 40
0.0
 40
0.0866894343833383
 40
0.1908426792853312
 40
0.2950135735982167
 40
0.399148251619335
 40
0.5032538879119363
 40
0.6073405607249179
 40
0.711418402619103
 40
0.8154975714840551
 40
0.9195882214018423
 40
1.0
 40
1.0
 40
1.0
 40
1.0
 10
32.23107304727404
 20
-0.45147125464071
 30
0.0
 10
31.77287948140742
 20
-0.2671393175109829
 30
0.0
 10
30.76418807208736
 20
0.1386587017047667
 30
0.0
 10
29.20483740094146
 20
0.7677121547942811
 30
0.0
 10
27.55323048898428
 20
1.401586734802909
 30
0.0
 10
25.90196533664442
 20
1.980083873616452
 30
0.0
 10
24.25118584613181
 20
2.479463650383783
 30
0.0
 10
22.60073960241988
 20
2.879623082308925
 30
0.0
 10
20.95044761345467
 20
3.165979691152159
 30
0.0
 10
19.30013107768696
 20
3.321882813593534
 30
0.0
 10
17.77488403655015
 20
3.35774957256507
 30
0.0
 10
16.79969968786841
 20
3.280278690826585
 30
0.0
 10
16.37468464297535
 20
3.246514520673014
 30
0.0
  0
LINE
  5
BE
330
1F
100
AcDbEntity
  8
0
  6
Continuous
 62
     1
370
    15
100
AcDbLine
 10
44.06231532850779
 20
-4.7614250712761
 30
0.0
 11
44.06231532850774
 21
-4.518255960993015
 31
0.0
  0
SPLINE
  5
BF
330
1F
100
AcDbEntity
  8
0
  6
Continuous
 62
     1
370
    15
100
AcDbSpline
210
0.0
220
0.0
230
1.0
 70
     8
 71
     3
 72
    15
 73
    11
 74
     0
 42
0.000000001
 43
0.00000001
 40
0.0
 40
0.0
 40
0.0
 40
0.0
 40
0.1338506935891069
 40
0.2677160109482772
 40
0.4016036987327873
 40
0.5355214562399129
 40
0.6694637825134424
 40
0.8013070305362174
 40
0.9331134251890003
 40
1.0
 40
1.0
 40
1.0
 40
1.0
 10
5.96231532850827
 20
-0.2488785099467621
 30
0.0
 10
6.521112955492782
 20
-0.5701189728123688
 30
0.0
 10
7.638769260531399
 20
-1.212634995460438
 30
0.0
 10
9.315418632938703
 20
-2.123625257858714
 30
0.0
 10
10.9924038528881
 20
-2.948109789045247
 30
0.0
 10
12.66978223223298
 20
-3.650247563674026
 30
0.0
 10
14.33873298705596
 20
-4.201825486814857
 30
0.0
 10
15.99873148519815
 20
-4.57060130402877
 30
0.0
 10
17.3786966053577
 20
-4.755278448264819
 30
0.0
 10
18.20818814950892
 20
-4.742060266356694
 30
0.0
 10
18.48742222796018
 20
-4.7376105924933
 30
0.0
  0
SPLINE
  5
C0
330
1F
100
AcDbEntity
  8
0
  6
Continuous
 62
     1
370
    15
100
AcDbSpline
210
0.0
220
0.0
230
1.0
 70
     8
 71
     3
 72
    11
 73
     7
 74
     0
 42
0.000000001
 43
0.00000001
 40
0.0
 40
0.0
 40
0.0
 40
0.0
 40
0.2439979952925304
 40
0.4959321204350443
 40
0.7479253563762329
 40
0.9999999999999999
 40
0.9999999999999999
 40
0.9999999999999999
 40
0.9999999999999999
 10
37.51026903263849
 20
3.194150439150813
 30
0.0
 10
38.04312849990027
 20
3.411774643398118
 30
0.0
 10
39.12617889617997
 20
3.854101363914658
 30
0.0
 10
40.75960423281397
 20
4.332007521796736
 30
0.0
 10
42.4107347519658
 20
4.665581277167798
 30
0.0
 10
43.51172919893516
 20
4.728223544287441
 30
0.0
 10
44.0623153285078
 20
4.763574928723894
 30
0.0
  0
SPLINE
  5
C1
330
1F
100
AcDbEntity
  8
0
  6
Continuous
 62
     1
370
    15
100
AcDbSpline
210
0.0
220
0.0
230
1.0
 70
    24
 71
     3
 72
    10
 73
     6
 74
     0
 42
0.000000001
 43
0.00000001
 40
0.0
 40
0.0
 40
0.0
 40
0.0
 40
0.4999999999999996
 40
0.4999999999999996
 40
1.0
 40
1.0
 40
1.0
 40
1.0
 10
44.0623153285078
 20
3.334824928723894
 30
0.0
 10
44.0623153285078
 20
3.536908551768726
 30
0.0
 10
44.0623153285078
 20
3.77174843670354
 30
0.0
 10
44.06231532850779
 20
4.26444188279997
 30
0.0
 10
44.0623153285078
 20
4.52103716672841
 30
0.0
 10
44.0623153285078
 20
4.7635749287239
 30
0.0
  0
SPLINE
  5
C2
330
1F
100
AcDbEntity
  8
0
  6
Continuous
 62
     1
370
    15
100
AcDbSpline
210
0.0
220
0.0
230
1.0
 70
     8
 71
     3
 72
     9
 73
     5
 74
     0
 42
0.000000001
 43
0.00000001
 40
0.0
 40
0.0
 40
0.0
 40
0.0
 40
0.932417514745844
 40
1.0
 40
1.0
 40
1.0
 40
1.0
 10
44.0623153285078
 20
3.334824928723894
 30
0.0
 10
43.51172803889661
 20
3.332917896698113
 30
0.0
 10
42.921233672474
 20
3.33087264122444
 30
0.0
 10
42.33077136567152
 20
3.25884614514029
 30
0.0
 10
42.29086645552892
 20
3.253978415530774
 30
0.0
  0
LINE
  5
C3
330
1F
100
AcDbEntity
  8
외형선
  6
Continuous
370
    15
100
AcDbLine
 10
6.316979153415071
 20
-0.4509027588218988
 30
0.0
 11
5.96231532850779
 21
-0.3105909140617116
 31
0.0
  0
SPLINE
  5
C4
330
1F
100
AcDbEntity
  8
외형선
  6
Continuous
370
    15
100
AcDbSpline
210
0.0
220
0.0
230
1.0
 70
    24
 71
     3
 72
    11
 73
     7
 74
     0
 42
0.000000001
 43
0.00000001
 40
0.0
 40
0.0
 40
0.0
 40
0.0
 40
0.2877234641380274
 40
0.685521334115193
 40
0.8424015226317978
 40
0.9999999999999999
 40
0.9999999999999999
 40
0.9999999999999999
 40
0.9999999999999999
 10
5.962315328507826
 20
-0.1421982203449263
 30
0.0
 10
5.962315328507811
 20
-0.142979086305625
 30
0.0
 10
5.962315328507778
 20
-0.1448395542266095
 30
0.0
 10
5.96231532850779
 20
-0.1974773011521946
 30
0.0
 10
5.96231532850779
 20
-0.2591331504344029
 30
0.0
 10
5.96231532850779
 20
-0.2934122276702909
 30
0.0
 10
5.96231532850779
 20
-0.3105909140615064
 30
0.0
  0
SPLINE
  5
C5
330
1F
100
AcDbEntity
  8
0
  6
Continuous
 62
     1
370
    15
100
AcDbSpline
210
0.0
220
0.0
230
1.0
 70
     8
 71
     3
 72
     8
 73
     4
 74
     0
 42
0.000000001
 43
0.00000001
 40
0.0
 40
0.0
 40
0.0
 40
0.0
 40
1.0
 40
1.0
 40
1.0
 40
1.0
 10
41.11550709938594
 20
1.3332326512407
 30
0.0
 10
40.94573205347012
 20
1.534362803204569
 30
0.0
 10
40.7947870787674
 20
1.727299044181932
 30
0.0
 10
40.66669882173582
 20
1.910289177790878
 30
0.0
  0
LINE
  5
C6
330
1F
100
AcDbEntity
  8
0
  6
Continuous
 62
     1
370
    15
100
AcDbLine
 10
40.7268816713228
 20
1.96078858469485
 30
0.0
 11
44.0623153285078
 21
0.0010749287238988
 31
0.0
  0
LINE
  5
C7
330
1F
100
AcDbEntity
  8
0
  6
Continuous
 62
     1
370
    15
100
AcDbLine
 10
44.0623153285078
 20
0.0010749287238988
 30
0.0
 11
44.0623153285078
 21
-1.271669601742285
 31
0.0
  0
SPLINE
  5
C8
330
1F
100
AcDbEntity
  8
0
  6
Continuous
 62
     1
370
    15
100
AcDbSpline
210
0.0
220
0.0
230
1.0
 70
     8
 71
     3
 72
    12
 73
     8
 74
     0
 42
0.000000001
 43
0.00000001
 40
0.0
 40
0.0
 40
0.0
 40
0.0
 40
0.5
 40
0.5
 40
0.75
 40
0.75
 40
1.0
 40
1.0
 40
1.0
 40
1.0
 10
44.0623153285078
 20
-1.271669601742285
 30
0.0
 10
43.55221384383412
 20
-0.8706437541657255
 30
0.0
 10
43.05063251179686
 20
-0.4531747413069895
 30
0.0
 10
42.31136924909927
 20
0.1983275151439559
 30
0.0
 10
42.06717098176055
 20
0.4197847867308557
 30
0.0
 10
41.58376182310565
 20
0.8723245387198888
 30
0.0
 10
41.34587006374727
 20
1.102232684507946
 30
0.0
 10
41.11550709938587
 20
1.333232651240754
 30
0.0
  0
SPLINE
  5
C9
330
1F
100
AcDbEntity
  8
0
  6
Continuous
 62
     1
370
    15
100
AcDbSpline
210
0.0
220
0.0
230
1.0
 70
     8
 71
     3
 72
    24
 73
    20
 74
     0
 42
0.000000001
 43
0.00000001
 40
0.0
 40
0.0
 40
0.0
 40
0.0
 40
0.0524476382503676
 40
0.1113803735502885
 40
0.1703319220322
 40
0.229293200083702
 40
0.2882345124016488
 40
0.3471598147776325
 40
0.4060746633017068
 40
0.4649846437777463
 40
0.5238953558664731
 40
0.5828123971452697
 40
0.6417413471805095
 40
0.7006877517080089
 40
0.7596505038656068
 40
0.8185966064625143
 40
0.8775253372527957
 40
0.9387645076100828
 40
0.9999999999999999
 40
0.9999999999999999
 40
0.9999999999999999
 40
0.9999999999999999
 10
33.97669176902855
 20
-3.573327982910103
 30
0.0
 10
33.48694659850445
 20
-3.642414976183622
 30
0.0
 10
32.44689976594681
 20
-3.789131499080948
 30
0.0
 10
30.85632208045652
 20
-3.830457423676503
 30
0.0
 10
29.20484530294648
 20
-3.733709595860427
 30
0.0
 10
27.55322413435543
 20
-3.484318991012678
 30
0.0
 10
25.90196271044765
 20
-3.096686811826608
 30
0.0
 10
24.2511850785711
 20
-2.585170646774867
 30
0.0
 10
22.60074141196991
 20
-1.970526037447218
 30
0.0
 10
20.95045146460259
 20
-1.277191227028764
 30
0.0
 10
19.30013842092549
 20
-0.5328411710509415
 30
0.0
 10
17.64962491247526
 20
0.2328560163948742
 30
0.0
 10
15.99873276211107
 20
0.9893425202079048
 30
0.0
 10
14.3473527875779
 20
1.706490256538479
 30
0.0
 10
12.69571282834188
 20
2.355216465154456
 30
0.0
 10
11.04433421384472
 20
2.910871481152413
 30
0.0
 10
9.371783842743499
 20
3.353075315443162
 30
0.0
 10
7.677803079172291
 20
3.672768956018689
 30
0.0
 10
6.534133130427366
 20
3.753849566043619
 30
0.0
 10
5.962315328507797
 20
3.794388653613099
 30
0.0
  0
SPLINE
  5
CA
330
1F
100
AcDbEntity
  8
외형선
  6
Continuous
370
    15
100
AcDbSpline
210
0.0
220
0.0
230
1.0
 70
    24
 71
     3
 72
    14
 73
    10
 74
     0
 42
0.000000001
 43
0.00000001
 40
0.0
 40
0.0
 40
0.0
 40
0.0
 40
0.25
 40
0.25
 40
0.5
 40
0.5
 40
0.75
 40
0.75
 40
1.0
 40
1.0
 40
1.0
 40
1.0
 10
5.962315328507787
 20
3.794388653613099
 30
0.0
 10
5.962315328507787
 20
3.718017000652128
 30
0.0
 10
5.962315328507787
 20
3.601628349003618
 30
0.0
 10
5.962315328507787
 20
3.28854650573883
 30
0.0
 10
5.962315328507787
 20
3.091851120533556
 30
0.0
 10
5.962315328507787
 20
2.629574681526082
 30
0.0
 10
5.962315328507783
 20
2.364127119126554
 30
0.0
 10
5.962315328507787
 20
1.785717449036946
 30
0.0
 10
5.962315328507787
 20
1.472962077974798
 30
0.0
 10
5.962315328507787
 20
1.149404927268274
 30
0.0
  0
SPLINE
  5
CB
330
1F
100
AcDbEntity
  8
0
  6
Continuous
 62
     1
370
    15
100
AcDbSpline
210
0.0
220
0.0
230
1.0
 70
     8
 71
     3
 72
    15
 73
    11
 74
     0
 42
0.000000001
 43
0.00000001
 40
0.0
 40
0.0
 40
0.0
 40
0.0
 40
0.0913511126263075
 40
0.1829753529302927
 40
0.3334419562074725
 40
0.4838996464922529
 40
0.6343627280236455
 40
0.784845489689567
 40
0.9353621643923096
 40
0.9999999999999999
 40
0.9999999999999999
 40
0.9999999999999999
 40
0.9999999999999999
 10
41.1155070993859
 20
1.333232651240735
 30
0.0
 10
40.78166724786524
 20
1.476026798913397
 30
0.0
 10
40.11298940806628
 20
1.762042029769614
 30
0.0
 10
38.89364452298464
 20
2.24368522202142
 30
0.0
 10
37.45857326698091
 20
2.754280522090073
 30
0.0
 10
35.80826211031704
 20
3.229416255268855
 30
0.0
 10
34.15792565396138
 20
3.578493255907179
 30
0.0
 10
32.5073293170389
 20
3.77577902405564
 30
0.0
 10
31.17049609293597
 20
3.840469479644894
 30
0.0
 10
30.38380743861481
 20
3.783876632996908
 30
0.0
 10
30.14746634662897
 20
3.766874716035346
 30
0.0
  0
SPLINE
  5
CC
330
1F
100
AcDbEntity
  8
0
  6
Continuous
 62
     1
370
    15
100
AcDbSpline
210
0.0
220
0.0
230
1.0
 70
     8
 71
     3
 72
     9
 73
     5
 74
     0
 42
0.000000001
 43
0.00000001
 40
0.0
 40
0.0
 40
0.0
 40
0.0
 40
0.1841559408248314
 40
1.0
 40
1.0
 40
1.0
 40
1.0
 10
8.06499852316483
 20
-3.566482556789079
 30
0.0
 10
7.935923721386006
 20
-3.591052506771365
 30
0.0
 10
7.235024248902517
 20
-3.724471770207761
 30
0.0
 10
6.534133159734411
 20
-3.761791619131534
 30
0.0
 10
5.962315328507797
 20
-3.792238796165311
 30
0.0
  0
SPLINE
  5
CD
330
1F
100
AcDbEntity
  8
0
  6
Continuous
 62
     1
370
    15
100
AcDbSpline
210
0.0
220
0.0
230
1.0
 70
    24
 71
     3
 72
    10
 73
     6
 74
     0
 42
0.000000001
 43
0.00000001
 40
0.0
 40
0.0
 40
0.0
 40
0.0
 40
0.5
 40
0.5
 40
1.0
 40
1.0
 40
1.0
 40
1.0
 10
44.0623153285078
 20
-3.756405480329734
 30
0.0
 10
44.0623153285078
 20
-3.468365311406725
 30
0.0
 10
44.06231532850777
 20
-3.10441551338066
 30
0.0
 10
44.06231532850779
 20
-2.258267259231217
 30
0.0
 10
44.0623153285078
 20
-1.776801768807966
 30
0.0
 10
44.0623153285078
 20
-1.271669601742438
 30
0.0
  0
SPLINE
  5
CE
330
1F
100
AcDbEntity
  8
0
  6
Continuous
 62
     1
370
    15
100
AcDbSpline
210
0.0
220
0.0
230
1.0
 70
    24
 71
     3
 72
     8
 73
     4
 74
     0
 42
0.000000001
 43
0.00000001
 40
0.0
 40
0.0
 40
0.0
 40
0.0
 40
1.0
 40
1.0
 40
1.0
 40
1.0
 10
41.16347881047216
 20
2.327137083127816
 30
0.0
 10
41.0062822819997
 20
2.195233534064221
 30
0.0
 10
40.84015386705854
 20
2.055835242359347
 30
0.0
 10
40.66669882173041
 20
1.910289177798675
 30
0.0
  0
SPLINE
  5
CF
330
1F
100
AcDbEntity
  8
0
  6
Continuous
 62
     1
370
    15
100
AcDbSpline
210
0.0
220
0.0
230
1.0
 70
     8
 71
     3
 72
    10
 73
     6
 74
     0
 42
0.000000001
 43
0.00000001
 40
0.0
 40
0.0
 40
0.0
 40
0.0
 40
0.5
 40
0.5
 40
1.0
 40
1.0
 40
1.0
 40
1.0
 10
44.0623153285078
 20
3.334824928723899
 30
0.0
 10
43.57241617293843
 20
3.20193369991046
 30
0.0
 10
43.0855055192978
 20
3.052792114964003
 30
0.0
 10
42.11822134463327
 20
2.718962462035504
 30
0.0
 10
41.63779772864182
 20
2.534763865916262
 30
0.0
 10
41.16347881048141
 20
2.327137083132128
 30
0.0
  0
SPLINE
  5
D0
330
1F
100
AcDbEntity
  8
외형선
  6
Continuous
370
    15
100
AcDbSpline
210
0.0
220
0.0
230
1.0
 70
    24
 71
     3
 72
    14
 73
    10
 74
     0
 42
0.000000001
 43
0.00000001
 40
0.0
 40
0.0
 40
0.0
 40
0.0
 40
0.25
 40
0.25
 40
0.5
 40
0.5
 40
0.75
 40
0.75
 40
1.0
 40
1.0
 40
1.0
 40
1.0
 10
5.96231532850779
 20
-0.3105909140617116
 30
0.0
 10
5.96231532850779
 20
-0.7126010056825873
 30
0.0
 10
5.96231532850779
 20
-1.111835567707424
 30
0.0
 10
5.96231532850779
 20
-1.863492398490939
 30
0.0
 10
5.96231532850779
 20
-2.215458228693151
 30
0.0
 10
5.96231532850779
 20
-2.83424743711633
 30
0.0
 10
5.96231532850779
 20
-3.100741098576571
 30
0.0
 10
5.96231532850779
 20
-3.526721349843139
 30
0.0
 10
5.96231532850779
 20
-3.686208931421623
 30
0.0
 10
5.96231532850779
 20
-3.792238796165309
 30
0.0
  0
LINE
  5
D1
330
1F
100
AcDbEntity
  8
0
  6
Continuous
 62
     1
370
    15
100
AcDbLine
 10
44.0623153285078
 20
0.0010749287238988
 30
0.0
 11
44.0623153285078
 21
3.334824928723899
 31
0.0
  0
LINE
  5
D2
330
1F
100
AcDbEntity
  8
중심선
 48
0.8
100
AcDbLine
 10
-41.4876846714922
 20
0.0010749287238888
 30
0.0
 11
47.06231532850779
 21
0.0010749287239001
 31
0.0
  0
LINE
  5
D3
330
1F
100
AcDbEntity
  8
참조1
100
AcDbLine
 10
11.67426131403116
 20
0.0010749287238892
 30
0.0
 11
11.67426131403116
 21
-39.99892507127611
 31
0.0
  0
LINE
  5
D4
330
1F
100
AcDbEntity
  8
참조1
100
AcDbLine
 10
11.67426131403116
 20
-39.99892507127611
 30
0.0
 11
-20.15080122126847
 21
-39.9989250712761
 31
0.0
  0
CIRCLE
  5
D5
330
1F
100
AcDbEntity
  8
해칭선
100
AcDbCircle
 10
0.0
 20
0.0
 30
0.0
 40
2.999999999999995
  0
INSERT
  5
D6
330
1F
100
AcDbEntity
  8
0
  6
Continuous
 62
     7
100
AcDbBlockReference
 66
     1
  2
블럭10
 10
-11.15295760361742
 20
-52.04609937292004
 30
0.0
  0
ATTRIB
  5
D7
330
D6
100
AcDbEntity
  8
FORMAT
 62
     2
100
AcDbText
 10
-20.33425289235871
 20
-49.97073246008785
 30
0.0
 40
4.233333333333333
  1
E2080024 [ 2 FLUTE ]
 41
0.75
  7
SLDTEXTSTYLE0
 11
-20.33425289235871
 21
-52.08739912675452
 31
0.0
100
AcDbAttribute
  2
AUTOATTR0
 70
     0
 74
     1
  0
SEQEND
  5
D8
330
D6
100
AcDbEntity
  8
0
  6
Continuous
 62
     7
  0
HATCH
  5
D9
330
1F
100
AcDbEntity
  8
중심선
100
AcDbHatch
 10
0.0
 20
0.0
 30
0.0
210
0.0
220
0.0
230
1.0
  2
SOLID
 70
     1
 71
     0
 91
        1
 92
        0
 93
        4
 72
     1
 10
-5.43804829923659
 20
-35.7989250712761
 11
-8.884323543073872
 21
-35.7989250712761
 72
     1
 10
-8.884323543073872
 20
-35.7989250712761
 11
-11.0125534022779
 21
-38.3352506518487
 72
     1
 10
-11.0125534022779
 20
-38.3352506518487
 11
-7.566245073327464
 21
-38.33521122254621
 72
     1
 10
-7.566245073327464
 20
-38.33521122254621
 11
-5.43804829923659
 21
-35.7989250712761
 97
        0
 75
     0
 76
     1
 98
        1
 10
-8.886945985523374
 20
0.0
  0
HATCH
  5
DA
330
1F
100
AcDbEntity
  8
중심선
100
AcDbHatch
 10
0.0
 20
0.0
 30
0.0
210
0.0
220
0.0
230
1.0
  2
SOLID
 70
     1
 71
     0
 91
        1
 92
        0
 93
        4
 72
     1
 10
-0.4252843082006112
 20
-35.79892507127608
 11
-3.871559552037866
 21
-35.79892507127608
 72
     1
 10
-3.871559552037866
 20
-35.79892507127608
 11
-8.40269756039531
 21
-41.19892507127612
 72
     1
 10
-8.40269756039531
 20
-41.19892507127612
 11
-4.956422316558028
 21
-41.19892507127612
 72
     1
 10
-4.956422316558028
 20
-41.19892507127612
 11
-0.4252843082006112
 21
-35.79892507127608
 97
        0
 75
     0
 76
     1
 98
        1
 10
-8.886945985523374
 20
0.0
  0
HATCH
  5
DB
330
1F
100
AcDbEntity
  8
중심선
100
AcDbHatch
 10
0.0
 20
0.0
 30
0.0
210
0.0
220
0.0
230
1.0
  2
SOLID
 70
     1
 71
     0
 91
        1
 92
        0
 93
        4
 72
     1
 10
4.587479682835257
 20
-35.7989250712761
 11
1.141204438998196
 21
-35.79892507127608
 72
     1
 10
1.141204438998196
 20
-35.79892507127608
 11
-5.907232462891108
 21
-44.19892507127612
 72
     1
 10
-5.907232462891108
 20
-44.19892507127612
 11
-2.460957219053826
 21
-44.19892507127612
 72
     1
 10
-2.460957219053826
 20
-44.19892507127612
 11
4.587479682835257
 21
-35.7989250712761
 97
        0
 75
     0
 76
     1
 98
        1
 10
-8.886945985523374
 20
0.0
  0
HATCH
  5
DC
330
1F
100
AcDbEntity
  8
중심선
100
AcDbHatch
 10
0.0
 20
0.0
 30
0.0
210
0.0
220
0.0
230
1.0
  2
SOLID
 70
     1
 71
     0
 91
        1
 92
        0
 93
        6
 72
     3
 10
9.387370113847455
 20
-39.99892507132738
 11
3.960054785062283
 21
1.540882976769353E-10
 40
0.3939339440162628
 50
17.09539180608436
 51
320.0019657685075
 73
     0
 72
     1
 10
11.07036976954805
 20
-38.58681907591438
 11
13.37567164324912
 21
-36.65249236586646
 72
     3
 10
9.387370113794608
 20
-39.99892507127625
 11
6.600054785286829
 21
-1.278976924368180E-13
 40
0.636358354079598
 50
39.99873849337411
 51
368.4976242363724
 73
     1
 72
     1
 10
15.81270260569522
 20
-39.03892507120613
 11
8.067437420630531
 21
-39.03892507120613
 72
     1
 10
8.067437420630531
 20
-39.03892507120613
 11
8.067412376184597
 21
-40.95892507120602
 72
     1
 10
8.067412376184597
 20
-40.95892507120602
 11
12.50879214565664
 21
-40.95892507120599
 97
        0
 75
     0
 76
     1
 98
        1
 10
-8.886945985523374
 20
0.0
  0
DIMENSION
  5
DD
330
1F
100
AcDbEntity
  8
치수문자_일반주서
100
AcDbDimension
  2
_D
 10
-50.98768467149219
 20
-4.761425071276159
 30
0.0
 11
-50.98768467149221
 21
0.0010749287239001
 31
0.0
 70
   160
  1
%%c<>
 71
     2
 42
9.525000000000006
 52
-270.0
  3
SLDDIMSTYLE0
100
AcDbAlignedDimension
 13
-37.4876846714922
 23
4.763574928723897
 33
0.0
 14
-37.4876846714922
 24
-4.761425071276109
 34
0.0
 50
90.0000000000002
100
AcDbRotatedDimension
1001
ACAD
1000
DSTYLE
1002
{
1070
   171
1070
     6
1070
   273
1070
     7
1002
}
  0
DIMENSION
  5
F2
330
1F
100
AcDbEntity
  8
치수문자_일반주서
100
AcDbDimension
  2
_D_1
 10
5.96231532850779
 20
17.93589146707801
 30
0.0
 11
-13.76668467149221
 21
17.93589146707801
 31
0.0
 70
   160
  1
<>
 71
     2
 42
38.09999999999999
  3
SLDDIMSTYLE0
100
AcDbAlignedDimension
 13
44.06231532850779
 23
4.763574928723899
 33
0.0
 14
5.96231532850779
 24
3.794388653613098
 34
0.0
100
AcDbRotatedDimension
1001
ACAD
1000
DSTYLE
1002
{
1070
   171
1070
     6
1070
   273
1070
     7
1002
}
  0
DIMENSION
  5
107
330
1F
100
AcDbEntity
  8
치수문자_일반주서
100
AcDbDimension
  2
_D_2
 10
-38.48768467149222
 20
35.04593538382493
 30
0.0
 11
2.787315328507649
 21
35.04593538382493
 31
0.0
 70
   160
  1
<>
 71
     2
 42
82.55000000000001
  3
SLDDIMSTYLE0
100
AcDbAlignedDimension
 13
44.0623153285078
 23
4.7635749287239
 33
0.0
 14
-38.48768467149221
 24
3.763574928723889
 34
0.0
 50
0.0000000000000099
100
AcDbRotatedDimension
1001
ACAD
1000
DSTYLE
1002
{
1070
   171
1070
     6
1070
   273
1070
     7
1002
}
  0
DIMENSION
  5
11B
330
1F
100
AcDbEntity
  8
치수문자_일반주서
100
AcDbDimension
  2
_D_3
 10
62.7039369976331
 20
4.763574928723965
 30
0.0
 11
62.70393699763303
 21
24.49257492872397
 31
0.0
 70
   160
  1
%%c<>
 71
     2
 42
9.524999999999999
 52
-270.0
  3
SLDDIMSTYLE0
100
AcDbAlignedDimension
 13
44.06231532850779
 23
-4.7614250712761
 33
0.0
 14
44.06231532850779
 24
4.763574928723899
 34
0.0
 50
90.0000000000002
100
AcDbRotatedDimension
1001
ACAD
1000
DSTYLE
1002
{
1070
   171
1070
     6
1070
   273
1070
     7
1002
}
  0
LINE
  5
12E
330
1F
100
AcDbEntity
  8
참조1
100
AcDbLine
 10
77.82153940838579
 20
7.441074928723896
 30
0.0
 11
77.82153940838579
 21
-7.438925071276109
 31
0.0
  0
LINE
  5
12F
330
1F
100
AcDbEntity
  8
참조1
100
AcDbLine
 10
90.52153940838579
 20
5.441074928723896
 30
0.0
 11
77.82153940838579
 21
5.441074928723896
 31
0.0
  0
SOLID
  5
130
330
1F
100
AcDbEntity
  8
참조1
100
AcDbTrace
 10
77.82153940838579
 20
5.441074928723896
 30
0.0
 11
84.17153940838578
 21
4.425074928723896
 31
0.0
 12
84.17153940838578
 22
6.457074928723896
 32
0.0
 13
84.17153940838578
 23
6.457074928723896
 33
0.0
  0
LINE
  5
131
330
1F
100
AcDbEntity
  8
참조1
100
AcDbLine
 10
90.52153940838579
 20
-5.438925071276109
 30
0.0
 11
77.82153940838579
 21
-5.438925071276109
 31
0.0
  0
SOLID
  5
132
330
1F
100
AcDbEntity
  8
참조1
100
AcDbTrace
 10
77.82153940838579
 20
-5.438925071276109
 30
0.0
 11
84.17153940838578
 21
-6.454925071276109
 31
0.0
 12
84.17153940838578
 22
-4.422925071276109
 32
0.0
 13
84.17153940838578
 23
-4.422925071276109
 33
0.0
  0
MTEXT
  5
133
330
1F
100
AcDbEntity
  8
참조1
100
AcDbMText
 10
87.20588954101179
 20
11.01136670591222
 30
0.0
 40
3.5
 41
0.0
 71
     1
 72
     1
  1
A
  7
SLDTEXTSTYLE0
 73
     1
 44
1.0
  0
MTEXT
  5
134
330
1F
100
AcDbEntity
  8
참조1
100
AcDbMText
 10
87.20588954101179
 20
0.1313667059122192
 30
0.0
 40
3.5
 41
0.0
 71
     1
 72
     1
  1
A
  7
SLDTEXTSTYLE0
 73
     1
 44
1.0
  0
INSERT
  5
13B
330
1F
100
AcDbEntity
  8
해칭선
100
AcDbBlockReference
  2
SW_DOWELSYMBOL_0
 10
0.0
 20
0.0
 30
0.0
  0
LINE
  5
1BE
330
1F
100
AcDbEntity
  8
외형선
  6
Continuous
370
    15
100
AcDbLine
 10
-21.21263467149232
 20
3.493574928723906
 30
0.0
 11
-14.0752346714922
 21
3.493574928723906
 31
0.0
  0
LINE
  5
1BF
330
1F
100
AcDbEntity
  8
외형선
  6
Continuous
370
    15
100
AcDbLine
 10
-21.21263467149232
 20
3.493574928723906
 30
0.0
 11
-22.48263467149231
 21
4.763574928723887
 31
0.0
  0
LINE
  5
1C0
330
1F
100
AcDbEntity
  8
외형선
  6
Continuous
370
    15
100
AcDbLine
 10
-14.0752346714922
 20
3.493574928723906
 30
0.0
 11
-12.8052346714921
 21
4.763574928723887
 31
0.0
  0
LINE
  5
1C2
330
1F
100
AcDbEntity
  8
외형선
  6
Continuous
370
    15
100
AcDbLine
 10
-22.48263467149231
 20
4.763574928723892
 30
0.0
 11
-37.4876846714922
 21
4.763574928723891
 31
0.0
  0
ENDSEC
  0
SECTION
  2
OBJECTS
  0
DICTIONARY
  5
C
330
0
100
AcDbDictionary
281
     1
  3
ACAD_GROUP
350
D
  3
ACAD_IMAGE_VARS
350
15F
  3
ACAD_LAYOUT
350
1A
  3
ACAD_MLINESTYLE
350
17
  3
ACAD_PLOTSETTINGS
350
19
  3
ACAD_PLOTSTYLENAME
350
E
  3
ACAD_SCALELIST
350
47
  3
APPDATA
350
15D
  3
DWGPROPS
350
1E6
  0
DICTIONARY
  5
186
330
2
100
AcDbDictionary
280
     1
281
     1
  3
ACAD_LAYERSTATES
360
187
  0
DICTIONARY
  5
D
102
{ACAD_REACTORS
330
C
102
}
330
C
100
AcDbDictionary
281
     1
  0
RASTERVARIABLES
  5
15F
102
{ACAD_REACTORS
330
C
102
}
330
C
100
AcDbRasterVariables
 90
        0
 70
     1
 71
     1
 72
     1
  0
DICTIONARY
  5
1A
102
{ACAD_REACTORS
330
C
102
}
330
C
100
AcDbDictionary
281
     1
  3
Layout1
350
1E
  3
Layout2
350
26
  3
Model
350
22
  0
DICTIONARY
  5
17
102
{ACAD_REACTORS
330
C
102
}
330
C
100
AcDbDictionary
281
     1
  3
Standard
350
18
  0
DICTIONARY
  5
19
102
{ACAD_REACTORS
330
C
102
}
330
C
100
AcDbDictionary
281
     1
  0
ACDBDICTIONARYWDFLT
  5
E
102
{ACAD_REACTORS
330
C
102
}
330
C
100
AcDbDictionary
281
     1
  3
Normal
350
F
100
AcDbDictionaryWithDefault
340
F
  0
DICTIONARY
  5
47
102
{ACAD_REACTORS
330
C
102
}
330
C
100
AcDbDictionary
281
     1
  3
A0
350
48
  3
A1
350
49
  3
A2
350
4A
  3
A3
350
4B
  3
A4
350
4C
  3
A5
350
4D
  3
A6
350
4E
  3
A7
350
4F
  3
A8
350
50
  3
A9
350
51
  3
B0
350
52
  3
B1
350
53
  3
B2
350
54
  3
B3
350
55
  3
B4
350
56
  3
B5
350
57
  3
B6
350
58
  3
B7
350
59
  3
B8
350
5A
  3
B9
350
5B
  3
C0
350
5C
  3
C1
350
5D
  3
C2
350
5E
  3
C3
350
5F
  3
C4
350
60
  3
C5
350
61
  3
C6
350
62
  3
C7
350
63
  3
C8
350
64
  3
C9
350
65
  3
D0
350
66
  3
D1
350
67
  3
D2
350
68
  0
DICTIONARY
  5
15D
102
{ACAD_REACTORS
330
C
102
}
330
C
100
AcDbDictionary
281
     1
  0
XRECORD
  5
1E6
102
{ACAD_REACTORS
330
C
102
}
330
C
100
AcDbXrecord
280
     1
  1
DWGPROPS COOKIE
  2

  3

  4

  6

  7

  8
12016016
  9

300
=
301
=
302
=
303
=
304
=
305
=
306
=
307
=
308
=
309
=
 40
0.0
 41
2458311.095038947
 42
2458319.343079954
  1

 90
        0
  0
DICTIONARY
  5
187
102
{ACAD_REACTORS
330
186
102
}
330
186
100
AcDbDictionary
281
     1
  0
LAYOUT
  5
1E
102
{ACAD_REACTORS
330
1A
102
}
330
1A
100
AcDbPlotSettings
  1

  2
none_device
  4

  6

 40
0.0
 41
0.0
 42
0.0
 43
0.0
 44
0.0
 45
0.0
 46
0.0
 47
0.0
 48
0.0
 49
0.0
140
0.0
141
0.0
142
1.0
143
1.0
 70
   688
 72
     1
 73
     0
 74
     5
  7

 75
    16
147
1.0
148
0.0
149
0.0
100
AcDbLayout
  1
Layout1
 70
     1
 71
     1
 10
0.0
 20
0.0
 11
420.0
 21
297.0
 12
0.0
 22
0.0
 32
0.0
 14
1.000000000000000E+20
 24
1.000000000000000E+20
 34
1.000000000000000E+20
 15
-1.000000000000000E+20
 25
-1.000000000000000E+20
 35
-1.000000000000000E+20
146
0.0
 13
0.0
 23
0.0
 33
0.0
 16
1.0
 26
0.0
 36
0.0
 17
0.0
 27
1.0
 37
0.0
 76
     0
330
1B
  0
LAYOUT
  5
26
102
{ACAD_REACTORS
330
1A
102
}
330
1A
100
AcDbPlotSettings
  1

  2
none_device
  4

  6

 40
0.0
 41
0.0
 42
0.0
 43
0.0
 44
0.0
 45
0.0
 46
0.0
 47
0.0
 48
0.0
 49
0.0
140
0.0
141
0.0
142
1.0
143
1.0
 70
   688
 72
     1
 73
     0
 74
     5
  7

 75
    16
147
1.0
148
0.0
149
0.0
100
AcDbLayout
  1
Layout2
 70
     1
 71
     2
 10
0.0
 20
0.0
 11
0.0
 21
0.0
 12
0.0
 22
0.0
 32
0.0
 14
0.0
 24
0.0
 34
0.0
 15
0.0
 25
0.0
 35
0.0
146
0.0
 13
0.0
 23
0.0
 33
0.0
 16
1.0
 26
0.0
 36
0.0
 17
0.0
 27
1.0
 37
0.0
 76
     0
330
23
  0
LAYOUT
  5
22
102
{ACAD_REACTORS
330
1A
102
}
330
1A
100
AcDbPlotSettings
  1

  2
none_device
  4
ANSI_A_(11.00_x_8.50_Inches)
  6

 40
6.35
 41
19.05
 42
6.35000508
 43
19.05000254
 44
279.4
 45
215.9
 46
90.16588674915816
 47
88.23571328110361
 48
0.0
 49
0.0
140
0.0
141
0.0
142
0.07079942973327
143
1.0
 70
  1696
 72
     0
 73
     0
 74
     0
  7

 75
     0
147
0.0235690232323232
148
0.0
149
0.0
100
AcDbLayout
  1
Model
 70
     1
 71
     0
 10
0.0
 20
0.0
 11
420.0
 21
297.0
 12
0.0
 22
0.0
 32
0.0
 14
-55.36268467149226
 24
-49.97073246008785
 34
0.0
 15
90.52153940838579
 25
39.42093538382493
 35
0.0
146
0.0
 13
0.0
 23
0.0
 33
0.0
 16
1.0
 26
0.0
 36
0.0
 17
0.0
 27
1.0
 37
0.0
 76
     0
330
1F
331
29
  0
MLINESTYLE
  5
18
102
{ACAD_REACTORS
330
17
102
}
330
17
100
AcDbMlineStyle
  2
Standard
 70
     0
  3

 62
   256
 51
90.0
 52
90.0
 71
     2
 49
0.5
 62
   256
  6
BYLAYER
 49
-0.5
 62
   256
  6
BYLAYER
  0
ACDBPLACEHOLDER
  5
F
102
{ACAD_REACTORS
330
E
102
}
330
E
  0
SCALE
  5
48
102
{ACAD_REACTORS
330
47
102
}
330
47
100
AcDbScale
 70
     0
300
1:1
140
1.0
141
1.0
290
     1
  0
SCALE
  5
49
102
{ACAD_REACTORS
330
47
102
}
330
47
100
AcDbScale
 70
     0
300
1:2
140
1.0
141
2.0
290
     0
  0
SCALE
  5
4A
102
{ACAD_REACTORS
330
47
102
}
330
47
100
AcDbScale
 70
     0
300
1:4
140
1.0
141
4.0
290
     0
  0
SCALE
  5
4B
102
{ACAD_REACTORS
330
47
102
}
330
47
100
AcDbScale
 70
     0
300
1:5
140
1.0
141
5.0
290
     0
  0
SCALE
  5
4C
102
{ACAD_REACTORS
330
47
102
}
330
47
100
AcDbScale
 70
     0
300
1:8
140
1.0
141
8.0
290
     0
  0
SCALE
  5
4D
102
{ACAD_REACTORS
330
47
102
}
330
47
100
AcDbScale
 70
     0
300
1:10
140
1.0
141
10.0
290
     0
  0
SCALE
  5
4E
102
{ACAD_REACTORS
330
47
102
}
330
47
100
AcDbScale
 70
     0
300
1:16
140
1.0
141
16.0
290
     0
  0
SCALE
  5
4F
102
{ACAD_REACTORS
330
47
102
}
330
47
100
AcDbScale
 70
     0
300
1:20
140
1.0
141
20.0
290
     0
  0
SCALE
  5
50
102
{ACAD_REACTORS
330
47
102
}
330
47
100
AcDbScale
 70
     0
300
1:30
140
1.0
141
30.0
290
     0
  0
SCALE
  5
51
102
{ACAD_REACTORS
330
47
102
}
330
47
100
AcDbScale
 70
     0
300
1:40
140
1.0
141
40.0
290
     0
  0
SCALE
  5
52
102
{ACAD_REACTORS
330
47
102
}
330
47
100
AcDbScale
 70
     0
300
1:50
140
1.0
141
50.0
290
     0
  0
SCALE
  5
53
102
{ACAD_REACTORS
330
47
102
}
330
47
100
AcDbScale
 70
     0
300
1:100
140
1.0
141
100.0
290
     0
  0
SCALE
  5
54
102
{ACAD_REACTORS
330
47
102
}
330
47
100
AcDbScale
 70
     0
300
2:1
140
2.0
141
1.0
290
     0
  0
SCALE
  5
55
102
{ACAD_REACTORS
330
47
102
}
330
47
100
AcDbScale
 70
     0
300
4:1
140
4.0
141
1.0
290
     0
  0
SCALE
  5
56
102
{ACAD_REACTORS
330
47
102
}
330
47
100
AcDbScale
 70
     0
300
8:1
140
8.0
141
1.0
290
     0
  0
SCALE
  5
57
102
{ACAD_REACTORS
330
47
102
}
330
47
100
AcDbScale
 70
     0
300
10:1
140
10.0
141
1.0
290
     0
  0
SCALE
  5
58
102
{ACAD_REACTORS
330
47
102
}
330
47
100
AcDbScale
 70
     0
300
100:1
140
100.0
141
1.0
290
     0
  0
SCALE
  5
59
102
{ACAD_REACTORS
330
47
102
}
330
47
100
AcDbScale
 70
     0
300
1/128" = 1'-0"
140
0.0078125
141
12.0
290
     0
  0
SCALE
  5
5A
102
{ACAD_REACTORS
330
47
102
}
330
47
100
AcDbScale
 70
     0
300
1/64" = 1'-0"
140
0.015625
141
12.0
290
     0
  0
SCALE
  5
5B
102
{ACAD_REACTORS
330
47
102
}
330
47
100
AcDbScale
 70
     0
300
1/32" = 1'-0"
140
0.03125
141
12.0
290
     0
  0
SCALE
  5
5C
102
{ACAD_REACTORS
330
47
102
}
330
47
100
AcDbScale
 70
     0
300
1/16" = 1'-0"
140
0.0625
141
12.0
290
     0
  0
SCALE
  5
5D
102
{ACAD_REACTORS
330
47
102
}
330
47
100
AcDbScale
 70
     0
300
3/32" = 1'-0"
140
0.09375
141
12.0
290
     0
  0
SCALE
  5
5E
102
{ACAD_REACTORS
330
47
102
}
330
47
100
AcDbScale
 70
     0
300
1/8" = 1'-0"
140
0.125
141
12.0
290
     0
  0
SCALE
  5
5F
102
{ACAD_REACTORS
330
47
102
}
330
47
100
AcDbScale
 70
     0
300
3/16" = 1'-0"
140
0.1875
141
12.0
290
     0
  0
SCALE
  5
60
102
{ACAD_REACTORS
330
47
102
}
330
47
100
AcDbScale
 70
     0
300
1/4" = 1'-0"
140
0.25
141
12.0
290
     0
  0
SCALE
  5
61
102
{ACAD_REACTORS
330
47
102
}
330
47
100
AcDbScale
 70
     0
300
3/8" = 1'-0"
140
0.375
141
12.0
290
     0
  0
SCALE
  5
62
102
{ACAD_REACTORS
330
47
102
}
330
47
100
AcDbScale
 70
     0
300
1/2" = 1'-0"
140
0.5
141
12.0
290
     0
  0
SCALE
  5
63
102
{ACAD_REACTORS
330
47
102
}
330
47
100
AcDbScale
 70
     0
300
3/4" = 1'-0"
140
0.75
141
12.0
290
     0
  0
SCALE
  5
64
102
{ACAD_REACTORS
330
47
102
}
330
47
100
AcDbScale
 70
     0
300
1" = 1'-0"
140
1.0
141
12.0
290
     0
  0
SCALE
  5
65
102
{ACAD_REACTORS
330
47
102
}
330
47
100
AcDbScale
 70
     0
300
1-1/2" = 1'-0"
140
1.5
141
12.0
290
     0
  0
SCALE
  5
66
102
{ACAD_REACTORS
330
47
102
}
330
47
100
AcDbScale
 70
     0
300
3" = 1'-0"
140
3.0
141
12.0
290
     0
  0
SCALE
  5
67
102
{ACAD_REACTORS
330
47
102
}
330
47
100
AcDbScale
 70
     0
300
6" = 1'-0"
140
6.0
141
12.0
290
     0
  0
SCALE
  5
68
102
{ACAD_REACTORS
330
47
102
}
330
47
100
AcDbScale
 70
     0
300
1'-0" = 1'-0"
140
12.0
141
12.0
290
     0
  0
ENDSEC
  0
EOF
