  0
SECTION
  2
HEADER
  9
$ACADVER
  1
AC1015
  9
$ACADMAINTVER
 70
     6
  9
$DWGCODEPAGE
  3
ANSI_949
  9
$INSBASE
 10
0.0
 20
0.0
 30
0.0
  9
$EXTMIN
 10
-57.67500000000008
 20
-49.97073246008785
 30
0.0
  9
$EXTMAX
 10
90.52153940838579
 20
40.92737901373057
 30
0.0
  9
$LIMMIN
 10
0.0
 20
0.0
  9
$LIMMAX
 10
420.0
 20
297.0
  9
$ORTHOMODE
 70
     1
  9
$REGENMODE
 70
     1
  9
$FILLMODE
 70
     1
  9
$QTEXTMODE
 70
     0
  9
$MIRRTEXT
 70
     1
  9
$LTSCALE
 40
1.0
  9
$ATTMODE
 70
     1
  9
$TEXTSIZE
 40
3.5
  9
$TRACEWID
 40
1.0
  9
$TEXTSTYLE
  7
Standard
  9
$CLAYER
  8
0
  9
$CELTYPE
  6
ByLayer
  9
$CECOLOR
 62
   256
  9
$CELTSCALE
 40
1.0
  9
$DISPSILH
 70
     0
  9
$DIMSCALE
 40
1.0
  9
$DIMASZ
 40
3.302
  9
$DIMEXO
 40
1.0
  9
$DIMDLI
 40
3.75
  9
$DIMRND
 40
0.0
  9
$DIMDLE
 40
0.0
  9
$DIMEXE
 40
1.0
  9
$DIMTP
 40
0.0
  9
$DIMTM
 40
0.0
  9
$DIMTXT
 40
3.5
  9
$DIMCEN
 40
2.5
  9
$DIMTSZ
 40
0.0
  9
$DIMTOL
 70
     0
  9
$DIMLIM
 70
     0
  9
$DIMTIH
 70
     1
  9
$DIMTOH
 70
     1
  9
$DIMSE1
 70
     0
  9
$DIMSE2
 70
     0
  9
$DIMTAD
 70
     1
  9
$DIMZIN
 70
     0
  9
$DIMBLK
  1

  9
$DIMASO
 70
     1
  9
$DIMSHO
 70
     1
  9
$DIMPOST
  1

  9
$DIMAPOST
  1

  9
$DIMALT
 70
     0
  9
$DIMALTD
 70
     3
  9
$DIMALTF
 40
0.0393700787401575
  9
$DIMLFAC
 40
1.0
  9
$DIMTOFL
 70
     1
  9
$DIMTVP
 40
0.0
  9
$DIMTIX
 70
     0
  9
$DIMSOXD
 70
     0
  9
$DIMSAH
 70
     0
  9
$DIMBLK1
  1

  9
$DIMBLK2
  1

  9
$DIMSTYLE
  2
ISO-25
  9
$DIMCLRD
 70
     0
  9
$DIMCLRE
 70
     0
  9
$DIMCLRT
 70
     0
  9
$DIMTFAC
 40
1.0
  9
$DIMGAP
 40
1.524
  9
$DIMJUST
 70
     0
  9
$DIMSD1
 70
     0
  9
$DIMSD2
 70
     0
  9
$DIMTOLJ
 70
     0
  9
$DIMTZIN
 70
     0
  9
$DIMALTZ
 70
     0
  9
$DIMALTTZ
 70
     0
  9
$DIMUPT
 70
     0
  9
$DIMDEC
 70
     2
  9
$DIMTDEC
 70
     2
  9
$DIMALTU
 70
     2
  9
$DIMALTTD
 70
     3
  9
$DIMTXSTY
  7
Standard
  9
$DIMAUNIT
 70
     0
  9
$DIMADEC
 70
     2
  9
$DIMALTRND
 40
0.0
  9
$DIMAZIN
 70
     0
  9
$DIMDSEP
 70
    44
  9
$DIMATFIT
 70
     3
  9
$DIMFRAC
 70
     0
  9
$DIMLDRBLK
  1

  9
$DIMLUNIT
 70
     2
  9
$DIMLWD
 70
    -2
  9
$DIMLWE
 70
    -2
  9
$DIMTMOVE
 70
     0
  9
$LUNITS
 70
     2
  9
$LUPREC
 70
     2
  9
$SKETCHINC
 40
1.0
  9
$FILLETRAD
 40
10.0
  9
$AUNITS
 70
     0
  9
$AUPREC
 70
     2
  9
$MENU
  1
.
  9
$ELEVATION
 40
0.0
  9
$PELEVATION
 40
0.0
  9
$THICKNESS
 40
0.0
  9
$LIMCHECK
 70
     0
  9
$CHAMFERA
 40
0.0
  9
$CHAMFERB
 40
0.0
  9
$CHAMFERC
 40
0.0
  9
$CHAMFERD
 40
0.0
  9
$SKPOLY
 70
     0
  9
$TDCREATE
 40
2458311.470250926
  9
$TDUCREATE
 40
2458311.095250926
  9
$TDUPDATE
 40
2458319.718792523
  9
$TDUUPDATE
 40
2458319.343792523
  9
$TDINDWG
 40
0.0015309259
  9
$TDUSRTIMER
 40
2458319.343756678
  9
$USRTIMER
 70
     1
  9
$ANGBASE
 50
0.0
  9
$ANGDIR
 70
     0
  9
$PDMODE
 70
     0
  9
$PDSIZE
 40
-1.0
  9
$PLINEWID
 40
0.0
  9
$SPLFRAME
 70
     0
  9
$SPLINETYPE
 70
     6
  9
$SPLINESEGS
 70
     8
  9
$HANDSEED
  5
20F
  9
$SURFTAB1
 70
     6
  9
$SURFTAB2
 70
     6
  9
$SURFTYPE
 70
     6
  9
$SURFU
 70
     6
  9
$SURFV
 70
     6
  9
$UCSBASE
  2

  9
$UCSNAME
  2

  9
$UCSORG
 10
0.0
 20
0.0
 30
0.0
  9
$UCSXDIR
 10
1.0
 20
0.0
 30
0.0
  9
$UCSYDIR
 10
0.0
 20
1.0
 30
0.0
  9
$UCSORTHOREF
  2

  9
$UCSORTHOVIEW
 70
     0
  9
$UCSORGTOP
 10
0.0
 20
0.0
 30
0.0
  9
$UCSORGBOTTOM
 10
0.0
 20
0.0
 30
0.0
  9
$UCSORGLEFT
 10
0.0
 20
0.0
 30
0.0
  9
$UCSORGRIGHT
 10
0.0
 20
0.0
 30
0.0
  9
$UCSORGFRONT
 10
0.0
 20
0.0
 30
0.0
  9
$UCSORGBACK
 10
0.0
 20
0.0
 30
0.0
  9
$PUCSBASE
  2

  9
$PUCSNAME
  2

  9
$PUCSORG
 10
0.0
 20
0.0
 30
0.0
  9
$PUCSXDIR
 10
1.0
 20
0.0
 30
0.0
  9
$PUCSYDIR
 10
0.0
 20
1.0
 30
0.0
  9
$PUCSORTHOREF
  2

  9
$PUCSORTHOVIEW
 70
     0
  9
$PUCSORGTOP
 10
0.0
 20
0.0
 30
0.0
  9
$PUCSORGBOTTOM
 10
0.0
 20
0.0
 30
0.0
  9
$PUCSORGLEFT
 10
0.0
 20
0.0
 30
0.0
  9
$PUCSORGRIGHT
 10
0.0
 20
0.0
 30
0.0
  9
$PUCSORGFRONT
 10
0.0
 20
0.0
 30
0.0
  9
$PUCSORGBACK
 10
0.0
 20
0.0
 30
0.0
  9
$USERI1
 70
     0
  9
$USERI2
 70
     0
  9
$USERI3
 70
     0
  9
$USERI4
 70
     0
  9
$USERI5
 70
     0
  9
$USERR1
 40
0.0
  9
$USERR2
 40
0.0
  9
$USERR3
 40
0.0
  9
$USERR4
 40
0.0
  9
$USERR5
 40
0.0
  9
$WORLDVIEW
 70
     1
  9
$SHADEDGE
 70
     3
  9
$SHADEDIF
 70
    70
  9
$TILEMODE
 70
     1
  9
$MAXACTVP
 70
    64
  9
$PINSBASE
 10
0.0
 20
0.0
 30
0.0
  9
$PLIMCHECK
 70
     0
  9
$PEXTMIN
 10
1.000000000000000E+20
 20
1.000000000000000E+20
 30
1.000000000000000E+20
  9
$PEXTMAX
 10
-1.000000000000000E+20
 20
-1.000000000000000E+20
 30
-1.000000000000000E+20
  9
$PLIMMIN
 10
0.0
 20
0.0
  9
$PLIMMAX
 10
0.0
 20
0.0
  9
$UNITMODE
 70
     0
  9
$VISRETAIN
 70
     1
  9
$PLINEGEN
 70
     0
  9
$PSLTSCALE
 70
     1
  9
$TREEDEPTH
 70
  3020
  9
$CMLSTYLE
  2
Standard
  9
$CMLJUST
 70
     0
  9
$CMLSCALE
 40
20.0
  9
$PROXYGRAPHICS
 70
     1
  9
$MEASUREMENT
 70
     1
  9
$CELWEIGHT
370
    -1
  9
$ENDCAPS
280
     0
  9
$JOINSTYLE
280
     0
  9
$LWDISPLAY
290
     1
  9
$INSUNITS
 70
     4
  9
$HYPERLINKBASE
  1

  9
$STYLESHEET
  1

  9
$XEDIT
290
     1
  9
$CEPSNTYPE
380
     0
  9
$PSTYLEMODE
290
     1
  9
$FINGERPRINTGUID
  2
{3EC3707A-A37B-4E93-895F-8CC3C9F04A7F}
  9
$VERSIONGUID
  2
{FAEB1C32-E019-11D5-929B-00C0DF256EC4}
  9
$EXTNAMES
290
     1
  9
$PSVPSCALE
 40
0.0
  9
$OLESTARTUP
290
     0
  0
ENDSEC
  0
SECTION
  2
CLASSES
  0
CLASS
  1
ACDBDICTIONARYWDFLT
  2
AcDbDictionaryWithDefault
  3
ObjectDBX Classes
 90
        0
280
     0
281
     0
  0
CLASS
  1
VISUALSTYLE
  2
AcDbVisualStyle
  3
ObjectDBX Classes
 90
     4095
280
     0
281
     0
  0
CLASS
  1
MATERIAL
  2
AcDbMaterial
  3
ObjectDBX Classes
 90
     1153
280
     0
281
     0
  0
CLASS
  1
SCALE
  2
AcDbScale
  3
ObjectDBX Classes
 90
     1153
280
     0
281
     0
  0
CLASS
  1
SUN
  2
AcDbSun
  3
SCENEOE
 90
     1153
280
     0
281
     0
  0
CLASS
  1
ACDBPLACEHOLDER
  2
AcDbPlaceHolder
  3
ObjectDBX Classes
 90
        0
280
     0
281
     0
  0
CLASS
  1
LAYOUT
  2
AcDbLayout
  3
ObjectDBX Classes
 90
        0
280
     0
281
     0
  0
CLASS
  1
TABLESTYLE
  2
AcDbTableStyle
  3
ObjectDBX Classes
 90
     4095
280
     0
281
     0
  0
CLASS
  1
MLEADERSTYLE
  2
AcDbMLeaderStyle
  3
ACDB_MLEADERSTYLE_CLASS
 90
     4095
280
     0
281
     0
  0
CLASS
  1
RASTERVARIABLES
  2
AcDbRasterVariables
  3
ISM
 90
        0
280
     0
281
     0
  0
ENDSEC
  0
SECTION
  2
TABLES
  0
TABLE
  2
VPORT
  5
8
330
0
100
AcDbSymbolTable
 70
     1
  0
VPORT
  5
29
330
8
100
AcDbSymbolTableRecord
100
AcDbViewportTableRecord
  2
*Active
 70
     0
 10
0.0
 20
0.0
 11
1.0
 21
1.0
 12
19.32769115857484
 22
-3.423820612474607
 13
0.0
 23
0.0
 14
10.0
 24
10.0
 15
10.0
 25
10.0
 16
0.0
 26
0.0
 36
1.0
 17
0.0
 27
0.0
 37
0.0
 40
152.4854648228317
 41
1.673114119922631
 42
50.0
 43
0.0
 44
0.0
 50
0.0
 51
0.0
 71
    16
 72
  2000
 73
     1
 74
     3
 75
     0
 76
     0
 77
     0
 78
     0
281
     0
 65
     1
110
0.0
120
0.0
130
0.0
111
1.0
121
0.0
131
0.0
112
0.0
122
1.0
132
0.0
 79
     0
146
0.0
  0
ENDTAB
  0
TABLE
  2
LTYPE
  5
5
330
0
100
AcDbSymbolTable
 70
     6
  0
LTYPE
  5
14
330
5
100
AcDbSymbolTableRecord
100
AcDbLinetypeTableRecord
  2
ByBlock
 70
     0
  3

 72
    65
 73
     0
 40
0.0
  0
LTYPE
  5
15
330
5
100
AcDbSymbolTableRecord
100
AcDbLinetypeTableRecord
  2
ByLayer
 70
     0
  3

 72
    65
 73
     0
 40
0.0
  0
LTYPE
  5
16
330
5
100
AcDbSymbolTableRecord
100
AcDbLinetypeTableRecord
  2
Continuous
 70
     0
  3
Solid line
 72
    65
 73
     0
 40
0.0
  0
LTYPE
  5
6A
330
5
100
AcDbSymbolTableRecord
100
AcDbLinetypeTableRecord
  2
HIDDEN
 70
     0
  3
Hidden __ __ __ __ __ __ __ __ __ __ __ __ __ __
 72
    65
 73
     2
 40
1.905
 49
1.27
 74
     0
 49
-0.635
 74
     0
  0
LTYPE
  5
6B
330
5
100
AcDbSymbolTableRecord
100
AcDbLinetypeTableRecord
  2
PHANTOM
 70
     0
  3
Phantom ______  __  __  ______  __  __  ______
 72
    65
 73
     6
 40
12.7
 49
6.35
 74
     0
 49
-1.27
 74
     0
 49
1.27
 74
     0
 49
-1.27
 74
     0
 49
1.27
 74
     0
 49
-1.27
 74
     0
  0
LTYPE
  5
6C
330
5
100
AcDbSymbolTableRecord
100
AcDbLinetypeTableRecord
  2
CENTER
 70
     0
  3
Center ____ _ ____ _ ____ _ ____ _ ____ _ ____
 72
    65
 73
     4
 40
10.16
 49
6.35
 74
     0
 49
-1.27
 74
     0
 49
1.27
 74
     0
 49
-1.27
 74
     0
  0
LTYPE
  5
6D
330
5
100
AcDbSymbolTableRecord
100
AcDbLinetypeTableRecord
  2
CENTERX2
 70
     0
  3
Center (2x) ________  __  ________  __  _____
 72
    65
 73
     4
 40
20.32
 49
12.7
 74
     0
 49
-2.54
 74
     0
 49
2.54
 74
     0
 49
-2.54
 74
     0
  0
LTYPE
  5
6E
330
5
100
AcDbSymbolTableRecord
100
AcDbLinetypeTableRecord
  2
DOT2
 70
     0
  3
Dot (.5x) ........................................
 72
    65
 73
     2
 40
0.635
 49
0.0
 74
     0
 49
-0.635
 74
     0
  0
ENDTAB
  0
TABLE
  2
LAYER
  5
2
102
{ACAD_XDICTIONARY
360
187
102
}
330
0
100
AcDbSymbolTable
 70
    18
  0
LAYER
  5
10
330
2
100
AcDbSymbolTableRecord
100
AcDbLayerTableRecord
  2
0
 70
     0
 62
     7
  6
Continuous
370
    -3
390
F
  0
LAYER
  5
6F
330
2
100
AcDbSymbolTableRecord
100
AcDbLayerTableRecord
  2
FORMAT
 70
     0
 62
     2
  6
Continuous
370
    -3
390
F
  0
LAYER
  5
70
330
2
100
AcDbSymbolTableRecord
100
AcDbLayerTableRecord
  2
외형선
 70
     0
 62
     4
  6
Continuous
370
    30
390
F
  0
LAYER
  5
71
330
2
100
AcDbSymbolTableRecord
100
AcDbLayerTableRecord
  2
숨은선
 70
     0
 62
     2
  6
HIDDEN
370
    15
390
F
  0
LAYER
  5
72
330
2
100
AcDbSymbolTableRecord
100
AcDbLayerTableRecord
  2
중심선
 70
     0
 62
     1
  6
CENTERX2
370
    -3
390
F
  0
LAYER
  5
73
330
2
100
AcDbSymbolTableRecord
100
AcDbLayerTableRecord
  2
파단선
 70
     0
 62
     4
  6
Continuous
370
    -3
390
F
  0
LAYER
  5
74
330
2
100
AcDbSymbolTableRecord
100
AcDbLayerTableRecord
  2
해칭선
 70
     0
 62
   100
  6
Continuous
370
    -3
390
F
  0
LAYER
  5
75
330
2
100
AcDbSymbolTableRecord
100
AcDbLayerTableRecord
  2
가는실선
 70
     0
 62
     4
  6
Continuous
370
    -3
390
F
  0
LAYER
  5
76
330
2
100
AcDbSymbolTableRecord
100
AcDbLayerTableRecord
  2
치수_보조선
 70
     0
 62
     4
  6
Continuous
370
    -3
390
F
  0
LAYER
  5
77
330
2
100
AcDbSymbolTableRecord
100
AcDbLayerTableRecord
  2
치수문자_일반주서
 70
     0
 62
     7
  6
Continuous
370
    15
390
F
  0
LAYER
  5
78
330
2
100
AcDbSymbolTableRecord
100
AcDbLayerTableRecord
  2
개별주서
 70
     0
 62
   100
  6
Continuous
370
    30
390
F
  0
LAYER
  5
79
330
2
100
AcDbSymbolTableRecord
100
AcDbLayerTableRecord
  2
중간선
 70
     0
 62
     2
  6
Continuous
370
    15
390
F
  0
LAYER
  5
7A
330
2
100
AcDbSymbolTableRecord
100
AcDbLayerTableRecord
  2
윤곽선
 70
     0
 62
     3
  6
Continuous
370
    40
390
F
  0
LAYER
  5
7B
330
2
100
AcDbSymbolTableRecord
100
AcDbLayerTableRecord
  2
중심마크
 70
     0
 62
   100
  6
Continuous
370
    30
390
F
  0
LAYER
  5
7C
330
2
100
AcDbSymbolTableRecord
100
AcDbLayerTableRecord
  2
가상선
 70
     0
 62
     4
  6
PHANTOM
370
    -3
390
F
  0
LAYER
  5
7D
330
2
100
AcDbSymbolTableRecord
100
AcDbLayerTableRecord
  2
특수지정선
 70
     0
 62
     5
  6
CENTERX2
370
    60
390
F
  0
LAYER
  5
7E
330
2
100
AcDbSymbolTableRecord
100
AcDbLayerTableRecord
  2
참조1
 70
     0
 62
    -4
  6
Continuous
370
    -3
390
F
  0
LAYER
  5
1BD
330
2
100
AcDbSymbolTableRecord
100
AcDbLayerTableRecord
  2
Defpoints
 70
     0
 62
     7
  6
Continuous
290
     0
370
    -3
390
F
  0
ENDTAB
  0
TABLE
  2
STYLE
  5
3
330
0
100
AcDbSymbolTable
 70
     2
  0
STYLE
  5
11
330
3
100
AcDbSymbolTableRecord
100
AcDbTextStyleTableRecord
  2
Standard
 70
     0
 40
0.0
 41
1.0
 50
0.0
 71
     0
 42
3.5
  3
txt
  4

  0
STYLE
  5
94
330
3
100
AcDbSymbolTableRecord
100
AcDbTextStyleTableRecord
  2
SLDTEXTSTYLE0
 70
     0
 40
0.0
 41
0.75
 50
0.0
 71
     0
 42
3.5
  3
TXT
  4

  0
ENDTAB
  0
TABLE
  2
VIEW
  5
6
330
0
100
AcDbSymbolTable
 70
     0
  0
ENDTAB
  0
TABLE
  2
UCS
  5
7
330
0
100
AcDbSymbolTable
 70
     0
  0
ENDTAB
  0
TABLE
  2
APPID
  5
9
330
0
100
AcDbSymbolTable
 70
     1
  0
APPID
  5
12
330
9
100
AcDbSymbolTableRecord
100
AcDbRegAppTableRecord
  2
ACAD
 70
     0
  0
ENDTAB
  0
TABLE
  2
DIMSTYLE
  5
A
330
0
100
AcDbSymbolTable
 70
     4
100
AcDbDimStyleTable
  0
DIMSTYLE
105
27
330
A
100
AcDbSymbolTableRecord
100
AcDbDimStyleTableRecord
  2
ISO-25
 70
     0
 41
2.5
 42
0.625
 43
3.75
 44
1.25
 73
     0
 74
     0
 77
     1
 78
     8
140
2.5
141
2.5
143
0.03937007874016
147
0.625
171
     3
172
     1
178
     0
271
     2
272
     2
274
     3
278
    44
283
     0
284
     8
340
11
  0
DIMSTYLE
105
DF
102
{ACAD_REACTORS
330
DE
330
F3
330
108
330
11B
102
}
330
A
100
AcDbSymbolTableRecord
100
AcDbDimStyleTableRecord
  2
SLDDIMSTYLE0
 70
     0
 41
3.302
 44
0.0
 45
0.000000001
 73
     0
 74
     0
 77
     1
 78
     4
 79
     1
140
3.5
143
0.0393700787401575
147
0.875
148
0.000000001
170
     1
172
     1
173
     1
178
     0
271
     2
272
     2
276
     2
284
    12
289
     0
340
94
  0
DIMSTYLE
105
F4
330
A
100
AcDbSymbolTableRecord
100
AcDbDimStyleTableRecord
  2
SLDDIMSTYLE1
 70
     0
 41
3.302
 44
0.0
 45
0.000000001
 73
     0
 74
     0
 77
     1
 78
     4
 79
     1
140
3.5
143
0.0393700787401575
147
0.875
148
0.000000001
170
     1
173
     1
178
     0
271
     2
272
     2
276
     2
284
    12
340
94
  0
DIMSTYLE
105
11C
330
A
100
AcDbSymbolTableRecord
100
AcDbDimStyleTableRecord
  2
SLDDIMSTYLE2
 70
     0
 41
3.302
 44
0.0
 45
0.000000001
 73
     0
 74
     0
 77
     1
 78
    12
 79
     3
140
3.5
143
0.0393700787401575
147
0.875
148
0.000000001
170
     1
173
     1
178
     0
271
     2
272
     2
276
     2
284
    12
340
94
  0
ENDTAB
  0
TABLE
  2
BLOCK_RECORD
  5
1
330
0
100
AcDbSymbolTable
 70
     7
  0
BLOCK_RECORD
  5
1F
330
1
100
AcDbSymbolTableRecord
100
AcDbBlockTableRecord
  2
*Model_Space
340
22
  0
BLOCK_RECORD
  5
1B
330
1
100
AcDbSymbolTableRecord
100
AcDbBlockTableRecord
  2
*Paper_Space
340
1E
  0
BLOCK_RECORD
  5
23
330
1
100
AcDbSymbolTableRecord
100
AcDbBlockTableRecord
  2
*Paper_Space0
340
26
  0
BLOCK_RECORD
  5
7F
330
1
100
AcDbSymbolTableRecord
100
AcDbBlockTableRecord
  2
블럭10
340
0
102
{BLKREFS
331
D7
102
}
  0
BLOCK_RECORD
  5
E0
330
1
100
AcDbSymbolTableRecord
100
AcDbBlockTableRecord
  2
_D
340
0
  0
BLOCK_RECORD
  5
F5
330
1
100
AcDbSymbolTableRecord
100
AcDbBlockTableRecord
  2
_D_1
340
0
  0
BLOCK_RECORD
  5
109
330
1
100
AcDbSymbolTableRecord
100
AcDbBlockTableRecord
  2
_D_2
340
0
  0
BLOCK_RECORD
  5
11D
330
1
100
AcDbSymbolTableRecord
100
AcDbBlockTableRecord
  2
_D_3
340
0
  0
BLOCK_RECORD
  5
136
330
1
100
AcDbSymbolTableRecord
100
AcDbBlockTableRecord
  2
SW_DOWELSYMBOL_0
340
0
102
{BLKREFS
331
13C
102
}
  0
ENDTAB
  0
ENDSEC
  0
SECTION
  2
BLOCKS
  0
BLOCK
  5
20
330
1F
100
AcDbEntity
  8
0
100
AcDbBlockBegin
  2
*Model_Space
 70
     0
 10
0.0
 20
0.0
 30
0.0
  3
*Model_Space
  1
*Model_Space
  0
ENDBLK
  5
21
330
1F
100
AcDbEntity
  8
0
100
AcDbBlockEnd
  0
BLOCK
  5
1C
330
1B
100
AcDbEntity
 67
     1
  8
0
100
AcDbBlockBegin
  2
*Paper_Space
 70
     0
 10
0.0
 20
0.0
 30
0.0
  3
*Paper_Space
  1
*Paper_Space
  0
ENDBLK
  5
1D
330
1B
100
AcDbEntity
 67
     1
  8
0
100
AcDbBlockEnd
  0
BLOCK
  5
24
330
23
100
AcDbEntity
  8
0
100
AcDbBlockBegin
  2
*Paper_Space0
 70
     0
 10
0.0
 20
0.0
 30
0.0
  3
*Paper_Space0
  1
*Paper_Space0
  0
ENDBLK
  5
25
330
23
100
AcDbEntity
  8
0
100
AcDbBlockEnd
  0
BLOCK
  5
80
330
7F
100
AcDbEntity
  8
0
100
AcDbBlockBegin
  2
블럭10
 70
     2
 10
0.0
 20
0.0
 30
0.0
  3
블럭10
  1
블럭10
  0
ELLIPSE
  5
82
330
7F
100
AcDbEntity
  8
중심선
100
AcDbEllipse
 10
20.54032771741204
 20
12.0471743016438
 30
0.0
 11
6.600054785286829
 21
-1.261213355974178E-13
 31
0.0
210
0.0
220
0.0
230
1.0
 40
0.636358354079598
 41
0.9219305317359503
 42
6.513795318482858
  0
ELLIPSE
  5
83
330
7F
100
AcDbEntity
  8
중심선
100
AcDbEllipse
 10
20.54032771746488
 20
12.04717430159265
 30
0.0
 11
3.960054785062283
 21
1.540847449632565E-10
 31
0.0
210
0.0
220
0.0
230
1.0
 40
0.3939339440162632
 41
1.131841032648279
 42
5.62031148352944
  0
LINE
  5
84
330
7F
100
AcDbEntity
  8
중심선
100
AcDbLine
 10
2.268634060543552
 20
16.24717430164393
 30
0.0
 11
5.714909304380834
 21
16.24717430164393
 31
0.0
  0
LINE
  5
85
330
7F
100
AcDbEntity
  8
중심선
100
AcDbLine
 10
5.245725140726316
 20
7.84717430164391
 30
0.0
 11
8.692000384563599
 21
7.84717430164391
 31
0.0
  0
LINE
  5
86
330
7F
100
AcDbEntity
  8
중심선
100
AcDbLine
 10
15.74043728645272
 20
16.24717430164393
 30
0.0
 11
8.692000384563599
 21
7.84717430164391
 31
0.0
  0
LINE
  5
87
330
7F
100
AcDbEntity
  8
중심선
100
AcDbLine
 10
0.1404042013395286
 20
13.71084872107135
 30
0.0
 11
3.58671253028996
 21
13.71088815037384
 31
0.0
  0
LINE
  5
88
330
7F
100
AcDbEntity
  8
중심선
100
AcDbLine
 10
2.750260043222114
 20
10.84717430164391
 30
0.0
 11
6.196535287059397
 21
10.84717430164391
 31
0.0
  0
LINE
  5
89
330
7F
100
AcDbEntity
  8
중심선
100
AcDbLine
 10
12.29416204261559
 20
16.24717430164393
 30
0.0
 11
5.245725140726316
 21
7.84717430164391
 31
0.0
  0
LINE
  5
8A
330
7F
100
AcDbEntity
  8
중심선
100
AcDbLine
 10
10.72767329541681
 20
16.24717430164393
 30
0.0
 11
6.196535287059397
 21
10.84717430164391
 31
0.0
  0
LINE
  5
8B
330
7F
100
AcDbEntity
  8
중심선
100
AcDbLine
 10
7.28139805157953
 20
16.24717430164393
 30
0.0
 11
2.750260043222114
 21
10.84717430164391
 31
0.0
  0
LINE
  5
8C
330
7F
100
AcDbEntity
  8
중심선
100
AcDbLine
 10
5.714909304380834
 20
16.24717430164393
 30
0.0
 11
3.58671253028996
 21
13.71088815037384
 31
0.0
  0
LINE
  5
8D
330
7F
100
AcDbEntity
  8
중심선
100
AcDbLine
 10
2.268634060543552
 20
16.24717430164393
 30
0.0
 11
0.1404042013395286
 21
13.71084872107135
 31
0.0
  0
LINE
  5
8E
330
7F
100
AcDbEntity
  8
중심선
100
AcDbLine
 10
7.28139805157953
 20
16.24717430164393
 30
0.0
 11
10.72767329541681
 21
16.24717430164393
 31
0.0
  0
LINE
  5
8F
330
7F
100
AcDbEntity
  8
중심선
100
AcDbLine
 10
12.29416204261559
 20
16.24717430164393
 30
0.0
 11
15.74043728645272
 21
16.24717430164393
 31
0.0
  0
LINE
  5
90
330
7F
100
AcDbEntity
  8
중심선
100
AcDbLine
 10
19.22036997980202
 20
11.08717430171403
 30
0.0
 11
23.66174974927406
 21
11.08717430171406
 31
0.0
  0
LINE
  5
91
330
7F
100
AcDbEntity
  8
중심선
100
AcDbLine
 10
19.22039502424796
 20
13.00717430171391
 30
0.0
 11
19.22036997980202
 21
11.08717430171403
 31
0.0
  0
LINE
  5
92
330
7F
100
AcDbEntity
  8
중심선
100
AcDbLine
 10
19.22039502424796
 20
13.00717430171391
 30
0.0
 11
26.96566020931264
 21
13.00717430171391
 31
0.0
  0
LINE
  5
93
330
7F
100
AcDbEntity
  8
중심선
100
AcDbLine
 10
22.22332737316547
 20
13.45928029700563
 30
0.0
 11
24.52862924686651
 21
15.39360700705356
 31
0.0
  0
ATTDEF
  5
95
330
7F
100
AcDbEntity
  8
FORMAT
 62
     2
100
AcDbText
 10
4.408487351596664
 20
2.075366912832191
 30
0.0
 40
4.233333333333333
  1
E1080032
 41
0.75
  7
SLDTEXTSTYLE0
 11
4.408487351596664
 21
-0.0412997538344756
 31
0.0
100
AcDbAttributeDefinition
  3

  2
AUTOATTR0
 70
     0
 74
     1
  0
ENDBLK
  5
81
330
7F
100
AcDbEntity
  8
0
100
AcDbBlockEnd
  0
BLOCK
  5
E1
330
E0
100
AcDbEntity
  8
0
100
AcDbBlockBegin
  2
_D
 70
     0
 10
0.0
 20
0.0
 30
0.0
  3
_D
  1
_D
  0
LINE
  5
E3
330
E0
100
AcDbEntity
  8
치수문자_일반주서
 62
     0
370
    -2
100
AcDbLine
 10
-39.86250000000001
 20
6.351074928723889
 30
0.0
 11
-53.30000000000005
 21
6.351074928723839
 31
0.0
  0
LINE
  5
E4
330
E0
100
AcDbEntity
  8
치수문자_일반주서
 62
     0
370
    -2
100
AcDbLine
 10
-39.86250000000001
 20
-6.348925071276101
 30
0.0
 11
-53.30000000000001
 21
-6.348925071276151
 31
0.0
  0
LINE
  5
E5
330
E0
100
AcDbEntity
  8
치수문자_일반주서
 62
     0
370
    -2
100
AcDbLine
 10
-53.30000000000004
 20
3.049074928723839
 30
0.0
 11
-53.30000000000003
 21
-3.046925071276151
 31
0.0
  0
SOLID
  5
E6
330
E0
100
AcDbEntity
  8
치수문자_일반주서
 62
     0
100
AcDbTrace
 10
-52.74966666666671
 20
3.049074928723841
 30
0.0
 11
-53.85033333333337
 21
3.049074928723837
 31
0.0
 12
-53.30000000000005
 22
6.351074928723839
 32
0.0
 13
-53.30000000000005
 23
6.351074928723839
 33
0.0
  0
SOLID
  5
E7
330
E0
100
AcDbEntity
  8
치수문자_일반주서
 62
     0
100
AcDbTrace
 10
-53.85033333333336
 20
-3.046925071276152
 30
0.0
 11
-52.74966666666669
 21
-3.046925071276149
 31
0.0
 12
-53.30000000000001
 22
-6.348925071276151
 32
0.0
 13
-53.30000000000001
 23
-6.348925071276151
 33
0.0
  0
MTEXT
  5
E8
330
E0
100
AcDbEntity
  8
치수문자_일반주서
 62
     0
100
AcDbMText
 10
-57.67500000000003
 20
0.0010749287238778
 30
0.0
 40
3.5
 41
0.0
 71
     2
 72
     1
  1
\A1;%%c12.70 [1/2]
  7
SLDTEXTSTYLE0
 11
-3.356894814614649E-15
 21
1.0
 31
0.0
 73
     1
 44
1.0
  0
POINT
  5
E9
330
E0
100
AcDbEntity
  8
Defpoints
 62
     0
100
AcDbPoint
 10
-39.80000000000001
 20
6.351074928723889
 30
0.0
  0
POINT
  5
EA
330
E0
100
AcDbEntity
  8
Defpoints
 62
     0
100
AcDbPoint
 10
-39.80000000000001
 20
-6.348925071276101
 30
0.0
  0
POINT
  5
EB
330
E0
100
AcDbEntity
  8
Defpoints
 62
     0
100
AcDbPoint
 10
-53.30000000000001
 20
-6.348925071276152
 30
0.0
  0
ENDBLK
  5
E2
330
E0
100
AcDbEntity
  8
0
100
AcDbBlockEnd
  0
BLOCK
  5
F6
330
F5
100
AcDbEntity
  8
0
100
AcDbBlockBegin
  2
_D_1
 70
     0
 10
0.0
 20
0.0
 30
0.0
  3
_D_1
  1
_D_1
  0
LINE
  5
F8
330
F5
100
AcDbEntity
  8
치수문자_일반주서
 62
     0
370
    -2
100
AcDbLine
 10
60.80000000000001
 20
6.413574928723901
 30
0.0
 11
60.80000000000001
 21
16.579782838648
 31
0.0
  0
LINE
  5
F9
330
F5
100
AcDbEntity
  8
치수문자_일반주서
 62
     0
370
    -2
100
AcDbLine
 10
10.0
 20
5.121360986248003
 30
0.0
 11
10.0
 21
16.579782838648
 31
0.0
  0
LINE
  5
FA
330
F5
100
AcDbEntity
  8
치수문자_일반주서
 62
     0
370
    -2
100
AcDbLine
 10
57.49800000000001
 20
16.579782838648
 30
0.0
 11
13.302
 21
16.579782838648
 31
0.0
  0
SOLID
  5
FB
330
F5
100
AcDbEntity
  8
치수문자_일반주서
 62
     0
100
AcDbTrace
 10
57.49800000000001
 20
16.02944950531467
 30
0.0
 11
57.49800000000001
 21
17.13011617198134
 31
0.0
 12
60.80000000000001
 22
16.579782838648
 32
0.0
 13
60.80000000000001
 23
16.579782838648
 33
0.0
  0
SOLID
  5
FC
330
F5
100
AcDbEntity
  8
치수문자_일반주서
 62
     0
100
AcDbTrace
 10
13.302
 20
17.13011617198134
 30
0.0
 11
13.302
 21
16.02944950531467
 31
0.0
 12
10.0
 22
16.579782838648
 32
0.0
 13
10.0
 23
16.579782838648
 33
0.0
  0
MTEXT
  5
FD
330
F5
100
AcDbEntity
  8
치수문자_일반주서
 62
     0
100
AcDbMText
 10
32.31367088450328
 20
20.954782838648
 30
0.0
 40
3.5
 41
0.0
 71
     2
 72
     1
  1
\A1;50.80 [2]
  7
SLDTEXTSTYLE0
 73
     1
 44
1.0
  0
POINT
  5
FE
330
F5
100
AcDbEntity
  8
Defpoints
 62
     0
100
AcDbPoint
 10
60.80000000000001
 20
6.351074928723901
 30
0.0
  0
POINT
  5
FF
330
F5
100
AcDbEntity
  8
Defpoints
 62
     0
100
AcDbPoint
 10
10.0
 20
5.058860986248003
 30
0.0
  0
POINT
  5
100
330
F5
100
AcDbEntity
  8
Defpoints
 62
     0
100
AcDbPoint
 10
10.0
 20
16.579782838648
 30
0.0
  0
ENDBLK
  5
F7
330
F5
100
AcDbEntity
  8
0
100
AcDbBlockEnd
  0
BLOCK
  5
10A
330
109
100
AcDbEntity
  8
0
100
AcDbBlockBegin
  2
_D_2
 70
     0
 10
0.0
 20
0.0
 30
0.0
  3
_D_2
  1
_D_2
  0
LINE
  5
10C
330
109
100
AcDbEntity
  8
치수문자_일반주서
 62
     0
370
    -2
100
AcDbLine
 10
60.80000000000001
 20
6.413574928723903
 30
0.0
 11
60.80000000000001
 21
36.55237901373057
 31
0.0
  0
LINE
  5
10D
330
109
100
AcDbEntity
  8
치수문자_일반주서
 62
     0
370
    -2
100
AcDbLine
 10
-40.79999999999998
 20
5.413574928723886
 30
0.0
 11
-40.79999999999998
 21
36.55237901373057
 31
0.0
  0
LINE
  5
10E
330
109
100
AcDbEntity
  8
치수문자_일반주서
 62
     0
370
    -2
100
AcDbLine
 10
57.49800000000001
 20
36.55237901373057
 30
0.0
 11
-37.49799999999998
 21
36.55237901373057
 31
0.0
  0
SOLID
  5
10F
330
109
100
AcDbEntity
  8
치수문자_일반주서
 62
     0
100
AcDbTrace
 10
57.49800000000001
 20
36.00204568039724
 30
0.0
 11
57.49800000000001
 21
37.10271234706391
 31
0.0
 12
60.80000000000001
 22
36.55237901373057
 32
0.0
 13
60.80000000000001
 23
36.55237901373057
 33
0.0
  0
SOLID
  5
110
330
109
100
AcDbEntity
  8
치수문자_일반주서
 62
     0
100
AcDbTrace
 10
-37.49799999999998
 20
37.10271234706391
 30
0.0
 11
-37.49799999999998
 21
36.00204568039724
 31
0.0
 12
-40.79999999999998
 22
36.55237901373057
 32
0.0
 13
-40.79999999999998
 23
36.55237901373057
 33
0.0
  0
MTEXT
  5
111
330
109
100
AcDbEntity
  8
치수문자_일반주서
 62
     0
100
AcDbMText
 10
9.999999999999863
 20
40.92737901373057
 30
0.0
 40
3.5
 41
0.0
 71
     2
 72
     1
  1
\A1;101.60 [4]
  7
SLDTEXTSTYLE0
 73
     1
 44
1.0
  0
POINT
  5
112
330
109
100
AcDbEntity
  8
Defpoints
 62
     0
100
AcDbPoint
 10
60.80000000000001
 20
6.351074928723903
 30
0.0
  0
POINT
  5
113
330
109
100
AcDbEntity
  8
Defpoints
 62
     0
100
AcDbPoint
 10
-40.79999999999998
 20
5.351074928723886
 30
0.0
  0
POINT
  5
114
330
109
100
AcDbEntity
  8
Defpoints
 62
     0
100
AcDbPoint
 10
-40.79999999999998
 20
36.55237901373057
 30
0.0
  0
ENDBLK
  5
10B
330
109
100
AcDbEntity
  8
0
100
AcDbBlockEnd
  0
BLOCK
  5
11E
330
11D
100
AcDbEntity
  8
0
100
AcDbBlockBegin
  2
_D_3
 70
     0
 10
0.0
 20
0.0
 30
0.0
  3
_D_3
  1
_D_3
  0
LINE
  5
120
330
11D
100
AcDbEntity
  8
치수문자_일반주서
 62
     0
370
    -2
100
AcDbLine
 10
60.86250000000001
 20
-6.348925071276098
 30
0.0
 11
75.95554804759368
 21
-6.348925071276039
 31
0.0
  0
LINE
  5
121
330
11D
100
AcDbEntity
  8
치수문자_일반주서
 62
     0
370
    -2
100
AcDbLine
 10
60.86250000000001
 20
6.351074928723901
 30
0.0
 11
75.95554804759364
 21
6.351074928723957
 31
0.0
  0
LINE
  5
122
330
11D
100
AcDbEntity
  8
치수문자_일반주서
 62
     0
370
    -2
100
AcDbLine
 10
75.95554804759364
 20
6.351074928723957
 30
0.0
 11
75.95554804759352
 21
40.29882492872395
 31
0.0
  0
LINE
  5
123
330
11D
100
AcDbEntity
  8
치수문자_일반주서
 62
     0
370
    -2
100
AcDbLine
 10
75.95554804759368
 20
-6.348925071276039
 30
0.0
 11
75.95554804759364
 21
6.351074928723957
 31
0.0
  0
LINE
  5
124
330
11D
100
AcDbEntity
  8
치수문자_일반주서
 62
     0
370
    -2
100
AcDbLine
 10
75.9555480475937
 20
-9.650925071276038
 30
0.0
 11
75.95554804759371
 21
-12.95292507127604
 31
0.0
  0
LINE
  5
125
330
11D
100
AcDbEntity
  8
치수문자_일반주서
 62
     0
370
    -2
100
AcDbLine
 10
75.95554804759362
 20
9.653074928723957
 30
0.0
 11
75.95554804759361
 21
12.95507492872396
 31
0.0
  0
SOLID
  5
126
330
11D
100
AcDbEntity
  8
치수문자_일반주서
 62
     0
100
AcDbTrace
 10
76.50588138092702
 20
-9.650925071276037
 30
0.0
 11
75.40521471426037
 21
-9.65092507127604
 31
0.0
 12
75.95554804759368
 22
-6.348925071276039
 32
0.0
 13
75.95554804759368
 23
-6.348925071276039
 33
0.0
  0
SOLID
  5
127
330
11D
100
AcDbEntity
  8
치수문자_일반주서
 62
     0
100
AcDbTrace
 10
75.4052147142603
 20
9.653074928723955
 30
0.0
 11
76.50588138092695
 21
9.653074928723958
 31
0.0
 12
75.95554804759364
 22
6.351074928723957
 32
0.0
 13
75.95554804759364
 23
6.351074928723957
 33
0.0
  0
MTEXT
  5
128
330
11D
100
AcDbEntity
  8
치수문자_일반주서
 62
     0
100
AcDbMText
 10
71.58054804759357
 20
26.95507492872393
 30
0.0
 40
3.5
 41
0.0
 71
     2
 72
     1
  1
\A1;%%c12.70 [1/2]
  7
SLDTEXTSTYLE0
 11
-3.356894814614647E-15
 21
1.0
 31
0.0
 73
     1
 44
1.0
  0
POINT
  5
129
330
11D
100
AcDbEntity
  8
Defpoints
 62
     0
100
AcDbPoint
 10
60.80000000000001
 20
-6.348925071276098
 30
0.0
  0
POINT
  5
1C0
330
11D
100
AcDbEntity
  8
Defpoints
 62
     0
100
AcDbPoint
 10
60.80000000000001
 20
6.351074928723901
 30
0.0
  0
POINT
  5
1C1
330
11D
100
AcDbEntity
  8
Defpoints
 62
     0
100
AcDbPoint
 10
75.95554804759364
 20
6.351074928723958
 30
0.0
  0
ENDBLK
  5
11F
330
11D
100
AcDbEntity
  8
0
100
AcDbBlockEnd
  0
BLOCK
  5
137
330
136
100
AcDbEntity
  8
0
100
AcDbBlockBegin
  2
SW_DOWELSYMBOL_0
 70
     0
 10
0.0
 20
0.0
 30
0.0
  3
SW_DOWELSYMBOL_0
  1
SW_DOWELSYMBOL_0
  0
CIRCLE
  5
139
330
136
100
AcDbEntity
  8
해칭선
 62
     0
100
AcDbCircle
 10
0.0
 20
0.0
 30
0.0
 40
2.999999999999996
  0
HATCH
  5
13A
330
136
100
AcDbEntity
  8
0
  6
Continuous
 62
     0
370
     0
100
AcDbHatch
 10
0.0
 20
0.0
 30
0.0
210
0.0
220
0.0
230
1.0
  2
SOLID
 70
     1
 71
     0
 91
        1
 92
        0
 93
        3
 72
     2
 10
0.0
 20
0.0
 40
2.999999999999996
 50
0.0
 51
90.0
 73
     1
 72
     1
 10
0.0
 20
2.999999999999996
 11
0.0
 21
0.0
 72
     1
 10
0.0
 20
0.0
 11
2.999999999999996
 21
0.0
 97
        0
 75
     0
 76
     1
 98
        1
 10
0.0
 20
0.0
  0
HATCH
  5
13B
330
136
100
AcDbEntity
  8
0
  6
Continuous
 62
     0
370
     0
100
AcDbHatch
 10
0.0
 20
0.0
 30
0.0
210
0.0
220
0.0
230
1.0
  2
SOLID
 70
     1
 71
     0
 91
        1
 92
        0
 93
        3
 72
     2
 10
0.0
 20
0.0
 40
2.999999999999996
 50
180.0
 51
270.0000000000007
 73
     1
 72
     1
 10
0.0
 20
-2.999999999999996
 11
0.0
 21
0.0
 72
     1
 10
0.0
 20
0.0
 11
-2.999999999999996
 21
0.0
 97
        0
 75
     0
 76
     1
 98
        1
 10
0.0
 20
0.0
  0
ENDBLK
  5
138
330
136
100
AcDbEntity
  8
0
100
AcDbBlockEnd
  0
ENDSEC
  0
SECTION
  2
ENTITIES
  0
LINE
  5
96
330
1F
100
AcDbEntity
  8
외형선
  6
Continuous
370
    15
100
AcDbLine
 10
7.969936745991708
 20
6.351074928723894
 30
0.0
 11
-10.06612499999998
 21
6.351074928723893
 31
0.0
  0
LINE
  5
97
330
1F
100
AcDbEntity
  8
외형선
  6
Continuous
370
    15
100
AcDbLine
 10
-39.8
 20
-6.348925071276108
 30
0.0
 11
7.969936745991708
 21
-6.348925071276105
 31
0.0
  0
LINE
  5
98
330
1F
100
AcDbEntity
  8
외형선
  6
Continuous
370
    15
100
AcDbLine
 10
-39.8
 20
6.351074928723889
 30
0.0
 11
-40.79999999999998
 21
5.351074928723886
 31
0.0
  0
LINE
  5
99
330
1F
100
AcDbEntity
  8
외형선
  6
Continuous
370
    15
100
AcDbLine
 10
-40.79999999999998
 20
-5.348925071276105
 30
0.0
 11
-39.8
 21
-6.348925071276105
 31
0.0
  0
SPLINE
  5
9A
330
1F
100
AcDbEntity
  8
외형선
  6
Continuous
370
    15
100
AcDbSpline
210
0.0
220
0.0
230
1.0
 70
     8
 71
     3
 72
     9
 73
     5
 74
     0
 42
0.000000001
 43
0.00000001
 40
0.0
 40
0.0
 40
0.0
 40
0.0
 40
0.4365335359917862
 40
1.0
 40
1.0
 40
1.0
 40
1.0
 10
9.659379575978399
 20
1.692285853284965
 30
0.0
 10
9.455066151513309
 20
1.790361523554487
 30
0.0
 10
8.987030118494914
 20
2.015030792197727
 30
0.0
 10
8.5150477733664
 20
2.257753491437916
 30
0.0
 10
8.249101550282532
 20
2.394519592513315
 30
0.0
  0
LINE
  5
9B
330
1F
100
AcDbEntity
  8
0
  6
Continuous
 62
     1
370
    15
100
AcDbLine
 10
40.84197470213694
 20
1.785877494239072
 30
0.0
 11
40.76767261279656
 21
1.826741078179152
 31
0.0
  0
SPLINE
  5
9C
330
1F
100
AcDbEntity
  8
0
  6
Continuous
 62
     1
370
    15
100
AcDbSpline
210
0.0
220
0.0
230
1.0
 70
     8
 71
     3
 72
     9
 73
     5
 74
     0
 42
0.000000001
 43
0.00000001
 40
0.0
 40
0.0
 40
0.0
 40
0.0
 40
0.462396968056822
 40
1.0
 40
1.0
 40
1.0
 40
1.0
 10
44.34938473344398
 20
1.628214897089771
 30
0.0
 10
44.07797019058285
 20
1.757315458189176
 30
0.0
 10
43.49099717473084
 20
2.03651400406619
 30
0.0
 10
42.90281487538634
 20
2.344026116414357
 30
0.0
 10
42.58660628792343
 20
2.509345560371982
 30
0.0
  0
LINE
  5
9D
330
1F
100
AcDbEntity
  8
0
  6
Continuous
 62
     1
370
    15
100
AcDbLine
 10
29.77793686780371
 20
6.351074928723899
 30
0.0
 11
26.69924227173864
 21
6.351074928723899
 31
0.0
  0
LINE
  5
9E
330
1F
100
AcDbEntity
  8
0
  6
Continuous
 62
     1
370
    15
100
AcDbLine
 10
26.69924227173863
 20
-6.348925071276111
 30
0.0
 11
29.77793686780369
 21
-6.348925071276111
 31
0.0
  0
SPLINE
  5
9F
330
1F
100
AcDbEntity
  8
0
  6
Continuous
 62
     1
370
    15
100
AcDbSpline
210
0.0
220
0.0
230
1.0
 70
     8
 71
     3
 72
    16
 73
    12
 74
     0
 42
0.000000001
 43
0.00000001
 40
0.0
 40
0.0
 40
0.0
 40
0.0
 40
0.1476838041960964
 40
0.2700801073882452
 40
0.3990884908267885
 40
0.5153208285740729
 40
0.6217843225370445
 40
0.7380044521212841
 40
0.8685697744603514
 40
0.9817347798196652
 40
0.9999999999999999
 40
0.9999999999999999
 40
0.9999999999999999
 40
0.9999999999999999
 10
42.25013530196622
 20
5.047043155357986
 30
0.0
 10
42.02878871694355
 20
5.034051193377956
 30
0.0
 10
41.62399612795004
 20
5.010291848161667
 30
0.0
 10
40.9199959523547
 20
4.978476835490855
 30
0.0
 10
40.26234184360079
 20
4.971812007394398
 30
0.0
 10
39.63095309500194
 20
4.962233913347283
 30
0.0
 10
39.02896688114031
 20
4.959141294286035
 30
0.0
 10
38.4098247792955
 20
4.961905121657082
 30
0.0
 10
37.77454617462783
 20
4.972104658459075
 30
0.0
 10
37.31772048851298
 20
4.983261317794547
 30
0.0
 10
37.09254452784103
 20
4.991012853103612
 30
0.0
 10
37.06125120483178
 20
4.992090105300163
 30
0.0
  0
SPLINE
  5
A0
330
1F
100
AcDbEntity
  8
0
  6
Continuous
 62
     1
370
    15
100
AcDbSpline
210
0.0
220
0.0
230
1.0
 70
     8
 71
     3
 72
    22
 73
    18
 74
     0
 42
0.000000001
 43
0.00000001
 40
0.0
 40
0.0
 40
0.0
 40
0.0
 40
0.1090947081739393
 40
0.2020793893750246
 40
0.2795225901175146
 40
0.3469191412891956
 40
0.4069739366759088
 40
0.4624719668592785
 40
0.5244219315234754
 40
0.6034733944420543
 40
0.6722650484953636
 40
0.7382990465583277
 40
0.7740332860333123
 40
0.8120898246345071
 40
0.85214993755287
 40
0.9191533953241713
 40
1.0
 40
1.0
 40
1.0
 40
1.0
 10
32.6999018224877
 20
-5.282990974186333
 30
0.0
 10
33.04359775203066
 20
-5.249685729690959
 30
0.0
 10
33.68023599723304
 20
-5.187993429640248
 30
0.0
 10
34.58264338907264
 20
-5.117968574065714
 30
0.0
 10
35.3611282289324
 20
-5.067800166086732
 30
0.0
 10
36.03055269914272
 20
-5.029995197193469
 30
0.0
 10
36.6235159266438
 20
-5.003857489339797
 30
0.0
 10
37.17280586877909
 20
-4.985607754207467
 30
0.0
 10
37.79862634123928
 20
-4.968994056177649
 30
0.0
 10
38.47574919541844
 20
-4.958998232492204
 30
0.0
 10
39.15855225171052
 20
-4.956857285174525
 30
0.0
 10
39.71676254919876
 20
-4.961466582271424
 30
0.0
 10
40.17514446488366
 20
-4.967971740175491
 30
0.0
 10
40.5423752828996
 20
-4.972776184700694
 30
0.0
 10
41.02009096350902
 20
-4.98057109518603
 30
0.0
 10
41.62339681124291
 20
-5.008218901749106
 30
0.0
 10
42.02857685237417
 20
-5.031928524765661
 30
0.0
 10
42.25013530196622
 20
-5.044893297910197
 30
0.0
  0
SPLINE
  5
A1
330
1F
100
AcDbEntity
  8
0
  6
Continuous
 62
     1
370
    15
100
AcDbSpline
210
0.0
220
0.0
230
1.0
 70
     8
 71
     3
 72
    17
 73
    13
 74
     0
 42
0.000000001
 43
0.00000001
 40
0.0
 40
0.0
 40
0.0
 40
0.0
 40
0.1481432782749703
 40
0.2634056960869755
 40
0.3453252281470422
 40
0.4204914117605162
 40
0.5129072216033164
 40
0.6203673664959296
 40
0.7186336284299706
 40
0.8609676889920295
 40
0.9836690084411763
 40
1.0
 40
1.0
 40
1.0
 40
1.0
 10
47.34668360371228
 20
-4.774978418398086
 30
0.0
 10
47.57922658170348
 20
-4.739237389577418
 30
0.0
 10
47.9926989018868
 20
-4.675688164226145
 30
0.0
 10
48.53578683925355
 20
-4.600576395002979
 30
0.0
 10
48.96813601135473
 20
-4.544407447981844
 30
0.0
 10
49.36576326912792
 20
-4.495641914523961
 30
0.0
 10
49.80132858352117
 20
-4.445852556459921
 30
0.0
 10
50.27230877149044
 20
-4.396906612531057
 30
0.0
 10
50.82168362356992
 20
-4.345354936970494
 30
0.0
 10
51.39582057093736
 20
-4.299340085971432
 30
0.0
 10
51.8376684132419
 20
-4.267666374776105
 30
0.0
 10
52.05678346092056
 20
-4.255989628474569
 30
0.0
 10
52.08252111836227
 20
-4.25461805632776
 30
0.0
  0
SPLINE
  5
A2
330
1F
100
AcDbEntity
  8
0
  6
Continuous
 62
     1
370
    15
100
AcDbSpline
210
0.0
220
0.0
230
1.0
 70
     8
 71
     3
 72
    29
 73
    25
 74
     0
 42
0.000000001
 43
0.00000001
 40
0.0
 40
0.0
 40
0.0
 40
0.0
 40
0.0707977095536129
 40
0.1255275513753343
 40
0.167362698883972
 40
0.1923839911069493
 40
0.2173194378878103
 40
0.2442772115508115
 40
0.2732870195265966
 40
0.304462792249908
 40
0.3377945876692106
 40
0.4019501962832895
 40
0.455701474507523
 40
0.5004709677145184
 40
0.5436949382466444
 40
0.595200099732159
 40
0.6570370984983355
 40
0.7156842423620774
 40
0.7680286088221184
 40
0.8136551300114665
 40
0.8368861641413509
 40
0.8748614417371376
 40
0.9292977052305353
 40
0.9999999999999999
 40
0.9999999999999999
 40
0.9999999999999999
 40
0.9999999999999999
 10
23.88779883533554
 20
4.34418020648392
 30
0.0
 10
23.62417748961616
 20
4.322760540599456
 30
0.0
 10
23.15676488224409
 20
4.284782501102028
 30
0.0
 10
22.53595115795669
 20
4.247055660956121
 30
0.0
 10
22.08588570354651
 20
4.224660818600277
 30
0.0
 10
21.75071593182627
 20
4.210900383058112
 30
0.0
 10
21.46834003685828
 20
4.201010486622678
 30
0.0
 10
21.17005180025507
 20
4.192570589049516
 30
0.0
 10
20.84763506259243
 20
4.185763829039698
 30
0.0
 10
20.50075730224467
 20
4.181125133021213
 30
0.0
 10
20.02268259626733
 20
4.178689283235105
 30
0.0
 10
19.45871657421615
 20
4.182856942029439
 30
0.0
 10
18.857989567956
 20
4.196665279535421
 30
0.0
 10
18.34135412080562
 20
4.214915633053124
 30
0.0
 10
17.825373337399
 20
4.23874970247167
 30
0.0
 10
17.24645680707751
 20
4.27246313014084
 30
0.0
 10
16.61078684046249
 20
4.318668976049647
 30
0.0
 10
15.97148693980102
 20
4.374272596851959
 30
0.0
 10
15.39163257837633
 20
4.432384376758663
 30
0.0
 10
14.94573082029876
 20
4.482268523072402
 30
0.0
 10
14.55470978042652
 20
4.52916935238507
 30
0.0
 10
14.12673810134788
 20
4.583433368804613
 30
0.0
 10
13.52198415050816
 20
4.665564981413423
 30
0.0
 10
13.05652018902317
 20
4.736878857650248
 30
0.0
 10
12.79353673559113
 20
4.777170633173645
 30
0.0
  0
SPLINE
  5
A3
330
1F
100
AcDbEntity
  8
0
  6
Continuous
 62
     1
370
    15
100
AcDbSpline
210
0.0
220
0.0
230
1.0
 70
     8
 71
     3
 72
    18
 73
    14
 74
     0
 42
0.000000001
 43
0.00000001
 40
0.0
 40
0.0
 40
0.0
 40
0.0
 40
0.1659094984333128
 40
0.2936492443951889
 40
0.3908639549518952
 40
0.4492829631310676
 40
0.5083500462657426
 40
0.572406853782447
 40
0.6413950038723014
 40
0.7150603411574631
 40
0.7932633248869552
 40
0.9426568964607652
 40
1.0
 40
1.0
 40
1.0
 40
1.0
 10
12.79353673559113
 20
-4.775020775725857
 30
0.0
 10
13.05651876889406
 20
-4.734729385633819
 30
0.0
 10
13.52198021684097
 20
-4.663416191585956
 30
0.0
 10
14.13954985301779
 20
-4.579542126026124
 30
0.0
 10
14.58639312266053
 20
-4.523041192505264
 30
0.0
 10
14.92093773400736
 20
-4.483244815016587
 30
0.0
 10
15.20544211212963
 20
-4.451080228220568
 30
0.0
 10
15.50749197625316
 20
-4.418807758773559
 30
0.0
 10
15.83352085286874
 20
-4.386185593477703
 30
0.0
 10
16.18171635735476
 20
-4.353811253525546
 30
0.0
 10
16.65663627094581
 20
-4.313592233862448
 30
0.0
 10
17.10538577848945
 20
-4.279354733388456
 30
0.0
 10
17.4311544089214
 20
-4.260784696863443
 30
0.0
 10
17.52151372370907
 20
-4.255633876252641
 30
0.0
  0
SPLINE
  5
A4
330
1F
100
AcDbEntity
  8
0
  6
Continuous
 62
     1
370
    15
100
AcDbSpline
210
0.0
220
0.0
230
1.0
 70
     8
 71
     3
 72
    27
 73
    23
 74
     0
 42
0.000000001
 43
0.00000001
 40
0.0
 40
0.0
 40
0.0
 40
0.0
 40
0.065999587355157
 40
0.116116856896499
 40
0.1500521954863797
 40
0.1807480717452728
 40
0.2193970946695201
 40
0.2651396234000014
 40
0.3077710016335825
 40
0.3717586113783316
 40
0.4256179952666221
 40
0.4792292629576237
 40
0.5328162239056273
 40
0.5928397072290703
 40
0.6565782697971632
 40
0.710427277381025
 40
0.740365601851828
 40
0.7679578609371701
 40
0.7958339015085653
 40
0.8419139768554486
 40
0.9100096775666652
 40
1.0
 40
1.0
 40
1.0
 40
1.0
 10
58.44057835560291
 20
4.344171716275127
 30
0.0
 10
58.1974732154759
 20
4.324326372596559
 30
0.0
 10
57.76976440852491
 20
4.289411321998049
 30
0.0
 10
57.21669111691286
 20
4.254659341586859
 30
0.0
 10
56.79062829980899
 20
4.231949304430855
 30
0.0
 10
56.40563638359487
 20
4.214643739280731
 30
0.0
 10
55.97928573703808
 20
4.199168321256662
 30
0.0
 10
55.50952007462814
 20
4.187280142652351
 30
0.0
 10
54.94622724427941
 20
4.179408893625031
 30
0.0
 10
54.35286210789144
 20
4.179208902139853
 30
0.0
 10
53.71914439697254
 20
4.188648237337598
 30
0.0
 10
53.12327440179922
 20
4.205739037764217
 30
0.0
 10
52.50520829571062
 20
4.231826148554417
 30
0.0
 10
51.84652056057151
 20
4.269078013780139
 30
0.0
 10
51.18392398214624
 20
4.317011468217506
 30
0.0
 10
50.63854297093441
 20
4.364255302161724
 30
0.0
 10
50.23310307957435
 20
4.403420025514776
 30
0.0
 10
49.92110631224676
 20
4.435598951730848
 30
0.0
 10
49.54959164018179
 20
4.476272901383546
 30
0.0
 10
49.02495568687959
 20
4.53860694366323
 30
0.0
 10
48.26885646458393
 20
4.636917818997955
 30
0.0
 10
47.68120414373313
 20
4.726266577642133
 30
0.0
 10
47.34668360371228
 20
4.777128275845875
 30
0.0
  0
SPLINE
  5
A5
330
1F
100
AcDbEntity
  8
외형선
  6
Continuous
370
    15
100
AcDbSpline
210
0.0
220
0.0
230
1.0
 70
     8
 71
     3
 72
     8
 73
     4
 74
     0
 42
0.000000001
 43
0.00000001
 40
0.0
 40
0.0
 40
0.0
 40
0.0
 40
1.0
 40
1.0
 40
1.0
 40
1.0
 10
7.969936745991605
 20
0.8372538810475906
 30
0.0
 10
8.643868855218605
 20
0.4506539912869949
 30
0.0
 10
9.326311201666714
 20
0.0576766303850363
 30
0.0
 10
9.999999999999973
 20
-0.3317365016037293
 30
0.0
  0
SPLINE
  5
A6
330
1F
100
AcDbEntity
  8
외형선
  6
Continuous
370
    15
100
AcDbSpline
210
0.0
220
0.0
230
1.0
 70
    24
 71
     3
 72
     9
 73
     5
 74
     0
 42
0.000000001
 43
0.00000001
 40
0.0
 40
0.0
 40
0.0
 40
0.0
 40
0.2244781654846225
 40
0.9999999999999999
 40
0.9999999999999999
 40
0.9999999999999999
 40
0.9999999999999999
 10
10.0
 20
-0.3317365016037057
 30
0.0
 10
9.999999999999996
 20
-0.3369736090055294
 30
0.0
 10
9.999999999999991
 20
-0.3603037506721692
 30
0.0
 10
9.999999999999993
 20
-0.3906356050392151
 30
0.0
 10
9.999999999999996
 20
-0.4141586203821998
 30
0.0
  0
SPLINE
  5
A7
330
1F
100
AcDbEntity
  8
외형선
  6
Continuous
370
    15
100
AcDbSpline
210
0.0
220
0.0
230
1.0
 70
    24
 71
     3
 72
     8
 73
     4
 74
     0
 42
0.000000001
 43
0.00000001
 40
0.0
 40
0.0
 40
0.0
 40
0.0
 40
1.0
 40
1.0
 40
1.0
 40
1.0
 10
9.999999999999993
 20
-0.4141586203824686
 30
0.0
 10
9.452669875610038
 20
-0.1933618522751468
 30
0.0
 10
8.89955980460253
 20
0.0297665863836743
 30
0.0
 10
8.3499329780214
 20
0.2514898600833604
 30
0.0
  0
SPLINE
  5
A8
330
1F
100
AcDbEntity
  8
외형선
  6
Continuous
370
    15
100
AcDbSpline
210
0.0
220
0.0
230
1.0
 70
     8
 71
     3
 72
    12
 73
     8
 74
     0
 42
0.000000001
 43
0.00000001
 40
0.0
 40
0.0
 40
0.0
 40
0.0
 40
0.5000000000000002
 40
0.5000000000000002
 40
0.7500000000000001
 40
0.7500000000000001
 40
1.0
 40
1.0
 40
1.0
 40
1.0
 10
7.96993674599166
 20
0.6484147337465276
 30
0.0
 10
7.969936745991479
 20
0.5973681724022575
 30
0.0
 10
8.011726399473797
 20
0.5243565310499609
 30
0.0
 10
8.109024566807241
 20
0.4136936272429705
 30
0.0
 10
8.147626228867756
 20
0.3766451543094585
 30
0.0
 10
8.238986185274486
 20
0.307164240352339
 30
0.0
 10
8.291848864941306
 20
0.2749213941337834
 30
0.0
 10
8.34993297802139
 20
0.251489860083365
 30
0.0
  0
LINE
  5
A9
330
1F
100
AcDbEntity
  8
외형선
  6
Continuous
370
    15
100
AcDbLine
 10
7.969936745991639
 20
2.543492115046002
 30
0.0
 11
7.969936745991708
 21
6.351074928723894
 31
0.0
  0
SPLINE
  5
AA
330
1F
100
AcDbEntity
  8
외형선
  6
Continuous
370
    15
100
AcDbSpline
210
0.0
220
0.0
230
1.0
 70
     8
 71
     3
 72
     8
 73
     4
 74
     0
 42
0.000000001
 43
0.00000001
 40
0.0
 40
0.0
 40
0.0
 40
0.0
 40
1.0
 40
1.0
 40
1.0
 40
1.0
 10
10.0
 20
1.432545509723305
 30
0.0
 10
9.326289161938245
 20
1.812469626883961
 30
0.0
 10
8.643824204496045
 20
2.185852079516349
 30
0.0
 10
7.969870602953648
 20
2.543242734644347
 30
0.0
  0
LINE
  5
AB
330
1F
100
AcDbEntity
  8
외형선
  6
Continuous
370
    15
100
AcDbLine
 10
10.0
 20
1.432545509723304
 30
0.0
 11
10.0
 21
-0.3317365016037426
 31
0.0
  0
LINE
  5
AC
330
1F
100
AcDbEntity
  8
외형선
  6
Continuous
370
    15
100
AcDbLine
 10
-39.8
 20
6.351074928723889
 30
0.0
 11
-39.8
 21
-6.348925071276108
 31
0.0
  0
LINE
  5
AD
330
1F
100
AcDbEntity
  8
외형선
  6
Continuous
370
    15
100
AcDbLine
 10
7.969936745991708
 20
-6.348925071276105
 30
0.0
 11
7.969936745991605
 21
0.8372516802077843
 31
0.0
  0
LINE
  5
AE
330
1F
100
AcDbEntity
  8
외형선
  6
Continuous
370
    15
100
AcDbLine
 10
-40.79999999999998
 20
5.351074928723886
 30
0.0
 11
-40.79999999999998
 21
-5.348925071276105
 31
0.0
  0
LINE
  5
AF
330
1F
100
AcDbEntity
  8
외형선
  6
Continuous
370
    15
100
AcDbLine
 10
9.99999999999997
 20
1.532556898791671
 30
0.0
 11
9.638890556514994
 21
1.696832090301345
 31
0.0
  0
SPLINE
  5
B0
330
1F
100
AcDbEntity
  8
외형선
  6
Continuous
370
    15
100
AcDbSpline
210
0.0
220
0.0
230
1.0
 70
    24
 71
     3
 72
     8
 73
     4
 74
     0
 42
0.000000001
 43
0.00000001
 40
0.0
 40
0.0
 40
0.0
 40
0.0
 40
1.0
 40
1.0
 40
1.0
 40
1.0
 10
10.0
 20
1.532556898791657
 30
0.0
 10
10.0
 20
1.526292276297159
 30
0.0
 10
10.0
 20
1.492861017238989
 30
0.0
 10
10.0
 20
1.432545509726361
 30
0.0
  0
SPLINE
  5
B1
330
1F
100
AcDbEntity
  8
외형선
  6
Continuous
370
    15
100
AcDbSpline
210
0.0
220
0.0
230
1.0
 70
     8
 71
     3
 72
     8
 73
     4
 74
     0
 42
0.000000001
 43
0.00000001
 40
0.0
 40
0.0
 40
0.0
 40
0.0
 40
1.0
 40
1.0
 40
1.0
 40
1.0
 10
9.999999999999993
 20
5.058860986248002
 30
0.0
 10
9.326303149130627
 20
5.088003281377687
 30
0.0
 10
8.643852541428314
 20
5.088416038889334
 30
0.0
 10
7.96991257966214
 20
5.060078549780386
 30
0.0
  0
SPLINE
  5
B2
330
1F
100
AcDbEntity
  8
외형선
  6
Continuous
370
    15
100
AcDbSpline
210
0.0
220
0.0
230
1.0
 70
    24
 71
     3
 72
    14
 73
    10
 74
     0
 42
0.000000001
 43
0.00000001
 40
0.0
 40
0.0
 40
0.0
 40
0.0
 40
0.25
 40
0.25
 40
0.4999999999999999
 40
0.4999999999999999
 40
0.75
 40
0.75
 40
1.0
 40
1.0
 40
1.0
 40
1.0
 10
10.0
 20
5.058860986248003
 30
0.0
 10
10.0
 20
4.957066850839757
 30
0.0
 10
10.0
 20
4.801916756852126
 30
0.0
 10
10.0
 20
4.384541368183117
 30
0.0
 10
10.0
 20
4.122313127959014
 30
0.0
 10
10.0
 20
3.506004120016823
 30
0.0
 10
10.0
 20
3.152101323631486
 30
0.0
 10
10.0
 20
2.380936255071075
 30
0.0
 10
10.0
 20
1.963949626129483
 30
0.0
 10
10.0
 20
1.532556898791656
 30
0.0
  0
SPLINE
  5
B3
330
1F
100
AcDbEntity
  8
외형선
  6
Continuous
370
    15
100
AcDbSpline
210
0.0
220
0.0
230
1.0
 70
     8
 71
     3
 72
     8
 73
     4
 74
     0
 42
0.000000001
 43
0.00000001
 40
0.0
 40
0.0
 40
0.0
 40
0.0
 40
1.0
 40
1.0
 40
1.0
 40
1.0
 10
9.999999999999993
 20
-5.056711128800214
 30
0.0
 10
9.50138325475486
 20
-5.078279934306408
 30
0.0
 10
8.997970246262934
 20
-5.084172001982292
 30
0.0
 10
8.496762664188832
 20
-5.074224085962229
 30
0.0
  0
SPLINE
  5
B4
330
1F
100
AcDbEntity
  8
외형선
  6
Continuous
370
    15
100
AcDbSpline
210
0.0
220
0.0
230
1.0
 70
     8
 71
     3
 72
    16
 73
    12
 74
     0
 42
0.000000001
 43
0.00000001
 40
0.0
 40
0.0
 40
0.0
 40
0.0
 40
0.2898747919845986
 40
0.4432063897349034
 40
0.5743108280889132
 40
0.6995170226353699
 40
0.8025682350406668
 40
0.883575072031759
 40
0.9427575044457275
 40
0.9807001523122655
 40
1.0
 40
1.0
 40
1.0
 40
1.0
 10
8.252483503004122
 20
-5.240149820594573
 30
0.0
 10
8.274327539435832
 20
-5.223182500392138
 30
0.0
 10
8.30772615425796
 20
-5.197240179989207
 30
0.0
 10
8.35175931071035
 20
-5.164497719313959
 30
0.0
 10
8.383587496141045
 20
-5.141446970140871
 30
0.0
 10
8.412092952394808
 20
-5.121504056732895
 30
0.0
 10
8.437486450466938
 20
-5.104687897423993
 30
0.0
 10
8.45825226713602
 20
-5.091550486583801
 30
0.0
 10
8.474851357865575
 20
-5.082588763907461
 30
0.0
 10
8.486341365811219
 20
-5.076267705652787
 30
0.0
 10
8.494143747035356
 20
-5.074730204284177
 30
0.0
 10
8.496774393511707
 20
-5.074211821185282
 30
0.0
  0
SPLINE
  5
B5
330
1F
100
AcDbEntity
  8
외형선
  6
Continuous
370
    15
100
AcDbSpline
210
0.0
220
0.0
230
1.0
 70
    24
 71
     3
 72
    14
 73
    10
 74
     0
 42
0.000000001
 43
0.00000001
 40
0.0
 40
0.0
 40
0.0
 40
0.0
 40
0.2499999999999998
 40
0.2499999999999998
 40
0.4999999999999999
 40
0.4999999999999999
 40
0.75
 40
0.75
 40
1.0
 40
1.0
 40
1.0
 40
1.0
 10
10.0
 20
-0.4141586203824704
 30
0.0
 10
10.0
 20
-0.9501844461432875
 30
0.0
 10
10.0
 20
-1.482514727303804
 30
0.0
 10
10.0
 20
-2.484769014400475
 30
0.0
 10
10.0
 20
-2.954084433301946
 30
0.0
 10
10.0
 20
-3.77919986399023
 30
0.0
 10
10.0
 20
-4.134560219778963
 30
0.0
 10
10.0
 20
-4.702608896798836
 30
0.0
 10
10.0
 20
-4.915298496203297
 30
0.0
 10
10.0
 20
-5.056711128800215
 30
0.0
  0
SPLINE
  5
B6
330
1F
100
AcDbEntity
  8
외형선
  6
Continuous
370
    15
100
AcDbSpline
210
0.0
220
0.0
230
1.0
 70
     8
 71
     3
 72
    14
 73
    10
 74
     0
 42
0.000000001
 43
0.00000001
 40
0.0
 40
0.0
 40
0.0
 40
0.0
 40
0.2500000000000002
 40
0.2500000000000002
 40
0.5000000000000003
 40
0.5000000000000003
 40
0.7500000000000001
 40
0.7500000000000001
 40
1.0
 40
1.0
 40
1.0
 40
1.0
 10
8.252490142480017
 20
-5.240150517678284
 30
0.0
 10
8.223588653250811
 20
-5.262825893858126
 30
0.0
 10
8.193094175766033
 20
-5.287916766194142
 30
0.0
 10
8.12533566765383
 20
-5.348983414349541
 30
0.0
 10
8.086444300688648
 20
-5.386821275219207
 30
0.0
 10
8.018662863350281
 20
-5.464570163425512
 30
0.0
 10
7.995797533113537
 20
-5.498156138211191
 30
0.0
 10
7.973101224579104
 20
-5.540615375100701
 30
0.0
 10
7.969936745991697
 20
-5.553370752286888
 30
0.0
 10
7.969936745991697
 20
-5.562194388400218
 30
0.0
  0
SPLINE
  5
B7
330
1F
100
AcDbEntity
  8
0
  6
Continuous
 62
     1
370
    15
100
AcDbSpline
210
0.0
220
0.0
230
1.0
 70
     8
 71
     3
 72
    31
 73
    27
 74
     0
 42
0.000000001
 43
0.00000001
 40
0.0
 40
0.0
 40
0.0
 40
0.0
 40
0.0072137383838166
 40
0.0497497570126708
 40
0.091969658139036
 40
0.1344826732688283
 40
0.1766907055161209
 40
0.2191917809453019
 40
0.261399769749953
 40
0.3036078071639495
 40
0.3458045616248569
 40
0.3882945518744811
 40
0.4304912075279979
 40
0.4729802035463311
 40
0.515176912103162
 40
0.5576664813820014
 40
0.5998631550858726
 40
0.6420598080273497
 40
0.6842564443721119
 40
0.7267452910272951
 40
0.7689420133619175
 40
0.8114318443775772
 40
0.8575871340189302
 40
0.903742427892865
 40
0.9516566002307835
 40
1.0
 40
1.0
 40
1.0
 40
1.0
 10
17.52133686428386
 20
4.257704496172686
 30
0.0
 10
17.62539031637692
 20
4.304755121755435
 30
0.0
 10
18.34299798143624
 20
4.629241132405213
 30
0.0
 10
19.66968825261709
 20
5.115181278256943
 30
0.0
 10
21.50610232162948
 20
5.684049125128648
 30
0.0
 10
23.3374376018949
 20
6.084213488398042
 30
0.0
 10
25.17252601361975
 20
6.319302198592069
 30
0.0
 10
27.00323079114592
 20
6.37808210816047
 30
0.0
 10
28.83404154285253
 20
6.260420537333577
 30
0.0
 10
30.66103571337138
 20
5.971085592048443
 30
0.0
 10
32.49161253428586
 20
5.516386687829979
 30
0.0
 10
34.3218375734232
 20
4.908829305409109
 30
0.0
 10
36.15624337629812
 20
4.163724565464819
 30
0.0
 10
37.98663205846589
 20
3.305302295047986
 30
0.0
 10
39.8217360691452
 20
2.354200291664383
 30
0.0
 10
41.65210828225777
 20
1.339315569426382
 30
0.0
 10
43.48229529179878
 20
0.2871639257830806
 30
0.0
 10
45.3082666704323
 20
-0.7704257569522306
 30
0.0
 10
47.13871344166041
 20
-1.808712264273967
 30
0.0
 10
48.96957222462871
 20
-2.796383766731363
 30
0.0
 10
50.80410915101241
 20
-3.709684771391591
 30
0.0
 10
52.69135356064166
 20
-4.543375241012034
 30
0.0
 10
54.63603986402714
 20
-5.264016922021053
 30
0.0
 10
56.65895392437851
 20
-5.833970781090636
 30
0.0
 10
58.71364592682416
 20
-6.22785908633577
 30
0.0
 10
60.10248429377138
 20
-6.30487731536184
 30
0.0
 10
60.80000000000001
 20
-6.348925071276098
 30
0.0
  0
SPLINE
  5
B8
330
1F
100
AcDbEntity
  8
0
  6
Continuous
 62
     1
370
    15
100
AcDbSpline
210
0.0
220
0.0
230
1.0
 70
     8
 71
     3
 72
    17
 73
    13
 74
     0
 42
0.000000001
 43
0.00000001
 40
0.0
 40
0.0
 40
0.0
 40
0.0
 40
0.0866991351753393
 40
0.1908213684429425
 40
0.2949423105899186
 40
0.3990625330645872
 40
0.5031826076199079
 40
0.607303106071461
 40
0.711424600055378
 40
0.8155476607864269
 40
0.9196728588164789
 40
0.9999999999999999
 40
0.9999999999999999
 40
0.9999999999999999
 40
0.9999999999999999
 10
45.02205914813676
 20
-0.6017917188782745
 30
0.0
 10
44.41115909924058
 20
-0.3560099352979767
 30
0.0
 10
43.06659224656693
 20
0.1849460521670508
 30
0.0
 10
40.98837290125776
 20
1.023621632755391
 30
0.0
 10
38.78740356997584
 20
1.868806072934325
 30
0.0
 10
36.58645116002278
 20
2.639998364205648
 30
0.0
 10
34.38550216571133
 20
3.305794883587889
 30
0.0
 10
32.18454328145319
 20
3.839317864857476
 30
0.0
 10
29.98356123821742
 20
4.221095386007032
 30
0.0
 10
27.78254244633015
 20
4.428884391453296
 30
0.0
 10
25.74917978520447
 20
4.476630052252237
 30
0.0
 10
24.44948533991853
 20
4.373316945456214
 30
0.0
 10
23.88348146245596
 20
4.328325125070011
 30
0.0
  0
SPLINE
  5
B9
330
1F
100
AcDbEntity
  8
0
  6
Continuous
 62
     1
370
    15
100
AcDbSpline
210
0.0
220
0.0
230
1.0
 70
     8
 71
     3
 72
    20
 73
    16
 74
     0
 42
0.000000001
 43
0.00000001
 40
0.0
 40
0.0
 40
0.0
 40
0.0
 40
0.0175466629790493
 40
0.0988805356139179
 40
0.1802147125532024
 40
0.2615496042906985
 40
0.3428856210241509
 40
0.4242231724855247
 40
0.5055626677716889
 40
0.5869045151756621
 40
0.6695207126441372
 40
0.7521382417694302
 40
0.8347572207766036
 40
0.9173777676275835
 40
1.0
 40
1.0
 40
1.0
 40
1.0
 10
37.06125120483179
 20
-4.989940247852373
 30
0.0
 10
36.90297646920015
 20
-5.051179383019386
 30
0.0
 10
36.01105242346605
 20
-5.396279673204339
 30
0.0
 10
34.38547735230759
 20
-5.828147262894022
 30
0.0
 10
32.18451675592941
 20
-6.241716118081961
 30
0.0
 10
29.98353313228757
 20
-6.389592073532043
 30
0.0
 10
27.78251272365956
 20
-6.28677573445581
 30
0.0
 10
25.58144332430437
 20
-5.931763352164529
 30
0.0
 10
23.38030770193427
 20
-5.340224815013189
 30
0.0
 10
21.16763711123794
 20
-4.531156600447547
 30
0.0
 10
18.94337893152634
 20
-3.533531424232889
 30
0.0
 10
16.70760744109983
 20
-2.384890043475416
 30
0.0
 10
14.47178485330855
 20
-1.139124491616839
 30
0.0
 10
12.23591308738014
 20
0.1578373091650117
 30
0.0
 10
10.74530943064805
 20
1.007639886797817
 30
0.0
 10
10.0
 20
1.432545509723305
 30
0.0
  0
SPLINE
  5
BA
330
1F
100
AcDbEntity
  8
외형선
  6
Continuous
370
    15
100
AcDbSpline
210
0.0
220
0.0
230
1.0
 70
    24
 71
     3
 72
     8
 73
     4
 74
     0
 42
0.000000001
 43
0.00000001
 40
0.0
 40
0.0
 40
0.0
 40
0.0
 40
1.0
 40
1.0
 40
1.0
 40
1.0
 10
10.0
 20
1.532556898791657
 30
0.0
 10
10.0
 20
1.526292276297159
 30
0.0
 10
10.0
 20
1.492861017238989
 30
0.0
 10
10.0
 20
1.432545509726362
 30
0.0
  0
SPLINE
  5
BB
330
1F
100
AcDbEntity
  8
0
  6
Continuous
 62
     1
370
    15
100
AcDbSpline
210
0.0
220
0.0
230
1.0
 70
     8
 71
     3
 72
    18
 73
    14
 74
     0
 42
0.000000001
 43
0.00000001
 40
0.0
 40
0.0
 40
0.0
 40
0.0
 40
0.0228861257679626
 40
0.1198298363310716
 40
0.2167749478058195
 40
0.3137219704048465
 40
0.4106714135408007
 40
0.5076237856137762
 40
0.6045795937996499
 40
0.701539343839511
 40
0.7985035398303608
 40
0.8992517074467076
 40
1.0
 40
1.0
 40
1.0
 40
1.0
 10
32.70412148262932
 20
-5.263601864692157
 30
0.0
 10
32.53092186899062
 20
-5.286714032698304
 30
0.0
 10
31.6240632086233
 20
-5.407727407242875
 30
0.0
 10
29.98353228897512
 20
-5.417137147044914
 30
0.0
 10
27.78251196776784
 20
-5.277512056374527
 30
0.0
 10
25.5814416153684
 20
-4.910002908297789
 30
0.0
 10
23.38030823279366
 20
-4.351041390118008
 30
0.0
 10
21.1790983516242
 20
-3.61707387504056
 30
0.0
 10
18.97779932560111
 20
-2.739070467365031
 30
0.0
 10
16.7763958870927
 20
-1.75123228309335
 30
0.0
 10
14.54628256928093
 20
-0.680965600428102
 30
0.0
 10
12.28745577358392
 20
0.4369777578044492
 30
0.0
 10
10.76248557304485
 20
1.167363700838458
 30
0.0
 10
9.99999999999997
 20
1.532556898791671
 30
0.0
  0
SPLINE
  5
BC
330
1F
100
AcDbEntity
  8
0
  6
Continuous
 62
     1
370
    15
100
AcDbSpline
210
0.0
220
0.0
230
1.0
 70
     8
 71
     3
 72
    22
 73
    18
 74
     0
 42
0.000000001
 43
0.00000001
 40
0.0
 40
0.0
 40
0.0
 40
0.0
 40
0.0709696638677264
 40
0.1419356795583357
 40
0.2128983982503388
 40
0.2838581724789243
 40
0.3548153559925646
 40
0.4257703036085578
 40
0.4967233710676216
 40
0.5676749148876802
 40
0.6386252922169593
 40
0.7095748606865262
 40
0.7805239782624007
 40
0.8514730030973744
 40
0.9224222933826565
 40
0.9933722071994934
 40
1.0
 40
1.0
 40
1.0
 40
1.0
 10
60.80000000000001
 20
-6.024699590898672
 30
0.0
 10
60.06609321874545
 20
-5.867751533850983
 30
0.0
 10
58.59831738252363
 20
-5.55386348762967
 30
0.0
 10
56.39673580691479
 20
-4.79677075938945
 30
0.0
 10
54.19527514873755
 20
-3.865410333132641
 30
0.0
 10
51.99392454724415
 20
-2.775072729449041
 30
0.0
 10
49.79267023861614
 20
-1.575160912816043
 30
0.0
 10
47.59149918271547
 20
-0.3120037637691664
 30
0.0
 10
45.39039809801781
 20
0.9635393168975314
 30
0.0
 10
43.18935372928428
 20
2.200710274719699
 30
0.0
 10
40.98835277602318
 20
3.349921804909331
 30
0.0
 10
38.78738194528134
 20
4.365957420524674
 30
0.0
 10
36.58642784644749
 20
5.205845143456324
 30
0.0
 10
34.38547739377952
 20
5.845071653489647
 30
0.0
 10
32.18451633609708
 20
6.224491898642158
 30
0.0
 10
30.64866935579993
 20
6.384967016363948
 30
0.0
 10
29.84647199383474
 20
6.343845335508992
 30
0.0
 10
29.77793686780371
 20
6.340332135748403
 30
0.0
  0
SPLINE
  5
BD
330
1F
100
AcDbEntity
  8
0
  6
Continuous
 62
     1
370
    15
100
AcDbSpline
210
0.0
220
0.0
230
1.0
 70
     8
 71
     3
 72
    15
 73
    11
 74
     0
 42
0.000000001
 43
0.00000001
 40
0.0
 40
0.0
 40
0.0
 40
0.0
 40
0.1335331507287146
 40
0.2670591306175272
 40
0.4005786298403529
 40
0.5340923412686019
 40
0.6676009601861126
 40
0.8011051840019444
 40
0.934605711961288
 40
1.0
 40
1.0
 40
1.0
 40
1.0
 10
60.8
 20
-5.008898950014278
 30
0.0
 10
60.06609358198581
 20
-4.855535775688681
 30
0.0
 10
58.59832015733505
 20
-4.548817662765948
 30
0.0
 10
56.39673802715437
 20
-3.853491109955896
 30
0.0
 10
54.19527720410565
 20
-3.018577529554232
 30
0.0
 10
51.99392635503
 20
-2.059525647600601
 30
0.0
 10
49.79267173342606
 20
-1.018315713250121
 30
0.0
 10
47.59150070302975
 20
0.060349847847214
 30
0.0
 10
45.76468388683057
 20
0.9644090487843308
 30
0.0
 10
44.67159138617686
 20
1.470365166938821
 30
0.0
 10
44.3121953632991
 20
1.636717617903992
 30
0.0
  0
LINE
  5
BE
330
1F
100
AcDbEntity
  8
0
  6
Continuous
 62
     1
370
    15
100
AcDbLine
 10
60.79999999999971
 20
-6.024699590898677
 30
0.0
 11
60.8
 21
-5.008898950014278
 31
0.0
  0
LINE
  5
BF
330
1F
100
AcDbEntity
  8
0
  6
Continuous
 62
     1
370
    15
100
AcDbLine
 10
60.80000000000001
 20
-6.348925071276098
 30
0.0
 11
60.79999999999966
 21
-6.024699590898657
 31
0.0
  0
SPLINE
  5
C0
330
1F
100
AcDbEntity
  8
0
  6
Continuous
 62
     1
370
    15
100
AcDbSpline
210
0.0
220
0.0
230
1.0
 70
     8
 71
     3
 72
    16
 73
    12
 74
     0
 42
0.000000001
 43
0.00000001
 40
0.0
 40
0.0
 40
0.0
 40
0.0
 40
0.1195399862053225
 40
0.2400738252735845
 40
0.3596134065176944
 40
0.4690907835595557
 40
0.5793285109342994
 40
0.6887469779226434
 40
0.7989250886821043
 40
0.9083127958979635
 40
1.0
 40
1.0
 40
1.0
 40
1.0
 10
10.0
 20
-0.331736501603708
 30
0.0
 10
10.66548565552336
 20
-0.7142603007839565
 30
0.0
 10
12.00198979993388
 20
-1.482488193747339
 30
0.0
 10
14.00378886546293
 20
-2.581679159555479
 30
0.0
 10
15.94958028697993
 20
-3.567735131968793
 30
0.0
 10
17.8376958380892
 20
-4.417703915086529
 30
0.0
 10
19.66968827267817
 20
-5.119299965358999
 30
0.0
 10
21.50610195224969
 20
-5.680980984269491
 30
0.0
 10
23.33743906757598
 20
-6.07941826541136
 30
0.0
 10
25.06977804980295
 20
-6.314626893667262
 30
0.0
 10
26.18892686265885
 20
-6.329681398412792
 30
0.0
 10
26.69924227173863
 20
-6.336546031301161
 30
0.0
  0
SPLINE
  5
C1
330
1F
100
AcDbEntity
  8
0
  6
Continuous
 62
     1
370
    15
100
AcDbSpline
210
0.0
220
0.0
230
1.0
 70
     8
 71
     3
 72
    14
 73
    10
 74
     0
 42
0.000000001
 43
0.00000001
 40
0.0
 40
0.0
 40
0.0
 40
0.0
 40
0.0636394260391681
 40
0.2927969883052186
 40
0.521954571585721
 40
0.6408006515697899
 40
0.7599108800509213
 40
0.8798197359902377
 40
1.0
 40
1.0
 40
1.0
 40
1.0
 10
52.08386433818356
 20
4.257358603382286
 30
0.0
 10
52.26875209851693
 20
4.33987486216769
 30
0.0
 10
53.11939741022645
 20
4.719521781731516
 30
0.0
 10
54.63609675561429
 20
5.259375072658839
 30
0.0
 10
56.31290784087805
 20
5.741577899489464
 30
0.0
 10
57.6706845897471
 20
6.026031736526292
 30
0.0
 10
58.70958793158383
 20
6.190945958613378
 30
0.0
 10
59.75356861926728
 20
6.304198646832806
 30
0.0
 10
60.45092676423778
 20
6.331861128907334
 30
0.0
 10
60.80000000000001
 20
6.351074928723903
 30
0.0
  0
SPLINE
  5
C2
330
1F
100
AcDbEntity
  8
0
  6
Continuous
 62
     1
370
    15
100
AcDbSpline
210
0.0
220
0.0
230
1.0
 70
    24
 71
     3
 72
    10
 73
     6
 74
     0
 42
0.000000001
 43
0.00000001
 40
0.0
 40
0.0
 40
0.0
 40
0.0
 40
0.5
 40
0.5
 40
1.0
 40
1.0
 40
1.0
 40
1.0
 10
60.8
 20
4.446074928723894
 30
0.0
 10
60.8
 20
4.715519759450338
 30
0.0
 10
60.80000000000001
 20
5.028639606030089
 30
0.0
 10
60.79999999999998
 20
5.685564200825331
 30
0.0
 10
60.8
 20
6.027691246063249
 30
0.0
 10
60.80000000000001
 20
6.351074928723903
 30
0.0
  0
SPLINE
  5
C3
330
1F
100
AcDbEntity
  8
0
  6
Continuous
 62
     1
370
    15
100
AcDbSpline
210
0.0
220
0.0
230
1.0
 70
     8
 71
     3
 72
     9
 73
     5
 74
     0
 42
0.000000001
 43
0.00000001
 40
0.0
 40
0.0
 40
0.0
 40
0.0
 40
0.9323656110908264
 40
1.0
 40
1.0
 40
1.0
 40
1.0
 10
60.8
 20
4.446074928723894
 30
0.0
 10
60.06609356825275
 20
4.443524907105722
 30
0.0
 10
59.27894910151441
 20
4.440789905312607
 30
0.0
 10
58.49181143586605
 20
4.34477446292383
 30
0.0
 10
58.43857386086253
 20
4.338280517152022
 30
0.0
  0
LINE
  5
C4
330
1F
100
AcDbEntity
  8
0
  6
Continuous
 62
     1
370
    15
100
AcDbLine
 10
10.4710546204084
 20
-0.600491206167432
 30
0.0
 11
10.0
 21
-0.4141586203824704
 31
0.0
  0
SPLINE
  5
C5
330
1F
100
AcDbEntity
  8
외형선
  6
Continuous
370
    15
100
AcDbSpline
210
0.0
220
0.0
230
1.0
 70
    24
 71
     3
 72
    11
 73
     7
 74
     0
 42
0.000000001
 43
0.00000001
 40
0.0
 40
0.0
 40
0.0
 40
0.0
 40
0.287890420396779
 40
0.6856096303781184
 40
0.8424458313012656
 40
1.0
 40
1.0
 40
1.0
 40
1.0
 10
10.0
 20
-0.189548300730292
 30
0.0
 10
10.0
 20
-0.1905977281839007
 30
0.0
 10
10.0
 20
-0.1930969345402139
 30
0.0
 10
10.0
 20
-0.2633168948765179
 30
0.0
 10
10.00000000000001
 20
-0.3455424048160752
 30
0.0
 10
10.0
 20
-0.3912517533142103
 30
0.0
 10
9.999999999999996
 20
-0.4141586203821994
 30
0.0
  0
SPLINE
  5
C6
330
1F
100
AcDbEntity
  8
0
  6
Continuous
 62
     1
370
    15
100
AcDbSpline
210
0.0
220
0.0
230
1.0
 70
     8
 71
     3
 72
     8
 73
     4
 74
     0
 42
0.000000001
 43
0.00000001
 40
0.0
 40
0.0
 40
0.0
 40
0.0
 40
1.0
 40
1.0
 40
1.0
 40
1.0
 10
56.87110935627962
 20
1.777092003176266
 30
0.0
 10
56.64595661831267
 20
2.043794274149769
 30
0.0
 10
56.44437534697937
 20
2.30112585499942
 30
0.0
 10
56.2724705694512
 20
2.546659730100332
 30
0.0
  0
LINE
  5
C7
330
1F
100
AcDbEntity
  8
0
  6
Continuous
 62
     1
370
    15
100
AcDbLine
 10
56.35275512375334
 20
2.614026470018502
 30
0.0
 11
60.8
 21
0.0010749287239004
 31
0.0
  0
LINE
  5
C8
330
1F
100
AcDbEntity
  8
0
  6
Continuous
 62
     1
370
    15
100
AcDbLine
 10
60.8
 20
0.0010749287239004
 30
0.0
 11
60.8
 21
-1.695917778564344
 31
0.0
  0
SPLINE
  5
C9
330
1F
100
AcDbEntity
  8
0
  6
Continuous
 62
     1
370
    15
100
AcDbSpline
210
0.0
220
0.0
230
1.0
 70
     8
 71
     3
 72
    12
 73
     8
 74
     0
 42
0.000000001
 43
0.00000001
 40
0.0
 40
0.0
 40
0.0
 40
0.0
 40
0.4999999999999984
 40
0.4999999999999984
 40
0.7499999999999992
 40
0.7499999999999992
 40
1.0
 40
1.0
 40
1.0
 40
1.0
 10
60.8
 20
-1.695917778564344
 30
0.0
 10
60.11989727265293
 20
-1.161243275850353
 30
0.0
 10
59.45115445793657
 20
-0.604648568869871
 30
0.0
 10
58.46552321729129
 20
0.2639788324061199
 30
0.0
 10
58.13994021316178
 20
0.5592343791685573
 30
0.0
 10
57.49542402705683
 20
1.162577037925875
 30
0.0
 10
57.17824347731785
 20
1.46910733316493
 30
0.0
 10
56.87110935627955
 20
1.777092003176306
 30
0.0
  0
SPLINE
  5
CA
330
1F
100
AcDbEntity
  8
0
  6
Continuous
 62
     1
370
    15
100
AcDbSpline
210
0.0
220
0.0
230
1.0
 70
     8
 71
     3
 72
    15
 73
    11
 74
     0
 42
0.000000001
 43
0.00000001
 40
0.0
 40
0.0
 40
0.0
 40
0.0
 40
0.0913738622896005
 40
0.1830109835583066
 40
0.333539709006794
 40
0.4840626125366172
 40
0.6345804914522624
 40
0.7850941451648625
 40
0.9356043748586426
 40
1.0
 40
1.0
 40
1.0
 40
1.0
 10
56.87110935619778
 20
1.777092003211654
 30
0.0
 10
56.42590472995896
 20
1.967532330423363
 30
0.0
 10
55.53421278993304
 20
2.348961666109301
 30
0.0
 10
53.9081126181309
 20
2.9914633805755
 30
0.0
 10
51.99395307074431
 20
3.672190315195637
 30
0.0
 10
49.79267596080821
 20
4.305765424945677
 30
0.0
 10
47.5915127867937
 20
4.771164089480778
 30
0.0
 10
45.3904115908886
 20
5.0340881365452
 30
0.0
 10
43.6091313588817
 20
5.120277919405418
 30
0.0
 10
42.56155026460087
 20
5.044866536868752
 30
0.0
 10
42.2476470463557
 20
5.022269836909376
 30
0.0
  0
SPLINE
  5
CB
330
1F
100
AcDbEntity
  8
0
  6
Continuous
 62
     1
370
    15
100
AcDbSpline
210
0.0
220
0.0
230
1.0
 70
     8
 71
     3
 72
     9
 73
     5
 74
     0
 42
0.000000001
 43
0.00000001
 40
0.0
 40
0.0
 40
0.0
 40
0.0
 40
0.184175386056887
 40
1.0
 40
1.0
 40
1.0
 40
1.0
 10
12.80388289898601
 20
-4.755810516670599
 30
0.0
 10
12.63174751984317
 20
-4.788566878252878
 30
0.0
 10
11.69712002792805
 20
-4.966421054555034
 30
0.0
 10
10.76249230292838
 20
-5.016145060690799
 30
0.0
 10
10.0
 20
-5.056711128800215
 30
0.0
  0
SPLINE
  5
CC
330
1F
100
AcDbEntity
  8
0
  6
Continuous
 62
     1
370
    15
100
AcDbSpline
210
0.0
220
0.0
230
1.0
 70
    24
 71
     3
 72
    10
 73
     6
 74
     0
 42
0.000000001
 43
0.00000001
 40
0.0
 40
0.0
 40
0.0
 40
0.0
 40
0.5000000000000001
 40
0.5000000000000001
 40
1.0
 40
1.0
 40
1.0
 40
1.0
 10
60.8
 20
-5.008898950014276
 30
0.0
 10
60.8
 20
-4.624845391450267
 30
0.0
 10
60.80000000000001
 20
-4.139578994082179
 30
0.0
 10
60.80000000000001
 20
-3.011381321882921
 30
0.0
 10
60.80000000000001
 20
-2.369427334651919
 30
0.0
 10
60.80000000000001
 20
-1.695917778564549
 30
0.0
  0
SPLINE
  5
CD
330
1F
100
AcDbEntity
  8
0
  6
Continuous
 62
     1
370
    15
100
AcDbSpline
210
0.0
220
0.0
230
1.0
 70
     8
 71
     3
 72
    24
 73
    20
 74
     0
 42
0.000000001
 43
0.00000001
 40
0.0
 40
0.0
 40
0.0
 40
0.0
 40
0.0524945005367067
 40
0.111423278072922
 40
0.1703510292622918
 40
0.2292780687841335
 40
0.2882047116169439
 40
0.3471312729060319
 40
0.4060580678310006
 40
0.464985411473199
 40
0.5239136186832609
 40
0.5828430039488506
 40
0.6417738812627339
 40
0.7007065639912875
 40
0.7596413647435694
 40
0.8185785952410639
 40
0.8775185661882138
 40
0.9387592446791927
 40
1.0
 40
1.0
 40
1.0
 40
1.0
 10
47.35111578109911
 20
-4.764824800864458
 30
0.0
 10
46.69754218118429
 20
-4.856983104481029
 30
0.0
 10
45.31028614064897
 20
-5.052595600754187
 30
0.0
 10
43.18936899517634
 20
-5.107619660636511
 30
0.0
 10
40.9883693243638
 20
-4.97853311760557
 30
0.0
 10
38.78739995775092
 20
-4.645911424035758
 30
0.0
 10
36.58644732030318
 20
-4.129063090013746
 30
0.0
 10
34.38549814670672
 20
-3.447004239281649
 30
0.0
 10
32.18453908543684
 20
-2.627393137420968
 30
0.0
 10
29.98355681112975
 20
-1.702828587257848
 30
0.0
 10
27.78253800567694
 20
-0.710248217215644
 30
0.0
 10
25.58146935610838
 20
0.3107429165922072
 30
0.0
 10
23.38033761654387
 20
1.31936084308972
 30
0.0
 10
21.17912939698688
 20
2.275439179577874
 30
0.0
 10
18.97783198060758
 20
3.140447043515904
 30
0.0
 10
16.77643029988262
 20
3.881197559034794
 30
0.0
 10
14.54631111006972
 20
4.470635276419953
 30
0.0
 10
12.28747428176876
 20
4.896802082328097
 30
0.0
 10
10.76249174611858
 20
5.004841329017843
 30
0.0
 10
10.0
 20
5.058860986248003
 30
0.0
  0
SPLINE
  5
CE
330
1F
100
AcDbEntity
  8
외형선
  6
Continuous
370
    15
100
AcDbSpline
210
0.0
220
0.0
230
1.0
 70
    24
 71
     3
 72
    14
 73
    10
 74
     0
 42
0.000000001
 43
0.00000001
 40
0.0
 40
0.0
 40
0.0
 40
0.0
 40
0.25
 40
0.25
 40
0.4999999999999999
 40
0.4999999999999999
 40
0.75
 40
0.75
 40
1.0
 40
1.0
 40
1.0
 40
1.0
 10
10.0
 20
5.058860986248003
 30
0.0
 10
10.0
 20
4.957066850839757
 30
0.0
 10
10.0
 20
4.801916756852126
 30
0.0
 10
10.0
 20
4.384541368183117
 30
0.0
 10
10.0
 20
4.122313127959014
 30
0.0
 10
10.0
 20
3.506004120016823
 30
0.0
 10
10.0
 20
3.152101323631486
 30
0.0
 10
10.0
 20
2.380936255071075
 30
0.0
 10
10.0
 20
1.963949626129483
 30
0.0
 10
10.0
 20
1.532556898791656
 30
0.0
  0
SPLINE
  5
CF
330
1F
100
AcDbEntity
  8
0
  6
Continuous
 62
     1
370
    15
100
AcDbSpline
210
0.0
220
0.0
230
1.0
 70
    24
 71
     3
 72
     8
 73
     4
 74
     0
 42
0.000000001
 43
0.00000001
 40
0.0
 40
0.0
 40
0.0
 40
0.0
 40
1.0
 40
1.0
 40
1.0
 40
1.0
 10
56.93479688430327
 20
3.102417496625335
 30
0.0
 10
56.72520081076365
 20
2.92654550862204
 30
0.0
 10
56.5037078459838
 20
2.740690843567299
 30
0.0
 10
56.27247056944506
 20
2.546659730109196
 30
0.0
  0
SPLINE
  5
D0
330
1F
100
AcDbEntity
  8
0
  6
Continuous
 62
     1
370
    15
100
AcDbSpline
210
0.0
220
0.0
230
1.0
 70
     8
 71
     3
 72
    10
 73
     6
 74
     0
 42
0.000000001
 43
0.00000001
 40
0.0
 40
0.0
 40
0.0
 40
0.0
 40
0.5
 40
0.5
 40
1.0
 40
1.0
 40
1.0
 40
1.0
 10
60.8
 20
4.446074928723899
 30
0.0
 10
60.14677884300198
 20
4.26891198533295
 30
0.0
 10
59.49755500543647
 20
4.070012801638525
 30
0.0
 10
58.20780659456467
 20
3.624910409240848
 30
0.0
 10
57.5672486386167
 20
3.379220870975143
 30
0.0
 10
56.93479688431502
 20
3.102417496630787
 30
0.0
  0
SPLINE
  5
D1
330
1F
100
AcDbEntity
  8
외형선
  6
Continuous
370
    15
100
AcDbSpline
210
0.0
220
0.0
230
1.0
 70
    24
 71
     3
 72
    14
 73
    10
 74
     0
 42
0.000000001
 43
0.00000001
 40
0.0
 40
0.0
 40
0.0
 40
0.0
 40
0.25
 40
0.25
 40
0.5
 40
0.5
 40
0.75
 40
0.75
 40
1.0
 40
1.0
 40
1.0
 40
1.0
 10
10.0
 20
-0.4141586203824704
 30
0.0
 10
10.0
 20
-0.9501844461432869
 30
0.0
 10
10.0
 20
-1.482514727303805
 30
0.0
 10
10.0
 20
-2.484769014400474
 30
0.0
 10
10.0
 20
-2.954084433301946
 30
0.0
 10
10.0
 20
-3.779199863990229
 30
0.0
 10
10.0
 20
-4.13456021977896
 30
0.0
 10
10.0
 20
-4.702608896798836
 30
0.0
 10
10.0
 20
-4.915298496203297
 30
0.0
 10
10.0
 20
-5.056711128800215
 30
0.0
  0
LINE
  5
D2
330
1F
100
AcDbEntity
  8
0
  6
Continuous
 62
     1
370
    15
100
AcDbLine
 10
60.8
 20
0.0010749287239004
 30
0.0
 11
60.8
 21
4.446074928723898
 31
0.0
  0
LINE
  5
D3
330
1F
100
AcDbEntity
  8
중심선
 48
0.8
100
AcDbLine
 10
-43.79999999999998
 20
0.0010749287238888
 30
0.0
 11
63.8
 21
0.001074928723902
 31
0.0
  0
LINE
  5
D4
330
1F
100
AcDbEntity
  8
참조1
100
AcDbLine
 10
14.84926131403117
 20
0.0010749287238892
 30
0.0
 11
14.84926131403117
 21
-39.99892507127611
 31
0.0
  0
LINE
  5
D5
330
1F
100
AcDbEntity
  8
참조1
100
AcDbLine
 10
14.84926131403117
 20
-39.99892507127611
 30
0.0
 11
-20.15080122126847
 21
-39.9989250712761
 31
0.0
  0
CIRCLE
  5
D6
330
1F
100
AcDbEntity
  8
해칭선
100
AcDbCircle
 10
0.0
 20
0.0
 30
0.0
 40
2.999999999999995
  0
INSERT
  5
D7
330
1F
100
AcDbEntity
  8
0
  6
Continuous
 62
     7
100
AcDbBlockReference
 66
     1
  2
블럭10
 10
-3.940272932125199
 20
-52.04609937292004
 30
0.0
  0
ATTRIB
  5
D8
330
D7
100
AcDbEntity
  8
FORMAT
 62
     2
100
AcDbText
 10
-13.12156822086648
 20
-49.97073246008785
 30
0.0
 40
4.233333333333333
  1
E2080032 [ 2 FLUTE ]
 41
0.75
  7
SLDTEXTSTYLE0
 11
-13.12156822086648
 21
-52.08739912675452
 31
0.0
100
AcDbAttribute
  2
AUTOATTR0
 70
     0
 74
     1
  0
SEQEND
  5
D9
330
D7
100
AcDbEntity
  8
0
  6
Continuous
 62
     7
  0
HATCH
  5
DA
330
1F
100
AcDbEntity
  8
중심선
100
AcDbHatch
 10
0.0
 20
0.0
 30
0.0
210
0.0
220
0.0
230
1.0
  2
SOLID
 70
     1
 71
     0
 91
        1
 92
        0
 93
        4
 72
     1
 10
1.774636372255658
 20
-35.7989250712761
 11
-1.671638871581623
 21
-35.7989250712761
 72
     1
 10
-1.671638871581623
 20
-35.7989250712761
 11
-3.799868730785646
 21
-38.3352506518487
 72
     1
 10
-3.799868730785646
 20
-38.3352506518487
 11
-0.3535604018352148
 21
-38.33521122254621
 72
     1
 10
-0.3535604018352148
 20
-38.33521122254621
 11
1.774636372255658
 21
-35.7989250712761
 97
        0
 75
     0
 76
     1
 98
        1
 10
-4.849261314031164
 20
0.0
  0
HATCH
  5
DB
330
1F
100
AcDbEntity
  8
중심선
100
AcDbHatch
 10
0.0
 20
0.0
 30
0.0
210
0.0
220
0.0
230
1.0
  2
SOLID
 70
     1
 71
     0
 91
        1
 92
        0
 93
        4
 72
     1
 10
6.787400363291638
 20
-35.79892507127608
 11
3.341125119454356
 21
-35.7989250712761
 72
     1
 10
3.341125119454356
 20
-35.7989250712761
 11
-1.190012888903061
 21
-41.19892507127612
 72
     1
 10
-1.190012888903061
 20
-41.19892507127612
 11
2.256262354934222
 21
-41.19892507127612
 72
     1
 10
2.256262354934222
 20
-41.19892507127612
 11
6.787400363291638
 21
-35.79892507127608
 97
        0
 75
     0
 76
     1
 98
        1
 10
-4.849261314031164
 20
0.0
  0
HATCH
  5
DC
330
1F
100
AcDbEntity
  8
중심선
100
AcDbHatch
 10
0.0
 20
0.0
 30
0.0
210
0.0
220
0.0
230
1.0
  2
SOLID
 70
     1
 71
     0
 91
        1
 92
        0
 93
        4
 72
     1
 10
11.80016435432751
 20
-35.7989250712761
 11
8.353889110490389
 21
-35.7989250712761
 72
     1
 10
8.353889110490389
 20
-35.7989250712761
 11
1.305452208601141
 21
-44.19892507127612
 72
     1
 10
1.305452208601141
 20
-44.19892507127612
 11
4.751727452438423
 21
-44.19892507127612
 72
     1
 10
4.751727452438423
 20
-44.19892507127612
 11
11.80016435432751
 21
-35.7989250712761
 97
        0
 75
     0
 76
     1
 98
        1
 10
-4.849261314031164
 20
0.0
  0
HATCH
  5
DD
330
1F
100
AcDbEntity
  8
중심선
100
AcDbHatch
 10
0.0
 20
0.0
 30
0.0
210
0.0
220
0.0
230
1.0
  2
SOLID
 70
     1
 71
     0
 91
        1
 92
        0
 93
        6
 72
     3
 10
16.6000547853397
 20
-39.99892507132738
 11
3.960054785062283
 21
1.540882976769353E-10
 40
0.3939339440162628
 50
17.09539180608436
 51
320.0019657685075
 73
     0
 72
     1
 10
18.28305444104027
 20
-38.58681907591441
 11
20.58835631474136
 21
-36.65249236586649
 72
     3
 10
16.60005478528686
 20
-39.99892507127625
 11
6.600054785286829
 21
-1.278976924368180E-13
 40
0.636358354079598
 50
39.99873849337385
 51
368.4976242363724
 73
     1
 72
     1
 10
23.02538727718747
 20
-39.03892507120613
 11
15.28012209212278
 21
-39.03892507120613
 72
     1
 10
15.28012209212278
 20
-39.03892507120613
 11
15.28009704767685
 21
-40.95892507120602
 72
     1
 10
15.28009704767685
 20
-40.95892507120602
 11
19.72147681714888
 21
-40.95892507120599
 97
        0
 75
     0
 76
     1
 98
        1
 10
-4.849261314031164
 20
0.0
  0
DIMENSION
  5
DE
330
1F
100
AcDbEntity
  8
치수문자_일반주서
100
AcDbDimension
  2
_D
 10
-53.30000000000001
 20
-6.348925071276151
 30
0.0
 11
-53.30000000000003
 21
0.0010749287238923
 31
0.0
 70
   160
  1
%%c<>
 71
     2
 42
12.69999999999999
 52
-270.0
  3
SLDDIMSTYLE0
100
AcDbAlignedDimension
 13
-39.80000000000001
 23
6.351074928723889
 33
0.0
 14
-39.80000000000001
 24
-6.348925071276101
 34
0.0
 50
90.0000000000002
100
AcDbRotatedDimension
1001
ACAD
1000
DSTYLE
1002
{
1070
   171
1070
     6
1070
   273
1070
     7
1002
}
  0
DIMENSION
  5
F3
330
1F
100
AcDbEntity
  8
치수문자_일반주서
100
AcDbDimension
  2
_D_1
 10
10.0
 20
16.579782838648
 30
0.0
 11
32.31367088450328
 21
16.579782838648
 31
0.0
 70
   160
  1
<>
 71
     2
 42
50.80000000000001
  3
SLDDIMSTYLE0
100
AcDbAlignedDimension
 13
60.80000000000001
 23
6.351074928723901
 33
0.0
 14
10.0
 24
5.058860986248003
 34
0.0
 50
0.000000000000004
100
AcDbRotatedDimension
1001
ACAD
1000
DSTYLE
1002
{
1070
   171
1070
     6
1070
   273
1070
     7
1002
}
  0
DIMENSION
  5
108
330
1F
100
AcDbEntity
  8
치수문자_일반주서
100
AcDbDimension
  2
_D_2
 10
-40.79999999999998
 20
36.55237901373057
 30
0.0
 11
9.999999999999863
 21
36.55237901373057
 31
0.0
 70
   160
  1
<>
 71
     2
 42
101.6
  3
SLDDIMSTYLE0
100
AcDbAlignedDimension
 13
60.80000000000001
 23
6.351074928723903
 33
0.0
 14
-40.79999999999998
 24
5.351074928723886
 34
0.0
 50
0.000000000000008
100
AcDbRotatedDimension
1001
ACAD
1000
DSTYLE
1002
{
1070
   171
1070
     6
1070
   273
1070
     7
1002
}
  0
DIMENSION
  5
11B
330
1F
100
AcDbEntity
  8
치수문자_일반주서
100
AcDbDimension
  2
_D_3
 10
75.95554804759364
 20
6.351074928723957
 30
0.0
 11
75.95554804759357
 21
26.95507492872395
 31
0.0
 70
   160
  1
%%c<>
 71
     2
 42
12.7
 52
-270.0
  3
SLDDIMSTYLE0
100
AcDbAlignedDimension
 13
60.80000000000001
 23
-6.348925071276098
 33
0.0
 14
60.80000000000001
 24
6.351074928723901
 34
0.0
 50
90.0000000000002
100
AcDbRotatedDimension
1001
ACAD
1000
DSTYLE
1002
{
1070
   171
1070
     6
1070
   273
1070
     7
1002
}
  0
LINE
  5
12F
330
1F
100
AcDbEntity
  8
참조1
100
AcDbLine
 10
77.82153940838579
 20
7.441074928723896
 30
0.0
 11
77.82153940838579
 21
-7.438925071276109
 31
0.0
  0
LINE
  5
130
330
1F
100
AcDbEntity
  8
참조1
100
AcDbLine
 10
90.52153940838579
 20
5.441074928723896
 30
0.0
 11
77.82153940838579
 21
5.441074928723896
 31
0.0
  0
SOLID
  5
131
330
1F
100
AcDbEntity
  8
참조1
100
AcDbTrace
 10
77.82153940838579
 20
5.441074928723896
 30
0.0
 11
84.17153940838578
 21
4.425074928723896
 31
0.0
 12
84.17153940838578
 22
6.457074928723896
 32
0.0
 13
84.17153940838578
 23
6.457074928723896
 33
0.0
  0
LINE
  5
132
330
1F
100
AcDbEntity
  8
참조1
100
AcDbLine
 10
90.52153940838579
 20
-5.438925071276109
 30
0.0
 11
77.82153940838579
 21
-5.438925071276109
 31
0.0
  0
SOLID
  5
133
330
1F
100
AcDbEntity
  8
참조1
100
AcDbTrace
 10
77.82153940838579
 20
-5.438925071276109
 30
0.0
 11
84.17153940838578
 21
-6.454925071276109
 31
0.0
 12
84.17153940838578
 22
-4.422925071276109
 32
0.0
 13
84.17153940838578
 23
-4.422925071276109
 33
0.0
  0
MTEXT
  5
134
330
1F
100
AcDbEntity
  8
참조1
100
AcDbMText
 10
87.20588954101179
 20
11.01136670591222
 30
0.0
 40
3.5
 41
0.0
 71
     1
 72
     1
  1
A
  7
SLDTEXTSTYLE0
 73
     1
 44
1.0
  0
MTEXT
  5
135
330
1F
100
AcDbEntity
  8
참조1
100
AcDbMText
 10
87.20588954101179
 20
0.1313667059122192
 30
0.0
 40
3.5
 41
0.0
 71
     1
 72
     1
  1
A
  7
SLDTEXTSTYLE0
 73
     1
 44
1.0
  0
INSERT
  5
13C
330
1F
100
AcDbEntity
  8
해칭선
100
AcDbBlockReference
  2
SW_DOWELSYMBOL_0
 10
0.0
 20
0.0
 30
0.0
  0
LINE
  5
1B8
330
1F
100
AcDbEntity
  8
외형선
  6
Continuous
370
    15
100
AcDbLine
 10
-22.76612499999997
 20
4.827074928723889
 30
0.0
 11
-11.5901250000001
 21
4.827074928723889
 31
0.0
  0
LINE
  5
1B9
330
1F
100
AcDbEntity
  8
외형선
  6
Continuous
370
    15
100
AcDbLine
 10
-22.76612499999997
 20
4.827074928723889
 30
0.0
 11
-24.29012499999997
 21
6.351074928723889
 31
0.0
  0
LINE
  5
1BA
330
1F
100
AcDbEntity
  8
외형선
  6
Continuous
370
    15
100
AcDbLine
 10
-11.59012499999998
 20
4.827074928723889
 30
0.0
 11
-10.06612499999998
 21
6.351074928723889
 31
0.0
  0
LINE
  5
1BB
330
1F
100
AcDbEntity
  8
외형선
  6
Continuous
370
    15
100
AcDbLine
 10
-39.8
 20
6.351074928723889
 30
0.0
 11
-24.29012499999997
 21
6.351074928723889
 31
0.0
  0
ENDSEC
  0
SECTION
  2
OBJECTS
  0
DICTIONARY
  5
C
330
0
100
AcDbDictionary
281
     1
  3
ACAD_GROUP
350
D
  3
ACAD_IMAGE_VARS
350
160
  3
ACAD_LAYOUT
350
1A
  3
ACAD_MLINESTYLE
350
17
  3
ACAD_PLOTSETTINGS
350
19
  3
ACAD_PLOTSTYLENAME
350
E
  3
ACAD_SCALELIST
350
47
  3
APPDATA
350
15E
  3
DWGPROPS
350
20E
  0
DICTIONARY
  5
187
330
2
100
AcDbDictionary
280
     1
281
     1
  3
ACAD_LAYERSTATES
360
188
  0
DICTIONARY
  5
D
102
{ACAD_REACTORS
330
C
102
}
330
C
100
AcDbDictionary
281
     1
  0
RASTERVARIABLES
  5
160
102
{ACAD_REACTORS
330
C
102
}
330
C
100
AcDbRasterVariables
 90
        0
 70
     1
 71
     1
 72
     1
  0
DICTIONARY
  5
1A
102
{ACAD_REACTORS
330
C
102
}
330
C
100
AcDbDictionary
281
     1
  3
Layout1
350
1E
  3
Layout2
350
26
  3
Model
350
22
  0
DICTIONARY
  5
17
102
{ACAD_REACTORS
330
C
102
}
330
C
100
AcDbDictionary
281
     1
  3
Standard
350
18
  0
DICTIONARY
  5
19
102
{ACAD_REACTORS
330
C
102
}
330
C
100
AcDbDictionary
281
     1
  0
ACDBDICTIONARYWDFLT
  5
E
102
{ACAD_REACTORS
330
C
102
}
330
C
100
AcDbDictionary
281
     1
  3
Normal
350
F
100
AcDbDictionaryWithDefault
340
F
  0
DICTIONARY
  5
47
102
{ACAD_REACTORS
330
C
102
}
330
C
100
AcDbDictionary
281
     1
  3
A0
350
48
  3
A1
350
49
  3
A2
350
4A
  3
A3
350
4B
  3
A4
350
4C
  3
A5
350
4D
  3
A6
350
4E
  3
A7
350
4F
  3
A8
350
50
  3
A9
350
51
  3
B0
350
52
  3
B1
350
53
  3
B2
350
54
  3
B3
350
55
  3
B4
350
56
  3
B5
350
57
  3
B6
350
58
  3
B7
350
59
  3
B8
350
5A
  3
B9
350
5B
  3
C0
350
5C
  3
C1
350
5D
  3
C2
350
5E
  3
C3
350
5F
  3
C4
350
60
  3
C5
350
61
  3
C6
350
62
  3
C7
350
63
  3
C8
350
64
  3
C9
350
65
  3
D0
350
66
  3
D1
350
67
  3
D2
350
68
  0
DICTIONARY
  5
15E
102
{ACAD_REACTORS
330
C
102
}
330
C
100
AcDbDictionary
281
     1
  0
XRECORD
  5
20E
102
{ACAD_REACTORS
330
C
102
}
330
C
100
AcDbXrecord
280
     1
  1
DWGPROPS COOKIE
  2

  3

  4

  6

  7

  8
12016016
  9

300
=
301
=
302
=
303
=
304
=
305
=
306
=
307
=
308
=
309
=
 40
0.0
 41
2458311.095250926
 42
2458319.343792523
  1

 90
        0
  0
DICTIONARY
  5
188
102
{ACAD_REACTORS
330
187
102
}
330
187
100
AcDbDictionary
281
     1
  0
LAYOUT
  5
1E
102
{ACAD_REACTORS
330
1A
102
}
330
1A
100
AcDbPlotSettings
  1

  2
none_device
  4

  6

 40
0.0
 41
0.0
 42
0.0
 43
0.0
 44
0.0
 45
0.0
 46
0.0
 47
0.0
 48
0.0
 49
0.0
140
0.0
141
0.0
142
1.0
143
1.0
 70
   688
 72
     1
 73
     0
 74
     5
  7

 75
    16
147
1.0
148
0.0
149
0.0
100
AcDbLayout
  1
Layout1
 70
     1
 71
     1
 10
0.0
 20
0.0
 11
420.0
 21
297.0
 12
0.0
 22
0.0
 32
0.0
 14
1.000000000000000E+20
 24
1.000000000000000E+20
 34
1.000000000000000E+20
 15
-1.000000000000000E+20
 25
-1.000000000000000E+20
 35
-1.000000000000000E+20
146
0.0
 13
0.0
 23
0.0
 33
0.0
 16
1.0
 26
0.0
 36
0.0
 17
0.0
 27
1.0
 37
0.0
 76
     0
330
1B
  0
LAYOUT
  5
26
102
{ACAD_REACTORS
330
1A
102
}
330
1A
100
AcDbPlotSettings
  1

  2
none_device
  4

  6

 40
0.0
 41
0.0
 42
0.0
 43
0.0
 44
0.0
 45
0.0
 46
0.0
 47
0.0
 48
0.0
 49
0.0
140
0.0
141
0.0
142
1.0
143
1.0
 70
   688
 72
     1
 73
     0
 74
     5
  7

 75
    16
147
1.0
148
0.0
149
0.0
100
AcDbLayout
  1
Layout2
 70
     1
 71
     2
 10
0.0
 20
0.0
 11
0.0
 21
0.0
 12
0.0
 22
0.0
 32
0.0
 14
0.0
 24
0.0
 34
0.0
 15
0.0
 25
0.0
 35
0.0
146
0.0
 13
0.0
 23
0.0
 33
0.0
 16
1.0
 26
0.0
 36
0.0
 17
0.0
 27
1.0
 37
0.0
 76
     0
330
23
  0
LAYOUT
  5
22
102
{ACAD_REACTORS
330
1A
102
}
330
1A
100
AcDbPlotSettings
  1

  2
none_device
  4
ANSI_A_(11.00_x_8.50_Inches)
  6

 40
6.35
 41
19.05
 42
6.35000508
 43
19.05000254
 44
279.4
 45
215.9
 46
83.05294912296492
 47
76.4260617598154
 48
0.0
 49
0.0
140
0.0
141
0.0
142
0.0584839552860239
143
1.0
 70
  1696
 72
     0
 73
     0
 74
     0
  7

 75
     0
147
0.0235690232323232
148
0.0
149
0.0
100
AcDbLayout
  1
Model
 70
     1
 71
     0
 10
0.0
 20
0.0
 11
420.0
 21
297.0
 12
0.0
 22
0.0
 32
0.0
 14
-57.67500000000008
 24
-49.97073246008785
 34
0.0
 15
90.52153940838579
 25
40.92737901373057
 35
0.0
146
0.0
 13
0.0
 23
0.0
 33
0.0
 16
1.0
 26
0.0
 36
0.0
 17
0.0
 27
1.0
 37
0.0
 76
     0
330
1F
331
29
  0
MLINESTYLE
  5
18
102
{ACAD_REACTORS
330
17
102
}
330
17
100
AcDbMlineStyle
  2
Standard
 70
     0
  3

 62
   256
 51
90.0
 52
90.0
 71
     2
 49
0.5
 62
   256
  6
BYLAYER
 49
-0.5
 62
   256
  6
BYLAYER
  0
ACDBPLACEHOLDER
  5
F
102
{ACAD_REACTORS
330
E
102
}
330
E
  0
SCALE
  5
48
102
{ACAD_REACTORS
330
47
102
}
330
47
100
AcDbScale
 70
     0
300
1:1
140
1.0
141
1.0
290
     1
  0
SCALE
  5
49
102
{ACAD_REACTORS
330
47
102
}
330
47
100
AcDbScale
 70
     0
300
1:2
140
1.0
141
2.0
290
     0
  0
SCALE
  5
4A
102
{ACAD_REACTORS
330
47
102
}
330
47
100
AcDbScale
 70
     0
300
1:4
140
1.0
141
4.0
290
     0
  0
SCALE
  5
4B
102
{ACAD_REACTORS
330
47
102
}
330
47
100
AcDbScale
 70
     0
300
1:5
140
1.0
141
5.0
290
     0
  0
SCALE
  5
4C
102
{ACAD_REACTORS
330
47
102
}
330
47
100
AcDbScale
 70
     0
300
1:8
140
1.0
141
8.0
290
     0
  0
SCALE
  5
4D
102
{ACAD_REACTORS
330
47
102
}
330
47
100
AcDbScale
 70
     0
300
1:10
140
1.0
141
10.0
290
     0
  0
SCALE
  5
4E
102
{ACAD_REACTORS
330
47
102
}
330
47
100
AcDbScale
 70
     0
300
1:16
140
1.0
141
16.0
290
     0
  0
SCALE
  5
4F
102
{ACAD_REACTORS
330
47
102
}
330
47
100
AcDbScale
 70
     0
300
1:20
140
1.0
141
20.0
290
     0
  0
SCALE
  5
50
102
{ACAD_REACTORS
330
47
102
}
330
47
100
AcDbScale
 70
     0
300
1:30
140
1.0
141
30.0
290
     0
  0
SCALE
  5
51
102
{ACAD_REACTORS
330
47
102
}
330
47
100
AcDbScale
 70
     0
300
1:40
140
1.0
141
40.0
290
     0
  0
SCALE
  5
52
102
{ACAD_REACTORS
330
47
102
}
330
47
100
AcDbScale
 70
     0
300
1:50
140
1.0
141
50.0
290
     0
  0
SCALE
  5
53
102
{ACAD_REACTORS
330
47
102
}
330
47
100
AcDbScale
 70
     0
300
1:100
140
1.0
141
100.0
290
     0
  0
SCALE
  5
54
102
{ACAD_REACTORS
330
47
102
}
330
47
100
AcDbScale
 70
     0
300
2:1
140
2.0
141
1.0
290
     0
  0
SCALE
  5
55
102
{ACAD_REACTORS
330
47
102
}
330
47
100
AcDbScale
 70
     0
300
4:1
140
4.0
141
1.0
290
     0
  0
SCALE
  5
56
102
{ACAD_REACTORS
330
47
102
}
330
47
100
AcDbScale
 70
     0
300
8:1
140
8.0
141
1.0
290
     0
  0
SCALE
  5
57
102
{ACAD_REACTORS
330
47
102
}
330
47
100
AcDbScale
 70
     0
300
10:1
140
10.0
141
1.0
290
     0
  0
SCALE
  5
58
102
{ACAD_REACTORS
330
47
102
}
330
47
100
AcDbScale
 70
     0
300
100:1
140
100.0
141
1.0
290
     0
  0
SCALE
  5
59
102
{ACAD_REACTORS
330
47
102
}
330
47
100
AcDbScale
 70
     0
300
1/128" = 1'-0"
140
0.0078125
141
12.0
290
     0
  0
SCALE
  5
5A
102
{ACAD_REACTORS
330
47
102
}
330
47
100
AcDbScale
 70
     0
300
1/64" = 1'-0"
140
0.015625
141
12.0
290
     0
  0
SCALE
  5
5B
102
{ACAD_REACTORS
330
47
102
}
330
47
100
AcDbScale
 70
     0
300
1/32" = 1'-0"
140
0.03125
141
12.0
290
     0
  0
SCALE
  5
5C
102
{ACAD_REACTORS
330
47
102
}
330
47
100
AcDbScale
 70
     0
300
1/16" = 1'-0"
140
0.0625
141
12.0
290
     0
  0
SCALE
  5
5D
102
{ACAD_REACTORS
330
47
102
}
330
47
100
AcDbScale
 70
     0
300
3/32" = 1'-0"
140
0.09375
141
12.0
290
     0
  0
SCALE
  5
5E
102
{ACAD_REACTORS
330
47
102
}
330
47
100
AcDbScale
 70
     0
300
1/8" = 1'-0"
140
0.125
141
12.0
290
     0
  0
SCALE
  5
5F
102
{ACAD_REACTORS
330
47
102
}
330
47
100
AcDbScale
 70
     0
300
3/16" = 1'-0"
140
0.1875
141
12.0
290
     0
  0
SCALE
  5
60
102
{ACAD_REACTORS
330
47
102
}
330
47
100
AcDbScale
 70
     0
300
1/4" = 1'-0"
140
0.25
141
12.0
290
     0
  0
SCALE
  5
61
102
{ACAD_REACTORS
330
47
102
}
330
47
100
AcDbScale
 70
     0
300
3/8" = 1'-0"
140
0.375
141
12.0
290
     0
  0
SCALE
  5
62
102
{ACAD_REACTORS
330
47
102
}
330
47
100
AcDbScale
 70
     0
300
1/2" = 1'-0"
140
0.5
141
12.0
290
     0
  0
SCALE
  5
63
102
{ACAD_REACTORS
330
47
102
}
330
47
100
AcDbScale
 70
     0
300
3/4" = 1'-0"
140
0.75
141
12.0
290
     0
  0
SCALE
  5
64
102
{ACAD_REACTORS
330
47
102
}
330
47
100
AcDbScale
 70
     0
300
1" = 1'-0"
140
1.0
141
12.0
290
     0
  0
SCALE
  5
65
102
{ACAD_REACTORS
330
47
102
}
330
47
100
AcDbScale
 70
     0
300
1-1/2" = 1'-0"
140
1.5
141
12.0
290
     0
  0
SCALE
  5
66
102
{ACAD_REACTORS
330
47
102
}
330
47
100
AcDbScale
 70
     0
300
3" = 1'-0"
140
3.0
141
12.0
290
     0
  0
SCALE
  5
67
102
{ACAD_REACTORS
330
47
102
}
330
47
100
AcDbScale
 70
     0
300
6" = 1'-0"
140
6.0
141
12.0
290
     0
  0
SCALE
  5
68
102
{ACAD_REACTORS
330
47
102
}
330
47
100
AcDbScale
 70
     0
300
1'-0" = 1'-0"
140
12.0
141
12.0
290
     0
  0
ENDSEC
  0
EOF
