  0
SECTION
  2
HEADER
  9
$ACADVER
  1
AC1015
  9
$ACADMAINTVER
 70
     6
  9
$DWGCODEPAGE
  3
ANSI_949
  9
$INSBASE
 10
0.0
 20
0.0
 30
0.0
  9
$EXTMIN
 10
-58.85000000000005
 20
-49.97180738881174
 30
0.0
  9
$EXTMAX
 10
90.52153940838579
 20
42.54150000000013
 30
0.0
  9
$LIMMIN
 10
0.0
 20
0.0
  9
$LIMMAX
 10
420.0
 20
297.0
  9
$ORTHOMODE
 70
     1
  9
$REGENMODE
 70
     1
  9
$FILLMODE
 70
     1
  9
$QTEXTMODE
 70
     0
  9
$MIRRTEXT
 70
     1
  9
$LTSCALE
 40
1.0
  9
$ATTMODE
 70
     1
  9
$TEXTSIZE
 40
3.5
  9
$TRACEWID
 40
1.0
  9
$TEXTSTYLE
  7
Standard
  9
$CLAYER
  8
0
  9
$CELTYPE
  6
ByLayer
  9
$CECOLOR
 62
   256
  9
$CELTSCALE
 40
1.0
  9
$DISPSILH
 70
     0
  9
$DIMSCALE
 40
1.0
  9
$DIMASZ
 40
3.302
  9
$DIMEXO
 40
1.0
  9
$DIMDLI
 40
3.75
  9
$DIMRND
 40
0.0
  9
$DIMDLE
 40
0.0
  9
$DIMEXE
 40
1.0
  9
$DIMTP
 40
0.0
  9
$DIMTM
 40
0.0
  9
$DIMTXT
 40
3.5
  9
$DIMCEN
 40
2.5
  9
$DIMTSZ
 40
0.0
  9
$DIMTOL
 70
     0
  9
$DIMLIM
 70
     0
  9
$DIMTIH
 70
     1
  9
$DIMTOH
 70
     1
  9
$DIMSE1
 70
     0
  9
$DIMSE2
 70
     0
  9
$DIMTAD
 70
     1
  9
$DIMZIN
 70
     0
  9
$DIMBLK
  1

  9
$DIMASO
 70
     1
  9
$DIMSHO
 70
     1
  9
$DIMPOST
  1

  9
$DIMAPOST
  1

  9
$DIMALT
 70
     0
  9
$DIMALTD
 70
     3
  9
$DIMALTF
 40
0.0393700787401575
  9
$DIMLFAC
 40
1.0
  9
$DIMTOFL
 70
     1
  9
$DIMTVP
 40
0.0
  9
$DIMTIX
 70
     0
  9
$DIMSOXD
 70
     0
  9
$DIMSAH
 70
     0
  9
$DIMBLK1
  1

  9
$DIMBLK2
  1

  9
$DIMSTYLE
  2
ISO-25
  9
$DIMCLRD
 70
     0
  9
$DIMCLRE
 70
     0
  9
$DIMCLRT
 70
     0
  9
$DIMTFAC
 40
1.0
  9
$DIMGAP
 40
1.524
  9
$DIMJUST
 70
     0
  9
$DIMSD1
 70
     0
  9
$DIMSD2
 70
     0
  9
$DIMTOLJ
 70
     0
  9
$DIMTZIN
 70
     0
  9
$DIMALTZ
 70
     0
  9
$DIMALTTZ
 70
     0
  9
$DIMUPT
 70
     0
  9
$DIMDEC
 70
     2
  9
$DIMTDEC
 70
     2
  9
$DIMALTU
 70
     2
  9
$DIMALTTD
 70
     3
  9
$DIMTXSTY
  7
Standard
  9
$DIMAUNIT
 70
     0
  9
$DIMADEC
 70
     2
  9
$DIMALTRND
 40
0.0
  9
$DIMAZIN
 70
     0
  9
$DIMDSEP
 70
    44
  9
$DIMATFIT
 70
     3
  9
$DIMFRAC
 70
     0
  9
$DIMLDRBLK
  1

  9
$DIMLUNIT
 70
     2
  9
$DIMLWD
 70
    -2
  9
$DIMLWE
 70
    -2
  9
$DIMTMOVE
 70
     0
  9
$LUNITS
 70
     2
  9
$LUPREC
 70
     2
  9
$SKETCHINC
 40
1.0
  9
$FILLETRAD
 40
10.0
  9
$AUNITS
 70
     0
  9
$AUPREC
 70
     2
  9
$MENU
  1
.
  9
$ELEVATION
 40
0.0
  9
$PELEVATION
 40
0.0
  9
$THICKNESS
 40
0.0
  9
$LIMCHECK
 70
     0
  9
$CHAMFERA
 40
0.0
  9
$CHAMFERB
 40
0.0
  9
$CHAMFERC
 40
0.0
  9
$CHAMFERD
 40
0.0
  9
$SKPOLY
 70
     0
  9
$TDCREATE
 40
2458311.470463414
  9
$TDUCREATE
 40
2458311.095463414
  9
$TDUPDATE
 40
2458319.718746725
  9
$TDUUPDATE
 40
2458319.343746725
  9
$TDINDWG
 40
0.0016903819
  9
$TDUSRTIMER
 40
2458319.343709467
  9
$USRTIMER
 70
     1
  9
$ANGBASE
 50
0.0
  9
$ANGDIR
 70
     0
  9
$PDMODE
 70
     0
  9
$PDSIZE
 40
-1.0
  9
$PLINEWID
 40
0.0
  9
$SPLFRAME
 70
     0
  9
$SPLINETYPE
 70
     6
  9
$SPLINESEGS
 70
     8
  9
$HANDSEED
  5
208
  9
$SURFTAB1
 70
     6
  9
$SURFTAB2
 70
     6
  9
$SURFTYPE
 70
     6
  9
$SURFU
 70
     6
  9
$SURFV
 70
     6
  9
$UCSBASE
  2

  9
$UCSNAME
  2

  9
$UCSORG
 10
0.0
 20
0.0
 30
0.0
  9
$UCSXDIR
 10
1.0
 20
0.0
 30
0.0
  9
$UCSYDIR
 10
0.0
 20
1.0
 30
0.0
  9
$UCSORTHOREF
  2

  9
$UCSORTHOVIEW
 70
     0
  9
$UCSORGTOP
 10
0.0
 20
0.0
 30
0.0
  9
$UCSORGBOTTOM
 10
0.0
 20
0.0
 30
0.0
  9
$UCSORGLEFT
 10
0.0
 20
0.0
 30
0.0
  9
$UCSORGRIGHT
 10
0.0
 20
0.0
 30
0.0
  9
$UCSORGFRONT
 10
0.0
 20
0.0
 30
0.0
  9
$UCSORGBACK
 10
0.0
 20
0.0
 30
0.0
  9
$PUCSBASE
  2

  9
$PUCSNAME
  2

  9
$PUCSORG
 10
0.0
 20
0.0
 30
0.0
  9
$PUCSXDIR
 10
1.0
 20
0.0
 30
0.0
  9
$PUCSYDIR
 10
0.0
 20
1.0
 30
0.0
  9
$PUCSORTHOREF
  2

  9
$PUCSORTHOVIEW
 70
     0
  9
$PUCSORGTOP
 10
0.0
 20
0.0
 30
0.0
  9
$PUCSORGBOTTOM
 10
0.0
 20
0.0
 30
0.0
  9
$PUCSORGLEFT
 10
0.0
 20
0.0
 30
0.0
  9
$PUCSORGRIGHT
 10
0.0
 20
0.0
 30
0.0
  9
$PUCSORGFRONT
 10
0.0
 20
0.0
 30
0.0
  9
$PUCSORGBACK
 10
0.0
 20
0.0
 30
0.0
  9
$USERI1
 70
     0
  9
$USERI2
 70
     0
  9
$USERI3
 70
     0
  9
$USERI4
 70
     0
  9
$USERI5
 70
     0
  9
$USERR1
 40
0.0
  9
$USERR2
 40
0.0
  9
$USERR3
 40
0.0
  9
$USERR4
 40
0.0
  9
$USERR5
 40
0.0
  9
$WORLDVIEW
 70
     1
  9
$SHADEDGE
 70
     3
  9
$SHADEDIF
 70
    70
  9
$TILEMODE
 70
     1
  9
$MAXACTVP
 70
    64
  9
$PINSBASE
 10
0.0
 20
0.0
 30
0.0
  9
$PLIMCHECK
 70
     0
  9
$PEXTMIN
 10
1.000000000000000E+20
 20
1.000000000000000E+20
 30
1.000000000000000E+20
  9
$PEXTMAX
 10
-1.000000000000000E+20
 20
-1.000000000000000E+20
 30
-1.000000000000000E+20
  9
$PLIMMIN
 10
0.0
 20
0.0
  9
$PLIMMAX
 10
0.0
 20
0.0
  9
$UNITMODE
 70
     0
  9
$VISRETAIN
 70
     1
  9
$PLINEGEN
 70
     0
  9
$PSLTSCALE
 70
     1
  9
$TREEDEPTH
 70
  3020
  9
$CMLSTYLE
  2
Standard
  9
$CMLJUST
 70
     0
  9
$CMLSCALE
 40
20.0
  9
$PROXYGRAPHICS
 70
     1
  9
$MEASUREMENT
 70
     1
  9
$CELWEIGHT
370
    -1
  9
$ENDCAPS
280
     0
  9
$JOINSTYLE
280
     0
  9
$LWDISPLAY
290
     1
  9
$INSUNITS
 70
     4
  9
$HYPERLINKBASE
  1

  9
$STYLESHEET
  1

  9
$XEDIT
290
     1
  9
$CEPSNTYPE
380
     0
  9
$PSTYLEMODE
290
     1
  9
$FINGERPRINTGUID
  2
{3D48FD87-E6FB-4B56-8211-C5D32B6BD4D0}
  9
$VERSIONGUID
  2
{FAEB1C32-E019-11D5-929B-00C0DF256EC4}
  9
$EXTNAMES
290
     1
  9
$PSVPSCALE
 40
0.0
  9
$OLESTARTUP
290
     0
  0
ENDSEC
  0
SECTION
  2
CLASSES
  0
CLASS
  1
ACDBDICTIONARYWDFLT
  2
AcDbDictionaryWithDefault
  3
ObjectDBX Classes
 90
        0
280
     0
281
     0
  0
CLASS
  1
VISUALSTYLE
  2
AcDbVisualStyle
  3
ObjectDBX Classes
 90
     4095
280
     0
281
     0
  0
CLASS
  1
MATERIAL
  2
AcDbMaterial
  3
ObjectDBX Classes
 90
     1153
280
     0
281
     0
  0
CLASS
  1
SCALE
  2
AcDbScale
  3
ObjectDBX Classes
 90
     1153
280
     0
281
     0
  0
CLASS
  1
SUN
  2
AcDbSun
  3
SCENEOE
 90
     1153
280
     0
281
     0
  0
CLASS
  1
ACDBPLACEHOLDER
  2
AcDbPlaceHolder
  3
ObjectDBX Classes
 90
        0
280
     0
281
     0
  0
CLASS
  1
LAYOUT
  2
AcDbLayout
  3
ObjectDBX Classes
 90
        0
280
     0
281
     0
  0
CLASS
  1
TABLESTYLE
  2
AcDbTableStyle
  3
ObjectDBX Classes
 90
     4095
280
     0
281
     0
  0
CLASS
  1
MLEADERSTYLE
  2
AcDbMLeaderStyle
  3
ACDB_MLEADERSTYLE_CLASS
 90
     4095
280
     0
281
     0
  0
CLASS
  1
RASTERVARIABLES
  2
AcDbRasterVariables
  3
ISM
 90
        0
280
     0
281
     0
  0
ENDSEC
  0
SECTION
  2
TABLES
  0
TABLE
  2
VPORT
  5
8
330
0
100
AcDbSymbolTable
 70
     1
  0
VPORT
  5
29
330
8
100
AcDbSymbolTableRecord
100
AcDbViewportTableRecord
  2
*Active
 70
     0
 10
0.0
 20
0.0
 11
1.0
 21
1.0
 12
7.569953331794576
 22
8.920784436065048
 13
0.0
 23
0.0
 14
10.0
 24
10.0
 15
10.0
 25
10.0
 16
0.0
 26
0.0
 36
1.0
 17
0.0
 27
0.0
 37
0.0
 40
171.3076523228317
 41
1.632093933463796
 42
50.0
 43
0.0
 44
0.0
 50
0.0
 51
0.0
 71
    16
 72
  2000
 73
     1
 74
     3
 75
     0
 76
     0
 77
     0
 78
     0
281
     0
 65
     1
110
0.0
120
0.0
130
0.0
111
1.0
121
0.0
131
0.0
112
0.0
122
1.0
132
0.0
 79
     0
146
0.0
  0
ENDTAB
  0
TABLE
  2
LTYPE
  5
5
330
0
100
AcDbSymbolTable
 70
     6
  0
LTYPE
  5
14
330
5
100
AcDbSymbolTableRecord
100
AcDbLinetypeTableRecord
  2
ByBlock
 70
     0
  3

 72
    65
 73
     0
 40
0.0
  0
LTYPE
  5
15
330
5
100
AcDbSymbolTableRecord
100
AcDbLinetypeTableRecord
  2
ByLayer
 70
     0
  3

 72
    65
 73
     0
 40
0.0
  0
LTYPE
  5
16
330
5
100
AcDbSymbolTableRecord
100
AcDbLinetypeTableRecord
  2
Continuous
 70
     0
  3
Solid line
 72
    65
 73
     0
 40
0.0
  0
LTYPE
  5
6A
330
5
100
AcDbSymbolTableRecord
100
AcDbLinetypeTableRecord
  2
HIDDEN
 70
     0
  3
Hidden __ __ __ __ __ __ __ __ __ __ __ __ __ __
 72
    65
 73
     2
 40
1.905
 49
1.27
 74
     0
 49
-0.635
 74
     0
  0
LTYPE
  5
6B
330
5
100
AcDbSymbolTableRecord
100
AcDbLinetypeTableRecord
  2
PHANTOM
 70
     0
  3
Phantom ______  __  __  ______  __  __  ______
 72
    65
 73
     6
 40
12.7
 49
6.35
 74
     0
 49
-1.27
 74
     0
 49
1.27
 74
     0
 49
-1.27
 74
     0
 49
1.27
 74
     0
 49
-1.27
 74
     0
  0
LTYPE
  5
6C
330
5
100
AcDbSymbolTableRecord
100
AcDbLinetypeTableRecord
  2
CENTER
 70
     0
  3
Center ____ _ ____ _ ____ _ ____ _ ____ _ ____
 72
    65
 73
     4
 40
10.16
 49
6.35
 74
     0
 49
-1.27
 74
     0
 49
1.27
 74
     0
 49
-1.27
 74
     0
  0
LTYPE
  5
6D
330
5
100
AcDbSymbolTableRecord
100
AcDbLinetypeTableRecord
  2
CENTERX2
 70
     0
  3
Center (2x) ________  __  ________  __  _____
 72
    65
 73
     4
 40
20.32
 49
12.7
 74
     0
 49
-2.54
 74
     0
 49
2.54
 74
     0
 49
-2.54
 74
     0
  0
LTYPE
  5
6E
330
5
100
AcDbSymbolTableRecord
100
AcDbLinetypeTableRecord
  2
DOT2
 70
     0
  3
Dot (.5x) ........................................
 72
    65
 73
     2
 40
0.635
 49
0.0
 74
     0
 49
-0.635
 74
     0
  0
ENDTAB
  0
TABLE
  2
LAYER
  5
2
102
{ACAD_XDICTIONARY
360
182
102
}
330
0
100
AcDbSymbolTable
 70
    18
  0
LAYER
  5
10
330
2
100
AcDbSymbolTableRecord
100
AcDbLayerTableRecord
  2
0
 70
     0
 62
     7
  6
Continuous
370
    -3
390
F
  0
LAYER
  5
6F
330
2
100
AcDbSymbolTableRecord
100
AcDbLayerTableRecord
  2
FORMAT
 70
     0
 62
     2
  6
Continuous
370
    -3
390
F
  0
LAYER
  5
70
330
2
100
AcDbSymbolTableRecord
100
AcDbLayerTableRecord
  2
외형선
 70
     0
 62
     4
  6
Continuous
370
    30
390
F
  0
LAYER
  5
71
330
2
100
AcDbSymbolTableRecord
100
AcDbLayerTableRecord
  2
숨은선
 70
     0
 62
     2
  6
HIDDEN
370
    15
390
F
  0
LAYER
  5
72
330
2
100
AcDbSymbolTableRecord
100
AcDbLayerTableRecord
  2
중심선
 70
     0
 62
     1
  6
CENTERX2
370
    -3
390
F
  0
LAYER
  5
73
330
2
100
AcDbSymbolTableRecord
100
AcDbLayerTableRecord
  2
파단선
 70
     0
 62
     4
  6
Continuous
370
    -3
390
F
  0
LAYER
  5
74
330
2
100
AcDbSymbolTableRecord
100
AcDbLayerTableRecord
  2
해칭선
 70
     0
 62
   100
  6
Continuous
370
    -3
390
F
  0
LAYER
  5
75
330
2
100
AcDbSymbolTableRecord
100
AcDbLayerTableRecord
  2
가는실선
 70
     0
 62
     4
  6
Continuous
370
    -3
390
F
  0
LAYER
  5
76
330
2
100
AcDbSymbolTableRecord
100
AcDbLayerTableRecord
  2
치수_보조선
 70
     0
 62
     4
  6
Continuous
370
    -3
390
F
  0
LAYER
  5
77
330
2
100
AcDbSymbolTableRecord
100
AcDbLayerTableRecord
  2
치수문자_일반주서
 70
     0
 62
     7
  6
Continuous
370
    15
390
F
  0
LAYER
  5
78
330
2
100
AcDbSymbolTableRecord
100
AcDbLayerTableRecord
  2
개별주서
 70
     0
 62
   100
  6
Continuous
370
    30
390
F
  0
LAYER
  5
79
330
2
100
AcDbSymbolTableRecord
100
AcDbLayerTableRecord
  2
중간선
 70
     0
 62
     2
  6
Continuous
370
    15
390
F
  0
LAYER
  5
7A
330
2
100
AcDbSymbolTableRecord
100
AcDbLayerTableRecord
  2
윤곽선
 70
     0
 62
     3
  6
Continuous
370
    40
390
F
  0
LAYER
  5
7B
330
2
100
AcDbSymbolTableRecord
100
AcDbLayerTableRecord
  2
중심마크
 70
     0
 62
   100
  6
Continuous
370
    30
390
F
  0
LAYER
  5
7C
330
2
100
AcDbSymbolTableRecord
100
AcDbLayerTableRecord
  2
가상선
 70
     0
 62
     4
  6
PHANTOM
370
    -3
390
F
  0
LAYER
  5
7D
330
2
100
AcDbSymbolTableRecord
100
AcDbLayerTableRecord
  2
특수지정선
 70
     0
 62
     5
  6
CENTERX2
370
    60
390
F
  0
LAYER
  5
7E
330
2
100
AcDbSymbolTableRecord
100
AcDbLayerTableRecord
  2
참조1
 70
     0
 62
    -4
  6
Continuous
370
    -3
390
F
  0
LAYER
  5
1B8
330
2
100
AcDbSymbolTableRecord
100
AcDbLayerTableRecord
  2
Defpoints
 70
     0
 62
     7
  6
Continuous
290
     0
370
    -3
390
F
  0
ENDTAB
  0
TABLE
  2
STYLE
  5
3
330
0
100
AcDbSymbolTable
 70
     2
  0
STYLE
  5
11
330
3
100
AcDbSymbolTableRecord
100
AcDbTextStyleTableRecord
  2
Standard
 70
     0
 40
0.0
 41
1.0
 50
0.0
 71
     0
 42
3.5
  3
txt
  4

  0
STYLE
  5
94
330
3
100
AcDbSymbolTableRecord
100
AcDbTextStyleTableRecord
  2
SLDTEXTSTYLE0
 70
     0
 40
0.0
 41
0.75
 50
0.0
 71
     0
 42
3.5
  3
TXT
  4

  0
ENDTAB
  0
TABLE
  2
VIEW
  5
6
330
0
100
AcDbSymbolTable
 70
     0
  0
ENDTAB
  0
TABLE
  2
UCS
  5
7
330
0
100
AcDbSymbolTable
 70
     0
  0
ENDTAB
  0
TABLE
  2
APPID
  5
9
330
0
100
AcDbSymbolTable
 70
     1
  0
APPID
  5
12
330
9
100
AcDbSymbolTableRecord
100
AcDbRegAppTableRecord
  2
ACAD
 70
     0
  0
ENDTAB
  0
TABLE
  2
DIMSTYLE
  5
A
330
0
100
AcDbSymbolTable
 70
     4
100
AcDbDimStyleTable
  0
DIMSTYLE
105
27
330
A
100
AcDbSymbolTableRecord
100
AcDbDimStyleTableRecord
  2
ISO-25
 70
     0
 41
2.5
 42
0.625
 43
3.75
 44
1.25
 73
     0
 74
     0
 77
     1
 78
     8
140
2.5
141
2.5
143
0.03937007874016
147
0.625
171
     3
172
     1
178
     0
271
     2
272
     2
274
     3
278
    44
283
     0
284
     8
340
11
  0
DIMSTYLE
105
DA
102
{ACAD_REACTORS
330
D9
330
EE
330
103
330
117
102
}
330
A
100
AcDbSymbolTableRecord
100
AcDbDimStyleTableRecord
  2
SLDDIMSTYLE0
 70
     0
 41
3.302
 44
0.0
 45
0.000000001
 73
     0
 74
     0
 77
     1
 78
    12
 79
     3
140
3.5
143
0.0393700787401575
147
0.875
148
0.000000001
170
     1
172
     1
173
     1
178
     0
271
     2
272
     2
276
     2
284
    12
289
     0
340
94
  0
DIMSTYLE
105
EF
330
A
100
AcDbSymbolTableRecord
100
AcDbDimStyleTableRecord
  2
SLDDIMSTYLE1
 70
     0
 41
3.302
 44
0.0
 45
0.000000001
 73
     0
 74
     0
 77
     1
 78
     4
 79
     1
140
3.5
143
0.0393700787401575
147
0.875
148
0.000000001
170
     1
173
     1
178
     0
271
     2
272
     2
276
     2
284
    12
340
94
  0
DIMSTYLE
105
104
330
A
100
AcDbSymbolTableRecord
100
AcDbDimStyleTableRecord
  2
SLDDIMSTYLE2
 70
     0
 41
3.302
 44
0.0
 45
0.000000001
 73
     0
 74
     0
 77
     1
 78
    12
 79
     3
140
3.5
143
0.0393700787401575
147
0.875
148
0.000000001
170
     1
173
     1
178
     0
271
     2
272
     2
276
     2
284
    12
340
94
  0
ENDTAB
  0
TABLE
  2
BLOCK_RECORD
  5
1
330
0
100
AcDbSymbolTable
 70
     7
  0
BLOCK_RECORD
  5
1F
330
1
100
AcDbSymbolTableRecord
100
AcDbBlockTableRecord
  2
*Model_Space
340
22
  0
BLOCK_RECORD
  5
1B
330
1
100
AcDbSymbolTableRecord
100
AcDbBlockTableRecord
  2
*Paper_Space
340
1E
  0
BLOCK_RECORD
  5
23
330
1
100
AcDbSymbolTableRecord
100
AcDbBlockTableRecord
  2
*Paper_Space0
340
26
  0
BLOCK_RECORD
  5
7F
330
1
100
AcDbSymbolTableRecord
100
AcDbBlockTableRecord
  2
블럭10
340
0
102
{BLKREFS
331
D2
102
}
  0
BLOCK_RECORD
  5
DB
330
1
100
AcDbSymbolTableRecord
100
AcDbBlockTableRecord
  2
_D
340
0
  0
BLOCK_RECORD
  5
F0
330
1
100
AcDbSymbolTableRecord
100
AcDbBlockTableRecord
  2
_D_1
340
0
  0
BLOCK_RECORD
  5
105
330
1
100
AcDbSymbolTableRecord
100
AcDbBlockTableRecord
  2
_D_2
340
0
  0
BLOCK_RECORD
  5
118
330
1
100
AcDbSymbolTableRecord
100
AcDbBlockTableRecord
  2
_D_3
340
0
  0
BLOCK_RECORD
  5
131
330
1
100
AcDbSymbolTableRecord
100
AcDbBlockTableRecord
  2
SW_DOWELSYMBOL_0
340
0
102
{BLKREFS
331
137
102
}
  0
ENDTAB
  0
ENDSEC
  0
SECTION
  2
BLOCKS
  0
BLOCK
  5
20
330
1F
100
AcDbEntity
  8
0
100
AcDbBlockBegin
  2
*Model_Space
 70
     0
 10
0.0
 20
0.0
 30
0.0
  3
*Model_Space
  1
*Model_Space
  0
ENDBLK
  5
21
330
1F
100
AcDbEntity
  8
0
100
AcDbBlockEnd
  0
BLOCK
  5
1C
330
1B
100
AcDbEntity
 67
     1
  8
0
100
AcDbBlockBegin
  2
*Paper_Space
 70
     0
 10
0.0
 20
0.0
 30
0.0
  3
*Paper_Space
  1
*Paper_Space
  0
ENDBLK
  5
1D
330
1B
100
AcDbEntity
 67
     1
  8
0
100
AcDbBlockEnd
  0
BLOCK
  5
24
330
23
100
AcDbEntity
  8
0
100
AcDbBlockBegin
  2
*Paper_Space0
 70
     0
 10
0.0
 20
0.0
 30
0.0
  3
*Paper_Space0
  1
*Paper_Space0
  0
ENDBLK
  5
25
330
23
100
AcDbEntity
  8
0
100
AcDbBlockEnd
  0
BLOCK
  5
80
330
7F
100
AcDbEntity
  8
0
100
AcDbBlockBegin
  2
블럭10
 70
     2
 10
0.0
 20
0.0
 30
0.0
  3
블럭10
  1
블럭10
  0
ELLIPSE
  5
82
330
7F
100
AcDbEntity
  8
중심선
100
AcDbEllipse
 10
20.54032771741204
 20
12.0471743016438
 30
0.0
 11
6.600054785286829
 21
-1.261213355974178E-13
 31
0.0
210
0.0
220
0.0
230
1.0
 40
0.636358354079598
 41
0.9219305317359503
 42
6.513795318482858
  0
ELLIPSE
  5
83
330
7F
100
AcDbEntity
  8
중심선
100
AcDbEllipse
 10
20.54032771746488
 20
12.04717430159265
 30
0.0
 11
3.960054785062283
 21
1.540847449632565E-10
 31
0.0
210
0.0
220
0.0
230
1.0
 40
0.3939339440162632
 41
1.131841032648279
 42
5.62031148352944
  0
LINE
  5
84
330
7F
100
AcDbEntity
  8
중심선
100
AcDbLine
 10
2.268634060543552
 20
16.24717430164393
 30
0.0
 11
5.714909304380834
 21
16.24717430164393
 31
0.0
  0
LINE
  5
85
330
7F
100
AcDbEntity
  8
중심선
100
AcDbLine
 10
5.245725140726316
 20
7.84717430164391
 30
0.0
 11
8.692000384563599
 21
7.84717430164391
 31
0.0
  0
LINE
  5
86
330
7F
100
AcDbEntity
  8
중심선
100
AcDbLine
 10
15.74043728645272
 20
16.24717430164393
 30
0.0
 11
8.692000384563599
 21
7.84717430164391
 31
0.0
  0
LINE
  5
87
330
7F
100
AcDbEntity
  8
중심선
100
AcDbLine
 10
0.1404042013395286
 20
13.71084872107135
 30
0.0
 11
3.58671253028996
 21
13.71088815037384
 31
0.0
  0
LINE
  5
88
330
7F
100
AcDbEntity
  8
중심선
100
AcDbLine
 10
2.750260043222114
 20
10.84717430164391
 30
0.0
 11
6.196535287059397
 21
10.84717430164391
 31
0.0
  0
LINE
  5
89
330
7F
100
AcDbEntity
  8
중심선
100
AcDbLine
 10
12.29416204261559
 20
16.24717430164393
 30
0.0
 11
5.245725140726316
 21
7.84717430164391
 31
0.0
  0
LINE
  5
8A
330
7F
100
AcDbEntity
  8
중심선
100
AcDbLine
 10
10.72767329541681
 20
16.24717430164393
 30
0.0
 11
6.196535287059397
 21
10.84717430164391
 31
0.0
  0
LINE
  5
8B
330
7F
100
AcDbEntity
  8
중심선
100
AcDbLine
 10
7.28139805157953
 20
16.24717430164393
 30
0.0
 11
2.750260043222114
 21
10.84717430164391
 31
0.0
  0
LINE
  5
8C
330
7F
100
AcDbEntity
  8
중심선
100
AcDbLine
 10
5.714909304380834
 20
16.24717430164393
 30
0.0
 11
3.58671253028996
 21
13.71088815037384
 31
0.0
  0
LINE
  5
8D
330
7F
100
AcDbEntity
  8
중심선
100
AcDbLine
 10
2.268634060543552
 20
16.24717430164393
 30
0.0
 11
0.1404042013395286
 21
13.71084872107135
 31
0.0
  0
LINE
  5
8E
330
7F
100
AcDbEntity
  8
중심선
100
AcDbLine
 10
7.28139805157953
 20
16.24717430164393
 30
0.0
 11
10.72767329541681
 21
16.24717430164393
 31
0.0
  0
LINE
  5
8F
330
7F
100
AcDbEntity
  8
중심선
100
AcDbLine
 10
12.29416204261559
 20
16.24717430164393
 30
0.0
 11
15.74043728645272
 21
16.24717430164393
 31
0.0
  0
LINE
  5
90
330
7F
100
AcDbEntity
  8
중심선
100
AcDbLine
 10
19.22036997980202
 20
11.08717430171403
 30
0.0
 11
23.66174974927406
 21
11.08717430171406
 31
0.0
  0
LINE
  5
91
330
7F
100
AcDbEntity
  8
중심선
100
AcDbLine
 10
19.22039502424796
 20
13.00717430171391
 30
0.0
 11
19.22036997980202
 21
11.08717430171403
 31
0.0
  0
LINE
  5
92
330
7F
100
AcDbEntity
  8
중심선
100
AcDbLine
 10
19.22039502424796
 20
13.00717430171391
 30
0.0
 11
26.96566020931264
 21
13.00717430171391
 31
0.0
  0
LINE
  5
93
330
7F
100
AcDbEntity
  8
중심선
100
AcDbLine
 10
22.22332737316547
 20
13.45928029700563
 30
0.0
 11
24.52862924686651
 21
15.39360700705356
 31
0.0
  0
ATTDEF
  5
95
330
7F
100
AcDbEntity
  8
FORMAT
 62
     2
100
AcDbText
 10
4.408487351596664
 20
2.075366912832191
 30
0.0
 40
4.233333333333333
  1
E1080040
 41
0.75
  7
SLDTEXTSTYLE0
 11
4.408487351596664
 21
-0.0412997538344756
 31
0.0
100
AcDbAttributeDefinition
  3

  2
AUTOATTR0
 70
     0
 74
     1
  0
ENDBLK
  5
81
330
7F
100
AcDbEntity
  8
0
100
AcDbBlockEnd
  0
BLOCK
  5
DC
330
DB
100
AcDbEntity
  8
0
100
AcDbBlockBegin
  2
_D
 70
     0
 10
0.0
 20
0.0
 30
0.0
  3
_D
  1
_D
  0
LINE
  5
DE
330
DB
100
AcDbEntity
  8
치수문자_일반주서
 62
     0
370
    -2
100
AcDbLine
 10
-41.03749999999999
 20
7.937499999999985
 30
0.0
 11
-54.47500000000004
 21
7.937499999999934
 31
0.0
  0
LINE
  5
DF
330
DB
100
AcDbEntity
  8
치수문자_일반주서
 62
     0
370
    -2
100
AcDbLine
 10
-41.03749999999999
 20
-7.937500000000015
 30
0.0
 11
-54.47499999999998
 21
-7.937500000000066
 31
0.0
  0
LINE
  5
E0
330
DB
100
AcDbEntity
  8
치수문자_일반주서
 62
     0
370
    -2
100
AcDbLine
 10
-54.47500000000002
 20
4.635499999999935
 30
0.0
 11
-54.47499999999999
 21
-4.635500000000066
 31
0.0
  0
SOLID
  5
E1
330
DB
100
AcDbEntity
  8
치수문자_일반주서
 62
     0
100
AcDbTrace
 10
-53.92466666666669
 20
4.635499999999936
 30
0.0
 11
-55.02533333333336
 21
4.635499999999933
 31
0.0
 12
-54.47500000000004
 22
7.937499999999934
 32
0.0
 13
-54.47500000000004
 23
7.937499999999934
 33
0.0
  0
SOLID
  5
E2
330
DB
100
AcDbEntity
  8
치수문자_일반주서
 62
     0
100
AcDbTrace
 10
-55.02533333333333
 20
-4.635500000000068
 30
0.0
 11
-53.92466666666666
 21
-4.635500000000064
 31
0.0
 12
-54.47499999999998
 22
-7.937500000000066
 32
0.0
 13
-54.47499999999998
 23
-7.937500000000066
 33
0.0
  0
MTEXT
  5
E3
330
DB
100
AcDbEntity
  8
치수문자_일반주서
 62
     0
100
AcDbMText
 10
-58.85000000000001
 20
-0.0000000000000234
 30
0.0
 40
3.5
 41
0.0
 71
     2
 72
     1
  1
\A1;%%c15.88 [5/8]
  7
SLDTEXTSTYLE0
 11
-3.580687802255623E-15
 21
1.0
 31
0.0
 73
     1
 44
1.0
  0
POINT
  5
E4
330
DB
100
AcDbEntity
  8
Defpoints
 62
     0
100
AcDbPoint
 10
-40.97499999999999
 20
7.937499999999985
 30
0.0
  0
POINT
  5
E5
330
DB
100
AcDbEntity
  8
Defpoints
 62
     0
100
AcDbPoint
 10
-40.97499999999999
 20
-7.937500000000015
 30
0.0
  0
POINT
  5
E6
330
DB
100
AcDbEntity
  8
Defpoints
 62
     0
100
AcDbPoint
 10
-54.47499999999998
 20
-7.937500000000066
 30
0.0
  0
ENDBLK
  5
DD
330
DB
100
AcDbEntity
  8
0
100
AcDbBlockEnd
  0
BLOCK
  5
F1
330
F0
100
AcDbEntity
  8
0
100
AcDbBlockBegin
  2
_D_1
 70
     0
 10
0.0
 20
0.0
 30
0.0
  3
_D_1
  1
_D_1
  0
LINE
  5
F3
330
F0
100
AcDbEntity
  8
치수문자_일반주서
 62
     0
370
    -2
100
AcDbLine
 10
62.80000000000001
 20
8.000000000000007
 30
0.0
 11
62.80000000000001
 21
16.47598394201881
 31
0.0
  0
LINE
  5
F4
330
F0
100
AcDbEntity
  8
치수문자_일반주서
 62
     0
370
    -2
100
AcDbLine
 10
12.0
 20
5.285955556224412
 30
0.0
 11
12.0
 21
16.47598394201881
 31
0.0
  0
LINE
  5
F5
330
F0
100
AcDbEntity
  8
치수문자_일반주서
 62
     0
370
    -2
100
AcDbLine
 10
59.49800000000001
 20
16.47598394201881
 30
0.0
 11
15.302
 21
16.47598394201881
 31
0.0
  0
SOLID
  5
F6
330
F0
100
AcDbEntity
  8
치수문자_일반주서
 62
     0
100
AcDbTrace
 10
59.49800000000001
 20
15.92565060868547
 30
0.0
 11
59.49800000000001
 21
17.02631727535214
 31
0.0
 12
62.80000000000001
 22
16.47598394201881
 32
0.0
 13
62.80000000000001
 23
16.47598394201881
 33
0.0
  0
SOLID
  5
F7
330
F0
100
AcDbEntity
  8
치수문자_일반주서
 62
     0
100
AcDbTrace
 10
15.302
 20
17.02631727535214
 30
0.0
 11
15.302
 21
15.92565060868547
 31
0.0
 12
12.0
 22
16.47598394201881
 32
0.0
 13
12.0
 23
16.47598394201881
 33
0.0
  0
MTEXT
  5
F8
330
F0
100
AcDbEntity
  8
치수문자_일반주서
 62
     0
100
AcDbMText
 10
36.59403953106988
 20
20.85098394201881
 30
0.0
 40
3.5
 41
0.0
 71
     2
 72
     1
  1
\A1;50.8 [2]
  7
SLDTEXTSTYLE0
 73
     1
 44
1.0
  0
POINT
  5
F9
330
F0
100
AcDbEntity
  8
Defpoints
 62
     0
100
AcDbPoint
 10
62.80000000000001
 20
7.937500000000007
 30
0.0
  0
POINT
  5
FA
330
F0
100
AcDbEntity
  8
Defpoints
 62
     0
100
AcDbPoint
 10
12.0
 20
5.223455556224412
 30
0.0
  0
POINT
  5
FB
330
F0
100
AcDbEntity
  8
Defpoints
 62
     0
100
AcDbPoint
 10
12.0
 20
16.47598394201881
 30
0.0
  0
ENDBLK
  5
F2
330
F0
100
AcDbEntity
  8
0
100
AcDbBlockEnd
  0
BLOCK
  5
106
330
105
100
AcDbEntity
  8
0
100
AcDbBlockBegin
  2
_D_2
 70
     0
 10
0.0
 20
0.0
 30
0.0
  3
_D_2
  1
_D_2
  0
LINE
  5
108
330
105
100
AcDbEntity
  8
치수문자_일반주서
 62
     0
370
    -2
100
AcDbLine
 10
62.80000000000001
 20
8.000000000000007
 30
0.0
 11
62.80000000000001
 21
38.05774771491231
 31
0.0
  0
LINE
  5
109
330
105
100
AcDbEntity
  8
치수문자_일반주서
 62
     0
370
    -2
100
AcDbLine
 10
-41.97499999999999
 20
6.999999999999989
 30
0.0
 11
-41.97499999999999
 21
38.05774771491231
 31
0.0
  0
LINE
  5
10A
330
105
100
AcDbEntity
  8
치수문자_일반주서
 62
     0
370
    -2
100
AcDbLine
 10
59.49800000000001
 20
38.05774771491231
 30
0.0
 11
-38.67299999999999
 21
38.05774771491231
 31
0.0
  0
SOLID
  5
10B
330
105
100
AcDbEntity
  8
치수문자_일반주서
 62
     0
100
AcDbTrace
 10
59.49800000000001
 20
37.50741438157898
 30
0.0
 11
59.49800000000001
 21
38.60808104824564
 31
0.0
 12
62.80000000000001
 22
38.05774771491231
 32
0.0
 13
62.80000000000001
 23
38.05774771491231
 33
0.0
  0
SOLID
  5
10C
330
105
100
AcDbEntity
  8
치수문자_일반주서
 62
     0
100
AcDbTrace
 10
-38.67299999999999
 20
38.60808104824564
 30
0.0
 11
-38.67299999999999
 21
37.50741438157898
 31
0.0
 12
-41.97499999999999
 22
38.05774771491231
 32
0.0
 13
-41.97499999999999
 23
38.05774771491231
 33
0.0
  0
MTEXT
  5
10D
330
105
100
AcDbEntity
  8
치수문자_일반주서
 62
     0
100
AcDbMText
 10
10.41249999999986
 20
42.43274771491231
 30
0.0
 40
3.5
 41
0.0
 71
     2
 72
     1
  1
\A1;104.78 [4 1/8]
  7
SLDTEXTSTYLE0
 73
     1
 44
1.0
  0
POINT
  5
10E
330
105
100
AcDbEntity
  8
Defpoints
 62
     0
100
AcDbPoint
 10
62.80000000000001
 20
7.937500000000007
 30
0.0
  0
POINT
  5
10F
330
105
100
AcDbEntity
  8
Defpoints
 62
     0
100
AcDbPoint
 10
-41.97499999999999
 20
6.937499999999989
 30
0.0
  0
POINT
  5
110
330
105
100
AcDbEntity
  8
Defpoints
 62
     0
100
AcDbPoint
 10
-41.97499999999999
 20
38.05774771491231
 30
0.0
  0
ENDBLK
  5
107
330
105
100
AcDbEntity
  8
0
100
AcDbBlockEnd
  0
BLOCK
  5
119
330
118
100
AcDbEntity
  8
0
100
AcDbBlockBegin
  2
_D_3
 70
     0
 10
0.0
 20
0.0
 30
0.0
  3
_D_3
  1
_D_3
  0
LINE
  5
11B
330
118
100
AcDbEntity
  8
치수문자_일반주서
 62
     0
370
    -2
100
AcDbLine
 10
62.8625
 20
-7.937499999999996
 30
0.0
 11
78.97575425165975
 21
-7.93749999999994
 31
0.0
  0
LINE
  5
11C
330
118
100
AcDbEntity
  8
치수문자_일반주서
 62
     0
370
    -2
100
AcDbLine
 10
62.86250000000001
 20
7.937500000000007
 30
0.0
 11
78.9757542516597
 21
7.937500000000068
 31
0.0
  0
LINE
  5
11D
330
118
100
AcDbEntity
  8
치수문자_일반주서
 62
     0
370
    -2
100
AcDbLine
 10
78.9757542516597
 20
7.937500000000068
 30
0.0
 11
78.97575425165957
 21
42.54150000000013
 31
0.0
  0
LINE
  5
11E
330
118
100
AcDbEntity
  8
치수문자_일반주서
 62
     0
370
    -2
100
AcDbLine
 10
78.97575425165975
 20
-7.93749999999994
 30
0.0
 11
78.9757542516597
 21
7.937500000000068
 31
0.0
  0
LINE
  5
11F
330
118
100
AcDbEntity
  8
치수문자_일반주서
 62
     0
370
    -2
100
AcDbLine
 10
78.97575425165977
 20
-11.23949999999994
 30
0.0
 11
78.97575425165978
 21
-14.54149999999994
 31
0.0
  0
LINE
  5
120
330
118
100
AcDbEntity
  8
치수문자_일반주서
 62
     0
370
    -2
100
AcDbLine
 10
78.97575425165968
 20
11.23950000000007
 30
0.0
 11
78.97575425165967
 21
14.54150000000007
 31
0.0
  0
SOLID
  5
121
330
118
100
AcDbEntity
  8
치수문자_일반주서
 62
     0
100
AcDbTrace
 10
79.52608758499309
 20
-11.23949999999994
 30
0.0
 11
78.42542091832644
 21
-11.23949999999994
 31
0.0
 12
78.97575425165975
 22
-7.93749999999994
 32
0.0
 13
78.97575425165975
 23
-7.93749999999994
 33
0.0
  0
SOLID
  5
122
330
118
100
AcDbEntity
  8
치수문자_일반주서
 62
     0
100
AcDbTrace
 10
78.42542091832635
 20
11.23950000000007
 30
0.0
 11
79.52608758499301
 21
11.23950000000007
 31
0.0
 12
78.9757542516597
 22
7.937500000000068
 32
0.0
 13
78.9757542516597
 23
7.937500000000068
 33
0.0
  0
MTEXT
  5
123
330
118
100
AcDbEntity
  8
치수문자_일반주서
 62
     0
100
AcDbMText
 10
74.60075425165962
 20
28.54150000000011
 30
0.0
 40
3.5
 41
0.0
 71
     2
 72
     1
  1
\A1;%%c15.88 [5/8]
  7
SLDTEXTSTYLE0
 11
-3.580687802255622E-15
 21
1.0
 31
0.0
 73
     1
 44
1.0
  0
POINT
  5
124
330
118
100
AcDbEntity
  8
Defpoints
 62
     0
100
AcDbPoint
 10
62.8
 20
-7.937499999999996
 30
0.0
  0
POINT
  5
1BB
330
118
100
AcDbEntity
  8
Defpoints
 62
     0
100
AcDbPoint
 10
62.80000000000001
 20
7.937500000000007
 30
0.0
  0
POINT
  5
1BC
330
118
100
AcDbEntity
  8
Defpoints
 62
     0
100
AcDbPoint
 10
78.9757542516597
 20
7.937500000000068
 30
0.0
  0
ENDBLK
  5
11A
330
118
100
AcDbEntity
  8
0
100
AcDbBlockEnd
  0
BLOCK
  5
132
330
131
100
AcDbEntity
  8
0
100
AcDbBlockBegin
  2
SW_DOWELSYMBOL_0
 70
     0
 10
0.0
 20
0.0
 30
0.0
  3
SW_DOWELSYMBOL_0
  1
SW_DOWELSYMBOL_0
  0
CIRCLE
  5
134
330
131
100
AcDbEntity
  8
해칭선
 62
     0
100
AcDbCircle
 10
0.0
 20
0.0
 30
0.0
 40
2.999999999999996
  0
HATCH
  5
135
330
131
100
AcDbEntity
  8
0
  6
Continuous
 62
     0
370
     0
100
AcDbHatch
 10
0.0
 20
0.0
 30
0.0
210
0.0
220
0.0
230
1.0
  2
SOLID
 70
     1
 71
     0
 91
        1
 92
        0
 93
        3
 72
     2
 10
0.0
 20
0.0
 40
2.999999999999996
 50
0.0
 51
90.0
 73
     1
 72
     1
 10
0.0
 20
2.999999999999996
 11
0.0
 21
0.0
 72
     1
 10
0.0
 20
0.0
 11
2.999999999999996
 21
0.0
 97
        0
 75
     0
 76
     1
 98
        1
 10
0.0
 20
0.0
  0
HATCH
  5
136
330
131
100
AcDbEntity
  8
0
  6
Continuous
 62
     0
370
     0
100
AcDbHatch
 10
0.0
 20
0.0
 30
0.0
210
0.0
220
0.0
230
1.0
  2
SOLID
 70
     1
 71
     0
 91
        1
 92
        0
 93
        3
 72
     2
 10
0.0
 20
0.0
 40
2.999999999999996
 50
180.0
 51
270.0000000000007
 73
     1
 72
     1
 10
0.0
 20
-2.999999999999996
 11
0.0
 21
0.0
 72
     1
 10
0.0
 20
0.0
 11
-2.999999999999996
 21
0.0
 97
        0
 75
     0
 76
     1
 98
        1
 10
0.0
 20
0.0
  0
ENDBLK
  5
133
330
131
100
AcDbEntity
  8
0
100
AcDbBlockEnd
  0
ENDSEC
  0
SECTION
  2
ENTITIES
  0
LINE
  5
96
330
1F
100
AcDbEntity
  8
외형선
  6
Continuous
370
    15
100
AcDbLine
 10
8.949946446240594
 20
7.937499999999999
 30
0.0
 11
-10.0219250000001
 21
7.937499999999997
 31
0.0
  0
LINE
  5
97
330
1F
100
AcDbEntity
  8
외형선
  6
Continuous
370
    15
100
AcDbLine
 10
-40.97500000000001
 20
-7.937500000000004
 30
0.0
 11
8.949946446240594
 21
-7.937500000000001
 31
0.0
  0
LINE
  5
98
330
1F
100
AcDbEntity
  8
외형선
  6
Continuous
370
    15
100
AcDbLine
 10
-40.97500000000001
 20
7.937499999999988
 30
0.0
 11
-41.97499999999999
 21
6.937499999999988
 31
0.0
  0
LINE
  5
99
330
1F
100
AcDbEntity
  8
외형선
  6
Continuous
370
    15
100
AcDbLine
 10
-41.97499999999999
 20
-6.937499999999996
 30
0.0
 11
-40.97500000000001
 21
-7.937499999999997
 31
0.0
  0
SPLINE
  5
9A
330
1F
100
AcDbEntity
  8
외형선
  6
Continuous
370
    15
100
AcDbSpline
210
0.0
220
0.0
230
1.0
 70
     8
 71
     3
 72
     9
 73
     5
 74
     0
 42
0.000000001
 43
0.00000001
 40
0.0
 40
0.0
 40
0.0
 40
0.0
 40
0.4759548527356722
 40
0.9999999999999999
 40
0.9999999999999999
 40
0.9999999999999999
 40
0.9999999999999999
 10
12.00000000000001
 20
5.223455496780045
 30
0.0
 10
11.51316376299055
 20
5.226152228467169
 30
0.0
 10
10.49030154357782
 20
5.231818168569731
 30
0.0
 10
9.467616839404146
 20
5.280834573175356
 30
0.0
 10
8.931683883000474
 20
5.306521382145279
 30
0.0
  0
ARC
  5
9B
330
1F
100
AcDbEntity
  8
외형선
  6
Continuous
370
    15
100
AcDbCircle
 10
9.299946439162841
 20
-5.637806827757777
 30
0.0
 40
0.3499999929222982
100
AcDbArc
 50
148.6693344861341
 51
179.9847955495106
  0
LINE
  5
9C
330
1F
100
AcDbEntity
  8
0
  6
Continuous
 62
     1
370
    15
100
AcDbLine
 10
40.07780945901062
 20
3.112650971085382
 30
0.0
 11
40.03447589211733
 21
3.135227671419575
 31
0.0
  0
SPLINE
  5
9D
330
1F
100
AcDbEntity
  8
0
  6
Continuous
 62
     1
370
    15
100
AcDbSpline
210
0.0
220
0.0
230
1.0
 70
     8
 71
     3
 72
    11
 73
     7
 74
     0
 42
0.000000001
 43
0.00000001
 40
0.0
 40
0.0
 40
0.0
 40
0.0
 40
0.3183752550740264
 40
0.5087084513011094
 40
0.6999270004600076
 40
1.0
 40
1.0
 40
1.0
 40
1.0
 10
42.23525374047969
 20
2.03396006258862
 30
0.0
 10
42.00614890907177
 20
2.142383588074893
 30
0.0
 10
41.64007911528698
 20
2.315625581149713
 30
0.0
 10
41.13755916431994
 20
2.565579241193017
 30
0.0
 10
40.64757930193829
 20
2.813668175412496
 30
0.0
 10
40.29385722889774
 20
2.999281393805136
 30
0.0
 10
40.07780945901062
 20
3.112650971085382
 30
0.0
  0
LINE
  5
9E
330
1F
100
AcDbEntity
  8
0
  6
Continuous
 62
     1
370
    15
100
AcDbLine
 10
24.0225560887455
 20
7.937500000000003
 30
0.0
 11
20.17460716362707
 21
7.937500000000003
 31
0.0
  0
SPLINE
  5
9F
330
1F
100
AcDbEntity
  8
0
  6
Continuous
 62
     1
370
    15
100
AcDbSpline
210
0.0
220
0.0
230
1.0
 70
     8
 71
     3
 72
    17
 73
    13
 74
     0
 42
0.000000001
 43
0.00000001
 40
0.0
 40
0.0
 40
0.0
 40
0.0
 40
0.1262973188514155
 40
0.2257862812385878
 40
0.3067466272512429
 40
0.3893740899726937
 40
0.4732847587753292
 40
0.5466146348440941
 40
0.6448946084510676
 40
0.7566164552983776
 40
0.8932351087232281
 40
1.0
 40
1.0
 40
1.0
 40
1.0
 10
39.61148792208138
 20
6.307442628092178
 30
0.0
 10
39.34295089846842
 20
6.293817682692486
 30
0.0
 10
38.86287755654908
 20
6.2694598754021
 30
0.0
 10
38.19830549394109
 20
6.243819128616196
 30
0.0
 10
37.61947987522878
 20
6.22622405308231
 30
0.0
 10
37.07926315457692
 20
6.213367815256611
 30
0.0
 10
36.55924390496239
 20
6.204758876493316
 30
0.0
 10
36.00537330799182
 20
6.199347634581501
 30
0.0
 10
35.39108696513671
 20
6.197921914843414
 30
0.0
 10
34.63940004864443
 20
6.203212769754549
 30
0.0
 10
33.8693184323491
 20
6.216310607843004
 30
0.0
 10
33.34167042022199
 20
6.23222241821416
 30
0.0
 10
33.11020743156259
 20
6.239202441068112
 30
0.0
  0
SPLINE
  5
A0
330
1F
100
AcDbEntity
  8
0
  6
Continuous
 62
     1
370
    15
100
AcDbSpline
210
0.0
220
0.0
230
1.0
 70
     8
 71
     3
 72
    26
 73
    22
 74
     0
 42
0.000000001
 43
0.00000001
 40
0.0
 40
0.0
 40
0.0
 40
0.0
 40
0.0743019523599853
 40
0.1273297649322458
 40
0.1598267103693473
 40
0.1937752179535063
 40
0.2402301494479773
 40
0.2901815394747538
 40
0.3306871997911735
 40
0.3729542278328418
 40
0.4122208133240334
 40
0.4559359773055281
 40
0.5134132256566745
 40
0.5847821531051892
 40
0.6435681254437451
 40
0.6946040994470565
 40
0.7549039010176879
 40
0.8090033612228428
 40
0.8610119051576731
 40
0.9204647479145647
 40
1.0
 40
1.0
 40
1.0
 40
1.0
 10
27.67389942047406
 20
-6.605089410484362
 30
0.0
 10
27.9693896360691
 20
-6.576304553234326
 30
0.0
 10
28.47576528968865
 20
-6.526976520916979
 30
0.0
 10
29.11108648192469
 20
-6.472639532887143
 30
0.0
 10
29.58765919735738
 20
-6.434481007470542
 30
0.0
 10
30.03804729506808
 20
-6.400615436925312
 30
0.0
 10
30.55698252855223
 20
-6.36451349637521
 30
0.0
 10
31.10177439790324
 20
-6.330658291560511
 30
0.0
 10
31.62991434425895
 20
-6.301517524607364
 30
0.0
 10
32.11557093313124
 20
-6.277799242807073
 30
0.0
 10
32.61414865404862
 20
-6.256575180354089
 30
0.0
 10
33.17318950158494
 20
-6.236332463731852
 30
0.0
 10
33.85986972882863
 20
-6.216989350940455
 30
0.0
 10
34.60678480658839
 20
-6.20364294070018
 30
0.0
 10
35.32802918622414
 20
-6.198202029325307
 30
0.0
 10
36.00516475572888
 20
-6.199054518997757
 30
0.0
 10
36.66311113999798
 20
-6.205749347952824
 30
0.0
 10
37.32634979835889
 20
-6.218527631368421
 30
0.0
 10
37.99363731270185
 20
-6.236888829287597
 30
0.0
 10
38.75898382651593
 20
-6.264441980899685
 30
0.0
 10
39.30120470018345
 20
-6.291791818408111
 30
0.0
 10
39.61148792208138
 20
-6.307442628092178
 30
0.0
  0
SPLINE
  5
A1
330
1F
100
AcDbEntity
  8
0
  6
Continuous
 62
     1
370
    15
100
AcDbSpline
210
0.0
220
0.0
230
1.0
 70
     8
 71
     3
 72
    30
 73
    26
 74
     0
 42
0.000000001
 43
0.00000001
 40
0.0
 40
0.0
 40
0.0
 40
0.0
 40
0.0708351795783082
 40
0.1241001210277821
 40
0.1614368639793488
 40
0.1976380709106568
 40
0.2389661003321263
 40
0.2825904772516011
 40
0.3222031698512768
 40
0.3684356005576784
 40
0.4069465731501186
 40
0.4435849828439916
 40
0.4928756873220278
 40
0.5476583115346124
 40
0.5888215691842731
 40
0.6251574483312594
 40
0.6699999230269289
 40
0.7244404959445809
 40
0.7580682247439766
 40
0.7866758244080246
 40
0.8092210403517285
 40
0.8320182048999402
 40
0.8711069507317188
 40
0.9271721586127358
 40
1.0
 40
1.0
 40
1.0
 40
1.0
 10
59.85116188760175
 20
5.428878101274818
 30
0.0
 10
59.52709445791683
 20
5.402502000980643
 30
0.0
 10
58.95934256564416
 20
5.356292232639061
 30
0.0
 10
58.22788983683056
 20
5.311248843283061
 30
0.0
 10
57.68528673240696
 20
5.280209985986863
 30
0.0
 10
57.15898388258719
 20
5.256437762000154
 30
0.0
 10
56.58417314621717
 20
5.239636446865147
 30
0.0
 10
55.98873707611661
 20
5.229139783202165
 30
0.0
 10
55.37326730482924
 20
5.222877524511161
 30
0.0
 10
54.7943652520354
 20
5.223324263587602
 30
0.0
 10
54.23628670598349
 20
5.229879930255437
 30
0.0
 10
53.66587454177265
 20
5.241914739764401
 30
0.0
 10
53.01112514629052
 20
5.262991750784513
 30
0.0
 10
52.33437764732942
 20
5.293824019009052
 30
0.0
 10
51.71997234775388
 20
5.329429928118421
 30
0.0
 10
51.1534884033115
 20
5.367636175388391
 30
0.0
 10
50.52547739621465
 20
5.41621501164548
 30
0.0
 10
49.90992149799612
 20
5.471254653466668
 30
0.0
 10
49.36931972206132
 20
5.525452979007768
 30
0.0
 10
48.97769684378744
 20
5.567651157436545
 30
0.0
 10
48.63879217807585
 20
5.606049278207633
 30
0.0
 10
48.25323938577769
 20
5.651576067801794
 30
0.0
 10
47.70579420306807
 20
5.720209636425635
 30
0.0
 10
46.92558959562665
 20
5.825696905361063
 30
0.0
 10
46.32467410403049
 20
5.917945117678101
 30
0.0
 10
45.98514161288719
 20
5.970067696925181
 30
0.0
  0
SPLINE
  5
A2
330
1F
100
AcDbEntity
  8
0
  6
Continuous
 62
     1
370
    15
100
AcDbSpline
210
0.0
220
0.0
230
1.0
 70
     8
 71
     3
 72
    17
 73
    13
 74
     0
 42
0.000000001
 43
0.00000001
 40
0.0
 40
0.0
 40
0.0
 40
0.0
 40
0.1642193395737329
 40
0.2879715842014972
 40
0.3766705567142277
 40
0.4613471738757288
 40
0.5921119766539249
 40
0.6984070318454528
 40
0.7650487992903201
 40
0.8523663164236011
 40
0.9525333453496453
 40
1.0
 40
1.0
 40
1.0
 40
1.0
 10
45.98514161288719
 20
-5.970067696925182
 30
0.0
 10
46.30545270962216
 20
-5.920797214042961
 30
0.0
 10
46.8671435202387
 20
-5.834397530261531
 30
0.0
 10
47.60680751966504
 20
-5.733250886927297
 30
0.0
 10
48.20076610555466
 20
-5.657894408127349
 30
0.0
 10
48.80542266433011
 20
-5.586151709987746
 30
0.0
 10
49.43895544577458
 20
-5.51735476564012
 30
0.0
 10
50.03776038026733
 20
-5.459686955380555
 30
0.0
 10
50.55138560739437
 20
-5.414810768247801
 30
0.0
 10
51.05270705323672
 20
-5.375213076583425
 30
0.0
 10
51.51605251345032
 20
-5.342359605359349
 30
0.0
 10
51.80699627815602
 20
-5.32529179814103
 30
0.0
 10
51.90053947824026
 20
-5.319804217724116
 30
0.0
  0
SPLINE
  5
A3
330
1F
100
AcDbEntity
  8
0
  6
Continuous
 62
     1
370
    15
100
AcDbSpline
210
0.0
220
0.0
230
1.0
 70
     8
 71
     3
 72
    14
 73
    10
 74
     0
 42
0.000000001
 43
0.00000001
 40
0.0
 40
0.0
 40
0.0
 40
0.0
 40
0.2182621818553599
 40
0.394552226424653
 40
0.5355280653957304
 40
0.6221919342478118
 40
0.708332855240696
 40
0.8336528082954464
 40
1.0
 40
1.0
 40
1.0
 40
1.0
 10
16.66007254649953
 20
5.428878792384502
 30
0.0
 10
16.33378166429649
 20
5.402031525702978
 30
0.0
 10
15.74394611449617
 20
5.35349976104926
 30
0.0
 10
14.90189365024453
 20
5.30287092417181
 30
0.0
 10
14.25737347395291
 20
5.272649829959465
 30
0.0
 10
13.76366580467367
 20
5.253988951548149
 30
0.0
 10
13.30095613231737
 20
5.240108585202311
 30
0.0
 10
12.71239824263712
 20
5.227274222350339
 30
0.0
 10
12.25873741846788
 20
5.224842427764374
 30
0.0
 10
11.99999999999998
 20
5.223455496780044
 30
0.0
  0
LINE
  5
A4
330
1F
100
AcDbEntity
  8
0
  6
Continuous
 62
     1
370
    15
100
AcDbLine
 10
20.17387631804877
 20
-7.937500000000004
 30
0.0
 11
24.02255608874545
 21
-7.937500000000004
 31
0.0
  0
SPLINE
  5
A5
330
1F
100
AcDbEntity
  8
외형선
  6
Continuous
370
    15
100
AcDbSpline
210
0.0
220
0.0
230
1.0
 70
     8
 71
     3
 72
    10
 73
     6
 74
     0
 42
0.000000001
 43
0.00000001
 40
0.0
 40
0.0
 40
0.0
 40
0.0
 40
0.5
 40
0.5
 40
1.0
 40
1.0
 40
1.0
 40
1.0
 10
8.949946446240517
 20
5.436044571105917
 30
0.0
 10
9.456668181726396
 20
5.649709195871945
 30
0.0
 10
9.967115058408316
 20
5.852734277370178
 30
0.0
 10
10.98607223235513
 20
6.233640429202921
 30
0.0
 10
11.49181291041018
 20
6.411232689860853
 30
0.0
 10
12.0
 20
6.575624351474394
 30
0.0
  0
SPLINE
  5
A6
330
1F
100
AcDbEntity
  8
외형선
  6
Continuous
370
    15
100
AcDbSpline
210
0.0
220
0.0
230
1.0
 70
     8
 71
     3
 72
    10
 73
     6
 74
     0
 42
0.000000001
 43
0.00000001
 40
0.0
 40
0.0
 40
0.0
 40
0.0
 40
0.5
 40
0.5
 40
1.0
 40
1.0
 40
1.0
 40
1.0
 10
12.0
 20
-5.092027680779005
 30
0.0
 10
11.49180354991398
 20
-4.866873446824464
 30
0.0
 10
10.98605349962617
 20
-4.631653104119638
 30
0.0
 10
9.96707748542651
 20
-4.142018079397292
 30
0.0
 10
9.456621240442404
 20
-3.888007608815253
 30
0.0
 10
8.949890445223993
 20
-3.627186793200198
 30
0.0
  0
LINE
  5
A7
330
1F
100
AcDbEntity
  8
외형선
  6
Continuous
370
    15
100
AcDbLine
 10
12.0
 20
-5.092027680779005
 30
0.0
 11
12.0
 21
-6.575624351474393
 31
0.0
  0
SPLINE
  5
A8
330
1F
100
AcDbEntity
  8
외형선
  6
Continuous
370
    15
100
AcDbSpline
210
0.0
220
0.0
230
1.0
 70
     8
 71
     3
 72
    10
 73
     6
 74
     0
 42
0.000000001
 43
0.00000001
 40
0.0
 40
0.0
 40
0.0
 40
0.0
 40
0.5
 40
0.5
 40
1.0
 40
1.0
 40
1.0
 40
1.0
 10
8.949946446240517
 20
-5.436044571105917
 30
0.0
 10
9.456668181726396
 20
-5.649709195871946
 30
0.0
 10
9.967115058408316
 20
-5.852734277370178
 30
0.0
 10
10.98607223235513
 20
-6.233640429202922
 30
0.0
 10
11.49181291041018
 20
-6.411232689860854
 30
0.0
 10
12.0
 20
-6.575624351474395
 30
0.0
  0
LINE
  5
A9
330
1F
100
AcDbEntity
  8
외형선
  6
Continuous
370
    15
100
AcDbLine
 10
8.949946446240594
 20
-7.937500000000001
 30
0.0
 11
8.94994644624052
 21
-5.436045237720495
 31
0.0
  0
LINE
  5
AA
330
1F
100
AcDbEntity
  8
외형선
  6
Continuous
370
    15
100
AcDbLine
 10
-40.97500000000001
 20
7.937499999999988
 30
0.0
 11
-40.97500000000001
 21
-7.937500000000004
 31
0.0
  0
LINE
  5
AB
330
1F
100
AcDbEntity
  8
외형선
  6
Continuous
370
    15
100
AcDbLine
 10
8.949946446240556
 20
-3.62688420652909
 30
0.0
 11
8.949946446240594
 21
7.937499999999999
 31
0.0
  0
LINE
  5
AC
330
1F
100
AcDbEntity
  8
외형선
  6
Continuous
370
    15
100
AcDbLine
 10
-41.97499999999999
 20
6.937499999999989
 30
0.0
 11
-41.97499999999999
 21
-6.937499999999996
 31
0.0
  0
SPLINE
  5
AD
330
1F
100
AcDbEntity
  8
외형선
  6
Continuous
370
    15
100
AcDbSpline
210
0.0
220
0.0
230
1.0
 70
    24
 71
     3
 72
     8
 73
     4
 74
     0
 42
0.000000001
 43
0.00000001
 40
0.0
 40
0.0
 40
0.0
 40
0.0
 40
1.0
 40
1.0
 40
1.0
 40
1.0
 10
12.0
 20
-4.008411518848831
 30
0.0
 10
12.0
 20
-4.350055584053491
 30
0.0
 10
12.0
 20
-4.713495649631189
 30
0.0
 10
12.0
 20
-5.092027680764176
 30
0.0
  0
SPLINE
  5
AE
330
1F
100
AcDbEntity
  8
외형선
  6
Continuous
370
    15
100
AcDbSpline
210
0.0
220
0.0
230
1.0
 70
     8
 71
     3
 72
    10
 73
     6
 74
     0
 42
0.000000001
 43
0.00000001
 40
0.0
 40
0.0
 40
0.0
 40
0.0
 40
0.5
 40
0.5
 40
1.0
 40
1.0
 40
1.0
 40
1.0
 10
12.00000000000002
 20
-4.008411518848838
 30
0.0
 10
11.49180354991399
 20
-3.807731992081769
 30
0.0
 10
10.98605349962618
 20
-3.599165989444413
 30
0.0
 10
9.967077485426517
 20
-3.167097908935206
 30
0.0
 10
9.456621240442407
 20
-2.943957274663036
 30
0.0
 10
8.949890445223993
 20
-2.715797875999546
 30
0.0
  0
SPLINE
  5
AF
330
1F
100
AcDbEntity
  8
외형선
  6
Continuous
370
    15
100
AcDbSpline
210
0.0
220
0.0
230
1.0
 70
    24
 71
     3
 72
    14
 73
    10
 74
     0
 42
0.000000001
 43
0.00000001
 40
0.0
 40
0.0
 40
0.0
 40
0.0
 40
0.25
 40
0.25
 40
0.5
 40
0.5
 40
0.75
 40
0.75
 40
1.0
 40
1.0
 40
1.0
 40
1.0
 10
12.0
 20
3.337392940623102
 30
0.0
 10
12.0
 20
2.782909680969782
 30
0.0
 10
12.0
 20
2.187678518540167
 30
0.0
 10
12.0
 20
0.9506606443346965
 30
0.0
 10
12.0
 20
0.3091572319857018
 30
0.0
 10
12.0
 20
-0.9747040989354729
 30
0.0
 10
12.0
 20
-1.616691277328306
 30
0.0
 10
12.0
 20
-2.855576097401403
 30
0.0
 10
12.0
 20
-3.452188969543625
 30
0.0
 10
12.0
 20
-4.00841151884883
 30
0.0
  0
SPLINE
  5
B0
330
1F
100
AcDbEntity
  8
외형선
  6
Continuous
370
    15
100
AcDbSpline
210
0.0
220
0.0
230
1.0
 70
     8
 71
     3
 72
    10
 73
     6
 74
     0
 42
0.000000001
 43
0.00000001
 40
0.0
 40
0.0
 40
0.0
 40
0.0
 40
0.5000000000000001
 40
0.5000000000000001
 40
1.0
 40
1.0
 40
1.0
 40
1.0
 10
12.00000000000001
 20
3.337392940623093
 30
0.0
 10
11.49180949048584
 20
3.537152800692851
 30
0.0
 10
10.98606538821885
 20
3.729759650798301
 30
0.0
 10
9.967101330850243
 20
4.099821261340488
 30
0.0
 10
9.456651031391116
 20
4.276900056168452
 30
0.0
 10
8.949925985864423
 20
4.444443304583797
 30
0.0
  0
SPLINE
  5
B1
330
1F
100
AcDbEntity
  8
외형선
  6
Continuous
370
    15
100
AcDbSpline
210
0.0
220
0.0
230
1.0
 70
    24
 71
     3
 72
    11
 73
     7
 74
     0
 42
0.000000001
 43
0.00000001
 40
0.0
 40
0.0
 40
0.0
 40
0.0
 40
0.2461378616249201
 40
0.5015731816291549
 40
0.7472989291507469
 40
1.0
 40
1.0
 40
1.0
 40
1.0
 10
12.0
 20
5.222446130913729
 30
0.0
 10
12.0
 20
5.200156266788731
 30
0.0
 10
12.0
 20
5.154734575085349
 30
0.0
 10
12.0
 20
4.775259241236147
 30
0.0
 10
12.0
 20
4.191021095795811
 30
0.0
 10
12.0
 20
3.624578055188868
 30
0.0
 10
12.0
 20
3.337392940623101
 30
0.0
  0
SPLINE
  5
B2
330
1F
100
AcDbEntity
  8
외형선
  6
Continuous
370
    15
100
AcDbSpline
210
0.0
220
0.0
230
1.0
 70
    24
 71
     3
 72
    11
 73
     7
 74
     0
 42
0.000000001
 43
0.00000001
 40
0.0
 40
0.0
 40
0.0
 40
0.0
 40
0.1344116122996271
 40
0.4818026947604951
 40
0.8392681421466878
 40
1.0
 40
1.0
 40
1.0
 40
1.0
 10
11.99999999999999
 20
6.575624351474396
 30
0.0
 10
12.0
 20
6.511067047563121
 30
0.0
 10
12.00000000000002
 20
6.279659340604086
 30
0.0
 10
12.0
 20
5.898863101094392
 30
0.0
 10
12.00000000000002
 20
5.530306262089097
 30
0.0
 10
12.00000000000001
 20
5.351185590179789
 30
0.0
 10
12.0
 20
5.295626832762844
 30
0.0
  0
SPLINE
  5
B3
330
1F
100
AcDbEntity
  8
0
  6
Continuous
 62
     1
370
    15
100
AcDbSpline
210
0.0
220
0.0
230
1.0
 70
     8
 71
     3
 72
    24
 73
    20
 74
     0
 42
0.000000001
 43
0.00000001
 40
0.0
 40
0.0
 40
0.0
 40
0.0
 40
0.0587155213713601
 40
0.1174026948910504
 40
0.1760744504578997
 40
0.234743786979466
 40
0.293423714202826
 40
0.3521271944435469
 40
0.4108508383633664
 40
0.4754122664672399
 40
0.53996787212171
 40
0.6045189358413444
 40
0.6690667425397705
 40
0.7336125802886777
 40
0.7981577390702975
 40
0.8627035095259361
 40
0.9272511817031407
 40
0.9918020438040979
 40
1.0
 40
1.0
 40
1.0
 40
1.0
 10
62.80000000000001
 20
-7.532218149528208
 30
0.0
 10
62.0409942662658
 20
-7.374137717022773
 30
0.0
 10
60.52334924673914
 20
-7.058053173239204
 30
0.0
 10
58.2475693025134
 20
-6.33565369049135
 30
0.0
 10
55.97248349903215
 20
-5.454912192041769
 30
0.0
 10
53.69751520074276
 20
-4.421108838937254
 30
0.0
 10
51.42205692946096
 20
-3.267428562279328
 30
0.0
 10
49.14569945624329
 20
-2.024028092082982
 30
0.0
 10
46.79308368030301
 20
-0.6825343424757534
 30
0.0
 10
44.36500285192956
 20
0.7252370782647194
 30
0.0
 10
41.86160093334848
 20
2.152535356339048
 30
0.0
 10
39.35842086273971
 20
3.508721536392333
 30
0.0
 10
36.85538947270219
 20
4.748724204942924
 30
0.0
 10
34.35245051737927
 20
5.832216903247377
 30
0.0
 10
31.84954267525567
 20
6.721025483272255
 30
0.0
 10
29.34660744815701
 20
7.394581785982371
 30
0.0
 10
26.8435799268625
 20
7.797744843299236
 30
0.0
 10
25.06889131391437
 20
7.969402829586326
 30
0.0
 10
24.12852461430955
 20
7.927644241370528
 30
0.0
 10
24.0225560887455
 20
7.922938528136823
 30
0.0
  0
SPLINE
  5
B4
330
1F
100
AcDbEntity
  8
0
  6
Continuous
 62
     1
370
    15
100
AcDbSpline
210
0.0
220
0.0
230
1.0
 70
     8
 71
     3
 72
    17
 73
    13
 74
     0
 42
0.000000001
 43
0.00000001
 40
0.0
 40
0.0
 40
0.0
 40
0.0
 40
0.109026297534531
 40
0.2179902832046527
 40
0.3269236416021338
 40
0.4358582180242976
 40
0.5448258513716772
 40
0.6538576596165369
 40
0.7628780822350617
 40
0.8718386054282702
 40
0.9807709319412065
 40
1.0
 40
1.0
 40
1.0
 40
1.0
 10
62.8
 20
-6.262467348422716
 30
0.0
 10
62.05167165608609
 20
-6.109804995621761
 30
0.0
 10
60.55544266079991
 20
-5.804567541224774
 30
0.0
 10
58.31179008505498
 20
-5.14769801391313
 30
0.0
 10
56.0688421580264
 20
-4.366039536148899
 30
0.0
 10
53.82586425235948
 20
-3.465193739373013
 30
0.0
 10
51.58213291676957
 20
-2.472847113564263
 30
0.0
 10
49.33752119350333
 20
-1.415222783350389
 30
0.0
 10
47.09302408987035
 20
-0.3184914377257513
 30
0.0
 10
44.84944629262122
 20
0.7814202873734885
 30
0.0
 10
43.22216178759773
 20
1.579025946589723
 30
0.0
 10
42.34262003216938
 20
1.981069682829153
 30
0.0
 10
42.2106554235429
 20
2.041391485604424
 30
0.0
  0
LINE
  5
B5
330
1F
100
AcDbEntity
  8
0
  6
Continuous
 62
     1
370
    15
100
AcDbLine
 10
62.79999999999971
 20
-7.532218149528211
 30
0.0
 11
62.8
 21
-6.262467348422716
 31
0.0
  0
SPLINE
  5
B6
330
1F
100
AcDbEntity
  8
0
  6
Continuous
 62
     1
370
    15
100
AcDbSpline
210
0.0
220
0.0
230
1.0
 70
     8
 71
     3
 72
    70
 73
    66
 74
     0
 42
0.000000001
 43
0.00000001
 40
0.0
 40
0.0
 40
0.0
 40
0.0
 40
0.03125
 40
0.03125
 40
0.0625
 40
0.0625
 40
0.09375
 40
0.09375
 40
0.125
 40
0.125
 40
0.1562499999999999
 40
0.1562499999999999
 40
0.1875
 40
0.1875
 40
0.2187500000000001
 40
0.2187500000000001
 40
0.2500000000000002
 40
0.2500000000000002
 40
0.2812500000000003
 40
0.2812500000000003
 40
0.3125000000000003
 40
0.3125000000000003
 40
0.3437500000000003
 40
0.3437500000000003
 40
0.3750000000000002
 40
0.3750000000000002
 40
0.4062500000000002
 40
0.4062500000000002
 40
0.4375000000000002
 40
0.4375000000000002
 40
0.4687500000000002
 40
0.4687500000000002
 40
0.5000000000000002
 40
0.5000000000000002
 40
0.5312500000000002
 40
0.5312500000000002
 40
0.5625000000000002
 40
0.5625000000000002
 40
0.5937500000000002
 40
0.5937500000000002
 40
0.6250000000000002
 40
0.6250000000000002
 40
0.6562500000000002
 40
0.6562500000000002
 40
0.6875000000000001
 40
0.6875000000000001
 40
0.7187500000000001
 40
0.7187500000000001
 40
0.7500000000000001
 40
0.7500000000000001
 40
0.7812500000000001
 40
0.7812500000000001
 40
0.8125000000000001
 40
0.8125000000000001
 40
0.84375
 40
0.84375
 40
0.875
 40
0.875
 40
0.90625
 40
0.90625
 40
0.9375
 40
0.9375
 40
0.96875
 40
0.96875
 40
1.0
 40
1.0
 40
1.0
 40
1.0
 10
12.0
 20
6.575624351474396
 30
0.0
 10
12.52887766883829
 20
6.746709136097319
 30
0.0
 10
13.06062507529462
 20
6.903446532569602
 30
0.0
 10
14.1192525085389
 20
7.185075126320007
 30
0.0
 10
14.64518353768998
 20
7.309966021592572
 30
0.0
 10
15.70542520825891
 20
7.527378754864798
 30
0.0
 10
16.23682423797282
 20
7.619611182961298
 30
0.0
 10
17.29159481074237
 20
7.769462785328735
 30
0.0
 10
17.82088582575863
 20
7.827394137990678
 30
0.0
 10
18.88171205166149
 20
7.908242708135146
 30
0.0
 10
19.40924316813689
 20
7.931089599243104
 30
0.0
 10
20.46572771498676
 20
7.941571574736543
 30
0.0
 10
20.99737529556502
 20
7.929149760115545
 30
0.0
 10
22.05688080261629
 20
7.869128037280261
 30
0.0
 10
22.58255664561674
 20
7.821669038301652
 30
0.0
 10
23.64216876894796
 20
7.691993200793233
 30
0.0
 10
24.17379334009544
 20
7.609773585789616
 30
0.0
 10
25.23008075088979
 20
7.412317027018701
 30
0.0
 10
25.75779841192946
 20
7.296949052073844
 30
0.0
 10
26.81864009730719
 20
7.033875283935308
 30
0.0
 10
27.34768159030421
 20
6.886487259596559
 30
0.0
 10
28.40267971449908
 20
6.562170165507729
 30
0.0
 10
28.93411732052402
 20
6.384648240634869
 30
0.0
 10
29.99428320125707
 20
6.002276864187016
 30
0.0
 10
30.52015100054445
 20
5.797848888975702
 30
0.0
 10
31.57891580338611
 20
5.363277201020533
 30
0.0
 10
32.11065578323552
 20
5.133225152666171
 30
0.0
 10
33.16824453494426
 20
4.652203379661326
 30
0.0
 10
33.69483458684364
 20
4.40117322146938
 30
0.0
 10
34.75547311445467
 20
3.879485494674106
 30
0.0
 10
35.28646982351671
 20
3.609290449724701
 30
0.0
 10
36.33976690825483
 20
3.055609467489018
 30
0.0
 10
36.87088453651459
 20
2.77058139605005
 30
0.0
 10
37.93149263771832
 20
2.189740017902228
 30
0.0
 10
38.45799940427008
 20
1.894502712997245
 30
0.0
 10
39.51569969428756
 20
1.296070407832851
 30
0.0
 10
40.04744487013005
 20
0.9927552634338409
 30
0.0
 10
41.10611857576976
 20
0.3839727229391023
 30
0.0
 10
41.63202753500289
 20
0.0787105900414198
 30
0.0
 10
42.69224442713868
 20
-0.5324211741144619
 30
0.0
 10
43.22365656003983
 20
-0.8377277218505707
 30
0.0
 10
44.27850346001493
 20
-1.441751184487373
 30
0.0
 10
44.80771031271087
 20
-1.741572944378519
 30
0.0
 10
45.86854217757137
 20
-2.332591669016499
 30
0.0
 10
46.3961344848743
 20
-2.623042213737192
 30
0.0
 10
47.45255379875046
 20
-3.191261805229245
 30
0.0
 10
47.98419395427582
 20
-3.469510701265812
 30
0.0
 10
49.04373548393365
 20
-4.008693922079552
 30
0.0
 10
49.56941033329181
 20
-4.269295350919464
 30
0.0
 10
50.62898740172764
 20
-4.771738651509533
 30
0.0
 10
51.16061988743884
 20
-5.013162646231194
 30
0.0
 10
52.2169734892632
 20
-5.471666456077199
 30
0.0
 10
52.74462797811907
 20
-5.689211945844885
 30
0.0
 10
53.80546499614049
 20
-6.098788553934307
 30
0.0
 10
54.33458867478792
 20
-6.290273682660336
 30
0.0
 10
55.38951142527645
 20
-6.644154944272715
 30
0.0
 10
55.92093641695452
 20
-6.807149395058693
 30
0.0
 10
56.98112804579881
 20
-7.101848365005551
 30
0.0
 10
57.50701592840005
 20
-7.233368374040827
 30
0.0
 10
58.56573542392879
 20
-7.464312968939817
 30
0.0
 10
59.09747812423437
 20
-7.563568847221886
 30
0.0
 10
60.15512288556774
 20
-7.727701627357292
 30
0.0
 10
60.6816707986364
 20
-7.792692521506974
 30
0.0
 10
61.74229435578319
 20
-7.888054835762518
 30
0.0
 10
62.27339418913864
 20
-7.918253512451336
 30
0.0
 10
62.80000000000001
 20
-7.937499999999993
 30
0.0
  0
SPLINE
  5
B7
330
1F
100
AcDbEntity
  8
0
  6
Continuous
 62
     1
370
    15
100
AcDbSpline
210
0.0
220
0.0
230
1.0
 70
     8
 71
     3
 72
    18
 73
    14
 74
     0
 42
0.000000001
 43
0.00000001
 40
0.0
 40
0.0
 40
0.0
 40
0.0
 40
0.0689168234119512
 40
0.1708062906129264
 40
0.2726957408532977
 40
0.3745851742235999
 40
0.4764745908143884
 40
0.5783639907162405
 40
0.6802533740197526
 40
0.7821427408155439
 40
0.8806542553115849
 40
0.9791628610260323
 40
1.0
 40
1.0
 40
1.0
 40
1.0
 10
43.0811272270336
 20
-0.7535191759389015
 30
0.0
 10
42.47406797956282
 20
-0.5102216105432884
 30
0.0
 10
40.96950736418219
 20
0.0927770856092396
 30
0.0
 10
38.56744558216904
 20
1.066551863709047
 30
0.0
 10
35.87494203000325
 20
2.113574077261188
 30
0.0
 10
33.18243894735504
 20
3.080808254277463
 30
0.0
 10
30.48993644291892
 20
3.929900702851264
 30
0.0
 10
27.79743409077592
 20
4.629148545698158
 30
0.0
 10
25.10493347007041
 20
5.150153292131121
 30
0.0
 10
22.44218264372178
 20
5.475262300361784
 30
0.0
 10
19.8092284535572
 20
5.578661277400835
 30
0.0
 10
17.89022824218727
 20
5.552273583812747
 30
0.0
 10
16.83897278938761
 20
5.43328835448285
 30
0.0
 10
16.65542911948704
 20
5.412514159593293
 30
0.0
  0
SPLINE
  5
B8
330
1F
100
AcDbEntity
  8
외형선
  6
Continuous
370
    15
100
AcDbSpline
210
0.0
220
0.0
230
1.0
 70
    24
 71
     3
 72
    11
 73
     7
 74
     0
 42
0.000000001
 43
0.00000001
 40
0.0
 40
0.0
 40
0.0
 40
0.0
 40
0.1344116122996271
 40
0.481802694760494
 40
0.8392681421466864
 40
1.0
 40
1.0
 40
1.0
 40
1.0
 10
12.00000000000001
 20
6.575624351474398
 30
0.0
 10
12.00000000000001
 20
6.511067047563125
 30
0.0
 10
12.00000000000001
 20
6.279659340604087
 30
0.0
 10
12.00000000000001
 20
5.898863101094399
 30
0.0
 10
12.00000000000001
 20
5.530306262089097
 30
0.0
 10
12.00000000000001
 20
5.351185590179788
 30
0.0
 10
12.0
 20
5.295626832762844
 30
0.0
  0
LINE
  5
B9
330
1F
100
AcDbEntity
  8
0
  6
Continuous
 62
     1
370
    15
100
AcDbLine
 10
62.8
 20
-7.937499999999996
 30
0.0
 11
62.79999999999909
 21
-7.532218149528191
 31
0.0
  0
SPLINE
  5
BA
330
1F
100
AcDbEntity
  8
0
  6
Continuous
 62
     1
370
    15
100
AcDbSpline
210
0.0
220
0.0
230
1.0
 70
     8
 71
     3
 72
     8
 73
     4
 74
     0
 42
0.000000001
 43
0.00000001
 40
0.0
 40
0.0
 40
0.0
 40
0.0
 40
1.0
 40
1.0
 40
1.0
 40
1.0
 10
57.888830245815
 20
2.220079671996129
 30
0.0
 10
57.85890471791481
 20
2.255523819275075
 30
0.0
 10
57.82929209921012
 20
2.290863161819893
 30
0.0
 10
57.80000000000838
 20
2.326095150660275
 30
0.0
  0
LINE
  5
BB
330
1F
100
AcDbEntity
  8
0
  6
Continuous
 62
     1
370
    15
100
AcDbLine
 10
57.80000000000001
 20
2.937719435296592
 30
0.0
 11
62.8
 21
0.0000000000000062
 31
0.0
  0
LINE
  5
BC
330
1F
100
AcDbEntity
  8
0
  6
Continuous
 62
     1
370
    15
100
AcDbLine
 10
62.8
 20
0.0000000000000062
 30
0.0
 11
62.8
 21
-2.121240884110301
 31
0.0
  0
SPLINE
  5
BD
330
1F
100
AcDbEntity
  8
0
  6
Continuous
 62
     1
370
    15
100
AcDbSpline
210
0.0
220
0.0
230
1.0
 70
     8
 71
     3
 72
    12
 73
     8
 74
     0
 42
0.000000001
 43
0.00000001
 40
0.0
 40
0.0
 40
0.0
 40
0.0
 40
0.5
 40
0.5
 40
0.75
 40
0.75
 40
1.0
 40
1.0
 40
1.0
 40
1.0
 10
62.8
 20
-2.1212408841103
 30
0.0
 10
61.94985708373018
 20
-1.452887382416911
 30
0.0
 10
61.11391642663287
 20
-0.7571355301524689
 30
0.0
 10
59.88186851419033
 20
0.328669491801643
 30
0.0
 10
59.47488238863038
 20
0.6977356413040402
 30
0.0
 10
58.66922911848985
 20
1.451916538950699
 30
0.0
 10
58.2727441128429
 20
1.835090379294048
 30
0.0
 10
57.88883024581499
 20
2.220079671996145
 30
0.0
  0
SPLINE
  5
BE
330
1F
100
AcDbEntity
  8
0
  6
Continuous
 62
     1
370
    15
100
AcDbSpline
210
0.0
220
0.0
230
1.0
 70
     8
 71
     3
 72
    16
 73
    12
 74
     0
 42
0.000000001
 43
0.00000001
 40
0.0
 40
0.0
 40
0.0
 40
0.0
 40
0.0995782772245772
 40
0.2222772581762263
 40
0.345013994854507
 40
0.4678240268737598
 40
0.5906210521714648
 40
0.713349666142607
 40
0.8360460767935152
 40
0.958746661909599
 40
1.0
 40
1.0
 40
1.0
 40
1.0
 10
57.88883024581499
 20
2.220079671996131
 30
0.0
 10
57.28218520351534
 20
2.478917037359047
 30
0.0
 10
55.92804050000284
 20
3.056690237398171
 30
0.0
 10
53.82584935678896
 20
3.873629172112617
 30
0.0
 10
51.58213395041906
 20
4.646256745145289
 30
0.0
 10
49.33753131048492
 20
5.294398193910735
 30
0.0
 10
47.09304320355906
 20
5.801371776104249
 30
0.0
 10
44.84946612094154
 20
6.157245897691313
 30
0.0
 10
42.60653207320493
 20
6.337873556071005
 30
0.0
 10
40.86003710830167
 20
6.381043314334995
 30
0.0
 10
39.86103439913165
 20
6.307181768251181
 30
0.0
 10
39.60966989556493
 20
6.288597063031058
 30
0.0
  0
SPLINE
  5
BF
330
1F
100
AcDbEntity
  8
0
  6
Continuous
 62
     1
370
    15
100
AcDbSpline
210
0.0
220
0.0
230
1.0
 70
    24
 71
     3
 72
    10
 73
     6
 74
     0
 42
0.000000001
 43
0.00000001
 40
0.0
 40
0.0
 40
0.0
 40
0.0
 40
0.5
 40
0.5
 40
1.0
 40
1.0
 40
1.0
 40
1.0
 10
62.8
 20
-6.262467348422713
 30
0.0
 10
62.8
 20
-5.782400400217701
 30
0.0
 10
62.80000000000001
 20
-5.175817403507591
 30
0.0
 10
62.8
 20
-3.765570313258519
 30
0.0
 10
62.8
 20
-2.963127829219768
 30
0.0
 10
62.8
 20
-2.121240884110555
 30
0.0
  0
SPLINE
  5
C0
330
1F
100
AcDbEntity
  8
0
  6
Continuous
 62
     1
370
    15
100
AcDbSpline
210
0.0
220
0.0
230
1.0
 70
     8
 71
     3
 72
    15
 73
    11
 74
     0
 42
0.000000001
 43
0.00000001
 40
0.0
 40
0.0
 40
0.0
 40
0.0
 40
0.049650009408624
 40
0.1927467325469453
 40
0.3359282956956482
 40
0.479069322524843
 40
0.622138037578972
 40
0.7651761138874529
 40
0.8825000132015344
 40
1.0
 40
1.0
 40
1.0
 40
1.0
 10
27.67987102566962
 20
-6.5846897005978
 30
0.0
 10
27.42038342655547
 20
-6.616092816798008
 30
0.0
 10
26.41302436537033
 20
-6.738003126815606
 30
0.0
 10
24.657272637664
 20
-6.768769717525505
 30
0.0
 10
22.41258512598944
 20
-6.672692739905309
 30
0.0
 10
20.16820196498162
 20
-6.387232330694373
 30
0.0
 10
17.92480127401467
 20
-5.935656879905638
 30
0.0
 10
15.81625712701029
 20
-5.360421597329612
 30
0.0
 10
13.84175454492657
 20
-4.713848002315872
 30
0.0
 10
12.61422501100159
 20
-4.243674536394823
 30
0.0
 10
12.00000000000002
 20
-4.008411518848841
 30
0.0
  0
SPLINE
  5
C1
330
1F
100
AcDbEntity
  8
0
  6
Continuous
 62
     1
370
    15
100
AcDbSpline
210
0.0
220
0.0
230
1.0
 70
     8
 71
     3
 72
    23
 73
    19
 74
     0
 42
0.000000001
 43
0.00000001
 40
0.0
 40
0.0
 40
0.0
 40
0.0
 40
0.0336541152907169
 40
0.0996324880613127
 40
0.1656131055953699
 40
0.2316155177226968
 40
0.2976578137629157
 40
0.3636867944693964
 40
0.4296804709745511
 40
0.4956583242607888
 40
0.5616399187424678
 40
0.6276447990958338
 40
0.6936893596045068
 40
0.7597149568908692
 40
0.8257067341474431
 40
0.8916841823640596
 40
0.9458009140422893
 40
0.9999999999999999
 40
0.9999999999999999
 40
0.9999999999999999
 40
0.9999999999999999
 10
45.99327949839454
 20
-5.94868499093797
 30
0.0
 10
45.61194360868505
 20
-6.012495421972099
 30
0.0
 10
44.4830046022477
 20
-6.201405216607195
 30
0.0
 10
42.60654364280664
 20
-6.340010916758122
 30
0.0
 10
40.36352331167326
 20
-6.367670690005138
 30
0.0
 10
38.11971136199109
 20
-6.217899927325406
 30
0.0
 10
35.8750707352168
 20
-5.905151985739319
 30
0.0
 10
33.63064045931547
 20
-5.434848524297531
 30
0.0
 10
31.38713546611237
 20
-4.820199961635697
 30
0.0
 10
29.14423106381252
 20
-4.077475287232927
 30
0.0
 10
26.90117877529677
 20
-3.226398907205049
 30
0.0
 10
24.65728932002465
 20
-2.28941674285988
 30
0.0
 10
22.41261662458344
 20
-1.291925467119667
 30
0.0
 10
20.16823928878285
 20
-0.2599639336697506
 30
0.0
 10
17.92483201550913
 20
0.7793695065248423
 30
0.0
 10
15.81629400795523
 20
1.735319764853182
 30
0.0
 10
13.84174630439083
 20
2.597236351932014
 30
0.0
 10
12.61422653588477
 20
3.090549053166852
 30
0.0
 10
12.00000000000001
 20
3.337392940623098
 30
0.0
  0
SPLINE
  5
C2
330
1F
100
AcDbEntity
  8
외형선
  6
Continuous
370
    15
100
AcDbSpline
210
0.0
220
0.0
230
1.0
 70
    24
 71
     3
 72
    14
 73
    10
 74
     0
 42
0.000000001
 43
0.00000001
 40
0.0
 40
0.0
 40
0.0
 40
0.0
 40
0.25
 40
0.25
 40
0.5
 40
0.5
 40
0.75
 40
0.75
 40
1.0
 40
1.0
 40
1.0
 40
1.0
 10
12.0
 20
3.337392940623102
 30
0.0
 10
12.0
 20
2.782909680969782
 30
0.0
 10
12.0
 20
2.187678518540167
 30
0.0
 10
12.0
 20
0.9506606443346965
 30
0.0
 10
12.0
 20
0.3091572319857018
 30
0.0
 10
12.0
 20
-0.9747040989354729
 30
0.0
 10
12.0
 20
-1.616691277328306
 30
0.0
 10
12.0
 20
-2.855576097401403
 30
0.0
 10
12.0
 20
-3.452188969543625
 30
0.0
 10
12.0
 20
-4.00841151884883
 30
0.0
  0
SPLINE
  5
C3
330
1F
100
AcDbEntity
  8
0
  6
Continuous
 62
     1
370
    15
100
AcDbSpline
210
0.0
220
0.0
230
1.0
 70
     8
 71
     3
 72
     9
 73
     5
 74
     0
 42
0.000000001
 43
0.00000001
 40
0.0
 40
0.0
 40
0.0
 40
0.0
 40
0.9122131288872681
 40
0.9999999999999999
 40
0.9999999999999999
 40
0.9999999999999999
 40
0.9999999999999999
 10
62.8
 20
5.556249999999999
 30
0.0
 10
61.9024972928561
 20
5.552524557120989
 30
0.0
 10
60.91862337269156
 20
5.548440596080487
 30
0.0
 10
59.93474947892115
 20
5.430147005515361
 30
0.0
 10
59.84837826821754
 20
5.419762381326959
 30
0.0
  0
SPLINE
  5
C4
330
1F
100
AcDbEntity
  8
0
  6
Continuous
 62
     1
370
    15
100
AcDbSpline
210
0.0
220
0.0
230
1.0
 70
     8
 71
     3
 72
    10
 73
     6
 74
     0
 42
0.000000001
 43
0.00000001
 40
0.0
 40
0.0
 40
0.0
 40
0.0
 40
0.5
 40
0.5
 40
1.0
 40
1.0
 40
1.0
 40
1.0
 10
62.8
 20
5.556250000000006
 30
0.0
 10
61.98340404815336
 20
5.334809564106328
 30
0.0
 10
61.17174692733261
 20
5.086103314051064
 30
0.0
 10
59.5591390792908
 20
4.529584005730248
 30
0.0
 10
58.75925656940429
 20
4.2226668595735
 30
0.0
 10
57.9684913161142
 20
3.87667419120688
 30
0.0
  0
SPLINE
  5
C5
330
1F
100
AcDbEntity
  8
0
  6
Continuous
 62
     1
370
    15
100
AcDbSpline
210
0.0
220
0.0
230
1.0
 70
    24
 71
     3
 72
     8
 73
     4
 74
     0
 42
0.000000001
 43
0.00000001
 40
0.0
 40
0.0
 40
0.0
 40
0.0
 40
1.0
 40
1.0
 40
1.0
 40
1.0
 10
57.9684913161142
 20
3.876674191206901
 30
0.0
 10
57.91308168337119
 20
3.830179988808574
 30
0.0
 10
57.85690809952008
 20
3.783044755317186
 30
0.0
 10
57.80000000000001
 20
3.735293189998892
 30
0.0
  0
SPLINE
  5
C6
330
1F
100
AcDbEntity
  8
0
  6
Continuous
 62
     1
370
    15
100
AcDbSpline
210
0.0
220
0.0
230
1.0
 70
    24
 71
     3
 72
     8
 73
     4
 74
     0
 42
0.000000001
 43
0.00000001
 40
0.0
 40
0.0
 40
0.0
 40
0.0
 40
1.0
 40
1.0
 40
1.0
 40
1.0
 10
57.80000000000003
 20
2.326095150670328
 30
0.0
 10
57.80000000000003
 20
2.844328698008602
 30
0.0
 10
57.80000000000003
 20
3.323694336875004
 30
0.0
 10
57.80000000000003
 20
3.735293189998741
 30
0.0
  0
SPLINE
  5
C7
330
1F
100
AcDbEntity
  8
외형선
  6
Continuous
370
    15
100
AcDbSpline
210
0.0
220
0.0
230
1.0
 70
    24
 71
     3
 72
    11
 73
     7
 74
     0
 42
0.000000001
 43
0.00000001
 40
0.0
 40
0.0
 40
0.0
 40
0.0
 40
0.2461858216452568
 40
0.5016048910878597
 40
0.7473150057619472
 40
1.0
 40
1.0
 40
1.0
 40
1.0
 10
12.0
 20
5.222476442692788
 30
0.0
 10
12.0
 20
5.200182870517523
 30
0.0
 10
12.0
 20
5.154759601345481
 30
0.0
 10
12.0
 20
4.775261127794699
 30
0.0
 10
12.0
 20
4.191020616376435
 30
0.0
 10
12.0
 20
3.624577893898372
 30
0.0
 10
12.0
 20
3.337392940623101
 30
0.0
  0
SPLINE
  5
C8
330
1F
100
AcDbEntity
  8
0
  6
Continuous
 62
     1
370
    15
100
AcDbSpline
210
0.0
220
0.0
230
1.0
 70
     8
 71
     3
 72
    16
 73
    12
 74
     0
 42
0.000000001
 43
0.00000001
 40
0.0
 40
0.0
 40
0.0
 40
0.0
 40
0.0597179802476089
 40
0.1782866851535704
 40
0.2968588834667929
 40
0.4154369415772635
 40
0.5340232201929407
 40
0.6505080442430295
 40
0.7670131119112379
 40
0.8835165319312109
 40
1.0
 40
1.0
 40
1.0
 40
1.0
 10
33.1101617444065
 20
-6.239218602414802
 30
0.0
 10
32.68995787976777
 20
-6.393120098676397
 30
0.0
 10
31.43544870506811
 20
-6.852589549834748
 30
0.0
 10
29.34660695121687
 20
-7.383500058691604
 30
0.0
 10
26.84358181302107
 20
-7.815755990113174
 30
0.0
 10
24.34041114984544
 20
-7.978897621462353
 30
0.0
 10
21.85188335300083
 20
-7.881462660638613
 30
0.0
 10
19.37793794372219
 20
-7.529489739134894
 30
0.0
 10
16.91851915697357
 20
-6.936538954265802
 30
0.0
 10
14.45912201057906
 20
-6.133926945923466
 30
0.0
 10
12.81966053815113
 20
-5.43930760779914
 30
0.0
 10
11.99999999999753
 20
-5.092027680777912
 30
0.0
  0
SPLINE
  5
C9
330
1F
100
AcDbEntity
  8
외형선
  6
Continuous
370
    15
100
AcDbSpline
210
0.0
220
0.0
230
1.0
 70
    24
 71
     3
 72
     8
 73
     4
 74
     0
 42
0.000000001
 43
0.00000001
 40
0.0
 40
0.0
 40
0.0
 40
0.0
 40
1.0
 40
1.0
 40
1.0
 40
1.0
 10
12.0
 20
-4.008411518848831
 30
0.0
 10
12.0
 20
-4.350055584053496
 30
0.0
 10
12.0
 20
-4.713495649631195
 30
0.0
 10
12.0
 20
-5.092027680764187
 30
0.0
  0
SPLINE
  5
CA
330
1F
100
AcDbEntity
  8
0
  6
Continuous
 62
     1
370
    15
100
AcDbSpline
210
0.0
220
0.0
230
1.0
 70
     8
 71
     3
 72
    13
 73
     9
 74
     0
 42
0.000000001
 43
0.00000001
 40
0.0
 40
0.0
 40
0.0
 40
0.0
 40
0.1526907570377091
 40
0.3056968304174405
 40
0.4596559246559238
 40
0.6139383713873761
 40
0.8933699332628047
 40
1.0
 40
1.0
 40
1.0
 40
1.0
 10
12.0
 20
-6.5756243514744
 30
0.0
 10
12.4161870046037
 20
-6.704777703976405
 30
0.0
 10
13.24942046703822
 20
-6.963351119051544
 30
0.0
 10
14.50094806859196
 20
-7.280961565165208
 30
0.0
 10
15.75828984767084
 20
-7.542373611105419
 30
0.0
 10
17.3586381561744
 20
-7.792215365266646
 30
0.0
 10
18.8321613244055
 20
-7.926313941532448
 30
0.0
 10
19.88349764784834
 20
-7.931135250477309
 30
0.0
 10
20.17387631804877
 20
-7.932466894071099
 30
0.0
  0
SPLINE
  5
CB
330
1F
100
AcDbEntity
  8
0
  6
Continuous
 62
     1
370
    15
100
AcDbSpline
210
0.0
220
0.0
230
1.0
 70
     8
 71
     3
 72
    15
 73
    11
 74
     0
 42
0.000000001
 43
0.00000001
 40
0.0
 40
0.0
 40
0.0
 40
0.0
 40
0.0578004989140451
 40
0.1631445580603302
 40
0.3688024628477468
 40
0.5758401067898296
 40
0.6814129612651215
 40
0.7871716819038425
 40
0.8934909409067855
 40
1.0
 40
1.0
 40
1.0
 40
1.0
 10
51.88141478229119
 20
5.321053853574145
 30
0.0
 10
52.0916612942392
 20
5.41192753511716
 30
0.0
 10
52.68509171300587
 20
5.668422667394432
 30
0.0
 10
54.02802049824709
 20
6.189059928613847
 30
0.0
 10
55.91327418617352
 20
6.831275001794897
 30
0.0
 10
57.7993998136551
 20
7.315716395761763
 30
0.0
 10
59.32290717977526
 20
7.605652883206814
 30
0.0
 10
60.47799337575852
 20
7.771833867006109
 30
0.0
 10
61.63808229858158
 20
7.886767559304029
 30
0.0
 10
62.41246390193615
 20
7.916108028424118
 30
0.0
 10
62.80000000000001
 20
7.937500000000007
 30
0.0
  0
SPLINE
  5
CC
330
1F
100
AcDbEntity
  8
0
  6
Continuous
 62
     1
370
    15
100
AcDbSpline
210
0.0
220
0.0
230
1.0
 70
    24
 71
     3
 72
    10
 73
     6
 74
     0
 42
0.000000001
 43
0.00000001
 40
0.0
 40
0.0
 40
0.0
 40
0.0
 40
0.5
 40
0.5
 40
1.0
 40
1.0
 40
1.0
 40
1.0
 10
62.8
 20
5.556249999999999
 30
0.0
 10
62.8
 20
5.893056038408052
 30
0.0
 10
62.79999999999998
 20
6.284455846632739
 30
0.0
 10
62.79999999999998
 20
7.10561159012679
 30
0.0
 10
62.80000000000001
 20
7.533270396674184
 30
0.0
 10
62.80000000000001
 20
7.937500000000007
 30
0.0
  0
LINE
  5
CD
330
1F
100
AcDbEntity
  8
0
  6
Continuous
 62
     1
370
    15
100
AcDbLine
 10
62.8
 20
0.0000000000000062
 30
0.0
 11
62.8
 21
5.556250000000001
 31
0.0
  0
LINE
  5
CE
330
1F
100
AcDbEntity
  8
중심선
 48
0.8
100
AcDbLine
 10
-44.97500000000001
 20
-0.0000000000000053
 30
0.0
 11
65.8
 21
0.0000000000000078
 31
0.0
  0
LINE
  5
CF
330
1F
100
AcDbEntity
  8
참조1
100
AcDbLine
 10
13.26176131403117
 20
0.0010749287238892
 30
0.0
 11
13.26176131403117
 21
-39.99892507127611
 31
0.0
  0
LINE
  5
D0
330
1F
100
AcDbEntity
  8
참조1
100
AcDbLine
 10
13.26176131403117
 20
-39.99892507127611
 30
0.0
 11
-20.15080122126847
 21
-39.9989250712761
 31
0.0
  0
CIRCLE
  5
D1
330
1F
100
AcDbEntity
  8
해칭선
100
AcDbCircle
 10
0.0
 20
0.0
 30
0.0
 40
2.999999999999995
  0
INSERT
  5
D2
330
1F
100
AcDbEntity
  8
0
  6
Continuous
 62
     7
100
AcDbBlockReference
 66
     1
  2
블럭10
 10
-3.527772932125202
 20
-52.04717430164393
 30
0.0
  0
ATTRIB
  5
D3
330
D2
100
AcDbEntity
  8
FORMAT
 62
     2
100
AcDbText
 10
-12.70906822086648
 20
-49.97180738881174
 30
0.0
 40
4.233333333333333
  1
E2080040 [ 2 FLUTE ]
 41
0.75
  7
SLDTEXTSTYLE0
 11
-12.70906822086648
 21
-52.08847405547841
 31
0.0
100
AcDbAttribute
  2
AUTOATTR0
 70
     0
 74
     1
  0
SEQEND
  5
D4
330
D2
100
AcDbEntity
  8
0
  6
Continuous
 62
     7
  0
HATCH
  5
D5
330
1F
100
AcDbEntity
  8
중심선
100
AcDbHatch
 10
0.0
 20
0.0
 30
0.0
210
0.0
220
0.0
230
1.0
  2
SOLID
 70
     1
 71
     0
 91
        1
 92
        0
 93
        4
 72
     1
 10
2.187136372255639
 20
-35.8
 11
-1.259138871581643
 21
-35.8
 72
     1
 10
-1.259138871581643
 20
-35.8
 11
-3.387368730785666
 21
-38.33632558057257
 72
     1
 10
-3.387368730785666
 20
-38.33632558057257
 11
0.0589395981647653
 21
-38.33628615127008
 72
     1
 10
0.0589395981647653
 20
-38.33628615127008
 11
2.187136372255639
 21
-35.8
 97
        0
 75
     0
 76
     1
 98
        1
 10
-2.849261314031164
 20
-0.0010749287238941
  0
HATCH
  5
D6
330
1F
100
AcDbEntity
  8
중심선
100
AcDbHatch
 10
0.0
 20
0.0
 30
0.0
210
0.0
220
0.0
230
1.0
  2
SOLID
 70
     1
 71
     0
 91
        1
 92
        0
 93
        4
 72
     1
 10
7.199900363291645
 20
-35.79999999999998
 11
3.753625119454363
 21
-35.79999999999998
 72
     1
 10
3.753625119454363
 20
-35.79999999999998
 11
-0.7775128889030802
 21
-41.20000000000002
 72
     1
 10
-0.7775128889030802
 20
-41.20000000000002
 11
2.668762354934202
 21
-41.20000000000002
 72
     1
 10
2.668762354934202
 20
-41.20000000000002
 11
7.199900363291645
 21
-35.79999999999998
 97
        0
 75
     0
 76
     1
 98
        1
 10
-2.849261314031164
 20
-0.0010749287238941
  0
HATCH
  5
D7
330
1F
100
AcDbEntity
  8
중심선
100
AcDbHatch
 10
0.0
 20
0.0
 30
0.0
210
0.0
220
0.0
230
1.0
  2
SOLID
 70
     1
 71
     0
 91
        1
 92
        0
 93
        4
 72
     1
 10
12.21266435432751
 20
-35.79999999999998
 11
8.76638911049037
 21
-35.79999999999998
 72
     1
 10
8.76638911049037
 20
-35.79999999999998
 11
1.717952208601121
 21
-44.20000000000002
 72
     1
 10
1.717952208601121
 20
-44.20000000000002
 11
5.164227452438404
 21
-44.20000000000002
 72
     1
 10
5.164227452438404
 20
-44.20000000000002
 11
12.21266435432751
 21
-35.79999999999998
 97
        0
 75
     0
 76
     1
 98
        1
 10
-2.849261314031164
 20
-0.0010749287238941
  0
HATCH
  5
D8
330
1F
100
AcDbEntity
  8
중심선
100
AcDbHatch
 10
0.0
 20
0.0
 30
0.0
210
0.0
220
0.0
230
1.0
  2
SOLID
 70
     1
 71
     0
 91
        1
 92
        0
 93
        6
 72
     3
 10
17.01255478533968
 20
-40.00000000005127
 11
3.960054785062283
 21
1.540882976769353E-10
 40
0.3939339440162628
 50
17.09539180608436
 51
320.0019657685078
 73
     0
 72
     1
 10
18.69555444104028
 20
-38.5878940046383
 11
21.00085631474132
 21
-36.65356729459035
 72
     3
 10
17.01255478528684
 20
-40.00000000000015
 11
6.600054785286829
 21
-1.278976924368180E-13
 40
0.636358354079598
 50
39.99873849337429
 51
368.4976242363724
 73
     1
 72
     1
 10
23.43788727718745
 20
-39.03999999993002
 11
15.69262209212279
 21
-39.03999999993002
 72
     1
 10
15.69262209212279
 20
-39.03999999993002
 11
15.69259704767683
 21
-40.95999999992991
 72
     1
 10
15.69259704767683
 20
-40.95999999992991
 11
20.13397681714886
 21
-40.95999999992988
 97
        0
 75
     0
 76
     1
 98
        1
 10
-2.849261314031164
 20
-0.0010749287238941
  0
DIMENSION
  5
D9
330
1F
100
AcDbEntity
  8
치수문자_일반주서
100
AcDbDimension
  2
_D
 10
-54.47499999999998
 20
-7.937500000000066
 30
0.0
 11
-54.47500000000001
 21
-0.0000000000000079
 31
0.0
 70
   160
  1
%%c<>
 71
     2
 42
15.875
 52
-270.0
  3
SLDDIMSTYLE0
100
AcDbAlignedDimension
 13
-40.97499999999999
 23
7.937499999999985
 33
0.0
 14
-40.97499999999999
 24
-7.937500000000015
 34
0.0
 50
90.0000000000002
100
AcDbRotatedDimension
1001
ACAD
1000
DSTYLE
1002
{
1070
   171
1070
     6
1070
   273
1070
     7
1002
}
  0
DIMENSION
  5
EE
330
1F
100
AcDbEntity
  8
치수문자_일반주서
100
AcDbDimension
  2
_D_1
 10
12.0
 20
16.47598394201881
 30
0.0
 11
36.59403953106988
 21
16.47598394201881
 31
0.0
 70
   160
  1
<>
 71
     2
 42
50.80000000000001
  3
SLDDIMSTYLE0
100
AcDbAlignedDimension
 13
62.80000000000001
 23
7.937500000000007
 33
0.0
 14
12.0
 24
5.223455556224412
 34
0.0
 50
0.000000000000004
100
AcDbRotatedDimension
1001
ACAD
1000
DSTYLE
1002
{
1070
   171
1070
     6
1070
   273
1070
     7
1002
}
  0
DIMENSION
  5
103
330
1F
100
AcDbEntity
  8
치수문자_일반주서
100
AcDbDimension
  2
_D_2
 10
-41.97499999999999
 20
38.05774771491231
 30
0.0
 11
10.41249999999986
 21
38.05774771491231
 31
0.0
 70
   160
  1
<>
 71
     2
 42
104.775
  3
SLDDIMSTYLE0
100
AcDbAlignedDimension
 13
62.80000000000001
 23
7.937500000000007
 33
0.0
 14
-41.97499999999999
 24
6.937499999999989
 34
0.0
 50
0.0000000000000078
100
AcDbRotatedDimension
1001
ACAD
1000
DSTYLE
1002
{
1070
   171
1070
     6
1070
   273
1070
     7
1002
}
  0
DIMENSION
  5
117
330
1F
100
AcDbEntity
  8
치수문자_일반주서
100
AcDbDimension
  2
_D_3
 10
78.9757542516597
 20
7.937500000000068
 30
0.0
 11
78.97575425165962
 21
28.54150000000013
 31
0.0
 70
   160
  1
%%c<>
 71
     2
 42
15.875
 52
-270.0
  3
SLDDIMSTYLE0
100
AcDbAlignedDimension
 13
62.8
 23
-7.937499999999996
 33
0.0
 14
62.80000000000001
 24
7.937500000000007
 34
0.0
 50
90.0000000000002
100
AcDbRotatedDimension
1001
ACAD
1000
DSTYLE
1002
{
1070
   171
1070
     6
1070
   273
1070
     7
1002
}
  0
LINE
  5
12A
330
1F
100
AcDbEntity
  8
참조1
100
AcDbLine
 10
77.82153940838579
 20
7.441074928723896
 30
0.0
 11
77.82153940838579
 21
-7.438925071276109
 31
0.0
  0
LINE
  5
12B
330
1F
100
AcDbEntity
  8
참조1
100
AcDbLine
 10
90.52153940838579
 20
5.441074928723896
 30
0.0
 11
77.82153940838579
 21
5.441074928723896
 31
0.0
  0
SOLID
  5
12C
330
1F
100
AcDbEntity
  8
참조1
100
AcDbTrace
 10
77.82153940838579
 20
5.441074928723896
 30
0.0
 11
84.17153940838578
 21
4.425074928723896
 31
0.0
 12
84.17153940838578
 22
6.457074928723896
 32
0.0
 13
84.17153940838578
 23
6.457074928723896
 33
0.0
  0
LINE
  5
12D
330
1F
100
AcDbEntity
  8
참조1
100
AcDbLine
 10
90.52153940838579
 20
-5.438925071276109
 30
0.0
 11
77.82153940838579
 21
-5.438925071276109
 31
0.0
  0
SOLID
  5
12E
330
1F
100
AcDbEntity
  8
참조1
100
AcDbTrace
 10
77.82153940838579
 20
-5.438925071276109
 30
0.0
 11
84.17153940838578
 21
-6.454925071276109
 31
0.0
 12
84.17153940838578
 22
-4.422925071276109
 32
0.0
 13
84.17153940838578
 23
-4.422925071276109
 33
0.0
  0
MTEXT
  5
12F
330
1F
100
AcDbEntity
  8
참조1
100
AcDbMText
 10
87.20588954101179
 20
11.01136670591222
 30
0.0
 40
3.5
 41
0.0
 71
     1
 72
     1
  1
A
  7
SLDTEXTSTYLE0
 73
     1
 44
1.0
  0
MTEXT
  5
130
330
1F
100
AcDbEntity
  8
참조1
100
AcDbMText
 10
87.20588954101179
 20
0.1313667059122192
 30
0.0
 40
3.5
 41
0.0
 71
     1
 72
     1
  1
A
  7
SLDTEXTSTYLE0
 73
     1
 44
1.0
  0
INSERT
  5
137
330
1F
100
AcDbEntity
  8
해칭선
100
AcDbBlockReference
  2
SW_DOWELSYMBOL_0
 10
0.0
 20
0.0
 30
0.0
  0
LINE
  5
1B3
330
1F
100
AcDbEntity
  8
외형선
  6
Continuous
370
    15
100
AcDbLine
 10
-21.85832500000002
 20
6.286499999999983
 30
0.0
 11
-11.672925
 21
6.286499999999983
 31
0.0
  0
LINE
  5
1B4
330
1F
100
AcDbEntity
  8
외형선
  6
Continuous
370
    15
100
AcDbLine
 10
-21.85832500000002
 20
6.286500000000083
 30
0.0
 11
-23.50932499999997
 21
7.937499999999994
 31
0.0
  0
LINE
  5
1B5
330
1F
100
AcDbEntity
  8
외형선
  6
Continuous
370
    15
100
AcDbLine
 10
-11.67292500000012
 20
6.286500000000083
 30
0.0
 11
-10.02192500000011
 21
7.937499999999994
 31
0.0
  0
LINE
  5
1B7
330
1F
100
AcDbEntity
  8
외형선
  6
Continuous
370
    15
100
AcDbLine
 10
-23.50932499999998
 20
7.937499999999996
 30
0.0
 11
-40.97500000000001
 21
7.937499999999996
 31
0.0
  0
ENDSEC
  0
SECTION
  2
OBJECTS
  0
DICTIONARY
  5
C
330
0
100
AcDbDictionary
281
     1
  3
ACAD_GROUP
350
D
  3
ACAD_IMAGE_VARS
350
15B
  3
ACAD_LAYOUT
350
1A
  3
ACAD_MLINESTYLE
350
17
  3
ACAD_PLOTSETTINGS
350
19
  3
ACAD_PLOTSTYLENAME
350
E
  3
ACAD_SCALELIST
350
47
  3
APPDATA
350
159
  3
DWGPROPS
350
207
  0
DICTIONARY
  5
182
330
2
100
AcDbDictionary
280
     1
281
     1
  3
ACAD_LAYERSTATES
360
183
  0
DICTIONARY
  5
D
102
{ACAD_REACTORS
330
C
102
}
330
C
100
AcDbDictionary
281
     1
  0
RASTERVARIABLES
  5
15B
102
{ACAD_REACTORS
330
C
102
}
330
C
100
AcDbRasterVariables
 90
        0
 70
     1
 71
     1
 72
     1
  0
DICTIONARY
  5
1A
102
{ACAD_REACTORS
330
C
102
}
330
C
100
AcDbDictionary
281
     1
  3
Layout1
350
1E
  3
Layout2
350
26
  3
Model
350
22
  0
DICTIONARY
  5
17
102
{ACAD_REACTORS
330
C
102
}
330
C
100
AcDbDictionary
281
     1
  3
Standard
350
18
  0
DICTIONARY
  5
19
102
{ACAD_REACTORS
330
C
102
}
330
C
100
AcDbDictionary
281
     1
  0
ACDBDICTIONARYWDFLT
  5
E
102
{ACAD_REACTORS
330
C
102
}
330
C
100
AcDbDictionary
281
     1
  3
Normal
350
F
100
AcDbDictionaryWithDefault
340
F
  0
DICTIONARY
  5
47
102
{ACAD_REACTORS
330
C
102
}
330
C
100
AcDbDictionary
281
     1
  3
A0
350
48
  3
A1
350
49
  3
A2
350
4A
  3
A3
350
4B
  3
A4
350
4C
  3
A5
350
4D
  3
A6
350
4E
  3
A7
350
4F
  3
A8
350
50
  3
A9
350
51
  3
B0
350
52
  3
B1
350
53
  3
B2
350
54
  3
B3
350
55
  3
B4
350
56
  3
B5
350
57
  3
B6
350
58
  3
B7
350
59
  3
B8
350
5A
  3
B9
350
5B
  3
C0
350
5C
  3
C1
350
5D
  3
C2
350
5E
  3
C3
350
5F
  3
C4
350
60
  3
C5
350
61
  3
C6
350
62
  3
C7
350
63
  3
C8
350
64
  3
C9
350
65
  3
D0
350
66
  3
D1
350
67
  3
D2
350
68
  0
DICTIONARY
  5
159
102
{ACAD_REACTORS
330
C
102
}
330
C
100
AcDbDictionary
281
     1
  0
XRECORD
  5
207
102
{ACAD_REACTORS
330
C
102
}
330
C
100
AcDbXrecord
280
     1
  1
DWGPROPS COOKIE
  2

  3

  4

  6

  7

  8
12016016
  9

300
=
301
=
302
=
303
=
304
=
305
=
306
=
307
=
308
=
309
=
 40
0.0
 41
2458311.095463414
 42
2458319.343746725
  1

 90
        0
  0
DICTIONARY
  5
183
102
{ACAD_REACTORS
330
182
102
}
330
182
100
AcDbDictionary
281
     1
  0
LAYOUT
  5
1E
102
{ACAD_REACTORS
330
1A
102
}
330
1A
100
AcDbPlotSettings
  1

  2
none_device
  4

  6

 40
0.0
 41
0.0
 42
0.0
 43
0.0
 44
0.0
 45
0.0
 46
0.0
 47
0.0
 48
0.0
 49
0.0
140
0.0
141
0.0
142
1.0
143
1.0
 70
   688
 72
     1
 73
     0
 74
     5
  7

 75
    16
147
1.0
148
0.0
149
0.0
100
AcDbLayout
  1
Layout1
 70
     1
 71
     1
 10
0.0
 20
0.0
 11
420.0
 21
297.0
 12
0.0
 22
0.0
 32
0.0
 14
1.000000000000000E+20
 24
1.000000000000000E+20
 34
1.000000000000000E+20
 15
-1.000000000000000E+20
 25
-1.000000000000000E+20
 35
-1.000000000000000E+20
146
0.0
 13
0.0
 23
0.0
 33
0.0
 16
1.0
 26
0.0
 36
0.0
 17
0.0
 27
1.0
 37
0.0
 76
     0
330
1B
  0
LAYOUT
  5
26
102
{ACAD_REACTORS
330
1A
102
}
330
1A
100
AcDbPlotSettings
  1

  2
none_device
  4

  6

 40
0.0
 41
0.0
 42
0.0
 43
0.0
 44
0.0
 45
0.0
 46
0.0
 47
0.0
 48
0.0
 49
0.0
140
0.0
141
0.0
142
1.0
143
1.0
 70
   688
 72
     1
 73
     0
 74
     5
  7

 75
    16
147
1.0
148
0.0
149
0.0
100
AcDbLayout
  1
Layout2
 70
     1
 71
     2
 10
0.0
 20
0.0
 11
0.0
 21
0.0
 12
0.0
 22
0.0
 32
0.0
 14
0.0
 24
0.0
 34
0.0
 15
0.0
 25
0.0
 35
0.0
146
0.0
 13
0.0
 23
0.0
 33
0.0
 16
1.0
 26
0.0
 36
0.0
 17
0.0
 27
1.0
 37
0.0
 76
     0
330
23
  0
LAYOUT
  5
22
102
{ACAD_REACTORS
330
1A
102
}
330
1A
100
AcDbPlotSettings
  1

  2
none_device
  4
ANSI_A_(11.00_x_8.50_Inches)
  6

 40
6.35
 41
19.05
 42
6.35000508
 43
19.05000254
 44
279.4
 45
215.9
 46
86.21487444805328
 47
65.85422644305376
 48
0.0
 49
0.0
140
0.0
141
0.0
142
0.0575034576617616
143
1.0
 70
  1696
 72
     0
 73
     0
 74
     0
  7

 75
     0
147
0.0235690232323232
148
0.0
149
0.0
100
AcDbLayout
  1
Model
 70
     1
 71
     0
 10
0.0
 20
0.0
 11
420.0
 21
297.0
 12
0.0
 22
0.0
 32
0.0
 14
-58.85000000000005
 24
-49.97180738881174
 34
0.0
 15
90.52153940838579
 25
42.54150000000013
 35
0.0
146
0.0
 13
0.0
 23
0.0
 33
0.0
 16
1.0
 26
0.0
 36
0.0
 17
0.0
 27
1.0
 37
0.0
 76
     0
330
1F
331
29
  0
MLINESTYLE
  5
18
102
{ACAD_REACTORS
330
17
102
}
330
17
100
AcDbMlineStyle
  2
Standard
 70
     0
  3

 62
   256
 51
90.0
 52
90.0
 71
     2
 49
0.5
 62
   256
  6
BYLAYER
 49
-0.5
 62
   256
  6
BYLAYER
  0
ACDBPLACEHOLDER
  5
F
102
{ACAD_REACTORS
330
E
102
}
330
E
  0
SCALE
  5
48
102
{ACAD_REACTORS
330
47
102
}
330
47
100
AcDbScale
 70
     0
300
1:1
140
1.0
141
1.0
290
     1
  0
SCALE
  5
49
102
{ACAD_REACTORS
330
47
102
}
330
47
100
AcDbScale
 70
     0
300
1:2
140
1.0
141
2.0
290
     0
  0
SCALE
  5
4A
102
{ACAD_REACTORS
330
47
102
}
330
47
100
AcDbScale
 70
     0
300
1:4
140
1.0
141
4.0
290
     0
  0
SCALE
  5
4B
102
{ACAD_REACTORS
330
47
102
}
330
47
100
AcDbScale
 70
     0
300
1:5
140
1.0
141
5.0
290
     0
  0
SCALE
  5
4C
102
{ACAD_REACTORS
330
47
102
}
330
47
100
AcDbScale
 70
     0
300
1:8
140
1.0
141
8.0
290
     0
  0
SCALE
  5
4D
102
{ACAD_REACTORS
330
47
102
}
330
47
100
AcDbScale
 70
     0
300
1:10
140
1.0
141
10.0
290
     0
  0
SCALE
  5
4E
102
{ACAD_REACTORS
330
47
102
}
330
47
100
AcDbScale
 70
     0
300
1:16
140
1.0
141
16.0
290
     0
  0
SCALE
  5
4F
102
{ACAD_REACTORS
330
47
102
}
330
47
100
AcDbScale
 70
     0
300
1:20
140
1.0
141
20.0
290
     0
  0
SCALE
  5
50
102
{ACAD_REACTORS
330
47
102
}
330
47
100
AcDbScale
 70
     0
300
1:30
140
1.0
141
30.0
290
     0
  0
SCALE
  5
51
102
{ACAD_REACTORS
330
47
102
}
330
47
100
AcDbScale
 70
     0
300
1:40
140
1.0
141
40.0
290
     0
  0
SCALE
  5
52
102
{ACAD_REACTORS
330
47
102
}
330
47
100
AcDbScale
 70
     0
300
1:50
140
1.0
141
50.0
290
     0
  0
SCALE
  5
53
102
{ACAD_REACTORS
330
47
102
}
330
47
100
AcDbScale
 70
     0
300
1:100
140
1.0
141
100.0
290
     0
  0
SCALE
  5
54
102
{ACAD_REACTORS
330
47
102
}
330
47
100
AcDbScale
 70
     0
300
2:1
140
2.0
141
1.0
290
     0
  0
SCALE
  5
55
102
{ACAD_REACTORS
330
47
102
}
330
47
100
AcDbScale
 70
     0
300
4:1
140
4.0
141
1.0
290
     0
  0
SCALE
  5
56
102
{ACAD_REACTORS
330
47
102
}
330
47
100
AcDbScale
 70
     0
300
8:1
140
8.0
141
1.0
290
     0
  0
SCALE
  5
57
102
{ACAD_REACTORS
330
47
102
}
330
47
100
AcDbScale
 70
     0
300
10:1
140
10.0
141
1.0
290
     0
  0
SCALE
  5
58
102
{ACAD_REACTORS
330
47
102
}
330
47
100
AcDbScale
 70
     0
300
100:1
140
100.0
141
1.0
290
     0
  0
SCALE
  5
59
102
{ACAD_REACTORS
330
47
102
}
330
47
100
AcDbScale
 70
     0
300
1/128" = 1'-0"
140
0.0078125
141
12.0
290
     0
  0
SCALE
  5
5A
102
{ACAD_REACTORS
330
47
102
}
330
47
100
AcDbScale
 70
     0
300
1/64" = 1'-0"
140
0.015625
141
12.0
290
     0
  0
SCALE
  5
5B
102
{ACAD_REACTORS
330
47
102
}
330
47
100
AcDbScale
 70
     0
300
1/32" = 1'-0"
140
0.03125
141
12.0
290
     0
  0
SCALE
  5
5C
102
{ACAD_REACTORS
330
47
102
}
330
47
100
AcDbScale
 70
     0
300
1/16" = 1'-0"
140
0.0625
141
12.0
290
     0
  0
SCALE
  5
5D
102
{ACAD_REACTORS
330
47
102
}
330
47
100
AcDbScale
 70
     0
300
3/32" = 1'-0"
140
0.09375
141
12.0
290
     0
  0
SCALE
  5
5E
102
{ACAD_REACTORS
330
47
102
}
330
47
100
AcDbScale
 70
     0
300
1/8" = 1'-0"
140
0.125
141
12.0
290
     0
  0
SCALE
  5
5F
102
{ACAD_REACTORS
330
47
102
}
330
47
100
AcDbScale
 70
     0
300
3/16" = 1'-0"
140
0.1875
141
12.0
290
     0
  0
SCALE
  5
60
102
{ACAD_REACTORS
330
47
102
}
330
47
100
AcDbScale
 70
     0
300
1/4" = 1'-0"
140
0.25
141
12.0
290
     0
  0
SCALE
  5
61
102
{ACAD_REACTORS
330
47
102
}
330
47
100
AcDbScale
 70
     0
300
3/8" = 1'-0"
140
0.375
141
12.0
290
     0
  0
SCALE
  5
62
102
{ACAD_REACTORS
330
47
102
}
330
47
100
AcDbScale
 70
     0
300
1/2" = 1'-0"
140
0.5
141
12.0
290
     0
  0
SCALE
  5
63
102
{ACAD_REACTORS
330
47
102
}
330
47
100
AcDbScale
 70
     0
300
3/4" = 1'-0"
140
0.75
141
12.0
290
     0
  0
SCALE
  5
64
102
{ACAD_REACTORS
330
47
102
}
330
47
100
AcDbScale
 70
     0
300
1" = 1'-0"
140
1.0
141
12.0
290
     0
  0
SCALE
  5
65
102
{ACAD_REACTORS
330
47
102
}
330
47
100
AcDbScale
 70
     0
300
1-1/2" = 1'-0"
140
1.5
141
12.0
290
     0
  0
SCALE
  5
66
102
{ACAD_REACTORS
330
47
102
}
330
47
100
AcDbScale
 70
     0
300
3" = 1'-0"
140
3.0
141
12.0
290
     0
  0
SCALE
  5
67
102
{ACAD_REACTORS
330
47
102
}
330
47
100
AcDbScale
 70
     0
300
6" = 1'-0"
140
6.0
141
12.0
290
     0
  0
SCALE
  5
68
102
{ACAD_REACTORS
330
47
102
}
330
47
100
AcDbScale
 70
     0
300
1'-0" = 1'-0"
140
12.0
141
12.0
290
     0
  0
ENDSEC
  0
EOF
