  0
SECTION
  2
HEADER
  9
$ACADVER
  1
AC1015
  9
$ACADMAINTVER
 70
     6
  9
$DWGCODEPAGE
  3
ANSI_949
  9
$INSBASE
 10
0.0
 20
0.0
 30
0.0
  9
$EXTMIN
 10
-62.02500000000004
 20
-49.97180738881174
 30
0.0
  9
$EXTMAX
 10
90.52153940838579
 20
43.93919134481796
 30
0.0
  9
$LIMMIN
 10
0.0
 20
0.0
  9
$LIMMAX
 10
420.0
 20
297.0
  9
$ORTHOMODE
 70
     1
  9
$REGENMODE
 70
     1
  9
$FILLMODE
 70
     1
  9
$QTEXTMODE
 70
     0
  9
$MIRRTEXT
 70
     1
  9
$LTSCALE
 40
1.0
  9
$ATTMODE
 70
     1
  9
$TEXTSIZE
 40
3.5
  9
$TRACEWID
 40
1.0
  9
$TEXTSTYLE
  7
Standard
  9
$CLAYER
  8
0
  9
$CELTYPE
  6
ByLayer
  9
$CECOLOR
 62
   256
  9
$CELTSCALE
 40
1.0
  9
$DISPSILH
 70
     0
  9
$DIMSCALE
 40
1.0
  9
$DIMASZ
 40
3.302
  9
$DIMEXO
 40
1.0
  9
$DIMDLI
 40
3.75
  9
$DIMRND
 40
0.0
  9
$DIMDLE
 40
0.0
  9
$DIMEXE
 40
1.0
  9
$DIMTP
 40
0.0
  9
$DIMTM
 40
0.0
  9
$DIMTXT
 40
3.5
  9
$DIMCEN
 40
2.5
  9
$DIMTSZ
 40
0.0
  9
$DIMTOL
 70
     0
  9
$DIMLIM
 70
     0
  9
$DIMTIH
 70
     1
  9
$DIMTOH
 70
     1
  9
$DIMSE1
 70
     0
  9
$DIMSE2
 70
     0
  9
$DIMTAD
 70
     1
  9
$DIMZIN
 70
     0
  9
$DIMBLK
  1

  9
$DIMASO
 70
     1
  9
$DIMSHO
 70
     1
  9
$DIMPOST
  1

  9
$DIMAPOST
  1

  9
$DIMALT
 70
     0
  9
$DIMALTD
 70
     3
  9
$DIMALTF
 40
0.0393700787401575
  9
$DIMLFAC
 40
1.0
  9
$DIMTOFL
 70
     1
  9
$DIMTVP
 40
0.0
  9
$DIMTIX
 70
     0
  9
$DIMSOXD
 70
     0
  9
$DIMSAH
 70
     0
  9
$DIMBLK1
  1

  9
$DIMBLK2
  1

  9
$DIMSTYLE
  2
ISO-25
  9
$DIMCLRD
 70
     0
  9
$DIMCLRE
 70
     0
  9
$DIMCLRT
 70
     0
  9
$DIMTFAC
 40
1.0
  9
$DIMGAP
 40
1.524
  9
$DIMJUST
 70
     0
  9
$DIMSD1
 70
     0
  9
$DIMSD2
 70
     0
  9
$DIMTOLJ
 70
     0
  9
$DIMTZIN
 70
     0
  9
$DIMALTZ
 70
     0
  9
$DIMALTTZ
 70
     0
  9
$DIMUPT
 70
     0
  9
$DIMDEC
 70
     2
  9
$DIMTDEC
 70
     2
  9
$DIMALTU
 70
     2
  9
$DIMALTTD
 70
     3
  9
$DIMTXSTY
  7
Standard
  9
$DIMAUNIT
 70
     0
  9
$DIMADEC
 70
     2
  9
$DIMALTRND
 40
0.0
  9
$DIMAZIN
 70
     0
  9
$DIMDSEP
 70
    44
  9
$DIMATFIT
 70
     3
  9
$DIMFRAC
 70
     0
  9
$DIMLDRBLK
  1

  9
$DIMLUNIT
 70
     2
  9
$DIMLWD
 70
    -2
  9
$DIMLWE
 70
    -2
  9
$DIMTMOVE
 70
     0
  9
$LUNITS
 70
     2
  9
$LUPREC
 70
     2
  9
$SKETCHINC
 40
1.0
  9
$FILLETRAD
 40
10.0
  9
$AUNITS
 70
     0
  9
$AUPREC
 70
     2
  9
$MENU
  1
.
  9
$ELEVATION
 40
0.0
  9
$PELEVATION
 40
0.0
  9
$THICKNESS
 40
0.0
  9
$LIMCHECK
 70
     0
  9
$CHAMFERA
 40
0.0
  9
$CHAMFERB
 40
0.0
  9
$CHAMFERC
 40
0.0
  9
$CHAMFERD
 40
0.0
  9
$SKPOLY
 70
     0
  9
$TDCREATE
 40
2458311.470674491
  9
$TDUCREATE
 40
2458311.095674491
  9
$TDUPDATE
 40
2458319.718701528
  9
$TDUUPDATE
 40
2458319.343701528
  9
$TDINDWG
 40
0.0012313194
  9
$TDUSRTIMER
 40
2458319.343664329
  9
$USRTIMER
 70
     1
  9
$ANGBASE
 50
0.0
  9
$ANGDIR
 70
     0
  9
$PDMODE
 70
     0
  9
$PDSIZE
 40
-1.0
  9
$PLINEWID
 40
0.0
  9
$SPLFRAME
 70
     0
  9
$SPLINETYPE
 70
     6
  9
$SPLINESEGS
 70
     8
  9
$HANDSEED
  5
1E4
  9
$SURFTAB1
 70
     6
  9
$SURFTAB2
 70
     6
  9
$SURFTYPE
 70
     6
  9
$SURFU
 70
     6
  9
$SURFV
 70
     6
  9
$UCSBASE
  2

  9
$UCSNAME
  2

  9
$UCSORG
 10
0.0
 20
0.0
 30
0.0
  9
$UCSXDIR
 10
1.0
 20
0.0
 30
0.0
  9
$UCSYDIR
 10
0.0
 20
1.0
 30
0.0
  9
$UCSORTHOREF
  2

  9
$UCSORTHOVIEW
 70
     0
  9
$UCSORGTOP
 10
0.0
 20
0.0
 30
0.0
  9
$UCSORGBOTTOM
 10
0.0
 20
0.0
 30
0.0
  9
$UCSORGLEFT
 10
0.0
 20
0.0
 30
0.0
  9
$UCSORGRIGHT
 10
0.0
 20
0.0
 30
0.0
  9
$UCSORGFRONT
 10
0.0
 20
0.0
 30
0.0
  9
$UCSORGBACK
 10
0.0
 20
0.0
 30
0.0
  9
$PUCSBASE
  2

  9
$PUCSNAME
  2

  9
$PUCSORG
 10
0.0
 20
0.0
 30
0.0
  9
$PUCSXDIR
 10
1.0
 20
0.0
 30
0.0
  9
$PUCSYDIR
 10
0.0
 20
1.0
 30
0.0
  9
$PUCSORTHOREF
  2

  9
$PUCSORTHOVIEW
 70
     0
  9
$PUCSORGTOP
 10
0.0
 20
0.0
 30
0.0
  9
$PUCSORGBOTTOM
 10
0.0
 20
0.0
 30
0.0
  9
$PUCSORGLEFT
 10
0.0
 20
0.0
 30
0.0
  9
$PUCSORGRIGHT
 10
0.0
 20
0.0
 30
0.0
  9
$PUCSORGFRONT
 10
0.0
 20
0.0
 30
0.0
  9
$PUCSORGBACK
 10
0.0
 20
0.0
 30
0.0
  9
$USERI1
 70
     0
  9
$USERI2
 70
     0
  9
$USERI3
 70
     0
  9
$USERI4
 70
     0
  9
$USERI5
 70
     0
  9
$USERR1
 40
0.0
  9
$USERR2
 40
0.0
  9
$USERR3
 40
0.0
  9
$USERR4
 40
0.0
  9
$USERR5
 40
0.0
  9
$WORLDVIEW
 70
     1
  9
$SHADEDGE
 70
     3
  9
$SHADEDIF
 70
    70
  9
$TILEMODE
 70
     1
  9
$MAXACTVP
 70
    64
  9
$PINSBASE
 10
0.0
 20
0.0
 30
0.0
  9
$PLIMCHECK
 70
     0
  9
$PEXTMIN
 10
1.000000000000000E+20
 20
1.000000000000000E+20
 30
1.000000000000000E+20
  9
$PEXTMAX
 10
-1.000000000000000E+20
 20
-1.000000000000000E+20
 30
-1.000000000000000E+20
  9
$PLIMMIN
 10
0.0
 20
0.0
  9
$PLIMMAX
 10
0.0
 20
0.0
  9
$UNITMODE
 70
     0
  9
$VISRETAIN
 70
     1
  9
$PLINEGEN
 70
     0
  9
$PSLTSCALE
 70
     1
  9
$TREEDEPTH
 70
  3020
  9
$CMLSTYLE
  2
Standard
  9
$CMLJUST
 70
     0
  9
$CMLSCALE
 40
20.0
  9
$PROXYGRAPHICS
 70
     1
  9
$MEASUREMENT
 70
     1
  9
$CELWEIGHT
370
    -1
  9
$ENDCAPS
280
     0
  9
$JOINSTYLE
280
     0
  9
$LWDISPLAY
290
     1
  9
$INSUNITS
 70
     4
  9
$HYPERLINKBASE
  1

  9
$STYLESHEET
  1

  9
$XEDIT
290
     1
  9
$CEPSNTYPE
380
     0
  9
$PSTYLEMODE
290
     1
  9
$FINGERPRINTGUID
  2
{A6A14427-5C67-4D7C-A272-56EFE1BEB4C0}
  9
$VERSIONGUID
  2
{FAEB1C32-E019-11D5-929B-00C0DF256EC4}
  9
$EXTNAMES
290
     1
  9
$PSVPSCALE
 40
0.0
  9
$OLESTARTUP
290
     0
  0
ENDSEC
  0
SECTION
  2
CLASSES
  0
CLASS
  1
ACDBDICTIONARYWDFLT
  2
AcDbDictionaryWithDefault
  3
ObjectDBX Classes
 90
        0
280
     0
281
     0
  0
CLASS
  1
VISUALSTYLE
  2
AcDbVisualStyle
  3
ObjectDBX Classes
 90
     4095
280
     0
281
     0
  0
CLASS
  1
MATERIAL
  2
AcDbMaterial
  3
ObjectDBX Classes
 90
     1153
280
     0
281
     0
  0
CLASS
  1
SCALE
  2
AcDbScale
  3
ObjectDBX Classes
 90
     1153
280
     0
281
     0
  0
CLASS
  1
SUN
  2
AcDbSun
  3
SCENEOE
 90
     1153
280
     0
281
     0
  0
CLASS
  1
ACDBPLACEHOLDER
  2
AcDbPlaceHolder
  3
ObjectDBX Classes
 90
        0
280
     0
281
     0
  0
CLASS
  1
LAYOUT
  2
AcDbLayout
  3
ObjectDBX Classes
 90
        0
280
     0
281
     0
  0
CLASS
  1
TABLESTYLE
  2
AcDbTableStyle
  3
ObjectDBX Classes
 90
     4095
280
     0
281
     0
  0
CLASS
  1
MLEADERSTYLE
  2
AcDbMLeaderStyle
  3
ACDB_MLEADERSTYLE_CLASS
 90
     4095
280
     0
281
     0
  0
CLASS
  1
RASTERVARIABLES
  2
AcDbRasterVariables
  3
ISM
 90
        0
280
     0
281
     0
  0
ENDSEC
  0
SECTION
  2
TABLES
  0
TABLE
  2
VPORT
  5
8
330
0
100
AcDbSymbolTable
 70
     1
  0
VPORT
  5
29
330
8
100
AcDbSymbolTableRecord
100
AcDbViewportTableRecord
  2
*Active
 70
     0
 10
0.0
 20
0.0
 11
1.0
 21
1.0
 12
-2.903407173340767
 22
-11.99654287736313
 13
0.0
 23
0.0
 14
10.0
 24
10.0
 15
10.0
 25
10.0
 16
0.0
 26
0.0
 36
1.0
 17
0.0
 27
0.0
 37
0.0
 40
190.1298398228317
 41
1.632093933463796
 42
50.0
 43
0.0
 44
0.0
 50
0.0
 51
0.0
 71
    16
 72
  2000
 73
     1
 74
     3
 75
     0
 76
     0
 77
     0
 78
     0
281
     0
 65
     1
110
0.0
120
0.0
130
0.0
111
1.0
121
0.0
131
0.0
112
0.0
122
1.0
132
0.0
 79
     0
146
0.0
  0
ENDTAB
  0
TABLE
  2
LTYPE
  5
5
330
0
100
AcDbSymbolTable
 70
     6
  0
LTYPE
  5
14
330
5
100
AcDbSymbolTableRecord
100
AcDbLinetypeTableRecord
  2
ByBlock
 70
     0
  3

 72
    65
 73
     0
 40
0.0
  0
LTYPE
  5
15
330
5
100
AcDbSymbolTableRecord
100
AcDbLinetypeTableRecord
  2
ByLayer
 70
     0
  3

 72
    65
 73
     0
 40
0.0
  0
LTYPE
  5
16
330
5
100
AcDbSymbolTableRecord
100
AcDbLinetypeTableRecord
  2
Continuous
 70
     0
  3
Solid line
 72
    65
 73
     0
 40
0.0
  0
LTYPE
  5
6A
330
5
100
AcDbSymbolTableRecord
100
AcDbLinetypeTableRecord
  2
HIDDEN
 70
     0
  3
Hidden __ __ __ __ __ __ __ __ __ __ __ __ __ __
 72
    65
 73
     2
 40
1.905
 49
1.27
 74
     0
 49
-0.635
 74
     0
  0
LTYPE
  5
6B
330
5
100
AcDbSymbolTableRecord
100
AcDbLinetypeTableRecord
  2
PHANTOM
 70
     0
  3
Phantom ______  __  __  ______  __  __  ______
 72
    65
 73
     6
 40
12.7
 49
6.35
 74
     0
 49
-1.27
 74
     0
 49
1.27
 74
     0
 49
-1.27
 74
     0
 49
1.27
 74
     0
 49
-1.27
 74
     0
  0
LTYPE
  5
6C
330
5
100
AcDbSymbolTableRecord
100
AcDbLinetypeTableRecord
  2
CENTER
 70
     0
  3
Center ____ _ ____ _ ____ _ ____ _ ____ _ ____
 72
    65
 73
     4
 40
10.16
 49
6.35
 74
     0
 49
-1.27
 74
     0
 49
1.27
 74
     0
 49
-1.27
 74
     0
  0
LTYPE
  5
6D
330
5
100
AcDbSymbolTableRecord
100
AcDbLinetypeTableRecord
  2
CENTERX2
 70
     0
  3
Center (2x) ________  __  ________  __  _____
 72
    65
 73
     4
 40
20.32
 49
12.7
 74
     0
 49
-2.54
 74
     0
 49
2.54
 74
     0
 49
-2.54
 74
     0
  0
LTYPE
  5
6E
330
5
100
AcDbSymbolTableRecord
100
AcDbLinetypeTableRecord
  2
DOT2
 70
     0
  3
Dot (.5x) ........................................
 72
    65
 73
     2
 40
0.635
 49
0.0
 74
     0
 49
-0.635
 74
     0
  0
ENDTAB
  0
TABLE
  2
LAYER
  5
2
102
{ACAD_XDICTIONARY
360
181
102
}
330
0
100
AcDbSymbolTable
 70
    18
  0
LAYER
  5
10
330
2
100
AcDbSymbolTableRecord
100
AcDbLayerTableRecord
  2
0
 70
     0
 62
     7
  6
Continuous
370
    -3
390
F
  0
LAYER
  5
6F
330
2
100
AcDbSymbolTableRecord
100
AcDbLayerTableRecord
  2
FORMAT
 70
     0
 62
     2
  6
Continuous
370
    -3
390
F
  0
LAYER
  5
70
330
2
100
AcDbSymbolTableRecord
100
AcDbLayerTableRecord
  2
외형선
 70
     0
 62
     4
  6
Continuous
370
    30
390
F
  0
LAYER
  5
71
330
2
100
AcDbSymbolTableRecord
100
AcDbLayerTableRecord
  2
숨은선
 70
     0
 62
     2
  6
HIDDEN
370
    15
390
F
  0
LAYER
  5
72
330
2
100
AcDbSymbolTableRecord
100
AcDbLayerTableRecord
  2
중심선
 70
     0
 62
     1
  6
CENTERX2
370
    -3
390
F
  0
LAYER
  5
73
330
2
100
AcDbSymbolTableRecord
100
AcDbLayerTableRecord
  2
파단선
 70
     0
 62
     4
  6
Continuous
370
    -3
390
F
  0
LAYER
  5
74
330
2
100
AcDbSymbolTableRecord
100
AcDbLayerTableRecord
  2
해칭선
 70
     0
 62
   100
  6
Continuous
370
    -3
390
F
  0
LAYER
  5
75
330
2
100
AcDbSymbolTableRecord
100
AcDbLayerTableRecord
  2
가는실선
 70
     0
 62
     4
  6
Continuous
370
    -3
390
F
  0
LAYER
  5
76
330
2
100
AcDbSymbolTableRecord
100
AcDbLayerTableRecord
  2
치수_보조선
 70
     0
 62
     4
  6
Continuous
370
    -3
390
F
  0
LAYER
  5
77
330
2
100
AcDbSymbolTableRecord
100
AcDbLayerTableRecord
  2
치수문자_일반주서
 70
     0
 62
     7
  6
Continuous
370
    15
390
F
  0
LAYER
  5
78
330
2
100
AcDbSymbolTableRecord
100
AcDbLayerTableRecord
  2
개별주서
 70
     0
 62
   100
  6
Continuous
370
    30
390
F
  0
LAYER
  5
79
330
2
100
AcDbSymbolTableRecord
100
AcDbLayerTableRecord
  2
중간선
 70
     0
 62
     2
  6
Continuous
370
    15
390
F
  0
LAYER
  5
7A
330
2
100
AcDbSymbolTableRecord
100
AcDbLayerTableRecord
  2
윤곽선
 70
     0
 62
     3
  6
Continuous
370
    40
390
F
  0
LAYER
  5
7B
330
2
100
AcDbSymbolTableRecord
100
AcDbLayerTableRecord
  2
중심마크
 70
     0
 62
   100
  6
Continuous
370
    30
390
F
  0
LAYER
  5
7C
330
2
100
AcDbSymbolTableRecord
100
AcDbLayerTableRecord
  2
가상선
 70
     0
 62
     4
  6
PHANTOM
370
    -3
390
F
  0
LAYER
  5
7D
330
2
100
AcDbSymbolTableRecord
100
AcDbLayerTableRecord
  2
특수지정선
 70
     0
 62
     5
  6
CENTERX2
370
    60
390
F
  0
LAYER
  5
7E
330
2
100
AcDbSymbolTableRecord
100
AcDbLayerTableRecord
  2
참조1
 70
     0
 62
    -4
  6
Continuous
370
    -3
390
F
  0
LAYER
  5
1B7
330
2
100
AcDbSymbolTableRecord
100
AcDbLayerTableRecord
  2
Defpoints
 70
     0
 62
     7
  6
Continuous
290
     0
370
    -3
390
F
  0
ENDTAB
  0
TABLE
  2
STYLE
  5
3
330
0
100
AcDbSymbolTable
 70
     2
  0
STYLE
  5
11
330
3
100
AcDbSymbolTableRecord
100
AcDbTextStyleTableRecord
  2
Standard
 70
     0
 40
0.0
 41
1.0
 50
0.0
 71
     0
 42
3.5
  3
txt
  4

  0
STYLE
  5
94
330
3
100
AcDbSymbolTableRecord
100
AcDbTextStyleTableRecord
  2
SLDTEXTSTYLE0
 70
     0
 40
0.0
 41
0.75
 50
0.0
 71
     0
 42
3.5
  3
TXT
  4

  0
ENDTAB
  0
TABLE
  2
VIEW
  5
6
330
0
100
AcDbSymbolTable
 70
     0
  0
ENDTAB
  0
TABLE
  2
UCS
  5
7
330
0
100
AcDbSymbolTable
 70
     0
  0
ENDTAB
  0
TABLE
  2
APPID
  5
9
330
0
100
AcDbSymbolTable
 70
     1
  0
APPID
  5
12
330
9
100
AcDbSymbolTableRecord
100
AcDbRegAppTableRecord
  2
ACAD
 70
     0
  0
ENDTAB
  0
TABLE
  2
DIMSTYLE
  5
A
330
0
100
AcDbSymbolTable
 70
     4
100
AcDbDimStyleTable
  0
DIMSTYLE
105
27
330
A
100
AcDbSymbolTableRecord
100
AcDbDimStyleTableRecord
  2
ISO-25
 70
     0
 41
2.5
 42
0.625
 43
3.75
 44
1.25
 73
     0
 74
     0
 77
     1
 78
     8
140
2.5
141
2.5
143
0.03937007874016
147
0.625
171
     3
172
     1
178
     0
271
     2
272
     2
274
     3
278
    44
283
     0
284
     8
340
11
  0
DIMSTYLE
105
D9
102
{ACAD_REACTORS
330
D8
330
ED
330
102
330
116
102
}
330
A
100
AcDbSymbolTableRecord
100
AcDbDimStyleTableRecord
  2
SLDDIMSTYLE0
 70
     0
 41
3.302
 44
0.0
 45
0.000000001
 73
     0
 74
     0
 77
     1
 78
    12
 79
     3
140
3.5
143
0.0393700787401575
147
0.875
148
0.000000001
170
     1
172
     1
173
     1
178
     0
271
     2
272
     2
276
     2
284
    12
289
     0
340
94
  0
DIMSTYLE
105
EE
330
A
100
AcDbSymbolTableRecord
100
AcDbDimStyleTableRecord
  2
SLDDIMSTYLE1
 70
     0
 41
3.302
 44
0.0
 45
0.000000001
 73
     0
 74
     0
 77
     1
 78
    12
 79
     3
140
3.5
143
0.0393700787401575
147
0.875
148
0.000000001
170
     1
173
     1
178
     0
271
     2
272
     2
276
     2
284
    12
340
94
  0
DIMSTYLE
105
103
330
A
100
AcDbSymbolTableRecord
100
AcDbDimStyleTableRecord
  2
SLDDIMSTYLE2
 70
     0
 41
3.302
 44
0.0
 45
0.000000001
 73
     0
 74
     0
 77
     1
 78
     4
 79
     1
140
3.5
143
0.0393700787401575
147
0.875
148
0.000000001
170
     1
173
     1
178
     0
271
     2
272
     2
276
     2
284
    12
340
94
  0
ENDTAB
  0
TABLE
  2
BLOCK_RECORD
  5
1
330
0
100
AcDbSymbolTable
 70
     7
  0
BLOCK_RECORD
  5
1F
330
1
100
AcDbSymbolTableRecord
100
AcDbBlockTableRecord
  2
*Model_Space
340
22
  0
BLOCK_RECORD
  5
1B
330
1
100
AcDbSymbolTableRecord
100
AcDbBlockTableRecord
  2
*Paper_Space
340
1E
  0
BLOCK_RECORD
  5
23
330
1
100
AcDbSymbolTableRecord
100
AcDbBlockTableRecord
  2
*Paper_Space0
340
26
  0
BLOCK_RECORD
  5
7F
330
1
100
AcDbSymbolTableRecord
100
AcDbBlockTableRecord
  2
블럭10
340
0
102
{BLKREFS
331
D1
102
}
  0
BLOCK_RECORD
  5
DA
330
1
100
AcDbSymbolTableRecord
100
AcDbBlockTableRecord
  2
_D
340
0
  0
BLOCK_RECORD
  5
EF
330
1
100
AcDbSymbolTableRecord
100
AcDbBlockTableRecord
  2
_D_1
340
0
  0
BLOCK_RECORD
  5
104
330
1
100
AcDbSymbolTableRecord
100
AcDbBlockTableRecord
  2
_D_2
340
0
  0
BLOCK_RECORD
  5
117
330
1
100
AcDbSymbolTableRecord
100
AcDbBlockTableRecord
  2
_D_3
340
0
  0
BLOCK_RECORD
  5
130
330
1
100
AcDbSymbolTableRecord
100
AcDbBlockTableRecord
  2
SW_DOWELSYMBOL_0
340
0
102
{BLKREFS
331
136
102
}
  0
ENDTAB
  0
ENDSEC
  0
SECTION
  2
BLOCKS
  0
BLOCK
  5
20
330
1F
100
AcDbEntity
  8
0
100
AcDbBlockBegin
  2
*Model_Space
 70
     0
 10
0.0
 20
0.0
 30
0.0
  3
*Model_Space
  1
*Model_Space
  0
ENDBLK
  5
21
330
1F
100
AcDbEntity
  8
0
100
AcDbBlockEnd
  0
BLOCK
  5
1C
330
1B
100
AcDbEntity
 67
     1
  8
0
100
AcDbBlockBegin
  2
*Paper_Space
 70
     0
 10
0.0
 20
0.0
 30
0.0
  3
*Paper_Space
  1
*Paper_Space
  0
ENDBLK
  5
1D
330
1B
100
AcDbEntity
 67
     1
  8
0
100
AcDbBlockEnd
  0
BLOCK
  5
24
330
23
100
AcDbEntity
  8
0
100
AcDbBlockBegin
  2
*Paper_Space0
 70
     0
 10
0.0
 20
0.0
 30
0.0
  3
*Paper_Space0
  1
*Paper_Space0
  0
ENDBLK
  5
25
330
23
100
AcDbEntity
  8
0
100
AcDbBlockEnd
  0
BLOCK
  5
80
330
7F
100
AcDbEntity
  8
0
100
AcDbBlockBegin
  2
블럭10
 70
     2
 10
0.0
 20
0.0
 30
0.0
  3
블럭10
  1
블럭10
  0
ELLIPSE
  5
82
330
7F
100
AcDbEntity
  8
중심선
100
AcDbEllipse
 10
20.54032771741204
 20
12.0471743016438
 30
0.0
 11
6.600054785286829
 21
-1.261213355974178E-13
 31
0.0
210
0.0
220
0.0
230
1.0
 40
0.636358354079598
 41
0.9219305317359503
 42
6.513795318482858
  0
ELLIPSE
  5
83
330
7F
100
AcDbEntity
  8
중심선
100
AcDbEllipse
 10
20.54032771746488
 20
12.04717430159265
 30
0.0
 11
3.960054785062283
 21
1.540847449632565E-10
 31
0.0
210
0.0
220
0.0
230
1.0
 40
0.3939339440162632
 41
1.131841032648279
 42
5.62031148352944
  0
LINE
  5
84
330
7F
100
AcDbEntity
  8
중심선
100
AcDbLine
 10
2.268634060543552
 20
16.24717430164393
 30
0.0
 11
5.714909304380834
 21
16.24717430164393
 31
0.0
  0
LINE
  5
85
330
7F
100
AcDbEntity
  8
중심선
100
AcDbLine
 10
5.245725140726316
 20
7.84717430164391
 30
0.0
 11
8.692000384563599
 21
7.84717430164391
 31
0.0
  0
LINE
  5
86
330
7F
100
AcDbEntity
  8
중심선
100
AcDbLine
 10
15.74043728645272
 20
16.24717430164393
 30
0.0
 11
8.692000384563599
 21
7.84717430164391
 31
0.0
  0
LINE
  5
87
330
7F
100
AcDbEntity
  8
중심선
100
AcDbLine
 10
0.1404042013395286
 20
13.71084872107135
 30
0.0
 11
3.58671253028996
 21
13.71088815037384
 31
0.0
  0
LINE
  5
88
330
7F
100
AcDbEntity
  8
중심선
100
AcDbLine
 10
2.750260043222114
 20
10.84717430164391
 30
0.0
 11
6.196535287059397
 21
10.84717430164391
 31
0.0
  0
LINE
  5
89
330
7F
100
AcDbEntity
  8
중심선
100
AcDbLine
 10
12.29416204261559
 20
16.24717430164393
 30
0.0
 11
5.245725140726316
 21
7.84717430164391
 31
0.0
  0
LINE
  5
8A
330
7F
100
AcDbEntity
  8
중심선
100
AcDbLine
 10
10.72767329541681
 20
16.24717430164393
 30
0.0
 11
6.196535287059397
 21
10.84717430164391
 31
0.0
  0
LINE
  5
8B
330
7F
100
AcDbEntity
  8
중심선
100
AcDbLine
 10
7.28139805157953
 20
16.24717430164393
 30
0.0
 11
2.750260043222114
 21
10.84717430164391
 31
0.0
  0
LINE
  5
8C
330
7F
100
AcDbEntity
  8
중심선
100
AcDbLine
 10
5.714909304380834
 20
16.24717430164393
 30
0.0
 11
3.58671253028996
 21
13.71088815037384
 31
0.0
  0
LINE
  5
8D
330
7F
100
AcDbEntity
  8
중심선
100
AcDbLine
 10
2.268634060543552
 20
16.24717430164393
 30
0.0
 11
0.1404042013395286
 21
13.71084872107135
 31
0.0
  0
LINE
  5
8E
330
7F
100
AcDbEntity
  8
중심선
100
AcDbLine
 10
7.28139805157953
 20
16.24717430164393
 30
0.0
 11
10.72767329541681
 21
16.24717430164393
 31
0.0
  0
LINE
  5
8F
330
7F
100
AcDbEntity
  8
중심선
100
AcDbLine
 10
12.29416204261559
 20
16.24717430164393
 30
0.0
 11
15.74043728645272
 21
16.24717430164393
 31
0.0
  0
LINE
  5
90
330
7F
100
AcDbEntity
  8
중심선
100
AcDbLine
 10
19.22036997980202
 20
11.08717430171403
 30
0.0
 11
23.66174974927406
 21
11.08717430171406
 31
0.0
  0
LINE
  5
91
330
7F
100
AcDbEntity
  8
중심선
100
AcDbLine
 10
19.22039502424796
 20
13.00717430171391
 30
0.0
 11
19.22036997980202
 21
11.08717430171403
 31
0.0
  0
LINE
  5
92
330
7F
100
AcDbEntity
  8
중심선
100
AcDbLine
 10
19.22039502424796
 20
13.00717430171391
 30
0.0
 11
26.96566020931264
 21
13.00717430171391
 31
0.0
  0
LINE
  5
93
330
7F
100
AcDbEntity
  8
중심선
100
AcDbLine
 10
22.22332737316547
 20
13.45928029700563
 30
0.0
 11
24.52862924686651
 21
15.39360700705356
 31
0.0
  0
ATTDEF
  5
95
330
7F
100
AcDbEntity
  8
FORMAT
 62
     2
100
AcDbText
 10
4.408487351596664
 20
2.075366912832191
 30
0.0
 40
4.233333333333333
  1
E1080048
 41
0.75
  7
SLDTEXTSTYLE0
 11
4.408487351596664
 21
-0.0412997538344756
 31
0.0
100
AcDbAttributeDefinition
  3

  2
AUTOATTR0
 70
     0
 74
     1
  0
ENDBLK
  5
81
330
7F
100
AcDbEntity
  8
0
100
AcDbBlockEnd
  0
BLOCK
  5
DB
330
DA
100
AcDbEntity
  8
0
100
AcDbBlockBegin
  2
_D
 70
     0
 10
0.0
 20
0.0
 30
0.0
  3
_D
  1
_D
  0
LINE
  5
DD
330
DA
100
AcDbEntity
  8
치수문자_일반주서
 62
     0
370
    -2
100
AcDbLine
 10
-44.21249999999998
 20
9.525000000000004
 30
0.0
 11
-57.65000000000003
 21
9.524999999999954
 31
0.0
  0
LINE
  5
DE
330
DA
100
AcDbEntity
  8
치수문자_일반주서
 62
     0
370
    -2
100
AcDbLine
 10
-44.21249999999998
 20
-9.525000000000007
 30
0.0
 11
-57.64999999999996
 21
-9.525000000000057
 31
0.0
  0
LINE
  5
DF
330
DA
100
AcDbEntity
  8
치수문자_일반주서
 62
     0
370
    -2
100
AcDbLine
 10
-57.65000000000001
 20
6.222999999999955
 30
0.0
 11
-57.64999999999998
 21
-6.223000000000058
 31
0.0
  0
SOLID
  5
E0
330
DA
100
AcDbEntity
  8
치수문자_일반주서
 62
     0
100
AcDbTrace
 10
-57.09966666666668
 20
6.222999999999956
 30
0.0
 11
-58.20033333333335
 21
6.222999999999953
 31
0.0
 12
-57.65000000000003
 22
9.524999999999954
 32
0.0
 13
-57.65000000000003
 23
9.524999999999954
 33
0.0
  0
SOLID
  5
E1
330
DA
100
AcDbEntity
  8
치수문자_일반주서
 62
     0
100
AcDbTrace
 10
-58.20033333333331
 20
-6.223000000000059
 30
0.0
 11
-57.09966666666664
 21
-6.223000000000056
 31
0.0
 12
-57.64999999999996
 22
-9.525000000000057
 32
0.0
 13
-57.64999999999996
 23
-9.525000000000057
 33
0.0
  0
MTEXT
  5
E2
330
DA
100
AcDbEntity
  8
치수문자_일반주서
 62
     0
100
AcDbMText
 10
-62.025
 20
-0.000000000000003
 30
0.0
 40
3.5
 41
0.0
 71
     2
 72
     1
  1
\A1;%%c19.05 [3/4]
  7
SLDTEXTSTYLE0
 11
-3.356894814614645E-15
 21
1.0
 31
0.0
 73
     1
 44
1.0
  0
POINT
  5
E3
330
DA
100
AcDbEntity
  8
Defpoints
 62
     0
100
AcDbPoint
 10
-44.14999999999998
 20
9.525000000000004
 30
0.0
  0
POINT
  5
E4
330
DA
100
AcDbEntity
  8
Defpoints
 62
     0
100
AcDbPoint
 10
-44.14999999999998
 20
-9.525000000000007
 30
0.0
  0
POINT
  5
E5
330
DA
100
AcDbEntity
  8
Defpoints
 62
     0
100
AcDbPoint
 10
-57.64999999999996
 20
-9.525000000000057
 30
0.0
  0
ENDBLK
  5
DC
330
DA
100
AcDbEntity
  8
0
100
AcDbBlockEnd
  0
BLOCK
  5
F0
330
EF
100
AcDbEntity
  8
0
100
AcDbBlockBegin
  2
_D_1
 70
     0
 10
0.0
 20
0.0
 30
0.0
  3
_D_1
  1
_D_1
  0
LINE
  5
F2
330
EF
100
AcDbEntity
  8
치수문자_일반주서
 62
     0
370
    -2
100
AcDbLine
 10
69.15
 20
9.58750000000001
 30
0.0
 11
69.15
 21
22.6932913458853
 31
0.0
  0
LINE
  5
F3
330
EF
100
AcDbEntity
  8
치수문자_일반주서
 62
     0
370
    -2
100
AcDbLine
 10
12.00000000000002
 20
6.447306818727766
 30
0.0
 11
12.00000000000002
 21
22.6932913458853
 31
0.0
  0
LINE
  5
F4
330
EF
100
AcDbEntity
  8
치수문자_일반주서
 62
     0
370
    -2
100
AcDbLine
 10
65.84800000000001
 20
22.6932913458853
 30
0.0
 11
15.30200000000002
 21
22.6932913458853
 31
0.0
  0
SOLID
  5
F5
330
EF
100
AcDbEntity
  8
치수문자_일반주서
 62
     0
100
AcDbTrace
 10
65.84800000000001
 20
22.14295801255196
 30
0.0
 11
65.84800000000001
 21
23.24362467921863
 31
0.0
 12
69.15
 22
22.6932913458853
 32
0.0
 13
69.15
 23
22.6932913458853
 33
0.0
  0
SOLID
  5
F6
330
EF
100
AcDbEntity
  8
치수문자_일반주서
 62
     0
100
AcDbTrace
 10
15.30200000000002
 20
23.24362467921863
 30
0.0
 11
15.30200000000002
 21
22.14295801255196
 31
0.0
 12
12.00000000000002
 22
22.6932913458853
 32
0.0
 13
12.00000000000002
 23
22.6932913458853
 33
0.0
  0
MTEXT
  5
F7
330
EF
100
AcDbEntity
  8
치수문자_일반주서
 62
     0
100
AcDbMText
 10
40.57500000000001
 20
27.0682913458853
 30
0.0
 40
3.5
 41
0.0
 71
     2
 72
     1
  1
\A1;57.15 [2 1/4]
  7
SLDTEXTSTYLE0
 73
     1
 44
1.0
  0
POINT
  5
F8
330
EF
100
AcDbEntity
  8
Defpoints
 62
     0
100
AcDbPoint
 10
69.15
 20
9.52500000000001
 30
0.0
  0
POINT
  5
F9
330
EF
100
AcDbEntity
  8
Defpoints
 62
     0
100
AcDbPoint
 10
12.00000000000002
 20
6.384806818727766
 30
0.0
  0
POINT
  5
FA
330
EF
100
AcDbEntity
  8
Defpoints
 62
     0
100
AcDbPoint
 10
12.00000000000002
 20
22.6932913458853
 30
0.0
  0
ENDBLK
  5
F1
330
EF
100
AcDbEntity
  8
0
100
AcDbBlockEnd
  0
BLOCK
  5
105
330
104
100
AcDbEntity
  8
0
100
AcDbBlockBegin
  2
_D_2
 70
     0
 10
0.0
 20
0.0
 30
0.0
  3
_D_2
  1
_D_2
  0
LINE
  5
107
330
104
100
AcDbEntity
  8
치수문자_일반주서
 62
     0
370
    -2
100
AcDbLine
 10
69.15
 20
9.58750000000001
 30
0.0
 11
69.15
 21
39.56419134481796
 31
0.0
  0
LINE
  5
108
330
104
100
AcDbEntity
  8
치수문자_일반주서
 62
     0
370
    -2
100
AcDbLine
 10
-45.14999999999998
 20
8.587499999999995
 30
0.0
 11
-45.14999999999998
 21
39.56419134481796
 31
0.0
  0
LINE
  5
109
330
104
100
AcDbEntity
  8
치수문자_일반주서
 62
     0
370
    -2
100
AcDbLine
 10
65.84800000000001
 20
39.56419134481796
 30
0.0
 11
-41.84799999999998
 21
39.56419134481796
 31
0.0
  0
SOLID
  5
10A
330
104
100
AcDbEntity
  8
치수문자_일반주서
 62
     0
100
AcDbTrace
 10
65.84800000000001
 20
39.01385801148462
 30
0.0
 11
65.84800000000001
 21
40.11452467815129
 31
0.0
 12
69.15
 22
39.56419134481796
 32
0.0
 13
69.15
 23
39.56419134481796
 33
0.0
  0
SOLID
  5
10B
330
104
100
AcDbEntity
  8
치수문자_일반주서
 62
     0
100
AcDbTrace
 10
-41.84799999999998
 20
40.11452467815129
 30
0.0
 11
-41.84799999999998
 21
39.01385801148462
 31
0.0
 12
-45.14999999999998
 22
39.56419134481796
 32
0.0
 13
-45.14999999999998
 23
39.56419134481796
 33
0.0
  0
MTEXT
  5
10C
330
104
100
AcDbEntity
  8
치수문자_일반주서
 62
     0
100
AcDbMText
 10
11.99999999999987
 20
43.93919134481796
 30
0.0
 40
3.5
 41
0.0
 71
     2
 72
     1
  1
\A1;114.3 [4 1/2]
  7
SLDTEXTSTYLE0
 73
     1
 44
1.0
  0
POINT
  5
10D
330
104
100
AcDbEntity
  8
Defpoints
 62
     0
100
AcDbPoint
 10
69.15
 20
9.52500000000001
 30
0.0
  0
POINT
  5
10E
330
104
100
AcDbEntity
  8
Defpoints
 62
     0
100
AcDbPoint
 10
-45.14999999999998
 20
8.524999999999995
 30
0.0
  0
POINT
  5
10F
330
104
100
AcDbEntity
  8
Defpoints
 62
     0
100
AcDbPoint
 10
-45.14999999999998
 20
39.56419134481796
 30
0.0
  0
ENDBLK
  5
106
330
104
100
AcDbEntity
  8
0
100
AcDbBlockEnd
  0
BLOCK
  5
118
330
117
100
AcDbEntity
  8
0
100
AcDbBlockBegin
  2
_D_3
 70
     0
 10
0.0
 20
0.0
 30
0.0
  3
_D_3
  1
_D_3
  0
LINE
  5
11A
330
117
100
AcDbEntity
  8
치수문자_일반주서
 62
     0
370
    -2
100
AcDbLine
 10
69.2125
 20
-9.524999999999991
 30
0.0
 11
87.47013283702724
 21
-9.52499999999992
 31
0.0
  0
LINE
  5
11B
330
117
100
AcDbEntity
  8
치수문자_일반주서
 62
     0
370
    -2
100
AcDbLine
 10
69.2125
 20
9.52500000000001
 30
0.0
 11
87.47013283702717
 21
9.525000000000077
 31
0.0
  0
LINE
  5
11C
330
117
100
AcDbEntity
  8
치수문자_일반주서
 62
     0
370
    -2
100
AcDbLine
 10
87.47013283702717
 20
9.525000000000077
 30
0.0
 11
87.47013283702704
 21
43.90219961506241
 31
0.0
  0
LINE
  5
11D
330
117
100
AcDbEntity
  8
치수문자_일반주서
 62
     0
370
    -2
100
AcDbLine
 10
87.47013283702724
 20
-9.52499999999992
 30
0.0
 11
87.47013283702717
 21
9.525000000000077
 31
0.0
  0
LINE
  5
11E
330
117
100
AcDbEntity
  8
치수문자_일반주서
 62
     0
370
    -2
100
AcDbLine
 10
87.47013283702725
 20
-12.82699999999992
 30
0.0
 11
87.47013283702726
 21
-16.12899999999992
 31
0.0
  0
LINE
  5
11F
330
117
100
AcDbEntity
  8
치수문자_일반주서
 62
     0
370
    -2
100
AcDbLine
 10
87.47013283702715
 20
12.82700000000008
 30
0.0
 11
87.47013283702714
 21
16.12900000000008
 31
0.0
  0
SOLID
  5
120
330
117
100
AcDbEntity
  8
치수문자_일반주서
 62
     0
100
AcDbTrace
 10
88.02046617036058
 20
-12.82699999999992
 30
0.0
 11
86.91979950369392
 21
-12.82699999999992
 31
0.0
 12
87.47013283702724
 22
-9.52499999999992
 32
0.0
 13
87.47013283702724
 23
-9.52499999999992
 33
0.0
  0
SOLID
  5
121
330
117
100
AcDbEntity
  8
치수문자_일반주서
 62
     0
100
AcDbTrace
 10
86.91979950369382
 20
12.82700000000007
 30
0.0
 11
88.02046617036048
 21
12.82700000000008
 31
0.0
 12
87.47013283702717
 22
9.525000000000077
 32
0.0
 13
87.47013283702717
 23
9.525000000000077
 33
0.0
  0
MTEXT
  5
122
330
117
100
AcDbEntity
  8
치수문자_일반주서
 62
     0
100
AcDbMText
 10
83.0951328370271
 20
30.1209496150624
 30
0.0
 40
3.5
 41
0.0
 71
     2
 72
     1
  1
\A1;%%c19.05 [3/4]
  7
SLDTEXTSTYLE0
 11
-3.729883127349607E-15
 21
1.0
 31
0.0
 73
     1
 44
1.0
  0
POINT
  5
123
330
117
100
AcDbEntity
  8
Defpoints
 62
     0
100
AcDbPoint
 10
69.15
 20
-9.524999999999991
 30
0.0
  0
POINT
  5
1BA
330
117
100
AcDbEntity
  8
Defpoints
 62
     0
100
AcDbPoint
 10
69.15
 20
9.52500000000001
 30
0.0
  0
POINT
  5
1BB
330
117
100
AcDbEntity
  8
Defpoints
 62
     0
100
AcDbPoint
 10
87.47013283702717
 20
9.525000000000079
 30
0.0
  0
ENDBLK
  5
119
330
117
100
AcDbEntity
  8
0
100
AcDbBlockEnd
  0
BLOCK
  5
131
330
130
100
AcDbEntity
  8
0
100
AcDbBlockBegin
  2
SW_DOWELSYMBOL_0
 70
     0
 10
0.0
 20
0.0
 30
0.0
  3
SW_DOWELSYMBOL_0
  1
SW_DOWELSYMBOL_0
  0
CIRCLE
  5
133
330
130
100
AcDbEntity
  8
해칭선
 62
     0
100
AcDbCircle
 10
0.0
 20
0.0
 30
0.0
 40
2.999999999999996
  0
HATCH
  5
134
330
130
100
AcDbEntity
  8
0
  6
Continuous
 62
     0
370
     0
100
AcDbHatch
 10
0.0
 20
0.0
 30
0.0
210
0.0
220
0.0
230
1.0
  2
SOLID
 70
     1
 71
     0
 91
        1
 92
        0
 93
        3
 72
     2
 10
0.0
 20
0.0
 40
2.999999999999996
 50
0.0
 51
90.0
 73
     1
 72
     1
 10
0.0
 20
2.999999999999996
 11
0.0
 21
0.0
 72
     1
 10
0.0
 20
0.0
 11
2.999999999999996
 21
0.0
 97
        0
 75
     0
 76
     1
 98
        1
 10
0.0
 20
0.0
  0
HATCH
  5
135
330
130
100
AcDbEntity
  8
0
  6
Continuous
 62
     0
370
     0
100
AcDbHatch
 10
0.0
 20
0.0
 30
0.0
210
0.0
220
0.0
230
1.0
  2
SOLID
 70
     1
 71
     0
 91
        1
 92
        0
 93
        3
 72
     2
 10
0.0
 20
0.0
 40
2.999999999999996
 50
180.0
 51
270.0000000000007
 73
     1
 72
     1
 10
0.0
 20
-2.999999999999996
 11
0.0
 21
0.0
 72
     1
 10
0.0
 20
0.0
 11
-2.999999999999996
 21
0.0
 97
        0
 75
     0
 76
     1
 98
        1
 10
0.0
 20
0.0
  0
ENDBLK
  5
132
330
130
100
AcDbEntity
  8
0
100
AcDbBlockEnd
  0
ENDSEC
  0
SECTION
  2
ENTITIES
  0
LINE
  5
96
330
1F
100
AcDbEntity
  8
외형선
  6
Continuous
370
    15
100
AcDbLine
 10
8.94988647810983
 20
9.525
 30
0.0
 11
-10.65692499999999
 21
9.524999999999999
 31
0.0
  0
LINE
  5
97
330
1F
100
AcDbEntity
  8
외형선
  6
Continuous
370
    15
100
AcDbLine
 10
-44.14999999999998
 20
-9.525000000000004
 30
0.0
 11
8.94988647810983
 21
-9.525
 31
0.0
  0
LINE
  5
98
330
1F
100
AcDbEntity
  8
외형선
  6
Continuous
370
    15
100
AcDbLine
 10
-44.14999999999998
 20
9.52499999999999
 30
0.0
 11
-45.14999999999998
 21
8.524999999999995
 31
0.0
  0
LINE
  5
99
330
1F
100
AcDbEntity
  8
외형선
  6
Continuous
370
    15
100
AcDbLine
 10
-45.14999999999998
 20
-8.525000000000007
 30
0.0
 11
-44.14999999999998
 21
-9.525
 31
0.0
  0
SPLINE
  5
9A
330
1F
100
AcDbEntity
  8
외형선
  6
Continuous
370
    15
100
AcDbSpline
210
0.0
220
0.0
230
1.0
 70
     8
 71
     3
 72
     9
 73
     5
 74
     0
 42
0.000000001
 43
0.00000001
 40
0.0
 40
0.0
 40
0.0
 40
0.0
 40
0.4572596906876644
 40
0.9999999999999999
 40
0.9999999999999999
 40
0.9999999999999999
 40
0.9999999999999999
 10
12.00000000000002
 20
6.384661480246038
 30
0.0
 10
11.53299665575941
 20
6.35929596790611
 30
0.0
 10
10.5116878595734
 20
6.303823087054136
 30
0.0
 10
9.499313957428594
 20
6.284231166267653
 30
0.0
 10
8.949857832638784
 20
6.273597841119974
 30
0.0
  0
LINE
  5
9B
330
1F
100
AcDbEntity
  8
0
  6
Continuous
 62
     1
370
    15
100
AcDbLine
 10
39.20322087309303
 20
2.682630019715163
 30
0.0
 11
39.1018552089897
 21
2.738465861162235
 31
0.0
  0
LINE
  5
9C
330
1F
100
AcDbEntity
  8
0
  6
Continuous
 62
     1
370
    15
100
AcDbLine
 10
41.86736905758541
 20
3.74316552661531
 30
0.0
 11
41.83055509945864
 21
3.762365249127785
 31
0.0
  0
SPLINE
  5
9D
330
1F
100
AcDbEntity
  8
0
  6
Continuous
 62
     1
370
    15
100
AcDbSpline
210
0.0
220
0.0
230
1.0
 70
     8
 71
     3
 72
    11
 73
     7
 74
     0
 42
0.000000001
 43
0.00000001
 40
0.0
 40
0.0
 40
0.0
 40
0.0
 40
0.3946585831940547
 40
0.5480058562571858
 40
0.692793113010716
 40
0.9999999999999999
 40
0.9999999999999999
 40
0.9999999999999999
 40
0.9999999999999999
 10
44.47356549099504
 20
2.440714640509892
 30
0.0
 10
44.1311671583372
 20
2.603394488533498
 30
0.0
 10
43.65572762791927
 20
2.82928469644551
 30
0.0
 10
43.04939996954201
 20
3.131747433088855
 30
0.0
 10
42.5315290550506
 20
3.393850544854069
 30
0.0
 10
42.13611806743243
 20
3.601816972304065
 30
0.0
 10
41.86736905758541
 20
3.74316552661531
 30
0.0
  0
LINE
  5
9E
330
1F
100
AcDbEntity
  8
0
  6
Continuous
 62
     1
370
    15
100
AcDbLine
 10
22.61659829432396
 20
9.525000000000004
 30
0.0
 11
17.99821193895463
 21
9.525000000000004
 31
0.0
  0
SPLINE
  5
9F
330
1F
100
AcDbEntity
  8
0
  6
Continuous
 62
     1
370
    15
100
AcDbSpline
210
0.0
220
0.0
230
1.0
 70
     8
 71
     3
 72
    18
 73
    14
 74
     0
 42
0.000000001
 43
0.00000001
 40
0.0
 40
0.0
 40
0.0
 40
0.0
 40
0.1284918497851774
 40
0.2310799061106238
 40
0.3146232031370114
 40
0.3935761995907964
 40
0.4679485185991095
 40
0.5334896876668799
 40
0.63646118846183
 40
0.7725570818113612
 40
0.8964822798618359
 40
0.9859272010710372
 40
1.0
 40
1.0
 40
1.0
 40
1.0
 10
41.3250784318193
 20
7.568937656860743
 30
0.0
 10
40.99900852777738
 20
7.552364369722441
 30
0.0
 10
40.4126039975486
 20
7.52255894904972
 30
0.0
 10
39.59540018340753
 20
7.491469699115224
 30
0.0
 10
38.89755343548009
 20
7.47055826259768
 30
0.0
 10
38.27915041387732
 20
7.456014702434199
 30
0.0
 10
37.71206228408971
 20
7.446527040606857
 30
0.0
 10
37.08204227589033
 20
7.439777347129449
 30
0.0
 10
36.29166340156394
 20
7.437115153077897
 30
0.0
 10
35.35038677915971
 20
7.443534229918697
 30
0.0
 10
34.44407792396036
 20
7.460642672114515
 30
0.0
 10
33.85408187131377
 20
7.475692783881314
 30
0.0
 10
33.58558517571284
 20
7.485172353398765
 30
0.0
 10
33.54908417853824
 20
7.486461061028473
 30
0.0
  0
SPLINE
  5
A0
330
1F
100
AcDbEntity
  8
0
  6
Continuous
 62
     1
370
    15
100
AcDbSpline
210
0.0
220
0.0
230
1.0
 70
     8
 71
     3
 72
    28
 73
    24
 74
     0
 42
0.000000001
 43
0.00000001
 40
0.0
 40
0.0
 40
0.0
 40
0.0
 40
0.0711543692532134
 40
0.1231454392129803
 40
0.157370859067211
 40
0.1917575994840422
 40
0.2336727126249916
 40
0.2766618231318386
 40
0.311711194083531
 40
0.3641152746349807
 40
0.4254882538756807
 40
0.5000363999291535
 40
0.5520268276373643
 40
0.5919677624154414
 40
0.635919390637538
 40
0.6866218547288656
 40
0.7429619955783466
 40
0.7781001743175807
 40
0.8062448592282254
 40
0.8301085199837587
 40
0.8685228736417094
 40
0.9252114282330257
 40
0.9999999999999999
 40
0.9999999999999999
 40
0.9999999999999999
 40
0.9999999999999999
 10
26.99750881319499
 20
-7.926130531048436
 30
0.0
 10
27.33587386821548
 20
-7.893190422614533
 30
0.0
 10
27.92147547992453
 20
-7.836181637864001
 30
0.0
 10
28.67086395092255
 20
-7.771544152570718
 30
0.0
 10
29.25039357595846
 20
-7.724820787984825
 30
0.0
 10
29.78064749443894
 20
-7.684629250945407
 30
0.0
 10
30.35108491155128
 20
-7.644707337358149
 30
0.0
 10
30.92372394127643
 20
-7.608310546611929
 30
0.0
 10
31.54663392092332
 20
-7.572384113632431
 30
0.0
 10
32.25751961907597
 20
-7.53607618189359
 30
0.0
 10
33.15688613790012
 20
-7.497936969153443
 30
0.0
 10
34.05439374982438
 20
-7.469620885260739
 30
0.0
 10
34.8495222978452
 20
-7.45245214904989
 30
0.0
 10
35.49861073978362
 20
-7.443163102666603
 30
0.0
 10
36.14120860946602
 20
-7.438280180460944
 30
0.0
 10
36.86224093039763
 20
-7.438278873167063
 30
0.0
 10
37.54154175156404
 20
-7.444072966111926
 30
0.0
 10
38.11250688720925
 20
-7.45310584372092
 30
0.0
 10
38.52708218891505
 20
-7.461772068899963
 30
0.0
 10
38.95365194682291
 20
-7.47237718311519
 30
0.0
 10
39.52207662565603
 20
-7.489412844927203
 30
0.0
 10
40.33503322001495
 20
-7.519297319290215
 30
0.0
 10
40.96610421531815
 20
-7.550938881578799
 30
0.0
 10
41.32507843181931
 20
-7.568937656860745
 30
0.0
  0
SPLINE
  5
A1
330
1F
100
AcDbEntity
  8
0
  6
Continuous
 62
     1
370
    15
100
AcDbSpline
210
0.0
220
0.0
230
1.0
 70
     8
 71
     3
 72
    19
 73
    15
 74
     0
 42
0.000000001
 43
0.00000001
 40
0.0
 40
0.0
 40
0.0
 40
0.0
 40
0.1140554645385082
 40
0.2193349201475586
 40
0.3176057977625982
 40
0.3969861927200029
 40
0.4572852797206323
 40
0.5180871607262417
 40
0.5892939405119381
 40
0.6648165594457266
 40
0.7550944843714293
 40
0.86126116811083
 40
0.9716559077580027
 40
0.9999999999999999
 40
0.9999999999999999
 40
0.9999999999999999
 40
0.9999999999999999
 10
48.97069998428965
 20
-7.164079197899614
 30
0.0
 10
49.22554412619036
 20
-7.124262785205494
 30
0.0
 10
49.71562340244454
 20
-7.047693637605571
 30
0.0
 10
50.48476505250849
 20
-6.938292653234218
 30
0.0
 10
51.17285485654311
 20
-6.847395977677391
 30
0.0
 10
51.75765939811861
 20
-6.773185223910632
 30
0.0
 10
52.22386076914002
 20
-6.718998786024833
 30
0.0
 10
52.6622060732866
 20
-6.670224284055469
 30
0.0
 10
53.15290884970451
 20
-6.618340996437829
 30
0.0
 10
53.71735702447263
 20
-6.562852914142343
 30
0.0
 10
54.36444442999775
 20
-6.504490776374666
 30
0.0
 10
55.09478980700843
 20
-6.446842471693667
 30
0.0
 10
55.67760554282227
 20
-6.406057630303799
 30
0.0
 10
56.00769379246083
 20
-6.387311369808147
 30
0.0
 10
56.07513022441255
 20
-6.383481542719035
 30
0.0
  0
SPLINE
  5
A2
330
1F
100
AcDbEntity
  8
0
  6
Continuous
 62
     1
370
    15
100
AcDbSpline
210
0.0
220
0.0
230
1.0
 70
     8
 71
     3
 72
     9
 73
     5
 74
     0
 42
0.000000001
 43
0.00000001
 40
0.0
 40
0.0
 40
0.0
 40
0.0
 40
0.4992671628815508
 40
1.0
 40
1.0
 40
1.0
 40
1.0
 10
13.78209187052502
 20
6.514647908457639
 30
0.0
 10
13.48501634088531
 20
6.490061485624364
 30
0.0
 10
12.88999317147612
 20
6.44081646279656
 30
0.0
 10
12.29695412450959
 20
6.403398088811792
 30
0.0
 10
12.00000000000002
 20
6.384661480246038
 30
0.0
  0
SPLINE
  5
A3
330
1F
100
AcDbEntity
  8
0
  6
Continuous
 62
     1
370
    15
100
AcDbSpline
210
0.0
220
0.0
230
1.0
 70
     8
 71
     3
 72
    34
 73
    30
 74
     0
 42
0.000000001
 43
0.00000001
 40
0.0
 40
0.0
 40
0.0
 40
0.0
 40
0.0500401108164541
 40
0.0917997772988393
 40
0.1252260961522383
 40
0.1594491647567572
 40
0.1811699778811278
 40
0.2054440878496457
 40
0.2346180402371857
 40
0.2672931294996729
 40
0.2957169573089302
 40
0.3192170505609263
 40
0.3396557132653574
 40
0.3722791144423467
 40
0.4129041414596349
 40
0.4528959444984246
 40
0.4901320927757835
 40
0.5223944632944446
 40
0.5579858491328177
 40
0.609840521938299
 40
0.6699503054176354
 40
0.7193988286641994
 40
0.7590915507955517
 40
0.7923816048124248
 40
0.8194265534950395
 40
0.8533605340971074
 40
0.8977225097426363
 40
0.9466861298206874
 40
1.0
 40
1.0
 40
1.0
 40
1.0
 10
65.61142192978613
 20
6.514649047067014
 30
0.0
 10
65.33112526955719
 20
6.491509092594401
 30
0.0
 10
64.81691435821438
 20
6.449058293972413
 30
0.0
 10
64.12086764319639
 20
6.402008867117734
 30
0.0
 10
63.52340613771675
 20
6.36630056203019
 30
0.0
 10
63.03905444693807
 20
6.341903084016143
 30
0.0
 10
62.66853024039322
 20
6.321545952466435
 30
0.0
 10
62.24817319737702
 20
6.304034924718084
 30
0.0
 10
61.75687560633832
 20
6.290099830674412
 30
0.0
 10
61.23659924944285
 20
6.279923284593814
 30
0.0
 10
60.75141423537708
 20
6.272694494318415
 30
0.0
 10
60.33835441438791
 20
6.268998604094001
 30
0.0
 10
59.91223366618033
 20
6.267578335459521
 30
0.0
 10
59.38968842357089
 20
6.269436952335177
 30
0.0
 10
58.75833317673654
 20
6.277656201730937
 30
0.0
 10
58.10119266727482
 20
6.293017659275353
 30
0.0
 10
57.49072447623268
 20
6.313341125684656
 30
0.0
 10
56.90506548747638
 20
6.338122230006856
 30
0.0
 10
56.23788385936751
 20
6.372115768988921
 30
0.0
 10
55.41545207925243
 20
6.422966689784329
 30
0.0
 10
54.51545666687147
 20
6.491075195549177
 30
0.0
 10
53.68342766304083
 20
6.565567154811527
 30
0.0
 10
53.00076554891604
 20
6.633760471881494
 30
0.0
 10
52.45043417738989
 20
6.693580138931318
 30
0.0
 10
51.9554883015183
 20
6.749440983828302
 30
0.0
 10
51.34927059124542
 20
6.824322932942272
 30
0.0
 10
50.62537377568133
 20
6.919287234835629
 30
0.0
 10
49.78693050930934
 20
7.036601190928506
 30
0.0
 10
49.25038394697987
 20
7.120398456916945
 30
0.0
 10
48.97069998428965
 20
7.164079197899611
 30
0.0
  0
LINE
  5
A4
330
1F
100
AcDbEntity
  8
0
  6
Continuous
 62
     1
370
    15
100
AcDbLine
 10
17.99824128802715
 20
-9.525000000000007
 30
0.0
 11
22.61659829432394
 21
-9.525000000000007
 31
0.0
  0
SPLINE
  5
A5
330
1F
100
AcDbEntity
  8
외형선
  6
Continuous
370
    15
100
AcDbSpline
210
0.0
220
0.0
230
1.0
 70
     8
 71
     3
 72
    10
 73
     6
 74
     0
 42
0.000000001
 43
0.00000001
 40
0.0
 40
0.0
 40
0.0
 40
0.0
 40
0.5
 40
0.5
 40
1.0
 40
1.0
 40
1.0
 40
1.0
 10
8.94988647810983
 20
8.127967727171015
 30
0.0
 10
9.458540103427238
 20
8.281019029227986
 30
0.0
 10
9.968794875000572
 20
8.42262524505243
 30
0.0
 10
10.98597455171742
 20
8.681137670028793
 30
0.0
 10
11.49134358755733
 20
8.797963820740375
 30
0.0
 10
12.00000000000002
 20
8.90235804383623
 30
0.0
  0
SPLINE
  5
A6
330
1F
100
AcDbEntity
  8
외형선
  6
Continuous
370
    15
100
AcDbSpline
210
0.0
220
0.0
230
1.0
 70
     8
 71
     3
 72
    10
 73
     6
 74
     0
 42
0.000000001
 43
0.00000001
 40
0.0
 40
0.0
 40
0.0
 40
0.0
 40
0.5
 40
0.5
 40
1.0
 40
1.0
 40
1.0
 40
1.0
 10
12.00000000000033
 20
-7.620606299964343
 30
0.0
 10
11.49132377195242
 20
-7.444490853308164
 30
0.0
 10
10.98593505530811
 20
-7.257919376086814
 30
0.0
 10
9.9687154933251
 20
-6.863867944945119
 30
0.0
 10
9.458440776605803
 20
-6.656546386300471
 30
0.0
 10
8.949767585159437
 20
-6.440254931804011
 30
0.0
  0
LINE
  5
A7
330
1F
100
AcDbEntity
  8
외형선
  6
Continuous
370
    15
100
AcDbLine
 10
12.00000000000002
 20
-7.620606299964233
 30
0.0
 11
12.00000000000002
 21
-8.90235804383623
 31
0.0
  0
SPLINE
  5
A8
330
1F
100
AcDbEntity
  8
외형선
  6
Continuous
370
    15
100
AcDbSpline
210
0.0
220
0.0
230
1.0
 70
     8
 71
     3
 72
    10
 73
     6
 74
     0
 42
0.000000001
 43
0.00000001
 40
0.0
 40
0.0
 40
0.0
 40
0.0
 40
0.5
 40
0.5
 40
1.0
 40
1.0
 40
1.0
 40
1.0
 10
8.94988647810983
 20
-8.12796772717102
 30
0.0
 10
9.458540103427238
 20
-8.281019029227988
 30
0.0
 10
9.968794875000572
 20
-8.422625245052435
 30
0.0
 10
10.98597455171742
 20
-8.681137670028797
 30
0.0
 10
11.49134358755733
 20
-8.797963820740376
 30
0.0
 10
12.00000000000002
 20
-8.90235804383623
 30
0.0
  0
LINE
  5
A9
330
1F
100
AcDbEntity
  8
외형선
  6
Continuous
370
    15
100
AcDbLine
 10
8.94988647810983
 20
-9.525
 30
0.0
 11
8.94988647810983
 21
-8.127967523692268
 31
0.0
  0
LINE
  5
AA
330
1F
100
AcDbEntity
  8
외형선
  6
Continuous
370
    15
100
AcDbLine
 10
-44.14999999999998
 20
9.52499999999999
 30
0.0
 11
-44.14999999999998
 21
-9.524999999999986
 31
0.0
  0
LINE
  5
AB
330
1F
100
AcDbEntity
  8
외형선
  6
Continuous
370
    15
100
AcDbLine
 10
8.94988647810983
 20
-6.43995416509151
 30
0.0
 11
8.94988647810983
 21
9.525
 31
0.0
  0
LINE
  5
AC
330
1F
100
AcDbEntity
  8
외형선
  6
Continuous
370
    15
100
AcDbLine
 10
-45.14999999999998
 20
8.524999999999995
 30
0.0
 11
-45.14999999999998
 21
-8.524999999999993
 31
0.0
  0
SPLINE
  5
AD
330
1F
100
AcDbEntity
  8
외형선
  6
Continuous
370
    15
100
AcDbSpline
210
0.0
220
0.0
230
1.0
 70
     8
 71
     3
 72
    10
 73
     6
 74
     0
 42
0.000000001
 43
0.00000001
 40
0.0
 40
0.0
 40
0.0
 40
0.0
 40
0.5
 40
0.5
 40
1.0
 40
1.0
 40
1.0
 40
1.0
 10
12.00000000000037
 20
-6.17299458967735
 30
0.0
 10
11.49132377195245
 20
-6.011535823477602
 30
0.0
 10
10.98593505530814
 20
-5.841647734983627
 30
0.0
 10
9.968715493325117
 20
-5.485015892200017
 30
0.0
 10
9.45844077660581
 20
-5.29841991455133
 30
0.0
 10
8.949767585159437
 20
-5.104737397884179
 30
0.0
  0
SPLINE
  5
AE
330
1F
100
AcDbEntity
  8
외형선
  6
Continuous
370
    15
100
AcDbSpline
210
0.0
220
0.0
230
1.0
 70
     8
 71
     3
 72
    10
 73
     6
 74
     0
 42
0.000000001
 43
0.00000001
 40
0.0
 40
0.0
 40
0.0
 40
0.0
 40
0.5
 40
0.5
 40
1.0
 40
1.0
 40
1.0
 40
1.0
 10
12.00000000000002
 20
2.414783289840313
 30
0.0
 10
11.49133635128546
 20
2.637526935496993
 30
0.0
 10
10.98596012840203
 20
2.856357680264
 30
0.0
 10
9.968765886365302
 20
3.286193456412635
 30
0.0
 10
9.458503831212635
 20
3.496960191536271
 30
0.0
 10
8.949843060720383
 20
3.702226038813965
 30
0.0
  0
SPLINE
  5
AF
330
1F
100
AcDbEntity
  8
외형선
  6
Continuous
370
    15
100
AcDbSpline
210
0.0
220
0.0
230
1.0
 70
    24
 71
     3
 72
    14
 73
    10
 74
     0
 42
0.000000001
 43
0.00000001
 40
0.0
 40
0.0
 40
0.0
 40
0.0
 40
0.25
 40
0.25
 40
0.5
 40
0.5
 40
0.75
 40
0.75
 40
1.0
 40
1.0
 40
1.0
 40
1.0
 10
12.00000000000002
 20
2.414783289840314
 30
0.0
 10
12.00000000000002
 20
1.69582407589438
 30
0.0
 10
12.00000000000002
 20
0.9437685730183328
 30
0.0
 10
12.00000000000002
 20
-0.5783142104225398
 30
0.0
 10
12.00000000000002
 20
-1.347950511454456
 30
0.0
 10
12.00000000000002
 20
-2.848877468996343
 30
0.0
 10
12.00000000000002
 20
-3.579734703363263
 30
0.0
 10
12.00000000000002
 20
-4.952161637281772
 30
0.0
 10
12.00000000000002
 20
-5.593458202569376
 30
0.0
 10
12.00000000000002
 20
-6.172994589677239
 30
0.0
  0
SPLINE
  5
B0
330
1F
100
AcDbEntity
  8
외형선
  6
Continuous
370
    15
100
AcDbSpline
210
0.0
220
0.0
230
1.0
 70
    24
 71
     3
 72
    13
 73
     9
 74
     0
 42
0.000000001
 43
0.00000001
 40
0.0
 40
0.0
 40
0.0
 40
0.0
 40
0.0592117081439207
 40
0.250308391503733
 40
0.4360194418233169
 40
0.6271161251831291
 40
0.810948867525556
 40
1.0
 40
1.0
 40
1.0
 40
1.0
 10
12.00000000000002
 20
6.353227001939024
 30
0.0
 10
12.00000000000002
 20
6.361047717929707
 30
0.0
 10
12.00000000000002
 20
6.394108592229728
 30
0.0
 10
12.00000000000002
 20
6.149413243216693
 30
0.0
 10
12.00000000000002
 20
5.618733548961401
 30
0.0
 10
12.00000000000002
 20
4.79688061728933
 30
0.0
 10
12.00000000000002
 20
3.738827418064251
 30
0.0
 10
12.00000000000002
 20
2.860229896011815
 30
0.0
 10
12.00000000000002
 20
2.414783289840315
 30
0.0
  0
SPLINE
  5
B1
330
1F
100
AcDbEntity
  8
외형선
  6
Continuous
370
    15
100
AcDbSpline
210
0.0
220
0.0
230
1.0
 70
    24
 71
     3
 72
     8
 73
     4
 74
     0
 42
0.000000001
 43
0.00000001
 40
0.0
 40
0.0
 40
0.0
 40
0.0
 40
1.0
 40
1.0
 40
1.0
 40
1.0
 10
12.00000000000004
 20
-6.172994589677246
 30
0.0
 10
12.00000000000004
 20
-6.640271302886997
 30
0.0
 10
12.00000000000004
 20
-7.125842105465259
 30
0.0
 10
12.00000000000004
 20
-7.620606299954997
 30
0.0
  0
SPLINE
  5
B2
330
1F
100
AcDbEntity
  8
외형선
  6
Continuous
370
    15
100
AcDbSpline
210
0.0
220
0.0
230
1.0
 70
    24
 71
     3
 72
    12
 73
     8
 74
     0
 42
0.000000001
 43
0.00000001
 40
0.0
 40
0.0
 40
0.0
 40
0.0
 40
0.1956554636365357
 40
0.4221567500701699
 40
0.6552265891546663
 40
0.8527963194192424
 40
1.0
 40
1.0
 40
1.0
 40
1.0
 10
12.00000000000002
 20
8.902358043836227
 30
0.0
 10
12.00000000000002
 20
8.721068481017417
 30
0.0
 10
12.00000000000002
 20
8.32990837110399
 30
0.0
 10
12.00000000000002
 20
7.743933953275643
 30
0.0
 10
12.00000000000002
 20
7.196691171022757
 30
0.0
 10
12.00000000000002
 20
6.753387663441844
 30
0.0
 10
12.00000000000002
 20
6.529062112961021
 30
0.0
 10
12.00000000000002
 20
6.433284580122518
 30
0.0
  0
SPLINE
  5
B3
330
1F
100
AcDbEntity
  8
0
  6
Continuous
 62
     1
370
    15
100
AcDbSpline
210
0.0
220
0.0
230
1.0
 70
     8
 71
     3
 72
    70
 73
    66
 74
     0
 42
0.000000001
 43
0.00000001
 40
0.0
 40
0.0
 40
0.0
 40
0.0
 40
0.0312500000000002
 40
0.0312500000000002
 40
0.0625000000000003
 40
0.0625000000000003
 40
0.0937500000000006
 40
0.0937500000000006
 40
0.1250000000000007
 40
0.1250000000000007
 40
0.1562500000000008
 40
0.1562500000000008
 40
0.1875000000000009
 40
0.1875000000000009
 40
0.218750000000001
 40
0.218750000000001
 40
0.2500000000000012
 40
0.2500000000000012
 40
0.2812500000000012
 40
0.2812500000000012
 40
0.3125000000000012
 40
0.3125000000000012
 40
0.3437500000000012
 40
0.3437500000000012
 40
0.3750000000000012
 40
0.3750000000000012
 40
0.4062500000000012
 40
0.4062500000000012
 40
0.4375000000000013
 40
0.4375000000000013
 40
0.4687500000000013
 40
0.4687500000000013
 40
0.5000000000000013
 40
0.5000000000000013
 40
0.5312500000000013
 40
0.5312500000000013
 40
0.5625000000000013
 40
0.5625000000000013
 40
0.5937500000000011
 40
0.5937500000000011
 40
0.6250000000000011
 40
0.6250000000000011
 40
0.656250000000001
 40
0.656250000000001
 40
0.6875000000000009
 40
0.6875000000000009
 40
0.7187500000000009
 40
0.7187500000000009
 40
0.7500000000000007
 40
0.7500000000000007
 40
0.7812500000000007
 40
0.7812500000000007
 40
0.8125000000000006
 40
0.8125000000000006
 40
0.8437500000000004
 40
0.8437500000000004
 40
0.8750000000000003
 40
0.8750000000000003
 40
0.9062500000000002
 40
0.9062500000000002
 40
0.9375000000000002
 40
0.9375000000000002
 40
0.9687500000000001
 40
0.9687500000000001
 40
1.0
 40
1.0
 40
1.0
 40
1.0
 10
12.00000000000002
 20
8.902358043836234
 30
0.0
 10
12.59565620880771
 20
9.024607691397119
 30
0.0
 10
13.19350324967252
 20
9.12956177760599
 30
0.0
 10
14.38309533610373
 20
9.303089273062914
 30
0.0
 10
14.97605423064744
 20
9.371792751693677
 30
0.0
 10
16.16903471808537
 20
9.472584014053217
 30
0.0
 10
16.76580550097331
 20
9.504514567049574
 30
0.0
 10
17.95170265709102
 20
9.531145685172175
 30
0.0
 10
18.54900213105297
 20
9.525899522658547
 30
0.0
 10
19.74185098877301
 20
9.47815917503513
 30
0.0
 10
20.3344271699625
 20
9.435784866725339
 30
0.0
 10
21.52452185639764
 20
9.314309696324937
 30
0.0
 10
22.12239638949108
 20
9.235117918769536
 30
0.0
 10
23.31331457961482
 20
9.041189873265546
 30
0.0
 10
23.90539386530114
 20
8.926591482250124
 30
0.0
 10
25.0979008681017
 20
8.662452445828931
 30
0.0
 10
25.69544366325849
 20
8.51304422338318
 30
0.0
 10
26.88264184253699
 20
8.182318237120304
 30
0.0
 10
27.47792443002083
 20
8.000508068293092
 30
0.0
 10
28.67104642929134
 20
7.606045374029394
 30
0.0
 10
29.26491381745815
 20
7.393853260726027
 30
0.0
 10
30.45348377403733
 20
6.941404078339071
 30
0.0
 10
31.05122985885179
 20
6.700717748411
 30
0.0
 10
32.24316644361605
 20
6.194566789880591
 30
0.0
 10
32.83500243531741
 20
5.929500137258475
 30
0.0
 10
34.02672687217861
 20
5.376072554608546
 30
0.0
 10
34.62451725269818
 20
5.087982946151358
 30
0.0
 10
35.81347396834315
 20
4.494151194397113
 30
0.0
 10
36.40697998081856
 20
4.188052413403995
 30
0.0
 10
37.60006550856772
 20
3.559640503705016
 30
0.0
 10
38.19585887691015
 20
3.237980352743847
 30
0.0
 10
39.38259841864434
 20
2.584185134367806
 30
0.0
 10
39.98006022664081
 20
2.250847946252664
 30
0.0
 10
41.17270661766822
 20
1.577089773406725
 30
0.0
 10
41.76493584012709
 20
1.237246330797197
 30
0.0
 10
42.9555693059249
 20
0.5528883199627757
 30
0.0
 10
43.55345140465896
 20
0.2084667739967787
 30
0.0
 10
44.7438606386499
 20
-0.4788206244968456
 30
0.0
 10
45.33622516077742
 20
-0.8216554147424248
 30
0.0
 10
46.52896463547857
 20
-1.504313983534469
 30
0.0
 10
47.12636018954164
 20
-1.84355510534962
 30
0.0
 10
48.31274547571918
 20
-2.511950935543638
 30
0.0
 10
48.90894406475418
 20
-2.842461106139309
 30
0.0
 10
50.10199106024717
 20
-3.491193684919016
 30
0.0
 10
50.69524969901025
 20
-3.80877788158145
 30
0.0
 10
51.88448473037143
 20
-4.42835272828464
 30
0.0
 10
52.48230260021648
 20
-4.730632969426393
 30
0.0
 10
53.67385708261144
 20
-5.314843519449703
 30
0.0
 10
54.26571618324535
 20
-5.596514168064854
 30
0.0
 10
55.45780032262419
 20
-6.138231959275273
 30
0.0
 10
56.05550760204144
 20
-6.397838626244156
 30
0.0
 10
57.24377703513809
 20
-6.890073959150519
 30
0.0
 10
57.83793789900191
 20
-7.123235768848678
 30
0.0
 10
59.0310759507602
 20
-7.561428865265502
 30
0.0
 10
59.62599930372649
 20
-7.765950753335305
 30
0.0
 10
60.81352964289581
 20
-8.143704783128271
 30
0.0
 10
61.4111273927413
 20
-8.317432219500002
 30
0.0
 10
62.60351886519411
 20
-8.631411759395915
 30
0.0
 10
63.19550904914161
 20
-8.7714966227229
 30
0.0
 10
64.38662913733958
 20
-9.017471257405179
 30
0.0
 10
64.98449234739297
 20
-9.123188984220468
 30
0.0
 10
66.17434050110376
 20
-9.298268931198685
 30
0.0
 10
66.76709816009512
 20
-9.367743398711893
 30
0.0
 10
67.96001764116224
 20
-9.470110334459008
 30
0.0
 10
68.55723957173609
 20
-9.502841920432127
 30
0.0
 10
69.15
 20
-9.524999999999988
 30
0.0
  0
SPLINE
  5
B4
330
1F
100
AcDbEntity
  8
0
  6
Continuous
 62
     1
370
    15
100
AcDbSpline
210
0.0
220
0.0
230
1.0
 70
     8
 71
     3
 72
    19
 73
    15
 74
     0
 42
0.000000001
 43
0.00000001
 40
0.0
 40
0.0
 40
0.0
 40
0.0
 40
0.0129596261389335
 40
0.1078929233639738
 40
0.2028259415634444
 40
0.2977586898883886
 40
0.3926911774971481
 40
0.4876234135551149
 40
0.5825554072344887
 40
0.6774871677140285
 40
0.7721019237717712
 40
0.8667163432260659
 40
0.961330444423585
 40
1.0
 40
1.0
 40
1.0
 40
1.0
 10
45.48038629485824
 20
-0.9024324118885577
 30
0.0
 10
45.34341749674748
 20
-0.8483645130152595
 30
0.0
 10
44.20310959902005
 20
-0.3982324176099255
 30
0.0
 10
42.05946645618248
 20
0.4795727328624224
 30
0.0
 10
39.04945974664741
 20
1.68200069044599
 30
0.0
 10
36.03946256053951
 20
2.832402431121021
 30
0.0
 10
33.0294745017725
 20
3.887779438479926
 30
0.0
 10
30.01949512407883
 20
4.814308714286051
 30
0.0
 10
27.00952468545151
 20
5.581209784307398
 30
0.0
 10
24.00290868607667
 20
6.161272655239456
 30
0.0
 10
20.99965624230824
 20
6.540459928915677
 30
0.0
 10
17.99976064178553
 20
6.690444737667022
 30
0.0
 10
15.59114220906994
 20
6.673059929618505
 30
0.0
 10
14.18248903350453
 20
6.52971748431015
 30
0.0
 10
13.77379682338
 20
6.488129574813397
 30
0.0
  0
SPLINE
  5
B5
330
1F
100
AcDbEntity
  8
외형선
  6
Continuous
370
    15
100
AcDbSpline
210
0.0
220
0.0
230
1.0
 70
    24
 71
     3
 72
    12
 73
     8
 74
     0
 42
0.000000001
 43
0.00000001
 40
0.0
 40
0.0
 40
0.0
 40
0.0
 40
0.1956554636365359
 40
0.4221567500701702
 40
0.6552265891546674
 40
0.8527963194192432
 40
1.0
 40
1.0
 40
1.0
 40
1.0
 10
12.00000000000002
 20
8.902358043836223
 30
0.0
 10
12.00000000000002
 20
8.721068481017417
 30
0.0
 10
12.00000000000002
 20
8.329908371103983
 30
0.0
 10
12.00000000000002
 20
7.743933953275641
 30
0.0
 10
12.00000000000002
 20
7.196691171022751
 30
0.0
 10
12.00000000000002
 20
6.753387663441845
 30
0.0
 10
12.00000000000002
 20
6.52906211296102
 30
0.0
 10
12.00000000000002
 20
6.433284580122518
 30
0.0
  0
SPLINE
  5
B6
330
1F
100
AcDbEntity
  8
0
  6
Continuous
 62
     1
370
    15
100
AcDbSpline
210
0.0
220
0.0
230
1.0
 70
     8
 71
     3
 72
    25
 73
    21
 74
     0
 42
0.000000001
 43
0.00000001
 40
0.0
 40
0.0
 40
0.0
 40
0.0
 40
0.0550428755994285
 40
0.1100613513567961
 40
0.1650669053884408
 40
0.2200710691947657
 40
0.2750853800250598
 40
0.3301213331925175
 40
0.3851697149687186
 40
0.445693757723283
 40
0.5062128823087978
 40
0.5667283261344414
 40
0.6272413300902306
 40
0.6877531373755569
 40
0.7482649923230698
 40
0.8087781392202743
 40
0.8692938211312213
 40
0.9298132787206623
 40
0.9903377490830407
 40
0.9999999999999999
 40
0.9999999999999999
 40
0.9999999999999999
 40
0.9999999999999999
 10
69.15000000000003
 20
-9.038661779433848
 30
0.0
 10
68.29616368959981
 20
-8.862228097816157
 30
0.0
 10
66.5888695641249
 20
-8.509438945501236
 30
0.0
 10
64.02863396214809
 20
-7.71738000121658
 30
0.0
 10
61.46909618276171
 20
-6.755511774759007
 30
0.0
 10
58.90963935106024
 20
-5.627122148137325
 30
0.0
 10
56.34962592140351
 20
-4.364510050317286
 30
0.0
 10
53.78868375903951
 20
-2.9966697611646
 30
0.0
 10
51.14212066259976
 20
-1.509238170421758
 30
0.0
 10
48.41067334425437
 20
0.0688014724418823
 30
0.0
 10
45.5944344707431
 20
1.693693303856128
 30
0.0
 10
42.7784104258504
 20
3.269361217491847
 30
0.0
 10
39.96252010139117
 20
4.749988580595049
 30
0.0
 10
37.14669722686908
 20
6.092407448473845
 30
0.0
 10
34.33087162915794
 20
7.258222871294342
 30
0.0
 10
31.51497351080815
 20
8.211248005251003
 30
0.0
 10
28.69893549010303
 20
8.932393023120541
 30
0.0
 10
25.88268057591903
 20
9.368535571165586
 30
0.0
 10
23.85521955421845
 20
9.554573217250487
 30
0.0
 10
22.76647961495961
 20
9.512582029351424
 30
0.0
 10
22.61659829432396
 20
9.506801314903075
 30
0.0
  0
SPLINE
  5
B7
330
1F
100
AcDbEntity
  8
0
  6
Continuous
 62
     1
370
    15
100
AcDbSpline
210
0.0
220
0.0
230
1.0
 70
     8
 71
     3
 72
    16
 73
    12
 74
     0
 42
0.000000001
 43
0.00000001
 40
0.0
 40
0.0
 40
0.0
 40
0.0
 40
0.1218449356882442
 40
0.2436894375917056
 40
0.3655335169067141
 40
0.4873771848408835
 40
0.6092204526128208
 40
0.7310633314518266
 40
0.8529058325976002
 40
0.9747479672999425
 40
1.0
 40
1.0
 40
1.0
 40
1.0
 10
69.15000000000003
 20
-7.514960818107257
 30
0.0
 10
68.14662976769037
 20
-7.307620730605083
 30
0.0
 10
66.1398928752075
 20
-6.892941293760051
 30
0.0
 10
63.12979482916607
 20
-5.975255227657354
 30
0.0
 10
60.1197086552958
 20
-4.877170483837991
 30
0.0
 10
57.10963418150244
 20
-3.612240952166372
 30
0.0
 10
54.09957105997957
 20
-2.229245452998428
 30
0.0
 10
51.08951894511626
 20
-0.7698355072002921
 30
0.0
 10
48.07947765635306
 20
0.7073028970206466
 30
0.0
 10
45.86484211150884
 20
1.798083467061175
 30
0.0
 10
44.65355401529148
 20
2.35086461031227
 30
0.0
 10
44.44560908344931
 20
2.445761965876105
 30
0.0
  0
LINE
  5
B8
330
1F
100
AcDbEntity
  8
0
  6
Continuous
 62
     1
370
    15
100
AcDbLine
 10
69.14999999999972
 20
-9.038661779433852
 30
0.0
 11
69.15
 21
-7.514960818107256
 31
0.0
  0
LINE
  5
B9
330
1F
100
AcDbEntity
  8
0
  6
Continuous
 62
     1
370
    15
100
AcDbLine
 10
69.15
 20
-9.524999999999991
 30
0.0
 11
69.14999999999995
 21
-9.038661779433832
 31
0.0
  0
SPLINE
  5
BA
330
1F
100
AcDbEntity
  8
0
  6
Continuous
 62
     1
370
    15
100
AcDbSpline
210
0.0
220
0.0
230
1.0
 70
     8
 71
     3
 72
    12
 73
     8
 74
     0
 42
0.000000001
 43
0.00000001
 40
0.0
 40
0.0
 40
0.0
 40
0.0
 40
0.4999999999999989
 40
0.4999999999999989
 40
0.7499999999999994
 40
0.7499999999999994
 40
1.0
 40
1.0
 40
1.0
 40
1.0
 10
69.15
 20
-2.545489060932362
 30
0.0
 10
68.29179496967376
 20
-1.870798261156446
 30
0.0
 10
67.44573740577397
 20
-1.17267716032445
 30
0.0
 10
66.1949240257446
 20
-0.0902502097417906
 30
0.0
 10
65.78107042667415
 20
0.2765076356954145
 30
0.0
 10
64.9599884191866
 20
1.022802140366345
 30
0.0
 10
64.55138535338719
 20
1.403657852354434
 30
0.0
 10
64.15000000000003
 20
1.788486169330859
 30
0.0
  0
LINE
  5
BB
330
1F
100
AcDbEntity
  8
0
  6
Continuous
 62
     1
370
    15
100
AcDbLine
 10
64.15000000000003
 20
2.937719435296592
 30
0.0
 11
69.15
 21
0.0000000000000056
 31
0.0
  0
LINE
  5
BC
330
1F
100
AcDbEntity
  8
0
  6
Continuous
 62
     1
370
    15
100
AcDbLine
 10
69.15
 20
0.0000000000000056
 30
0.0
 11
69.15
 21
-2.545489060932363
 31
0.0
  0
SPLINE
  5
BD
330
1F
100
AcDbEntity
  8
0
  6
Continuous
 62
     1
370
    15
100
AcDbSpline
210
0.0
220
0.0
230
1.0
 70
     8
 71
     3
 72
    15
 73
    11
 74
     0
 42
0.000000001
 43
0.00000001
 40
0.0
 40
0.0
 40
0.0
 40
0.0
 40
0.1467613640622037
 40
0.2935086189388461
 40
0.4402359499174948
 40
0.5720913027052058
 40
0.7039462409769575
 40
0.8358007770803634
 40
0.9676549233738332
 40
1.0
 40
1.0
 40
1.0
 40
1.0
 10
64.15
 20
2.273962504588733
 30
0.0
 10
63.03314593321443
 20
2.757216654435619
 30
0.0
 10
60.79954517055371
 20
3.723678495563699
 30
0.0
 10
57.44940660143536
 20
4.995180557138093
 30
0.0
 10
54.21272720824734
 20
6.032411755087086
 30
0.0
 10
51.08954860314562
 20
6.809234919969834
 30
0.0
 10
48.07950209901365
 20
7.337780188916619
 30
0.0
 10
45.06947736235585
 20
7.602408018734171
 30
0.0
 10
42.81666701538885
 20
7.668068747253879
 30
0.0
 10
41.56719993069793
 20
7.565746385393298
 30
0.0
 10
41.32107142973675
 20
7.545590232543717
 30
0.0
  0
SPLINE
  5
BE
330
1F
100
AcDbEntity
  8
0
  6
Continuous
 62
     1
370
    15
100
AcDbSpline
210
0.0
220
0.0
230
1.0
 70
    24
 71
     3
 72
     8
 73
     4
 74
     0
 42
0.000000001
 43
0.00000001
 40
0.0
 40
0.0
 40
0.0
 40
0.0
 40
1.0
 40
1.0
 40
1.0
 40
1.0
 10
64.15000000000003
 20
1.788486169330773
 30
0.0
 10
64.15000000000003
 20
1.95169109347769
 30
0.0
 10
64.15000000000003
 20
2.11359576676704
 30
0.0
 10
64.15000000000003
 20
2.273962504588735
 30
0.0
  0
SPLINE
  5
BF
330
1F
100
AcDbEntity
  8
0
  6
Continuous
 62
     1
370
    15
100
AcDbSpline
210
0.0
220
0.0
230
1.0
 70
    24
 71
     3
 72
    10
 73
     6
 74
     0
 42
0.000000001
 43
0.00000001
 40
0.0
 40
0.0
 40
0.0
 40
0.0
 40
0.5
 40
0.5
 40
1.0
 40
1.0
 40
1.0
 40
1.0
 10
69.15
 20
-7.514960818107256
 30
0.0
 10
69.15000000000003
 20
-6.938880480261241
 30
0.0
 10
69.15000000000003
 20
-6.210980884209114
 30
0.0
 10
69.15000000000003
 20
-4.518684375910226
 30
0.0
 10
69.15000000000003
 20
-3.555753395063724
 30
0.0
 10
69.15
 20
-2.545489060932669
 30
0.0
  0
SPLINE
  5
C0
330
1F
100
AcDbEntity
  8
0
  6
Continuous
 62
     1
370
    15
100
AcDbSpline
210
0.0
220
0.0
230
1.0
 70
     8
 71
     3
 72
    12
 73
     8
 74
     0
 42
0.000000001
 43
0.00000001
 40
0.0
 40
0.0
 40
0.0
 40
0.0
 40
0.1999082666193761
 40
0.3999321887117628
 40
0.5999554267708945
 40
0.7999780180925452
 40
1.0
 40
1.0
 40
1.0
 40
1.0
 10
26.99765359140181
 20
-7.925595182947278
 30
0.0
 10
25.99826582409229
 20
-8.000516201517138
 30
0.0
 10
23.99891210095257
 20
-8.150401583666984
 30
0.0
 10
20.99960539622824
 20
-8.036803584993946
 30
0.0
 10
17.99972657385574
 20
-7.673264724421917
 30
0.0
 10
14.99985936855711
 20
-7.066264045715648
 30
0.0
 10
12.99995210732233
 20
-6.470750772628541
 30
0.0
 10
12.00000000000003
 20
-6.172994589677243
 30
0.0
  0
SPLINE
  5
C1
330
1F
100
AcDbEntity
  8
0
  6
Continuous
 62
     1
370
    15
100
AcDbSpline
210
0.0
220
0.0
230
1.0
 70
     8
 71
     3
 72
    20
 73
    16
 74
     0
 42
0.000000001
 43
0.00000001
 40
0.0
 40
0.0
 40
0.0
 40
0.0
 40
0.0243471985790463
 40
0.1057433892450592
 40
0.1871393392743461
 40
0.2685350563024398
 40
0.3499305479711335
 40
0.4313258219282756
 40
0.5127208858275675
 40
0.5941157473283587
 40
0.6755104140954419
 40
0.7566332169284885
 40
0.8377557386391716
 40
0.9188779945512946
 40
1.0
 40
1.0
 40
1.0
 40
1.0
 10
48.97985970525855
 20
-7.137879783612665
 30
0.0
 10
48.67974016997149
 20
-7.19227172403719
 30
0.0
 10
47.37627781322964
 20
-7.428503753337459
 30
0.0
 10
45.06947684004121
 20
-7.604182526949791
 30
0.0
 10
42.05945963543682
 20
-7.645872694206383
 30
0.0
 10
39.04945228406847
 20
-7.416377920239761
 30
0.0
 10
36.03945433607322
 20
-6.945358452836926
 30
0.0
 10
33.02946555509636
 20
-6.242541837175444
 30
0.0
 10
30.01948541488034
 20
-5.33285069056388
 30
0.0
 10
27.00951433375594
 20
-4.246021091849972
 30
0.0
 10
24.00289809949909
 20
-3.019747845893537
 30
0.0
 10
20.99964787306769
 20
-1.69462698938572
 30
0.0
 10
17.99975493514551
 20
-0.3166394468184158
 30
0.0
 10
14.99987358359033
 20
1.07750370788702
 30
0.0
 10
12.99995683207773
 20
1.969023887948516
 30
0.0
 10
12.00000000000002
 20
2.414783289840315
 30
0.0
  0
SPLINE
  5
C2
330
1F
100
AcDbEntity
  8
외형선
  6
Continuous
370
    15
100
AcDbSpline
210
0.0
220
0.0
230
1.0
 70
    24
 71
     3
 72
    14
 73
    10
 74
     0
 42
0.000000001
 43
0.00000001
 40
0.0
 40
0.0
 40
0.0
 40
0.0
 40
0.25
 40
0.25
 40
0.5
 40
0.5
 40
0.75
 40
0.75
 40
1.0
 40
1.0
 40
1.0
 40
1.0
 10
12.00000000000002
 20
2.414783289840314
 30
0.0
 10
12.00000000000002
 20
1.69582407589438
 30
0.0
 10
12.00000000000002
 20
0.9437685730183328
 30
0.0
 10
12.00000000000002
 20
-0.5783142104225398
 30
0.0
 10
12.00000000000002
 20
-1.347950511454456
 30
0.0
 10
12.00000000000002
 20
-2.848877468996343
 30
0.0
 10
12.00000000000002
 20
-3.579734703363263
 30
0.0
 10
12.00000000000002
 20
-4.952161637281772
 30
0.0
 10
12.00000000000002
 20
-5.593458202569376
 30
0.0
 10
12.00000000000002
 20
-6.172994589677239
 30
0.0
  0
SPLINE
  5
C3
330
1F
100
AcDbEntity
  8
외형선
  6
Continuous
370
    15
100
AcDbSpline
210
0.0
220
0.0
230
1.0
 70
    24
 71
     3
 72
    13
 73
     9
 74
     0
 42
0.000000001
 43
0.00000001
 40
0.0
 40
0.0
 40
0.0
 40
0.0
 40
0.0596490710547796
 40
0.2506569155095872
 40
0.4362816306502053
 40
0.6272894751050128
 40
0.8110367554747532
 40
1.0
 40
1.0
 40
1.0
 40
1.0
 10
12.00000000000002
 20
6.353118984766188
 30
0.0
 10
12.00000000000002
 20
6.361019956655786
 30
0.0
 10
12.00000000000002
 20
6.394221366306509
 30
0.0
 10
12.00000000000002
 20
6.149467496688045
 30
0.0
 10
12.00000000000002
 20
5.618718710177015
 30
0.0
 10
12.00000000000002
 20
4.796884448825589
 30
0.0
 10
12.00000000000002
 20
3.738826444379801
 30
0.0
 10
12.00000000000002
 20
2.860229568436303
 30
0.0
 10
12.00000000000002
 20
2.414783289840315
 30
0.0
  0
SPLINE
  5
C4
330
1F
100
AcDbEntity
  8
0
  6
Continuous
 62
     1
370
    15
100
AcDbSpline
210
0.0
220
0.0
230
1.0
 70
    24
 71
     3
 72
    10
 73
     6
 74
     0
 42
0.000000001
 43
0.00000001
 40
0.0
 40
0.0
 40
0.0
 40
0.0
 40
0.5
 40
0.5
 40
1.0
 40
1.0
 40
1.0
 40
1.0
 10
64.15000000000003
 20
2.273962504588734
 30
0.0
 10
64.15
 20
2.801767246870174
 30
0.0
 10
64.15000000000003
 20
3.304266617507634
 30
0.0
 10
64.15000000000003
 20
4.221095501631607
 30
0.0
 10
64.15000000000003
 20
4.635160569708966
 30
0.0
 10
64.15000000000003
 20
4.989159483222105
 30
0.0
  0
SPLINE
  5
C5
330
1F
100
AcDbEntity
  8
0
  6
Continuous
 62
     1
370
    15
100
AcDbSpline
210
0.0
220
0.0
230
1.0
 70
     8
 71
     3
 72
     9
 73
     5
 74
     0
 42
0.000000001
 43
0.00000001
 40
0.0
 40
0.0
 40
0.0
 40
0.0
 40
0.84935371842795
 40
1.0
 40
1.0
 40
1.0
 40
1.0
 10
69.15000000000003
 20
6.6675
 30
0.0
 10
68.14663121477082
 20
6.661422982339239
 30
0.0
 10
66.96529914609354
 20
6.654268109723849
 30
0.0
 10
65.78396775450196
 20
6.518982440003328
 30
0.0
 10
65.60600457305432
 20
6.498602156909946
 30
0.0
  0
SPLINE
  5
C6
330
1F
100
AcDbEntity
  8
0
  6
Continuous
 62
     1
370
    15
100
AcDbSpline
210
0.0
220
0.0
230
1.0
 70
     8
 71
     3
 72
    10
 73
     6
 74
     0
 42
0.000000001
 43
0.00000001
 40
0.0
 40
0.0
 40
0.0
 40
0.0
 40
0.5
 40
0.5
 40
1.0
 40
1.0
 40
1.0
 40
1.0
 10
69.15
 20
6.667500000000007
 30
0.0
 10
68.30705417514778
 20
6.438941566832867
 30
0.0
 10
67.46842461786642
 20
6.186028406994867
 30
0.0
 10
65.80034462458522
 20
5.628489846077763
 30
0.0
 10
64.97174154135763
 20
5.324646660889369
 30
0.0
 10
64.15000000000003
 20
4.989159483222101
 30
0.0
  0
SPLINE
  5
C7
330
1F
100
AcDbEntity
  8
0
  6
Continuous
 62
     1
370
    15
100
AcDbSpline
210
0.0
220
0.0
230
1.0
 70
     8
 71
     3
 72
    15
 73
    11
 74
     0
 42
0.000000001
 43
0.00000001
 40
0.0
 40
0.0
 40
0.0
 40
0.0
 40
0.0942295641761402
 40
0.2249361918390587
 40
0.3556509745154794
 40
0.4863765841812887
 40
0.6147896213077974
 40
0.7432127481217906
 40
0.8716151475906924
 40
1.0
 40
1.0
 40
1.0
 40
1.0
 10
33.54513041053654
 20
-7.487794724298384
 30
0.0
 10
32.86842424211372
 20
-7.726083812097024
 30
0.0
 10
31.25305320808773
 20
-8.294905714595025
 30
0.0
 10
28.69893409181768
 20
-8.923288724976585
 30
0.0
 10
25.88268456773228
 20
-9.385735175006584
 30
0.0
 10
23.08285923859171
 20
-9.566197846653914
 30
0.0
 10
20.29943732792868
 20
-9.476353735605974
 30
0.0
 10
17.53261497628656
 20
-9.11664718825095
 30
0.0
 10
14.76613029031339
 20
-8.516713245237838
 30
0.0
 10
12.92200142511121
 20
-7.919295007248738
 30
0.0
 10
11.99999999999757
 20
-7.620606299963389
 30
0.0
  0
SPLINE
  5
C8
330
1F
100
AcDbEntity
  8
외형선
  6
Continuous
370
    15
100
AcDbSpline
210
0.0
220
0.0
230
1.0
 70
    24
 71
     3
 72
     8
 73
     4
 74
     0
 42
0.000000001
 43
0.00000001
 40
0.0
 40
0.0
 40
0.0
 40
0.0
 40
1.0
 40
1.0
 40
1.0
 40
1.0
 10
12.00000000000004
 20
-6.172994589677246
 30
0.0
 10
12.00000000000004
 20
-6.640271302886994
 30
0.0
 10
12.00000000000004
 20
-7.125842105465256
 30
0.0
 10
12.00000000000004
 20
-7.620606299954991
 30
0.0
  0
SPLINE
  5
C9
330
1F
100
AcDbEntity
  8
0
  6
Continuous
 62
     1
370
    15
100
AcDbSpline
210
0.0
220
0.0
230
1.0
 70
     8
 71
     3
 72
    10
 73
     6
 74
     0
 42
0.000000001
 43
0.00000001
 40
0.0
 40
0.0
 40
0.0
 40
0.0
 40
0.2501492853571959
 40
0.7523957225232257
 40
1.0
 40
1.0
 40
1.0
 40
1.0
 10
12.00000000000002
 20
-8.902358043836237
 30
0.0
 10
12.50020511301542
 20
-8.9972533456764
 30
0.0
 10
14.004715457227
 20
-9.282678183449322
 30
0.0
 10
16.00490501640625
 20
-9.493044421923369
 30
0.0
 10
17.5034233852623
 20
-9.516524125438067
 30
0.0
 10
17.99824128802715
 20
-9.524277235371281
 30
0.0
  0
SPLINE
  5
CA
330
1F
100
AcDbEntity
  8
0
  6
Continuous
 62
     1
370
    15
100
AcDbSpline
210
0.0
220
0.0
230
1.0
 70
     8
 71
     3
 72
    13
 73
     9
 74
     0
 42
0.000000001
 43
0.00000001
 40
0.0
 40
0.0
 40
0.0
 40
0.0
 40
0.0676973337855224
 40
0.282336085791189
 40
0.499090528495462
 40
0.6237167675118407
 40
0.8113379832299173
 40
0.9999999999999999
 40
0.9999999999999999
 40
0.9999999999999999
 40
0.9999999999999999
 10
56.07620173246502
 20
6.383973992873171
 30
0.0
 10
56.37125025760465
 20
6.515384615210616
 30
0.0
 10
57.60176911334433
 20
7.063441069836797
 30
0.0
 10
59.77686006681931
 20
7.84072544283537
 30
0.0
 10
62.20064396624536
 20
8.553370204908294
 30
0.0
 10
64.5048107473535
 20
9.054897848210146
 30
0.0
 10
66.68784801042219
 20
9.397434405400828
 30
0.0
 10
68.32777065908934
 20
9.47703781738099
 30
0.0
 10
69.15
 20
9.52500000000001
 30
0.0
  0
LINE
  5
CB
330
1F
100
AcDbEntity
  8
0
  6
Continuous
 62
     1
370
    15
100
AcDbLine
 10
69.15
 20
0.0000000000000056
 30
0.0
 11
69.15
 21
6.667500000000006
 31
0.0
  0
SPLINE
  5
CC
330
1F
100
AcDbEntity
  8
0
  6
Continuous
 62
     1
370
    15
100
AcDbSpline
210
0.0
220
0.0
230
1.0
 70
    24
 71
     3
 72
    10
 73
     6
 74
     0
 42
0.000000001
 43
0.00000001
 40
0.0
 40
0.0
 40
0.0
 40
0.0
 40
0.5
 40
0.5
 40
1.0
 40
1.0
 40
1.0
 40
1.0
 10
69.15
 20
6.667499999999999
 30
0.0
 10
69.15000000000003
 20
7.071667246089662
 30
0.0
 10
69.15
 20
7.541347015959291
 30
0.0
 10
69.15
 20
8.526733908152147
 30
0.0
 10
69.15
 20
9.039924476009027
 30
0.0
 10
69.15
 20
9.52500000000001
 30
0.0
  0
LINE
  5
CD
330
1F
100
AcDbEntity
  8
중심선
100
AcDbLine
 10
-48.14999999999998
 20
-0.0000000000000059
 30
0.0
 11
72.15
 21
0.0000000000000088
 31
0.0
  0
LINE
  5
CE
330
1F
100
AcDbEntity
  8
참조1
100
AcDbLine
 10
14.84926131403116
 20
0.0010749287238892
 30
0.0
 11
14.84926131403116
 21
-39.99892507127611
 31
0.0
  0
LINE
  5
CF
330
1F
100
AcDbEntity
  8
참조1
100
AcDbLine
 10
14.84926131403116
 20
-39.99892507127611
 30
0.0
 11
-20.15080122126847
 21
-39.9989250712761
 31
0.0
  0
CIRCLE
  5
D0
330
1F
100
AcDbEntity
  8
해칭선
100
AcDbCircle
 10
0.0
 20
0.0
 30
0.0
 40
2.999999999999995
  0
INSERT
  5
D1
330
1F
100
AcDbEntity
  8
0
  6
Continuous
 62
     7
100
AcDbBlockReference
 66
     1
  2
블럭10
 10
-1.940272932125199
 20
-52.04717430164393
 30
0.0
  0
ATTRIB
  5
D2
330
D1
100
AcDbEntity
  8
FORMAT
 62
     2
100
AcDbText
 10
-11.12156822086648
 20
-49.97180738881174
 30
0.0
 40
4.233333333333333
  1
E2080048 [ 2 FLUTE ]
 41
0.75
  7
SLDTEXTSTYLE0
 11
-11.12156822086648
 21
-52.08847405547841
 31
0.0
100
AcDbAttribute
  2
AUTOATTR0
 70
     0
 74
     1
  0
SEQEND
  5
D3
330
D1
100
AcDbEntity
  8
0
  6
Continuous
 62
     7
  0
HATCH
  5
D4
330
1F
100
AcDbEntity
  8
중심선
100
AcDbHatch
 10
0.0
 20
0.0
 30
0.0
210
0.0
220
0.0
230
1.0
  2
SOLID
 70
     1
 71
     0
 91
        1
 92
        0
 93
        4
 72
     1
 10
3.774636372255649
 20
-35.8
 11
0.3283611284183663
 21
-35.8
 72
     1
 10
0.3283611284183663
 20
-35.8
 11
-1.799868730785656
 21
-38.3363255805726
 72
     1
 10
-1.799868730785656
 20
-38.3363255805726
 11
1.646439598164775
 21
-38.33628615127011
 72
     1
 10
1.646439598164775
 20
-38.33628615127011
 11
3.774636372255649
 21
-35.8
 97
        0
 75
     0
 76
     1
 98
        1
 10
-2.849261314031146
 20
-0.0010749287238956
  0
HATCH
  5
D5
330
1F
100
AcDbEntity
  8
중심선
100
AcDbHatch
 10
0.0
 20
0.0
 30
0.0
210
0.0
220
0.0
230
1.0
  2
SOLID
 70
     1
 71
     0
 91
        1
 92
        0
 93
        4
 72
     1
 10
8.787400363291628
 20
-35.8
 11
5.341125119454373
 21
-35.8
 72
     1
 10
5.341125119454373
 20
-35.8
 11
0.8099871110969294
 21
-41.20000000000002
 72
     1
 10
0.8099871110969294
 20
-41.20000000000002
 11
4.256262354934211
 21
-41.20000000000002
 72
     1
 10
4.256262354934211
 20
-41.20000000000002
 11
8.787400363291628
 21
-35.8
 97
        0
 75
     0
 76
     1
 98
        1
 10
-2.849261314031146
 20
-0.0010749287238956
  0
HATCH
  5
D6
330
1F
100
AcDbEntity
  8
중심선
100
AcDbHatch
 10
0.0
 20
0.0
 30
0.0
210
0.0
220
0.0
230
1.0
  2
SOLID
 70
     1
 71
     0
 91
        1
 92
        0
 93
        4
 72
     1
 10
13.80016435432752
 20
-35.79999999999998
 11
10.35388911049041
 21
-35.79999999999998
 72
     1
 10
10.35388911049041
 20
-35.79999999999998
 11
3.305452208601131
 21
-44.20000000000002
 72
     1
 10
3.305452208601131
 20
-44.20000000000002
 11
6.751727452438413
 21
-44.20000000000002
 72
     1
 10
6.751727452438413
 20
-44.20000000000002
 11
13.80016435432752
 21
-35.79999999999998
 97
        0
 75
     0
 76
     1
 98
        1
 10
-2.849261314031146
 20
-0.0010749287238956
  0
HATCH
  5
D7
330
1F
100
AcDbEntity
  8
중심선
100
AcDbHatch
 10
0.0
 20
0.0
 30
0.0
210
0.0
220
0.0
230
1.0
  2
SOLID
 70
     1
 71
     0
 91
        1
 92
        0
 93
        6
 72
     3
 10
18.60005478533969
 20
-40.00000000005127
 11
3.960054785062283
 21
1.540882976769353E-10
 40
0.3939339440162628
 50
17.09539180608436
 51
320.0019657685075
 73
     0
 72
     1
 10
20.28305444104029
 20
-38.58789400463827
 11
22.58835631474135
 21
-36.65356729459038
 72
     3
 10
18.60005478528685
 20
-40.00000000000015
 11
6.600054785286829
 21
-1.278976924368180E-13
 40
0.636358354079598
 50
39.99873849337385
 51
368.4976242363724
 73
     1
 72
     1
 10
25.02538727718746
 20
-39.03999999993002
 11
17.28012209212277
 21
-39.03999999993002
 72
     1
 10
17.28012209212277
 20
-39.03999999993002
 11
17.28009704767684
 21
-40.95999999992991
 72
     1
 10
17.28009704767684
 20
-40.95999999992991
 11
21.72147681714887
 21
-40.95999999992988
 97
        0
 75
     0
 76
     1
 98
        1
 10
-2.849261314031146
 20
-0.0010749287238956
  0
DIMENSION
  5
D8
330
1F
100
AcDbEntity
  8
치수문자_일반주서
100
AcDbDimension
  2
_D
 10
-57.64999999999996
 20
-9.525000000000057
 30
0.0
 11
-57.65
 21
0.0000000000000115
 31
0.0
 70
   160
  1
%%c<>
 71
     2
 42
19.05000000000001
 52
-270.0
  3
SLDDIMSTYLE0
100
AcDbAlignedDimension
 13
-44.14999999999998
 23
9.525000000000004
 33
0.0
 14
-44.14999999999998
 24
-9.525000000000007
 34
0.0
 50
90.0000000000002
100
AcDbRotatedDimension
1001
ACAD
1000
DSTYLE
1002
{
1070
   171
1070
     6
1070
   273
1070
     7
1002
}
  0
DIMENSION
  5
ED
330
1F
100
AcDbEntity
  8
치수문자_일반주서
100
AcDbDimension
  2
_D_1
 10
12.00000000000002
 20
22.6932913458853
 30
0.0
 11
40.57500000000001
 21
22.6932913458853
 31
0.0
 70
   160
  1
<>
 71
     2
 42
57.14999999999999
  3
SLDDIMSTYLE0
100
AcDbAlignedDimension
 13
69.15
 23
9.52500000000001
 33
0.0
 14
12.00000000000002
 24
6.384806818727766
 34
0.0
100
AcDbRotatedDimension
1001
ACAD
1000
DSTYLE
1002
{
1070
   171
1070
     6
1070
   273
1070
     7
1002
}
  0
DIMENSION
  5
102
330
1F
100
AcDbEntity
  8
치수문자_일반주서
100
AcDbDimension
  2
_D_2
 10
-45.14999999999998
 20
39.56419134481796
 30
0.0
 11
11.99999999999987
 21
39.56419134481796
 31
0.0
 70
   160
  1
<>
 71
     2
 42
114.3
  3
SLDDIMSTYLE0
100
AcDbAlignedDimension
 13
69.15
 23
9.52500000000001
 33
0.0
 14
-45.14999999999998
 24
8.524999999999995
 34
0.0
100
AcDbRotatedDimension
1001
ACAD
1000
DSTYLE
1002
{
1070
   171
1070
     6
1070
   273
1070
     7
1002
}
  0
DIMENSION
  5
116
330
1F
100
AcDbEntity
  8
치수문자_일반주서
100
AcDbDimension
  2
_D_3
 10
87.47013283702717
 20
9.525000000000077
 30
0.0
 11
87.4701328370271
 21
30.12094961506241
 31
0.0
 70
   160
  1
%%c<>
 71
     2
 42
19.05
 52
-270.0
  3
SLDDIMSTYLE0
100
AcDbAlignedDimension
 13
69.15
 23
-9.524999999999991
 33
0.0
 14
69.15
 24
9.52500000000001
 34
0.0
 50
90.0000000000002
100
AcDbRotatedDimension
1001
ACAD
1000
DSTYLE
1002
{
1070
   171
1070
     6
1070
   273
1070
     7
1002
}
  0
LINE
  5
129
330
1F
100
AcDbEntity
  8
참조1
100
AcDbLine
 10
77.82153940838579
 20
7.441074928723896
 30
0.0
 11
77.82153940838579
 21
-7.438925071276109
 31
0.0
  0
LINE
  5
12A
330
1F
100
AcDbEntity
  8
참조1
100
AcDbLine
 10
90.52153940838579
 20
5.441074928723896
 30
0.0
 11
77.82153940838579
 21
5.441074928723896
 31
0.0
  0
SOLID
  5
12B
330
1F
100
AcDbEntity
  8
참조1
100
AcDbTrace
 10
77.82153940838579
 20
5.441074928723896
 30
0.0
 11
84.17153940838578
 21
4.425074928723896
 31
0.0
 12
84.17153940838578
 22
6.457074928723896
 32
0.0
 13
84.17153940838578
 23
6.457074928723896
 33
0.0
  0
LINE
  5
12C
330
1F
100
AcDbEntity
  8
참조1
100
AcDbLine
 10
90.52153940838579
 20
-5.438925071276109
 30
0.0
 11
77.82153940838579
 21
-5.438925071276109
 31
0.0
  0
SOLID
  5
12D
330
1F
100
AcDbEntity
  8
참조1
100
AcDbTrace
 10
77.82153940838579
 20
-5.438925071276109
 30
0.0
 11
84.17153940838578
 21
-6.454925071276109
 31
0.0
 12
84.17153940838578
 22
-4.422925071276109
 32
0.0
 13
84.17153940838578
 23
-4.422925071276109
 33
0.0
  0
MTEXT
  5
12E
330
1F
100
AcDbEntity
  8
참조1
100
AcDbMText
 10
87.20588954101179
 20
11.01136670591222
 30
0.0
 40
3.5
 41
0.0
 71
     1
 72
     1
  1
A
  7
SLDTEXTSTYLE0
 73
     1
 44
1.0
  0
MTEXT
  5
12F
330
1F
100
AcDbEntity
  8
참조1
100
AcDbMText
 10
87.20588954101179
 20
0.1313667059122192
 30
0.0
 40
3.5
 41
0.0
 71
     1
 72
     1
  1
A
  7
SLDTEXTSTYLE0
 73
     1
 44
1.0
  0
INSERT
  5
136
330
1F
100
AcDbEntity
  8
해칭선
100
AcDbBlockReference
  2
SW_DOWELSYMBOL_0
 10
0.0
 20
0.0
 30
0.0
  0
LINE
  5
1B2
330
1F
100
AcDbEntity
  8
외형선
  6
Continuous
370
    15
100
AcDbLine
 10
-24.14432499999996
 20
7.61999999999999
 30
0.0
 11
-12.56192499999995
 21
7.61999999999999
 31
0.0
  0
LINE
  5
1B3
330
1F
100
AcDbEntity
  8
외형선
  6
Continuous
370
    15
100
AcDbLine
 10
-24.14432499999996
 20
7.619999999999976
 30
0.0
 11
-26.0493250000001
 21
9.525000000000006
 31
0.0
  0
LINE
  5
1B4
330
1F
100
AcDbEntity
  8
외형선
  6
Continuous
370
    15
100
AcDbLine
 10
-12.56192499999995
 20
7.619999999999976
 30
0.0
 11
-10.65692499999998
 21
9.525000000000006
 31
0.0
  0
LINE
  5
1B6
330
1F
100
AcDbEntity
  8
외형선
  6
Continuous
370
    15
100
AcDbLine
 10
-26.0493250000001
 20
9.524999999999999
 30
0.0
 11
-44.14999999999998
 21
9.524999999999997
 31
0.0
  0
ENDSEC
  0
SECTION
  2
OBJECTS
  0
DICTIONARY
  5
C
330
0
100
AcDbDictionary
281
     1
  3
ACAD_GROUP
350
D
  3
ACAD_IMAGE_VARS
350
15A
  3
ACAD_LAYOUT
350
1A
  3
ACAD_MLINESTYLE
350
17
  3
ACAD_PLOTSETTINGS
350
19
  3
ACAD_PLOTSTYLENAME
350
E
  3
ACAD_SCALELIST
350
47
  3
APPDATA
350
158
  3
DWGPROPS
350
1E3
  0
DICTIONARY
  5
181
330
2
100
AcDbDictionary
280
     1
281
     1
  3
ACAD_LAYERSTATES
360
182
  0
DICTIONARY
  5
D
102
{ACAD_REACTORS
330
C
102
}
330
C
100
AcDbDictionary
281
     1
  0
RASTERVARIABLES
  5
15A
102
{ACAD_REACTORS
330
C
102
}
330
C
100
AcDbRasterVariables
 90
        0
 70
     1
 71
     1
 72
     1
  0
DICTIONARY
  5
1A
102
{ACAD_REACTORS
330
C
102
}
330
C
100
AcDbDictionary
281
     1
  3
Layout1
350
1E
  3
Layout2
350
26
  3
Model
350
22
  0
DICTIONARY
  5
17
102
{ACAD_REACTORS
330
C
102
}
330
C
100
AcDbDictionary
281
     1
  3
Standard
350
18
  0
DICTIONARY
  5
19
102
{ACAD_REACTORS
330
C
102
}
330
C
100
AcDbDictionary
281
     1
  0
ACDBDICTIONARYWDFLT
  5
E
102
{ACAD_REACTORS
330
C
102
}
330
C
100
AcDbDictionary
281
     1
  3
Normal
350
F
100
AcDbDictionaryWithDefault
340
F
  0
DICTIONARY
  5
47
102
{ACAD_REACTORS
330
C
102
}
330
C
100
AcDbDictionary
281
     1
  3
A0
350
48
  3
A1
350
49
  3
A2
350
4A
  3
A3
350
4B
  3
A4
350
4C
  3
A5
350
4D
  3
A6
350
4E
  3
A7
350
4F
  3
A8
350
50
  3
A9
350
51
  3
B0
350
52
  3
B1
350
53
  3
B2
350
54
  3
B3
350
55
  3
B4
350
56
  3
B5
350
57
  3
B6
350
58
  3
B7
350
59
  3
B8
350
5A
  3
B9
350
5B
  3
C0
350
5C
  3
C1
350
5D
  3
C2
350
5E
  3
C3
350
5F
  3
C4
350
60
  3
C5
350
61
  3
C6
350
62
  3
C7
350
63
  3
C8
350
64
  3
C9
350
65
  3
D0
350
66
  3
D1
350
67
  3
D2
350
68
  0
DICTIONARY
  5
158
102
{ACAD_REACTORS
330
C
102
}
330
C
100
AcDbDictionary
281
     1
  0
XRECORD
  5
1E3
102
{ACAD_REACTORS
330
C
102
}
330
C
100
AcDbXrecord
280
     1
  1
DWGPROPS COOKIE
  2

  3

  4

  6

  7

  8
12016016
  9

300
=
301
=
302
=
303
=
304
=
305
=
306
=
307
=
308
=
309
=
 40
0.0
 41
2458311.095674491
 42
2458319.343701528
  1

 90
        0
  0
DICTIONARY
  5
182
102
{ACAD_REACTORS
330
181
102
}
330
181
100
AcDbDictionary
281
     1
  0
LAYOUT
  5
1E
102
{ACAD_REACTORS
330
1A
102
}
330
1A
100
AcDbPlotSettings
  1

  2
none_device
  4

  6

 40
0.0
 41
0.0
 42
0.0
 43
0.0
 44
0.0
 45
0.0
 46
0.0
 47
0.0
 48
0.0
 49
0.0
140
0.0
141
0.0
142
1.0
143
1.0
 70
   688
 72
     1
 73
     0
 74
     5
  7

 75
    16
147
1.0
148
0.0
149
0.0
100
AcDbLayout
  1
Layout1
 70
     1
 71
     1
 10
0.0
 20
0.0
 11
420.0
 21
297.0
 12
0.0
 22
0.0
 32
0.0
 14
1.000000000000000E+20
 24
1.000000000000000E+20
 34
1.000000000000000E+20
 15
-1.000000000000000E+20
 25
-1.000000000000000E+20
 35
-1.000000000000000E+20
146
0.0
 13
0.0
 23
0.0
 33
0.0
 16
1.0
 26
0.0
 36
0.0
 17
0.0
 27
1.0
 37
0.0
 76
     0
330
1B
  0
LAYOUT
  5
26
102
{ACAD_REACTORS
330
1A
102
}
330
1A
100
AcDbPlotSettings
  1

  2
none_device
  4

  6

 40
0.0
 41
0.0
 42
0.0
 43
0.0
 44
0.0
 45
0.0
 46
0.0
 47
0.0
 48
0.0
 49
0.0
140
0.0
141
0.0
142
1.0
143
1.0
 70
   688
 72
     1
 73
     0
 74
     5
  7

 75
    16
147
1.0
148
0.0
149
0.0
100
AcDbLayout
  1
Layout2
 70
     1
 71
     2
 10
0.0
 20
0.0
 11
0.0
 21
0.0
 12
0.0
 22
0.0
 32
0.0
 14
0.0
 24
0.0
 34
0.0
 15
0.0
 25
0.0
 35
0.0
146
0.0
 13
0.0
 23
0.0
 33
0.0
 16
1.0
 26
0.0
 36
0.0
 17
0.0
 27
1.0
 37
0.0
 76
     0
330
23
  0
LAYOUT
  5
22
102
{ACAD_REACTORS
330
1A
102
}
330
1A
100
AcDbPlotSettings
  1

  2
none_device
  4
ANSI_A_(11.00_x_8.50_Inches)
  6

 40
6.35
 41
19.05
 42
6.35000508
 43
19.05000254
 44
279.4
 45
215.9
 46
83.30476781073743
 47
57.73811020943484
 48
0.0
 49
0.0
140
0.0
141
0.0
142
0.0529733737342649
143
1.0
 70
  1696
 72
     0
 73
     0
 74
     0
  7

 75
     0
147
0.0235690232323232
148
0.0
149
0.0
100
AcDbLayout
  1
Model
 70
     1
 71
     0
 10
0.0
 20
0.0
 11
420.0
 21
297.0
 12
0.0
 22
0.0
 32
0.0
 14
-62.02500000000004
 24
-49.97180738881174
 34
0.0
 15
90.52153940838579
 25
43.93919134481796
 35
0.0
146
0.0
 13
0.0
 23
0.0
 33
0.0
 16
1.0
 26
0.0
 36
0.0
 17
0.0
 27
1.0
 37
0.0
 76
     0
330
1F
331
29
  0
MLINESTYLE
  5
18
102
{ACAD_REACTORS
330
17
102
}
330
17
100
AcDbMlineStyle
  2
Standard
 70
     0
  3

 62
   256
 51
90.0
 52
90.0
 71
     2
 49
0.5
 62
   256
  6
BYLAYER
 49
-0.5
 62
   256
  6
BYLAYER
  0
ACDBPLACEHOLDER
  5
F
102
{ACAD_REACTORS
330
E
102
}
330
E
  0
SCALE
  5
48
102
{ACAD_REACTORS
330
47
102
}
330
47
100
AcDbScale
 70
     0
300
1:1
140
1.0
141
1.0
290
     1
  0
SCALE
  5
49
102
{ACAD_REACTORS
330
47
102
}
330
47
100
AcDbScale
 70
     0
300
1:2
140
1.0
141
2.0
290
     0
  0
SCALE
  5
4A
102
{ACAD_REACTORS
330
47
102
}
330
47
100
AcDbScale
 70
     0
300
1:4
140
1.0
141
4.0
290
     0
  0
SCALE
  5
4B
102
{ACAD_REACTORS
330
47
102
}
330
47
100
AcDbScale
 70
     0
300
1:5
140
1.0
141
5.0
290
     0
  0
SCALE
  5
4C
102
{ACAD_REACTORS
330
47
102
}
330
47
100
AcDbScale
 70
     0
300
1:8
140
1.0
141
8.0
290
     0
  0
SCALE
  5
4D
102
{ACAD_REACTORS
330
47
102
}
330
47
100
AcDbScale
 70
     0
300
1:10
140
1.0
141
10.0
290
     0
  0
SCALE
  5
4E
102
{ACAD_REACTORS
330
47
102
}
330
47
100
AcDbScale
 70
     0
300
1:16
140
1.0
141
16.0
290
     0
  0
SCALE
  5
4F
102
{ACAD_REACTORS
330
47
102
}
330
47
100
AcDbScale
 70
     0
300
1:20
140
1.0
141
20.0
290
     0
  0
SCALE
  5
50
102
{ACAD_REACTORS
330
47
102
}
330
47
100
AcDbScale
 70
     0
300
1:30
140
1.0
141
30.0
290
     0
  0
SCALE
  5
51
102
{ACAD_REACTORS
330
47
102
}
330
47
100
AcDbScale
 70
     0
300
1:40
140
1.0
141
40.0
290
     0
  0
SCALE
  5
52
102
{ACAD_REACTORS
330
47
102
}
330
47
100
AcDbScale
 70
     0
300
1:50
140
1.0
141
50.0
290
     0
  0
SCALE
  5
53
102
{ACAD_REACTORS
330
47
102
}
330
47
100
AcDbScale
 70
     0
300
1:100
140
1.0
141
100.0
290
     0
  0
SCALE
  5
54
102
{ACAD_REACTORS
330
47
102
}
330
47
100
AcDbScale
 70
     0
300
2:1
140
2.0
141
1.0
290
     0
  0
SCALE
  5
55
102
{ACAD_REACTORS
330
47
102
}
330
47
100
AcDbScale
 70
     0
300
4:1
140
4.0
141
1.0
290
     0
  0
SCALE
  5
56
102
{ACAD_REACTORS
330
47
102
}
330
47
100
AcDbScale
 70
     0
300
8:1
140
8.0
141
1.0
290
     0
  0
SCALE
  5
57
102
{ACAD_REACTORS
330
47
102
}
330
47
100
AcDbScale
 70
     0
300
10:1
140
10.0
141
1.0
290
     0
  0
SCALE
  5
58
102
{ACAD_REACTORS
330
47
102
}
330
47
100
AcDbScale
 70
     0
300
100:1
140
100.0
141
1.0
290
     0
  0
SCALE
  5
59
102
{ACAD_REACTORS
330
47
102
}
330
47
100
AcDbScale
 70
     0
300
1/128" = 1'-0"
140
0.0078125
141
12.0
290
     0
  0
SCALE
  5
5A
102
{ACAD_REACTORS
330
47
102
}
330
47
100
AcDbScale
 70
     0
300
1/64" = 1'-0"
140
0.015625
141
12.0
290
     0
  0
SCALE
  5
5B
102
{ACAD_REACTORS
330
47
102
}
330
47
100
AcDbScale
 70
     0
300
1/32" = 1'-0"
140
0.03125
141
12.0
290
     0
  0
SCALE
  5
5C
102
{ACAD_REACTORS
330
47
102
}
330
47
100
AcDbScale
 70
     0
300
1/16" = 1'-0"
140
0.0625
141
12.0
290
     0
  0
SCALE
  5
5D
102
{ACAD_REACTORS
330
47
102
}
330
47
100
AcDbScale
 70
     0
300
3/32" = 1'-0"
140
0.09375
141
12.0
290
     0
  0
SCALE
  5
5E
102
{ACAD_REACTORS
330
47
102
}
330
47
100
AcDbScale
 70
     0
300
1/8" = 1'-0"
140
0.125
141
12.0
290
     0
  0
SCALE
  5
5F
102
{ACAD_REACTORS
330
47
102
}
330
47
100
AcDbScale
 70
     0
300
3/16" = 1'-0"
140
0.1875
141
12.0
290
     0
  0
SCALE
  5
60
102
{ACAD_REACTORS
330
47
102
}
330
47
100
AcDbScale
 70
     0
300
1/4" = 1'-0"
140
0.25
141
12.0
290
     0
  0
SCALE
  5
61
102
{ACAD_REACTORS
330
47
102
}
330
47
100
AcDbScale
 70
     0
300
3/8" = 1'-0"
140
0.375
141
12.0
290
     0
  0
SCALE
  5
62
102
{ACAD_REACTORS
330
47
102
}
330
47
100
AcDbScale
 70
     0
300
1/2" = 1'-0"
140
0.5
141
12.0
290
     0
  0
SCALE
  5
63
102
{ACAD_REACTORS
330
47
102
}
330
47
100
AcDbScale
 70
     0
300
3/4" = 1'-0"
140
0.75
141
12.0
290
     0
  0
SCALE
  5
64
102
{ACAD_REACTORS
330
47
102
}
330
47
100
AcDbScale
 70
     0
300
1" = 1'-0"
140
1.0
141
12.0
290
     0
  0
SCALE
  5
65
102
{ACAD_REACTORS
330
47
102
}
330
47
100
AcDbScale
 70
     0
300
1-1/2" = 1'-0"
140
1.5
141
12.0
290
     0
  0
SCALE
  5
66
102
{ACAD_REACTORS
330
47
102
}
330
47
100
AcDbScale
 70
     0
300
3" = 1'-0"
140
3.0
141
12.0
290
     0
  0
SCALE
  5
67
102
{ACAD_REACTORS
330
47
102
}
330
47
100
AcDbScale
 70
     0
300
6" = 1'-0"
140
6.0
141
12.0
290
     0
  0
SCALE
  5
68
102
{ACAD_REACTORS
330
47
102
}
330
47
100
AcDbScale
 70
     0
300
1'-0" = 1'-0"
140
12.0
141
12.0
290
     0
  0
ENDSEC
  0
EOF
