  0
SECTION
  2
HEADER
  9
$ACADVER
  1
AC1015
  9
$ACADMAINTVER
 70
     6
  9
$DWGCODEPAGE
  3
ANSI_949
  9
$INSBASE
 10
0.0
 20
0.0
 30
0.0
  9
$EXTMIN
 10
-62.02500000000006
 20
-49.97180738881174
 30
0.0
  9
$EXTMAX
 10
97.69305190406942
 20
46.5915000000001
 30
0.0
  9
$LIMMIN
 10
0.0
 20
0.0
  9
$LIMMAX
 10
420.0
 20
297.0
  9
$ORTHOMODE
 70
     1
  9
$REGENMODE
 70
     1
  9
$FILLMODE
 70
     1
  9
$QTEXTMODE
 70
     0
  9
$MIRRTEXT
 70
     1
  9
$LTSCALE
 40
1.0
  9
$ATTMODE
 70
     1
  9
$TEXTSIZE
 40
3.5
  9
$TRACEWID
 40
1.0
  9
$TEXTSTYLE
  7
Standard
  9
$CLAYER
  8
0
  9
$CELTYPE
  6
ByLayer
  9
$CECOLOR
 62
   256
  9
$CELTSCALE
 40
1.0
  9
$DISPSILH
 70
     0
  9
$DIMSCALE
 40
1.0
  9
$DIMASZ
 40
3.302
  9
$DIMEXO
 40
1.0
  9
$DIMDLI
 40
3.75
  9
$DIMRND
 40
0.0
  9
$DIMDLE
 40
0.0
  9
$DIMEXE
 40
1.0
  9
$DIMTP
 40
0.0
  9
$DIMTM
 40
0.0
  9
$DIMTXT
 40
3.5
  9
$DIMCEN
 40
2.5
  9
$DIMTSZ
 40
0.0
  9
$DIMTOL
 70
     0
  9
$DIMLIM
 70
     0
  9
$DIMTIH
 70
     1
  9
$DIMTOH
 70
     1
  9
$DIMSE1
 70
     0
  9
$DIMSE2
 70
     0
  9
$DIMTAD
 70
     1
  9
$DIMZIN
 70
     0
  9
$DIMBLK
  1

  9
$DIMASO
 70
     1
  9
$DIMSHO
 70
     1
  9
$DIMPOST
  1

  9
$DIMAPOST
  1

  9
$DIMALT
 70
     0
  9
$DIMALTD
 70
     3
  9
$DIMALTF
 40
0.0393700787401575
  9
$DIMLFAC
 40
1.0
  9
$DIMTOFL
 70
     1
  9
$DIMTVP
 40
0.0
  9
$DIMTIX
 70
     0
  9
$DIMSOXD
 70
     0
  9
$DIMSAH
 70
     0
  9
$DIMBLK1
  1

  9
$DIMBLK2
  1

  9
$DIMSTYLE
  2
ISO-25
  9
$DIMCLRD
 70
     0
  9
$DIMCLRE
 70
     0
  9
$DIMCLRT
 70
     0
  9
$DIMTFAC
 40
1.0
  9
$DIMGAP
 40
1.524
  9
$DIMJUST
 70
     0
  9
$DIMSD1
 70
     0
  9
$DIMSD2
 70
     0
  9
$DIMTOLJ
 70
     0
  9
$DIMTZIN
 70
     0
  9
$DIMALTZ
 70
     0
  9
$DIMALTTZ
 70
     0
  9
$DIMUPT
 70
     0
  9
$DIMDEC
 70
     2
  9
$DIMTDEC
 70
     2
  9
$DIMALTU
 70
     2
  9
$DIMALTTD
 70
     3
  9
$DIMTXSTY
  7
Standard
  9
$DIMAUNIT
 70
     0
  9
$DIMADEC
 70
     2
  9
$DIMALTRND
 40
0.0
  9
$DIMAZIN
 70
     0
  9
$DIMDSEP
 70
    44
  9
$DIMATFIT
 70
     3
  9
$DIMFRAC
 70
     0
  9
$DIMLDRBLK
  1

  9
$DIMLUNIT
 70
     2
  9
$DIMLWD
 70
    -2
  9
$DIMLWE
 70
    -2
  9
$DIMTMOVE
 70
     0
  9
$LUNITS
 70
     2
  9
$LUPREC
 70
     2
  9
$SKETCHINC
 40
1.0
  9
$FILLETRAD
 40
10.0
  9
$AUNITS
 70
     0
  9
$AUPREC
 70
     2
  9
$MENU
  1
.
  9
$ELEVATION
 40
0.0
  9
$PELEVATION
 40
0.0
  9
$THICKNESS
 40
0.0
  9
$LIMCHECK
 70
     0
  9
$CHAMFERA
 40
0.0
  9
$CHAMFERB
 40
0.0
  9
$CHAMFERC
 40
0.0
  9
$CHAMFERD
 40
0.0
  9
$SKPOLY
 70
     0
  9
$TDCREATE
 40
2458311.470886829
  9
$TDUCREATE
 40
2458311.095886829
  9
$TDUPDATE
 40
2458319.718657245
  9
$TDUUPDATE
 40
2458319.343657245
  9
$TDINDWG
 40
0.0002394097
  9
$TDUSRTIMER
 40
2458319.343591597
  9
$USRTIMER
 70
     1
  9
$ANGBASE
 50
0.0
  9
$ANGDIR
 70
     0
  9
$PDMODE
 70
     0
  9
$PDSIZE
 40
-1.0
  9
$PLINEWID
 40
0.0
  9
$SPLFRAME
 70
     0
  9
$SPLINETYPE
 70
     6
  9
$SPLINESEGS
 70
     8
  9
$HANDSEED
  5
21C
  9
$SURFTAB1
 70
     6
  9
$SURFTAB2
 70
     6
  9
$SURFTYPE
 70
     6
  9
$SURFU
 70
     6
  9
$SURFV
 70
     6
  9
$UCSBASE
  2

  9
$UCSNAME
  2

  9
$UCSORG
 10
0.0
 20
0.0
 30
0.0
  9
$UCSXDIR
 10
1.0
 20
0.0
 30
0.0
  9
$UCSYDIR
 10
0.0
 20
1.0
 30
0.0
  9
$UCSORTHOREF
  2

  9
$UCSORTHOVIEW
 70
     0
  9
$UCSORGTOP
 10
0.0
 20
0.0
 30
0.0
  9
$UCSORGBOTTOM
 10
0.0
 20
0.0
 30
0.0
  9
$UCSORGLEFT
 10
0.0
 20
0.0
 30
0.0
  9
$UCSORGRIGHT
 10
0.0
 20
0.0
 30
0.0
  9
$UCSORGFRONT
 10
0.0
 20
0.0
 30
0.0
  9
$UCSORGBACK
 10
0.0
 20
0.0
 30
0.0
  9
$PUCSBASE
  2

  9
$PUCSNAME
  2

  9
$PUCSORG
 10
0.0
 20
0.0
 30
0.0
  9
$PUCSXDIR
 10
1.0
 20
0.0
 30
0.0
  9
$PUCSYDIR
 10
0.0
 20
1.0
 30
0.0
  9
$PUCSORTHOREF
  2

  9
$PUCSORTHOVIEW
 70
     0
  9
$PUCSORGTOP
 10
0.0
 20
0.0
 30
0.0
  9
$PUCSORGBOTTOM
 10
0.0
 20
0.0
 30
0.0
  9
$PUCSORGLEFT
 10
0.0
 20
0.0
 30
0.0
  9
$PUCSORGRIGHT
 10
0.0
 20
0.0
 30
0.0
  9
$PUCSORGFRONT
 10
0.0
 20
0.0
 30
0.0
  9
$PUCSORGBACK
 10
0.0
 20
0.0
 30
0.0
  9
$USERI1
 70
     0
  9
$USERI2
 70
     0
  9
$USERI3
 70
     0
  9
$USERI4
 70
     0
  9
$USERI5
 70
     0
  9
$USERR1
 40
0.0
  9
$USERR2
 40
0.0
  9
$USERR3
 40
0.0
  9
$USERR4
 40
0.0
  9
$USERR5
 40
0.0
  9
$WORLDVIEW
 70
     1
  9
$SHADEDGE
 70
     3
  9
$SHADEDIF
 70
    70
  9
$TILEMODE
 70
     1
  9
$MAXACTVP
 70
    64
  9
$PINSBASE
 10
0.0
 20
0.0
 30
0.0
  9
$PLIMCHECK
 70
     0
  9
$PEXTMIN
 10
1.000000000000000E+20
 20
1.000000000000000E+20
 30
1.000000000000000E+20
  9
$PEXTMAX
 10
-1.000000000000000E+20
 20
-1.000000000000000E+20
 30
-1.000000000000000E+20
  9
$PLIMMIN
 10
0.0
 20
0.0
  9
$PLIMMAX
 10
0.0
 20
0.0
  9
$UNITMODE
 70
     0
  9
$VISRETAIN
 70
     1
  9
$PLINEGEN
 70
     0
  9
$PSLTSCALE
 70
     1
  9
$TREEDEPTH
 70
  3020
  9
$CMLSTYLE
  2
Standard
  9
$CMLJUST
 70
     0
  9
$CMLSCALE
 40
20.0
  9
$PROXYGRAPHICS
 70
     1
  9
$MEASUREMENT
 70
     1
  9
$CELWEIGHT
370
    -1
  9
$ENDCAPS
280
     0
  9
$JOINSTYLE
280
     0
  9
$LWDISPLAY
290
     1
  9
$INSUNITS
 70
     4
  9
$HYPERLINKBASE
  1

  9
$STYLESHEET
  1

  9
$XEDIT
290
     1
  9
$CEPSNTYPE
380
     0
  9
$PSTYLEMODE
290
     1
  9
$FINGERPRINTGUID
  2
{668CCC78-EF9C-4D47-8CA1-7974750ECAC8}
  9
$VERSIONGUID
  2
{FAEB1C32-E019-11D5-929B-00C0DF256EC4}
  9
$EXTNAMES
290
     1
  9
$PSVPSCALE
 40
0.0
  9
$OLESTARTUP
290
     0
  0
ENDSEC
  0
SECTION
  2
CLASSES
  0
CLASS
  1
ACDBDICTIONARYWDFLT
  2
AcDbDictionaryWithDefault
  3
ObjectDBX Classes
 90
        0
280
     0
281
     0
  0
CLASS
  1
VISUALSTYLE
  2
AcDbVisualStyle
  3
ObjectDBX Classes
 90
     4095
280
     0
281
     0
  0
CLASS
  1
MATERIAL
  2
AcDbMaterial
  3
ObjectDBX Classes
 90
     1153
280
     0
281
     0
  0
CLASS
  1
SCALE
  2
AcDbScale
  3
ObjectDBX Classes
 90
     1153
280
     0
281
     0
  0
CLASS
  1
SUN
  2
AcDbSun
  3
SCENEOE
 90
     1153
280
     0
281
     0
  0
CLASS
  1
ACDBPLACEHOLDER
  2
AcDbPlaceHolder
  3
ObjectDBX Classes
 90
        0
280
     0
281
     0
  0
CLASS
  1
LAYOUT
  2
AcDbLayout
  3
ObjectDBX Classes
 90
        0
280
     0
281
     0
  0
CLASS
  1
TABLESTYLE
  2
AcDbTableStyle
  3
ObjectDBX Classes
 90
     4095
280
     0
281
     0
  0
CLASS
  1
MLEADERSTYLE
  2
AcDbMLeaderStyle
  3
ACDB_MLEADERSTYLE_CLASS
 90
     4095
280
     0
281
     0
  0
CLASS
  1
RASTERVARIABLES
  2
AcDbRasterVariables
  3
ISM
 90
        0
280
     0
281
     0
  0
ENDSEC
  0
SECTION
  2
TABLES
  0
TABLE
  2
VPORT
  5
8
330
0
100
AcDbSymbolTable
 70
     1
  0
VPORT
  5
29
330
8
100
AcDbSymbolTableRecord
100
AcDbViewportTableRecord
  2
*Active
 70
     0
 10
0.0
 20
0.0
 11
1.0
 21
1.0
 12
24.21590007267732
 22
-12.99736506803082
 13
0.0
 23
0.0
 14
10.0
 24
10.0
 15
10.0
 25
10.0
 16
0.0
 26
0.0
 36
1.0
 17
0.0
 27
0.0
 37
0.0
 40
208.9520273228316
 41
1.632093933463796
 42
50.0
 43
0.0
 44
0.0
 50
0.0
 51
0.0
 71
    16
 72
  2000
 73
     1
 74
     3
 75
     0
 76
     0
 77
     0
 78
     0
281
     0
 65
     1
110
0.0
120
0.0
130
0.0
111
1.0
121
0.0
131
0.0
112
0.0
122
1.0
132
0.0
 79
     0
146
0.0
  0
ENDTAB
  0
TABLE
  2
LTYPE
  5
5
330
0
100
AcDbSymbolTable
 70
     6
  0
LTYPE
  5
14
330
5
100
AcDbSymbolTableRecord
100
AcDbLinetypeTableRecord
  2
ByBlock
 70
     0
  3

 72
    65
 73
     0
 40
0.0
  0
LTYPE
  5
15
330
5
100
AcDbSymbolTableRecord
100
AcDbLinetypeTableRecord
  2
ByLayer
 70
     0
  3

 72
    65
 73
     0
 40
0.0
  0
LTYPE
  5
16
330
5
100
AcDbSymbolTableRecord
100
AcDbLinetypeTableRecord
  2
Continuous
 70
     0
  3
Solid line
 72
    65
 73
     0
 40
0.0
  0
LTYPE
  5
6A
330
5
100
AcDbSymbolTableRecord
100
AcDbLinetypeTableRecord
  2
HIDDEN
 70
     0
  3
Hidden __ __ __ __ __ __ __ __ __ __ __ __ __ __
 72
    65
 73
     2
 40
1.905
 49
1.27
 74
     0
 49
-0.635
 74
     0
  0
LTYPE
  5
6B
330
5
100
AcDbSymbolTableRecord
100
AcDbLinetypeTableRecord
  2
PHANTOM
 70
     0
  3
Phantom ______  __  __  ______  __  __  ______
 72
    65
 73
     6
 40
12.7
 49
6.35
 74
     0
 49
-1.27
 74
     0
 49
1.27
 74
     0
 49
-1.27
 74
     0
 49
1.27
 74
     0
 49
-1.27
 74
     0
  0
LTYPE
  5
6C
330
5
100
AcDbSymbolTableRecord
100
AcDbLinetypeTableRecord
  2
CENTER
 70
     0
  3
Center ____ _ ____ _ ____ _ ____ _ ____ _ ____
 72
    65
 73
     4
 40
10.16
 49
6.35
 74
     0
 49
-1.27
 74
     0
 49
1.27
 74
     0
 49
-1.27
 74
     0
  0
LTYPE
  5
6D
330
5
100
AcDbSymbolTableRecord
100
AcDbLinetypeTableRecord
  2
CENTERX2
 70
     0
  3
Center (2x) ________  __  ________  __  _____
 72
    65
 73
     4
 40
20.32
 49
12.7
 74
     0
 49
-2.54
 74
     0
 49
2.54
 74
     0
 49
-2.54
 74
     0
  0
LTYPE
  5
6E
330
5
100
AcDbSymbolTableRecord
100
AcDbLinetypeTableRecord
  2
DOT2
 70
     0
  3
Dot (.5x) ........................................
 72
    65
 73
     2
 40
0.635
 49
0.0
 74
     0
 49
-0.635
 74
     0
  0
ENDTAB
  0
TABLE
  2
LAYER
  5
2
102
{ACAD_XDICTIONARY
360
180
102
}
330
0
100
AcDbSymbolTable
 70
    18
  0
LAYER
  5
10
330
2
100
AcDbSymbolTableRecord
100
AcDbLayerTableRecord
  2
0
 70
     0
 62
     7
  6
Continuous
370
    -3
390
F
  0
LAYER
  5
6F
330
2
100
AcDbSymbolTableRecord
100
AcDbLayerTableRecord
  2
FORMAT
 70
     0
 62
     2
  6
Continuous
370
    -3
390
F
  0
LAYER
  5
70
330
2
100
AcDbSymbolTableRecord
100
AcDbLayerTableRecord
  2
외형선
 70
     0
 62
     4
  6
Continuous
370
    30
390
F
  0
LAYER
  5
71
330
2
100
AcDbSymbolTableRecord
100
AcDbLayerTableRecord
  2
숨은선
 70
     0
 62
     2
  6
HIDDEN
370
    15
390
F
  0
LAYER
  5
72
330
2
100
AcDbSymbolTableRecord
100
AcDbLayerTableRecord
  2
중심선
 70
     0
 62
     1
  6
CENTERX2
370
    -3
390
F
  0
LAYER
  5
73
330
2
100
AcDbSymbolTableRecord
100
AcDbLayerTableRecord
  2
파단선
 70
     0
 62
     4
  6
Continuous
370
    -3
390
F
  0
LAYER
  5
74
330
2
100
AcDbSymbolTableRecord
100
AcDbLayerTableRecord
  2
해칭선
 70
     0
 62
   100
  6
Continuous
370
    -3
390
F
  0
LAYER
  5
75
330
2
100
AcDbSymbolTableRecord
100
AcDbLayerTableRecord
  2
가는실선
 70
     0
 62
     4
  6
Continuous
370
    -3
390
F
  0
LAYER
  5
76
330
2
100
AcDbSymbolTableRecord
100
AcDbLayerTableRecord
  2
치수_보조선
 70
     0
 62
     4
  6
Continuous
370
    -3
390
F
  0
LAYER
  5
77
330
2
100
AcDbSymbolTableRecord
100
AcDbLayerTableRecord
  2
치수문자_일반주서
 70
     0
 62
     7
  6
Continuous
370
    15
390
F
  0
LAYER
  5
78
330
2
100
AcDbSymbolTableRecord
100
AcDbLayerTableRecord
  2
개별주서
 70
     0
 62
   100
  6
Continuous
370
    30
390
F
  0
LAYER
  5
79
330
2
100
AcDbSymbolTableRecord
100
AcDbLayerTableRecord
  2
중간선
 70
     0
 62
     2
  6
Continuous
370
    15
390
F
  0
LAYER
  5
7A
330
2
100
AcDbSymbolTableRecord
100
AcDbLayerTableRecord
  2
윤곽선
 70
     0
 62
     3
  6
Continuous
370
    40
390
F
  0
LAYER
  5
7B
330
2
100
AcDbSymbolTableRecord
100
AcDbLayerTableRecord
  2
중심마크
 70
     0
 62
   100
  6
Continuous
370
    30
390
F
  0
LAYER
  5
7C
330
2
100
AcDbSymbolTableRecord
100
AcDbLayerTableRecord
  2
가상선
 70
     0
 62
     4
  6
PHANTOM
370
    -3
390
F
  0
LAYER
  5
7D
330
2
100
AcDbSymbolTableRecord
100
AcDbLayerTableRecord
  2
특수지정선
 70
     0
 62
     5
  6
CENTERX2
370
    60
390
F
  0
LAYER
  5
7E
330
2
100
AcDbSymbolTableRecord
100
AcDbLayerTableRecord
  2
참조1
 70
     0
 62
    -4
  6
Continuous
370
    -3
390
F
  0
LAYER
  5
1EE
330
2
100
AcDbSymbolTableRecord
100
AcDbLayerTableRecord
  2
Defpoints
 70
     0
 62
     7
  6
Continuous
290
     0
370
    -3
390
F
  0
ENDTAB
  0
TABLE
  2
STYLE
  5
3
330
0
100
AcDbSymbolTable
 70
     2
  0
STYLE
  5
11
330
3
100
AcDbSymbolTableRecord
100
AcDbTextStyleTableRecord
  2
Standard
 70
     0
 40
0.0
 41
1.0
 50
0.0
 71
     0
 42
3.5
  3
txt
  4

  0
STYLE
  5
94
330
3
100
AcDbSymbolTableRecord
100
AcDbTextStyleTableRecord
  2
SLDTEXTSTYLE0
 70
     0
 40
0.0
 41
0.75
 50
0.0
 71
     0
 42
3.5
  3
TXT
  4

  0
ENDTAB
  0
TABLE
  2
VIEW
  5
6
330
0
100
AcDbSymbolTable
 70
     0
  0
ENDTAB
  0
TABLE
  2
UCS
  5
7
330
0
100
AcDbSymbolTable
 70
     0
  0
ENDTAB
  0
TABLE
  2
APPID
  5
9
330
0
100
AcDbSymbolTable
 70
     1
  0
APPID
  5
12
330
9
100
AcDbSymbolTableRecord
100
AcDbRegAppTableRecord
  2
ACAD
 70
     0
  0
ENDTAB
  0
TABLE
  2
DIMSTYLE
  5
A
330
0
100
AcDbSymbolTable
 70
     4
100
AcDbDimStyleTable
  0
DIMSTYLE
105
27
330
A
100
AcDbSymbolTableRecord
100
AcDbDimStyleTableRecord
  2
ISO-25
 70
     0
 41
2.5
 42
0.625
 43
3.75
 44
1.25
 73
     0
 74
     0
 77
     1
 78
     8
140
2.5
141
2.5
143
0.03937007874016
147
0.625
171
     3
172
     1
178
     0
271
     2
272
     2
274
     3
278
    44
283
     0
284
     8
340
11
  0
DIMSTYLE
105
D8
102
{ACAD_REACTORS
330
D7
330
EC
330
101
330
115
102
}
330
A
100
AcDbSymbolTableRecord
100
AcDbDimStyleTableRecord
  2
SLDDIMSTYLE0
 70
     0
 41
3.302
 44
0.0
 45
0.000000001
 73
     0
 74
     0
 77
     1
 78
    12
 79
     3
140
3.5
143
0.0393700787401575
147
0.875
148
0.000000001
170
     1
172
     1
173
     1
178
     0
271
     2
272
     2
276
     2
284
    12
289
     0
340
94
  0
DIMSTYLE
105
ED
330
A
100
AcDbSymbolTableRecord
100
AcDbDimStyleTableRecord
  2
SLDDIMSTYLE1
 70
     0
 41
3.302
 44
0.0
 45
0.000000001
 73
     0
 74
     0
 77
     1
 78
     4
 79
     1
140
3.5
143
0.0393700787401575
147
0.875
148
0.000000001
170
     1
173
     1
178
     0
271
     2
272
     2
276
     2
284
    12
340
94
  0
DIMSTYLE
105
102
330
A
100
AcDbSymbolTableRecord
100
AcDbDimStyleTableRecord
  2
SLDDIMSTYLE2
 70
     0
 41
3.302
 44
0.0
 45
0.000000001
 73
     0
 74
     0
 77
     1
 78
    12
 79
     3
140
3.5
143
0.0393700787401575
147
0.875
148
0.000000001
170
     1
173
     1
178
     0
271
     2
272
     2
276
     2
284
    12
340
94
  0
ENDTAB
  0
TABLE
  2
BLOCK_RECORD
  5
1
330
0
100
AcDbSymbolTable
 70
     7
  0
BLOCK_RECORD
  5
1F
330
1
100
AcDbSymbolTableRecord
100
AcDbBlockTableRecord
  2
*Model_Space
340
22
  0
BLOCK_RECORD
  5
1B
330
1
100
AcDbSymbolTableRecord
100
AcDbBlockTableRecord
  2
*Paper_Space
340
1E
  0
BLOCK_RECORD
  5
23
330
1
100
AcDbSymbolTableRecord
100
AcDbBlockTableRecord
  2
*Paper_Space0
340
26
  0
BLOCK_RECORD
  5
7F
330
1
100
AcDbSymbolTableRecord
100
AcDbBlockTableRecord
  2
블럭10
340
0
102
{BLKREFS
331
D0
102
}
  0
BLOCK_RECORD
  5
D9
330
1
100
AcDbSymbolTableRecord
100
AcDbBlockTableRecord
  2
_D
340
0
  0
BLOCK_RECORD
  5
EE
330
1
100
AcDbSymbolTableRecord
100
AcDbBlockTableRecord
  2
_D_1
340
0
  0
BLOCK_RECORD
  5
103
330
1
100
AcDbSymbolTableRecord
100
AcDbBlockTableRecord
  2
_D_2
340
0
  0
BLOCK_RECORD
  5
116
330
1
100
AcDbSymbolTableRecord
100
AcDbBlockTableRecord
  2
_D_3
340
0
  0
BLOCK_RECORD
  5
12F
330
1
100
AcDbSymbolTableRecord
100
AcDbBlockTableRecord
  2
SW_DOWELSYMBOL_0
340
0
102
{BLKREFS
331
135
102
}
  0
ENDTAB
  0
ENDSEC
  0
SECTION
  2
BLOCKS
  0
BLOCK
  5
20
330
1F
100
AcDbEntity
  8
0
100
AcDbBlockBegin
  2
*Model_Space
 70
     0
 10
0.0
 20
0.0
 30
0.0
  3
*Model_Space
  1
*Model_Space
  0
ENDBLK
  5
21
330
1F
100
AcDbEntity
  8
0
100
AcDbBlockEnd
  0
BLOCK
  5
1C
330
1B
100
AcDbEntity
 67
     1
  8
0
100
AcDbBlockBegin
  2
*Paper_Space
 70
     0
 10
0.0
 20
0.0
 30
0.0
  3
*Paper_Space
  1
*Paper_Space
  0
ENDBLK
  5
1D
330
1B
100
AcDbEntity
 67
     1
  8
0
100
AcDbBlockEnd
  0
BLOCK
  5
24
330
23
100
AcDbEntity
  8
0
100
AcDbBlockBegin
  2
*Paper_Space0
 70
     0
 10
0.0
 20
0.0
 30
0.0
  3
*Paper_Space0
  1
*Paper_Space0
  0
ENDBLK
  5
25
330
23
100
AcDbEntity
  8
0
100
AcDbBlockEnd
  0
BLOCK
  5
80
330
7F
100
AcDbEntity
  8
0
100
AcDbBlockBegin
  2
블럭10
 70
     2
 10
0.0
 20
0.0
 30
0.0
  3
블럭10
  1
블럭10
  0
ELLIPSE
  5
82
330
7F
100
AcDbEntity
  8
중심선
100
AcDbEllipse
 10
20.54032771741204
 20
12.0471743016438
 30
0.0
 11
6.600054785286829
 21
-1.261213355974178E-13
 31
0.0
210
0.0
220
0.0
230
1.0
 40
0.636358354079598
 41
0.9219305317359503
 42
6.513795318482858
  0
ELLIPSE
  5
83
330
7F
100
AcDbEntity
  8
중심선
100
AcDbEllipse
 10
20.54032771746488
 20
12.04717430159265
 30
0.0
 11
3.960054785062283
 21
1.540847449632565E-10
 31
0.0
210
0.0
220
0.0
230
1.0
 40
0.3939339440162632
 41
1.131841032648279
 42
5.62031148352944
  0
LINE
  5
84
330
7F
100
AcDbEntity
  8
중심선
100
AcDbLine
 10
2.268634060543552
 20
16.24717430164393
 30
0.0
 11
5.714909304380834
 21
16.24717430164393
 31
0.0
  0
LINE
  5
85
330
7F
100
AcDbEntity
  8
중심선
100
AcDbLine
 10
5.245725140726316
 20
7.84717430164391
 30
0.0
 11
8.692000384563599
 21
7.84717430164391
 31
0.0
  0
LINE
  5
86
330
7F
100
AcDbEntity
  8
중심선
100
AcDbLine
 10
15.74043728645272
 20
16.24717430164393
 30
0.0
 11
8.692000384563599
 21
7.84717430164391
 31
0.0
  0
LINE
  5
87
330
7F
100
AcDbEntity
  8
중심선
100
AcDbLine
 10
0.1404042013395286
 20
13.71084872107135
 30
0.0
 11
3.58671253028996
 21
13.71088815037384
 31
0.0
  0
LINE
  5
88
330
7F
100
AcDbEntity
  8
중심선
100
AcDbLine
 10
2.750260043222114
 20
10.84717430164391
 30
0.0
 11
6.196535287059397
 21
10.84717430164391
 31
0.0
  0
LINE
  5
89
330
7F
100
AcDbEntity
  8
중심선
100
AcDbLine
 10
12.29416204261559
 20
16.24717430164393
 30
0.0
 11
5.245725140726316
 21
7.84717430164391
 31
0.0
  0
LINE
  5
8A
330
7F
100
AcDbEntity
  8
중심선
100
AcDbLine
 10
10.72767329541681
 20
16.24717430164393
 30
0.0
 11
6.196535287059397
 21
10.84717430164391
 31
0.0
  0
LINE
  5
8B
330
7F
100
AcDbEntity
  8
중심선
100
AcDbLine
 10
7.28139805157953
 20
16.24717430164393
 30
0.0
 11
2.750260043222114
 21
10.84717430164391
 31
0.0
  0
LINE
  5
8C
330
7F
100
AcDbEntity
  8
중심선
100
AcDbLine
 10
5.714909304380834
 20
16.24717430164393
 30
0.0
 11
3.58671253028996
 21
13.71088815037384
 31
0.0
  0
LINE
  5
8D
330
7F
100
AcDbEntity
  8
중심선
100
AcDbLine
 10
2.268634060543552
 20
16.24717430164393
 30
0.0
 11
0.1404042013395286
 21
13.71084872107135
 31
0.0
  0
LINE
  5
8E
330
7F
100
AcDbEntity
  8
중심선
100
AcDbLine
 10
7.28139805157953
 20
16.24717430164393
 30
0.0
 11
10.72767329541681
 21
16.24717430164393
 31
0.0
  0
LINE
  5
8F
330
7F
100
AcDbEntity
  8
중심선
100
AcDbLine
 10
12.29416204261559
 20
16.24717430164393
 30
0.0
 11
15.74043728645272
 21
16.24717430164393
 31
0.0
  0
LINE
  5
90
330
7F
100
AcDbEntity
  8
중심선
100
AcDbLine
 10
19.22036997980202
 20
11.08717430171403
 30
0.0
 11
23.66174974927406
 21
11.08717430171406
 31
0.0
  0
LINE
  5
91
330
7F
100
AcDbEntity
  8
중심선
100
AcDbLine
 10
19.22039502424796
 20
13.00717430171391
 30
0.0
 11
19.22036997980202
 21
11.08717430171403
 31
0.0
  0
LINE
  5
92
330
7F
100
AcDbEntity
  8
중심선
100
AcDbLine
 10
19.22039502424796
 20
13.00717430171391
 30
0.0
 11
26.96566020931264
 21
13.00717430171391
 31
0.0
  0
LINE
  5
93
330
7F
100
AcDbEntity
  8
중심선
100
AcDbLine
 10
22.22332737316547
 20
13.45928029700563
 30
0.0
 11
24.52862924686651
 21
15.39360700705356
 31
0.0
  0
ATTDEF
  5
95
330
7F
100
AcDbEntity
  8
FORMAT
 62
     2
100
AcDbText
 10
4.408487351596664
 20
2.075366912832191
 30
0.0
 40
4.233333333333333
  1
E1080056
 41
0.75
  7
SLDTEXTSTYLE0
 11
4.408487351596664
 21
-0.0412997538344756
 31
0.0
100
AcDbAttributeDefinition
  3

  2
AUTOATTR0
 70
     0
 74
     1
  0
ENDBLK
  5
81
330
7F
100
AcDbEntity
  8
0
100
AcDbBlockEnd
  0
BLOCK
  5
DA
330
D9
100
AcDbEntity
  8
0
100
AcDbBlockBegin
  2
_D
 70
     0
 10
0.0
 20
0.0
 30
0.0
  3
_D
  1
_D
  0
LINE
  5
DC
330
D9
100
AcDbEntity
  8
치수문자_일반주서
 62
     0
370
    -2
100
AcDbLine
 10
-45.21249999999999
 20
11.11249999999994
 30
0.0
 11
-57.65000000000004
 21
11.1124999999999
 31
0.0
  0
LINE
  5
DD
330
D9
100
AcDbEntity
  8
치수문자_일반주서
 62
     0
370
    -2
100
AcDbLine
 10
-44.21249999999999
 20
-11.1125
 30
0.0
 11
-57.64999999999996
 21
-11.11250000000005
 31
0.0
  0
LINE
  5
DE
330
D9
100
AcDbEntity
  8
치수문자_일반주서
 62
     0
370
    -2
100
AcDbLine
 10
-57.65000000000003
 20
7.8104999999999
 30
0.0
 11
-57.64999999999998
 21
-7.810500000000047
 31
0.0
  0
SOLID
  5
DF
330
D9
100
AcDbEntity
  8
치수문자_일반주서
 62
     0
100
AcDbTrace
 10
-57.09966666666669
 20
7.810499999999902
 30
0.0
 11
-58.20033333333336
 21
7.810499999999898
 31
0.0
 12
-57.65000000000004
 22
11.1124999999999
 32
0.0
 13
-57.65000000000004
 23
11.1124999999999
 33
0.0
  0
SOLID
  5
E0
330
D9
100
AcDbEntity
  8
치수문자_일반주서
 62
     0
100
AcDbTrace
 10
-58.20033333333331
 20
-7.810500000000049
 30
0.0
 11
-57.09966666666664
 21
-7.810500000000046
 31
0.0
 12
-57.64999999999996
 22
-11.11250000000005
 32
0.0
 13
-57.64999999999996
 23
-11.11250000000005
 33
0.0
  0
MTEXT
  5
E1
330
D9
100
AcDbEntity
  8
치수문자_일반주서
 62
     0
100
AcDbMText
 10
-62.02500000000001
 20
-0.0000000000000141
 30
0.0
 40
3.5
 41
0.0
 71
     2
 72
     1
  1
\A1;%%c22.23 [7/8]
  7
SLDTEXTSTYLE0
 11
-3.516746948643924E-15
 21
1.0
 31
0.0
 73
     1
 44
1.0
  0
POINT
  5
E2
330
D9
100
AcDbEntity
  8
Defpoints
 62
     0
100
AcDbPoint
 10
-45.14999999999999
 20
11.11249999999994
 30
0.0
  0
POINT
  5
E3
330
D9
100
AcDbEntity
  8
Defpoints
 62
     0
100
AcDbPoint
 10
-44.14999999999999
 20
-11.1125
 30
0.0
  0
POINT
  5
E4
330
D9
100
AcDbEntity
  8
Defpoints
 62
     0
100
AcDbPoint
 10
-57.64999999999996
 20
-11.11250000000005
 30
0.0
  0
ENDBLK
  5
DB
330
D9
100
AcDbEntity
  8
0
100
AcDbBlockEnd
  0
BLOCK
  5
EF
330
EE
100
AcDbEntity
  8
0
100
AcDbBlockBegin
  2
_D_1
 70
     0
 10
0.0
 20
0.0
 30
0.0
  3
_D_1
  1
_D_1
  0
LINE
  5
F1
330
EE
100
AcDbEntity
  8
치수문자_일반주서
 62
     0
370
    -2
100
AcDbLine
 10
75.50000000000001
 20
11.17500000000001
 30
0.0
 11
75.50000000000001
 21
24.27944961506235
 31
0.0
  0
LINE
  5
F2
330
EE
100
AcDbEntity
  8
치수문자_일반주서
 62
     0
370
    -2
100
AcDbLine
 10
12.00000000000001
 20
7.744943647812293
 30
0.0
 11
12.00000000000001
 21
24.27944961506235
 31
0.0
  0
LINE
  5
F3
330
EE
100
AcDbEntity
  8
치수문자_일반주서
 62
     0
370
    -2
100
AcDbLine
 10
72.19800000000001
 20
24.27944961506235
 30
0.0
 11
15.30200000000001
 21
24.27944961506235
 31
0.0
  0
SOLID
  5
F4
330
EE
100
AcDbEntity
  8
치수문자_일반주서
 62
     0
100
AcDbTrace
 10
72.19800000000001
 20
23.72911628172902
 30
0.0
 11
72.19800000000001
 21
24.82978294839569
 31
0.0
 12
75.50000000000001
 22
24.27944961506235
 32
0.0
 13
75.50000000000001
 23
24.27944961506235
 33
0.0
  0
SOLID
  5
F5
330
EE
100
AcDbEntity
  8
치수문자_일반주서
 62
     0
100
AcDbTrace
 10
15.30200000000001
 20
24.82978294839569
 30
0.0
 11
15.30200000000001
 21
23.72911628172902
 31
0.0
 12
12.00000000000001
 22
24.27944961506235
 32
0.0
 13
12.00000000000001
 23
24.27944961506235
 33
0.0
  0
MTEXT
  5
F6
330
EE
100
AcDbEntity
  8
치수문자_일반주서
 62
     0
100
AcDbMText
 10
43.74913751455976
 20
28.65444961506235
 30
0.0
 40
3.5
 41
0.0
 71
     2
 72
     1
  1
\A1;63.5 [2 1/2]
  7
SLDTEXTSTYLE0
 73
     1
 44
1.0
  0
POINT
  5
F7
330
EE
100
AcDbEntity
  8
Defpoints
 62
     0
100
AcDbPoint
 10
75.50000000000001
 20
11.11250000000001
 30
0.0
  0
POINT
  5
F8
330
EE
100
AcDbEntity
  8
Defpoints
 62
     0
100
AcDbPoint
 10
12.00000000000001
 20
7.682443647812293
 30
0.0
  0
POINT
  5
F9
330
EE
100
AcDbEntity
  8
Defpoints
 62
     0
100
AcDbPoint
 10
12.00000000000001
 20
24.27944961506235
 30
0.0
  0
ENDBLK
  5
F0
330
EE
100
AcDbEntity
  8
0
100
AcDbBlockEnd
  0
BLOCK
  5
104
330
103
100
AcDbEntity
  8
0
100
AcDbBlockBegin
  2
_D_2
 70
     0
 10
0.0
 20
0.0
 30
0.0
  3
_D_2
  1
_D_2
  0
LINE
  5
106
330
103
100
AcDbEntity
  8
치수문자_일반주서
 62
     0
370
    -2
100
AcDbLine
 10
75.50000000000001
 20
11.17500000000001
 30
0.0
 11
75.50000000000001
 21
41.0706349747236
 31
0.0
  0
LINE
  5
107
330
103
100
AcDbEntity
  8
치수문자_일반주서
 62
     0
370
    -2
100
AcDbLine
 10
-45.14999999999999
 20
9.524000000000001
 30
0.0
 11
-45.14999999999999
 21
41.0706349747236
 31
0.0
  0
LINE
  5
108
330
103
100
AcDbEntity
  8
치수문자_일반주서
 62
     0
370
    -2
100
AcDbLine
 10
72.19800000000001
 20
41.0706349747236
 30
0.0
 11
-41.84799999999999
 21
41.0706349747236
 31
0.0
  0
SOLID
  5
109
330
103
100
AcDbEntity
  8
치수문자_일반주서
 62
     0
100
AcDbTrace
 10
72.19800000000001
 20
40.52030164139027
 30
0.0
 11
72.19800000000001
 21
41.62096830805694
 31
0.0
 12
75.50000000000001
 22
41.0706349747236
 32
0.0
 13
75.50000000000001
 23
41.0706349747236
 33
0.0
  0
SOLID
  5
10A
330
103
100
AcDbEntity
  8
치수문자_일반주서
 62
     0
100
AcDbTrace
 10
-41.84799999999999
 20
41.62096830805694
 30
0.0
 11
-41.84799999999999
 21
40.52030164139027
 31
0.0
 12
-45.14999999999999
 22
41.0706349747236
 32
0.0
 13
-45.14999999999999
 23
41.0706349747236
 33
0.0
  0
MTEXT
  5
10B
330
103
100
AcDbEntity
  8
치수문자_일반주서
 62
     0
100
AcDbMText
 10
15.17500000000001
 20
45.4456349747236
 30
0.0
 40
3.5
 41
0.0
 71
     2
 72
     1
  1
\A1;120.65 [4 3/4]
  7
SLDTEXTSTYLE0
 73
     1
 44
1.0
  0
POINT
  5
10C
330
103
100
AcDbEntity
  8
Defpoints
 62
     0
100
AcDbPoint
 10
75.50000000000001
 20
11.11250000000001
 30
0.0
  0
POINT
  5
10D
330
103
100
AcDbEntity
  8
Defpoints
 62
     0
100
AcDbPoint
 10
-45.14999999999999
 20
9.461500000000001
 30
0.0
  0
POINT
  5
10E
330
103
100
AcDbEntity
  8
Defpoints
 62
     0
100
AcDbPoint
 10
-45.14999999999999
 20
41.0706349747236
 30
0.0
  0
ENDBLK
  5
105
330
103
100
AcDbEntity
  8
0
100
AcDbBlockEnd
  0
BLOCK
  5
117
330
116
100
AcDbEntity
  8
0
100
AcDbBlockBegin
  2
_D_3
 70
     0
 10
0.0
 20
0.0
 30
0.0
  3
_D_3
  1
_D_3
  0
LINE
  5
119
330
116
100
AcDbEntity
  8
치수문자_일반주서
 62
     0
370
    -2
100
AcDbLine
 10
75.56250000000001
 20
-11.11249999999999
 30
0.0
 11
97.14271857073608
 21
-11.11249999999991
 31
0.0
  0
LINE
  5
11A
330
116
100
AcDbEntity
  8
치수문자_일반주서
 62
     0
370
    -2
100
AcDbLine
 10
75.56250000000001
 20
11.11250000000001
 30
0.0
 11
97.14271857073601
 21
11.11250000000009
 31
0.0
  0
LINE
  5
11B
330
116
100
AcDbEntity
  8
치수문자_일반주서
 62
     0
370
    -2
100
AcDbLine
 10
97.14271857073601
 20
11.11250000000009
 30
0.0
 11
97.1427185707359
 21
46.5915000000001
 31
0.0
  0
LINE
  5
11C
330
116
100
AcDbEntity
  8
치수문자_일반주서
 62
     0
370
    -2
100
AcDbLine
 10
97.14271857073608
 20
-11.11249999999991
 30
0.0
 11
97.14271857073601
 21
11.11250000000009
 31
0.0
  0
LINE
  5
11D
330
116
100
AcDbEntity
  8
치수문자_일반주서
 62
     0
370
    -2
100
AcDbLine
 10
97.1427185707361
 20
-14.41449999999991
 30
0.0
 11
97.14271857073611
 21
-17.71649999999991
 31
0.0
  0
LINE
  5
11E
330
116
100
AcDbEntity
  8
치수문자_일반주서
 62
     0
370
    -2
100
AcDbLine
 10
97.142718570736
 20
14.41450000000009
 30
0.0
 11
97.14271857073598
 21
17.71650000000009
 31
0.0
  0
SOLID
  5
11F
330
116
100
AcDbEntity
  8
치수문자_일반주서
 62
     0
100
AcDbTrace
 10
97.69305190406942
 20
-14.41449999999991
 30
0.0
 11
96.59238523740277
 21
-14.41449999999991
 31
0.0
 12
97.14271857073608
 22
-11.11249999999991
 32
0.0
 13
97.14271857073608
 23
-11.11249999999991
 33
0.0
  0
SOLID
  5
120
330
116
100
AcDbEntity
  8
치수문자_일반주서
 62
     0
100
AcDbTrace
 10
96.59238523740267
 20
14.41450000000009
 30
0.0
 11
97.69305190406932
 21
14.41450000000009
 31
0.0
 12
97.14271857073601
 22
11.11250000000009
 32
0.0
 13
97.14271857073601
 23
11.11250000000009
 33
0.0
  0
MTEXT
  5
121
330
116
100
AcDbEntity
  8
치수문자_일반주서
 62
     0
100
AcDbMText
 10
92.76771857073594
 20
32.15400000000008
 30
0.0
 40
3.5
 41
0.0
 71
     2
 72
     1
  1
\A1;%%c22.23 [7/8]
  7
SLDTEXTSTYLE0
 11
-3.197042680585377E-15
 21
1.0
 31
0.0
 73
     1
 44
1.0
  0
POINT
  5
122
330
116
100
AcDbEntity
  8
Defpoints
 62
     0
100
AcDbPoint
 10
75.50000000000001
 20
-11.11249999999999
 30
0.0
  0
POINT
  5
1F2
330
116
100
AcDbEntity
  8
Defpoints
 62
     0
100
AcDbPoint
 10
75.50000000000001
 20
11.11250000000001
 30
0.0
  0
POINT
  5
1F3
330
116
100
AcDbEntity
  8
Defpoints
 62
     0
100
AcDbPoint
 10
97.14271857073601
 20
11.11250000000009
 30
0.0
  0
ENDBLK
  5
118
330
116
100
AcDbEntity
  8
0
100
AcDbBlockEnd
  0
BLOCK
  5
130
330
12F
100
AcDbEntity
  8
0
100
AcDbBlockBegin
  2
SW_DOWELSYMBOL_0
 70
     0
 10
0.0
 20
0.0
 30
0.0
  3
SW_DOWELSYMBOL_0
  1
SW_DOWELSYMBOL_0
  0
CIRCLE
  5
132
330
12F
100
AcDbEntity
  8
해칭선
 62
     0
100
AcDbCircle
 10
0.0
 20
0.0
 30
0.0
 40
2.999999999999996
  0
HATCH
  5
133
330
12F
100
AcDbEntity
  8
0
  6
Continuous
 62
     0
370
     0
100
AcDbHatch
 10
0.0
 20
0.0
 30
0.0
210
0.0
220
0.0
230
1.0
  2
SOLID
 70
     1
 71
     0
 91
        1
 92
        0
 93
        3
 72
     2
 10
0.0
 20
0.0
 40
2.999999999999996
 50
0.0
 51
90.0
 73
     1
 72
     1
 10
0.0
 20
2.999999999999996
 11
0.0
 21
0.0
 72
     1
 10
0.0
 20
0.0
 11
2.999999999999996
 21
0.0
 97
        0
 75
     0
 76
     1
 98
        1
 10
0.0
 20
0.0
  0
HATCH
  5
134
330
12F
100
AcDbEntity
  8
0
  6
Continuous
 62
     0
370
     0
100
AcDbHatch
 10
0.0
 20
0.0
 30
0.0
210
0.0
220
0.0
230
1.0
  2
SOLID
 70
     1
 71
     0
 91
        1
 92
        0
 93
        3
 72
     2
 10
0.0
 20
0.0
 40
2.999999999999996
 50
180.0
 51
270.0000000000007
 73
     1
 72
     1
 10
0.0
 20
-2.999999999999996
 11
0.0
 21
0.0
 72
     1
 10
0.0
 20
0.0
 11
-2.999999999999996
 21
0.0
 97
        0
 75
     0
 76
     1
 98
        1
 10
0.0
 20
0.0
  0
ENDBLK
  5
131
330
12F
100
AcDbEntity
  8
0
100
AcDbBlockEnd
  0
ENDSEC
  0
SECTION
  2
ENTITIES
  0
LINE
  5
96
330
1F
100
AcDbEntity
  8
외형선
  6
Continuous
370
    15
100
AcDbLine
 10
8.949885693203505
 20
11.1125
 30
0.0
 11
-10.91092499999985
 21
11.1125
 31
0.0
  0
LINE
  5
97
330
1F
100
AcDbEntity
  8
외형선
  6
Continuous
370
    15
100
AcDbLine
 10
-44.14999999999999
 20
-11.11250000000001
 30
0.0
 11
8.949885693203505
 21
-11.1125
 31
0.0
  0
LINE
  5
99
330
1F
100
AcDbEntity
  8
외형선
  6
Continuous
370
    15
100
AcDbLine
 10
-45.14999999999999
 20
-10.1125
 30
0.0
 11
-44.14999999999999
 21
-11.1125
 31
0.0
  0
SPLINE
  5
9A
330
1F
100
AcDbEntity
  8
외형선
  6
Continuous
370
    15
100
AcDbSpline
210
0.0
220
0.0
230
1.0
 70
     8
 71
     3
 72
     9
 73
     5
 74
     0
 42
0.000000001
 43
0.00000001
 40
0.0
 40
0.0
 40
0.0
 40
0.0
 40
0.4994618011450378
 40
1.0
 40
1.0
 40
1.0
 40
1.0
 10
10.93439480534785
 20
7.603028303380976
 30
0.0
 10
10.60340969898408
 20
7.575451543133429
 30
0.0
 10
9.940726175229164
 20
7.520238591543683
 30
0.0
 10
9.280383559424836
 20
7.477498655356687
 30
0.0
 10
8.949856855882963
 20
7.456105684678469
 30
0.0
  0
LINE
  5
9B
330
1F
100
AcDbEntity
  8
0
  6
Continuous
 62
     1
370
    15
100
AcDbLine
 10
40.55769155275425
 20
3.132782569285652
 30
0.0
 11
40.44507735281788
 21
3.194830257773433
 31
0.0
  0
SPLINE
  5
9C
330
1F
100
AcDbEntity
  8
0
  6
Continuous
 62
     1
370
    15
100
AcDbSpline
210
0.0
220
0.0
230
1.0
 70
     8
 71
     3
 72
    10
 73
     6
 74
     0
 42
0.000000001
 43
0.00000001
 40
0.0
 40
0.0
 40
0.0
 40
0.0
 40
0.4309933982350783
 40
0.6271222577652905
 40
1.0
 40
1.0
 40
1.0
 40
1.0
 10
46.70966050477342
 20
2.847580561909115
 30
0.0
 10
46.26689337133619
 20
3.058298186021668
 30
0.0
 10
45.62263959500812
 20
3.364905462897694
 30
0.0
 10
44.59586963503664
 20
3.882497785478153
 30
0.0
 10
44.01097292357724
 20
4.188752674868104
 30
0.0
 10
43.62768217697955
 20
4.389445656900049
 30
0.0
  0
LINE
  5
9D
330
1F
100
AcDbEntity
  8
0
  6
Continuous
 62
     1
370
    15
100
AcDbLine
 10
21.21043311800074
 20
11.11250000000001
 30
0.0
 11
15.8229546657199
 21
11.11250000000001
 31
0.0
  0
SPLINE
  5
9E
330
1F
100
AcDbEntity
  8
0
  6
Continuous
 62
     1
370
    15
100
AcDbSpline
210
0.0
220
0.0
230
1.0
 70
     8
 71
     3
 72
    20
 73
    16
 74
     0
 42
0.000000001
 43
0.00000001
 40
0.0
 40
0.0
 40
0.0
 40
0.0
 40
0.1191018848752557
 40
0.2100502897401296
 40
0.2730998683113516
 40
0.3264142591552264
 40
0.3854608593716263
 40
0.4693409419800021
 40
0.5416117792527384
 40
0.5994893040465213
 40
0.6900249320412423
 40
0.797295667464815
 40
0.8990919197545402
 40
0.9876573246765573
 40
1.0
 40
1.0
 40
1.0
 40
1.0
 10
43.03611584791022
 20
8.830426474520964
 30
0.0
 10
42.67976756962027
 20
8.812379994425303
 30
0.0
 10
42.05130514703482
 20
8.780552887936997
 30
0.0
 10
41.23299997291989
 20
8.748329682293395
 30
0.0
 10
40.60700201578027
 20
8.727567174060793
 30
0.0
 10
40.07542055849876
 20
8.712651185388017
 30
0.0
 10
39.48337470541473
 20
8.69882655984572
 30
0.0
 10
38.83620525410682
 20
8.687674625097975
 30
0.0
 10
38.19286229904001
 20
8.680900707713617
 30
0.0
 10
37.52902927923886
 20
8.677659044979487
 30
0.0
 10
36.75981990697573
 20
8.678864154315448
 30
0.0
 10
35.85864036024044
 20
8.687763024836881
 30
0.0
 10
34.9636827048144
 20
8.705352921189737
 30
0.0
 10
34.35399682651631
 20
8.72079962424582
 30
0.0
 10
34.05046480773483
 20
8.731355208056636
 30
0.0
 10
34.01333797756448
 20
8.732646325115935
 30
0.0
  0
SPLINE
  5
9F
330
1F
100
AcDbEntity
  8
0
  6
Continuous
 62
     1
370
    15
100
AcDbSpline
210
0.0
220
0.0
230
1.0
 70
     8
 71
     3
 72
    31
 73
    27
 74
     0
 42
0.000000001
 43
0.00000001
 40
0.0
 40
0.0
 40
0.0
 40
0.0
 40
0.0546090797130786
 40
0.1057662171760372
 40
0.1540908624542275
 40
0.1940881753621722
 40
0.2258018824945244
 40
0.258711013327605
 40
0.2943368981166207
 40
0.3390792630506788
 40
0.3915366828245736
 40
0.4346861906253968
 40
0.4678645615002373
 40
0.5077330067368123
 40
0.5534188984111897
 40
0.6018776817290197
 40
0.6490448471591929
 40
0.6868036980629302
 40
0.7250595913834607
 40
0.7571639231776132
 40
0.7919546457435003
 40
0.8238679816052056
 40
0.8526795377590249
 40
0.8866466381619152
 40
0.935706210672135
 40
1.0
 40
1.0
 40
1.0
 40
1.0
 10
26.32254500203468
 20
-9.24714738177747
 30
0.0
 10
26.60642098679502
 20
-9.218703982190746
 30
0.0
 10
27.15622862341836
 20
-9.1636151435998
 30
0.0
 10
28.02441371155373
 20
-9.08546714448774
 30
0.0
 10
28.81392462330862
 20
-9.022653449396746
 30
0.0
 10
29.49479740996536
 20
-8.970884041129034
 30
0.0
 10
30.07887917184237
 20
-8.92972102884892
 30
0.0
 10
30.63676529842271
 20
-8.89305109098725
 30
0.0
 10
31.2697454719009
 20
-8.854679985015395
 30
0.0
 10
32.01104811251471
 20
-8.81415192417849
 30
0.0
 10
32.79445054474632
 20
-8.777284657852864
 30
0.0
 10
33.51331198980356
 20
-8.748858821305742
 30
0.0
 10
34.16208409361689
 20
-8.727079195742823
 30
0.0
 10
34.82491902947894
 20
-8.70862712968295
 30
0.0
 10
35.57283849668433
 20
-8.692846471275695
 30
0.0
 10
36.36167641621466
 20
-8.682193231443735
 30
0.0
 10
37.10637401950144
 20
-8.67782507776157
 30
0.0
 10
37.79423352966494
 20
-8.678460806512447
 30
0.0
 10
38.39769507912865
 20
-8.682697041786648
 30
0.0
 10
38.98431376396096
 20
-8.690140616139825
 30
0.0
 10
39.53606307086043
 20
-8.700069728755361
 30
0.0
 10
40.07088839011078
 20
-8.712532500903226
 30
0.0
 10
40.60347964430045
 20
-8.727458386873803
 30
0.0
 10
41.23031547391684
 20
-8.748230056491385
 30
0.0
 10
42.0496101870816
 20
-8.780471869808892
 30
0.0
 10
42.67908120529547
 20
-8.81234697923925
 30
0.0
 10
43.0361158479102
 20
-8.830426474520966
 30
0.0
  0
SPLINE
  5
A0
330
1F
100
AcDbEntity
  8
0
  6
Continuous
 62
     1
370
    15
100
AcDbSpline
210
0.0
220
0.0
230
1.0
 70
     8
 71
     3
 72
    18
 73
    14
 74
     0
 42
0.000000001
 43
0.00000001
 40
0.0
 40
0.0
 40
0.0
 40
0.0
 40
0.1238071066632751
 40
0.2338726416750597
 40
0.3315451958437882
 40
0.4109068509487426
 40
0.475693519682621
 40
0.5619715782907461
 40
0.6728238790287823
 40
0.7740362543446385
 40
0.8561882077887153
 40
0.9435626928952378
 40
1.0
 40
1.0
 40
1.0
 40
1.0
 10
51.95809605739871
 20
-8.358095699856223
 30
0.0
 10
52.2815534461535
 20
-8.307538227733161
 30
0.0
 10
52.89256711100835
 20
-8.212034747517025
 30
0.0
 10
53.82040579167683
 20
-8.080766682090774
 30
0.0
 10
54.63553203213866
 20
-7.974801399144004
 30
0.0
 10
55.3219656366395
 20
-7.889388064683189
 30
0.0
 10
55.949372415024
 20
-7.816436478825491
 30
0.0
 10
56.67066003028966
 20
-7.737735529647776
 30
0.0
 10
57.4983298023284
 20
-7.655755231681664
 30
0.0
 10
58.31298539569271
 20
-7.583703842668809
 30
0.0
 10
59.06244330759503
 20
-7.524731639716101
 30
0.0
 10
59.68858384196824
 20
-7.48011138116695
 30
0.0
 10
60.0871351359888
 20
-7.456964229351624
 30
0.0
 10
60.24354207196934
 20
-7.447880392097978
 30
0.0
  0
SPLINE
  5
A1
330
1F
100
AcDbEntity
  8
0
  6
Continuous
 62
     1
370
    15
100
AcDbSpline
210
0.0
220
0.0
230
1.0
 70
     8
 71
     3
 72
    32
 73
    28
 74
     0
 42
0.000000001
 43
0.00000001
 40
0.0
 40
0.0
 40
0.0
 40
0.0
 40
0.0573471608731227
 40
0.1065073486324988
 40
0.1481956996035359
 40
0.1820658474337705
 40
0.209746458058507
 40
0.2454389361627541
 40
0.2903491118070055
 40
0.3347056933482688
 40
0.3729693980687873
 40
0.4080053674607188
 40
0.4493544369925178
 40
0.5027214972311459
 40
0.5502053568360401
 40
0.590208474861329
 40
0.6246934975490287
 40
0.6569606894776586
 40
0.6916450488017785
 40
0.7366844671984764
 40
0.7802592118347734
 40
0.8083937360555422
 40
0.8350399673209604
 40
0.8682282311795377
 40
0.9076473824550833
 40
0.9513240624919836
 40
0.9999999999999999
 40
0.9999999999999999
 40
0.9999999999999999
 40
0.9999999999999999
 10
71.39144708342123
 20
7.602131743371626
 30
0.0
 10
71.03652425275436
 20
7.572422364036431
 30
0.0
 10
70.37734794676246
 20
7.517244964243096
 30
0.0
 10
69.4082627490472
 20
7.453148888036919
 30
0.0
 10
68.57359641695597
 20
7.408270949518803
 30
0.0
 10
67.88688912265532
 20
7.376846895464174
 30
0.0
 10
67.26660309706419
 20
7.353879608430312
 30
0.0
 10
66.56759783907229
 20
7.333297442404251
 30
0.0
 10
65.75544378558584
 20
7.317808433812537
 30
0.0
 10
64.92828782112952
 20
7.311546476619561
 30
0.0
 10
64.16467409103585
 20
7.313929317974754
 30
0.0
 10
63.42024704556977
 20
7.32327008730581
 30
0.0
 10
62.5777325102023
 20
7.342108157152117
 30
0.0
 10
61.65509978913121
 20
7.374084253974135
 30
0.0
 10
60.74069300177101
 20
7.417415029472389
 30
0.0
 10
59.94862441827257
 20
7.463646415251594
 30
0.0
 10
59.25533170769763
 20
7.510583940102898
 30
0.0
 10
58.59722932545146
 20
7.560730713048232
 30
0.0
 10
57.87061756967575
 20
7.622019300158783
 30
0.0
 10
57.07051596106834
 20
7.697016404844033
 30
0.0
 10
56.31066148276573
 20
7.776354333724766
 30
0.0
 10
55.68518599031619
 20
7.846721932095576
 30
0.0
 10
55.11214696029024
 20
7.915049148954337
 30
0.0
 10
54.45251587505042
 20
7.998391550625471
 30
0.0
 10
53.67822979608098
 20
8.100227129431715
 30
0.0
 10
52.82057333374361
 20
8.22323478189923
 30
0.0
 10
52.25577967182482
 20
8.311548519306264
 30
0.0
 10
51.95809605739871
 20
8.35809569985622
 30
0.0
  0
LINE
  5
A2
330
1F
100
AcDbEntity
  8
0
  6
Continuous
 62
     1
370
    15
100
AcDbLine
 10
15.82404316708203
 20
-11.11250000000001
 30
0.0
 11
21.21043311800079
 21
-11.11250000000001
 31
0.0
  0
SPLINE
  5
A3
330
1F
100
AcDbEntity
  8
외형선
  6
Continuous
370
    15
100
AcDbSpline
210
0.0
220
0.0
230
1.0
 70
     8
 71
     3
 72
    10
 73
     6
 74
     0
 42
0.000000001
 43
0.00000001
 40
0.0
 40
0.0
 40
0.0
 40
0.0
 40
0.5
 40
0.5
 40
1.0
 40
1.0
 40
1.0
 40
1.0
 10
8.949885693203502
 20
10.41148071020376
 30
0.0
 10
9.458034303353935
 20
10.51405321783971
 30
0.0
 10
9.967821609121973
 20
10.60582908079525
 30
0.0
 10
10.98587896175661
 20
10.76688599952144
 30
0.0
 10
11.49261389065533
 20
10.83611183897619
 30
0.0
 10
12.00000000000001
 20
10.89398808769233
 30
0.0
  0
SPLINE
  5
A4
330
1F
100
AcDbEntity
  8
외형선
  6
Continuous
370
    15
100
AcDbSpline
210
0.0
220
0.0
230
1.0
 70
     8
 71
     3
 72
    10
 73
     6
 74
     0
 42
0.000000001
 43
0.00000001
 40
0.0
 40
0.0
 40
0.0
 40
0.0
 40
0.5
 40
0.5
 40
1.0
 40
1.0
 40
1.0
 40
1.0
 10
12.00000000000084
 20
-9.864645523426343
 30
0.0
 10
11.49259397501459
 20
-9.729606385308667
 30
0.0
 10
10.98583906111898
 20
-9.584324373586915
 30
0.0
 10
9.967741629066063
 20
-9.2735596736637
 30
0.0
 10
9.457934318500683
 20
-9.10821088030951
 30
0.0
 10
8.94976601980964
 20
-8.933690053756916
 30
0.0
  0
LINE
  5
A5
330
1F
100
AcDbEntity
  8
외형선
  6
Continuous
370
    15
100
AcDbLine
 10
12.00000000000001
 20
-9.864645523426118
 30
0.0
 11
12.00000000000001
 21
-10.89398808769234
 31
0.0
  0
SPLINE
  5
A6
330
1F
100
AcDbEntity
  8
외형선
  6
Continuous
370
    15
100
AcDbSpline
210
0.0
220
0.0
230
1.0
 70
     8
 71
     3
 72
    10
 73
     6
 74
     0
 42
0.000000001
 43
0.00000001
 40
0.0
 40
0.0
 40
0.0
 40
0.0
 40
0.5
 40
0.5
 40
1.0
 40
1.0
 40
1.0
 40
1.0
 10
8.949885693203502
 20
-10.41148071020376
 30
0.0
 10
9.458034303353935
 20
-10.51405321783971
 30
0.0
 10
9.967821609121973
 20
-10.60582908079525
 30
0.0
 10
10.98587896175661
 20
-10.76688599952144
 30
0.0
 10
11.49261389065533
 20
-10.8361118389762
 30
0.0
 10
12.00000000000001
 20
-10.89398808769234
 30
0.0
  0
LINE
  5
A7
330
1F
100
AcDbEntity
  8
외형선
  6
Continuous
370
    15
100
AcDbLine
 10
8.949885693203505
 20
-11.1125
 30
0.0
 11
8.949885693203502
 21
-10.41148011762538
 31
0.0
  0
LINE
  5
A8
330
1F
100
AcDbEntity
  8
외형선
  6
Continuous
370
    15
100
AcDbLine
 10
-44.14999999999999
 20
9.461500000000001
 30
0.0
 11
-44.14999999999999
 21
-11.11250000000001
 31
0.0
  0
LINE
  5
A9
330
1F
100
AcDbEntity
  8
외형선
  6
Continuous
370
    15
100
AcDbLine
 10
8.949885693203505
 20
-8.933406809028028
 30
0.0
 11
8.949885693203505
 21
11.1125
 31
0.0
  0
LINE
  5
AA
330
1F
100
AcDbEntity
  8
외형선
  6
Continuous
370
    15
100
AcDbLine
 10
-45.14999999999999
 20
9.461500000000001
 30
0.0
 11
-45.14999999999999
 21
-10.11249999999998
 31
0.0
  0
SPLINE
  5
AB
330
1F
100
AcDbEntity
  8
외형선
  6
Continuous
370
    15
100
AcDbSpline
210
0.0
220
0.0
230
1.0
 70
     8
 71
     3
 72
    10
 73
     6
 74
     0
 42
0.000000001
 43
0.00000001
 40
0.0
 40
0.0
 40
0.0
 40
0.0
 40
0.5
 40
0.5
 40
1.0
 40
1.0
 40
1.0
 40
1.0
 10
12.00000000000099
 20
-8.107591378453064
 30
0.0
 10
11.49259397501472
 20
-7.979677885744776
 30
0.0
 10
10.98583906111907
 20
-7.843353140331454
 30
0.0
 10
9.967741629066106
 20
-7.554156402737661
 30
0.0
 10
9.457934318500708
 20
-7.401411642370224
 30
0.0
 10
8.94976601980964
 20
-7.241252514687668
 30
0.0
  0
SPLINE
  5
AC
330
1F
100
AcDbEntity
  8
외형선
  6
Continuous
370
    15
100
AcDbSpline
210
0.0
220
0.0
230
1.0
 70
     8
 71
     3
 72
    10
 73
     6
 74
     0
 42
0.000000001
 43
0.00000001
 40
0.0
 40
0.0
 40
0.0
 40
0.0
 40
0.5
 40
0.5
 40
1.0
 40
1.0
 40
1.0
 40
1.0
 10
12.00000000000001
 20
1.394571942839959
 30
0.0
 10
11.49260661710214
 20
1.626303404448507
 30
0.0
 10
10.98586438932153
 20
1.856480225870218
 30
0.0
 10
9.967792398956423
 20
2.313157993543057
 30
0.0
 10
9.457997787072115
 20
2.539423214786754
 30
0.0
 10
8.949841986304131
 20
2.762554868662854
 30
0.0
  0
SPLINE
  5
AD
330
1F
100
AcDbEntity
  8
외형선
  6
Continuous
370
    15
100
AcDbSpline
210
0.0
220
0.0
230
1.0
 70
    24
 71
     3
 72
    14
 73
    10
 74
     0
 42
0.000000001
 43
0.00000001
 40
0.0
 40
0.0
 40
0.0
 40
0.0
 40
0.25
 40
0.25
 40
0.4999999999999999
 40
0.4999999999999999
 40
0.75
 40
0.75
 40
1.0
 40
1.0
 40
1.0
 40
1.0
 10
12.00000000000002
 20
1.394571942839953
 30
0.0
 10
12.00000000000002
 20
0.5383010315491593
 30
0.0
 10
12.00000000000002
 20
-0.3420984011672281
 30
0.0
 10
12.00000000000002
 20
-2.091465175338237
 30
0.0
 10
12.00000000000002
 20
-2.959948550751395
 30
0.0
 10
12.00000000000002
 20
-4.620687019303316
 30
0.0
 10
12.00000000000002
 20
-5.412462541585909
 30
0.0
 10
12.00000000000002
 20
-6.86579901094161
 30
0.0
 10
12.00000000000002
 20
-7.527109098604185
 30
0.0
 10
12.00000000000002
 20
-8.107591378452813
 30
0.0
  0
LINE
  5
AE
330
1F
100
AcDbEntity
  8
외형선
  6
Continuous
370
    15
100
AcDbLine
 10
12.00000000000001
 20
7.682443647812292
 30
0.0
 11
10.92744330549556
 21
7.580889253018896
 31
0.0
  0
SPLINE
  5
AF
330
1F
100
AcDbEntity
  8
외형선
  6
Continuous
370
    15
100
AcDbSpline
210
0.0
220
0.0
230
1.0
 70
    24
 71
     3
 72
    14
 73
    10
 74
     0
 42
0.000000001
 43
0.00000001
 40
0.0
 40
0.0
 40
0.0
 40
0.0
 40
0.2500000000000001
 40
0.2500000000000001
 40
0.5000000000000002
 40
0.5000000000000002
 40
0.7500000000000001
 40
0.7500000000000001
 40
1.0
 40
1.0
 40
1.0
 40
1.0
 10
12.0
 20
7.682443647812291
 30
0.0
 10
12.0
 20
7.626346956556883
 30
0.0
 10
12.0
 20
7.447981952630891
 30
0.0
 10
12.0
 20
6.827637779260741
 30
0.0
 10
12.0
 20
6.385447570929968
 30
0.0
 10
12.0
 20
5.267911482635055
 30
0.0
 10
12.0
 20
4.593161072620951
 30
0.0
 10
12.0
 20
3.086687389133353
 30
0.0
 10
12.0
 20
2.255997693483534
 30
0.0
 10
12.0
 20
1.394571942839965
 30
0.0
  0
SPLINE
  5
B0
330
1F
100
AcDbEntity
  8
외형선
  6
Continuous
370
    15
100
AcDbSpline
210
0.0
220
0.0
230
1.0
 70
    24
 71
     3
 72
     8
 73
     4
 74
     0
 42
0.000000001
 43
0.00000001
 40
0.0
 40
0.0
 40
0.0
 40
0.0
 40
1.0
 40
1.0
 40
1.0
 40
1.0
 10
12.00000000000004
 20
-8.10759137845282
 30
0.0
 10
12.00000000000004
 20
-8.682926573906173
 30
0.0
 10
12.00000000000004
 20
-9.27232957842335
 30
0.0
 10
12.00000000000004
 20
-9.864645523414957
 30
0.0
  0
SPLINE
  5
B1
330
1F
100
AcDbEntity
  8
외형선
  6
Continuous
370
    15
100
AcDbSpline
210
0.0
220
0.0
230
1.0
 70
    24
 71
     3
 72
    10
 73
     6
 74
     0
 42
0.000000001
 43
0.00000001
 40
0.0
 40
0.0
 40
0.0
 40
0.0
 40
0.5
 40
0.5
 40
1.0
 40
1.0
 40
1.0
 40
1.0
 10
12.00000000000001
 20
10.89398808769231
 30
0.0
 10
12.00000000000001
 20
10.32201059044561
 30
0.0
 10
12.00000000000001
 20
9.725402227999695
 30
0.0
 10
12.00000000000001
 20
8.615762796812172
 30
0.0
 10
12.00000000000001
 20
8.105428491831258
 30
0.0
 10
12.00000000000001
 20
7.682443647812294
 30
0.0
  0
SPLINE
  5
B2
330
1F
100
AcDbEntity
  8
0
  6
Continuous
 62
     1
370
    15
100
AcDbSpline
210
0.0
220
0.0
230
1.0
 70
     8
 71
     3
 72
    62
 73
    58
 74
     0
 42
0.000000001
 43
0.00000001
 40
0.0
 40
0.0
 40
0.0
 40
0.0
 40
0.03125
 40
0.03125
 40
0.0625
 40
0.0625
 40
0.09375
 40
0.09375
 40
0.125
 40
0.125
 40
0.15625
 40
0.15625
 40
0.1875
 40
0.1875
 40
0.21875
 40
0.21875
 40
0.25
 40
0.25
 40
0.3749999999999999
 40
0.3749999999999999
 40
0.4062499999999999
 40
0.4062499999999999
 40
0.4374999999999999
 40
0.4374999999999999
 40
0.4687499999999999
 40
0.4687499999999999
 40
0.4999999999999999
 40
0.4999999999999999
 40
0.5312499999999999
 40
0.5312499999999999
 40
0.5624999999999999
 40
0.5624999999999999
 40
0.5937499999999999
 40
0.5937499999999999
 40
0.6249999999999999
 40
0.6249999999999999
 40
0.6875
 40
0.6875
 40
0.71875
 40
0.71875
 40
0.75
 40
0.75
 40
0.78125
 40
0.78125
 40
0.8125
 40
0.8125
 40
0.84375
 40
0.84375
 40
0.875
 40
0.875
 40
0.90625
 40
0.90625
 40
0.9375
 40
0.9375
 40
0.96875
 40
0.96875
 40
1.0
 40
1.0
 40
1.0
 40
1.0
 10
12.0
 20
10.89398808769233
 30
0.0
 10
12.66025966450911
 20
10.96930223574759
 30
0.0
 10
13.32411485636272
 20
11.02542596307377
 30
0.0
 10
14.64846028887009
 20
11.09828753862044
 30
0.0
 10
15.30649180778748
 20
11.11506792687767
 30
0.0
 10
16.63043104702357
 20
11.10929826197762
 30
0.0
 10
17.29437692592622
 20
11.08666280117217
 30
0.0
 10
18.61566041702424
 20
11.00232938535035
 30
0.0
 10
19.27535500719878
 20
10.9406419059521
 30
0.0
 10
20.60072698079884
 20
10.77851597115015
 30
0.0
 10
21.26242107560638
 20
10.6782086666385
 30
0.0
 10
22.58174577512485
 20
10.44044771753186
 30
0.0
 10
23.24541610481132
 20
10.30260519588199
 30
0.0
 10
24.57022645831869
 20
9.991036211282907
 30
0.0
 10
25.22848535013782
 20
9.817614052998092
 30
0.0
 10
26.55173692542118
 20
9.436065429109822
 30
0.0
 10
27.2157552689703
 20
9.227959983279089
 30
0.0
 10
30.52139825407267
 20
8.109116644658622
 30
0.0
 10
33.16698264928988
 20
6.955627501177288
 30
0.0
 10
36.47306650815941
 20
5.310545278909542
 30
0.0
 10
37.13709134488253
 20
4.971050097872884
 30
0.0
 10
38.46019220107683
 20
4.276494692309979
 30
0.0
 10
39.11852726313416
 20
3.921599804699807
 30
0.0
 10
40.44341371652619
 20
3.197708040216057
 30
0.0
 10
41.10703989973372
 20
2.829220425284052
 30
0.0
 10
42.42611423899439
 20
2.085067864886332
 30
0.0
 10
43.08808893855645
 20
1.708182624028398
 30
0.0
 10
44.41343638105872
 20
0.9494195623369529
 30
0.0
 10
45.07294989324804
 20
0.5682871524516435
 30
0.0
 10
46.39443530630173
 20
-0.1951090052563336
 30
0.0
 10
47.05840066257054
 20
-0.5777570093338922
 30
0.0
 10
48.38221486271728
 20
-1.33886283204167
 30
0.0
 10
49.04027005180399
 20
-1.716982769268544
 30
0.0
 10
50.3647173352235
 20
-2.4673921411404
 30
0.0
 10
51.02854134880327
 20
-2.839177536330244
 30
0.0
 10
53.00898296078234
 20
-3.935449603990229
 30
0.0
 10
54.33524757486774
 20
-4.64456498563667
 30
0.0
 10
56.31585881790171
 20
-5.650063085948569
 30
0.0
 10
56.9796987398358
 20
-5.976414429147793
 30
0.0
 10
58.30409573100494
 20
-6.606234811551799
 30
0.0
 10
58.96213779311776
 20
-6.909353023013252
 30
0.0
 10
60.28601514518617
 20
-7.4912536867097
 30
0.0
 10
60.9499710821758
 20
-7.769702338192929
 30
0.0
 10
62.27135616265983
 20
-8.297217193780746
 30
0.0
 10
62.93095892443763
 20
-8.54661730284844
 30
0.0
 10
64.25631926723176
 20
-9.01501171890271
 30
0.0
 10
64.91815237856076
 20
-9.23351218701399
 30
0.0
 10
66.2373525228866
 20
-9.636647063031615
 30
0.0
 10
66.90100109824341
 20
-9.821898579693409
 30
0.0
 10
68.22585013561998
 20
-10.15667726740713
 30
0.0
 10
68.88414582107296
 20
-10.30603374166636
 30
0.0
 10
70.20732266807234
 20
-10.56825661238198
 30
0.0
 10
70.87134457771842
 20
-10.68098700377369
 30
0.0
 10
72.19369057645012
 20
-10.86791565279823
 30
0.0
 10
72.8525065521497
 20
-10.94220998766019
 30
0.0
 10
74.1776767420107
 20
-11.05204570586704
 30
0.0
 10
74.84106812204669
 20
-11.08743014825708
 30
0.0
 10
75.50000000000003
 20
-11.11249999999999
 30
0.0
  0
SPLINE
  5
B3
330
1F
100
AcDbEntity
  8
0
  6
Continuous
 62
     1
370
    15
100
AcDbSpline
210
0.0
220
0.0
230
1.0
 70
     8
 71
     3
 72
    18
 73
    14
 74
     0
 42
0.000000001
 43
0.00000001
 40
0.0
 40
0.0
 40
0.0
 40
0.0
 40
0.0649582859152834
 40
0.1576904216343157
 40
0.2504224161657651
 40
0.3431542727887517
 40
0.4358859947842396
 40
0.5286175854349932
 40
0.6213490480255336
 40
0.716012059313407
 40
0.8106748919863203
 40
0.9053375406716021
 40
1.0
 40
1.0
 40
1.0
 40
1.0
 10
47.88305579021311
 20
-1.051784916291927
 30
0.0
 10
47.10608944917151
 20
-0.7402725335655997
 30
0.0
 10
45.2199536284956
 20
0.0159438333577667
 30
0.0
 10
42.22465062831122
 20
1.230655330892283
 30
0.0
 10
38.89714838663426
 20
2.539518114036393
 30
0.0
 10
35.56965146574585
 20
3.773716134859844
 30
0.0
 10
32.24216045815866
 20
4.895107693956287
 30
0.0
 10
28.91467245116373
 20
5.870723956939557
 30
0.0
 10
25.56409303533827
 20
6.67653345383488
 30
0.0
 10
22.1903831739752
 20
7.285394927427657
 30
0.0
 10
18.79358351227291
 20
7.667495972824995
 30
0.0
 10
15.39678878985899
 20
7.828542437739909
 30
0.0
 10
13.13226217498412
 20
7.731143211982975
 30
0.0
 10
12.00000000000002
 20
7.682443647812292
 30
0.0
  0
SPLINE
  5
B4
330
1F
100
AcDbEntity
  8
외형선
  6
Continuous
370
    15
100
AcDbSpline
210
0.0
220
0.0
230
1.0
 70
    24
 71
     3
 72
    10
 73
     6
 74
     0
 42
0.000000001
 43
0.00000001
 40
0.0
 40
0.0
 40
0.0
 40
0.0
 40
0.5
 40
0.5
 40
1.0
 40
1.0
 40
1.0
 40
1.0
 10
12.00000000000001
 20
10.89398808769231
 30
0.0
 10
12.00000000000001
 20
10.32201059044561
 30
0.0
 10
12.00000000000001
 20
9.725402227999695
 30
0.0
 10
12.00000000000001
 20
8.615762796812172
 30
0.0
 10
12.00000000000001
 20
8.105428491831258
 30
0.0
 10
12.00000000000001
 20
7.682443647812294
 30
0.0
  0
SPLINE
  5
B5
330
1F
100
AcDbEntity
  8
0
  6
Continuous
 62
     1
370
    15
100
AcDbSpline
210
0.0
220
0.0
230
1.0
 70
     8
 71
     3
 72
    25
 73
    21
 74
     0
 42
0.000000001
 43
0.00000001
 40
0.0
 40
0.0
 40
0.0
 40
0.0
 40
0.0611337301241621
 40
0.1222672942275504
 40
0.1834006963583326
 40
0.2445339405680871
 40
0.3056670309117158
 40
0.3667999714473605
 40
0.4244459897173358
 40
0.4820880370837385
 40
0.5397268669599601
 40
0.5973632349485885
 40
0.6549978983289098
 40
0.7126316155419736
 40
0.7702651456739743
 40
0.8278992479386916
 40
0.8855346811597471
 40
0.9431722032534279
 40
0.9997843860797327
 40
1.0
 40
1.0
 40
1.0
 40
1.0
 10
75.50000000000003
 20
-10.54510540933949
 30
0.0
 10
74.39365512055113
 20
-10.3133708176274
 30
0.0
 10
72.1809683661524
 20
-9.84990226352449
 30
0.0
 10
68.8619448432991
 20
-8.778740721938316
 30
0.0
 10
65.54293221300651
 20
-7.469658208536384
 30
0.0
 10
62.2239281228964
 20
-5.933002497736204
 30
0.0
 10
58.90494069594273
 20
-4.22200966197473
 30
0.0
 10
55.64903904865895
 20
-2.420196721425568
 30
0.0
 10
52.45640349528478
 20
-0.587632453464395
 30
0.0
 10
49.32703412532087
 20
1.224326413930572
 30
0.0
 10
46.19787665618663
 20
3.003926180410271
 30
0.0
 10
43.06887890548354
 20
4.70426801221895
 30
0.0
 10
39.93999238731595
 20
6.280574190466361
 30
0.0
 10
36.81116733321512
 20
7.691055931996538
 30
0.0
 10
33.682354932802
 20
8.89939548031961
 30
0.0
 10
30.55350356153706
 20
9.870483766598404
 30
0.0
 10
27.42457184141238
 20
10.5908358885173
 30
0.0
 10
24.31408671885566
 20
10.99378675931431
 30
0.0
 10
22.24272562277258
 20
11.15924595820268
 30
0.0
 10
21.21433499958908
 20
11.11214235979971
 30
0.0
 10
21.21043311800074
 20
11.1119636410724
 30
0.0
  0
SPLINE
  5
B6
330
1F
100
AcDbEntity
  8
0
  6
Continuous
 62
     1
370
    15
100
AcDbSpline
210
0.0
220
0.0
230
1.0
 70
     8
 71
     3
 72
    16
 73
    12
 74
     0
 42
0.000000001
 43
0.00000001
 40
0.0
 40
0.0
 40
0.0
 40
0.0
 40
0.1153922671145816
 40
0.230784330363672
 40
0.346176193643276
 40
0.4615678608520432
 40
0.5769593358912124
 40
0.692350622664565
 40
0.8077417250783704
 40
0.9231326470413376
 40
1.0
 40
1.0
 40
1.0
 40
1.0
 10
75.50000000000001
 20
-8.767454287791804
 30
0.0
 10
74.39081045045522
 20
-8.539650604352191
 30
0.0
 10
72.17243331098979
 20
-8.084043639937624
 30
0.0
 10
68.84487161427764
 20
-7.089581095531667
 30
0.0
 10
65.51731647610829
 20
-5.902540508318728
 30
0.0
 10
62.18976784763402
 20
-4.534438250632824
 30
0.0
 10
58.8622255806717
 20
-3.032729865437567
 30
0.0
 10
55.53468954189417
 20
-1.439386691413368
 30
0.0
 10
52.20715963736472
 20
0.1935604309203011
 30
0.0
 10
49.24993484268245
 20
1.650329413850399
 30
0.0
 10
47.40188698646102
 20
2.514730862167671
 30
0.0
 10
46.66301347422036
 20
2.860329777235787
 30
0.0
  0
LINE
  5
B7
330
1F
100
AcDbEntity
  8
0
  6
Continuous
 62
     1
370
    15
100
AcDbLine
 10
75.50000000000001
 20
-10.5451054093395
 30
0.0
 11
75.50000000000001
 21
-8.767454287791804
 31
0.0
  0
LINE
  5
B8
330
1F
100
AcDbEntity
  8
0
  6
Continuous
 62
     1
370
    15
100
AcDbLine
 10
75.50000000000001
 20
-11.11249999999999
 30
0.0
 11
75.50000000000001
 21
-10.54510540933949
 31
0.0
  0
SPLINE
  5
B9
330
1F
100
AcDbEntity
  8
0
  6
Continuous
 62
     1
370
    15
100
AcDbSpline
210
0.0
220
0.0
230
1.0
 70
     8
 71
     3
 72
    10
 73
     6
 74
     0
 42
0.000000001
 43
0.00000001
 40
0.0
 40
0.0
 40
0.0
 40
0.0
 40
0.4999999999999989
 40
0.4999999999999989
 40
1.0
 40
1.0
 40
1.0
 40
1.0
 10
75.50000000000001
 20
-2.969737237754422
 30
0.0
 10
74.64442494795371
 20
-2.297114754807684
 30
0.0
 10
73.79994764956615
 20
-1.604994341206968
 30
0.0
 10
72.13286042874408
 20
-0.1823341551849962
 30
0.0
 10
71.31023187812707
 20
0.5481728889002419
 30
0.0
 10
70.50000000000004
 20
1.300459967754864
 30
0.0
  0
LINE
  5
BA
330
1F
100
AcDbEntity
  8
0
  6
Continuous
 62
     1
370
    15
100
AcDbLine
 10
70.50000000000003
 20
2.937719435296593
 30
0.0
 11
75.50000000000001
 21
0.0000000000000065
 31
0.0
  0
LINE
  5
BB
330
1F
100
AcDbEntity
  8
0
  6
Continuous
 62
     1
370
    15
100
AcDbLine
 10
75.50000000000001
 20
0.0000000000000065
 30
0.0
 11
75.50000000000001
 21
-2.969737237754423
 31
0.0
  0
SPLINE
  5
BC
330
1F
100
AcDbEntity
  8
0
  6
Continuous
 62
     1
370
    15
100
AcDbSpline
210
0.0
220
0.0
230
1.0
 70
     8
 71
     3
 72
    16
 73
    12
 74
     0
 42
0.000000001
 43
0.00000001
 40
0.0
 40
0.0
 40
0.0
 40
0.0
 40
0.1058958730492515
 40
0.2118046620414853
 40
0.3177382210522703
 40
0.4237028085469977
 40
0.5448443949181595
 40
0.6659857849937749
 40
0.7871269829360448
 40
0.9082679929097222
 40
1.0
 40
1.0
 40
1.0
 40
1.0
 10
70.50000000000004
 20
2.283536363151117
 30
0.0
 10
69.53049901880804
 20
2.711358379954075
 30
0.0
 10
67.59137880800665
 20
3.567054594297696
 30
0.0
 10
64.6823627366029
 20
4.755335986727616
 30
0.0
 10
61.7726342569932
 20
5.838983418527659
 30
0.0
 10
58.72327325317283
 20
6.833779985190274
 30
0.0
 10
55.53471465475962
 20
7.692368216217399
 30
0.0
 10
52.20718555996069
 20
8.361083829212616
 30
0.0
 10
48.87966621403194
 20
8.771971583537004
 30
0.0
 10
45.82141984863463
 20
8.938851523010596
 30
0.0
 10
43.87234736861024
 20
8.845948443479008
 30
0.0
 10
43.03244603671269
 20
8.805914313893952
 30
0.0
  0
SPLINE
  5
BD
330
1F
100
AcDbEntity
  8
0
  6
Continuous
 62
     1
370
    15
100
AcDbSpline
210
0.0
220
0.0
230
1.0
 70
    24
 71
     3
 72
     8
 73
     4
 74
     0
 42
0.000000001
 43
0.00000001
 40
0.0
 40
0.0
 40
0.0
 40
0.0
 40
1.0
 40
1.0
 40
1.0
 40
1.0
 10
70.50000000000001
 20
1.300459967738049
 30
0.0
 10
70.50000000000001
 20
1.631923426794619
 30
0.0
 10
70.50000000000003
 20
1.960107858706743
 30
0.0
 10
70.50000000000003
 20
2.283536363151129
 30
0.0
  0
SPLINE
  5
BE
330
1F
100
AcDbEntity
  8
0
  6
Continuous
 62
     1
370
    15
100
AcDbSpline
210
0.0
220
0.0
230
1.0
 70
    24
 71
     3
 72
    10
 73
     6
 74
     0
 42
0.000000001
 43
0.00000001
 40
0.0
 40
0.0
 40
0.0
 40
0.0
 40
0.5
 40
0.5
 40
1.0
 40
1.0
 40
1.0
 40
1.0
 10
75.50000000000001
 20
-8.7674542877918
 30
0.0
 10
75.50000000000001
 20
-8.095360560304783
 30
0.0
 10
75.50000000000003
 20
-7.246144364910632
 30
0.0
 10
75.50000000000003
 20
-5.271798438561929
 30
0.0
 10
75.50000000000001
 20
-4.148378960907677
 30
0.0
 10
75.50000000000001
 20
-2.969737237754779
 30
0.0
  0
SPLINE
  5
BF
330
1F
100
AcDbEntity
  8
0
  6
Continuous
 62
     1
370
    15
100
AcDbSpline
210
0.0
220
0.0
230
1.0
 70
     8
 71
     3
 72
    12
 73
     8
 74
     0
 42
0.000000001
 43
0.00000001
 40
0.0
 40
0.0
 40
0.0
 40
0.0
 40
0.0516519211634428
 40
0.2887395977644781
 40
0.5258268450417797
 40
0.7629136500870174
 40
1.0
 40
1.0
 40
1.0
 40
1.0
 10
26.32714279988664
 20
-9.222959819298238
 30
0.0
 10
26.08046975462175
 20
-9.254924893497213
 30
0.0
 10
24.70154184129697
 20
-9.43361297438231
 30
0.0
 10
22.1903303376989
 20
-9.48048784452652
 30
0.0
 10
18.79354979979337
 20
-9.332255708550058
 30
0.0
 10
15.39677152149063
 20
-8.888808237524334
 30
0.0
 10
13.13225644930317
 20
-8.367996831510757
 30
0.0
 10
12.00000000000004
 20
-8.10759137845282
 30
0.0
  0
SPLINE
  5
C0
330
1F
100
AcDbEntity
  8
0
  6
Continuous
 62
     1
370
    15
100
AcDbSpline
210
0.0
220
0.0
230
1.0
 70
     8
 71
     3
 72
    19
 73
    15
 74
     0
 42
0.000000001
 43
0.00000001
 40
0.0
 40
0.0
 40
0.0
 40
0.0
 40
0.0771064370908842
 40
0.1603757973021174
 40
0.2436450311728125
 40
0.3269141415691124
 40
0.4101831313588009
 40
0.4934520034112626
 40
0.5767207605974493
 40
0.6599894057898378
 40
0.744992293323915
 40
0.829995024668432
 40
0.9149975951254494
 40
1.0
 40
1.0
 40
1.0
 40
1.0
 10
51.96090369619302
 20
-8.348875831748344
 30
0.0
 10
50.93382389582774
 20
-8.493460766130323
 30
0.0
 10
48.79757239606861
 20
-8.794186944180186
 30
0.0
 10
45.55215173631341
 20
-8.929815440131483
 30
0.0
 10
42.2246431222834
 20
-8.824074115189088
 30
0.0
 10
38.89714016580681
 20
-8.449524392806904
 30
0.0
 10
35.56964246596272
 20
-7.824609031252828
 30
0.0
 10
32.24215083440495
 20
-6.966015345715439
 30
0.0
 10
28.91466164638791
 20
-5.899838266647073
 30
0.0
 10
25.56408584045791
 20
-4.649193032530306
 30
0.0
 10
22.19037437169296
 20
-3.24739892938474
 30
0.0
 10
18.79357795464558
 20
-1.73596671418985
 30
0.0
 10
15.39678588446285
 20
-0.1674947938459817
 30
0.0
 10
13.13226122628252
 20
0.8738833687072265
 30
0.0
 10
12.00000000000002
 20
1.394571942839953
 30
0.0
  0
SPLINE
  5
C1
330
1F
100
AcDbEntity
  8
외형선
  6
Continuous
370
    15
100
AcDbSpline
210
0.0
220
0.0
230
1.0
 70
    24
 71
     3
 72
    14
 73
    10
 74
     0
 42
0.000000001
 43
0.00000001
 40
0.0
 40
0.0
 40
0.0
 40
0.0
 40
0.25
 40
0.25
 40
0.5
 40
0.5
 40
0.75
 40
0.75
 40
1.0
 40
1.0
 40
1.0
 40
1.0
 10
12.00000000000001
 20
1.394571942839959
 30
0.0
 10
12.00000000000001
 20
0.538301031549166
 30
0.0
 10
12.00000000000001
 20
-0.3420984011672222
 30
0.0
 10
12.00000000000001
 20
-2.091465175338231
 30
0.0
 10
12.00000000000001
 20
-2.959948550751389
 30
0.0
 10
12.00000000000001
 20
-4.620687019303313
 30
0.0
 10
12.00000000000001
 20
-5.412462541585905
 30
0.0
 10
12.00000000000001
 20
-6.865799010941608
 30
0.0
 10
12.00000000000001
 20
-7.527109098604179
 30
0.0
 10
12.00000000000001
 20
-8.10759137845281
 30
0.0
  0
SPLINE
  5
C2
330
1F
100
AcDbEntity
  8
외형선
  6
Continuous
370
    15
100
AcDbSpline
210
0.0
220
0.0
230
1.0
 70
    24
 71
     3
 72
    14
 73
    10
 74
     0
 42
0.000000001
 43
0.00000001
 40
0.0
 40
0.0
 40
0.0
 40
0.0
 40
0.2500000000000001
 40
0.2500000000000001
 40
0.5000000000000002
 40
0.5000000000000002
 40
0.7500000000000001
 40
0.7500000000000001
 40
1.0
 40
1.0
 40
1.0
 40
1.0
 10
12.0
 20
7.682443647812291
 30
0.0
 10
12.0
 20
7.626346956556883
 30
0.0
 10
12.0
 20
7.447981952630891
 30
0.0
 10
12.0
 20
6.827637779260741
 30
0.0
 10
12.0
 20
6.385447570929968
 30
0.0
 10
12.0
 20
5.267911482635055
 30
0.0
 10
12.0
 20
4.593161072620951
 30
0.0
 10
12.0
 20
3.086687389133353
 30
0.0
 10
12.0
 20
2.255997693483534
 30
0.0
 10
12.0
 20
1.394571942839965
 30
0.0
  0
SPLINE
  5
C3
330
1F
100
AcDbEntity
  8
0
  6
Continuous
 62
     1
370
    15
100
AcDbSpline
210
0.0
220
0.0
230
1.0
 70
    24
 71
     3
 72
    10
 73
     6
 74
     0
 42
0.000000001
 43
0.00000001
 40
0.0
 40
0.0
 40
0.0
 40
0.0
 40
0.5
 40
0.5
 40
1.0
 40
1.0
 40
1.0
 40
1.0
 10
70.50000000000003
 20
2.283536363151131
 30
0.0
 10
70.50000000000001
 20
3.05953152711205
 30
0.0
 10
70.50000000000003
 20
3.796003738630717
 30
0.0
 10
70.50000000000001
 20
5.109618802043825
 30
0.0
 10
70.50000000000003
 20
5.685937379830195
 30
0.0
 10
70.50000000000003
 20
6.150941962892353
 30
0.0
  0
SPLINE
  5
C4
330
1F
100
AcDbEntity
  8
0
  6
Continuous
 62
     1
370
    15
100
AcDbSpline
210
0.0
220
0.0
230
1.0
 70
     8
 71
     3
 72
     9
 73
     5
 74
     0
 42
0.000000001
 43
0.00000001
 40
0.0
 40
0.0
 40
0.0
 40
0.0
 40
0.8088594079112346
 40
1.0
 40
1.0
 40
1.0
 40
1.0
 10
75.50000000000003
 20
7.778749999999996
 30
0.0
 10
74.39081193601471
 20
7.770896181888773
 30
0.0
 10
73.01951297708976
 20
7.761186437482753
 30
0.0
 10
71.64821440830008
 20
7.610258570182563
 30
0.0
 10
71.38610358793115
 20
7.58141012826411
 30
0.0
  0
SPLINE
  5
C5
330
1F
100
AcDbEntity
  8
0
  6
Continuous
 62
     1
370
    15
100
AcDbSpline
210
0.0
220
0.0
230
1.0
 70
     8
 71
     3
 72
     8
 73
     4
 74
     0
 42
0.000000001
 43
0.00000001
 40
0.0
 40
0.0
 40
0.0
 40
0.0
 40
1.0
 40
1.0
 40
1.0
 40
1.0
 10
75.50000000000001
 20
7.778750000000003
 30
0.0
 10
73.81749199506564
 20
7.322596428023173
 30
0.0
 10
72.14835003005507
 20
6.78518705697585
 30
0.0
 10
70.50000000000003
 20
6.150941962891941
 30
0.0
  0
SPLINE
  5
C6
330
1F
100
AcDbEntity
  8
0
  6
Continuous
 62
     1
370
    15
100
AcDbSpline
210
0.0
220
0.0
230
1.0
 70
     8
 71
     3
 72
    15
 73
    11
 74
     0
 42
0.000000001
 43
0.00000001
 40
0.0
 40
0.0
 40
0.0
 40
0.0
 40
0.015047254324796
 40
0.1571828033734357
 40
0.2993216347879397
 40
0.4414656177194416
 40
0.5810809387302596
 40
0.720710670492068
 40
0.860357920726603
 40
1.0
 40
1.0
 40
1.0
 40
1.0
 10
34.01359934702694
 20
-8.732545873936726
 30
0.0
 10
33.90318756129928
 20
-8.775325600874503
 30
0.0
 10
32.74983203001538
 20
-9.222200310538257
 30
0.0
 10
30.55350380249909
 20
-9.85776433272142
 30
0.0
 10
27.42457010779484
 20
-10.58875691444172
 30
0.0
 10
24.31409336264805
 20
-11.0146865245785
 30
0.0
 10
21.22204483999107
 20
-11.16089898592088
 30
0.0
 10
18.14824579118454
 20
-11.01582172900253
 30
0.0
 10
15.07413697267759
 20
-10.60891740848316
 30
0.0
 10
13.02469967597804
 20
-10.11273308954167
 30
0.0
 10
11.99999999999758
 20
-9.86464552342548
 30
0.0
  0
SPLINE
  5
C7
330
1F
100
AcDbEntity
  8
외형선
  6
Continuous
370
    15
100
AcDbSpline
210
0.0
220
0.0
230
1.0
 70
    24
 71
     3
 72
     8
 73
     4
 74
     0
 42
0.000000001
 43
0.00000001
 40
0.0
 40
0.0
 40
0.0
 40
0.0
 40
1.0
 40
1.0
 40
1.0
 40
1.0
 10
12.00000000000004
 20
-8.10759137845282
 30
0.0
 10
12.00000000000004
 20
-8.682926573906173
 30
0.0
 10
12.00000000000004
 20
-9.272329578423353
 30
0.0
 10
12.00000000000004
 20
-9.864645523414964
 30
0.0
  0
SPLINE
  5
C8
330
1F
100
AcDbEntity
  8
0
  6
Continuous
 62
     1
370
    15
100
AcDbSpline
210
0.0
220
0.0
230
1.0
 70
     8
 71
     3
 72
     9
 73
     5
 74
     0
 42
0.000000001
 43
0.00000001
 40
0.0
 40
0.0
 40
0.0
 40
0.0
 40
0.4578390153974823
 40
1.0
 40
1.0
 40
1.0
 40
1.0
 10
12.00000000000001
 20
-10.89398808769234
 30
0.0
 10
12.58365643193481
 20
-10.95408519301889
 30
0.0
 10
13.85846354165236
 20
-11.0853477182853
 30
0.0
 10
15.13302543567946
 20
-11.09164405409741
 30
0.0
 10
15.82404316708203
 20
-11.0950576817207
 30
0.0
  0
SPLINE
  5
C9
330
1F
100
AcDbEntity
  8
0
  6
Continuous
 62
     1
370
    15
100
AcDbSpline
210
0.0
220
0.0
230
1.0
 70
     8
 71
     3
 72
    13
 73
     9
 74
     0
 42
0.000000001
 43
0.00000001
 40
0.0
 40
0.0
 40
0.0
 40
0.0
 40
0.1652788290584204
 40
0.2715003212103118
 40
0.4512891369466931
 40
0.6329268006892161
 40
0.8155102352796877
 40
1.0
 40
1.0
 40
1.0
 40
1.0
 10
60.23812886575365
 20
7.448051642987512
 30
0.0
 10
61.07899172010291
 20
7.80387849919379
 30
0.0
 10
62.46026079340294
 20
8.388388362348213
 30
0.0
 10
64.75638079912244
 20
9.192558785368574
 30
0.0
 10
67.13509090567912
 20
9.914183866524985
 30
0.0
 10
69.90246033263772
 20
10.5395731043182
 30
0.0
 10
72.69379921430587
 20
10.96822276647833
 30
0.0
 10
74.56136677682792
 20
11.05799078018633
 30
0.0
 10
75.50000000000001
 20
11.11250000000001
 30
0.0
  0
LINE
  5
CA
330
1F
100
AcDbEntity
  8
0
  6
Continuous
 62
     1
370
    15
100
AcDbLine
 10
75.50000000000001
 20
0.0000000000000065
 30
0.0
 11
75.50000000000001
 21
7.778750000000004
 31
0.0
  0
SPLINE
  5
CB
330
1F
100
AcDbEntity
  8
0
  6
Continuous
 62
     1
370
    15
100
AcDbSpline
210
0.0
220
0.0
230
1.0
 70
    24
 71
     3
 72
    10
 73
     6
 74
     0
 42
0.000000001
 43
0.00000001
 40
0.0
 40
0.0
 40
0.0
 40
0.0
 40
0.5
 40
0.5
 40
1.0
 40
1.0
 40
1.0
 40
1.0
 10
75.50000000000001
 20
7.778749999999998
 30
0.0
 10
75.50000000000001
 20
8.250278453771275
 30
0.0
 10
75.5
 20
8.79823818528584
 30
0.0
 10
75.5
 20
9.9478562261775
 30
0.0
 10
75.50000000000001
 20
10.54657855534386
 30
0.0
 10
75.50000000000001
 20
11.11250000000001
 30
0.0
  0
LINE
  5
CC
330
1F
100
AcDbEntity
  8
중심선
100
AcDbLine
 10
-48.14999999999999
 20
-0.0000000000000057
 30
0.0
 11
78.50000000000001
 21
0.0000000000000098
 31
0.0
  0
LINE
  5
CD
330
1F
100
AcDbEntity
  8
참조1
100
AcDbLine
 10
18.02426131403115
 20
0.0010749287238892
 30
0.0
 11
18.02426131403116
 21
-39.99892507127611
 31
0.0
  0
LINE
  5
CE
330
1F
100
AcDbEntity
  8
참조1
100
AcDbLine
 10
18.02426131403116
 20
-39.99892507127611
 30
0.0
 11
-20.15080122126847
 21
-39.9989250712761
 31
0.0
  0
CIRCLE
  5
CF
330
1F
100
AcDbEntity
  8
해칭선
100
AcDbCircle
 10
0.0
 20
0.0
 30
0.0
 40
2.999999999999995
  0
INSERT
  5
D0
330
1F
100
AcDbEntity
  8
0
  6
Continuous
 62
     7
100
AcDbBlockReference
 66
     1
  2
블럭10
 10
1.234727067874803
 20
-52.04717430164393
 30
0.0
  0
ATTRIB
  5
D1
330
D0
100
AcDbEntity
  8
FORMAT
 62
     2
100
AcDbText
 10
-7.946568220866476
 20
-49.97180738881174
 30
0.0
 40
4.233333333333333
  1
E2080056 [ 2 FLUTE ]
 41
0.75
  7
SLDTEXTSTYLE0
 11
-7.946568220866476
 21
-52.08847405547841
 31
0.0
100
AcDbAttribute
  2
AUTOATTR0
 70
     0
 74
     1
  0
SEQEND
  5
D2
330
D0
100
AcDbEntity
  8
0
  6
Continuous
 62
     7
  0
HATCH
  5
D3
330
1F
100
AcDbEntity
  8
중심선
100
AcDbHatch
 10
0.0
 20
0.0
 30
0.0
210
0.0
220
0.0
230
1.0
  2
SOLID
 70
     1
 71
     0
 91
        1
 92
        0
 93
        4
 72
     1
 10
6.949636372255654
 20
-35.8
 11
3.503361128418372
 21
-35.8
 72
     1
 10
3.503361128418372
 20
-35.8
 11
1.375131269214322
 21
-38.33632558057257
 72
     1
 10
1.375131269214322
 20
-38.33632558057257
 11
4.821439598164781
 21
-38.33628615127008
 72
     1
 10
4.821439598164781
 20
-38.33628615127008
 11
6.949636372255654
 21
-35.8
 97
        0
 75
     0
 76
     1
 98
        1
 10
-2.849261314031152
 20
-0.0010749287238954
  0
HATCH
  5
D4
330
1F
100
AcDbEntity
  8
중심선
100
AcDbHatch
 10
0.0
 20
0.0
 30
0.0
210
0.0
220
0.0
230
1.0
  2
SOLID
 70
     1
 71
     0
 91
        1
 92
        0
 93
        4
 72
     1
 10
11.96240036329166
 20
-35.79999999999998
 11
8.516125119454406
 21
-35.79999999999998
 72
     1
 10
8.516125119454406
 20
-35.79999999999998
 11
3.984987111096935
 21
-41.20000000000002
 72
     1
 10
3.984987111096935
 20
-41.20000000000002
 11
7.431262354934217
 21
-41.20000000000002
 72
     1
 10
7.431262354934217
 20
-41.20000000000002
 11
11.96240036329166
 21
-35.79999999999998
 97
        0
 75
     0
 76
     1
 98
        1
 10
-2.849261314031152
 20
-0.0010749287238954
  0
HATCH
  5
D5
330
1F
100
AcDbEntity
  8
중심선
100
AcDbHatch
 10
0.0
 20
0.0
 30
0.0
210
0.0
220
0.0
230
1.0
  2
SOLID
 70
     1
 71
     0
 91
        1
 92
        0
 93
        4
 72
     1
 10
16.97516435432755
 20
-35.79999999999998
 11
13.52888911049038
 21
-35.8
 72
     1
 10
13.52888911049038
 20
-35.8
 11
6.480452208601136
 21
-44.20000000000002
 72
     1
 10
6.480452208601136
 20
-44.20000000000002
 11
9.926727452438419
 21
-44.20000000000002
 72
     1
 10
9.926727452438419
 20
-44.20000000000002
 11
16.97516435432755
 21
-35.79999999999998
 97
        0
 75
     0
 76
     1
 98
        1
 10
-2.849261314031152
 20
-0.0010749287238954
  0
HATCH
  5
D6
330
1F
100
AcDbEntity
  8
중심선
100
AcDbHatch
 10
0.0
 20
0.0
 30
0.0
210
0.0
220
0.0
230
1.0
  2
SOLID
 70
     1
 71
     0
 91
        1
 92
        0
 93
        6
 72
     3
 10
21.7750547853397
 20
-40.00000000005127
 11
3.960054785062283
 21
1.540882976769353E-10
 40
0.3939339440162628
 50
17.09539180608436
 51
320.0019657685083
 73
     0
 72
     1
 10
23.45805444104027
 20
-38.58789400463833
 11
25.76335631474133
 21
-36.65356729459038
 72
     3
 10
21.77505478528686
 20
-40.00000000000015
 11
6.600054785286829
 21
-1.278976924368180E-13
 40
0.636358354079598
 50
39.99873849337408
 51
368.4976242363724
 73
     1
 72
     1
 10
28.20038727718746
 20
-39.03999999993002
 11
20.45512209212277
 21
-39.03999999993
 72
     1
 10
20.45512209212278
 20
-39.03999999993
 11
20.45509704767684
 21
-40.95999999992991
 72
     1
 10
20.45509704767684
 20
-40.95999999992991
 11
24.89647681714888
 21
-40.95999999992988
 97
        0
 75
     0
 76
     1
 98
        1
 10
-2.849261314031152
 20
-0.0010749287238954
  0
DIMENSION
  5
D7
330
1F
100
AcDbEntity
  8
치수문자_일반주서
100
AcDbDimension
  2
_D
 10
-57.64999999999996
 20
-11.11250000000005
 30
0.0
 11
-57.65000000000001
 21
0.0000000000000013
 31
0.0
 70
   160
  1
%%c<>
 71
     2
 42
22.22499999999995
 52
-270.0
  3
SLDDIMSTYLE0
100
AcDbAlignedDimension
 13
-45.14999999999999
 23
11.11249999999994
 33
0.0
 14
-44.14999999999999
 24
-11.1125
 34
0.0
 50
90.0000000000002
100
AcDbRotatedDimension
1001
ACAD
1000
DSTYLE
1002
{
1070
   171
1070
     6
1070
   273
1070
     7
1002
}
  0
DIMENSION
  5
EC
330
1F
100
AcDbEntity
  8
치수문자_일반주서
100
AcDbDimension
  2
_D_1
 10
12.00000000000001
 20
24.27944961506235
 30
0.0
 11
43.74913751455976
 21
24.27944961506235
 31
0.0
 70
   160
  1
<>
 71
     2
 42
63.50000000000001
  3
SLDDIMSTYLE0
100
AcDbAlignedDimension
 13
75.50000000000001
 23
11.11250000000001
 33
0.0
 14
12.00000000000001
 24
7.682443647812293
 34
0.0
 50
0.0000000000000032
100
AcDbRotatedDimension
1001
ACAD
1000
DSTYLE
1002
{
1070
   171
1070
     6
1070
   273
1070
     7
1002
}
  0
DIMENSION
  5
101
330
1F
100
AcDbEntity
  8
치수문자_일반주서
100
AcDbDimension
  2
_D_2
 10
-45.14999999999999
 20
41.0706349747236
 30
0.0
 11
15.17500000000001
 21
41.0706349747236
 31
0.0
 70
   160
  1
<>
 71
     2
 42
120.65
  3
SLDDIMSTYLE0
100
AcDbAlignedDimension
 13
75.50000000000001
 23
11.11250000000001
 33
0.0
 14
-45.14999999999999
 24
9.461500000000001
 34
0.0
 50
0.0000000000000067
100
AcDbRotatedDimension
1001
ACAD
1000
DSTYLE
1002
{
1070
   171
1070
     6
1070
   273
1070
     7
1002
}
  0
DIMENSION
  5
115
330
1F
100
AcDbEntity
  8
치수문자_일반주서
100
AcDbDimension
  2
_D_3
 10
97.14271857073601
 20
11.11250000000009
 30
0.0
 11
97.14271857073594
 21
32.1540000000001
 31
0.0
 70
   160
  1
%%c<>
 71
     2
 42
22.225
 52
-270.0
  3
SLDDIMSTYLE0
100
AcDbAlignedDimension
 13
75.50000000000001
 23
-11.11249999999999
 33
0.0
 14
75.50000000000001
 24
11.11250000000001
 34
0.0
 50
90.0000000000002
100
AcDbRotatedDimension
1001
ACAD
1000
DSTYLE
1002
{
1070
   171
1070
     6
1070
   273
1070
     7
1002
}
  0
LINE
  5
128
330
1F
100
AcDbEntity
  8
참조1
100
AcDbLine
 10
77.82153940838579
 20
7.441074928723896
 30
0.0
 11
77.82153940838579
 21
-7.438925071276109
 31
0.0
  0
LINE
  5
129
330
1F
100
AcDbEntity
  8
참조1
100
AcDbLine
 10
90.52153940838579
 20
5.441074928723896
 30
0.0
 11
77.82153940838579
 21
5.441074928723896
 31
0.0
  0
SOLID
  5
12A
330
1F
100
AcDbEntity
  8
참조1
100
AcDbTrace
 10
77.82153940838579
 20
5.441074928723896
 30
0.0
 11
84.17153940838578
 21
4.425074928723896
 31
0.0
 12
84.17153940838578
 22
6.457074928723896
 32
0.0
 13
84.17153940838578
 23
6.457074928723896
 33
0.0
  0
LINE
  5
12B
330
1F
100
AcDbEntity
  8
참조1
100
AcDbLine
 10
90.52153940838579
 20
-5.438925071276109
 30
0.0
 11
77.82153940838579
 21
-5.438925071276109
 31
0.0
  0
SOLID
  5
12C
330
1F
100
AcDbEntity
  8
참조1
100
AcDbTrace
 10
77.82153940838579
 20
-5.438925071276109
 30
0.0
 11
84.17153940838578
 21
-6.454925071276109
 31
0.0
 12
84.17153940838578
 22
-4.422925071276109
 32
0.0
 13
84.17153940838578
 23
-4.422925071276109
 33
0.0
  0
MTEXT
  5
12D
330
1F
100
AcDbEntity
  8
참조1
100
AcDbMText
 10
87.20588954101179
 20
11.01136670591222
 30
0.0
 40
3.5
 41
0.0
 71
     1
 72
     1
  1
A
  7
SLDTEXTSTYLE0
 73
     1
 44
1.0
  0
MTEXT
  5
12E
330
1F
100
AcDbEntity
  8
참조1
100
AcDbMText
 10
87.20588954101179
 20
0.1313667059122192
 30
0.0
 40
3.5
 41
0.0
 71
     1
 72
     1
  1
A
  7
SLDTEXTSTYLE0
 73
     1
 44
1.0
  0
INSERT
  5
135
330
1F
100
AcDbEntity
  8
해칭선
100
AcDbBlockReference
  2
SW_DOWELSYMBOL_0
 10
0.0
 20
0.0
 30
0.0
  0
LINE
  5
1E6
330
1F
100
AcDbEntity
  8
외형선
  6
Continuous
370
    15
100
AcDbLine
 10
-44.14999999999999
 20
9.461500000000001
 30
0.0
 11
-44.14999999999999
 21
-11.1125
 31
0.0
  0
LINE
  5
1E7
330
1F
100
AcDbEntity
  8
외형선
  6
Continuous
370
    15
100
AcDbLine
 10
-24.14432499999999
 20
9.461500000000001
 30
0.0
 11
-12.56192499999999
 21
9.461500000000001
 31
0.0
  0
LINE
  5
1E8
330
1F
100
AcDbEntity
  8
외형선
  6
Continuous
370
    15
100
AcDbLine
 10
-24.14432499999999
 20
9.461500000000001
 30
0.0
 11
-25.79532500000001
 21
11.11249999999998
 31
0.0
  0
LINE
  5
1E9
330
1F
100
AcDbEntity
  8
외형선
  6
Continuous
370
    15
100
AcDbLine
 10
-12.56192499999999
 20
9.461500000000001
 30
0.0
 11
-10.91092499999986
 21
11.11249999999998
 31
0.0
  0
LINE
  5
1EA
330
1F
100
AcDbEntity
  8
외형선
  6
Continuous
370
    15
100
AcDbLine
 10
-45.14999999999999
 20
9.461500000000001
 30
0.0
 11
-31.45
 21
9.461500000000001
 31
0.0
  0
LINE
  5
1EB
330
1F
100
AcDbEntity
  8
외형선
  6
Continuous
370
    15
100
AcDbLine
 10
-31.45
 20
9.461500000000001
 30
0.0
 11
-29.79899999999999
 21
11.11249999999998
 31
0.0
  0
LINE
  5
1EC
330
1F
100
AcDbEntity
  8
외형선
  6
Continuous
370
    15
100
AcDbLine
 10
-29.79899999999999
 20
11.1125
 30
0.0
 11
-25.79532500000001
 21
11.1125
 31
0.0
  0
LINE
  5
1ED
330
1F
100
AcDbEntity
  8
외형선
  6
Continuous
370
    15
100
AcDbLine
 10
-25.79532500000002
 20
11.1125
 30
0.0
 11
-29.79899999999998
 21
11.1125
 31
0.0
  0
ENDSEC
  0
SECTION
  2
OBJECTS
  0
DICTIONARY
  5
C
330
0
100
AcDbDictionary
281
     1
  3
ACAD_GROUP
350
D
  3
ACAD_IMAGE_VARS
350
159
  3
ACAD_LAYOUT
350
1A
  3
ACAD_MLINESTYLE
350
17
  3
ACAD_PLOTSETTINGS
350
19
  3
ACAD_PLOTSTYLENAME
350
E
  3
ACAD_SCALELIST
350
47
  3
APPDATA
350
157
  3
DWGPROPS
350
21B
  0
DICTIONARY
  5
180
330
2
100
AcDbDictionary
280
     1
281
     1
  3
ACAD_LAYERSTATES
360
181
  0
DICTIONARY
  5
D
102
{ACAD_REACTORS
330
C
102
}
330
C
100
AcDbDictionary
281
     1
  0
RASTERVARIABLES
  5
159
102
{ACAD_REACTORS
330
C
102
}
330
C
100
AcDbRasterVariables
 90
        0
 70
     1
 71
     1
 72
     1
  0
DICTIONARY
  5
1A
102
{ACAD_REACTORS
330
C
102
}
330
C
100
AcDbDictionary
281
     1
  3
Layout1
350
1E
  3
Layout2
350
26
  3
Model
350
22
  0
DICTIONARY
  5
17
102
{ACAD_REACTORS
330
C
102
}
330
C
100
AcDbDictionary
281
     1
  3
Standard
350
18
  0
DICTIONARY
  5
19
102
{ACAD_REACTORS
330
C
102
}
330
C
100
AcDbDictionary
281
     1
  0
ACDBDICTIONARYWDFLT
  5
E
102
{ACAD_REACTORS
330
C
102
}
330
C
100
AcDbDictionary
281
     1
  3
Normal
350
F
100
AcDbDictionaryWithDefault
340
F
  0
DICTIONARY
  5
47
102
{ACAD_REACTORS
330
C
102
}
330
C
100
AcDbDictionary
281
     1
  3
A0
350
48
  3
A1
350
49
  3
A2
350
4A
  3
A3
350
4B
  3
A4
350
4C
  3
A5
350
4D
  3
A6
350
4E
  3
A7
350
4F
  3
A8
350
50
  3
A9
350
51
  3
B0
350
52
  3
B1
350
53
  3
B2
350
54
  3
B3
350
55
  3
B4
350
56
  3
B5
350
57
  3
B6
350
58
  3
B7
350
59
  3
B8
350
5A
  3
B9
350
5B
  3
C0
350
5C
  3
C1
350
5D
  3
C2
350
5E
  3
C3
350
5F
  3
C4
350
60
  3
C5
350
61
  3
C6
350
62
  3
C7
350
63
  3
C8
350
64
  3
C9
350
65
  3
D0
350
66
  3
D1
350
67
  3
D2
350
68
  0
DICTIONARY
  5
157
102
{ACAD_REACTORS
330
C
102
}
330
C
100
AcDbDictionary
281
     1
  0
XRECORD
  5
21B
102
{ACAD_REACTORS
330
C
102
}
330
C
100
AcDbXrecord
280
     1
  1
DWGPROPS COOKIE
  2

  3

  4

  6

  7

  8
12016016
  9

300
=
301
=
302
=
303
=
304
=
305
=
306
=
307
=
308
=
309
=
 40
0.0
 41
2458311.095886829
 42
2458319.343657245
  1

 90
        0
  0
DICTIONARY
  5
181
102
{ACAD_REACTORS
330
180
102
}
330
180
100
AcDbDictionary
281
     1
  0
LAYOUT
  5
1E
102
{ACAD_REACTORS
330
1A
102
}
330
1A
100
AcDbPlotSettings
  1

  2
none_device
  4

  6

 40
0.0
 41
0.0
 42
0.0
 43
0.0
 44
0.0
 45
0.0
 46
0.0
 47
0.0
 48
0.0
 49
0.0
140
0.0
141
0.0
142
1.0
143
1.0
 70
   688
 72
     1
 73
     0
 74
     5
  7

 75
    16
147
1.0
148
0.0
149
0.0
100
AcDbLayout
  1
Layout1
 70
     1
 71
     1
 10
0.0
 20
0.0
 11
420.0
 21
297.0
 12
0.0
 22
0.0
 32
0.0
 14
1.000000000000000E+20
 24
1.000000000000000E+20
 34
1.000000000000000E+20
 15
-1.000000000000000E+20
 25
-1.000000000000000E+20
 35
-1.000000000000000E+20
146
0.0
 13
0.0
 23
0.0
 33
0.0
 16
1.0
 26
0.0
 36
0.0
 17
0.0
 27
1.0
 37
0.0
 76
     0
330
1B
  0
LAYOUT
  5
26
102
{ACAD_REACTORS
330
1A
102
}
330
1A
100
AcDbPlotSettings
  1

  2
none_device
  4

  6

 40
0.0
 41
0.0
 42
0.0
 43
0.0
 44
0.0
 45
0.0
 46
0.0
 47
0.0
 48
0.0
 49
0.0
140
0.0
141
0.0
142
1.0
143
1.0
 70
   688
 72
     1
 73
     0
 74
     5
  7

 75
    16
147
1.0
148
0.0
149
0.0
100
AcDbLayout
  1
Layout2
 70
     1
 71
     2
 10
0.0
 20
0.0
 11
0.0
 21
0.0
 12
0.0
 22
0.0
 32
0.0
 14
0.0
 24
0.0
 34
0.0
 15
0.0
 25
0.0
 35
0.0
146
0.0
 13
0.0
 23
0.0
 33
0.0
 16
1.0
 26
0.0
 36
0.0
 17
0.0
 27
1.0
 37
0.0
 76
     0
330
23
  0
LAYOUT
  5
22
102
{ACAD_REACTORS
330
1A
102
}
330
1A
100
AcDbPlotSettings
  1

  2
none_device
  4
ANSI_A_(11.00_x_8.50_Inches)
  6

 40
6.35
 41
19.05
 42
6.35000508
 43
19.05000254
 44
279.4
 45
215.9
 46
78.0479174720943
 47
50.25409569955322
 48
0.0
 49
0.0
140
0.0
141
0.0
142
0.0498181490266003
143
1.0
 70
  1696
 72
     0
 73
     0
 74
     0
  7

 75
     0
147
0.0235690232323232
148
0.0
149
0.0
100
AcDbLayout
  1
Model
 70
     1
 71
     0
 10
0.0
 20
0.0
 11
420.0
 21
297.0
 12
0.0
 22
0.0
 32
0.0
 14
-62.02500000000006
 24
-49.97180738881174
 34
0.0
 15
97.69305190406942
 25
46.5915000000001
 35
0.0
146
0.0
 13
0.0
 23
0.0
 33
0.0
 16
1.0
 26
0.0
 36
0.0
 17
0.0
 27
1.0
 37
0.0
 76
     0
330
1F
331
29
  0
MLINESTYLE
  5
18
102
{ACAD_REACTORS
330
17
102
}
330
17
100
AcDbMlineStyle
  2
Standard
 70
     0
  3

 62
   256
 51
90.0
 52
90.0
 71
     2
 49
0.5
 62
   256
  6
BYLAYER
 49
-0.5
 62
   256
  6
BYLAYER
  0
ACDBPLACEHOLDER
  5
F
102
{ACAD_REACTORS
330
E
102
}
330
E
  0
SCALE
  5
48
102
{ACAD_REACTORS
330
47
102
}
330
47
100
AcDbScale
 70
     0
300
1:1
140
1.0
141
1.0
290
     1
  0
SCALE
  5
49
102
{ACAD_REACTORS
330
47
102
}
330
47
100
AcDbScale
 70
     0
300
1:2
140
1.0
141
2.0
290
     0
  0
SCALE
  5
4A
102
{ACAD_REACTORS
330
47
102
}
330
47
100
AcDbScale
 70
     0
300
1:4
140
1.0
141
4.0
290
     0
  0
SCALE
  5
4B
102
{ACAD_REACTORS
330
47
102
}
330
47
100
AcDbScale
 70
     0
300
1:5
140
1.0
141
5.0
290
     0
  0
SCALE
  5
4C
102
{ACAD_REACTORS
330
47
102
}
330
47
100
AcDbScale
 70
     0
300
1:8
140
1.0
141
8.0
290
     0
  0
SCALE
  5
4D
102
{ACAD_REACTORS
330
47
102
}
330
47
100
AcDbScale
 70
     0
300
1:10
140
1.0
141
10.0
290
     0
  0
SCALE
  5
4E
102
{ACAD_REACTORS
330
47
102
}
330
47
100
AcDbScale
 70
     0
300
1:16
140
1.0
141
16.0
290
     0
  0
SCALE
  5
4F
102
{ACAD_REACTORS
330
47
102
}
330
47
100
AcDbScale
 70
     0
300
1:20
140
1.0
141
20.0
290
     0
  0
SCALE
  5
50
102
{ACAD_REACTORS
330
47
102
}
330
47
100
AcDbScale
 70
     0
300
1:30
140
1.0
141
30.0
290
     0
  0
SCALE
  5
51
102
{ACAD_REACTORS
330
47
102
}
330
47
100
AcDbScale
 70
     0
300
1:40
140
1.0
141
40.0
290
     0
  0
SCALE
  5
52
102
{ACAD_REACTORS
330
47
102
}
330
47
100
AcDbScale
 70
     0
300
1:50
140
1.0
141
50.0
290
     0
  0
SCALE
  5
53
102
{ACAD_REACTORS
330
47
102
}
330
47
100
AcDbScale
 70
     0
300
1:100
140
1.0
141
100.0
290
     0
  0
SCALE
  5
54
102
{ACAD_REACTORS
330
47
102
}
330
47
100
AcDbScale
 70
     0
300
2:1
140
2.0
141
1.0
290
     0
  0
SCALE
  5
55
102
{ACAD_REACTORS
330
47
102
}
330
47
100
AcDbScale
 70
     0
300
4:1
140
4.0
141
1.0
290
     0
  0
SCALE
  5
56
102
{ACAD_REACTORS
330
47
102
}
330
47
100
AcDbScale
 70
     0
300
8:1
140
8.0
141
1.0
290
     0
  0
SCALE
  5
57
102
{ACAD_REACTORS
330
47
102
}
330
47
100
AcDbScale
 70
     0
300
10:1
140
10.0
141
1.0
290
     0
  0
SCALE
  5
58
102
{ACAD_REACTORS
330
47
102
}
330
47
100
AcDbScale
 70
     0
300
100:1
140
100.0
141
1.0
290
     0
  0
SCALE
  5
59
102
{ACAD_REACTORS
330
47
102
}
330
47
100
AcDbScale
 70
     0
300
1/128" = 1'-0"
140
0.0078125
141
12.0
290
     0
  0
SCALE
  5
5A
102
{ACAD_REACTORS
330
47
102
}
330
47
100
AcDbScale
 70
     0
300
1/64" = 1'-0"
140
0.015625
141
12.0
290
     0
  0
SCALE
  5
5B
102
{ACAD_REACTORS
330
47
102
}
330
47
100
AcDbScale
 70
     0
300
1/32" = 1'-0"
140
0.03125
141
12.0
290
     0
  0
SCALE
  5
5C
102
{ACAD_REACTORS
330
47
102
}
330
47
100
AcDbScale
 70
     0
300
1/16" = 1'-0"
140
0.0625
141
12.0
290
     0
  0
SCALE
  5
5D
102
{ACAD_REACTORS
330
47
102
}
330
47
100
AcDbScale
 70
     0
300
3/32" = 1'-0"
140
0.09375
141
12.0
290
     0
  0
SCALE
  5
5E
102
{ACAD_REACTORS
330
47
102
}
330
47
100
AcDbScale
 70
     0
300
1/8" = 1'-0"
140
0.125
141
12.0
290
     0
  0
SCALE
  5
5F
102
{ACAD_REACTORS
330
47
102
}
330
47
100
AcDbScale
 70
     0
300
3/16" = 1'-0"
140
0.1875
141
12.0
290
     0
  0
SCALE
  5
60
102
{ACAD_REACTORS
330
47
102
}
330
47
100
AcDbScale
 70
     0
300
1/4" = 1'-0"
140
0.25
141
12.0
290
     0
  0
SCALE
  5
61
102
{ACAD_REACTORS
330
47
102
}
330
47
100
AcDbScale
 70
     0
300
3/8" = 1'-0"
140
0.375
141
12.0
290
     0
  0
SCALE
  5
62
102
{ACAD_REACTORS
330
47
102
}
330
47
100
AcDbScale
 70
     0
300
1/2" = 1'-0"
140
0.5
141
12.0
290
     0
  0
SCALE
  5
63
102
{ACAD_REACTORS
330
47
102
}
330
47
100
AcDbScale
 70
     0
300
3/4" = 1'-0"
140
0.75
141
12.0
290
     0
  0
SCALE
  5
64
102
{ACAD_REACTORS
330
47
102
}
330
47
100
AcDbScale
 70
     0
300
1" = 1'-0"
140
1.0
141
12.0
290
     0
  0
SCALE
  5
65
102
{ACAD_REACTORS
330
47
102
}
330
47
100
AcDbScale
 70
     0
300
1-1/2" = 1'-0"
140
1.5
141
12.0
290
     0
  0
SCALE
  5
66
102
{ACAD_REACTORS
330
47
102
}
330
47
100
AcDbScale
 70
     0
300
3" = 1'-0"
140
3.0
141
12.0
290
     0
  0
SCALE
  5
67
102
{ACAD_REACTORS
330
47
102
}
330
47
100
AcDbScale
 70
     0
300
6" = 1'-0"
140
6.0
141
12.0
290
     0
  0
SCALE
  5
68
102
{ACAD_REACTORS
330
47
102
}
330
47
100
AcDbScale
 70
     0
300
1'-0" = 1'-0"
140
12.0
141
12.0
290
     0
  0
ENDSEC
  0
EOF
