  0
SECTION
  2
HEADER
  9
$ACADVER
  1
AC1015
  9
$ACADMAINTVER
 70
     6
  9
$DWGCODEPAGE
  3
ANSI_949
  9
$INSBASE
 10
0.0
 20
0.0
 30
0.0
  9
$EXTMIN
 10
-87.74398352236123
 20
-49.97180738881178
 30
0.0
  9
$EXTMAX
 10
97.75033333333364
 20
83.19371576847897
 30
0.0
  9
$LIMMIN
 10
0.0
 20
0.0
  9
$LIMMAX
 10
420.0
 20
297.0
  9
$ORTHOMODE
 70
     0
  9
$REGENMODE
 70
     1
  9
$FILLMODE
 70
     1
  9
$QTEXTMODE
 70
     0
  9
$MIRRTEXT
 70
     1
  9
$LTSCALE
 40
1.0
  9
$ATTMODE
 70
     1
  9
$TEXTSIZE
 40
3.5
  9
$TRACEWID
 40
1.0
  9
$TEXTSTYLE
  7
Standard
  9
$CLAYER
  8
0
  9
$CELTYPE
  6
ByLayer
  9
$CECOLOR
 62
   256
  9
$CELTSCALE
 40
1.0
  9
$DISPSILH
 70
     0
  9
$DIMSCALE
 40
1.0
  9
$DIMASZ
 40
3.302
  9
$DIMEXO
 40
1.0
  9
$DIMDLI
 40
3.75
  9
$DIMRND
 40
0.0
  9
$DIMDLE
 40
0.0
  9
$DIMEXE
 40
1.0
  9
$DIMTP
 40
0.0
  9
$DIMTM
 40
0.0
  9
$DIMTXT
 40
3.5
  9
$DIMCEN
 40
2.5
  9
$DIMTSZ
 40
0.0
  9
$DIMTOL
 70
     0
  9
$DIMLIM
 70
     0
  9
$DIMTIH
 70
     1
  9
$DIMTOH
 70
     1
  9
$DIMSE1
 70
     0
  9
$DIMSE2
 70
     0
  9
$DIMTAD
 70
     1
  9
$DIMZIN
 70
     0
  9
$DIMBLK
  1

  9
$DIMASO
 70
     1
  9
$DIMSHO
 70
     1
  9
$DIMPOST
  1

  9
$DIMAPOST
  1

  9
$DIMALT
 70
     0
  9
$DIMALTD
 70
     3
  9
$DIMALTF
 40
0.0393700787401575
  9
$DIMLFAC
 40
1.0
  9
$DIMTOFL
 70
     1
  9
$DIMTVP
 40
0.0
  9
$DIMTIX
 70
     0
  9
$DIMSOXD
 70
     0
  9
$DIMSAH
 70
     0
  9
$DIMBLK1
  1

  9
$DIMBLK2
  1

  9
$DIMSTYLE
  2
ISO-25
  9
$DIMCLRD
 70
     0
  9
$DIMCLRE
 70
     0
  9
$DIMCLRT
 70
     0
  9
$DIMTFAC
 40
1.0
  9
$DIMGAP
 40
1.524
  9
$DIMJUST
 70
     0
  9
$DIMSD1
 70
     0
  9
$DIMSD2
 70
     0
  9
$DIMTOLJ
 70
     0
  9
$DIMTZIN
 70
     0
  9
$DIMALTZ
 70
     0
  9
$DIMALTTZ
 70
     0
  9
$DIMUPT
 70
     0
  9
$DIMDEC
 70
     2
  9
$DIMTDEC
 70
     2
  9
$DIMALTU
 70
     2
  9
$DIMALTTD
 70
     3
  9
$DIMTXSTY
  7
Standard
  9
$DIMAUNIT
 70
     0
  9
$DIMADEC
 70
     2
  9
$DIMALTRND
 40
0.0
  9
$DIMAZIN
 70
     0
  9
$DIMDSEP
 70
    44
  9
$DIMATFIT
 70
     3
  9
$DIMFRAC
 70
     0
  9
$DIMLDRBLK
  1

  9
$DIMLUNIT
 70
     2
  9
$DIMLWD
 70
    -2
  9
$DIMLWE
 70
    -2
  9
$DIMTMOVE
 70
     0
  9
$LUNITS
 70
     2
  9
$LUPREC
 70
     2
  9
$SKETCHINC
 40
1.0
  9
$FILLETRAD
 40
10.0
  9
$AUNITS
 70
     0
  9
$AUPREC
 70
     2
  9
$MENU
  1
.
  9
$ELEVATION
 40
0.0
  9
$PELEVATION
 40
0.0
  9
$THICKNESS
 40
0.0
  9
$LIMCHECK
 70
     0
  9
$CHAMFERA
 40
0.0
  9
$CHAMFERB
 40
0.0
  9
$CHAMFERC
 40
0.0
  9
$CHAMFERD
 40
0.0
  9
$SKPOLY
 70
     0
  9
$TDCREATE
 40
2458311.574532535
  9
$TDUCREATE
 40
2458311.199532535
  9
$TDUPDATE
 40
2458319.718392789
  9
$TDUUPDATE
 40
2458319.343392789
  9
$TDINDWG
 40
0.0008440509
  9
$TDUSRTIMER
 40
2458319.343353611
  9
$USRTIMER
 70
     1
  9
$ANGBASE
 50
0.0
  9
$ANGDIR
 70
     0
  9
$PDMODE
 70
     0
  9
$PDSIZE
 40
-1.0
  9
$PLINEWID
 40
0.0
  9
$SPLFRAME
 70
     0
  9
$SPLINETYPE
 70
     6
  9
$SPLINESEGS
 70
     8
  9
$HANDSEED
  5
29D
  9
$SURFTAB1
 70
     6
  9
$SURFTAB2
 70
     6
  9
$SURFTYPE
 70
     6
  9
$SURFU
 70
     6
  9
$SURFV
 70
     6
  9
$UCSBASE
  2

  9
$UCSNAME
  2

  9
$UCSORG
 10
0.0
 20
0.0
 30
0.0
  9
$UCSXDIR
 10
1.0
 20
0.0
 30
0.0
  9
$UCSYDIR
 10
0.0
 20
1.0
 30
0.0
  9
$UCSORTHOREF
  2

  9
$UCSORTHOVIEW
 70
     0
  9
$UCSORGTOP
 10
0.0
 20
0.0
 30
0.0
  9
$UCSORGBOTTOM
 10
0.0
 20
0.0
 30
0.0
  9
$UCSORGLEFT
 10
0.0
 20
0.0
 30
0.0
  9
$UCSORGRIGHT
 10
0.0
 20
0.0
 30
0.0
  9
$UCSORGFRONT
 10
0.0
 20
0.0
 30
0.0
  9
$UCSORGBACK
 10
0.0
 20
0.0
 30
0.0
  9
$PUCSBASE
  2

  9
$PUCSNAME
  2

  9
$PUCSORG
 10
0.0
 20
0.0
 30
0.0
  9
$PUCSXDIR
 10
1.0
 20
0.0
 30
0.0
  9
$PUCSYDIR
 10
0.0
 20
1.0
 30
0.0
  9
$PUCSORTHOREF
  2

  9
$PUCSORTHOVIEW
 70
     0
  9
$PUCSORGTOP
 10
0.0
 20
0.0
 30
0.0
  9
$PUCSORGBOTTOM
 10
0.0
 20
0.0
 30
0.0
  9
$PUCSORGLEFT
 10
0.0
 20
0.0
 30
0.0
  9
$PUCSORGRIGHT
 10
0.0
 20
0.0
 30
0.0
  9
$PUCSORGFRONT
 10
0.0
 20
0.0
 30
0.0
  9
$PUCSORGBACK
 10
0.0
 20
0.0
 30
0.0
  9
$USERI1
 70
     0
  9
$USERI2
 70
     0
  9
$USERI3
 70
     0
  9
$USERI4
 70
     0
  9
$USERI5
 70
     0
  9
$USERR1
 40
0.0
  9
$USERR2
 40
0.0
  9
$USERR3
 40
0.0
  9
$USERR4
 40
0.0
  9
$USERR5
 40
0.0
  9
$WORLDVIEW
 70
     1
  9
$SHADEDGE
 70
     3
  9
$SHADEDIF
 70
    70
  9
$TILEMODE
 70
     1
  9
$MAXACTVP
 70
    64
  9
$PINSBASE
 10
0.0
 20
0.0
 30
0.0
  9
$PLIMCHECK
 70
     0
  9
$PEXTMIN
 10
1.000000000000000E+20
 20
1.000000000000000E+20
 30
1.000000000000000E+20
  9
$PEXTMAX
 10
-1.000000000000000E+20
 20
-1.000000000000000E+20
 30
-1.000000000000000E+20
  9
$PLIMMIN
 10
0.0
 20
0.0
  9
$PLIMMAX
 10
0.0
 20
0.0
  9
$UNITMODE
 70
     0
  9
$VISRETAIN
 70
     1
  9
$PLINEGEN
 70
     0
  9
$PSLTSCALE
 70
     1
  9
$TREEDEPTH
 70
  3020
  9
$CMLSTYLE
  2
Standard
  9
$CMLJUST
 70
     0
  9
$CMLSCALE
 40
20.0
  9
$PROXYGRAPHICS
 70
     1
  9
$MEASUREMENT
 70
     1
  9
$CELWEIGHT
370
    -1
  9
$ENDCAPS
280
     0
  9
$JOINSTYLE
280
     0
  9
$LWDISPLAY
290
     1
  9
$INSUNITS
 70
     4
  9
$HYPERLINKBASE
  1

  9
$STYLESHEET
  1

  9
$XEDIT
290
     1
  9
$CEPSNTYPE
380
     0
  9
$PSTYLEMODE
290
     1
  9
$FINGERPRINTGUID
  2
{20708708-98B6-4836-BDBF-CA2747779054}
  9
$VERSIONGUID
  2
{FAEB1C32-E019-11D5-929B-00C0DF256EC4}
  9
$EXTNAMES
290
     1
  9
$PSVPSCALE
 40
0.0
  9
$OLESTARTUP
290
     0
  0
ENDSEC
  0
SECTION
  2
CLASSES
  0
CLASS
  1
ACDBDICTIONARYWDFLT
  2
AcDbDictionaryWithDefault
  3
ObjectDBX Classes
 90
        0
280
     0
281
     0
  0
CLASS
  1
VISUALSTYLE
  2
AcDbVisualStyle
  3
ObjectDBX Classes
 90
     4095
280
     0
281
     0
  0
CLASS
  1
MATERIAL
  2
AcDbMaterial
  3
ObjectDBX Classes
 90
     1153
280
     0
281
     0
  0
CLASS
  1
SCALE
  2
AcDbScale
  3
ObjectDBX Classes
 90
     1153
280
     0
281
     0
  0
CLASS
  1
SUN
  2
AcDbSun
  3
SCENEOE
 90
     1153
280
     0
281
     0
  0
CLASS
  1
ACDBPLACEHOLDER
  2
AcDbPlaceHolder
  3
ObjectDBX Classes
 90
        0
280
     0
281
     0
  0
CLASS
  1
LAYOUT
  2
AcDbLayout
  3
ObjectDBX Classes
 90
        0
280
     0
281
     0
  0
CLASS
  1
TABLESTYLE
  2
AcDbTableStyle
  3
ObjectDBX Classes
 90
     4095
280
     0
281
     0
  0
CLASS
  1
MLEADERSTYLE
  2
AcDbMLeaderStyle
  3
ACDB_MLEADERSTYLE_CLASS
 90
     4095
280
     0
281
     0
  0
CLASS
  1
RASTERVARIABLES
  2
AcDbRasterVariables
  3
ISM
 90
        0
280
     0
281
     0
  0
ENDSEC
  0
SECTION
  2
TABLES
  0
TABLE
  2
VPORT
  5
8
330
0
100
AcDbSymbolTable
 70
     1
  0
VPORT
  5
29
330
8
100
AcDbSymbolTableRecord
100
AcDbViewportTableRecord
  2
*Active
 70
     0
 10
0.0
 20
0.0
 11
1.0
 21
1.0
 12
30.88663650216568
 22
12.64075311972574
 13
0.0
 23
0.0
 14
10.0
 24
10.0
 15
10.0
 25
10.0
 16
0.0
 26
0.0
 36
1.0
 17
0.0
 27
0.0
 37
0.0
 40
203.2870499095531
 41
1.641732283464567
 42
50.0
 43
0.0
 44
0.0
 50
0.0
 51
0.0
 71
    16
 72
  2000
 73
     1
 74
     3
 75
     0
 76
     0
 77
     0
 78
     0
281
     0
 65
     1
110
0.0
120
0.0
130
0.0
111
1.0
121
0.0
131
0.0
112
0.0
122
1.0
132
0.0
 79
     0
146
0.0
  0
ENDTAB
  0
TABLE
  2
LTYPE
  5
5
330
0
100
AcDbSymbolTable
 70
     6
  0
LTYPE
  5
14
330
5
100
AcDbSymbolTableRecord
100
AcDbLinetypeTableRecord
  2
ByBlock
 70
     0
  3

 72
    65
 73
     0
 40
0.0
  0
LTYPE
  5
15
330
5
100
AcDbSymbolTableRecord
100
AcDbLinetypeTableRecord
  2
ByLayer
 70
     0
  3

 72
    65
 73
     0
 40
0.0
  0
LTYPE
  5
16
330
5
100
AcDbSymbolTableRecord
100
AcDbLinetypeTableRecord
  2
Continuous
 70
     0
  3
Solid line
 72
    65
 73
     0
 40
0.0
  0
LTYPE
  5
6A
330
5
100
AcDbSymbolTableRecord
100
AcDbLinetypeTableRecord
  2
HIDDEN
 70
     0
  3
Hidden __ __ __ __ __ __ __ __ __ __ __ __ __ __
 72
    65
 73
     2
 40
1.905
 49
1.27
 74
     0
 49
-0.635
 74
     0
  0
LTYPE
  5
6B
330
5
100
AcDbSymbolTableRecord
100
AcDbLinetypeTableRecord
  2
PHANTOM
 70
     0
  3
Phantom ______  __  __  ______  __  __  ______
 72
    65
 73
     6
 40
12.7
 49
6.35
 74
     0
 49
-1.27
 74
     0
 49
1.27
 74
     0
 49
-1.27
 74
     0
 49
1.27
 74
     0
 49
-1.27
 74
     0
  0
LTYPE
  5
6C
330
5
100
AcDbSymbolTableRecord
100
AcDbLinetypeTableRecord
  2
CENTER
 70
     0
  3
Center ____ _ ____ _ ____ _ ____ _ ____ _ ____
 72
    65
 73
     4
 40
10.16
 49
6.35
 74
     0
 49
-1.27
 74
     0
 49
1.27
 74
     0
 49
-1.27
 74
     0
  0
LTYPE
  5
6D
330
5
100
AcDbSymbolTableRecord
100
AcDbLinetypeTableRecord
  2
CENTERX2
 70
     0
  3
Center (2x) ________  __  ________  __  _____
 72
    65
 73
     4
 40
20.32
 49
12.7
 74
     0
 49
-2.54
 74
     0
 49
2.54
 74
     0
 49
-2.54
 74
     0
  0
LTYPE
  5
6E
330
5
100
AcDbSymbolTableRecord
100
AcDbLinetypeTableRecord
  2
DOT2
 70
     0
  3
Dot (.5x) ........................................
 72
    65
 73
     2
 40
0.635
 49
0.0
 74
     0
 49
-0.635
 74
     0
  0
ENDTAB
  0
TABLE
  2
LAYER
  5
2
102
{ACAD_XDICTIONARY
360
161
102
}
330
0
100
AcDbSymbolTable
 70
    18
  0
LAYER
  5
10
330
2
100
AcDbSymbolTableRecord
100
AcDbLayerTableRecord
  2
0
 70
     0
 62
     7
  6
Continuous
370
    -3
390
F
  0
LAYER
  5
6F
330
2
100
AcDbSymbolTableRecord
100
AcDbLayerTableRecord
  2
FORMAT
 70
     0
 62
     2
  6
Continuous
370
    -3
390
F
  0
LAYER
  5
70
330
2
100
AcDbSymbolTableRecord
100
AcDbLayerTableRecord
  2
외형선
 70
     0
 62
     4
  6
Continuous
370
    30
390
F
  0
LAYER
  5
71
330
2
100
AcDbSymbolTableRecord
100
AcDbLayerTableRecord
  2
숨은선
 70
     0
 62
     2
  6
HIDDEN
370
    15
390
F
  0
LAYER
  5
72
330
2
100
AcDbSymbolTableRecord
100
AcDbLayerTableRecord
  2
중심선
 70
     0
 62
     1
  6
CENTERX2
370
    -3
390
F
  0
LAYER
  5
73
330
2
100
AcDbSymbolTableRecord
100
AcDbLayerTableRecord
  2
파단선
 70
     0
 62
     4
  6
Continuous
370
    -3
390
F
  0
LAYER
  5
74
330
2
100
AcDbSymbolTableRecord
100
AcDbLayerTableRecord
  2
해칭선
 70
     0
 62
   100
  6
Continuous
370
    -3
390
F
  0
LAYER
  5
75
330
2
100
AcDbSymbolTableRecord
100
AcDbLayerTableRecord
  2
가는실선
 70
     0
 62
     4
  6
Continuous
370
    -3
390
F
  0
LAYER
  5
76
330
2
100
AcDbSymbolTableRecord
100
AcDbLayerTableRecord
  2
치수_보조선
 70
     0
 62
     4
  6
Continuous
370
    -3
390
F
  0
LAYER
  5
77
330
2
100
AcDbSymbolTableRecord
100
AcDbLayerTableRecord
  2
치수문자_일반주서
 70
     0
 62
     7
  6
Continuous
370
    15
390
F
  0
LAYER
  5
78
330
2
100
AcDbSymbolTableRecord
100
AcDbLayerTableRecord
  2
개별주서
 70
     0
 62
   100
  6
Continuous
370
    30
390
F
  0
LAYER
  5
79
330
2
100
AcDbSymbolTableRecord
100
AcDbLayerTableRecord
  2
중간선
 70
     0
 62
     2
  6
Continuous
370
    15
390
F
  0
LAYER
  5
7A
330
2
100
AcDbSymbolTableRecord
100
AcDbLayerTableRecord
  2
윤곽선
 70
     0
 62
     3
  6
Continuous
370
    40
390
F
  0
LAYER
  5
7B
330
2
100
AcDbSymbolTableRecord
100
AcDbLayerTableRecord
  2
중심마크
 70
     0
 62
   100
  6
Continuous
370
    30
390
F
  0
LAYER
  5
7C
330
2
100
AcDbSymbolTableRecord
100
AcDbLayerTableRecord
  2
가상선
 70
     0
 62
     4
  6
PHANTOM
370
    -3
390
F
  0
LAYER
  5
7D
330
2
100
AcDbSymbolTableRecord
100
AcDbLayerTableRecord
  2
특수지정선
 70
     0
 62
     5
  6
CENTERX2
370
    60
390
F
  0
LAYER
  5
7E
330
2
100
AcDbSymbolTableRecord
100
AcDbLayerTableRecord
  2
참조1
 70
     0
 62
    -4
  6
Continuous
370
    -3
390
F
  0
LAYER
  5
166
330
2
100
AcDbSymbolTableRecord
100
AcDbLayerTableRecord
  2
Defpoints
 70
     0
 62
     7
  6
Continuous
290
     0
370
    -3
390
F
  0
ENDTAB
  0
TABLE
  2
STYLE
  5
3
330
0
100
AcDbSymbolTable
 70
     2
  0
STYLE
  5
11
330
3
100
AcDbSymbolTableRecord
100
AcDbTextStyleTableRecord
  2
Standard
 70
     0
 40
0.0
 41
1.0
 50
0.0
 71
     0
 42
3.5
  3
txt
  4

  0
STYLE
  5
94
330
3
100
AcDbSymbolTableRecord
100
AcDbTextStyleTableRecord
  2
SLDTEXTSTYLE0
 70
     0
 40
0.0
 41
0.75
 50
0.0
 71
     0
 42
3.5
  3
TXT
  4

  0
ENDTAB
  0
TABLE
  2
VIEW
  5
6
330
0
100
AcDbSymbolTable
 70
     0
  0
ENDTAB
  0
TABLE
  2
UCS
  5
7
330
0
100
AcDbSymbolTable
 70
     0
  0
ENDTAB
  0
TABLE
  2
APPID
  5
9
330
0
100
AcDbSymbolTable
 70
     1
  0
APPID
  5
12
330
9
100
AcDbSymbolTableRecord
100
AcDbRegAppTableRecord
  2
ACAD
 70
     0
  0
ENDTAB
  0
TABLE
  2
DIMSTYLE
  5
A
330
0
100
AcDbSymbolTable
 70
     5
100
AcDbDimStyleTable
  0
DIMSTYLE
105
27
330
A
100
AcDbSymbolTableRecord
100
AcDbDimStyleTableRecord
  2
ISO-25
 70
     0
 41
2.5
 42
0.625
 43
3.75
 44
1.25
 73
     0
 74
     0
 77
     1
 78
     8
140
2.5
141
2.5
143
0.03937007874016
147
0.625
171
     3
172
     1
178
     0
271
     2
272
     2
274
     3
278
    44
283
     0
284
     8
340
11
  0
DIMSTYLE
105
BE
330
A
100
AcDbSymbolTableRecord
100
AcDbDimStyleTableRecord
  2
SLDDIMSTYLE0
 70
     0
 41
3.302
 44
0.0
 45
0.000000001
 73
     0
 74
     0
 77
     1
 78
     4
 79
     1
140
3.5
147
0.875
172
     1
173
     1
178
     0
271
     2
272
     2
276
     2
284
    12
289
     0
340
94
  0
DIMSTYLE
105
CC
102
{ACAD_REACTORS
330
CB
330
23A
330
23B
330
F5
102
}
330
A
100
AcDbSymbolTableRecord
100
AcDbDimStyleTableRecord
  2
SLDDIMSTYLE1
 70
     0
 41
3.302
 44
0.0
 45
0.000000001
 73
     0
 74
     0
 77
     1
 78
     4
 79
     1
140
3.5
143
0.0393700787401575
147
0.875
148
0.000000001
170
     1
172
     1
173
     1
178
     0
271
     2
272
     2
276
     2
284
    12
289
     0
340
94
  0
DIMSTYLE
105
E2
330
A
100
AcDbSymbolTableRecord
100
AcDbDimStyleTableRecord
  2
SLDDIMSTYLE2
 70
     0
 41
3.302
 44
0.0
 45
0.000000001
 73
     0
 74
     0
 77
     1
 78
     4
 79
     1
140
3.5
143
0.0393700787401575
147
0.875
148
0.000000001
170
     1
173
     1
178
     0
271
     2
272
     2
276
     2
284
    12
340
94
  0
DIMSTYLE
105
F6
102
{ACAD_REACTORS
102
}
330
A
100
AcDbSymbolTableRecord
100
AcDbDimStyleTableRecord
  2
SLDDIMSTYLE3
 70
     0
 41
3.302
 44
0.0
 45
0.000000001
 73
     0
 74
     0
 77
     1
 78
    12
 79
     3
140
3.5
143
0.0393700787401575
147
0.875
148
0.000000001
170
     1
173
     1
178
     0
271
     2
272
     2
276
     2
284
    12
340
94
  0
ENDTAB
  0
TABLE
  2
BLOCK_RECORD
  5
1
330
0
100
AcDbSymbolTable
 70
    15
  0
BLOCK_RECORD
  5
1F
330
1
100
AcDbSymbolTableRecord
100
AcDbBlockTableRecord
  2
*Model_Space
340
22
  0
BLOCK_RECORD
  5
1B
330
1
100
AcDbSymbolTableRecord
100
AcDbBlockTableRecord
  2
*Paper_Space
340
1E
  0
BLOCK_RECORD
  5
23
330
1
100
AcDbSymbolTableRecord
100
AcDbBlockTableRecord
  2
*Paper_Space0
340
26
  0
BLOCK_RECORD
  5
7F
330
1
100
AcDbSymbolTableRecord
100
AcDbBlockTableRecord
  2
블럭10
340
0
102
{BLKREFS
331
B6
102
}
  0
BLOCK_RECORD
  5
BF
330
1
100
AcDbSymbolTableRecord
100
AcDbBlockTableRecord
  2
_D
340
0
  0
BLOCK_RECORD
  5
CD
330
1
100
AcDbSymbolTableRecord
100
AcDbBlockTableRecord
  2
_D_1
340
0
  0
BLOCK_RECORD
  5
E3
330
1
100
AcDbSymbolTableRecord
100
AcDbBlockTableRecord
  2
_D_2
340
0
  0
BLOCK_RECORD
  5
F7
330
1
100
AcDbSymbolTableRecord
100
AcDbBlockTableRecord
  2
_D_3
340
0
  0
BLOCK_RECORD
  5
110
330
1
100
AcDbSymbolTableRecord
100
AcDbBlockTableRecord
  2
SW_DOWELSYMBOL_0
340
0
102
{BLKREFS
331
23C
102
}
  0
BLOCK_RECORD
  5
1CF
330
1
100
AcDbSymbolTableRecord
100
AcDbBlockTableRecord
  2
*D7
340
0
  0
BLOCK_RECORD
  5
1DC
330
1
100
AcDbSymbolTableRecord
100
AcDbBlockTableRecord
  2
*D8
340
0
  0
BLOCK_RECORD
  5
1FA
330
1
100
AcDbSymbolTableRecord
100
AcDbBlockTableRecord
  2
*D9
340
0
  0
BLOCK_RECORD
  5
206
330
1
100
AcDbSymbolTableRecord
100
AcDbBlockTableRecord
  2
*D10
340
0
  0
BLOCK_RECORD
  5
246
330
1
100
AcDbSymbolTableRecord
100
AcDbBlockTableRecord
  2
*D11
340
0
  0
BLOCK_RECORD
  5
252
330
1
100
AcDbSymbolTableRecord
100
AcDbBlockTableRecord
  2
*D12
340
0
  0
BLOCK_RECORD
  5
25F
330
1
100
AcDbSymbolTableRecord
100
AcDbBlockTableRecord
  2
*D13
340
0
  0
BLOCK_RECORD
  5
26B
330
1
100
AcDbSymbolTableRecord
100
AcDbBlockTableRecord
  2
*D14
340
0
  0
ENDTAB
  0
ENDSEC
  0
SECTION
  2
BLOCKS
  0
BLOCK
  5
20
330
1F
100
AcDbEntity
  8
0
100
AcDbBlockBegin
  2
*Model_Space
 70
     0
 10
0.0
 20
0.0
 30
0.0
  3
*Model_Space
  1
*Model_Space
  0
ENDBLK
  5
21
330
1F
100
AcDbEntity
  8
0
100
AcDbBlockEnd
  0
BLOCK
  5
1C
330
1B
100
AcDbEntity
 67
     1
  8
0
100
AcDbBlockBegin
  2
*Paper_Space
 70
     0
 10
0.0
 20
0.0
 30
0.0
  3
*Paper_Space
  1
*Paper_Space
  0
ENDBLK
  5
1D
330
1B
100
AcDbEntity
 67
     1
  8
0
100
AcDbBlockEnd
  0
BLOCK
  5
24
330
23
100
AcDbEntity
  8
0
100
AcDbBlockBegin
  2
*Paper_Space0
 70
     0
 10
0.0
 20
0.0
 30
0.0
  3
*Paper_Space0
  1
*Paper_Space0
  0
ENDBLK
  5
25
330
23
100
AcDbEntity
  8
0
100
AcDbBlockEnd
  0
BLOCK
  5
80
330
7F
100
AcDbEntity
  8
0
100
AcDbBlockBegin
  2
블럭10
 70
     2
 10
0.0
 20
0.0
 30
0.0
  3
블럭10
  1
블럭10
  0
ELLIPSE
  5
82
330
7F
100
AcDbEntity
  8
중심선
100
AcDbEllipse
 10
20.54032771741204
 20
12.0471743016438
 30
0.0
 11
6.600054785286829
 21
-1.261213355974178E-13
 31
0.0
210
0.0
220
0.0
230
1.0
 40
0.636358354079598
 41
0.9219305317359503
 42
6.513795318482858
  0
ELLIPSE
  5
83
330
7F
100
AcDbEntity
  8
중심선
100
AcDbEllipse
 10
20.54032771746488
 20
12.04717430159265
 30
0.0
 11
3.960054785062283
 21
1.540847449632565E-10
 31
0.0
210
0.0
220
0.0
230
1.0
 40
0.3939339440162632
 41
1.131841032648279
 42
5.62031148352944
  0
LINE
  5
84
330
7F
100
AcDbEntity
  8
중심선
100
AcDbLine
 10
2.268634060543552
 20
16.24717430164393
 30
0.0
 11
5.714909304380834
 21
16.24717430164393
 31
0.0
  0
LINE
  5
85
330
7F
100
AcDbEntity
  8
중심선
100
AcDbLine
 10
5.245725140726316
 20
7.84717430164391
 30
0.0
 11
8.692000384563599
 21
7.84717430164391
 31
0.0
  0
LINE
  5
86
330
7F
100
AcDbEntity
  8
중심선
100
AcDbLine
 10
15.74043728645272
 20
16.24717430164393
 30
0.0
 11
8.692000384563599
 21
7.84717430164391
 31
0.0
  0
LINE
  5
87
330
7F
100
AcDbEntity
  8
중심선
100
AcDbLine
 10
0.1404042013395286
 20
13.71084872107135
 30
0.0
 11
3.58671253028996
 21
13.71088815037384
 31
0.0
  0
LINE
  5
88
330
7F
100
AcDbEntity
  8
중심선
100
AcDbLine
 10
2.750260043222114
 20
10.84717430164391
 30
0.0
 11
6.196535287059397
 21
10.84717430164391
 31
0.0
  0
LINE
  5
89
330
7F
100
AcDbEntity
  8
중심선
100
AcDbLine
 10
12.29416204261559
 20
16.24717430164393
 30
0.0
 11
5.245725140726316
 21
7.84717430164391
 31
0.0
  0
LINE
  5
8A
330
7F
100
AcDbEntity
  8
중심선
100
AcDbLine
 10
10.72767329541681
 20
16.24717430164393
 30
0.0
 11
6.196535287059397
 21
10.84717430164391
 31
0.0
  0
LINE
  5
8B
330
7F
100
AcDbEntity
  8
중심선
100
AcDbLine
 10
7.28139805157953
 20
16.24717430164393
 30
0.0
 11
2.750260043222114
 21
10.84717430164391
 31
0.0
  0
LINE
  5
8C
330
7F
100
AcDbEntity
  8
중심선
100
AcDbLine
 10
5.714909304380834
 20
16.24717430164393
 30
0.0
 11
3.58671253028996
 21
13.71088815037384
 31
0.0
  0
LINE
  5
8D
330
7F
100
AcDbEntity
  8
중심선
100
AcDbLine
 10
2.268634060543552
 20
16.24717430164393
 30
0.0
 11
0.1404042013395286
 21
13.71084872107135
 31
0.0
  0
LINE
  5
8E
330
7F
100
AcDbEntity
  8
중심선
100
AcDbLine
 10
7.28139805157953
 20
16.24717430164393
 30
0.0
 11
10.72767329541681
 21
16.24717430164393
 31
0.0
  0
LINE
  5
8F
330
7F
100
AcDbEntity
  8
중심선
100
AcDbLine
 10
12.29416204261559
 20
16.24717430164393
 30
0.0
 11
15.74043728645272
 21
16.24717430164393
 31
0.0
  0
LINE
  5
90
330
7F
100
AcDbEntity
  8
중심선
100
AcDbLine
 10
19.22036997980202
 20
11.08717430171403
 30
0.0
 11
23.66174974927406
 21
11.08717430171406
 31
0.0
  0
LINE
  5
91
330
7F
100
AcDbEntity
  8
중심선
100
AcDbLine
 10
19.22039502424796
 20
13.00717430171391
 30
0.0
 11
19.22036997980202
 21
11.08717430171403
 31
0.0
  0
LINE
  5
92
330
7F
100
AcDbEntity
  8
중심선
100
AcDbLine
 10
19.22039502424796
 20
13.00717430171391
 30
0.0
 11
26.96566020931264
 21
13.00717430171391
 31
0.0
  0
LINE
  5
93
330
7F
100
AcDbEntity
  8
중심선
100
AcDbLine
 10
22.22332737316547
 20
13.45928029700563
 30
0.0
 11
24.52862924686651
 21
15.39360700705356
 31
0.0
  0
ATTDEF
  5
95
330
7F
100
AcDbEntity
  8
FORMAT
 62
     2
100
AcDbText
 10
4.408487351596664
 20
2.075366912832191
 30
0.0
 40
4.233333333333333
  1
E1080148
 41
0.75
  7
SLDTEXTSTYLE0
 11
4.408487351596664
 21
-0.0412997538344756
 31
0.0
100
AcDbAttributeDefinition
  3

  2
AUTOATTR0
 70
     0
 74
     1
  0
ENDBLK
  5
81
330
7F
100
AcDbEntity
  8
0
100
AcDbBlockEnd
  0
BLOCK
  5
C0
330
BF
100
AcDbEntity
  8
0
100
AcDbBlockBegin
  2
_D
 70
     0
 10
0.0
 20
0.0
 30
0.0
  3
_D
  1
_D
  0
SOLID
  5
C2
330
BF
100
AcDbEntity
  8
치수문자_일반주서
100
AcDbTrace
 10
-59.5594211678731
 20
6.351074928723887
 30
0.0
 11
-59.05142116787309
 21
9.653074928723886
 31
0.0
 12
-60.0674211678731
 22
9.653074928723886
 32
0.0
 13
-60.0674211678731
 23
9.653074928723886
 33
0.0
  0
SOLID
  5
C3
330
BF
100
AcDbEntity
  8
치수문자_일반주서
100
AcDbTrace
 10
-59.5594211678731
 20
-6.348925071276102
 30
0.0
 11
-60.0674211678731
 21
-9.650925071276102
 31
0.0
 12
-59.05142116787309
 22
-9.650925071276102
 32
0.0
 13
-59.05142116787309
 23
-9.650925071276102
 33
0.0
  0
LINE
  5
C4
330
BF
100
AcDbEntity
  8
치수문자_일반주서
100
AcDbLine
 10
-47.05942116787307
 20
6.351074928723888
 30
0.0
 11
-60.5594211678731
 21
6.351074928723887
 31
0.0
  0
LINE
  5
C5
330
BF
100
AcDbEntity
  8
치수문자_일반주서
100
AcDbLine
 10
-47.05942116787307
 20
-6.348925071276101
 30
0.0
 11
-60.5594211678731
 21
-6.348925071276102
 31
0.0
  0
LINE
  5
C6
330
BF
100
AcDbEntity
  8
치수문자_일반주서
100
AcDbLine
 10
-59.5594211678731
 20
6.351074928723887
 30
0.0
 11
-59.5594211678731
 21
12.70107492872389
 31
0.0
  0
LINE
  5
C7
330
BF
100
AcDbEntity
  8
치수문자_일반주서
100
AcDbLine
 10
-59.5594211678731
 20
6.351074928723887
 30
0.0
 11
-59.5594211678731
 21
-6.348925071276102
 31
0.0
  0
LINE
  5
C8
330
BF
100
AcDbEntity
  8
치수문자_일반주서
100
AcDbLine
 10
-59.5594211678731
 20
-6.348925071276102
 30
0.0
 11
-59.5594211678731
 21
-12.6989250712761
 31
0.0
  0
MTEXT
  5
C9
330
BF
100
AcDbEntity
  8
치수문자_일반주서
100
AcDbMText
 10
-64.07115825707491
 20
-8.456894014097152
 30
0.0
 40
3.5
 41
0.0
 71
     1
 72
     1
  1
%%c
  7
SLDTEXTSTYLE0
 11
-7.044195017643634E-15
 21
1.0
 31
0.0
 73
     1
 44
1.0
  0
MTEXT
  5
CA
330
BF
100
AcDbEntity
  8
치수문자_일반주서
100
AcDbMText
 10
-64.1246304337348
 20
-3.178456615723071
 30
0.0
 40
3.5
 41
0.0
 71
     1
 72
     1
  1
12.70
  7
SLDTEXTSTYLE0
 11
-7.044195017643634E-15
 21
1.0
 31
0.0
 73
     1
 44
1.0
  0
ENDBLK
  5
C1
330
BF
100
AcDbEntity
  8
0
100
AcDbBlockEnd
  0
BLOCK
  5
CE
330
CD
100
AcDbEntity
  8
0
100
AcDbBlockBegin
  2
_D_1
 70
     0
 10
0.0
 20
0.0
 30
0.0
  3
_D_1
  1
_D_1
  0
LINE
  5
D0
330
CD
100
AcDbEntity
  8
0
  6
Continuous
 62
     0
370
    -2
100
AcDbLine
 10
78.20000000000003
 20
22.26871576847881
 30
0.0
 11
78.20000000000003
 21
36.87839570653297
 31
0.0
  0
LINE
  5
D1
330
CD
100
AcDbEntity
  8
0
  6
Continuous
 62
     0
370
    -2
100
AcDbLine
 10
2.000000000000009
 20
17.40506037307882
 30
0.0
 11
2.000000000000007
 21
36.87839570653297
 31
0.0
  0
LINE
  5
D2
330
CD
100
AcDbEntity
  8
0
  6
Continuous
 62
     0
370
    -2
100
AcDbLine
 10
74.89800000000002
 20
36.87839570653297
 30
0.0
 11
5.302000000000007
 21
36.87839570653297
 31
0.0
  0
SOLID
  5
D3
330
CD
100
AcDbEntity
  8
0
 62
     0
100
AcDbTrace
 10
74.89800000000002
 20
36.32806237319964
 30
0.0
 11
74.89800000000002
 21
37.4287290398663
 31
0.0
 12
78.20000000000003
 22
36.87839570653297
 32
0.0
 13
78.20000000000003
 23
36.87839570653297
 33
0.0
  0
SOLID
  5
D4
330
CD
100
AcDbEntity
  8
0
 62
     0
100
AcDbTrace
 10
5.302000000000007
 20
37.4287290398663
 30
0.0
 11
5.302000000000007
 21
36.32806237319964
 31
0.0
 12
2.000000000000007
 22
36.87839570653297
 32
0.0
 13
2.000000000000007
 23
36.87839570653297
 33
0.0
  0
MTEXT
  5
D5
330
CD
100
AcDbEntity
  8
0
 62
     0
370
    15
100
AcDbMText
 10
42.07557868424799
 20
41.25339570653297
 30
0.0
 40
3.5
 41
0.0
 71
     2
 72
     1
  1
\A1;76.20 [3]
  7
SLDTEXTSTYLE0
 73
     1
 44
1.0
  0
POINT
  5
D6
330
CD
100
AcDbEntity
  8
Defpoints
 62
     0
100
AcDbPoint
 10
78.20000000000003
 20
22.20621576847881
 30
0.0
  0
POINT
  5
D7
330
CD
100
AcDbEntity
  8
Defpoints
 62
     0
100
AcDbPoint
 10
2.000000000000009
 20
17.34256037307882
 30
0.0
  0
POINT
  5
D8
330
CD
100
AcDbEntity
  8
Defpoints
 62
     0
100
AcDbPoint
 10
2.000000000000009
 20
36.87839570653297
 30
0.0
  0
ENDBLK
  5
CF
330
CD
100
AcDbEntity
  8
0
100
AcDbBlockEnd
  0
BLOCK
  5
E4
330
E3
100
AcDbEntity
  8
0
100
AcDbBlockBegin
  2
_D_2
 70
     0
 10
0.0
 20
0.0
 30
0.0
  3
_D_2
  1
_D_2
  0
LINE
  5
E6
330
E3
100
AcDbEntity
  8
0
  6
Continuous
 62
     0
370
    -2
100
AcDbLine
 10
79.94057883212697
 20
22.26979069720272
 30
0.0
 11
79.94057883212696
 21
30.3105321911699
 31
0.0
  0
LINE
  5
E7
330
E3
100
AcDbEntity
  8
0
  6
Continuous
 62
     0
370
    -2
100
AcDbLine
 10
-47.05942116787307
 20
5.413574928723888
 30
0.0
 11
-47.05942116787307
 21
30.3105321911699
 31
0.0
  0
LINE
  5
E8
330
E3
100
AcDbEntity
  8
0
  6
Continuous
 62
     0
370
    -2
100
AcDbLine
 10
76.63857883212697
 20
30.3105321911699
 30
0.0
 11
-43.75742116787307
 21
30.3105321911699
 31
0.0
  0
SOLID
  5
E9
330
E3
100
AcDbEntity
  8
0
 62
     0
100
AcDbTrace
 10
76.63857883212697
 20
29.76019885783656
 30
0.0
 11
76.63857883212697
 21
30.86086552450323
 31
0.0
 12
79.94057883212696
 22
30.3105321911699
 32
0.0
 13
79.94057883212696
 23
30.3105321911699
 33
0.0
  0
SOLID
  5
EA
330
E3
100
AcDbEntity
  8
0
 62
     0
100
AcDbTrace
 10
-43.75742116787307
 20
30.86086552450323
 30
0.0
 11
-43.75742116787307
 21
29.76019885783656
 31
0.0
 12
-47.05942116787307
 22
30.3105321911699
 32
0.0
 13
-47.05942116787307
 23
30.3105321911699
 33
0.0
  0
MTEXT
  5
EB
330
E3
100
AcDbEntity
  8
0
 62
     0
370
    15
100
AcDbMText
 10
-8.959421167873067
 20
34.6855321911699
 30
0.0
 40
3.5
 41
0.0
 71
     2
 72
     1
  1
\A1;127.00 [5.00]
  7
SLDTEXTSTYLE0
 73
     1
 44
1.0
  0
POINT
  5
EC
330
E3
100
AcDbEntity
  8
Defpoints
 62
     0
100
AcDbPoint
 10
79.94057883212697
 20
22.20729069720272
 30
0.0
  0
POINT
  5
ED
330
E3
100
AcDbEntity
  8
Defpoints
 62
     0
100
AcDbPoint
 10
-47.05942116787307
 20
5.351074928723888
 30
0.0
  0
POINT
  5
EE
330
E3
100
AcDbEntity
  8
Defpoints
 62
     0
100
AcDbPoint
 10
-47.05942116787307
 20
30.3105321911699
 30
0.0
  0
ENDBLK
  5
E5
330
E3
100
AcDbEntity
  8
0
100
AcDbBlockEnd
  0
BLOCK
  5
F8
330
F7
100
AcDbEntity
  8
0
100
AcDbBlockBegin
  2
_D_3
 70
     0
 10
0.0
 20
0.0
 30
0.0
  3
_D_3
  1
_D_3
  0
LINE
  5
FA
330
F7
100
AcDbEntity
  8
0
  6
Continuous
 62
     0
370
    -2
100
AcDbLine
 10
78.26249999999999
 20
-22.20621576847884
 30
0.0
 11
97.2000000000003
 21
-22.20621576847877
 31
0.0
  0
LINE
  5
FB
330
F7
100
AcDbEntity
  8
0
  6
Continuous
 62
     0
370
    -2
100
AcDbLine
 10
78.26249999999999
 20
22.20621576847881
 30
0.0
 11
97.20000000000014
 21
22.20621576847888
 31
0.0
  0
LINE
  5
FC
330
F7
100
AcDbEntity
  8
0
  6
Continuous
 62
     0
370
    -2
100
AcDbLine
 10
97.20000000000014
 20
22.20621576847888
 30
0.0
 11
97.19999999999993
 21
83.19371576847897
 31
0.0
  0
LINE
  5
FD
330
F7
100
AcDbEntity
  8
0
  6
Continuous
 62
     0
370
    -2
100
AcDbLine
 10
97.2000000000003
 20
-22.20621576847877
 30
0.0
 11
97.20000000000014
 21
22.20621576847888
 31
0.0
  0
LINE
  5
FE
330
F7
100
AcDbEntity
  8
0
  6
Continuous
 62
     0
370
    -2
100
AcDbLine
 10
97.20000000000032
 20
-25.50821576847877
 30
0.0
 11
97.20000000000033
 21
-28.81021576847877
 31
0.0
  0
LINE
  5
FF
330
F7
100
AcDbEntity
  8
0
  6
Continuous
 62
     0
370
    -2
100
AcDbLine
 10
97.20000000000013
 20
25.50821576847888
 30
0.0
 11
97.20000000000012
 21
28.81021576847888
 31
0.0
  0
SOLID
  5
100
330
F7
100
AcDbEntity
  8
0
 62
     0
100
AcDbTrace
 10
97.75033333333364
 20
-25.50821576847877
 30
0.0
 11
96.64966666666699
 21
-25.50821576847877
 31
0.0
 12
97.2000000000003
 22
-22.20621576847877
 32
0.0
 13
97.2000000000003
 23
-22.20621576847877
 33
0.0
  0
SOLID
  5
101
330
F7
100
AcDbEntity
  8
0
 62
     0
100
AcDbTrace
 10
96.6496666666668
 20
25.50821576847887
 30
0.0
 11
97.75033333333346
 21
25.50821576847888
 31
0.0
 12
97.20000000000014
 22
22.20621576847888
 32
0.0
 13
97.20000000000014
 23
22.20621576847888
 33
0.0
  0
MTEXT
  5
102
330
F7
100
AcDbEntity
  8
0
 62
     0
370
    15
100
AcDbMText
 10
92.82499999999999
 20
67.00621576847895
 30
0.0
 40
3.5
 41
0.0
 71
     2
 72
     1
  1
\A1;%%c44.41 [1 3/4]
  7
SLDTEXTSTYLE0
 11
-3.519721763874635E-15
 21
1.0
 31
0.0
 73
     1
 44
1.0
  0
POINT
  5
103
330
F7
100
AcDbEntity
  8
Defpoints
 62
     0
100
AcDbPoint
 10
78.19999999999999
 20
-22.20621576847884
 30
0.0
  0
POINT
  5
277
330
F7
100
AcDbEntity
  8
Defpoints
 62
     0
100
AcDbPoint
 10
78.19999999999999
 20
22.20621576847881
 30
0.0
  0
POINT
  5
278
330
F7
100
AcDbEntity
  8
Defpoints
 62
     0
100
AcDbPoint
 10
97.20000000000014
 20
22.20621576847888
 30
0.0
  0
ENDBLK
  5
F9
330
F7
100
AcDbEntity
  8
0
100
AcDbBlockEnd
  0
BLOCK
  5
111
330
110
100
AcDbEntity
  8
0
100
AcDbBlockBegin
  2
SW_DOWELSYMBOL_0
 70
     0
 10
0.0
 20
0.0
 30
0.0
  3
SW_DOWELSYMBOL_0
  1
SW_DOWELSYMBOL_0
  0
CIRCLE
  5
113
330
110
100
AcDbEntity
  8
해칭선
 62
     0
100
AcDbCircle
 10
0.0
 20
0.0
 30
0.0
 40
3.000000000000001
  0
HATCH
  5
114
330
110
100
AcDbEntity
  8
0
  6
Continuous
 62
     0
370
     0
100
AcDbHatch
 10
0.0
 20
0.0
 30
0.0
210
0.0
220
0.0
230
1.0
  2
SOLID
 70
     1
 71
     0
 91
        1
 92
        0
 93
        3
 72
     2
 10
0.0
 20
0.0
 40
3.000000000000001
 50
0.0
 51
90.0
 73
     1
 72
     1
 10
0.0
 20
3.000000000000001
 11
0.0
 21
0.0
 72
     1
 10
0.0
 20
0.0
 11
3.000000000000001
 21
0.0
 97
        0
 75
     0
 76
     1
 98
        1
 10
0.0
 20
0.0
  0
HATCH
  5
115
330
110
100
AcDbEntity
  8
0
  6
Continuous
 62
     0
370
     0
100
AcDbHatch
 10
0.0
 20
0.0
 30
0.0
210
0.0
220
0.0
230
1.0
  2
SOLID
 70
     1
 71
     0
 91
        1
 92
        0
 93
        3
 72
     2
 10
0.0
 20
0.0
 40
3.000000000000001
 50
180.0
 51
270.0000000000007
 73
     1
 72
     1
 10
0.0
 20
-3.000000000000001
 11
0.0
 21
0.0
 72
     1
 10
0.0
 20
0.0
 11
-3.000000000000001
 21
0.0
 97
        0
 75
     0
 76
     1
 98
        1
 10
0.0
 20
0.0
  0
ENDBLK
  5
112
330
110
100
AcDbEntity
  8
0
100
AcDbBlockEnd
  0
BLOCK
  5
1D0
330
1CF
100
AcDbEntity
  8
0
100
AcDbBlockBegin
  2
*D7
 70
     1
 10
0.0
 20
0.0
 30
0.0
  3
*D7
  1
*D9
  0
LINE
  5
1D1
330
1CF
100
AcDbEntity
  8
0
  6
Continuous
 62
     0
370
    -2
100
AcDbLine
 10
26.18148352236124
 20
34.92500000000001
 30
0.0
 11
4.375000000000002
 21
34.92499999999993
 31
0.0
  0
LINE
  5
1D2
330
1CF
100
AcDbEntity
  8
0
  6
Continuous
 62
     0
370
    -2
100
AcDbLine
 10
27.18148352236123
 20
3.175000000000013
 30
0.0
 11
4.375000000000113
 21
3.174999999999931
 31
0.0
  0
LINE
  5
1D3
330
1CF
100
AcDbEntity
  8
0
  6
Continuous
 62
     0
370
    -2
100
AcDbLine
 10
4.375000000000013
 20
31.62299999999993
 30
0.0
 11
4.375000000000101
 21
6.476999999999931
 31
0.0
  0
SOLID
  5
1D4
330
1CF
100
AcDbEntity
  8
0
 62
     0
100
AcDbTrace
 10
4.925333333333347
 20
31.62299999999994
 30
0.0
 11
3.82466666666668
 21
31.62299999999993
 31
0.0
 12
4.375000000000002
 22
34.92499999999993
 32
0.0
 13
4.375000000000002
 23
34.92499999999993
 33
0.0
  0
SOLID
  5
1D5
330
1CF
100
AcDbEntity
  8
0
 62
     0
100
AcDbTrace
 10
3.824666666666768
 20
6.476999999999929
 30
0.0
 11
4.925333333333435
 21
6.476999999999933
 31
0.0
 12
4.375000000000113
 22
3.174999999999931
 32
0.0
 13
4.375000000000113
 23
3.174999999999931
 33
0.0
  0
MTEXT
  5
1D6
330
1CF
100
AcDbEntity
  8
0
 62
     0
370
    15
100
AcDbMText
 10
0.0000000000000568
 20
19.04999999999999
 30
0.0
 40
3.5
 41
0.0
 71
     2
 72
     1
  1
\A1;%%c31.75 [1 1/4]
  7
SLDTEXTSTYLE0
 11
-3.496765431890256E-15
 21
1.0
 31
0.0
 73
     1
 44
1.0
  0
POINT
  5
1D7
330
1CF
100
AcDbEntity
  8
Defpoints
 62
     0
100
AcDbPoint
 10
26.24398352236124
 20
34.92500000000001
 30
0.0
  0
POINT
  5
1D8
330
1CF
100
AcDbEntity
  8
Defpoints
 62
     0
100
AcDbPoint
 10
27.24398352236123
 20
3.175000000000013
 30
0.0
  0
POINT
  5
1D9
330
1CF
100
AcDbEntity
  8
Defpoints
 62
     0
100
AcDbPoint
 10
4.375000000000114
 20
3.174999999999928
 30
0.0
  0
ENDBLK
  5
1DA
330
1CF
100
AcDbEntity
  8
0
100
AcDbBlockEnd
  0
BLOCK
  5
1DD
330
1DC
100
AcDbEntity
  8
0
100
AcDbBlockBegin
  2
*D8
 70
     1
 10
0.0
 20
0.0
 30
0.0
  3
*D8
  1
*D10
  0
LINE
  5
1DE
330
1DC
100
AcDbEntity
  8
0
  6
Continuous
 62
     0
370
    -2
100
AcDbLine
 10
165.9439835223612
 20
38.16250000000001
 30
0.0
 11
165.9439835223612
 21
64.63996586444053
 31
0.0
  0
LINE
  5
1DF
330
1DC
100
AcDbEntity
  8
0
  6
Continuous
 62
     0
370
    -2
100
AcDbLine
 10
26.24398352236124
 20
34.98750000000001
 30
0.0
 11
26.24398352236125
 21
64.63996586444053
 31
0.0
  0
LINE
  5
1E0
330
1DC
100
AcDbEntity
  8
0
  6
Continuous
 62
     0
370
    -2
100
AcDbLine
 10
162.6419835223612
 20
64.63996586444053
 30
0.0
 11
29.54598352236125
 21
64.63996586444053
 31
0.0
  0
SOLID
  5
1E1
330
1DC
100
AcDbEntity
  8
0
 62
     0
100
AcDbTrace
 10
162.6419835223612
 20
64.0896325311072
 30
0.0
 11
162.6419835223612
 21
65.19029919777385
 31
0.0
 12
165.9439835223612
 22
64.63996586444053
 32
0.0
 13
165.9439835223612
 23
64.63996586444053
 33
0.0
  0
SOLID
  5
1E2
330
1DC
100
AcDbEntity
  8
0
 62
     0
100
AcDbTrace
 10
29.54598352236125
 20
65.19029919777385
 30
0.0
 11
29.54598352236125
 21
64.0896325311072
 31
0.0
 12
26.24398352236125
 22
64.63996586444053
 32
0.0
 13
26.24398352236125
 23
64.63996586444053
 33
0.0
  0
MTEXT
  5
1E3
330
1DC
100
AcDbEntity
  8
0
 62
     0
370
    15
100
AcDbMText
 10
96.09398352236124
 20
69.01496586444053
 30
0.0
 40
3.5
 41
0.0
 71
     2
 72
     1
  1
\A1;139.70 [5 1/2]
  7
SLDTEXTSTYLE0
 73
     1
 44
1.0
  0
POINT
  5
1E4
330
1DC
100
AcDbEntity
  8
Defpoints
 62
     0
100
AcDbPoint
 10
165.9439835223612
 20
38.10000000000001
 30
0.0
  0
POINT
  5
1E5
330
1DC
100
AcDbEntity
  8
Defpoints
 62
     0
100
AcDbPoint
 10
26.24398352236124
 20
34.92500000000001
 30
0.0
  0
POINT
  5
1E6
330
1DC
100
AcDbEntity
  8
Defpoints
 62
     0
100
AcDbPoint
 10
26.24398352236124
 20
64.63996586444053
 30
0.0
  0
ENDBLK
  5
1E7
330
1DC
100
AcDbEntity
  8
0
100
AcDbBlockEnd
  0
BLOCK
  5
1FB
330
1FA
100
AcDbEntity
  8
0
100
AcDbBlockBegin
  2
*D9
 70
     1
 10
0.0
 20
0.0
 30
0.0
  3
*D9
  1
*D11
  0
LINE
  5
1FD
330
1FA
100
AcDbEntity
  8
0
  6
Continuous
 62
     0
370
    -2
100
AcDbLine
 10
165.9439835223612
 20
38.16250000000001
 30
0.0
 11
165.9439835223612
 21
49.93541807275226
 31
0.0
  0
LINE
  5
1FE
330
1FA
100
AcDbEntity
  8
0
  6
Continuous
 62
     0
370
    -2
100
AcDbLine
 10
89.74398352236123
 20
34.98749999999999
 30
0.0
 11
89.74398352236123
 21
49.93541807275226
 31
0.0
  0
LINE
  5
1FF
330
1FA
100
AcDbEntity
  8
0
  6
Continuous
 62
     0
370
    -2
100
AcDbLine
 10
162.6419835223612
 20
49.93541807275226
 30
0.0
 11
93.04598352236124
 21
49.93541807275226
 31
0.0
  0
SOLID
  5
200
330
1FA
100
AcDbEntity
  8
0
 62
     0
100
AcDbTrace
 10
162.6419835223612
 20
49.38508473941893
 30
0.0
 11
162.6419835223612
 21
50.4857514060856
 31
0.0
 12
165.9439835223612
 22
49.93541807275226
 32
0.0
 13
165.9439835223612
 23
49.93541807275226
 33
0.0
  0
SOLID
  5
201
330
1FA
100
AcDbEntity
  8
0
 62
     0
100
AcDbTrace
 10
93.04598352236124
 20
50.4857514060856
 30
0.0
 11
93.04598352236124
 21
49.38508473941893
 31
0.0
 12
89.74398352236123
 22
49.93541807275226
 32
0.0
 13
89.74398352236123
 23
49.93541807275226
 33
0.0
  0
MTEXT
  5
202
330
1FA
100
AcDbEntity
  8
0
 62
     0
370
    15
100
AcDbMText
 10
128.1926213065312
 20
54.31041807275226
 30
0.0
 40
3.5
 41
0.0
 71
     2
 72
     1
  1
\A1;76.20 [3]
  7
SLDTEXTSTYLE0
 73
     1
 44
1.0
  0
POINT
  5
203
330
1FA
100
AcDbEntity
  8
Defpoints
 62
     0
100
AcDbPoint
 10
165.9439835223612
 20
38.10000000000001
 30
0.0
  0
POINT
  5
204
330
1FA
100
AcDbEntity
  8
Defpoints
 62
     0
100
AcDbPoint
 10
89.74398352236123
 20
34.92499999999999
 30
0.0
  0
POINT
  5
205
330
1FA
100
AcDbEntity
  8
Defpoints
 62
     0
100
AcDbPoint
 10
89.74398352236123
 20
49.93541807275226
 30
0.0
  0
ENDBLK
  5
1FC
330
1FA
100
AcDbEntity
  8
0
100
AcDbBlockEnd
  0
BLOCK
  5
207
330
206
100
AcDbEntity
  8
0
100
AcDbBlockBegin
  2
*D10
 70
     1
 10
0.0
 20
0.0
 30
0.0
  3
*D10
  1
*D12
  0
LINE
  5
209
330
206
100
AcDbEntity
  8
0
  6
Continuous
 62
     0
370
    -2
100
AcDbLine
 10
166.0064835223612
 20
0.0000000000000002
 30
0.0
 11
184.9439835223615
 21
0.0000000000000711
 31
0.0
  0
LINE
  5
20A
330
206
100
AcDbEntity
  8
0
  6
Continuous
 62
     0
370
    -2
100
AcDbLine
 10
166.0064835223612
 20
38.10000000000001
 30
0.0
 11
184.9439835223614
 21
38.10000000000008
 31
0.0
  0
LINE
  5
20B
330
206
100
AcDbEntity
  8
0
  6
Continuous
 62
     0
370
    -2
100
AcDbLine
 10
184.9439835223614
 20
38.10000000000008
 30
0.0
 11
184.9439835223612
 21
90.92139923012485
 31
0.0
  0
LINE
  5
20C
330
206
100
AcDbEntity
  8
0
  6
Continuous
 62
     0
370
    -2
100
AcDbLine
 10
184.9439835223615
 20
3.302000000000071
 30
0.0
 11
184.9439835223614
 21
34.79800000000008
 31
0.0
  0
SOLID
  5
20D
330
206
100
AcDbEntity
  8
0
 62
     0
100
AcDbTrace
 10
184.3936501890282
 20
3.302000000000068
 30
0.0
 11
185.4943168556948
 21
3.302000000000073
 31
0.0
 12
184.9439835223615
 22
0.0000000000000711
 32
0.0
 13
184.9439835223615
 23
0.0000000000000711
 33
0.0
  0
SOLID
  5
20E
330
206
100
AcDbEntity
  8
0
 62
     0
100
AcDbTrace
 10
185.4943168556947
 20
34.79800000000008
 30
0.0
 11
184.3936501890281
 21
34.79800000000008
 31
0.0
 12
184.9439835223614
 22
38.10000000000008
 32
0.0
 13
184.9439835223614
 23
38.10000000000008
 33
0.0
  0
MTEXT
  5
20F
330
206
100
AcDbEntity
  8
0
 62
     0
370
    15
100
AcDbMText
 10
180.5689835223612
 20
76.48389923012483
 30
0.0
 40
3.5
 41
0.0
 71
     2
 72
     1
  1
\A1;%%c38.1 [1 1/2]
  7
SLDTEXTSTYLE0
 11
-3.729883127349606E-15
 21
1.0
 31
0.0
 73
     1
 44
1.0
  0
POINT
  5
210
330
206
100
AcDbEntity
  8
Defpoints
 62
     0
100
AcDbPoint
 10
165.9439835223612
 20
0.0
 30
0.0
  0
POINT
  5
211
330
206
100
AcDbEntity
  8
Defpoints
 62
     0
100
AcDbPoint
 10
165.9439835223612
 20
38.10000000000001
 30
0.0
  0
POINT
  5
212
330
206
100
AcDbEntity
  8
Defpoints
 62
     0
100
AcDbPoint
 10
184.9439835223613
 20
38.10000000000008
 30
0.0
  0
ENDBLK
  5
208
330
206
100
AcDbEntity
  8
0
100
AcDbBlockEnd
  0
BLOCK
  5
247
330
246
100
AcDbEntity
  8
0
100
AcDbBlockBegin
  2
*D11
 70
     1
 10
0.0
 20
0.0
 30
0.0
  3
*D11
  1
*D13
  0
LINE
  5
249
330
246
100
AcDbEntity
  8
0
  6
Continuous
 62
     0
370
    -2
100
AcDbLine
 10
274.9274122175447
 20
-46.18169225772465
 30
0.0
 11
274.9274122175447
 21
-34.40877418497239
 31
0.0
  0
LINE
  5
24A
330
246
100
AcDbEntity
  8
0
  6
Continuous
 62
     0
370
    -2
100
AcDbLine
 10
198.7274122175447
 20
-49.35669225772467
 30
0.0
 11
198.7274122175447
 21
-34.40877418497239
 31
0.0
  0
LINE
  5
24B
330
246
100
AcDbEntity
  8
0
  6
Continuous
 62
     0
370
    -2
100
AcDbLine
 10
271.6254122175447
 20
-34.40877418497239
 30
0.0
 11
202.0294122175447
 21
-34.40877418497239
 31
0.0
  0
SOLID
  5
24C
330
246
100
AcDbEntity
  8
0
 62
     0
100
AcDbTrace
 10
271.6254122175447
 20
-34.95910751830573
 30
0.0
 11
271.6254122175447
 21
-33.85844085163906
 31
0.0
 12
274.9274122175447
 22
-34.40877418497239
 32
0.0
 13
274.9274122175447
 23
-34.40877418497239
 33
0.0
  0
SOLID
  5
24D
330
246
100
AcDbEntity
  8
0
 62
     0
100
AcDbTrace
 10
202.0294122175447
 20
-33.85844085163906
 30
0.0
 11
202.0294122175447
 21
-34.95910751830573
 31
0.0
 12
198.7274122175447
 22
-34.40877418497239
 32
0.0
 13
198.7274122175447
 23
-34.40877418497239
 33
0.0
  0
MTEXT
  5
24E
330
246
100
AcDbEntity
  8
0
 62
     0
370
    15
100
AcDbMText
 10
237.1760500017147
 20
-30.03377418497239
 30
0.0
 40
3.5
 41
0.0
 71
     2
 72
     1
  1
\A1;76.20 [3]
  7
SLDTEXTSTYLE0
 73
     1
 44
1.0
  0
POINT
  5
24F
330
246
100
AcDbEntity
  8
Defpoints
 62
     0
100
AcDbPoint
 10
274.9274122175447
 20
-46.24419225772465
 30
0.0
  0
POINT
  5
250
330
246
100
AcDbEntity
  8
Defpoints
 62
     0
100
AcDbPoint
 10
198.7274122175447
 20
-49.41919225772467
 30
0.0
  0
POINT
  5
251
330
246
100
AcDbEntity
  8
Defpoints
 62
     0
100
AcDbPoint
 10
198.7274122175447
 20
-34.40877418497239
 30
0.0
  0
ENDBLK
  5
248
330
246
100
AcDbEntity
  8
0
100
AcDbBlockEnd
  0
BLOCK
  5
253
330
252
100
AcDbEntity
  8
0
100
AcDbBlockBegin
  2
*D12
 70
     1
 10
0.0
 20
0.0
 30
0.0
  3
*D12
  1
*D14
  0
LINE
  5
255
330
252
100
AcDbEntity
  8
0
  6
Continuous
 62
     0
370
    -2
100
AcDbLine
 10
274.9899122175447
 20
-84.34419225772466
 30
0.0
 11
293.9274122175449
 21
-84.34419225772459
 31
0.0
  0
LINE
  5
256
330
252
100
AcDbEntity
  8
0
  6
Continuous
 62
     0
370
    -2
100
AcDbLine
 10
274.9899122175447
 20
-46.24419225772465
 30
0.0
 11
293.9274122175448
 21
-46.24419225772458
 31
0.0
  0
LINE
  5
257
330
252
100
AcDbEntity
  8
0
  6
Continuous
 62
     0
370
    -2
100
AcDbLine
 10
293.9274122175448
 20
-46.24419225772458
 30
0.0
 11
293.9274122175447
 21
6.577206972400191
 31
0.0
  0
LINE
  5
258
330
252
100
AcDbEntity
  8
0
  6
Continuous
 62
     0
370
    -2
100
AcDbLine
 10
293.9274122175449
 20
-81.0421922577246
 30
0.0
 11
293.9274122175448
 21
-49.54619225772458
 31
0.0
  0
SOLID
  5
259
330
252
100
AcDbEntity
  8
0
 62
     0
100
AcDbTrace
 10
293.3770788842116
 20
-81.0421922577246
 30
0.0
 11
294.4777455508783
 21
-81.0421922577246
 31
0.0
 12
293.9274122175449
 22
-84.34419225772459
 32
0.0
 13
293.9274122175449
 23
-84.34419225772459
 33
0.0
  0
SOLID
  5
25A
330
252
100
AcDbEntity
  8
0
 62
     0
100
AcDbTrace
 10
294.4777455508782
 20
-49.54619225772458
 30
0.0
 11
293.3770788842115
 21
-49.54619225772458
 31
0.0
 12
293.9274122175448
 22
-46.24419225772458
 32
0.0
 13
293.9274122175448
 23
-46.24419225772458
 33
0.0
  0
MTEXT
  5
25B
330
252
100
AcDbEntity
  8
0
 62
     0
370
    15
100
AcDbMText
 10
289.5524122175447
 20
-7.860293027599822
 30
0.0
 40
3.5
 41
0.0
 71
     2
 72
     1
  1
\A1;%%c38.1 [1 1/2]
  7
SLDTEXTSTYLE0
 11
-2.983906501879685E-15
 21
1.0
 31
0.0
 73
     1
 44
1.0
  0
POINT
  5
25C
330
252
100
AcDbEntity
  8
Defpoints
 62
     0
100
AcDbPoint
 10
274.9274122175447
 20
-84.34419225772466
 30
0.0
  0
POINT
  5
25D
330
252
100
AcDbEntity
  8
Defpoints
 62
     0
100
AcDbPoint
 10
274.9274122175447
 20
-46.24419225772465
 30
0.0
  0
POINT
  5
25E
330
252
100
AcDbEntity
  8
Defpoints
 62
     0
100
AcDbPoint
 10
293.9274122175449
 20
-46.24419225772458
 30
0.0
  0
ENDBLK
  5
254
330
252
100
AcDbEntity
  8
0
100
AcDbBlockEnd
  0
BLOCK
  5
260
330
25F
100
AcDbEntity
  8
0
100
AcDbBlockBegin
  2
*D13
 70
     1
 10
0.0
 20
0.0
 30
0.0
  3
*D13
  1
*D15
  0
LINE
  5
262
330
25F
100
AcDbEntity
  8
0
  6
Continuous
 62
     0
370
    -2
100
AcDbLine
 10
-61.5625
 20
15.87500000000001
 30
0.0
 11
-83.36898352236125
 21
15.87499999999993
 31
0.0
  0
LINE
  5
263
330
25F
100
AcDbEntity
  8
0
  6
Continuous
 62
     0
370
    -2
100
AcDbLine
 10
-60.56250000000003
 20
-15.87499999999999
 30
0.0
 11
-83.36898352236113
 21
-15.87500000000007
 31
0.0
  0
LINE
  5
264
330
25F
100
AcDbEntity
  8
0
  6
Continuous
 62
     0
370
    -2
100
AcDbLine
 10
-83.36898352236123
 20
12.57299999999993
 30
0.0
 11
-83.36898352236115
 21
-12.57300000000007
 31
0.0
  0
SOLID
  5
265
330
25F
100
AcDbEntity
  8
0
 62
     0
100
AcDbTrace
 10
-82.8186501890279
 20
12.57299999999993
 30
0.0
 11
-83.91931685569456
 21
12.57299999999993
 31
0.0
 12
-83.36898352236125
 22
15.87499999999993
 32
0.0
 13
-83.36898352236125
 23
15.87499999999993
 33
0.0
  0
SOLID
  5
266
330
25F
100
AcDbEntity
  8
0
 62
     0
100
AcDbTrace
 10
-83.91931685569448
 20
-12.57300000000007
 30
0.0
 11
-82.81865018902782
 21
-12.57300000000007
 31
0.0
 12
-83.36898352236113
 22
-15.87500000000007
 32
0.0
 13
-83.36898352236113
 23
-15.87500000000007
 33
0.0
  0
MTEXT
  5
267
330
25F
100
AcDbEntity
  8
0
 62
     0
370
    15
100
AcDbMText
 10
-87.74398352236119
 20
-0.0000000000000013
 30
0.0
 40
3.5
 41
0.0
 71
     2
 72
     1
  1
\A1;%%c31.75 [1 1/4]
  7
SLDTEXTSTYLE0
 11
-3.580687802255623E-15
 21
1.0
 31
0.0
 73
     1
 44
1.0
  0
POINT
  5
268
330
25F
100
AcDbEntity
  8
Defpoints
 62
     0
100
AcDbPoint
 10
-61.5
 20
15.87500000000001
 30
0.0
  0
POINT
  5
269
330
25F
100
AcDbEntity
  8
Defpoints
 62
     0
100
AcDbPoint
 10
-60.50000000000003
 20
-15.87499999999999
 30
0.0
  0
POINT
  5
26A
330
25F
100
AcDbEntity
  8
Defpoints
 62
     0
100
AcDbPoint
 10
-83.36898352236113
 20
-15.87500000000007
 30
0.0
  0
ENDBLK
  5
261
330
25F
100
AcDbEntity
  8
0
100
AcDbBlockEnd
  0
BLOCK
  5
26C
330
26B
100
AcDbEntity
  8
0
100
AcDbBlockBegin
  2
*D14
 70
     1
 10
0.0
 20
0.0
 30
0.0
  3
*D14
  1
*D16
  0
LINE
  5
26E
330
26B
100
AcDbEntity
  8
0
  6
Continuous
 62
     0
370
    -2
100
AcDbLine
 10
78.19999999999999
 20
22.26871576847881
 30
0.0
 11
78.19999999999999
 21
45.58996586444053
 31
0.0
  0
LINE
  5
26F
330
26B
100
AcDbEntity
  8
0
  6
Continuous
 62
     0
370
    -2
100
AcDbLine
 10
-61.5
 20
15.93750000000001
 30
0.0
 11
-61.5
 21
45.58996586444053
 31
0.0
  0
LINE
  5
270
330
26B
100
AcDbEntity
  8
0
  6
Continuous
 62
     0
370
    -2
100
AcDbLine
 10
74.898
 20
45.58996586444053
 30
0.0
 11
-58.198
 21
45.58996586444053
 31
0.0
  0
SOLID
  5
271
330
26B
100
AcDbEntity
  8
0
 62
     0
100
AcDbTrace
 10
74.898
 20
45.03963253110719
 30
0.0
 11
74.898
 21
46.14029919777386
 31
0.0
 12
78.19999999999999
 22
45.58996586444053
 32
0.0
 13
78.19999999999999
 23
45.58996586444053
 33
0.0
  0
SOLID
  5
272
330
26B
100
AcDbEntity
  8
0
 62
     0
100
AcDbTrace
 10
-58.198
 20
46.14029919777386
 30
0.0
 11
-58.198
 21
45.03963253110719
 31
0.0
 12
-61.5
 22
45.58996586444053
 32
0.0
 13
-61.5
 23
45.58996586444053
 33
0.0
  0
MTEXT
  5
273
330
26B
100
AcDbEntity
  8
0
 62
     0
370
    15
100
AcDbMText
 10
8.349999999999994
 20
49.96496586444053
 30
0.0
 40
3.5
 41
0.0
 71
     2
 72
     1
  1
\A1;139.70 [5 1/2]
  7
SLDTEXTSTYLE0
 73
     1
 44
1.0
  0
POINT
  5
274
330
26B
100
AcDbEntity
  8
Defpoints
 62
     0
100
AcDbPoint
 10
78.19999999999999
 20
22.20621576847881
 30
0.0
  0
POINT
  5
275
330
26B
100
AcDbEntity
  8
Defpoints
 62
     0
100
AcDbPoint
 10
-61.5
 20
15.87500000000001
 30
0.0
  0
POINT
  5
276
330
26B
100
AcDbEntity
  8
Defpoints
 62
     0
100
AcDbPoint
 10
-61.5
 20
45.58996586444053
 30
0.0
  0
ENDBLK
  5
26D
330
26B
100
AcDbEntity
  8
0
100
AcDbBlockEnd
  0
ENDSEC
  0
SECTION
  2
ENTITIES
  0
LINE
  5
96
330
1F
100
AcDbEntity
  8
0
  6
Continuous
 62
     1
370
    15
100
AcDbLine
 10
8.151397192907751
 20
6.35566198577019
 30
0.0
 11
8.09018380664683
 21
6.389678053600418
 31
0.0
  0
SPLINE
  5
97
330
1F
100
AcDbEntity
  8
0
  6
Continuous
 62
     1
370
    15
100
AcDbSpline
210
0.0
220
0.0
230
1.0
 70
     8
 71
     3
 72
    19
 73
    15
 74
     0
 42
0.000000001
 43
0.00000001
 40
0.0
 40
0.0
 40
0.0
 40
0.0
 40
0.1307689653884891
 40
0.2342754199064155
 40
0.3129705702337503
 40
0.3742026951879272
 40
0.420617198692661
 40
0.469359389477599
 40
0.5262283077854766
 40
0.5920699289429519
 40
0.6689183549474009
 40
0.7571257654354672
 40
0.8655076694847714
 40
1.0
 40
1.0
 40
1.0
 40
1.0
 10
20.61953328451699
 20
5.695175517437452
 30
0.0
 10
20.35810691219508
 20
5.818281076190551
 30
0.0
 10
19.88975593175886
 20
6.038827337943226
 30
0.0
 10
19.2410258656437
 20
6.350643809810305
 30
0.0
 10
18.71715470044731
 20
6.605281960111074
 30
0.0
 10
18.32103032248377
 20
6.79954639602209
 30
0.0
 10
18.01259270941116
 20
6.95208563793024
 30
0.0
 10
17.70980965453841
 20
7.102575753414932
 30
0.0
 10
17.35972747255779
 20
7.277687987958091
 30
0.0
 10
16.9471643382459
 20
7.485649883461033
 30
0.0
 10
16.46438714509016
 20
7.731186153009047
 30
0.0
 10
15.88498407610439
 20
8.0287763793708
 30
0.0
 10
15.2023544752861
 20
8.383836724448853
 30
0.0
 10
14.72196979064903
 20
8.638085031926174
 30
0.0
 10
14.45595534125097
 20
8.778875789181619
 30
0.0
  0
SPLINE
  5
98
330
1F
100
AcDbEntity
  8
0
  6
Continuous
 62
     1
370
    15
100
AcDbSpline
210
0.0
220
0.0
230
1.0
 70
     8
 71
     3
 72
    21
 73
    17
 74
     0
 42
0.000000001
 43
0.00000001
 40
0.0
 40
0.0
 40
0.0
 40
0.0
 40
0.0772782837128019
 40
0.1419968046384109
 40
0.1991060486358968
 40
0.2918675072313864
 40
0.3829002026549413
 40
0.4715031557097404
 40
0.5734231025575225
 40
0.6671686451978076
 40
0.695844008868411
 40
0.7292583990482339
 40
0.7762714678734953
 40
0.8370161672763952
 40
0.9115915561119271
 40
1.0
 40
1.0
 40
1.0
 40
1.0
 10
13.27397809229318
 20
17.66084948482784
 30
0.0
 10
13.04909713821863
 20
17.64798034343498
 30
0.0
 10
12.63588432643702
 20
17.62433363612693
 30
0.0
 10
11.932524817051
 20
17.58313466431495
 30
0.0
 10
11.08600589628755
 20
17.54681179901107
 30
0.0
 10
10.16445350034235
 20
17.51604227565609
 30
0.0
 10
9.10136657153956
 20
17.47755754120793
 30
0.0
 10
8.00263331307723
 20
17.44265109928081
 30
0.0
 10
6.919280677063185
 20
17.41438172373205
 30
0.0
 10
6.074454298954008
 20
17.39671328145818
 30
0.0
 10
5.478531588554289
 20
17.38615021968255
 30
0.0
 10
5.060301457400723
 20
17.3794541186744
 30
0.0
 10
4.519380945249621
 20
17.37196883672988
 30
0.0
 10
3.820628633730307
 20
17.3644285099222
 30
0.0
 10
2.963260846767232
 20
17.35810329041769
 30
0.0
 10
2.338755007388484
 20
17.35710633368328
 30
0.0
 10
1.999999999999988
 20
17.35656554756948
 30
0.0
  0
SPLINE
  5
99
330
1F
100
AcDbEntity
  8
0
  6
Continuous
 62
     1
370
    15
100
AcDbSpline
210
0.0
220
0.0
230
1.0
 70
     8
 71
     3
 72
    50
 73
    46
 74
     0
 42
0.000000001
 43
0.00000001
 40
0.0
 40
0.0
 40
0.0
 40
0.0
 40
0.0286140453590678
 40
0.053093254993087
 40
0.0735229865544417
 40
0.0901502806253176
 40
0.1041173167232198
 40
0.1191863365053708
 40
0.1390975389846271
 40
0.1607379647923737
 40
0.1800806650236553
 40
0.1964841547974874
 40
0.2202866832539881
 40
0.2426921508722557
 40
0.2659970089736284
 40
0.2923601175971217
 40
0.3196077711466285
 40
0.3510610762452752
 40
0.3821394536921609
 40
0.4092756671686254
 40
0.433761075424218
 40
0.4560223851363218
 40
0.4767362987450899
 40
0.4966385191043799
 40
0.5204302156743875
 40
0.5478377268941925
 40
0.5794124967288209
 40
0.6140899759433583
 40
0.6458414409606718
 40
0.6743176071253684
 40
0.7000190993335949
 40
0.7236738678711327
 40
0.7417373321373105
 40
0.7613031349260109
 40
0.7848016756332734
 40
0.8106105174371636
 40
0.8362400633517519
 40
0.8520300674078553
 40
0.8671006164268192
 40
0.8815052357188898
 40
0.8958756098594366
 40
0.9142026969928037
 40
0.9376151336329157
 40
0.9662198024743176
 40
0.9999999999999999
 40
0.9999999999999999
 40
0.9999999999999999
 40
0.9999999999999999
 10
69.94114974780425
 20
15.20084522786138
 30
0.0
 10
69.59539194826328
 20
15.17149655133047
 30
0.0
 10
68.9538396341282
 20
15.11704019092383
 30
0.0
 10
68.04002258619401
 20
15.04522976082324
 30
0.0
 10
67.25404112270891
 20
14.98817953627416
 30
0.0
 10
66.57902074842907
 20
14.94399740729227
 30
0.0
 10
65.96719179831457
 20
14.90774626827498
 30
0.0
 10
65.31425156663823
 20
14.86974443273453
 30
0.0
 10
64.56581084588146
 20
14.8291487229396
 30
0.0
 10
63.77343573655723
 20
14.79019962109578
 30
0.0
 10
63.0266079009814
 20
14.75736583585797
 30
0.0
 10
62.25320724087882
 20
14.7268486184015
 30
0.0
 10
61.44205579279141
 20
14.69903820544475
 30
0.0
 10
60.54136705055463
 20
14.67350341158325
 30
0.0
 10
59.60360670929374
 20
14.65242701527266
 30
0.0
 10
58.59183293633648
 20
14.63608069355434
 30
0.0
 10
57.48271761216754
 20
14.62594285560666
 30
0.0
 10
56.33015481834214
 20
14.62438497937067
 30
0.0
 10
55.17880951613324
 20
14.63182584490667
 30
0.0
 10
54.10449712491852
 20
14.64675297897246
 30
0.0
 10
53.14514749331718
 20
14.66648350564086
 30
0.0
 10
52.27102214401161
 20
14.68972173618512
 30
0.0
 10
51.45696288993908
 20
14.71587993879985
 30
0.0
 10
50.62197515006923
 20
14.747001693644
 30
0.0
 10
49.69978661499825
 20
14.78647721858798
 30
0.0
 10
48.62632099637049
 20
14.83937529418823
 30
0.0
 10
47.41117518836517
 20
14.90829934837956
 30
0.0
 10
46.13984616690747
 20
14.99115287259994
 30
0.0
 10
44.90586630473877
 20
15.08161202528784
 30
0.0
 10
43.78846605603668
 20
15.17175217663034
 30
0.0
 10
42.78068999314311
 20
15.25972481486493
 30
0.0
 10
41.90915064819439
 20
15.34101574259226
 30
0.0
 10
41.11461284166362
 20
15.41920334616854
 30
0.0
 10
40.32188232629916
 20
15.50067168050564
 30
0.0
 10
39.42917120666717
 20
15.5968445032269
 30
0.0
 10
38.45870444394659
 20
15.70689341419267
 30
0.0
 10
37.59067360282473
 20
15.81044528321876
 30
0.0
 10
36.86365097036694
 20
15.90056300136824
 30
0.0
 10
36.26918100824503
 20
15.97647855731508
 30
0.0
 10
35.68771899486021
 20
16.05273558069354
 30
0.0
 10
35.06167219526321
 20
16.13570107451169
 30
0.0
 10
34.32169712951094
 20
16.23692674322005
 30
0.0
 10
33.41358368262012
 20
16.36640009219769
 30
0.0
 10
32.32211950066905
 20
16.52812640672336
 30
0.0
 10
31.53953108067024
 20
16.65012540631467
 30
0.0
 10
31.11577460015913
 20
16.71618550300351
 30
0.0
  0
SPLINE
  5
9A
330
1F
100
AcDbEntity
  8
0
  6
Continuous
 62
     1
370
    15
100
AcDbSpline
210
0.0
220
0.0
230
1.0
 70
     8
 71
     3
 72
    25
 73
    21
 74
     0
 42
0.000000001
 43
0.00000001
 40
0.0
 40
0.0
 40
0.0
 40
0.0
 40
0.0431041019405311
 40
0.0845814039048654
 40
0.1258974668847025
 40
0.1685987876519725
 40
0.2330054403932929
 40
0.28681654036401
 40
0.3285210591604876
 40
0.3663859158051158
 40
0.4087331497816999
 40
0.4554648629714415
 40
0.5142006774124372
 40
0.5771985993296591
 40
0.6444663952784894
 40
0.7142595972920481
 40
0.8093110086648398
 40
0.8887805829560705
 40
0.9581399761647343
 40
1.0
 40
1.0
 40
1.0
 40
1.0
 10
31.11577460015913
 20
-16.71618550300355
 30
0.0
 10
31.29876437628683
 20
-16.68681239803409
 30
0.0
 10
31.6578376771637
 20
-16.62917476394559
 30
0.0
 10
32.29214123855552
 20
-16.52690543626405
 30
0.0
 10
32.97618173856032
 20
-16.42265625627746
 30
0.0
 10
33.82273430246823
 20
-16.30198239343874
 30
0.0
 10
34.73810040826338
 20
-16.17926978959249
 30
0.0
 10
35.6493180533945
 20
-16.05757841273149
 30
0.0
 10
36.41133719812697
 20
-15.95793859560485
 30
0.0
 10
37.10226642687091
 20
-15.87028164913763
 30
0.0
 10
37.79559103998179
 20
-15.78580536871156
 30
0.0
 10
38.58066273849165
 20
-15.69301778214523
 30
0.0
 10
39.51613764367189
 20
-15.58692444997809
 30
0.0
 10
40.58302895136823
 20
-15.47290396585023
 30
0.0
 10
41.7042073711153
 20
-15.36007506174172
 30
0.0
 10
42.99802135573416
 20
-15.23924278233861
 30
0.0
 10
44.35933050656056
 20
-15.12369781610552
 30
0.0
 10
45.71918807143495
 20
-15.02125639066731
 30
0.0
 10
46.77866875322023
 20
-14.9482477062735
 30
0.0
 10
47.39246486702046
 20
-14.91210561410131
 30
0.0
 10
47.62348136249016
 20
-14.89850269403576
 30
0.0
  0
SPLINE
  5
9B
330
1F
100
AcDbEntity
  8
0
  6
Continuous
 62
     1
370
    15
100
AcDbSpline
210
0.0
220
0.0
230
1.0
 70
     8
 71
     3
 72
    25
 73
    21
 74
     0
 42
0.000000001
 43
0.00000001
 40
0.0
 40
0.0
 40
0.0
 40
0.0
 40
0.088403359542709
 40
0.1629744595680768
 40
0.2237156655599724
 40
0.2756413666902736
 40
0.3111872425216547
 40
0.3438950122834925
 40
0.3782309500667908
 40
0.4142052990387414
 40
0.4517126712171444
 40
0.4898599856648139
 40
0.5285680312182791
 40
0.6352558662058428
 40
0.745011733004735
 40
0.7728903843118311
 40
0.800905401898361
 40
0.8580113615588857
 40
0.9227261605401045
 40
1.0
 40
1.0
 40
1.0
 40
1.0
 10
1.999999999999988
 20
-17.35656554756951
 30
0.0
 10
2.338755348528075
 20
-17.35710636842145
 30
0.0
 10
2.963261816808706
 20
-17.35810338919671
 30
0.0
 10
3.820625692525135
 20
-17.3644282104203
 30
0.0
 10
4.538227275936043
 20
-17.37217296438575
 30
0.0
 10
5.106122189167343
 20
-17.38010774152
 30
0.0
 10
5.566914182465317
 20
-17.38763778178775
 30
0.0
 10
5.958433020727869
 20
-17.39476596415687
 30
0.0
 10
6.349540811275066
 20
-17.40258274956992
 30
0.0
 10
6.757169135844961
 20
-17.4114774536034
 30
0.0
 10
7.17612541794813
 20
-17.42135096673445
 30
0.0
 10
7.612422454138828
 20
-17.43259191780584
 30
0.0
 10
8.319840912870106
 20
-17.45249273454086
 30
0.0
 10
9.316481837303451
 20
-17.48488513723659
 30
0.0
 10
10.26682604095507
 20
-17.51922644978468
 30
0.0
 10
10.90576753142605
 20
-17.54219338403783
 30
0.0
 10
11.33995366135459
 20
-17.5572501458925
 30
0.0
 10
11.93308995082402
 20
-17.58333627941428
 30
0.0
 10
12.6357018701834
 20
-17.62426854368788
 30
0.0
 10
13.04903283585653
 20
-17.64795740315478
 30
0.0
 10
13.27397809229319
 20
-17.66084948482787
 30
0.0
  0
SPLINE
  5
9C
330
1F
100
AcDbEntity
  8
0
  6
Continuous
 62
     1
370
    15
100
AcDbSpline
210
0.0
220
0.0
230
1.0
 70
     8
 71
     3
 72
    58
 73
    54
 74
     0
 42
0.000000001
 43
0.00000001
 40
0.0
 40
0.0
 40
0.0
 40
0.0
 40
0.0625000000000002
 40
0.0625000000000002
 40
0.09375
 40
0.09375
 40
0.1249999999999999
 40
0.1249999999999999
 40
0.1562499999999998
 40
0.1562499999999998
 40
0.1874999999999997
 40
0.1874999999999997
 40
0.2187499999999998
 40
0.2187499999999998
 40
0.2499999999999998
 40
0.2499999999999998
 40
0.2812499999999999
 40
0.2812499999999999
 40
0.3125
 40
0.3125
 40
0.3750000000000001
 40
0.3750000000000001
 40
0.4062500000000002
 40
0.4062500000000002
 40
0.4375000000000003
 40
0.4375000000000003
 40
0.4687500000000004
 40
0.4687500000000004
 40
0.5000000000000004
 40
0.5000000000000004
 40
0.5312500000000006
 40
0.5312500000000006
 40
0.5625000000000006
 40
0.5625000000000006
 40
0.6250000000000006
 40
0.6250000000000006
 40
0.6875000000000004
 40
0.6875000000000004
 40
0.7500000000000003
 40
0.7500000000000003
 40
0.7812500000000003
 40
0.7812500000000003
 40
0.8125000000000003
 40
0.8125000000000003
 40
0.8437500000000003
 40
0.8437500000000003
 40
0.8750000000000002
 40
0.8750000000000002
 40
0.9062500000000002
 40
0.9062500000000002
 40
0.9375000000000002
 40
0.9375000000000002
 40
1.0
 40
1.0
 40
1.0
 40
1.0
 10
78.19999999999999
 20
-22.20621576847884
 30
0.0
 10
76.61619981947179
 20
-22.16857012157105
 30
0.0
 10
75.02234146986811
 20
-22.07406810258297
 30
0.0
 10
72.64380051608744
 20
-21.84855071792336
 30
0.0
 10
71.85149789202785
 20
-21.75943010242649
 30
0.0
 10
70.26258903214881
 20
-21.55337537320934
 30
0.0
 10
69.46742267901625
 20
-21.43648443980241
 30
0.0
 10
67.88022723825497
 20
-21.17567556775873
 30
0.0
 10
67.08892610143492
 20
-21.03182538866989
 30
0.0
 10
65.50080752588906
 20
-20.71715730176691
 30
0.0
 10
64.70556138511935
 20
-20.54641594632178
 30
0.0
 10
63.11725803194518
 20
-20.17909516339785
 30
0.0
 10
62.32584889329001
 20
-19.98266870557524
 30
0.0
 10
60.73891492560553
 20
-19.56426497278247
 30
0.0
 10
59.94378714243977
 20
-19.34229754815975
 30
0.0
 10
58.35477035344429
 20
-18.87407239946535
 30
0.0
 10
57.56214381322336
 20
-18.62795351757637
 30
0.0
 10
55.97678779615735
 20
-18.11229998661838
 30
0.0
 10
55.18197641745918
 20
-17.84252575548649
 30
0.0
 10
52.797973681906
 20
-16.99959500598395
 30
0.0
 10
51.21463480349814
 20
-16.39353179708651
 30
0.0
 10
48.83074751343834
 20
-15.42295551667095
 30
0.0
 10
48.0357894170611
 20
-15.089326353857
 30
0.0
 10
46.44977236383602
 20
-14.40381370232372
 30
0.0
 10
45.65775163975739
 20
-14.05180634869653
 30
0.0
 10
44.06896567794139
 20
-13.32961096349416
 30
0.0
 10
43.27376826166773
 20
-12.95964727929189
 30
0.0
 10
41.68632626298869
 20
-12.20412459995892
 30
0.0
 10
40.89509108042712
 20
-11.81874259569209
 30
0.0
 10
39.30717222663881
 20
-11.03251998257936
 30
0.0
 10
38.51193359520841
 20
-10.63190278594056
 30
0.0
 10
36.92346041433642
 20
-9.817950272466556
 30
0.0
 10
36.13190122965569
 20
-9.40491387556514
 30
0.0
 10
33.75191484817991
 20
-8.147700719321376
 30
0.0
 10
32.16056132995706
 20
-7.285759575439001
 30
0.0
 10
28.9905549150571
 20
-5.531452773915539
 30
0.0
 10
27.39664911764432
 20
-4.636273041739208
 30
0.0
 10
24.22748102710522
 20
-2.83033832060886
 30
0.0
 10
22.63525871987957
 20
-1.916385245038883
 30
0.0
 10
20.25577083129755
 20
-0.5433031017703724
 30
0.0
 10
19.46398998218271
 20
-0.0852368148972872
 30
0.0
 10
17.87534188351604
 20
0.8313988839648965
 30
0.0
 10
17.08012091190556
 20
1.289650605054526
 30
0.0
 10
15.49244727820332
 20
2.203393531327543
 30
0.0
 10
14.70123600025564
 20
2.658648818163817
 30
0.0
 10
13.11353180608466
 20
3.566199761867069
 30
0.0
 10
12.3183081930963
 20
4.018249240195084
 30
0.0
 10
10.72968013978957
 20
4.916299885481878
 30
0.0
 10
9.937928869597108
 20
5.361993924183391
 30
0.0
 10
8.351562560269945
 20
6.246519448050551
 30
0.0
 10
7.556534432418564
 20
6.685421391004066
 30
0.0
 10
5.172752841473689
 20
7.988246607534742
 30
0.0
 10
3.589352191808615
 20
8.837572765994825
 30
0.0
 10
1.999999999999964
 20
9.663269468982056
 30
0.0
  0
SPLINE
  5
9D
330
1F
100
AcDbEntity
  8
0
  6
Continuous
 62
     1
370
    15
100
AcDbSpline
210
0.0
220
0.0
230
1.0
 70
     8
 71
     3
 72
    12
 73
     8
 74
     0
 42
0.000000001
 43
0.00000001
 40
0.0
 40
0.0
 40
0.0
 40
0.0
 40
0.20140902655833
 40
0.401051823137103
 40
0.600766097765611
 40
0.8004086266367036
 40
1.0
 40
1.0
 40
1.0
 40
1.0
 10
22.9908597500135
 20
-2.116628577403747
 30
0.0
 10
21.58157810618907
 20
-1.550647903218033
 30
0.0
 10
18.77537332864027
 20
-0.423649847960517
 30
0.0
 10
14.57196329874276
 20
1.27943384667501
 30
0.0
 10
10.38055152281137
 20
2.957685681819722
 30
0.0
 10
6.18980020270699
 20
4.60740651361937
 30
0.0
 10
3.396480761005695
 20
5.657636711383833
 30
0.0
 10
1.999999999999988
 20
6.18268452507464
 30
0.0
  0
SPLINE
  5
9E
330
1F
100
AcDbEntity
  8
외형선
  6
Continuous
370
    15
100
AcDbSpline
210
0.0
220
0.0
230
1.0
 70
    24
 71
     3
 72
    14
 73
    10
 74
     0
 42
0.000000001
 43
0.00000001
 40
0.0
 40
0.0
 40
0.0
 40
0.0
 40
0.2499999999999998
 40
0.2499999999999998
 40
0.4999999999999997
 40
0.4999999999999997
 40
0.7499999999999996
 40
0.7499999999999996
 40
1.0
 40
1.0
 40
1.0
 40
1.0
 10
1.999999999999988
 20
9.66326946898204
 30
0.0
 10
1.999999999999988
 20
9.572772921330824
 30
0.0
 10
1.999999999999988
 20
9.425642612330448
 30
0.0
 10
1.999999999999988
 20
9.02155833602547
 30
0.0
 10
1.999999999999988
 20
8.764656481776278
 30
0.0
 10
1.999999999999988
 20
8.15718456250991
 30
0.0
 10
1.999999999999988
 20
7.806771181926657
 30
0.0
 10
1.999999999999988
 20
7.038026232118218
 30
0.0
 10
1.999999999999988
 20
6.619890106690712
 30
0.0
 10
1.999999999999988
 20
6.182684525074643
 30
0.0
  0
SPLINE
  5
9F
330
1F
100
AcDbEntity
  8
0
  6
Continuous
 62
     1
370
    15
100
AcDbSpline
210
0.0
220
0.0
230
1.0
 70
     8
 71
     3
 72
    58
 73
    54
 74
     0
 42
0.000000001
 43
0.00000001
 40
0.0
 40
0.0
 40
0.0
 40
0.0
 40
0.0624999999999999
 40
0.0624999999999999
 40
0.0937499999999998
 40
0.0937499999999998
 40
0.1249999999999998
 40
0.1249999999999998
 40
0.1562499999999997
 40
0.1562499999999997
 40
0.1874999999999997
 40
0.1874999999999997
 40
0.2187499999999996
 40
0.2187499999999996
 40
0.2499999999999996
 40
0.2499999999999996
 40
0.2812499999999995
 40
0.2812499999999995
 40
0.3124999999999994
 40
0.3124999999999994
 40
0.3749999999999994
 40
0.3749999999999994
 40
0.4062499999999993
 40
0.4062499999999993
 40
0.4374999999999993
 40
0.4374999999999993
 40
0.4687499999999992
 40
0.4687499999999992
 40
0.4999999999999992
 40
0.4999999999999992
 40
0.5312499999999992
 40
0.5312499999999992
 40
0.5624999999999991
 40
0.5624999999999991
 40
0.6249999999999992
 40
0.6249999999999992
 40
0.6874999999999993
 40
0.6874999999999993
 40
0.7499999999999994
 40
0.7499999999999994
 40
0.7812499999999996
 40
0.7812499999999996
 40
0.8124999999999997
 40
0.8124999999999997
 40
0.8437499999999997
 40
0.8437499999999997
 40
0.8749999999999998
 40
0.8749999999999998
 40
0.9062499999999998
 40
0.9062499999999998
 40
0.9374999999999999
 40
0.9374999999999999
 40
1.0
 40
1.0
 40
1.0
 40
1.0
 10
78.20000000000002
 20
-21.09021081867899
 30
0.0
 10
76.61619981947177
 20
-20.80130801305391
 30
0.0
 10
75.02234146986804
 20
-20.45787297761439
 30
0.0
 10
72.64380051608725
 20
-19.86671830568832
 30
0.0
 10
71.85149789202768
 20
-19.65693115611848
 30
0.0
 10
70.26258903214857
 20
-19.21216205364299
 30
0.0
 10
69.46742267901595
 20
-18.9772975791951
 30
0.0
 10
67.88022723825463
 20
-18.48398240977991
 30
0.0
 10
67.0889261014346
 20
-18.22563163599299
 30
0.0
 10
65.50080752588869
 20
-17.68542126631613
 30
0.0
 10
64.70556138511897
 20
-17.40371651270296
 30
0.0
 10
63.11725803194471
 20
-16.81872151845342
 30
0.0
 10
62.32584889328956
 20
-16.51565552835488
 30
0.0
 10
60.73891492560504
 20
-15.8883419971462
 30
0.0
 10
59.94378714243924
 20
-15.56412621825687
 30
0.0
 10
58.35477035344369
 20
-14.89641023153981
 30
0.0
 10
57.56214381322278
 20
-14.55309897552617
 30
0.0
 10
55.97678779615673
 20
-13.84836889455028
 30
0.0
 10
55.18197641745851
 20
-13.48663083577856
 30
0.0
 10
52.79797368190525
 20
-12.37634360442539
 30
0.0
 10
51.21463480349739
 20
-11.60361075913118
 30
0.0
 10
48.83074751343749
 20
-10.40166806448581
 30
0.0
 10
48.03578941706023
 20
-9.994064713254813
 30
0.0
 10
46.44977236383513
 20
-9.167310695845742
 30
0.0
 10
45.65775163975646
 20
-8.748002385888958
 30
0.0
 10
44.06896567794038
 20
-7.897923745325713
 30
0.0
 10
43.27376826166672
 20
-7.46742533779355
 30
0.0
 10
41.68632626298763
 20
-6.597988421281524
 30
0.0
 10
40.89509108042601
 20
-6.159243631276095
 30
0.0
 10
39.30717222663768
 20
-5.273456819840889
 30
0.0
 10
38.51193359520726
 20
-4.826676073650421
 30
0.0
 10
36.92346041433521
 20
-3.927900987957786
 30
0.0
 10
36.13190122965448
 20
-3.476228413795332
 30
0.0
 10
33.75191484817861
 20
-2.114424319585607
 30
0.0
 10
32.16056132995573
 20
-1.197938332146268
 30
0.0
 10
28.99055491505567
 20
0.6340411615957654
 30
0.0
 10
27.39664911764284
 20
1.552456935366688
 30
0.0
 10
24.22748102710367
 20
3.373140062648041
 30
0.0
 10
22.63525871987794
 20
4.278642027892602
 30
0.0
 10
20.25577083129587
 20
5.615416192697658
 30
0.0
 10
19.463989982181
 20
6.057456367949325
 30
0.0
 10
17.87534188351427
 20
6.934189935391514
 30
0.0
 10
17.08012091190379
 20
7.368572662936331
 30
0.0
 10
15.49244727820151
 20
8.226883450076711
 30
0.0
 10
14.7012360002538
 20
8.650598199542488
 30
0.0
 10
13.11353180608276
 20
9.487400086880756
 30
0.0
 10
12.31830819309439
 20
9.900251884345302
 30
0.0
 10
10.72968013978761
 20
10.71248137428508
 30
0.0
 10
9.93792886959511
 20
11.11158831070066
 30
0.0
 10
8.351562560267888
 20
11.89561894091842
 30
0.0
 10
7.556534432416489
 20
12.2805979658787
 30
0.0
 10
5.17275284147155
 20
13.41107286296439
 30
0.0
 10
3.589352191806429
 20
14.13150672243993
 30
0.0
 10
1.999999999997749
 20
14.81498586010921
 30
0.0
  0
SPLINE
  5
A0
330
1F
100
AcDbEntity
  8
0
  6
Continuous
 62
     1
370
    15
100
AcDbSpline
210
0.0
220
0.0
230
1.0
 70
     8
 71
     3
 72
    22
 73
    18
 74
     0
 42
0.000000001
 43
0.00000001
 40
0.0
 40
0.0
 40
0.0
 40
0.0
 40
0.0687972849895405
 40
0.1375603172485675
 40
0.2063223728439519
 40
0.2751167330758371
 40
0.3439168249802501
 40
0.412680948392347
 40
0.4814421418315311
 40
0.5502336912178897
 40
0.6190362404382993
 40
0.68780156947277
 40
0.7565620152790982
 40
0.8253508677838138
 40
0.8941555246715593
 40
0.9629221737754725
 40
1.0
 40
1.0
 40
1.0
 40
1.0
 10
78.2
 20
-17.53490857558362
 30
0.0
 10
76.87874759934341
 20
-17.27583418818314
 30
0.0
 10
74.2369006219898
 20
-16.75781440110569
 30
0.0
 10
70.27491756090625
 20
-15.75332825513268
 30
0.0
 10
66.31299093096982
 20
-14.59534614248278
 30
0.0
 10
62.34996200425294
 20
-13.27955771124833
 30
0.0
 10
58.38679607087798
 20
-11.82431713154618
 30
0.0
 10
54.42475265900945
 20
-10.24311792332768
 30
0.0
 10
50.46287556503414
 20
-8.5535761894238
 30
0.0
 10
46.49991655597329
 20
-6.773754554459067
 30
0.0
 10
42.53669231290316
 20
-4.922582254853701
 30
0.0
 10
38.57458800411641
 20
-3.018500010178282
 30
0.0
 10
34.61275351364482
 20
-1.082774999338988
 30
0.0
 10
30.64986510940575
 20
0.8649639290335236
 30
0.0
 10
26.68658595070053
 20
2.800111499413977
 30
0.0
 10
23.33282312699636
 20
4.423079783138824
 30
0.0
 10
21.30027798873528
 20
5.370689816750613
 30
0.0
 10
20.5882677000915
 20
5.702642146296865
 30
0.0
  0
LINE
  5
A1
330
1F
100
AcDbEntity
  8
0
  6
Continuous
 62
     1
370
    15
100
AcDbLine
 10
78.2
 20
-21.090210818679
 30
0.0
 11
78.2
 21
-17.53490857558362
 31
0.0
  0
LINE
  5
A2
330
1F
100
AcDbEntity
  8
외형선
  6
Continuous
370
    15
100
AcDbLine
 10
1.999999999999985
 20
9.663269468982039
 30
0.0
 11
2.000000000000006
 21
14.81498586010407
 31
0.0
  0
LINE
  5
A3
330
1F
100
AcDbEntity
  8
0
  6
Continuous
 62
     1
370
    15
100
AcDbLine
 10
78.19999999999999
 20
-22.20621576847884
 30
0.0
 11
78.2
 21
-21.090210818679
 31
0.0
  0
SPLINE
  5
A4
330
1F
100
AcDbEntity
  8
0
  6
Continuous
 62
     1
370
    15
100
AcDbSpline
210
0.0
220
0.0
230
1.0
 70
     8
 71
     3
 72
    24
 73
    20
 74
     0
 42
0.000000001
 43
0.00000001
 40
0.0
 40
0.0
 40
0.0
 40
0.0
 40
0.0610458020991239
 40
0.1220607858561899
 40
0.1830748907714124
 40
0.2441180610799082
 40
0.3051663889168989
 40
0.3661823545498288
 40
0.4271956836735322
 40
0.4882363247030446
 40
0.5492868636599411
 40
0.6103039141845441
 40
0.671316570581444
 40
0.7323547848904547
 40
0.7934072203046191
 40
0.8544254587165818
 40
0.9154375454638735
 40
0.9799802616064937
 40
1.0
 40
1.0
 40
1.0
 40
1.0
 10
78.2
 20
-0.0000000000000036
 30
0.0
 10
76.87874916957804
 20
0.6100828454459891
 30
0.0
 10
74.2369145285559
 20
1.829940542320891
 30
0.0
 10
70.27491344300448
 20
3.641049920010282
 30
0.0
 10
66.31296955583399
 20
5.41357539858937
 30
0.0
 10
62.34995018408382
 20
7.128374260329529
 30
0.0
 10
58.38680239480336
 20
8.767578698091592
 30
0.0
 10
54.42474032812837
 20
10.31453507805675
 30
0.0
 10
50.46284668122399
 20
11.7522009745238
 30
0.0
 10
46.49989317151096
 20
13.06519358305895
 30
0.0
 10
42.53669080929332
 20
14.23969416980055
 30
0.0
 10
38.57456743543952
 20
15.26392081036978
 30
0.0
 10
34.61271733999457
 20
16.12637389850983
 30
0.0
 10
30.64982942871713
 20
16.8182503049586
 30
0.0
 10
26.68658006792851
 20
17.33098920206092
 30
0.0
 10
22.72439577163779
 20
17.6641924129999
 30
0.0
 10
18.68668712106587
 20
17.79891789295588
 30
0.0
 10
15.53606299625169
 20
17.79242457615573
 30
0.0
 10
13.70580449781988
 20
17.66791678843231
 30
0.0
 10
13.27249994756652
 20
17.63844019208882
 30
0.0
  0
SPLINE
  5
A5
330
1F
100
AcDbEntity
  8
0
  6
Continuous
 62
     1
370
    15
100
AcDbSpline
210
0.0
220
0.0
230
1.0
 70
    24
 71
     3
 72
    14
 73
    10
 74
     0
 42
0.000000001
 43
0.00000001
 40
0.0
 40
0.0
 40
0.0
 40
0.0
 40
0.2500000000000001
 40
0.2500000000000001
 40
0.5000000000000001
 40
0.5000000000000001
 40
0.75
 40
0.75
 40
1.0
 40
1.0
 40
1.0
 40
1.0
 10
78.2
 20
-17.53490857558361
 30
0.0
 10
78.20000000000002
 20
-16.58612669045717
 30
0.0
 10
78.20000000000002
 20
-15.46302083053628
 30
0.0
 10
78.20000000000002
 20
-12.91249390880116
 30
0.0
 10
78.2
 20
-11.48543230176423
 30
0.0
 10
78.2
 20
-8.420772578566503
 30
0.0
 10
78.20000000000002
 20
-6.784059443102648
 30
0.0
 10
78.20000000000003
 20
-3.424447097485585
 30
0.0
 10
78.20000000000002
 20
-1.702544449778129
 30
0.0
 10
78.2
 20
-0.0000000000000036
 30
0.0
  0
SPLINE
  5
A6
330
1F
100
AcDbEntity
  8
외형선
  6
Continuous
370
    15
100
AcDbSpline
210
0.0
220
0.0
230
1.0
 70
    24
 71
     3
 72
    14
 73
    10
 74
     0
 42
0.000000001
 43
0.00000001
 40
0.0
 40
0.0
 40
0.0
 40
0.0
 40
0.0381114606400758
 40
0.2217775687661656
 40
0.410779574712736
 40
0.5997815806593063
 40
0.7659185809768477
 40
0.9320555812943889
 40
1.0
 40
1.0
 40
1.0
 40
1.0
 10
2.000000000000009
 20
17.34256037307882
 30
0.0
 10
2.000000000000009
 20
17.34689795685149
 30
0.0
 10
2.000000000000009
 20
17.37213915116062
 30
0.0
 10
2.000000000000009
 20
17.25205542465421
 30
0.0
 10
2.000000000000008
 20
16.96773364576282
 30
0.0
 10
2.000000000000015
 20
16.51207755360147
 30
0.0
 10
1.999999999999996
 20
15.92144794726045
 30
0.0
 10
1.999999999999982
 20
15.38672200992414
 30
0.0
 10
1.999999999999982
 20
14.99587712611907
 30
0.0
 10
1.999999999999982
 20
14.88243058027609
 30
0.0
  0
SPLINE
  5
A7
330
1F
100
AcDbEntity
  8
0
  6
Continuous
 62
     1
370
    15
100
AcDbSpline
210
0.0
220
0.0
230
1.0
 70
    24
 71
     3
 72
    10
 73
     6
 74
     0
 42
0.000000001
 43
0.00000001
 40
0.0
 40
0.0
 40
0.0
 40
0.0
 40
0.5
 40
0.5
 40
1.0
 40
1.0
 40
1.0
 40
1.0
 10
73.2
 20
10.45901038765627
 30
0.0
 10
73.19999999999997
 20
11.22861133197119
 30
0.0
 10
73.20000000000005
 20
11.92194424518667
 30
0.0
 10
73.2
 20
13.13164390062823
 30
0.0
 10
73.19999999999999
 20
13.64795355494801
 30
0.0
 10
73.19999999999999
 20
14.07002798366862
 30
0.0
  0
SPLINE
  5
A8
330
1F
100
AcDbEntity
  8
0
  6
Continuous
 62
     1
370
    15
100
AcDbSpline
210
0.0
220
0.0
230
1.0
 70
     8
 71
     3
 72
    10
 73
     6
 74
     0
 42
0.000000001
 43
0.00000001
 40
0.0
 40
0.0
 40
0.0
 40
0.0
 40
0.5000000000000001
 40
0.5000000000000001
 40
1.0
 40
1.0
 40
1.0
 40
1.0
 10
73.2
 20
10.45901038765627
 30
0.0
 10
74.13303537573834
 20
9.790658859758217
 30
0.0
 10
75.01995232143099
 20
9.044101253554363
 30
0.0
 10
76.69154225756601
 20
7.377604190058466
 30
0.0
 10
77.47639945866578
 20
6.457977110986754
 30
0.0
 10
78.20000000000002
 20
5.4344730541941
 30
0.0
  0
SPLINE
  5
A9
330
1F
100
AcDbEntity
  8
0
  6
Continuous
 62
     1
370
    15
100
AcDbSpline
210
0.0
220
0.0
230
1.0
 70
     8
 71
     3
 72
     9
 73
     5
 74
     0
 42
0.000000001
 43
0.00000001
 40
0.0
 40
0.0
 40
0.0
 40
0.0
 40
0.5993868292857736
 40
1.0
 40
1.0
 40
1.0
 40
1.0
 10
78.2
 20
15.55749999999998
 30
0.0
 10
76.54874601317448
 20
15.54011282278169
 30
0.0
 10
73.79384065632316
 20
15.51110454904468
 30
0.0
 10
71.03895234079715
 20
15.26927920338069
 30
0.0
 10
69.93530779775072
 20
15.17240078489517
 30
0.0
  0
SPLINE
  5
AA
330
1F
100
AcDbEntity
  8
0
  6
Continuous
 62
     1
370
    15
100
AcDbSpline
210
0.0
220
0.0
230
1.0
 70
     8
 71
     3
 72
     8
 73
     4
 74
     0
 42
0.000000001
 43
0.00000001
 40
0.0
 40
0.0
 40
0.0
 40
0.0
 40
1.0
 40
1.0
 40
1.0
 40
1.0
 10
78.2
 20
15.55749999999999
 30
0.0
 10
76.52598058323505
 20
15.1037935419003
 30
0.0
 10
74.85922931830575
 20
14.60845412675042
 30
0.0
 10
73.19999999999999
 20
14.07002798366864
 30
0.0
  0
SPLINE
  5
AB
330
1F
100
AcDbEntity
  8
0
  6
Continuous
 62
     1
370
    15
100
AcDbSpline
210
0.0
220
0.0
230
1.0
 70
    24
 71
     3
 72
     8
 73
     4
 74
     0
 42
0.000000001
 43
0.00000001
 40
0.0
 40
0.0
 40
0.0
 40
0.0
 40
1.0
 40
1.0
 40
1.0
 40
1.0
 10
78.2
 20
-0.0000000000000058
 30
0.0
 10
78.2
 20
1.867551435155357
 30
0.0
 10
78.19999999999999
 20
3.711912638870833
 30
0.0
 10
78.19999999999999
 20
5.434473054194095
 30
0.0
  0
SPLINE
  5
AC
330
1F
100
AcDbEntity
  8
0
  6
Continuous
 62
     1
370
    15
100
AcDbSpline
210
0.0
220
0.0
230
1.0
 70
     8
 71
     3
 72
    15
 73
    11
 74
     0
 42
0.000000001
 43
0.00000001
 40
0.0
 40
0.0
 40
0.0
 40
0.0
 40
0.0160612822930234
 40
0.1521984230095743
 40
0.2882593098949845
 40
0.4243064795546477
 40
0.5682263866006124
 40
0.7121964789738646
 40
0.8561161976485955
 40
0.9999999999999999
 40
0.9999999999999999
 40
0.9999999999999999
 40
0.9999999999999999
 10
31.11777072324859
 20
-16.70685288977844
 30
0.0
 10
30.96187997909131
 20
-16.73434361295272
 30
0.0
 10
29.48464267078298
 20
-16.99484863603767
 30
0.0
 10
26.68656438862353
 20
-17.3205943850375
 30
0.0
 10
22.72439957266473
 20
-17.66485050564789
 30
0.0
 10
18.6866875264681
 20
-17.80681309181286
 30
0.0
 10
14.57197299517189
 20
-17.75595753306267
 30
0.0
 10
10.38053524699259
 20
-17.48893153916185
 30
0.0
 10
6.189787092552911
 20
-17.02902534239395
 30
0.0
 10
3.396479500956128
 20
-16.55343561487903
 30
0.0
 10
2.000000000000016
 20
-16.31567042663485
 30
0.0
  0
SPLINE
  5
AD
330
1F
100
AcDbEntity
  8
외형선
  6
Continuous
370
    15
100
AcDbSpline
210
0.0
220
0.0
230
1.0
 70
    24
 71
     3
 72
    14
 73
    10
 74
     0
 42
0.000000001
 43
0.00000001
 40
0.0
 40
0.0
 40
0.0
 40
0.0
 40
0.25
 40
0.25
 40
0.5
 40
0.5
 40
0.75
 40
0.75
 40
1.0
 40
1.0
 40
1.0
 40
1.0
 10
2.000000000000003
 20
6.182684525074635
 30
0.0
 10
2.000000000000003
 20
4.250884082415051
 30
0.0
 10
2.000000000000003
 20
2.210489123105859
 30
0.0
 10
2.000000000000003
 20
-1.913903650230711
 30
0.0
 10
2.000000000000003
 20
-3.995981225405526
 30
0.0
 10
2.000000000000003
 20
-7.994587552872664
 30
0.0
 10
2.000000000000003
 20
-9.908985680539093
 30
0.0
 10
2.000000000000003
 20
-13.39446558055571
 30
0.0
 10
2.000000000000003
 20
-14.96452450165805
 30
0.0
 10
2.000000000000003
 20
-16.31567042663484
 30
0.0
  0
SPLINE
  5
AE
330
1F
100
AcDbEntity
  8
외형선
  6
Continuous
370
    15
100
AcDbSpline
210
0.0
220
0.0
230
1.0
 70
    24
 71
     3
 72
    11
 73
     7
 74
     0
 42
0.000000001
 43
0.00000001
 40
0.0
 40
0.0
 40
0.0
 40
0.0
 40
0.2581428942043205
 40
0.516655616635679
 40
0.7747985108399994
 40
1.0
 40
1.0
 40
1.0
 40
1.0
 10
2.000000000000003
 20
-16.31567042663485
 30
0.0
 10
2.000000000000003
 20
-16.48055763101993
 30
0.0
 10
2.000000000000004
 20
-16.81056826532187
 30
0.0
 10
2.000000000000008
 20
-17.12951579377101
 30
0.0
 10
2.000000000000009
 20
-17.32839334766733
 30
0.0
 10
2.000000000000009
 20
-17.33805758032632
 30
0.0
 10
2.000000000000009
 20
-17.34256037307885
 30
0.0
  0
LINE
  5
AF
330
1F
100
AcDbEntity
  8
0
  6
Continuous
 62
     1
370
    15
100
AcDbLine
 10
78.2
 20
5.468200414280103
 30
0.0
 11
78.2
 21
15.55749999999999
 31
0.0
  0
SPLINE
  5
B0
330
1F
100
AcDbEntity
  8
0
  6
Continuous
 62
     1
370
    15
100
AcDbSpline
210
0.0
220
0.0
230
1.0
 70
     8
 71
     3
 72
    16
 73
    12
 74
     0
 42
0.000000001
 43
0.00000001
 40
0.0
 40
0.0
 40
0.0
 40
0.0
 40
0.0262940047421426
 40
0.1491100591160999
 40
0.2719631484073265
 40
0.394734442928398
 40
0.517512244969762
 40
0.6381828864315933
 40
0.7587877565181875
 40
0.8793578499839043
 40
1.0
 40
1.0
 40
1.0
 40
1.0
 10
47.62227334627995
 20
14.89797269028961
 30
0.0
 10
47.89025592454067
 20
15.01634173673827
 30
0.0
 10
49.40995208639987
 20
15.68759800547955
 30
0.0
 10
52.1820274270931
 20
16.77220359923749
 30
0.0
 10
55.93787268593262
 20
18.12601846266451
 30
0.0
 10
59.69247160117452
 20
19.29644256289289
 30
0.0
 10
63.42486012521925
 20
20.2802720199301
 30
0.0
 10
67.13611513383294
 20
21.06896598674998
 30
0.0
 10
70.82410700255039
 20
21.65646647389156
 30
0.0
 10
74.51149364225691
 20
22.05985297925046
 30
0.0
 10
76.97025304834739
 20
22.1574184569299
 30
0.0
 10
78.19999999999999
 20
22.20621576847881
 30
0.0
  0
SPLINE
  5
B1
330
1F
100
AcDbEntity
  8
0
  6
Continuous
 62
     1
370
    15
100
AcDbSpline
210
0.0
220
0.0
230
1.0
 70
    24
 71
     3
 72
    14
 73
    10
 74
     0
 42
0.000000001
 43
0.00000001
 40
0.0
 40
0.0
 40
0.0
 40
0.0
 40
0.25
 40
0.25
 40
0.5
 40
0.5
 40
0.75
 40
0.75
 40
1.0
 40
1.0
 40
1.0
 40
1.0
 10
78.2
 20
15.55749999999998
 30
0.0
 10
78.20000000000002
 20
16.02902845377125
 30
0.0
 10
78.20000000000002
 20
16.53761365798585
 30
0.0
 10
78.19999999999999
 20
17.60879551873963
 30
0.0
 10
78.20000000000002
 20
18.17128539101749
 30
0.0
 10
78.20000000000003
 20
19.32090343190915
 30
0.0
 10
78.20000000000002
 20
19.90783820726066
 30
0.0
 10
78.20000000000003
 20
21.07233565057483
 30
0.0
 10
78.20000000000003
 20
21.64968643958326
 30
0.0
 10
78.20000000000003
 20
22.20621576847881
 30
0.0
  0
LINE
  5
B3
330
1F
100
AcDbEntity
  8
참조1
100
AcDbLine
 10
16.44057883212693
 20
0.0010749287238892
 30
0.0
 11
16.44057883212695
 21
-39.99892507127612
 31
0.0
  0
LINE
  5
B4
330
1F
100
AcDbEntity
  8
참조1
100
AcDbLine
 10
16.44057883212695
 20
-39.99892507127612
 30
0.0
 11
-22.53075298218174
 21
-39.9989250712761
 31
0.0
  0
INSERT
  5
B6
330
1F
100
AcDbEntity
  8
0
  6
Continuous
 62
     7
100
AcDbBlockReference
 66
     1
  2
블럭10
 10
0.7597270678747914
 20
-52.04717430164396
 30
0.0
  0
ATTRIB
  5
B7
330
B6
100
AcDbEntity
  8
FORMAT
 62
     2
100
AcDbText
 10
-8.421568220866488
 20
-49.97180738881178
 30
0.0
 40
4.233333333333333
  1
E2080148 [ 2 FLUTE ]
 41
0.75
  7
SLDTEXTSTYLE0
 11
-8.421568220866488
 21
-52.08847405547844
 31
0.0
100
AcDbAttribute
  2
AUTOATTR0
 70
     0
 74
     1
  0
SEQEND
  5
B8
330
B6
100
AcDbEntity
  8
0
  6
Continuous
 62
     7
  0
HATCH
  5
B9
330
1F
100
AcDbEntity
  8
중심선
100
AcDbHatch
 10
0.0
 20
0.0
 30
0.0
210
0.0
220
0.0
230
1.0
  2
SOLID
 70
     1
 71
     0
 91
        1
 92
        0
 93
        4
 72
     1
 10
6.474636372255649
 20
-35.80000000000001
 11
3.028361128418367
 21
-35.80000000000001
 72
     1
 10
3.028361128418367
 20
-35.80000000000001
 11
0.9001312692143442
 21
-38.33632558057261
 72
     1
 10
0.9001312692143442
 20
-38.33632558057261
 11
4.346439598164776
 21
-38.33628615127012
 72
     1
 10
4.346439598164776
 20
-38.33628615127012
 11
6.474636372255649
 21
-35.80000000000001
 97
        0
 75
     0
 76
     1
 98
        1
 10
-1.740578832126943
 20
-0.0010749287239094
  0
HATCH
  5
BA
330
1F
100
AcDbEntity
  8
중심선
100
AcDbHatch
 10
0.0
 20
0.0
 30
0.0
210
0.0
220
0.0
230
1.0
  2
SOLID
 70
     1
 71
     0
 91
        1
 92
        0
 93
        4
 72
     1
 10
11.4874003632916
 20
-35.79999999999999
 11
8.041125119454374
 21
-35.79999999999999
 72
     1
 10
8.041125119454374
 20
-35.79999999999999
 11
3.50998711109693
 21
-41.20000000000003
 72
     1
 10
3.50998711109693
 20
-41.20000000000003
 11
6.956262354934212
 21
-41.20000000000003
 72
     1
 10
6.956262354934212
 20
-41.20000000000003
 11
11.4874003632916
 21
-35.79999999999999
 97
        0
 75
     0
 76
     1
 98
        1
 10
-1.740578832126943
 20
-0.0010749287239094
  0
HATCH
  5
BB
330
1F
100
AcDbEntity
  8
중심선
100
AcDbHatch
 10
0.0
 20
0.0
 30
0.0
210
0.0
220
0.0
230
1.0
  2
SOLID
 70
     1
 71
     0
 91
        1
 92
        0
 93
        4
 72
     1
 10
16.5001643543275
 20
-35.80000000000004
 11
13.05388911049044
 21
-35.79999999999999
 72
     1
 10
13.05388911049044
 20
-35.79999999999999
 11
6.005452208601131
 21
-44.20000000000003
 72
     1
 10
6.005452208601131
 20
-44.20000000000003
 11
9.451727452438414
 21
-44.20000000000003
 72
     1
 10
9.451727452438414
 20
-44.20000000000003
 11
16.5001643543275
 21
-35.80000000000004
 97
        0
 75
     0
 76
     1
 98
        1
 10
-1.740578832126943
 20
-0.0010749287239094
  0
HATCH
  5
BC
330
1F
100
AcDbEntity
  8
중심선
100
AcDbHatch
 10
0.0
 20
0.0
 30
0.0
210
0.0
220
0.0
230
1.0
  2
SOLID
 70
     1
 71
     0
 91
        1
 92
        0
 93
        6
 72
     3
 10
21.3000547853397
 20
-40.00000000005129
 11
3.960054785062283
 21
1.540882976769353E-10
 40
0.3939339440162628
 50
17.09539180608436
 51
320.0019657685075
 73
     0
 72
     1
 10
22.98305444104026
 20
-38.58789400463831
 11
25.28835631474133
 21
-36.6535672945904
 72
     3
 10
21.30005478528685
 20
-40.00000000000016
 11
6.600054785286829
 21
-1.278976924368180E-13
 40
0.636358354079598
 50
39.99873849337411
 51
368.4976242363724
 73
     1
 72
     1
 10
27.72538727718746
 20
-39.03999999993004
 11
19.9801220921228
 21
-39.03999999993001
 72
     1
 10
19.9801220921228
 20
-39.03999999993001
 11
19.98009704767684
 21
-40.95999999992993
 72
     1
 10
19.98009704767684
 20
-40.95999999992993
 11
24.42147681714887
 21
-40.9599999999299
 97
        0
 75
     0
 76
     1
 98
        1
 10
-1.740578832126943
 20
-0.0010749287239094
  0
DIMENSION
  5
CB
330
1F
100
AcDbEntity
  8
0
  6
Continuous
370
    15
100
AcDbDimension
  2
_D_1
 10
2.000000000000007
 20
36.87839570653297
 30
0.0
 11
42.07557868424799
 21
36.87839570653297
 31
0.0
 70
   160
  1
<>
 71
     2
 42
76.20000000000002
  3
SLDDIMSTYLE1
100
AcDbAlignedDimension
 13
78.20000000000003
 23
22.20621576847881
 33
0.0
 14
2.000000000000009
 24
17.34256037307882
 34
0.0
100
AcDbRotatedDimension
1001
ACAD
1000
DSTYLE
1002
{
1070
   171
1070
     6
1070
   273
1070
     7
1002
}
  0
DIMENSION
  5
F5
330
1F
100
AcDbEntity
  8
0
  6
Continuous
370
    15
100
AcDbDimension
  2
_D_3
 10
97.20000000000014
 20
22.20621576847888
 30
0.0
 11
97.19999999999999
 21
67.00621576847897
 31
0.0
 70
   160
  1
%%c<>
 71
     2
 42
44.41243153695764
 52
-270.0
  3
SLDDIMSTYLE1
100
AcDbAlignedDimension
 13
78.19999999999999
 23
-22.20621576847884
 33
0.0
 14
78.19999999999999
 24
22.20621576847881
 34
0.0
 50
90.0000000000002
100
AcDbRotatedDimension
1001
ACAD
1000
DSTYLE
1002
{
1070
   171
1070
     6
1070
   273
1070
     7
1002
}
  0
LINE
  5
109
330
1F
100
AcDbEntity
  8
참조1
100
AcDbLine
 10
75.44158764747253
 20
7.441074928723896
 30
0.0
 11
75.44158764747253
 21
-7.438925071276109
 31
0.0
  0
LINE
  5
10A
330
1F
100
AcDbEntity
  8
참조1
100
AcDbLine
 10
88.14158764747253
 20
5.441074928723896
 30
0.0
 11
75.44158764747253
 21
5.441074928723896
 31
0.0
  0
SOLID
  5
10B
330
1F
100
AcDbEntity
  8
참조1
100
AcDbTrace
 10
75.44158764747253
 20
5.441074928723896
 30
0.0
 11
81.79158764747253
 21
4.425074928723896
 31
0.0
 12
81.79158764747253
 22
6.457074928723896
 32
0.0
 13
81.79158764747253
 23
6.457074928723896
 33
0.0
  0
LINE
  5
10C
330
1F
100
AcDbEntity
  8
참조1
100
AcDbLine
 10
88.14158764747253
 20
-5.438925071276109
 30
0.0
 11
75.44158764747253
 21
-5.438925071276109
 31
0.0
  0
SOLID
  5
10D
330
1F
100
AcDbEntity
  8
참조1
100
AcDbTrace
 10
75.44158764747253
 20
-5.438925071276109
 30
0.0
 11
81.79158764747253
 21
-6.454925071276109
 31
0.0
 12
81.79158764747253
 22
-4.422925071276109
 32
0.0
 13
81.79158764747253
 23
-4.422925071276109
 33
0.0
  0
MTEXT
  5
10E
330
1F
100
AcDbEntity
  8
참조1
100
AcDbMText
 10
84.82593778009851
 20
11.01136670591222
 30
0.0
 40
3.5
 41
0.0
 71
     1
 72
     1
  1
A
  7
SLDTEXTSTYLE0
 73
     1
 44
1.0
  0
MTEXT
  5
10F
330
1F
100
AcDbEntity
  8
참조1
100
AcDbMText
 10
84.82593778009851
 20
0.1313667059122201
 30
0.0
 40
3.5
 41
0.0
 71
     1
 72
     1
  1
A
  7
SLDTEXTSTYLE0
 73
     1
 44
1.0
  0
LINE
  5
237
330
1F
100
AcDbEntity
  8
외형선
  6
Continuous
370
    15
100
AcDbLine
 10
-61.5
 20
-14.87499999999999
 30
0.0
 11
-60.5
 21
-15.87499999999999
 31
0.0
  0
LINE
  5
238
330
1F
100
AcDbEntity
  8
중심선
100
AcDbLine
 10
-68.5
 20
-0.0000000000000284
 30
0.0
 11
84.24991435723638
 21
0.0000000000000142
 31
0.0
  0
CIRCLE
  5
239
330
1F
100
AcDbEntity
  8
해칭선
100
AcDbCircle
 10
0.0
 20
0.0
 30
0.0
 40
2.999999999999995
  0
DIMENSION
  5
23A
330
1F
100
AcDbEntity
  8
0
  6
Continuous
370
    15
100
AcDbDimension
  2
*D13
 10
-83.36898352236113
 20
-15.87500000000007
 30
0.0
 11
-83.36898352236119
 21
0.0000000000000142
 31
0.0
 70
   160
  1
%%c<>
 71
     2
 42
31.75
 52
-270.0
  3
SLDDIMSTYLE1
100
AcDbAlignedDimension
 13
-61.5
 23
15.87500000000001
 33
0.0
 14
-60.50000000000003
 24
-15.87499999999999
 34
0.0
 50
90.0000000000002
100
AcDbRotatedDimension
1001
ACAD
1000
DSTYLE
1002
{
1070
   171
1070
     6
1070
   273
1070
     7
1002
}
  0
DIMENSION
  5
23B
330
1F
100
AcDbEntity
  8
0
  6
Continuous
370
    15
100
AcDbDimension
  2
*D14
 10
-61.5
 20
45.58996586444053
 30
0.0
 11
8.349999999999994
 21
45.58996586444053
 31
0.0
 70
   160
  1
<>
 71
     2
 42
139.7
  3
SLDDIMSTYLE1
100
AcDbAlignedDimension
 13
78.19999999999999
 23
22.20621576847881
 33
0.0
 14
-61.5
 24
15.87500000000001
 34
0.0
 50
0.0000000000000029
100
AcDbRotatedDimension
1001
ACAD
1000
DSTYLE
1002
{
1070
   171
1070
     6
1070
   273
1070
     7
1002
}
  0
INSERT
  5
23C
330
1F
100
AcDbEntity
  8
해칭선
100
AcDbBlockReference
  2
SW_DOWELSYMBOL_0
 10
0.0
 20
0.0
 30
0.0
  0
LINE
  5
23D
330
1F
100
AcDbEntity
  8
외형선
  6
Continuous
370
    15
100
AcDbLine
 10
-38.08132499999999
 20
13.48740000000001
 30
0.0
 11
-24.97492499999998
 21
13.48740000000001
 31
0.0
  0
LINE
  5
23E
330
1F
100
AcDbEntity
  8
외형선
  6
Continuous
370
    15
100
AcDbLine
 10
-24.97492499999998
 20
13.48740000000001
 30
0.0
 11
-22.58732499999996
 21
15.87500000000003
 31
0.0
  0
LINE
  5
23F
330
1F
100
AcDbEntity
  8
외형선
  6
Continuous
370
    15
100
AcDbLine
 10
-38.08132499999999
 20
13.48740000000001
 30
0.0
 11
-40.46892500000001
 21
15.87500000000003
 31
0.0
  0
LINE
  5
240
330
1F
100
AcDbEntity
  8
외형선
  6
Continuous
370
    15
100
AcDbLine
 10
-61.5
 20
13.48740000000001
 30
0.0
 11
-47.80000000000001
 21
13.48740000000001
 31
0.0
  0
LINE
  5
241
330
1F
100
AcDbEntity
  8
외형선
  6
Continuous
370
    15
100
AcDbLine
 10
-47.80000000000001
 20
13.48740000000001
 30
0.0
 11
-45.4124000000001
 21
15.875
 31
0.0
  0
LINE
  5
242
330
1F
100
AcDbEntity
  8
외형선
  6
Continuous
370
    15
100
AcDbLine
 10
-45.4124000000001
 20
15.87500000000001
 30
0.0
 11
-40.46892500000001
 21
15.87500000000001
 31
0.0
  0
LINE
  5
243
330
1F
100
AcDbEntity
  8
외형선
  6
Continuous
370
    15
100
AcDbLine
 10
-61.5
 20
13.48740000000001
 30
0.0
 11
-61.5
 21
-14.875
 31
0.0
  0
LINE
  5
244
330
1F
100
AcDbEntity
  8
외형선
  6
Continuous
370
    15
100
AcDbLine
 10
-60.5
 20
-15.875
 30
0.0
 11
2.0
 21
-15.87499999999999
 31
0.0
  0
LINE
  5
245
330
1F
100
AcDbEntity
  8
외형선
  6
Continuous
370
    15
100
AcDbLine
 10
2.0
 20
15.87500000000001
 30
0.0
 11
-22.58732499999999
 21
15.875
 31
0.0
  0
ENDSEC
  0
SECTION
  2
OBJECTS
  0
DICTIONARY
  5
C
330
0
100
AcDbDictionary
281
     1
  3
ACAD_GROUP
350
D
  3
ACAD_IMAGE_VARS
350
13A
  3
ACAD_LAYOUT
350
1A
  3
ACAD_MLINESTYLE
350
17
  3
ACAD_PLOTSETTINGS
350
19
  3
ACAD_PLOTSTYLENAME
350
E
  3
ACAD_SCALELIST
350
47
  3
APPDATA
350
138
  3
DWGPROPS
350
29C
  0
DICTIONARY
  5
161
330
2
100
AcDbDictionary
280
     1
281
     1
  3
ACAD_LAYERSTATES
360
162
  0
DICTIONARY
  5
D
102
{ACAD_REACTORS
330
C
102
}
330
C
100
AcDbDictionary
281
     1
  0
RASTERVARIABLES
  5
13A
102
{ACAD_REACTORS
330
C
102
}
330
C
100
AcDbRasterVariables
 90
        0
 70
     1
 71
     1
 72
     1
  0
DICTIONARY
  5
1A
102
{ACAD_REACTORS
330
C
102
}
330
C
100
AcDbDictionary
281
     1
  3
Layout1
350
1E
  3
Layout2
350
26
  3
Model
350
22
  0
DICTIONARY
  5
17
102
{ACAD_REACTORS
330
C
102
}
330
C
100
AcDbDictionary
281
     1
  3
Standard
350
18
  0
DICTIONARY
  5
19
102
{ACAD_REACTORS
330
C
102
}
330
C
100
AcDbDictionary
281
     1
  0
ACDBDICTIONARYWDFLT
  5
E
102
{ACAD_REACTORS
330
C
102
}
330
C
100
AcDbDictionary
281
     1
  3
Normal
350
F
100
AcDbDictionaryWithDefault
340
F
  0
DICTIONARY
  5
47
102
{ACAD_REACTORS
330
C
102
}
330
C
100
AcDbDictionary
281
     1
  3
A0
350
48
  3
A1
350
49
  3
A2
350
4A
  3
A3
350
4B
  3
A4
350
4C
  3
A5
350
4D
  3
A6
350
4E
  3
A7
350
4F
  3
A8
350
50
  3
A9
350
51
  3
B0
350
52
  3
B1
350
53
  3
B2
350
54
  3
B3
350
55
  3
B4
350
56
  3
B5
350
57
  3
B6
350
58
  3
B7
350
59
  3
B8
350
5A
  3
B9
350
5B
  3
C0
350
5C
  3
C1
350
5D
  3
C2
350
5E
  3
C3
350
5F
  3
C4
350
60
  3
C5
350
61
  3
C6
350
62
  3
C7
350
63
  3
C8
350
64
  3
C9
350
65
  3
D0
350
66
  3
D1
350
67
  3
D2
350
68
  0
DICTIONARY
  5
138
102
{ACAD_REACTORS
330
C
102
}
330
C
100
AcDbDictionary
281
     1
  0
XRECORD
  5
29C
102
{ACAD_REACTORS
330
C
102
}
330
C
100
AcDbXrecord
280
     1
  1
DWGPROPS COOKIE
  2

  3

  4

  6

  7

  8
12016016
  9

300
=
301
=
302
=
303
=
304
=
305
=
306
=
307
=
308
=
309
=
 40
0.0
 41
2458311.199532535
 42
2458319.343392789
  1

 90
        0
  0
DICTIONARY
  5
162
102
{ACAD_REACTORS
330
161
102
}
330
161
100
AcDbDictionary
281
     1
  0
LAYOUT
  5
1E
102
{ACAD_REACTORS
330
1A
102
}
330
1A
100
AcDbPlotSettings
  1

  2
none_device
  4

  6

 40
0.0
 41
0.0
 42
0.0
 43
0.0
 44
0.0
 45
0.0
 46
0.0
 47
0.0
 48
0.0
 49
0.0
140
0.0
141
0.0
142
1.0
143
1.0
 70
   688
 72
     1
 73
     0
 74
     5
  7

 75
    16
147
1.0
148
0.0
149
0.0
100
AcDbLayout
  1
Layout1
 70
     1
 71
     1
 10
0.0
 20
0.0
 11
420.0
 21
297.0
 12
0.0
 22
0.0
 32
0.0
 14
1.000000000000000E+20
 24
1.000000000000000E+20
 34
1.000000000000000E+20
 15
-1.000000000000000E+20
 25
-1.000000000000000E+20
 35
-1.000000000000000E+20
146
0.0
 13
0.0
 23
0.0
 33
0.0
 16
1.0
 26
0.0
 36
0.0
 17
0.0
 27
1.0
 37
0.0
 76
     0
330
1B
  0
LAYOUT
  5
26
102
{ACAD_REACTORS
330
1A
102
}
330
1A
100
AcDbPlotSettings
  1

  2
none_device
  4

  6

 40
0.0
 41
0.0
 42
0.0
 43
0.0
 44
0.0
 45
0.0
 46
0.0
 47
0.0
 48
0.0
 49
0.0
140
0.0
141
0.0
142
1.0
143
1.0
 70
   688
 72
     1
 73
     0
 74
     5
  7

 75
    16
147
1.0
148
0.0
149
0.0
100
AcDbLayout
  1
Layout2
 70
     1
 71
     2
 10
0.0
 20
0.0
 11
0.0
 21
0.0
 12
0.0
 22
0.0
 32
0.0
 14
0.0
 24
0.0
 34
0.0
 15
0.0
 25
0.0
 35
0.0
146
0.0
 13
0.0
 23
0.0
 33
0.0
 16
1.0
 26
0.0
 36
0.0
 17
0.0
 27
1.0
 37
0.0
 76
     0
330
23
  0
LAYOUT
  5
22
102
{ACAD_REACTORS
330
1A
102
}
330
1A
100
AcDbPlotSettings
  1

  2
none_device
  4
ANSI_A_(11.00_x_8.50_Inches)
  6

 40
6.35
 41
19.05
 42
6.35000508
 43
19.05000254
 44
279.4
 45
215.9
 46
103.1580199316263
 47
68.03587455377367
 48
0.0
 49
0.0
140
0.0
141
0.0
142
0.0663760467482972
143
1.0
 70
  1696
 72
     0
 73
     0
 74
     0
  7

 75
     0
147
0.0235690232323232
148
0.0
149
0.0
100
AcDbLayout
  1
Model
 70
     1
 71
     0
 10
0.0
 20
0.0
 11
420.0
 21
297.0
 12
0.0
 22
0.0
 32
0.0
 14
-87.74398352236123
 24
-49.97180738881178
 34
0.0
 15
97.75033333333364
 25
83.19371576847897
 35
0.0
146
0.0
 13
0.0
 23
0.0
 33
0.0
 16
1.0
 26
0.0
 36
0.0
 17
0.0
 27
1.0
 37
0.0
 76
     0
330
1F
331
29
  0
MLINESTYLE
  5
18
102
{ACAD_REACTORS
330
17
102
}
330
17
100
AcDbMlineStyle
  2
Standard
 70
     0
  3

 62
   256
 51
90.0
 52
90.0
 71
     2
 49
0.5
 62
   256
  6
BYLAYER
 49
-0.5
 62
   256
  6
BYLAYER
  0
ACDBPLACEHOLDER
  5
F
102
{ACAD_REACTORS
330
E
102
}
330
E
  0
SCALE
  5
48
102
{ACAD_REACTORS
330
47
102
}
330
47
100
AcDbScale
 70
     0
300
1:1
140
1.0
141
1.0
290
     1
  0
SCALE
  5
49
102
{ACAD_REACTORS
330
47
102
}
330
47
100
AcDbScale
 70
     0
300
1:2
140
1.0
141
2.0
290
     0
  0
SCALE
  5
4A
102
{ACAD_REACTORS
330
47
102
}
330
47
100
AcDbScale
 70
     0
300
1:4
140
1.0
141
4.0
290
     0
  0
SCALE
  5
4B
102
{ACAD_REACTORS
330
47
102
}
330
47
100
AcDbScale
 70
     0
300
1:5
140
1.0
141
5.0
290
     0
  0
SCALE
  5
4C
102
{ACAD_REACTORS
330
47
102
}
330
47
100
AcDbScale
 70
     0
300
1:8
140
1.0
141
8.0
290
     0
  0
SCALE
  5
4D
102
{ACAD_REACTORS
330
47
102
}
330
47
100
AcDbScale
 70
     0
300
1:10
140
1.0
141
10.0
290
     0
  0
SCALE
  5
4E
102
{ACAD_REACTORS
330
47
102
}
330
47
100
AcDbScale
 70
     0
300
1:16
140
1.0
141
16.0
290
     0
  0
SCALE
  5
4F
102
{ACAD_REACTORS
330
47
102
}
330
47
100
AcDbScale
 70
     0
300
1:20
140
1.0
141
20.0
290
     0
  0
SCALE
  5
50
102
{ACAD_REACTORS
330
47
102
}
330
47
100
AcDbScale
 70
     0
300
1:30
140
1.0
141
30.0
290
     0
  0
SCALE
  5
51
102
{ACAD_REACTORS
330
47
102
}
330
47
100
AcDbScale
 70
     0
300
1:40
140
1.0
141
40.0
290
     0
  0
SCALE
  5
52
102
{ACAD_REACTORS
330
47
102
}
330
47
100
AcDbScale
 70
     0
300
1:50
140
1.0
141
50.0
290
     0
  0
SCALE
  5
53
102
{ACAD_REACTORS
330
47
102
}
330
47
100
AcDbScale
 70
     0
300
1:100
140
1.0
141
100.0
290
     0
  0
SCALE
  5
54
102
{ACAD_REACTORS
330
47
102
}
330
47
100
AcDbScale
 70
     0
300
2:1
140
2.0
141
1.0
290
     0
  0
SCALE
  5
55
102
{ACAD_REACTORS
330
47
102
}
330
47
100
AcDbScale
 70
     0
300
4:1
140
4.0
141
1.0
290
     0
  0
SCALE
  5
56
102
{ACAD_REACTORS
330
47
102
}
330
47
100
AcDbScale
 70
     0
300
8:1
140
8.0
141
1.0
290
     0
  0
SCALE
  5
57
102
{ACAD_REACTORS
330
47
102
}
330
47
100
AcDbScale
 70
     0
300
10:1
140
10.0
141
1.0
290
     0
  0
SCALE
  5
58
102
{ACAD_REACTORS
330
47
102
}
330
47
100
AcDbScale
 70
     0
300
100:1
140
100.0
141
1.0
290
     0
  0
SCALE
  5
59
102
{ACAD_REACTORS
330
47
102
}
330
47
100
AcDbScale
 70
     0
300
1/128" = 1'-0"
140
0.0078125
141
12.0
290
     0
  0
SCALE
  5
5A
102
{ACAD_REACTORS
330
47
102
}
330
47
100
AcDbScale
 70
     0
300
1/64" = 1'-0"
140
0.015625
141
12.0
290
     0
  0
SCALE
  5
5B
102
{ACAD_REACTORS
330
47
102
}
330
47
100
AcDbScale
 70
     0
300
1/32" = 1'-0"
140
0.03125
141
12.0
290
     0
  0
SCALE
  5
5C
102
{ACAD_REACTORS
330
47
102
}
330
47
100
AcDbScale
 70
     0
300
1/16" = 1'-0"
140
0.0625
141
12.0
290
     0
  0
SCALE
  5
5D
102
{ACAD_REACTORS
330
47
102
}
330
47
100
AcDbScale
 70
     0
300
3/32" = 1'-0"
140
0.09375
141
12.0
290
     0
  0
SCALE
  5
5E
102
{ACAD_REACTORS
330
47
102
}
330
47
100
AcDbScale
 70
     0
300
1/8" = 1'-0"
140
0.125
141
12.0
290
     0
  0
SCALE
  5
5F
102
{ACAD_REACTORS
330
47
102
}
330
47
100
AcDbScale
 70
     0
300
3/16" = 1'-0"
140
0.1875
141
12.0
290
     0
  0
SCALE
  5
60
102
{ACAD_REACTORS
330
47
102
}
330
47
100
AcDbScale
 70
     0
300
1/4" = 1'-0"
140
0.25
141
12.0
290
     0
  0
SCALE
  5
61
102
{ACAD_REACTORS
330
47
102
}
330
47
100
AcDbScale
 70
     0
300
3/8" = 1'-0"
140
0.375
141
12.0
290
     0
  0
SCALE
  5
62
102
{ACAD_REACTORS
330
47
102
}
330
47
100
AcDbScale
 70
     0
300
1/2" = 1'-0"
140
0.5
141
12.0
290
     0
  0
SCALE
  5
63
102
{ACAD_REACTORS
330
47
102
}
330
47
100
AcDbScale
 70
     0
300
3/4" = 1'-0"
140
0.75
141
12.0
290
     0
  0
SCALE
  5
64
102
{ACAD_REACTORS
330
47
102
}
330
47
100
AcDbScale
 70
     0
300
1" = 1'-0"
140
1.0
141
12.0
290
     0
  0
SCALE
  5
65
102
{ACAD_REACTORS
330
47
102
}
330
47
100
AcDbScale
 70
     0
300
1-1/2" = 1'-0"
140
1.5
141
12.0
290
     0
  0
SCALE
  5
66
102
{ACAD_REACTORS
330
47
102
}
330
47
100
AcDbScale
 70
     0
300
3" = 1'-0"
140
3.0
141
12.0
290
     0
  0
SCALE
  5
67
102
{ACAD_REACTORS
330
47
102
}
330
47
100
AcDbScale
 70
     0
300
6" = 1'-0"
140
6.0
141
12.0
290
     0
  0
SCALE
  5
68
102
{ACAD_REACTORS
330
47
102
}
330
47
100
AcDbScale
 70
     0
300
1'-0" = 1'-0"
140
12.0
141
12.0
290
     0
  0
ENDSEC
  0
EOF
