  0
SECTION
  2
HEADER
  9
$ACADVER
  1
AC1015
  9
$ACADMAINTVER
 70
     6
  9
$DWGCODEPAGE
  3
ANSI_949
  9
$INSBASE
 10
0.0
 20
0.0
 30
0.0
  9
$EXTMIN
 10
-56.745981641739
 20
-49.97180738881175
 30
0.0
  9
$EXTMAX
 10
84.49405196486788
 20
38.57275000000007
 30
0.0
  9
$LIMMIN
 10
0.0
 20
0.0
  9
$LIMMAX
 10
420.0
 20
297.0
  9
$ORTHOMODE
 70
     1
  9
$REGENMODE
 70
     1
  9
$FILLMODE
 70
     1
  9
$QTEXTMODE
 70
     0
  9
$MIRRTEXT
 70
     1
  9
$LTSCALE
 40
1.0
  9
$ATTMODE
 70
     1
  9
$TEXTSIZE
 40
3.5
  9
$TRACEWID
 40
1.0
  9
$TEXTSTYLE
  7
Standard
  9
$CLAYER
  8
0
  9
$CELTYPE
  6
ByLayer
  9
$CECOLOR
 62
   256
  9
$CELTSCALE
 40
1.0
  9
$DISPSILH
 70
     0
  9
$DIMSCALE
 40
1.0
  9
$DIMASZ
 40
3.302
  9
$DIMEXO
 40
1.0
  9
$DIMDLI
 40
3.75
  9
$DIMRND
 40
0.0
  9
$DIMDLE
 40
0.0
  9
$DIMEXE
 40
1.0
  9
$DIMTP
 40
0.0
  9
$DIMTM
 40
0.0
  9
$DIMTXT
 40
3.5
  9
$DIMCEN
 40
2.5
  9
$DIMTSZ
 40
0.0
  9
$DIMTOL
 70
     0
  9
$DIMLIM
 70
     0
  9
$DIMTIH
 70
     1
  9
$DIMTOH
 70
     1
  9
$DIMSE1
 70
     0
  9
$DIMSE2
 70
     0
  9
$DIMTAD
 70
     1
  9
$DIMZIN
 70
     0
  9
$DIMBLK
  1

  9
$DIMASO
 70
     1
  9
$DIMSHO
 70
     1
  9
$DIMPOST
  1

  9
$DIMAPOST
  1

  9
$DIMALT
 70
     0
  9
$DIMALTD
 70
     3
  9
$DIMALTF
 40
0.0393700787401575
  9
$DIMLFAC
 40
1.0
  9
$DIMTOFL
 70
     1
  9
$DIMTVP
 40
0.0
  9
$DIMTIX
 70
     0
  9
$DIMSOXD
 70
     0
  9
$DIMSAH
 70
     0
  9
$DIMBLK1
  1

  9
$DIMBLK2
  1

  9
$DIMSTYLE
  2
ISO-25
  9
$DIMCLRD
 70
     0
  9
$DIMCLRE
 70
     0
  9
$DIMCLRT
 70
     0
  9
$DIMTFAC
 40
1.0
  9
$DIMGAP
 40
1.524
  9
$DIMJUST
 70
     0
  9
$DIMSD1
 70
     0
  9
$DIMSD2
 70
     0
  9
$DIMTOLJ
 70
     0
  9
$DIMTZIN
 70
     0
  9
$DIMALTZ
 70
     0
  9
$DIMALTTZ
 70
     0
  9
$DIMUPT
 70
     0
  9
$DIMDEC
 70
     2
  9
$DIMTDEC
 70
     2
  9
$DIMALTU
 70
     2
  9
$DIMALTTD
 70
     3
  9
$DIMTXSTY
  7
Standard
  9
$DIMAUNIT
 70
     0
  9
$DIMADEC
 70
     2
  9
$DIMALTRND
 40
0.0
  9
$DIMAZIN
 70
     0
  9
$DIMDSEP
 70
    44
  9
$DIMATFIT
 70
     3
  9
$DIMFRAC
 70
     0
  9
$DIMLDRBLK
  1

  9
$DIMLUNIT
 70
     2
  9
$DIMLWD
 70
    -2
  9
$DIMLWE
 70
    -2
  9
$DIMTMOVE
 70
     0
  9
$LUNITS
 70
     2
  9
$LUPREC
 70
     2
  9
$SKETCHINC
 40
1.0
  9
$FILLETRAD
 40
10.0
  9
$AUNITS
 70
     0
  9
$AUPREC
 70
     2
  9
$MENU
  1
.
  9
$ELEVATION
 40
0.0
  9
$PELEVATION
 40
0.0
  9
$THICKNESS
 40
0.0
  9
$LIMCHECK
 70
     0
  9
$CHAMFERA
 40
0.0
  9
$CHAMFERB
 40
0.0
  9
$CHAMFERC
 40
0.0
  9
$CHAMFERD
 40
0.0
  9
$SKPOLY
 70
     0
  9
$TDCREATE
 40
2458324.476104815
  9
$TDUCREATE
 40
2458324.101104815
  9
$TDUPDATE
 40
2458331.503997014
  9
$TDUUPDATE
 40
2458331.128997014
  9
$TDINDWG
 40
0.0003948843
  9
$TDUSRTIMER
 40
2458331.128914305
  9
$USRTIMER
 70
     1
  9
$ANGBASE
 50
0.0
  9
$ANGDIR
 70
     0
  9
$PDMODE
 70
     0
  9
$PDSIZE
 40
-1.0
  9
$PLINEWID
 40
0.0
  9
$SPLFRAME
 70
     0
  9
$SPLINETYPE
 70
     6
  9
$SPLINESEGS
 70
     8
  9
$HANDSEED
  5
2C1
  9
$SURFTAB1
 70
     6
  9
$SURFTAB2
 70
     6
  9
$SURFTYPE
 70
     6
  9
$SURFU
 70
     6
  9
$SURFV
 70
     6
  9
$UCSBASE
  2

  9
$UCSNAME
  2

  9
$UCSORG
 10
0.0
 20
0.0
 30
0.0
  9
$UCSXDIR
 10
1.0
 20
0.0
 30
0.0
  9
$UCSYDIR
 10
0.0
 20
1.0
 30
0.0
  9
$UCSORTHOREF
  2

  9
$UCSORTHOVIEW
 70
     0
  9
$UCSORGTOP
 10
0.0
 20
0.0
 30
0.0
  9
$UCSORGBOTTOM
 10
0.0
 20
0.0
 30
0.0
  9
$UCSORGLEFT
 10
0.0
 20
0.0
 30
0.0
  9
$UCSORGRIGHT
 10
0.0
 20
0.0
 30
0.0
  9
$UCSORGFRONT
 10
0.0
 20
0.0
 30
0.0
  9
$UCSORGBACK
 10
0.0
 20
0.0
 30
0.0
  9
$PUCSBASE
  2

  9
$PUCSNAME
  2

  9
$PUCSORG
 10
0.0
 20
0.0
 30
0.0
  9
$PUCSXDIR
 10
1.0
 20
0.0
 30
0.0
  9
$PUCSYDIR
 10
0.0
 20
1.0
 30
0.0
  9
$PUCSORTHOREF
  2

  9
$PUCSORTHOVIEW
 70
     0
  9
$PUCSORGTOP
 10
0.0
 20
0.0
 30
0.0
  9
$PUCSORGBOTTOM
 10
0.0
 20
0.0
 30
0.0
  9
$PUCSORGLEFT
 10
0.0
 20
0.0
 30
0.0
  9
$PUCSORGRIGHT
 10
0.0
 20
0.0
 30
0.0
  9
$PUCSORGFRONT
 10
0.0
 20
0.0
 30
0.0
  9
$PUCSORGBACK
 10
0.0
 20
0.0
 30
0.0
  9
$USERI1
 70
     0
  9
$USERI2
 70
     0
  9
$USERI3
 70
     0
  9
$USERI4
 70
     0
  9
$USERI5
 70
     0
  9
$USERR1
 40
0.0
  9
$USERR2
 40
0.0
  9
$USERR3
 40
0.0
  9
$USERR4
 40
0.0
  9
$USERR5
 40
0.0
  9
$WORLDVIEW
 70
     1
  9
$SHADEDGE
 70
     3
  9
$SHADEDIF
 70
    70
  9
$TILEMODE
 70
     1
  9
$MAXACTVP
 70
    64
  9
$PINSBASE
 10
0.0
 20
0.0
 30
0.0
  9
$PLIMCHECK
 70
     0
  9
$PEXTMIN
 10
1.000000000000000E+20
 20
1.000000000000000E+20
 30
1.000000000000000E+20
  9
$PEXTMAX
 10
-1.000000000000000E+20
 20
-1.000000000000000E+20
 30
-1.000000000000000E+20
  9
$PLIMMIN
 10
0.0
 20
0.0
  9
$PLIMMAX
 10
0.0
 20
0.0
  9
$UNITMODE
 70
     0
  9
$VISRETAIN
 70
     1
  9
$PLINEGEN
 70
     0
  9
$PSLTSCALE
 70
     1
  9
$TREEDEPTH
 70
  3020
  9
$CMLSTYLE
  2
Standard
  9
$CMLJUST
 70
     0
  9
$CMLSCALE
 40
20.0
  9
$PROXYGRAPHICS
 70
     1
  9
$MEASUREMENT
 70
     1
  9
$CELWEIGHT
370
    -1
  9
$ENDCAPS
280
     0
  9
$JOINSTYLE
280
     0
  9
$LWDISPLAY
290
     1
  9
$INSUNITS
 70
     4
  9
$HYPERLINKBASE
  1

  9
$STYLESHEET
  1

  9
$XEDIT
290
     1
  9
$CEPSNTYPE
380
     0
  9
$PSTYLEMODE
290
     1
  9
$FINGERPRINTGUID
  2
{4E4D133A-DE61-4FF5-9544-CF95D40E1E01}
  9
$VERSIONGUID
  2
{FAEB1C32-E019-11D5-929B-00C0DF256EC4}
  9
$EXTNAMES
290
     1
  9
$PSVPSCALE
 40
0.0
  9
$OLESTARTUP
290
     0
  0
ENDSEC
  0
SECTION
  2
CLASSES
  0
CLASS
  1
ACDBDICTIONARYWDFLT
  2
AcDbDictionaryWithDefault
  3
ObjectDBX Classes
 90
        0
280
     0
281
     0
  0
CLASS
  1
VISUALSTYLE
  2
AcDbVisualStyle
  3
ObjectDBX Classes
 90
     4095
280
     0
281
     0
  0
CLASS
  1
MATERIAL
  2
AcDbMaterial
  3
ObjectDBX Classes
 90
     1153
280
     0
281
     0
  0
CLASS
  1
SCALE
  2
AcDbScale
  3
ObjectDBX Classes
 90
     1153
280
     0
281
     0
  0
CLASS
  1
SUN
  2
AcDbSun
  3
SCENEOE
 90
     1153
280
     0
281
     0
  0
CLASS
  1
ACDBPLACEHOLDER
  2
AcDbPlaceHolder
  3
ObjectDBX Classes
 90
        0
280
     0
281
     0
  0
CLASS
  1
LAYOUT
  2
AcDbLayout
  3
ObjectDBX Classes
 90
        0
280
     0
281
     0
  0
CLASS
  1
TABLESTYLE
  2
AcDbTableStyle
  3
ObjectDBX Classes
 90
     4095
280
     0
281
     0
  0
CLASS
  1
MLEADERSTYLE
  2
AcDbMLeaderStyle
  3
ACDB_MLEADERSTYLE_CLASS
 90
     4095
280
     0
281
     0
  0
CLASS
  1
RASTERVARIABLES
  2
AcDbRasterVariables
  3
ISM
 90
        0
280
     0
281
     0
  0
ENDSEC
  0
SECTION
  2
TABLES
  0
TABLE
  2
VPORT
  5
8
330
0
100
AcDbSymbolTable
 70
     1
  0
VPORT
  5
29
330
8
100
AcDbSymbolTableRecord
100
AcDbViewportTableRecord
  2
*Active
 70
     0
 10
0.0
 20
0.0
 11
1.0
 21
1.0
 12
-1.753939145897235
 22
-6.407293305652455
 13
0.0
 23
0.0
 14
10.0
 24
10.0
 15
10.0
 25
10.0
 16
0.0
 26
0.0
 36
1.0
 17
0.0
 27
0.0
 37
0.0
 40
124.9341218367417
 41
1.516441005802708
 42
50.0
 43
0.0
 44
0.0
 50
0.0
 51
0.0
 71
    16
 72
  2000
 73
     1
 74
     3
 75
     0
 76
     0
 77
     0
 78
     0
281
     0
 65
     1
110
0.0
120
0.0
130
0.0
111
1.0
121
0.0
131
0.0
112
0.0
122
1.0
132
0.0
 79
     0
146
0.0
  0
ENDTAB
  0
TABLE
  2
LTYPE
  5
5
330
0
100
AcDbSymbolTable
 70
     6
  0
LTYPE
  5
14
330
5
100
AcDbSymbolTableRecord
100
AcDbLinetypeTableRecord
  2
ByBlock
 70
     0
  3

 72
    65
 73
     0
 40
0.0
  0
LTYPE
  5
15
330
5
100
AcDbSymbolTableRecord
100
AcDbLinetypeTableRecord
  2
ByLayer
 70
     0
  3

 72
    65
 73
     0
 40
0.0
  0
LTYPE
  5
16
330
5
100
AcDbSymbolTableRecord
100
AcDbLinetypeTableRecord
  2
Continuous
 70
     0
  3
Solid line
 72
    65
 73
     0
 40
0.0
  0
LTYPE
  5
6A
330
5
100
AcDbSymbolTableRecord
100
AcDbLinetypeTableRecord
  2
HIDDEN
 70
     0
  3
Hidden __ __ __ __ __ __ __ __ __ __ __ __ __ __
 72
    65
 73
     2
 40
1.905
 49
1.27
 74
     0
 49
-0.635
 74
     0
  0
LTYPE
  5
6B
330
5
100
AcDbSymbolTableRecord
100
AcDbLinetypeTableRecord
  2
PHANTOM
 70
     0
  3
Phantom ______  __  __  ______  __  __  ______
 72
    65
 73
     6
 40
12.7
 49
6.35
 74
     0
 49
-1.27
 74
     0
 49
1.27
 74
     0
 49
-1.27
 74
     0
 49
1.27
 74
     0
 49
-1.27
 74
     0
  0
LTYPE
  5
6C
330
5
100
AcDbSymbolTableRecord
100
AcDbLinetypeTableRecord
  2
CENTER
 70
     0
  3
Center ____ _ ____ _ ____ _ ____ _ ____ _ ____
 72
    65
 73
     4
 40
10.16
 49
6.35
 74
     0
 49
-1.27
 74
     0
 49
1.27
 74
     0
 49
-1.27
 74
     0
  0
LTYPE
  5
6D
330
5
100
AcDbSymbolTableRecord
100
AcDbLinetypeTableRecord
  2
CENTERX2
 70
     0
  3
Center (2x) ________  __  ________  __  _____
 72
    65
 73
     4
 40
20.32
 49
12.7
 74
     0
 49
-2.54
 74
     0
 49
2.54
 74
     0
 49
-2.54
 74
     0
  0
LTYPE
  5
6E
330
5
100
AcDbSymbolTableRecord
100
AcDbLinetypeTableRecord
  2
DOT2
 70
     0
  3
Dot (.5x) ........................................
 72
    65
 73
     2
 40
0.635
 49
0.0
 74
     0
 49
-0.635
 74
     0
  0
ENDTAB
  0
TABLE
  2
LAYER
  5
2
102
{ACAD_XDICTIONARY
360
267
102
}
330
0
100
AcDbSymbolTable
 70
    18
  0
LAYER
  5
10
330
2
100
AcDbSymbolTableRecord
100
AcDbLayerTableRecord
  2
0
 70
     0
 62
     7
  6
Continuous
370
    -3
390
F
  0
LAYER
  5
6F
330
2
100
AcDbSymbolTableRecord
100
AcDbLayerTableRecord
  2
FORMAT
 70
     0
 62
     2
  6
Continuous
370
    -3
390
F
  0
LAYER
  5
70
330
2
100
AcDbSymbolTableRecord
100
AcDbLayerTableRecord
  2
외형선
 70
     0
 62
     4
  6
Continuous
370
    30
390
F
  0
LAYER
  5
71
330
2
100
AcDbSymbolTableRecord
100
AcDbLayerTableRecord
  2
숨은선
 70
     0
 62
     2
  6
HIDDEN
370
    15
390
F
  0
LAYER
  5
72
330
2
100
AcDbSymbolTableRecord
100
AcDbLayerTableRecord
  2
중심선
 70
     0
 62
     1
  6
CENTERX2
370
    -3
390
F
  0
LAYER
  5
73
330
2
100
AcDbSymbolTableRecord
100
AcDbLayerTableRecord
  2
파단선
 70
     0
 62
     4
  6
Continuous
370
    -3
390
F
  0
LAYER
  5
74
330
2
100
AcDbSymbolTableRecord
100
AcDbLayerTableRecord
  2
해칭선
 70
     0
 62
   100
  6
Continuous
370
    -3
390
F
  0
LAYER
  5
75
330
2
100
AcDbSymbolTableRecord
100
AcDbLayerTableRecord
  2
가는실선
 70
     0
 62
     4
  6
Continuous
370
    -3
390
F
  0
LAYER
  5
76
330
2
100
AcDbSymbolTableRecord
100
AcDbLayerTableRecord
  2
치수_보조선
 70
     0
 62
     4
  6
Continuous
370
    -3
390
F
  0
LAYER
  5
77
330
2
100
AcDbSymbolTableRecord
100
AcDbLayerTableRecord
  2
치수문자_일반주서
 70
     0
 62
     7
  6
Continuous
370
    15
390
F
  0
LAYER
  5
78
330
2
100
AcDbSymbolTableRecord
100
AcDbLayerTableRecord
  2
개별주서
 70
     0
 62
   100
  6
Continuous
370
    30
390
F
  0
LAYER
  5
79
330
2
100
AcDbSymbolTableRecord
100
AcDbLayerTableRecord
  2
중간선
 70
     0
 62
     2
  6
Continuous
370
    15
390
F
  0
LAYER
  5
7A
330
2
100
AcDbSymbolTableRecord
100
AcDbLayerTableRecord
  2
윤곽선
 70
     0
 62
     3
  6
Continuous
370
    40
390
F
  0
LAYER
  5
7B
330
2
100
AcDbSymbolTableRecord
100
AcDbLayerTableRecord
  2
중심마크
 70
     0
 62
   100
  6
Continuous
370
    30
390
F
  0
LAYER
  5
7C
330
2
100
AcDbSymbolTableRecord
100
AcDbLayerTableRecord
  2
가상선
 70
     0
 62
     4
  6
PHANTOM
370
    -3
390
F
  0
LAYER
  5
7D
330
2
100
AcDbSymbolTableRecord
100
AcDbLayerTableRecord
  2
특수지정선
 70
     0
 62
     5
  6
CENTERX2
370
    60
390
F
  0
LAYER
  5
7E
330
2
100
AcDbSymbolTableRecord
100
AcDbLayerTableRecord
  2
참조1
 70
     0
 62
    -4
  6
Continuous
370
    -3
390
F
  0
LAYER
  5
238
330
2
100
AcDbSymbolTableRecord
100
AcDbLayerTableRecord
  2
Defpoints
 70
     0
 62
     7
  6
Continuous
290
     0
370
    -3
390
F
  0
ENDTAB
  0
TABLE
  2
STYLE
  5
3
330
0
100
AcDbSymbolTable
 70
     2
  0
STYLE
  5
11
330
3
100
AcDbSymbolTableRecord
100
AcDbTextStyleTableRecord
  2
Standard
 70
     0
 40
0.0
 41
1.0
 50
0.0
 71
     0
 42
3.5
  3
txt
  4

  0
STYLE
  5
94
330
3
100
AcDbSymbolTableRecord
100
AcDbTextStyleTableRecord
  2
SLDTEXTSTYLE0
 70
     0
 40
0.0
 41
0.75
 50
0.0
 71
     0
 42
3.5
  3
TXT
  4

  0
ENDTAB
  0
TABLE
  2
VIEW
  5
6
330
0
100
AcDbSymbolTable
 70
     0
  0
ENDTAB
  0
TABLE
  2
UCS
  5
7
330
0
100
AcDbSymbolTable
 70
     0
  0
ENDTAB
  0
TABLE
  2
APPID
  5
9
330
0
100
AcDbSymbolTable
 70
     1
  0
APPID
  5
12
330
9
100
AcDbSymbolTableRecord
100
AcDbRegAppTableRecord
  2
ACAD
 70
     0
  0
ENDTAB
  0
TABLE
  2
DIMSTYLE
  5
A
330
0
100
AcDbSymbolTable
 70
     4
100
AcDbDimStyleTable
  0
DIMSTYLE
105
27
330
A
100
AcDbSymbolTableRecord
100
AcDbDimStyleTableRecord
  2
ISO-25
 70
     0
 41
2.5
 42
0.625
 43
3.75
 44
1.25
 73
     0
 74
     0
 77
     1
 78
     8
140
2.5
141
2.5
143
0.03937007874016
147
0.625
171
     3
172
     1
178
     0
271
     2
272
     2
274
     3
278
    44
283
     0
284
     8
340
11
  0
DIMSTYLE
105
1B4
102
{ACAD_REACTORS
330
1B3
330
1DC
102
}
330
A
100
AcDbSymbolTableRecord
100
AcDbDimStyleTableRecord
  2
SLDDIMSTYLE0
 70
     0
 41
3.302
 44
0.0
 45
0.000000001
 73
     0
 74
     0
 77
     1
 78
    12
 79
     3
140
3.5
143
0.0393700787401575
147
0.875
148
0.000000001
170
     1
172
     1
173
     1
178
     0
271
     2
272
     2
276
     2
284
    12
289
     0
340
94
  0
DIMSTYLE
105
1C9
102
{ACAD_REACTORS
330
1C8
102
}
330
A
100
AcDbSymbolTableRecord
100
AcDbDimStyleTableRecord
  2
SLDDIMSTYLE1
 70
     0
 41
3.302
 44
0.0
 45
0.000000001
 73
     0
 74
     0
 77
     1
 78
    12
 79
     3
140
3.5
143
0.0393700787401575
147
0.875
148
0.000000001
170
     1
173
     1
178
     0
271
     2
272
     2
276
     2
284
    12
340
94
  0
DIMSTYLE
105
1F2
102
{ACAD_REACTORS
330
1F1
102
}
330
A
100
AcDbSymbolTableRecord
100
AcDbDimStyleTableRecord
  2
SLDDIMSTYLE2
 70
     0
 41
3.302
 44
0.0
 45
0.000000001
 73
     0
 74
     0
 77
     1
 78
     4
 79
     1
140
3.5
143
0.0393700787401575
147
0.875
148
0.000000001
170
     1
173
     1
178
     0
271
     2
272
     2
276
     2
284
    12
340
94
  0
ENDTAB
  0
TABLE
  2
BLOCK_RECORD
  5
1
330
0
100
AcDbSymbolTable
 70
     7
  0
BLOCK_RECORD
  5
1F
330
1
100
AcDbSymbolTableRecord
100
AcDbBlockTableRecord
  2
*Model_Space
340
22
  0
BLOCK_RECORD
  5
1B
330
1
100
AcDbSymbolTableRecord
100
AcDbBlockTableRecord
  2
*Paper_Space
340
1E
  0
BLOCK_RECORD
  5
23
330
1
100
AcDbSymbolTableRecord
100
AcDbBlockTableRecord
  2
*Paper_Space0
340
26
  0
BLOCK_RECORD
  5
7F
330
1
100
AcDbSymbolTableRecord
100
AcDbBlockTableRecord
  2
블럭10
340
0
102
{BLKREFS
331
1AC
102
}
  0
BLOCK_RECORD
  5
1B5
330
1
100
AcDbSymbolTableRecord
100
AcDbBlockTableRecord
  2
_D
340
0
  0
BLOCK_RECORD
  5
1CA
330
1
100
AcDbSymbolTableRecord
100
AcDbBlockTableRecord
  2
_D_1
340
0
  0
BLOCK_RECORD
  5
1DD
330
1
100
AcDbSymbolTableRecord
100
AcDbBlockTableRecord
  2
_D_2
340
0
  0
BLOCK_RECORD
  5
1F3
330
1
100
AcDbSymbolTableRecord
100
AcDbBlockTableRecord
  2
_D_3
340
0
  0
BLOCK_RECORD
  5
20C
330
1
100
AcDbSymbolTableRecord
100
AcDbBlockTableRecord
  2
SW_DOWELSYMBOL_0
340
0
102
{BLKREFS
331
212
102
}
  0
ENDTAB
  0
ENDSEC
  0
SECTION
  2
BLOCKS
  0
BLOCK
  5
20
330
1F
100
AcDbEntity
  8
0
100
AcDbBlockBegin
  2
*Model_Space
 70
     0
 10
0.0
 20
0.0
 30
0.0
  3
*Model_Space
  1
*Model_Space
  0
ENDBLK
  5
21
330
1F
100
AcDbEntity
  8
0
100
AcDbBlockEnd
  0
BLOCK
  5
1C
330
1B
100
AcDbEntity
 67
     1
  8
0
100
AcDbBlockBegin
  2
*Paper_Space
 70
     0
 10
0.0
 20
0.0
 30
0.0
  3
*Paper_Space
  1
*Paper_Space
  0
ENDBLK
  5
1D
330
1B
100
AcDbEntity
 67
     1
  8
0
100
AcDbBlockEnd
  0
BLOCK
  5
24
330
23
100
AcDbEntity
  8
0
100
AcDbBlockBegin
  2
*Paper_Space0
 70
     0
 10
0.0
 20
0.0
 30
0.0
  3
*Paper_Space0
  1
*Paper_Space0
  0
ENDBLK
  5
25
330
23
100
AcDbEntity
  8
0
100
AcDbBlockEnd
  0
BLOCK
  5
80
330
7F
100
AcDbEntity
  8
0
100
AcDbBlockBegin
  2
블럭10
 70
     2
 10
0.0
 20
0.0
 30
0.0
  3
블럭10
  1
블럭10
  0
ELLIPSE
  5
82
330
7F
100
AcDbEntity
  8
중심선
100
AcDbEllipse
 10
20.54032771741204
 20
12.0471743016438
 30
0.0
 11
6.600054785286829
 21
-1.261213355974178E-13
 31
0.0
210
0.0
220
0.0
230
1.0
 40
0.636358354079598
 41
0.9219305317359503
 42
6.513795318482858
  0
ELLIPSE
  5
83
330
7F
100
AcDbEntity
  8
중심선
100
AcDbEllipse
 10
20.54032771746488
 20
12.04717430159265
 30
0.0
 11
3.960054785062283
 21
1.540847449632565E-10
 31
0.0
210
0.0
220
0.0
230
1.0
 40
0.3939339440162632
 41
1.131841032648279
 42
5.62031148352944
  0
LINE
  5
84
330
7F
100
AcDbEntity
  8
중심선
100
AcDbLine
 10
2.268634060543552
 20
16.24717430164393
 30
0.0
 11
5.714909304380834
 21
16.24717430164393
 31
0.0
  0
LINE
  5
85
330
7F
100
AcDbEntity
  8
중심선
100
AcDbLine
 10
5.245725140726316
 20
7.84717430164391
 30
0.0
 11
8.692000384563599
 21
7.84717430164391
 31
0.0
  0
LINE
  5
86
330
7F
100
AcDbEntity
  8
중심선
100
AcDbLine
 10
15.74043728645272
 20
16.24717430164393
 30
0.0
 11
8.692000384563599
 21
7.84717430164391
 31
0.0
  0
LINE
  5
87
330
7F
100
AcDbEntity
  8
중심선
100
AcDbLine
 10
0.1404042013395286
 20
13.71084872107135
 30
0.0
 11
3.58671253028996
 21
13.71088815037384
 31
0.0
  0
LINE
  5
88
330
7F
100
AcDbEntity
  8
중심선
100
AcDbLine
 10
2.750260043222114
 20
10.84717430164391
 30
0.0
 11
6.196535287059397
 21
10.84717430164391
 31
0.0
  0
LINE
  5
89
330
7F
100
AcDbEntity
  8
중심선
100
AcDbLine
 10
12.29416204261559
 20
16.24717430164393
 30
0.0
 11
5.245725140726316
 21
7.84717430164391
 31
0.0
  0
LINE
  5
8A
330
7F
100
AcDbEntity
  8
중심선
100
AcDbLine
 10
10.72767329541681
 20
16.24717430164393
 30
0.0
 11
6.196535287059397
 21
10.84717430164391
 31
0.0
  0
LINE
  5
8B
330
7F
100
AcDbEntity
  8
중심선
100
AcDbLine
 10
7.28139805157953
 20
16.24717430164393
 30
0.0
 11
2.750260043222114
 21
10.84717430164391
 31
0.0
  0
LINE
  5
8C
330
7F
100
AcDbEntity
  8
중심선
100
AcDbLine
 10
5.714909304380834
 20
16.24717430164393
 30
0.0
 11
3.58671253028996
 21
13.71088815037384
 31
0.0
  0
LINE
  5
8D
330
7F
100
AcDbEntity
  8
중심선
100
AcDbLine
 10
2.268634060543552
 20
16.24717430164393
 30
0.0
 11
0.1404042013395286
 21
13.71084872107135
 31
0.0
  0
LINE
  5
8E
330
7F
100
AcDbEntity
  8
중심선
100
AcDbLine
 10
7.28139805157953
 20
16.24717430164393
 30
0.0
 11
10.72767329541681
 21
16.24717430164393
 31
0.0
  0
LINE
  5
8F
330
7F
100
AcDbEntity
  8
중심선
100
AcDbLine
 10
12.29416204261559
 20
16.24717430164393
 30
0.0
 11
15.74043728645272
 21
16.24717430164393
 31
0.0
  0
LINE
  5
90
330
7F
100
AcDbEntity
  8
중심선
100
AcDbLine
 10
19.22036997980202
 20
11.08717430171403
 30
0.0
 11
23.66174974927406
 21
11.08717430171406
 31
0.0
  0
LINE
  5
91
330
7F
100
AcDbEntity
  8
중심선
100
AcDbLine
 10
19.22039502424796
 20
13.00717430171391
 30
0.0
 11
19.22036997980202
 21
11.08717430171403
 31
0.0
  0
LINE
  5
92
330
7F
100
AcDbEntity
  8
중심선
100
AcDbLine
 10
19.22039502424796
 20
13.00717430171391
 30
0.0
 11
26.96566020931264
 21
13.00717430171391
 31
0.0
  0
LINE
  5
93
330
7F
100
AcDbEntity
  8
중심선
100
AcDbLine
 10
22.22332737316547
 20
13.45928029700563
 30
0.0
 11
24.52862924686651
 21
15.39360700705356
 31
0.0
  0
ATTDEF
  5
95
330
7F
100
AcDbEntity
  8
FORMAT
 62
     2
100
AcDbText
 10
2.542683156192612
 20
2.075366912832191
 30
0.0
 40
4.233333333333333
  1
GYG68020
 41
0.75
  7
SLDTEXTSTYLE0
 11
2.542683156192612
 21
-0.0412997538344756
 31
0.0
100
AcDbAttributeDefinition
  3

  2
AUTOATTR0
 70
     0
 74
     1
  0
ENDBLK
  5
81
330
7F
100
AcDbEntity
  8
0
100
AcDbBlockEnd
  0
BLOCK
  5
1B6
330
1B5
100
AcDbEntity
  8
0
100
AcDbBlockBegin
  2
_D
 70
     0
 10
0.0
 20
0.0
 30
0.0
  3
_D
  1
_D
  0
LINE
  5
1B8
330
1B5
100
AcDbEntity
  8
치수문자_일반주서
 62
     0
370
    -2
100
AcDbLine
 10
-40.0501846714922
 20
4.762499999999999
 30
0.0
 11
-52.37098164173897
 21
4.762499999999953
 31
0.0
  0
LINE
  5
1B9
330
1B5
100
AcDbEntity
  8
치수문자_일반주서
 62
     0
370
    -2
100
AcDbLine
 10
-40.0501846714922
 20
-4.762500000000006
 30
0.0
 11
-52.37098164173894
 21
-4.762500000000053
 31
0.0
  0
LINE
  5
1BA
330
1B5
100
AcDbEntity
  8
치수문자_일반주서
 62
     0
370
    -2
100
AcDbLine
 10
-52.37098164173896
 20
1.460499999999954
 30
0.0
 11
-52.37098164173895
 21
-1.460500000000053
 31
0.0
  0
SOLID
  5
1BB
330
1B5
100
AcDbEntity
  8
치수문자_일반주서
 62
     0
100
AcDbTrace
 10
-51.82064830840562
 20
1.460499999999956
 30
0.0
 11
-52.92131497507229
 21
1.460499999999952
 31
0.0
 12
-52.37098164173897
 22
4.762499999999953
 32
0.0
 13
-52.37098164173897
 23
4.762499999999953
 33
0.0
  0
SOLID
  5
1BC
330
1B5
100
AcDbEntity
  8
치수문자_일반주서
 62
     0
100
AcDbTrace
 10
-52.92131497507228
 20
-1.460500000000055
 30
0.0
 11
-51.82064830840562
 21
-1.460500000000051
 31
0.0
 12
-52.37098164173894
 22
-4.762500000000053
 32
0.0
 13
-52.37098164173894
 23
-4.762500000000053
 33
0.0
  0
MTEXT
  5
1BD
330
1B5
100
AcDbEntity
  8
치수문자_일반주서
 62
     0
100
AcDbMText
 10
-56.74598164173896
 20
-0.0000000000000165
 30
0.0
 40
3.5
 41
0.0
 71
     2
 72
     1
  1
\A1;%%c9.53 [3/8]
  7
SLDTEXTSTYLE0
 11
-3.729883127349605E-15
 21
1.0
 31
0.0
 73
     1
 44
1.0
  0
POINT
  5
1BE
330
1B5
100
AcDbEntity
  8
Defpoints
 62
     0
100
AcDbPoint
 10
-39.9876846714922
 20
4.762499999999999
 30
0.0
  0
POINT
  5
1BF
330
1B5
100
AcDbEntity
  8
Defpoints
 62
     0
100
AcDbPoint
 10
-39.9876846714922
 20
-4.762500000000006
 30
0.0
  0
POINT
  5
1C0
330
1B5
100
AcDbEntity
  8
Defpoints
 62
     0
100
AcDbPoint
 10
-52.37098164173894
 20
-4.762500000000053
 30
0.0
  0
ENDBLK
  5
1B7
330
1B5
100
AcDbEntity
  8
0
100
AcDbBlockEnd
  0
BLOCK
  5
1CB
330
1CA
100
AcDbEntity
  8
0
100
AcDbBlockBegin
  2
_D_1
 70
     0
 10
0.0
 20
0.0
 30
0.0
  3
_D_1
  1
_D_1
  0
LINE
  5
1CD
330
1CA
100
AcDbEntity
  8
치수문자_일반주서
 62
     0
370
    -2
100
AcDbLine
 10
23.07481532850779
 20
3.968749999999998
 30
0.0
 11
41.79963065701567
 21
3.968750000000068
 31
0.0
  0
LINE
  5
1CE
330
1CA
100
AcDbEntity
  8
치수문자_일반주서
 62
     0
370
    -2
100
AcDbLine
 10
23.07481532850779
 20
-3.968750000000002
 30
0.0
 11
41.7996306570157
 21
-3.968749999999932
 31
0.0
  0
LINE
  5
1CF
330
1CA
100
AcDbEntity
  8
치수문자_일반주서
 62
     0
370
    -2
100
AcDbLine
 10
41.79963065701567
 20
3.968750000000068
 30
0.0
 11
41.79963065701554
 21
38.57275000000007
 31
0.0
  0
LINE
  5
1D0
330
1CA
100
AcDbEntity
  8
치수문자_일반주서
 62
     0
370
    -2
100
AcDbLine
 10
41.79963065701565
 20
7.270750000000067
 30
0.0
 11
41.79963065701564
 21
10.57275000000007
 31
0.0
  0
LINE
  5
1D1
330
1CA
100
AcDbEntity
  8
치수문자_일반주서
 62
     0
370
    -2
100
AcDbLine
 10
41.79963065701571
 20
-7.270749999999932
 30
0.0
 11
41.79963065701573
 21
-10.57274999999993
 31
0.0
  0
SOLID
  5
1D2
330
1CA
100
AcDbEntity
  8
치수문자_일반주서
 62
     0
100
AcDbTrace
 10
41.24929732368232
 20
7.270750000000065
 30
0.0
 11
42.34996399034899
 21
7.270750000000069
 31
0.0
 12
41.79963065701567
 22
3.968750000000068
 32
0.0
 13
41.79963065701567
 23
3.968750000000068
 33
0.0
  0
SOLID
  5
1D3
330
1CA
100
AcDbEntity
  8
치수문자_일반주서
 62
     0
100
AcDbTrace
 10
42.34996399034905
 20
-7.27074999999993
 30
0.0
 11
41.24929732368238
 21
-7.270749999999934
 31
0.0
 12
41.7996306570157
 22
-3.968749999999932
 32
0.0
 13
41.7996306570157
 23
-3.968749999999932
 33
0.0
  0
MTEXT
  5
1D4
330
1CA
100
AcDbEntity
  8
치수문자_일반주서
 62
     0
100
AcDbMText
 10
37.42463065701559
 20
24.57275000000005
 30
0.0
 40
3.5
 41
0.0
 71
     2
 72
     1
  1
\A1;%%c7.94 [5/16]
  7
SLDTEXTSTYLE0
 11
-3.580687802255623E-15
 21
1.0
 31
0.0
 73
     1
 44
1.0
  0
POINT
  5
1D5
330
1CA
100
AcDbEntity
  8
Defpoints
 62
     0
100
AcDbPoint
 10
23.01231532850779
 20
3.968749999999998
 30
0.0
  0
POINT
  5
1D6
330
1CA
100
AcDbEntity
  8
Defpoints
 62
     0
100
AcDbPoint
 10
23.01231532850779
 20
-3.968750000000002
 30
0.0
  0
POINT
  5
239
330
1CA
100
AcDbEntity
  8
Defpoints
 62
     0
100
AcDbPoint
 10
41.7996306570157
 20
-3.968749999999932
 30
0.0
  0
ENDBLK
  5
1CC
330
1CA
100
AcDbEntity
  8
0
100
AcDbBlockEnd
  0
BLOCK
  5
1DE
330
1DD
100
AcDbEntity
  8
0
100
AcDbBlockBegin
  2
_D_2
 70
     0
 10
0.0
 20
0.0
 30
0.0
  3
_D_2
  1
_D_2
  0
LINE
  5
1E0
330
1DD
100
AcDbEntity
  8
치수문자_일반주서
 62
     0
370
    -2
100
AcDbLine
 10
23.01231532850779
 20
3.826022169603057
 30
0.0
 11
23.01231532850779
 21
15.55526074574217
 31
0.0
  0
LINE
  5
1E1
330
1DD
100
AcDbEntity
  8
치수문자_일반주서
 62
     0
370
    -2
100
AcDbLine
 10
3.962315328507485
 20
-3.09849020201024
 30
0.0
 11
3.96231532850749
 21
15.55526074574217
 31
0.0
  0
LINE
  5
1E2
330
1DD
100
AcDbEntity
  8
치수문자_일반주서
 62
     0
370
    -2
100
AcDbLine
 10
19.71031532850779
 20
15.55526074574217
 30
0.0
 11
7.26431532850749
 21
15.55526074574217
 31
0.0
  0
SOLID
  5
1E3
330
1DD
100
AcDbEntity
  8
치수문자_일반주서
 62
     0
100
AcDbTrace
 10
19.71031532850779
 20
15.00492741240884
 30
0.0
 11
19.71031532850779
 21
16.10559407907551
 31
0.0
 12
23.01231532850779
 22
15.55526074574217
 32
0.0
 13
23.01231532850779
 23
15.55526074574217
 33
0.0
  0
SOLID
  5
1E4
330
1DD
100
AcDbEntity
  8
치수문자_일반주서
 62
     0
100
AcDbTrace
 10
7.26431532850749
 20
16.10559407907551
 30
0.0
 11
7.26431532850749
 21
15.00492741240884
 31
0.0
 12
3.96231532850749
 22
15.55526074574217
 32
0.0
 13
3.96231532850749
 23
15.55526074574217
 33
0.0
  0
MTEXT
  5
1E5
330
1DD
100
AcDbEntity
  8
치수문자_일반주서
 62
     0
100
AcDbMText
 10
12.65564132993128
 20
19.93026074574217
 30
0.0
 40
3.5
 41
0.0
 71
     2
 72
     1
  1
\A1;19.05 [3/4]
  7
SLDTEXTSTYLE0
 73
     1
 44
1.0
  0
POINT
  5
1E6
330
1DD
100
AcDbEntity
  8
Defpoints
 62
     0
100
AcDbPoint
 10
23.01231532850779
 20
3.763522169603057
 30
0.0
  0
POINT
  5
1E7
330
1DD
100
AcDbEntity
  8
Defpoints
 62
     0
100
AcDbPoint
 10
3.962315328507485
 20
-3.16099020201024
 30
0.0
  0
POINT
  5
1E8
330
1DD
100
AcDbEntity
  8
Defpoints
 62
     0
100
AcDbPoint
 10
3.962315328507485
 20
15.55526074574217
 30
0.0
  0
ENDBLK
  5
1DF
330
1DD
100
AcDbEntity
  8
0
100
AcDbBlockEnd
  0
BLOCK
  5
1F4
330
1F3
100
AcDbEntity
  8
0
100
AcDbBlockBegin
  2
_D_3
 70
     0
 10
0.0
 20
0.0
 30
0.0
  3
_D_3
  1
_D_3
  0
LINE
  5
1F6
330
1F3
100
AcDbEntity
  8
치수문자_일반주서
 62
     0
370
    -2
100
AcDbLine
 10
23.01231532850779
 20
3.826022169603057
 30
0.0
 11
23.01231532850778
 21
30.46279548762688
 31
0.0
  0
LINE
  5
1F7
330
1F3
100
AcDbEntity
  8
치수문자_일반주서
 62
     0
370
    -2
100
AcDbLine
 10
-40.4876846714922
 20
4.324999999999991
 30
0.0
 11
-40.4876846714922
 21
30.46279548762688
 31
0.0
  0
LINE
  5
1F8
330
1F3
100
AcDbEntity
  8
치수문자_일반주서
 62
     0
370
    -2
100
AcDbLine
 10
19.71031532850778
 20
30.46279548762688
 30
0.0
 11
-37.1856846714922
 21
30.46279548762688
 31
0.0
  0
SOLID
  5
1F9
330
1F3
100
AcDbEntity
  8
치수문자_일반주서
 62
     0
100
AcDbTrace
 10
19.71031532850778
 20
29.91246215429355
 30
0.0
 11
19.71031532850778
 21
31.01312882096022
 31
0.0
 12
23.01231532850778
 22
30.46279548762688
 32
0.0
 13
23.01231532850778
 23
30.46279548762688
 33
0.0
  0
SOLID
  5
1FA
330
1F3
100
AcDbEntity
  8
치수문자_일반주서
 62
     0
100
AcDbTrace
 10
-37.1856846714922
 20
31.01312882096022
 30
0.0
 11
-37.1856846714922
 21
29.91246215429355
 31
0.0
 12
-40.4876846714922
 22
30.46279548762688
 32
0.0
 13
-40.4876846714922
 23
30.46279548762688
 33
0.0
  0
MTEXT
  5
1FB
330
1F3
100
AcDbEntity
  8
치수문자_일반주서
 62
     0
100
AcDbMText
 10
-8.737684671492223
 20
34.83779548762688
 30
0.0
 40
3.5
 41
0.0
 71
     2
 72
     1
  1
\A1;63.50 [2 1/2]
  7
SLDTEXTSTYLE0
 73
     1
 44
1.0
  0
POINT
  5
1FC
330
1F3
100
AcDbEntity
  8
Defpoints
 62
     0
100
AcDbPoint
 10
23.01231532850779
 20
3.763522169603057
 30
0.0
  0
POINT
  5
1FD
330
1F3
100
AcDbEntity
  8
Defpoints
 62
     0
100
AcDbPoint
 10
-40.4876846714922
 20
4.262499999999991
 30
0.0
  0
POINT
  5
1FE
330
1F3
100
AcDbEntity
  8
Defpoints
 62
     0
100
AcDbPoint
 10
-40.4876846714922
 20
30.46279548762688
 30
0.0
  0
ENDBLK
  5
1F5
330
1F3
100
AcDbEntity
  8
0
100
AcDbBlockEnd
  0
BLOCK
  5
20D
330
20C
100
AcDbEntity
  8
0
100
AcDbBlockBegin
  2
SW_DOWELSYMBOL_0
 70
     0
 10
0.0
 20
0.0
 30
0.0
  3
SW_DOWELSYMBOL_0
  1
SW_DOWELSYMBOL_0
  0
CIRCLE
  5
20F
330
20C
100
AcDbEntity
  8
해칭선
 62
     0
100
AcDbCircle
 10
0.0
 20
0.0
 30
0.0
 40
3.000000000000001
  0
HATCH
  5
210
330
20C
100
AcDbEntity
  8
0
  6
Continuous
 62
     0
370
     0
100
AcDbHatch
 10
0.0
 20
0.0
 30
0.0
210
0.0
220
0.0
230
1.0
  2
SOLID
 70
     1
 71
     0
 91
        1
 92
        0
 93
        3
 72
     2
 10
0.0
 20
0.0
 40
3.000000000000001
 50
0.0
 51
90.0
 73
     1
 72
     1
 10
0.0
 20
3.000000000000001
 11
0.0
 21
0.0
 72
     1
 10
0.0
 20
0.0
 11
3.000000000000001
 21
0.0
 97
        0
 75
     0
 76
     1
 98
        1
 10
0.0
 20
0.0
  0
HATCH
  5
211
330
20C
100
AcDbEntity
  8
0
  6
Continuous
 62
     0
370
     0
100
AcDbHatch
 10
0.0
 20
0.0
 30
0.0
210
0.0
220
0.0
230
1.0
  2
SOLID
 70
     1
 71
     0
 91
        1
 92
        0
 93
        3
 72
     2
 10
0.0
 20
0.0
 40
3.000000000000001
 50
180.0
 51
270.0000000000007
 73
     1
 72
     1
 10
0.0
 20
-3.000000000000001
 11
0.0
 21
0.0
 72
     1
 10
0.0
 20
0.0
 11
-3.000000000000001
 21
0.0
 97
        0
 75
     0
 76
     1
 98
        1
 10
0.0
 20
0.0
  0
ENDBLK
  5
20E
330
20C
100
AcDbEntity
  8
0
100
AcDbBlockEnd
  0
ENDSEC
  0
SECTION
  2
ENTITIES
  0
LINE
  5
96
330
1F
100
AcDbEntity
  8
외형선
  6
Continuous
370
    15
100
AcDbLine
 10
-39.9876846714922
 20
4.76249999999999
 30
0.0
 11
-40.4876846714922
 21
4.26249999999999
 31
0.0
  0
LINE
  5
97
330
1F
100
AcDbEntity
  8
외형선
  6
Continuous
370
    15
100
AcDbLine
 10
-40.4876846714922
 20
-4.262500000000011
 30
0.0
 11
-39.9876846714922
 21
-4.76250000000001
 31
0.0
  0
LINE
  5
98
330
1F
100
AcDbEntity
  8
외형선
  6
Continuous
370
    15
100
AcDbLine
 10
-0.0000000000000009
 20
4.762499999999996
 30
0.0
 11
-15.80523467149209
 21
4.762499999999994
 31
0.0
  0
LINE
  5
99
330
1F
100
AcDbEntity
  8
외형선
  6
Continuous
370
    15
100
AcDbLine
 10
-39.9876846714922
 20
-4.762500000000008
 30
0.0
 11
0.0000000000000009
 21
-4.762500000000003
 31
0.0
  0
LINE
  5
9A
330
1F
100
AcDbEntity
  8
외형선
  6
Continuous
370
    15
100
AcDbLine
 10
0.0000000000000009
 20
-4.762500000000003
 30
0.0
 11
2.762260593543551
 21
-4.022354504675693
 31
0.0
  0
LINE
  5
9B
330
1F
100
AcDbEntity
  8
외형선
  6
Continuous
370
    15
100
AcDbLine
 10
2.441985346093966
 20
4.108171998585481
 30
0.0
 11
-0.0000000000000009
 21
4.762499999999996
 31
0.0
  0
SPLINE
  5
9C
330
1F
100
AcDbEntity
  8
외형선
  6
Continuous
 62
     1
370
    15
100
AcDbSpline
210
0.0
220
0.0
230
1.0
 70
     8
 71
     3
 72
     9
 73
     5
 74
     0
 42
0.000000001
 43
0.00000001
 40
0.0
 40
0.0
 40
0.0
 40
0.0
 40
0.3267293650062665
 40
1.0
 40
1.0
 40
1.0
 40
1.0
 10
9.472094540630131
 20
-3.856077076663855
 30
0.0
 10
9.489448914124479
 20
-3.847165687153631
 30
0.0
 10
9.542564352628194
 20
-3.81989115824787
 30
0.0
 10
9.592623425802946
 20
-3.776524683815643
 30
0.0
 10
9.626326729786511
 20
-3.747327310037215
 30
0.0
  0
SPLINE
  5
9D
330
1F
100
AcDbEntity
  8
외형선
  6
Continuous
 62
     1
370
    15
100
AcDbSpline
210
0.0
220
0.0
230
1.0
 70
     8
 71
     3
 72
     9
 73
     5
 74
     0
 42
0.000000001
 43
0.00000001
 40
0.0
 40
0.0
 40
0.0
 40
0.0
 40
0.0888637900578477
 40
1.0
 40
1.0
 40
1.0
 40
1.0
 10
17.44955078208501
 20
3.913663057268482
 30
0.0
 10
17.44031513947557
 20
3.911916620271838
 30
0.0
 10
17.33638481416056
 20
3.892263654811911
 30
0.0
 10
17.24416649299135
 20
3.826209209523407
 30
0.0
 10
17.16014304135401
 20
3.76602461259341
 30
0.0
  0
LINE
  5
9E
330
1F
100
AcDbEntity
  8
외형선
  6
Continuous
 62
     1
370
    15
100
AcDbLine
 10
18.08251424300719
 20
-3.872131246239543
 30
0.0
 11
18.22104584836329
 21
-3.801330446550248
 31
0.0
  0
SPLINE
  5
9F
330
1F
100
AcDbEntity
  8
외형선
  6
Continuous
 62
     1
370
    15
100
AcDbSpline
210
0.0
220
0.0
230
1.0
 70
     8
 71
     3
 72
     9
 73
     5
 74
     0
 42
0.000000001
 43
0.00000001
 40
0.0
 40
0.0
 40
0.0
 40
0.0
 40
0.5006490700321218
 40
1.0
 40
1.0
 40
1.0
 40
1.0
 10
8.977470794823782
 20
3.954164869734021
 30
0.0
 10
8.899336214064178
 20
3.938945541444681
 30
0.0
 10
8.743269648806018
 20
3.908546347277864
 30
0.0
 10
8.605066992616976
 20
3.827522618237499
 30
0.0
 10
8.536055367724948
 20
3.787063343791727
 30
0.0
  0
SPLINE
  5
A0
330
1F
100
AcDbEntity
  8
외형선
  6
Continuous
 62
     1
370
    15
100
AcDbSpline
210
0.0
220
0.0
230
1.0
 70
     8
 71
     3
 72
     9
 73
     5
 74
     0
 42
0.000000001
 43
0.00000001
 40
0.0
 40
0.0
 40
0.0
 40
0.0
 40
0.7554278632146594
 40
1.0
 40
1.0
 40
1.0
 40
1.0
 10
9.602896546785246
 20
-3.780617419145489
 30
0.0
 10
9.616955371674129
 20
-3.776394720360387
 30
0.0
 10
9.635565785154323
 20
-3.770804909617726
 30
0.0
 10
9.661025318032893
 20
-3.77047156049544
 30
0.0
 10
9.66725201039056
 20
-3.770390032588307
 30
0.0
  0
SPLINE
  5
A1
330
1F
100
AcDbEntity
  8
외형선
  6
Continuous
 62
     1
370
    15
100
AcDbSpline
210
0.0
220
0.0
230
1.0
 70
     8
 71
     3
 72
     9
 73
     5
 74
     0
 42
0.000000001
 43
0.00000001
 40
0.0
 40
0.0
 40
0.0
 40
0.0
 40
0.4993709343229704
 40
0.9999999999999999
 40
0.9999999999999999
 40
0.9999999999999999
 40
0.9999999999999999
 10
9.835246356966474
 20
-3.810289472168725
 30
0.0
 10
9.904278155573728
 20
-3.848951451523903
 30
0.0
 10
10.04251567374416
 20
-3.926372816480988
 30
0.0
 10
10.19862252616235
 20
-3.952717802613959
 30
0.0
 10
10.27677415383425
 20
-3.965906868406981
 30
0.0
  0
SPLINE
  5
A2
330
1F
100
AcDbEntity
  8
외형선
  6
Continuous
 62
     1
370
    15
100
AcDbSpline
210
0.0
220
0.0
230
1.0
 70
     8
 71
     3
 72
     9
 73
     5
 74
     0
 42
0.000000001
 43
0.00000001
 40
0.0
 40
0.0
 40
0.0
 40
0.0
 40
0.5886491258480224
 40
1.0
 40
1.0
 40
1.0
 40
1.0
 10
18.23406092693901
 20
-3.790800839072931
 30
0.0
 10
18.26000006046948
 20
-3.780151011494709
 30
0.0
 10
18.30406558675918
 20
-3.762059032571136
 30
0.0
 10
18.35652838160158
 20
-3.773228400822118
 30
0.0
 10
18.37810899812047
 20
-3.777822930215884
 30
0.0
  0
SPLINE
  5
A3
330
1F
100
AcDbEntity
  8
외형선
  6
Continuous
 62
     1
370
    15
100
AcDbSpline
210
0.0
220
0.0
230
1.0
 70
     8
 71
     3
 72
     9
 73
     5
 74
     0
 42
0.000000001
 43
0.00000001
 40
0.0
 40
0.0
 40
0.0
 40
0.0
 40
0.5725694469736675
 40
1.0
 40
1.0
 40
1.0
 40
1.0
 10
17.18149572692561
 20
3.791632056542746
 30
0.0
 10
17.15400340208709
 20
3.780593855328222
 30
0.0
 10
17.10598769851816
 20
3.761315493073882
 30
0.0
 10
17.0519821491234
 20
3.774073065221873
 30
0.0
 10
17.02889852727911
 20
3.779526041340362
 30
0.0
  0
SPLINE
  5
A4
330
1F
100
AcDbEntity
  8
외형선
  6
Continuous
 62
     1
370
    15
100
AcDbSpline
210
0.0
220
0.0
230
1.0
 70
     8
 71
     3
 72
    11
 73
     7
 74
     0
 42
0.000000001
 43
0.00000001
 40
0.0
 40
0.0
 40
0.0
 40
0.0
 40
0.2413760406993368
 40
0.5247852380283758
 40
0.7795501445260451
 40
1.0
 40
1.0
 40
1.0
 40
1.0
 10
18.50552426731757
 20
-3.827829700089343
 30
0.0
 10
18.5899878727028
 20
-3.870554909638969
 30
0.0
 10
18.77362355223586
 20
-3.963445484852443
 30
0.0
 10
19.07709893370584
 20
-3.979452516280831
 30
0.0
 10
19.35915055106798
 20
-3.92386456036597
 30
0.0
 10
19.51045928095421
 20
-3.839592293745214
 30
0.0
 10
19.58065067714944
 20
-3.800498792272469
 30
0.0
  0
SPLINE
  5
A5
330
1F
100
AcDbEntity
  8
외형선
  6
Continuous
 62
     1
370
    15
100
AcDbSpline
210
0.0
220
0.0
230
1.0
 70
     8
 71
     3
 72
     9
 73
     5
 74
     0
 42
0.000000001
 43
0.00000001
 40
0.0
 40
0.0
 40
0.0
 40
0.0
 40
0.4993213616908042
 40
1.0
 40
1.0
 40
1.0
 40
1.0
 10
16.94889272457239
 20
3.810183741444269
 30
0.0
 10
16.87963960382769
 20
3.849309100612598
 30
0.0
 10
16.74094511555226
 20
3.927666171169009
 30
0.0
 10
16.5844546462162
 20
3.954795855610366
 30
0.0
 10
16.50610321112064
 20
3.968379109074222
 30
0.0
  0
SPLINE
  5
A6
330
1F
100
AcDbEntity
  8
외형선
  6
Continuous
 62
     1
370
    15
100
AcDbSpline
210
0.0
220
0.0
230
1.0
 70
     8
 71
     3
 72
    11
 73
     7
 74
     0
 42
0.000000001
 43
0.00000001
 40
0.0
 40
0.0
 40
0.0
 40
0.0
 40
0.2477101881397255
 40
0.4998081215926177
 40
0.7519914770656526
 40
1.0
 40
1.0
 40
1.0
 40
1.0
 10
8.548746975609836
 20
3.798731815071725
 30
0.0
 10
8.530086553776497
 20
3.78883450526516
 30
0.0
 10
8.492435173933426
 20
3.768864572415851
 30
0.0
 10
8.423852342792163
 20
3.761563585859123
 30
0.0
 10
8.355181051479702
 20
3.77376427090973
 30
0.0
 10
8.317387188891148
 20
3.797233629663183
 30
0.0
 10
8.298647980117074
 20
3.808870365983639
 30
0.0
  0
SPLINE
  5
A7
330
1F
100
AcDbEntity
  8
외형선
  6
Continuous
 62
     1
370
    15
100
AcDbSpline
210
0.0
220
0.0
230
1.0
 70
     8
 71
     3
 72
    11
 73
     7
 74
     0
 42
0.000000001
 43
0.00000001
 40
0.0
 40
0.0
 40
0.0
 40
0.0
 40
0.2924475537231615
 40
0.5641979580800535
 40
0.8019544721396905
 40
1.0
 40
1.0
 40
1.0
 40
1.0
 10
8.334716757103445
 20
3.797720384479302
 30
0.0
 10
8.229316635795362
 20
3.852667942623563
 30
0.0
 10
8.02597578897911
 20
3.958674300727091
 30
0.0
 10
7.699036892748455
 20
3.98031754015706
 30
0.0
 10
7.417388194574108
 20
3.925121923963033
 30
0.0
 10
7.263196852393607
 20
3.839602231928067
 30
0.0
 10
7.19312626341909
 20
3.800738732168175
 30
0.0
  0
SPLINE
  5
A8
330
1F
100
AcDbEntity
  8
외형선
  6
Continuous
 62
     1
370
    15
100
AcDbSpline
210
0.0
220
0.0
230
1.0
 70
     8
 71
     3
 72
     9
 73
     5
 74
     0
 42
0.000000001
 43
0.00000001
 40
0.0
 40
0.0
 40
0.0
 40
0.0
 40
0.5013096822661549
 40
1.0
 40
1.0
 40
1.0
 40
1.0
 10
10.26485687481484
 20
-3.968616883235993
 30
0.0
 10
10.34458423909245
 20
-3.95439659431102
 30
0.0
 10
10.50362238875914
 20
-3.926030318078948
 30
0.0
 10
10.64546843399373
 20
-3.844768260799534
 30
0.0
 10
10.71620568336105
 20
-3.804243659635157
 30
0.0
  0
SPLINE
  5
A9
330
1F
100
AcDbEntity
  8
외형선
  6
Continuous
 62
     1
370
    15
100
AcDbSpline
210
0.0
220
0.0
230
1.0
 70
     8
 71
     3
 72
     9
 73
     5
 74
     0
 42
0.000000001
 43
0.00000001
 40
0.0
 40
0.0
 40
0.0
 40
0.0
 40
0.550813024243924
 40
1.0
 40
1.0
 40
1.0
 40
1.0
 10
16.51157195586423
 20
3.968749999939041
 30
0.0
 10
16.4197662756192
 20
3.951592767251753
 30
0.0
 10
16.25309323739349
 20
3.920443843874646
 30
0.0
 10
16.11366734713555
 20
3.837616014544413
 30
0.0
 10
16.05103905314849
 20
3.800410832379127
 30
0.0
  0
SPLINE
  5
AA
330
1F
100
AcDbEntity
  8
외형선
  6
Continuous
 62
     1
370
    15
100
AcDbSpline
210
0.0
220
0.0
230
1.0
 70
     8
 71
     3
 72
     9
 73
     5
 74
     0
 42
0.000000001
 43
0.00000001
 40
0.0
 40
0.0
 40
0.0
 40
0.0
 40
0.4739120078902054
 40
1.0
 40
1.0
 40
1.0
 40
1.0
 10
10.72394970025186
 20
-3.799321365551042
 30
0.0
 10
10.75245797934956
 20
-3.784819131727182
 30
0.0
 10
10.8126131951345
 20
-3.754218021009557
 30
0.0
 10
10.89763112888919
 20
-3.784375166430308
 30
0.0
 10
10.94235804295151
 20
-3.800240478512472
 30
0.0
  0
SPLINE
  5
AB
330
1F
100
AcDbEntity
  8
외형선
  6
Continuous
 62
     1
370
    15
100
AcDbSpline
210
0.0
220
0.0
230
1.0
 70
     8
 71
     3
 72
    11
 73
     7
 74
     0
 42
0.000000001
 43
0.00000001
 40
0.0
 40
0.0
 40
0.0
 40
0.0
 40
0.2447964819399804
 40
0.4996799087233899
 40
0.7547276381686211
 40
1.0
 40
1.0
 40
1.0
 40
1.0
 10
10.94271523195941
 20
-3.800473950295274
 30
0.0
 10
11.02990035414111
 20
-3.847212744501781
 30
0.0
 10
11.20786309914683
 20
-3.942616225131355
 30
0.0
 10
11.51164910402194
 20
-3.982092181107781
 30
0.0
 10
11.81551507399112
 20
-3.942554397596389
 30
0.0
 10
11.99353013816016
 20
-3.847166515415522
 30
0.0
 10
12.0807986208607
 20
-3.800404429381963
 30
0.0
  0
SPLINE
  5
AC
330
1F
100
AcDbEntity
  8
외형선
  6
Continuous
 62
     1
370
    15
100
AcDbSpline
210
0.0
220
0.0
230
1.0
 70
     8
 71
     3
 72
     9
 73
     5
 74
     0
 42
0.000000001
 43
0.00000001
 40
0.0
 40
0.0
 40
0.0
 40
0.0
 40
0.5321643986241906
 40
1.0
 40
1.0
 40
1.0
 40
1.0
 10
16.05222285867145
 20
3.801227168597934
 30
0.0
 10
16.00844155919812
 20
3.784902635757418
 30
0.0
 10
15.92617130664738
 20
3.754226903065191
 30
0.0
 10
15.86441985206321
 20
3.783447826446677
 30
0.0
 10
15.83553032317199
 20
3.79711841470961
 30
0.0
  0
SPLINE
  5
AD
330
1F
100
AcDbEntity
  8
외형선
  6
Continuous
 62
     1
370
    15
100
AcDbSpline
210
0.0
220
0.0
230
1.0
 70
     8
 71
     3
 72
    11
 73
     7
 74
     0
 42
0.000000001
 43
0.00000001
 40
0.0
 40
0.0
 40
0.0
 40
0.0
 40
0.2878114026988285
 40
0.5579333711948375
 40
0.797227571379225
 40
0.9999999999999999
 40
0.9999999999999999
 40
0.9999999999999999
 40
0.9999999999999999
 10
15.83092337331344
 20
3.800324463388646
 30
0.0
 10
15.72564058466991
 20
3.854652921100806
 30
0.0
 10
15.52154588708022
 20
3.95997070656353
 30
0.0
 10
15.19461389580876
 20
3.980134987512202
 30
0.0
 10
14.91198458841057
 20
3.923128749749998
 30
0.0
 10
14.75869788471368
 20
3.836958273520383
 30
0.0
 10
14.68838649914743
 20
3.797432564946283
 30
0.0
  0
SPLINE
  5
AE
330
1F
100
AcDbEntity
  8
외형선
  6
Continuous
 62
     1
370
    15
100
AcDbSpline
210
0.0
220
0.0
230
1.0
 70
     8
 71
     3
 72
     9
 73
     5
 74
     0
 42
0.000000001
 43
0.00000001
 40
0.0
 40
0.0
 40
0.0
 40
0.0
 40
0.5275021417427087
 40
1.0
 40
1.0
 40
1.0
 40
1.0
 10
19.57831686499209
 20
-3.801920054774962
 30
0.0
 10
19.62375522227756
 20
-3.785143482919692
 30
0.0
 10
19.70989393848324
 20
-3.753339684360988
 30
0.0
 10
19.77243408194998
 20
-3.785751050423748
 30
0.0
 10
19.80198416579311
 20
-3.801065351471595
 30
0.0
  0
SPLINE
  5
AF
330
1F
100
AcDbEntity
  8
외형선
  6
Continuous
370
    15
100
AcDbSpline
210
0.0
220
0.0
230
1.0
 70
     8
 71
     3
 72
     9
 73
     5
 74
     0
 42
0.000000001
 43
0.00000001
 40
0.0
 40
0.0
 40
0.0
 40
0.0
 40
0.4263738498322469
 40
1.0
 40
1.0
 40
1.0
 40
1.0
 10
2.826052533802046
 20
-3.95394605515524
 30
0.0
 10
2.885157911685202
 20
-3.942906843958743
 30
0.0
 10
3.02378127685267
 20
-3.917015924051622
 30
0.0
 10
3.14765537417432
 20
-3.844436282874109
 30
0.0
 10
3.218712795726444
 20
-3.802802702724895
 30
0.0
  0
SPLINE
  5
B0
330
1F
100
AcDbEntity
  8
외형선
  6
Continuous
 62
     1
370
    15
100
AcDbSpline
210
0.0
220
0.0
230
1.0
 70
     8
 71
     3
 72
     9
 73
     5
 74
     0
 42
0.000000001
 43
0.00000001
 40
0.0
 40
0.0
 40
0.0
 40
0.0
 40
0.4982056086685659
 40
1.0
 40
1.0
 40
1.0
 40
1.0
 10
19.80278879521169
 20
-3.801605223297699
 30
0.0
 10
19.87397309191714
 20
-3.842713210419809
 30
0.0
 10
20.01685445548845
 20
-3.92522530263003
 30
0.0
 10
20.17660774009534
 20
-3.954016792613923
 30
0.0
 10
20.25677104230785
 20
-3.968464200805915
 30
0.0
  0
SPLINE
  5
B1
330
1F
100
AcDbEntity
  8
외형선
  6
Continuous
 62
     1
370
    15
100
AcDbSpline
210
0.0
220
0.0
230
1.0
 70
     8
 71
     3
 72
     9
 73
     5
 74
     0
 42
0.000000001
 43
0.00000001
 40
0.0
 40
0.0
 40
0.0
 40
0.0
 40
0.4991942828709327
 40
1.0
 40
1.0
 40
1.0
 40
1.0
 10
7.194773061334401
 20
3.801757957622945
 30
0.0
 10
7.156746130006019
 20
3.785147818836249
 30
0.0
 10
7.080569513740129
 20
3.751873922566504
 30
0.0
 10
7.005513476559509
 20
3.78612041803381
 30
0.0
 10
6.967924984034403
 20
3.803271258755472
 30
0.0
  0
SPLINE
  5
B2
330
1F
100
AcDbEntity
  8
외형선
  6
Continuous
 62
     1
370
    15
100
AcDbSpline
210
0.0
220
0.0
230
1.0
 70
     8
 71
     3
 72
     9
 73
     5
 74
     0
 42
0.000000001
 43
0.00000001
 40
0.0
 40
0.0
 40
0.0
 40
0.0
 40
0.49830737986261
 40
1.0
 40
1.0
 40
1.0
 40
1.0
 10
6.972967686573483
 20
3.800022693142353
 30
0.0
 10
6.901303816541235
 20
3.841566683310757
 30
0.0
 10
6.757489229544737
 20
3.92493689183518
 30
0.0
 10
6.596864141095515
 20
3.953930654095384
 30
0.0
 10
6.516279719611624
 20
3.968476610651347
 30
0.0
  0
SPLINE
  5
B3
330
1F
100
AcDbEntity
  8
외형선
  6
Continuous
370
    15
100
AcDbSpline
210
0.0
220
0.0
230
1.0
 70
     8
 71
     3
 72
     9
 73
     5
 74
     0
 42
0.000000001
 43
0.00000001
 40
0.0
 40
0.0
 40
0.0
 40
0.0
 40
0.497706303960866
 40
1.0
 40
1.0
 40
1.0
 40
1.0
 10
3.224466986845456
 20
-3.798942936972324
 30
0.0
 10
3.258559711337664
 20
-3.78388016569646
 30
0.0
 10
3.327059395229331
 20
-3.753615788580899
 30
0.0
 10
3.402872938457161
 20
-3.784020119482596
 30
0.0
 10
3.440953603294889
 20
-3.799292023226806
 30
0.0
  0
SPLINE
  5
B4
330
1F
100
AcDbEntity
  8
외형선
  6
Continuous
 62
     1
370
    15
100
AcDbSpline
210
0.0
220
0.0
230
1.0
 70
     8
 71
     3
 72
     9
 73
     5
 74
     0
 42
0.000000001
 43
0.00000001
 40
0.0
 40
0.0
 40
0.0
 40
0.0
 40
0.5010977888097925
 40
1.0
 40
1.0
 40
1.0
 40
1.0
 10
20.27079696425717
 20
-3.967701320151584
 30
0.0
 10
20.35004830427996
 20
-3.953161055926531
 30
0.0
 10
20.50820374178656
 20
-3.924144236156506
 30
0.0
 10
20.64895536049196
 20
-3.843002072016018
 30
0.0
 10
20.71917665429268
 20
-3.802520066905571
 30
0.0
  0
SPLINE
  5
B5
330
1F
100
AcDbEntity
  8
외형선
  6
Continuous
370
    15
100
AcDbSpline
210
0.0
220
0.0
230
1.0
 70
     8
 71
     3
 72
     9
 73
     5
 74
     0
 42
0.000000001
 43
0.00000001
 40
0.0
 40
0.0
 40
0.0
 40
0.0
 40
0.6486445363806543
 40
1.0
 40
1.0
 40
1.0
 40
1.0
 10
3.441023684465388
 20
-3.799340503322432
 30
0.0
 10
3.47411070734563
 20
-3.819888977595768
 30
0.0
 10
3.525120191006532
 20
-3.851568076271283
 30
0.0
 10
3.580189438456962
 20
-3.874112087799236
 30
0.0
 10
3.599538319426076
 20
-3.882033049421479
 30
0.0
  0
SPLINE
  5
B6
330
1F
100
AcDbEntity
  8
외형선
  6
Continuous
 62
     1
370
    15
100
AcDbSpline
210
0.0
220
0.0
230
1.0
 70
     8
 71
     3
 72
     9
 73
     5
 74
     0
 42
0.000000001
 43
0.00000001
 40
0.0
 40
0.0
 40
0.0
 40
0.0
 40
0.500927748143238
 40
1.0
 40
1.0
 40
1.0
 40
1.0
 10
6.507100429174174
 20
3.968502085421897
 30
0.0
 10
6.428399620711369
 20
3.954393140222246
 30
0.0
 10
6.271289520992354
 20
3.926227511043295
 30
0.0
 10
6.1317967600509
 20
3.84651488532837
 30
0.0
 10
6.062179793730135
 20
3.806732525711408
 30
0.0
  0
SPLINE
  5
B7
330
1F
100
AcDbEntity
  8
외형선
  6
Continuous
 62
     1
370
    15
100
AcDbSpline
210
0.0
220
0.0
230
1.0
 70
     8
 71
     3
 72
     9
 73
     5
 74
     0
 42
0.000000001
 43
0.00000001
 40
0.0
 40
0.0
 40
0.0
 40
0.0
 40
0.5004794920596463
 40
1.0
 40
1.0
 40
1.0
 40
1.0
 10
12.07153868855485
 20
-3.805328784232487
 30
0.0
 10
12.11073468999048
 20
-3.787097324866136
 30
0.0
 10
12.18905158820008
 20
-3.750669339992426
 30
0.0
 10
12.26740490463836
 20
-3.7861773315547
 30
0.0
 10
12.30654399306442
 20
-3.803914301535831
 30
0.0
  0
LINE
  5
B8
330
1F
100
AcDbEntity
  8
외형선
  6
Continuous
370
    15
100
AcDbLine
 10
3.612310585509098
 20
-3.885518113475891
 30
0.0
 11
3.962315328507787
 21
-3.840700009438388
 31
0.0
  0
SPLINE
  5
B9
330
1F
100
AcDbEntity
  8
외형선
  6
Continuous
 62
     1
370
    15
100
AcDbSpline
210
0.0
220
0.0
230
1.0
 70
     8
 71
     3
 72
    11
 73
     7
 74
     0
 42
0.000000001
 43
0.00000001
 40
0.0
 40
0.0
 40
0.0
 40
0.0
 40
0.2489179033744031
 40
0.5004410879466964
 40
0.7517521968822841
 40
1.0
 40
1.0
 40
1.0
 40
1.0
 10
20.7032021983401
 20
-3.809362621451612
 30
0.0
 10
20.72122502289638
 20
-3.798390550917508
 30
0.0
 10
20.75745930659611
 20
-3.776331571468142
 30
0.0
 10
20.82457147497669
 20
-3.765039764821063
 30
0.0
 10
20.8918201663693
 20
-3.773009733094899
 30
0.0
 10
20.92843839426916
 20
-3.792930888875488
 30
0.0
 10
20.94663523634498
 20
-3.802830388291425
 30
0.0
  0
SPLINE
  5
BA
330
1F
100
AcDbEntity
  8
외형선
  6
Continuous
 62
     1
370
    15
100
AcDbSpline
210
0.0
220
0.0
230
1.0
 70
     8
 71
     3
 72
    11
 73
     7
 74
     0
 42
0.000000001
 43
0.00000001
 40
0.0
 40
0.0
 40
0.0
 40
0.0
 40
0.2482777830050652
 40
0.4996548020319271
 40
0.7511983684721838
 40
1.0
 40
1.0
 40
1.0
 40
1.0
 10
14.71136164973083
 20
3.808343454943566
 30
0.0
 10
14.69314330124568
 20
3.797454956270534
 30
0.0
 10
14.6564791857718
 20
3.775542038477209
 30
0.0
 10
14.58916766271659
 20
3.764754009078236
 30
0.0
 10
14.52198536118453
 20
3.773247784309523
 30
0.0
 10
14.48567018400877
 20
3.793421673909364
 30
0.0
 10
14.46761210057509
 20
3.803453341380314
 30
0.0
  0
SPLINE
  5
BB
330
1F
100
AcDbEntity
  8
외형선
  6
Continuous
 62
     1
370
    15
100
AcDbSpline
210
0.0
220
0.0
230
1.0
 70
     8
 71
     3
 72
     9
 73
     5
 74
     0
 42
0.000000001
 43
0.00000001
 40
0.0
 40
0.0
 40
0.0
 40
0.0
 40
0.4990257101157277
 40
1.0
 40
1.0
 40
1.0
 40
1.0
 10
12.30398354983719
 20
-3.802377446929969
 30
0.0
 10
12.37367258794556
 20
-3.84261167183735
 30
0.0
 10
12.51332278370844
 20
-3.923237226977683
 30
0.0
 10
12.67055378752375
 20
-3.952316990819912
 30
0.0
 10
12.74932247800792
 20
-3.966885204860775
 30
0.0
  0
SPLINE
  5
BC
330
1F
100
AcDbEntity
  8
외형선
  6
Continuous
 62
     1
370
    15
100
AcDbSpline
210
0.0
220
0.0
230
1.0
 70
     8
 71
     3
 72
     9
 73
     5
 74
     0
 42
0.000000001
 43
0.00000001
 40
0.0
 40
0.0
 40
0.0
 40
0.0
 40
0.9698232790052713
 40
1.0
 40
1.0
 40
1.0
 40
1.0
 10
3.962215120194303
 20
-3.955773975202342
 30
0.0
 10
4.058795810887494
 20
-3.964873598757315
 30
0.0
 10
4.158381676461119
 20
-3.974256363382541
 30
0.0
 10
4.246877431959454
 20
-3.93678864753377
 30
0.0
 10
4.249547943682344
 20
-3.935657994726292
 30
0.0
  0
LINE
  5
BD
330
1F
100
AcDbEntity
  8
외형선
  6
Continuous
 62
     1
370
    15
100
AcDbLine
 10
4.477030172778155
 20
-3.840676720564941
 30
0.0
 11
4.508152876666304
 21
-3.827681973316365
 31
0.0
  0
SPLINE
  5
BE
330
1F
100
AcDbEntity
  8
외형선
  6
Continuous
 62
     1
370
    15
100
AcDbSpline
210
0.0
220
0.0
230
1.0
 70
     8
 71
     3
 72
    11
 73
     7
 74
     0
 42
0.000000001
 43
0.00000001
 40
0.0
 40
0.0
 40
0.0
 40
0.0
 40
0.2479868613116565
 40
0.4999016613664708
 40
0.7518587232942799
 40
0.9999999999999999
 40
0.9999999999999999
 40
0.9999999999999999
 40
0.9999999999999999
 10
6.08059351774376
 20
3.810594210159998
 30
0.0
 10
6.062113543348826
 20
3.798962261307167
 30
0.0
 10
6.024860884666927
 20
3.775514121652896
 30
0.0
 10
5.956706740887872
 20
3.762989500811065
 30
0.0
 10
5.888457216969693
 20
3.769923188970992
 30
0.0
 10
5.85102372095981
 20
3.789568876487421
 30
0.0
 10
5.832449783048255
 20
3.799316771262294
 30
0.0
  0
SPLINE
  5
BF
330
1F
100
AcDbEntity
  8
외형선
  6
Continuous
 62
     1
370
    15
100
AcDbSpline
210
0.0
220
0.0
230
1.0
 70
     8
 71
     3
 72
     9
 73
     5
 74
     0
 42
0.000000001
 43
0.00000001
 40
0.0
 40
0.0
 40
0.0
 40
0.0
 40
0.6231794864384806
 40
1.0
 40
1.0
 40
1.0
 40
1.0
 10
20.95914107996488
 20
-3.804768580591822
 30
0.0
 10
21.03459194481048
 20
-3.848336374222116
 30
0.0
 10
21.15566599568593
 20
-3.91824848554543
 30
0.0
 10
21.29290562757195
 20
-3.932764479746822
 30
0.0
 10
21.34462033614024
 20
-3.938234404136649
 30
0.0
  0
SPLINE
  5
C0
330
1F
100
AcDbEntity
  8
외형선
  6
Continuous
 62
     1
370
    15
100
AcDbSpline
210
0.0
220
0.0
230
1.0
 70
     8
 71
     3
 72
     9
 73
     5
 74
     0
 42
0.000000001
 43
0.00000001
 40
0.0
 40
0.0
 40
0.0
 40
0.0
 40
0.0612524297051244
 40
1.0
 40
1.0
 40
1.0
 40
1.0
 10
21.47726312171227
 20
-3.959300939483615
 30
0.0
 10
21.48025091969587
 20
-3.95980208673581
 30
0.0
 10
21.52902935996328
 20
-3.967983758134093
 30
0.0
 10
21.57780334467772
 20
-3.954878890089288
 30
0.0
 10
21.62358980432198
 20
-3.942576727053192
 30
0.0
  0
SPLINE
  5
C1
330
1F
100
AcDbEntity
  8
외형선
  6
Continuous
 62
     1
370
    15
100
AcDbSpline
210
0.0
220
0.0
230
1.0
 70
     8
 71
     3
 72
     9
 73
     5
 74
     0
 42
0.000000001
 43
0.00000001
 40
0.0
 40
0.0
 40
0.0
 40
0.0
 40
0.748580517691528
 40
1.0
 40
1.0
 40
1.0
 40
1.0
 10
14.47701441439598
 20
3.796988822703478
 30
0.0
 10
14.40833367379285
 20
3.839492611835503
 30
0.0
 10
14.31658570683411
 20
3.896271793403172
 30
0.0
 10
14.21301344614658
 20
3.918970360962368
 30
0.0
 10
14.186973361983
 20
3.924677223067246
 30
0.0
  0
LINE
  5
C2
330
1F
100
AcDbEntity
  8
외형선
  6
Continuous
 62
     1
370
    15
100
AcDbLine
 10
23.01231532850779
 20
3.768749999999994
 30
0.0
 11
22.81231532850779
 21
3.968749999999995
 31
0.0
  0
SPLINE
  5
C3
330
1F
100
AcDbEntity
  8
외형선
  6
Continuous
 62
     1
370
    15
100
AcDbSpline
210
0.0
220
0.0
230
1.0
 70
     8
 71
     3
 72
     9
 73
     5
 74
     0
 42
0.000000001
 43
0.00000001
 40
0.0
 40
0.0
 40
0.0
 40
0.0
 40
0.5875388614599227
 40
1.0
 40
1.0
 40
1.0
 40
1.0
 10
22.81316615365508
 20
3.952133504480239
 30
0.0
 10
22.71819183222302
 20
3.954435105380807
 30
0.0
 10
22.55654410530319
 20
3.958352464812739
 30
0.0
 10
22.4133563391064
 20
3.88722977863125
 30
0.0
 10
22.35429695003586
 20
3.857894434512803
 30
0.0
  0
SPLINE
  5
C4
330
1F
100
AcDbEntity
  8
외형선
  6
Continuous
 62
     1
370
    15
100
AcDbSpline
210
0.0
220
0.0
230
1.0
 70
     8
 71
     3
 72
     9
 73
     5
 74
     0
 42
0.000000001
 43
0.00000001
 40
0.0
 40
0.0
 40
0.0
 40
0.0
 40
0.5578535402037077
 40
1.0
 40
1.0
 40
1.0
 40
1.0
 10
5.851750491942591
 20
3.781921011392983
 30
0.0
 10
5.777578778428689
 20
3.827080489277702
 30
0.0
 10
5.644619662516622
 20
3.908032700978696
 30
0.0
 10
5.49468925277908
 20
3.935613545668687
 30
0.0
 10
5.428398052897816
 20
3.947808318506557
 30
0.0
  0
LINE
  5
C5
330
1F
100
AcDbEntity
  8
외형선
  6
Continuous
 62
     1
370
    15
100
AcDbLine
 10
12.76644293459364
 20
-3.968457332355218
 30
0.0
 11
12.85071645677278
 21
-3.952261418524542
 31
0.0
  0
LINE
  5
C6
330
1F
100
AcDbEntity
  8
외형선
  6
Continuous
370
    15
100
AcDbLine
 10
-39.9876846714922
 20
4.762499999999991
 30
0.0
 11
-39.9876846714922
 21
-4.762500000000002
 31
0.0
  0
LINE
  5
C7
330
1F
100
AcDbEntity
  8
외형선
  6
Continuous
370
    15
100
AcDbLine
 10
-40.4876846714922
 20
4.262499999999991
 30
0.0
 11
-40.4876846714922
 21
-4.262500000000011
 31
0.0
  0
LINE
  5
C8
330
1F
100
AcDbEntity
  8
외형선
  6
Continuous
370
    15
100
AcDbLine
 10
-0.0000000000000009
 20
4.762499999999996
 30
0.0
 11
0.0000000000000009
 21
-4.762499999999997
 31
0.0
  0
LINE
  5
C9
330
1F
100
AcDbEntity
  8
외형선
  6
Continuous
370
    15
100
AcDbLine
 10
2.441985346093966
 20
4.108171998585481
 30
0.0
 11
2.441985346093966
 21
3.51558689841214
 31
0.0
  0
SPLINE
  5
CA
330
1F
100
AcDbEntity
  8
외형선
  6
Continuous
370
    15
100
AcDbSpline
210
0.0
220
0.0
230
1.0
 70
     8
 71
     3
 72
     8
 73
     4
 74
     0
 42
0.000000001
 43
0.00000001
 40
0.0
 40
0.0
 40
0.0
 40
0.0
 40
1.0
 40
1.0
 40
1.0
 40
1.0
 10
2.962315328507788
 20
3.105812514686066
 30
0.0
 10
2.786710870367844
 20
3.248847362183504
 30
0.0
 10
2.613383231702459
 20
3.385683107686424
 30
0.0
 10
2.441985346093966
 20
3.515600087002235
 30
0.0
  0
SPLINE
  5
CC
330
1F
100
AcDbEntity
  8
외형선
  6
Continuous
370
    15
100
AcDbSpline
210
0.0
220
0.0
230
1.0
 70
     8
 71
     3
 72
     8
 73
     4
 74
     0
 42
0.000000001
 43
0.00000001
 40
0.0
 40
0.0
 40
0.0
 40
0.0
 40
1.0
 40
1.0
 40
1.0
 40
1.0
 10
2.441985346093966
 20
1.049121268070114
 30
0.0
 10
2.614340263986856
 20
0.8682042172174499
 30
0.0
 10
2.787735838348601
 20
0.6891267357527079
 30
0.0
 10
2.962315328507788
 20
0.5119998742039584
 30
0.0
  0
LINE
  5
CD
330
1F
100
AcDbEntity
  8
외형선
  6
Continuous
370
    15
100
AcDbLine
 10
2.441985346093966
 20
1.049151094030092
 30
0.0
 11
2.441985346093966
 21
-3.598525490339707
 31
0.0
  0
SPLINE
  5
CE
330
1F
100
AcDbEntity
  8
외형선
  6
Continuous
370
    15
100
AcDbSpline
210
0.0
220
0.0
230
1.0
 70
     8
 71
     3
 72
     8
 73
     4
 74
     0
 42
0.000000001
 43
0.00000001
 40
0.0
 40
0.0
 40
0.0
 40
0.0
 40
1.0
 40
1.0
 40
1.0
 40
1.0
 10
2.915578667746665
 20
-3.687403049792685
 30
0.0
 10
2.75593650083853
 20
-3.668307610233832
 30
0.0
 10
2.598160107867954
 20
-3.638846339277907
 30
0.0
 10
2.441985346093966
 20
-3.598513192982516
 30
0.0
  0
SPLINE
  5
D0
330
1F
100
AcDbEntity
  8
외형선
  6
Continuous
 62
     1
370
    15
100
AcDbSpline
210
0.0
220
0.0
230
1.0
 70
     8
 71
     3
 72
     9
 73
     5
 74
     0
 42
0.000000001
 43
0.00000001
 40
0.0
 40
0.0
 40
0.0
 40
0.0
 40
0.4175429509258956
 40
1.0
 40
1.0
 40
1.0
 40
1.0
 10
15.5044979692356
 20
-3.048351327864911
 30
0.0
 10
15.49614019610811
 20
-3.055142563666638
 30
0.0
 10
15.47612363707157
 20
-3.071407323463606
 30
0.0
 10
15.45743049015137
 20
-3.091094655006434
 30
0.0
 10
15.44654253495831
 20
-3.102561680041013
 30
0.0
  0
SPLINE
  5
D1
330
1F
100
AcDbEntity
  8
외형선
  6
Continuous
 62
     1
370
    15
100
AcDbSpline
210
0.0
220
0.0
230
1.0
 70
     8
 71
     3
 72
     8
 73
     4
 74
     0
 42
0.000000001
 43
0.00000001
 40
0.0
 40
0.0
 40
0.0
 40
0.0
 40
1.0
 40
1.0
 40
1.0
 40
1.0
 10
15.44654253495832
 20
-3.102561680041012
 30
0.0
 10
15.32142986628782
 20
-3.239925852618252
 30
0.0
 10
15.18794139316905
 20
-3.353652747414812
 30
0.0
 10
15.05337883267953
 20
-3.435196596124808
 30
0.0
  0
SPLINE
  5
D2
330
1F
100
AcDbEntity
  8
외형선
  6
Continuous
 62
     1
370
    15
100
AcDbSpline
210
0.0
220
0.0
230
1.0
 70
     8
 71
     3
 72
     8
 73
     4
 74
     0
 42
0.000000001
 43
0.00000001
 40
0.0
 40
0.0
 40
0.0
 40
0.0
 40
1.0
 40
1.0
 40
1.0
 40
1.0
 10
15.05337883268261
 20
-3.435196596122938
 30
0.0
 10
14.91696191874375
 20
-3.487210059281799
 30
0.0
 10
14.78317981900683
 20
-3.501957469399418
 30
0.0
 10
14.66219798862497
 20
-3.471591128421819
 30
0.0
  0
SPLINE
  5
D3
330
1F
100
AcDbEntity
  8
외형선
  6
Continuous
 62
     1
370
    15
100
AcDbSpline
210
0.0
220
0.0
230
1.0
 70
     8
 71
     3
 72
     8
 73
     4
 74
     0
 42
0.000000001
 43
0.00000001
 40
0.0
 40
0.0
 40
0.0
 40
0.0
 40
1.0
 40
1.0
 40
1.0
 40
1.0
 10
14.66219798862497
 20
-3.47159112842182
 30
0.0
 10
14.5867851163954
 20
-3.452662558858975
 30
0.0
 10
14.49040006877247
 20
-3.483664709368881
 30
0.0
 10
14.41061169084909
 20
-3.561172910877437
 30
0.0
  0
SPLINE
  5
D4
330
1F
100
AcDbEntity
  8
외형선
  6
Continuous
 62
     1
370
    15
100
AcDbSpline
210
0.0
220
0.0
230
1.0
 70
     8
 71
     3
 72
    10
 73
     6
 74
     0
 42
0.000000001
 43
0.00000001
 40
0.0
 40
0.0
 40
0.0
 40
0.0
 40
0.5000000000000001
 40
0.5000000000000001
 40
1.0
 40
1.0
 40
1.0
 40
1.0
 10
14.41061169084908
 20
-3.561172910877437
 30
0.0
 10
14.25128898324907
 20
-3.715942525788129
 30
0.0
 10
14.08167666510834
 20
-3.813862758521551
 30
0.0
 10
13.74307913342995
 20
-3.892300383731825
 30
0.0
 10
13.57419424817554
 20
-3.871668153306642
 30
0.0
 10
13.4228016312384
 20
-3.782612751635357
 30
0.0
  0
SPLINE
  5
D5
330
1F
100
AcDbEntity
  8
외형선
  6
Continuous
 62
     1
370
    15
100
AcDbSpline
210
0.0
220
0.0
230
1.0
 70
     8
 71
     3
 72
     8
 73
     4
 74
     0
 42
0.000000001
 43
0.00000001
 40
0.0
 40
0.0
 40
0.0
 40
0.0
 40
1.0
 40
1.0
 40
1.0
 40
1.0
 10
13.4228016312384
 20
-3.782612751635353
 30
0.0
 10
13.34681342101203
 20
-3.737913342107336
 30
0.0
 10
13.25021677185714
 20
-3.743546910127481
 30
0.0
 10
13.17069376643867
 20
-3.804641634615312
 30
0.0
  0
SPLINE
  5
D6
330
1F
100
AcDbEntity
  8
외형선
  6
Continuous
 62
     1
370
    15
100
AcDbSpline
210
0.0
220
0.0
230
1.0
 70
     8
 71
     3
 72
     8
 73
     4
 74
     0
 42
0.000000001
 43
0.00000001
 40
0.0
 40
0.0
 40
0.0
 40
0.0
 40
1.0
 40
1.0
 40
1.0
 40
1.0
 10
13.17069376643858
 20
-3.804641634615384
 30
0.0
 10
13.04550005255458
 20
-3.900823556024281
 30
0.0
 10
12.91192884890939
 20
-3.953106569511245
 30
0.0
 10
12.77725227918026
 20
-3.965725624847114
 30
0.0
  0
SPLINE
  5
D7
330
1F
100
AcDbEntity
  8
외형선
  6
Continuous
 62
     1
370
    15
100
AcDbSpline
210
0.0
220
0.0
230
1.0
 70
     8
 71
     3
 72
     8
 73
     4
 74
     0
 42
0.000000001
 43
0.00000001
 40
0.0
 40
0.0
 40
0.0
 40
0.0
 40
1.0
 40
1.0
 40
1.0
 40
1.0
 10
12.77725227918026
 20
-3.965725624847115
 30
0.0
 10
12.64075197218104
 20
-3.942426544703571
 30
0.0
 10
12.50700644550557
 20
-3.878319724583621
 30
0.0
 10
12.38603629526614
 20
-3.774057500908027
 30
0.0
  0
SPLINE
  5
D8
330
1F
100
AcDbEntity
  8
외형선
  6
Continuous
 62
     1
370
    15
100
AcDbSpline
210
0.0
220
0.0
230
1.0
 70
     8
 71
     3
 72
     8
 73
     4
 74
     0
 42
0.000000001
 43
0.00000001
 40
0.0
 40
0.0
 40
0.0
 40
0.0
 40
1.0
 40
1.0
 40
1.0
 40
1.0
 10
12.38603629526614
 20
-3.774057500908024
 30
0.0
 10
12.31066092830468
 20
-3.709092686412786
 30
0.0
 10
12.21431068742334
 20
-3.691539854656741
 30
0.0
 10
12.134550447641
 20
-3.732637551667838
 30
0.0
  0
SPLINE
  5
D9
330
1F
100
AcDbEntity
  8
외형선
  6
Continuous
 62
     1
370
    15
100
AcDbSpline
210
0.0
220
0.0
230
1.0
 70
     8
 71
     3
 72
    10
 73
     6
 74
     0
 42
0.000000001
 43
0.00000001
 40
0.0
 40
0.0
 40
0.0
 40
0.0
 40
0.5
 40
0.5
 40
1.0
 40
1.0
 40
1.0
 40
1.0
 10
12.134550447641
 20
-3.732637551667839
 30
0.0
 10
11.97539206675047
 20
-3.814646368748452
 30
0.0
 10
11.8059098706171
 20
-3.81886723665231
 30
0.0
 10
11.46747988608891
 20
-3.712049179153899
 30
0.0
 10
11.29889296654992
 20
-3.599990532190191
 30
0.0
 10
11.14762269625041
 20
-3.437772900678599
 30
0.0
  0
SPLINE
  5
DA
330
1F
100
AcDbEntity
  8
외형선
  6
Continuous
 62
     1
370
    15
100
AcDbSpline
210
0.0
220
0.0
230
1.0
 70
     8
 71
     3
 72
     8
 73
     4
 74
     0
 42
0.000000001
 43
0.00000001
 40
0.0
 40
0.0
 40
0.0
 40
0.0
 40
1.0
 40
1.0
 40
1.0
 40
1.0
 10
11.14762269625041
 20
-3.437772900678599
 30
0.0
 10
11.07151615875104
 20
-3.356158567397841
 30
0.0
 10
10.97480432579899
 20
-3.314209372610807
 30
0.0
 10
10.89514582660253
 20
-3.330207800174739
 30
0.0
  0
SPLINE
  5
DB
330
1F
100
AcDbEntity
  8
외형선
  6
Continuous
 62
     1
370
    15
100
AcDbSpline
210
0.0
220
0.0
230
1.0
 70
     8
 71
     3
 72
     8
 73
     4
 74
     0
 42
0.000000001
 43
0.00000001
 40
0.0
 40
0.0
 40
0.0
 40
0.0
 40
1.0
 40
1.0
 40
1.0
 40
1.0
 10
10.89514582660254
 20
-3.330207800174737
 30
0.0
 10
10.76981976087991
 20
-3.355377995503062
 30
0.0
 10
10.63611868506598
 20
-3.32999850960207
 30
0.0
 10
10.50128289870835
 20
-3.269763510950609
 30
0.0
  0
SPLINE
  5
DC
330
1F
100
AcDbEntity
  8
외형선
  6
Continuous
 62
     1
370
    15
100
AcDbSpline
210
0.0
220
0.0
230
1.0
 70
     8
 71
     3
 72
     8
 73
     4
 74
     0
 42
0.000000001
 43
0.00000001
 40
0.0
 40
0.0
 40
0.0
 40
0.0
 40
1.0
 40
1.0
 40
1.0
 40
1.0
 10
10.50128289870835
 20
-3.269763510950616
 30
0.0
 10
10.36466154671625
 20
-3.178371388506634
 30
0.0
 10
10.23087993869616
 20
-3.055121488736186
 30
0.0
 10
10.10987445598612
 20
-2.909123085342307
 30
0.0
  0
SPLINE
  5
DD
330
1F
100
AcDbEntity
  8
외형선
  6
Continuous
 62
     1
370
    15
100
AcDbSpline
210
0.0
220
0.0
230
1.0
 70
     8
 71
     3
 72
     8
 73
     4
 74
     0
 42
0.000000001
 43
0.00000001
 40
0.0
 40
0.0
 40
0.0
 40
0.0
 40
1.0
 40
1.0
 40
1.0
 40
1.0
 10
10.10987445598612
 20
-2.909123085342308
 30
0.0
 10
10.03450350662859
 20
-2.818184740880271
 30
0.0
 10
9.93815995639285
 20
-2.757485933281392
 30
0.0
 10
9.858394677887722
 20
-2.749454000615041
 30
0.0
  0
SPLINE
  5
DE
330
1F
100
AcDbEntity
  8
외형선
  6
Continuous
 62
     1
370
    15
100
AcDbSpline
210
0.0
220
0.0
230
1.0
 70
     8
 71
     3
 72
    10
 73
     6
 74
     0
 42
0.000000001
 43
0.00000001
 40
0.0
 40
0.0
 40
0.0
 40
0.0
 40
0.5
 40
0.5
 40
1.0
 40
1.0
 40
1.0
 40
1.0
 10
9.858394677887729
 20
-2.749454000615045
 30
0.0
 10
9.699389136771563
 20
-2.733443001546829
 30
0.0
 10
9.530038788976466
 20
-2.642829635818566
 30
0.0
 10
9.191784796375273
 20
-2.384267744914919
 30
0.0
 10
9.023393471813465
 20
-2.215686771152818
 30
0.0
 10
8.872337089209468
 20
-2.030321335369669
 30
0.0
  0
SPLINE
  5
DF
330
1F
100
AcDbEntity
  8
외형선
  6
Continuous
 62
     1
370
    15
100
AcDbSpline
210
0.0
220
0.0
230
1.0
 70
     8
 71
     3
 72
     8
 73
     4
 74
     0
 42
0.000000001
 43
0.00000001
 40
0.0
 40
0.0
 40
0.0
 40
0.0
 40
1.0
 40
1.0
 40
1.0
 40
1.0
 10
8.872337089209461
 20
-2.030321335369659
 30
0.0
 10
8.79629980088666
 20
-1.937013890541757
 30
0.0
 10
8.699628390887042
 20
-1.860526958128483
 30
0.0
 10
8.619983616834162
 20
-1.82643065663827
 30
0.0
  0
SPLINE
  5
E0
330
1F
100
AcDbEntity
  8
외형선
  6
Continuous
 62
     1
370
    15
100
AcDbSpline
210
0.0
220
0.0
230
1.0
 70
     8
 71
     3
 72
     8
 73
     4
 74
     0
 42
0.000000001
 43
0.00000001
 40
0.0
 40
0.0
 40
0.0
 40
0.0
 40
1.0
 40
1.0
 40
1.0
 40
1.0
 10
8.619983616834169
 20
-1.826430656638282
 30
0.0
 10
8.494491168778314
 20
-1.772706750775778
 30
0.0
 10
8.360606236676425
 20
-1.677367123615824
 30
0.0
 10
8.225570132214939
 20
-1.562816837327676
 30
0.0
  0
SPLINE
  5
E1
330
1F
100
AcDbEntity
  8
외형선
  6
Continuous
 62
     1
370
    15
100
AcDbSpline
210
0.0
220
0.0
230
1.0
 70
     8
 71
     3
 72
     8
 73
     4
 74
     0
 42
0.000000001
 43
0.00000001
 40
0.0
 40
0.0
 40
0.0
 40
0.0
 40
1.0
 40
1.0
 40
1.0
 40
1.0
 10
8.225570132214658
 20
-1.562816837328431
 30
0.0
 10
8.088788498510645
 20
-1.431544876448922
 30
0.0
 10
7.954898693220841
 20
-1.287148940389006
 30
0.0
 10
7.833811964789565
 20
-1.144445615078954
 30
0.0
  0
SPLINE
  5
E2
330
1F
100
AcDbEntity
  8
외형선
  6
Continuous
 62
     1
370
    15
100
AcDbSpline
210
0.0
220
0.0
230
1.0
 70
     8
 71
     3
 72
     8
 73
     4
 74
     0
 42
0.000000001
 43
0.00000001
 40
0.0
 40
0.0
 40
0.0
 40
0.0
 40
1.0
 40
1.0
 40
1.0
 40
1.0
 10
7.833811964789554
 20
-1.14444561507896
 30
0.0
 10
7.758412361960048
 20
-1.055585554276056
 30
0.0
 10
7.662047380799263
 20
-0.970479911243492
 30
0.0
 10
7.582243801640996
 20
-0.9157468600688125
 30
0.0
  0
SPLINE
  5
E3
330
1F
100
AcDbEntity
  8
외형선
  6
Continuous
 62
     1
370
    15
100
AcDbSpline
210
0.0
220
0.0
230
1.0
 70
     8
 71
     3
 72
    10
 73
     6
 74
     0
 42
0.000000001
 43
0.00000001
 40
0.0
 40
0.0
 40
0.0
 40
0.0
 40
0.5
 40
0.5
 40
1.0
 40
1.0
 40
1.0
 40
1.0
 10
7.582243801641006
 20
-0.9157468600688262
 30
0.0
 10
7.423327212132903
 20
-0.8067543823153821
 30
0.0
 10
7.254052639757054
 20
-0.6493556738576055
 30
0.0
 10
6.915867954856301
 20
-0.319120813869932
 30
0.0
 10
6.747585370879047
 20
-0.1461296074834743
 30
0.0
 10
6.596680072968288
 20
0.0050404293746726
 30
0.0
  0
SPLINE
  5
E4
330
1F
100
AcDbEntity
  8
외형선
  6
Continuous
 62
     1
370
    15
100
AcDbSpline
210
0.0
220
0.0
230
1.0
 70
     8
 71
     3
 72
     8
 73
     4
 74
     0
 42
0.000000001
 43
0.00000001
 40
0.0
 40
0.0
 40
0.0
 40
0.0
 40
1.0
 40
1.0
 40
1.0
 40
1.0
 10
6.596680072968275
 20
0.0050404293746996
 30
0.0
 10
6.520771102263325
 20
0.0810825700960768
 30
0.0
 10
6.424212637903712
 20
0.1685047088442025
 30
0.0
 10
6.344686801107235
 20
0.2419968510951839
 30
0.0
  0
SPLINE
  5
E5
330
1F
100
AcDbEntity
  8
외형선
  6
Continuous
 62
     1
370
    15
100
AcDbSpline
210
0.0
220
0.0
230
1.0
 70
     8
 71
     3
 72
     8
 73
     4
 74
     0
 42
0.000000001
 43
0.00000001
 40
0.0
 40
0.0
 40
0.0
 40
0.0
 40
1.0
 40
1.0
 40
1.0
 40
1.0
 10
6.344686801107235
 20
0.241996851095183
 30
0.0
 10
6.21922987764971
 20
0.3579352484327307
 30
0.0
 10
6.085301410757478
 20
0.4936671044101619
 30
0.0
 10
5.950213292130709
 20
0.6270204422873757
 30
0.0
  0
SPLINE
  5
E6
330
1F
100
AcDbEntity
  8
외형선
  6
Continuous
 62
     1
370
    15
100
AcDbSpline
210
0.0
220
0.0
230
1.0
 70
     8
 71
     3
 72
     8
 73
     4
 74
     0
 42
0.000000001
 43
0.00000001
 40
0.0
 40
0.0
 40
0.0
 40
0.0
 40
1.0
 40
1.0
 40
1.0
 40
1.0
 10
5.950213292130795
 20
0.6270204422870023
 30
0.0
 10
5.81323133610293
 20
0.7576586213066
 30
0.0
 10
5.679161406386333
 20
0.8786258048041137
 30
0.0
 10
5.557948294577866
 20
0.9739932338499256
 30
0.0
  0
SPLINE
  5
E7
330
1F
100
AcDbEntity
  8
외형선
  6
Continuous
 62
     1
370
    15
100
AcDbSpline
210
0.0
220
0.0
230
1.0
 70
     8
 71
     3
 72
     8
 73
     4
 74
     0
 42
0.000000001
 43
0.00000001
 40
0.0
 40
0.0
 40
0.0
 40
0.0
 40
1.0
 40
1.0
 40
1.0
 40
1.0
 10
5.557948294578026
 20
0.9739932338487672
 30
0.0
 10
5.482486991692348
 20
1.033364289844984
 30
0.0
 10
5.386072464957197
 20
1.116572222164694
 30
0.0
 10
5.306197242246601
 20
1.201140226356281
 30
0.0
  0
SPLINE
  5
E8
330
1F
100
AcDbEntity
  8
외형선
  6
Continuous
 62
     1
370
    15
100
AcDbSpline
210
0.0
220
0.0
230
1.0
 70
     8
 71
     3
 72
    10
 73
     6
 74
     0
 42
0.000000001
 43
0.00000001
 40
0.0
 40
0.0
 40
0.0
 40
0.0
 40
0.4999999999999998
 40
0.4999999999999998
 40
1.0
 40
1.0
 40
1.0
 40
1.0
 10
5.30619724224661
 20
1.201140226356268
 30
0.0
 10
5.14730581506764
 20
1.369366747969408
 30
0.0
 10
4.978050815231006
 20
1.54495263303172
 30
0.0
 10
4.639828040368104
 20
1.844864897710432
 30
0.0
 10
4.471568021725452
 20
1.968807524135956
 30
0.0
 10
4.320750896347443
 20
2.039045892014562
 30
0.0
  0
SPLINE
  5
E9
330
1F
100
AcDbEntity
  8
외형선
  6
Continuous
 62
     1
370
    15
100
AcDbSpline
210
0.0
220
0.0
230
1.0
 70
     8
 71
     3
 72
     8
 73
     4
 74
     0
 42
0.000000001
 43
0.00000001
 40
0.0
 40
0.0
 40
0.0
 40
0.0
 40
1.0
 40
1.0
 40
1.0
 40
1.0
 10
4.320750896347446
 20
2.039045892014551
 30
0.0
 10
4.24493726897688
 20
2.07435372218383
 30
0.0
 10
4.148463749137887
 20
2.145686369817053
 30
0.0
 10
4.069023864578202
 20
2.235894072334583
 30
0.0
  0
SPLINE
  5
EA
330
1F
100
AcDbEntity
  8
외형선
  6
Continuous
 62
     1
370
    15
100
AcDbSpline
210
0.0
220
0.0
230
1.0
 70
     8
 71
     3
 72
     8
 73
     4
 74
     0
 42
0.000000001
 43
0.00000001
 40
0.0
 40
0.0
 40
0.0
 40
0.0
 40
1.0
 40
1.0
 40
1.0
 40
1.0
 10
4.069023864578202
 20
2.235894072334581
 30
0.0
 10
4.034053214231593
 20
2.275604880586592
 30
0.0
 10
3.99851654243931
 20
2.314581933216765
 30
0.0
 10
3.96231532849618
 20
2.352760928451248
 30
0.0
  0
SPLINE
  5
EB
330
1F
100
AcDbEntity
  8
외형선
  6
Continuous
370
    15
100
AcDbSpline
210
0.0
220
0.0
230
1.0
 70
     8
 71
     3
 72
     8
 73
     4
 74
     0
 42
0.000000001
 43
0.00000001
 40
0.0
 40
0.0
 40
0.0
 40
0.0
 40
1.0
 40
1.0
 40
1.0
 40
1.0
 10
3.962315328507787
 20
2.332780660853218
 30
0.0
 10
3.62440054822641
 20
2.610957992980985
 30
0.0
 10
3.293979487024546
 20
2.871070183837736
 30
0.0
 10
2.962315328507788
 20
3.105812514686067
 30
0.0
  0
SPLINE
  5
EC
330
1F
100
AcDbEntity
  8
외형선
  6
Continuous
370
    15
100
AcDbSpline
210
0.0
220
0.0
230
1.0
 70
     8
 71
     3
 72
     8
 73
     4
 74
     0
 42
0.000000001
 43
0.00000001
 40
0.0
 40
0.0
 40
0.0
 40
0.0
 40
1.0
 40
1.0
 40
1.0
 40
1.0
 10
2.962315328507788
 20
3.152317025635855
 30
0.0
 10
3.294876702028708
 20
3.31728787366693
 30
0.0
 10
3.625287751683553
 20
3.445254770627751
 30
0.0
 10
3.962315328507785
 20
3.532234401664452
 30
0.0
  0
SPLINE
  5
ED
330
1F
100
AcDbEntity
  8
외형선
  6
Continuous
370
    15
100
AcDbSpline
210
0.0
220
0.0
230
1.0
 70
    24
 71
     3
 72
     9
 73
     5
 74
     0
 42
0.000000001
 43
0.00000001
 40
0.0
 40
0.0
 40
0.0
 40
0.0
 40
0.5
 40
1.0
 40
1.0
 40
1.0
 40
1.0
 10
3.962315328507789
 20
3.647319096528913
 30
0.0
 10
3.962315328507789
 20
3.627584344860828
 30
0.0
 10
3.962315328507789
 20
3.588674780883331
 30
0.0
 10
3.962315328507789
 20
3.550867328721833
 30
0.0
 10
3.962315328507789
 20
3.532234401664455
 30
0.0
  0
SPLINE
  5
EE
330
1F
100
AcDbEntity
  8
외형선
  6
Continuous
 62
     1
370
    15
100
AcDbSpline
210
0.0
220
0.0
230
1.0
 70
     8
 71
     3
 72
     8
 73
     4
 74
     0
 42
0.000000001
 43
0.00000001
 40
0.0
 40
0.0
 40
0.0
 40
0.0
 40
1.0
 40
1.0
 40
1.0
 40
1.0
 10
4.154848501055948
 20
3.717530564639236
 30
0.0
 10
4.090732849278047
 20
3.695524667354041
 30
0.0
 10
4.026518906250915
 20
3.672108264932393
 30
0.0
 10
3.962315328507418
 20
3.647319096507017
 30
0.0
  0
SPLINE
  5
EF
330
1F
100
AcDbEntity
  8
외형선
  6
Continuous
 62
     1
370
    15
100
AcDbSpline
210
0.0
220
0.0
230
1.0
 70
     8
 71
     3
 72
     8
 73
     4
 74
     0
 42
0.000000001
 43
0.00000001
 40
0.0
 40
0.0
 40
0.0
 40
0.0
 40
1.0
 40
1.0
 40
1.0
 40
1.0
 10
4.155342324290618
 20
3.717700028390419
 30
0.0
 10
4.292184039898966
 20
3.747941570155794
 30
0.0
 10
4.426415737396522
 20
3.738397218733582
 30
0.0
 10
4.547112252541741
 20
3.684345799651525
 30
0.0
  0
SPLINE
  5
F0
330
1F
100
AcDbEntity
  8
외형선
  6
Continuous
 62
     1
370
    15
100
AcDbSpline
210
0.0
220
0.0
230
1.0
 70
     8
 71
     3
 72
     8
 73
     4
 74
     0
 42
0.000000001
 43
0.00000001
 40
0.0
 40
0.0
 40
0.0
 40
0.0
 40
1.0
 40
1.0
 40
1.0
 40
1.0
 10
4.547112252541734
 20
3.684345799651527
 30
0.0
 10
4.622461851402294
 20
3.6506020520315
 30
0.0
 10
4.718726212541415
 20
3.66754518293936
 30
0.0
 10
4.798555533312186
 20
3.736491421778806
 30
0.0
  0
SPLINE
  5
F1
330
1F
100
AcDbEntity
  8
외형선
  6
Continuous
 62
     1
370
    15
100
AcDbSpline
210
0.0
220
0.0
230
1.0
 70
     8
 71
     3
 72
    10
 73
     6
 74
     0
 42
0.000000001
 43
0.00000001
 40
0.0
 40
0.0
 40
0.0
 40
0.0
 40
0.5
 40
0.5
 40
1.0
 40
1.0
 40
1.0
 40
1.0
 10
4.798555533312193
 20
3.736491421778814
 30
0.0
 10
4.957262577447986
 20
3.873562032737789
 30
0.0
 10
5.126481735389547
 20
3.945790864728004
 30
0.0
 10
5.465070453227074
 20
3.969260882830355
 30
0.0
 10
5.633667121652021
 20
3.919215600211301
 30
0.0
 10
5.78424279440716
 20
3.804704084893076
 30
0.0
  0
SPLINE
  5
F2
330
1F
100
AcDbEntity
  8
외형선
  6
Continuous
 62
     1
370
    15
100
AcDbSpline
210
0.0
220
0.0
230
1.0
 70
     8
 71
     3
 72
     8
 73
     4
 74
     0
 42
0.000000001
 43
0.00000001
 40
0.0
 40
0.0
 40
0.0
 40
0.0
 40
1.0
 40
1.0
 40
1.0
 40
1.0
 10
5.78424279440716
 20
3.804704084893077
 30
0.0
 10
5.860112349358706
 20
3.747005935218205
 30
0.0
 10
5.956635143961779
 20
3.738083010824542
 30
0.0
 10
6.036220498417202
 20
3.787241189350871
 30
0.0
  0
SPLINE
  5
F3
330
1F
100
AcDbEntity
  8
외형선
  6
Continuous
 62
     1
370
    15
100
AcDbSpline
210
0.0
220
0.0
230
1.0
 70
     8
 71
     3
 72
     8
 73
     4
 74
     0
 42
0.000000001
 43
0.00000001
 40
0.0
 40
0.0
 40
0.0
 40
0.0
 40
1.0
 40
1.0
 40
1.0
 40
1.0
 10
6.036220498417199
 20
3.787241189350867
 30
0.0
 10
6.161583531450643
 20
3.864675265012516
 30
0.0
 10
6.295502137375353
 20
3.894517360911583
 30
0.0
 10
6.430765234016468
 20
3.884963618628486
 30
0.0
  0
SPLINE
  5
F4
330
1F
100
AcDbEntity
  8
외형선
  6
Continuous
 62
     1
370
    15
100
AcDbSpline
210
0.0
220
0.0
230
1.0
 70
     8
 71
     3
 72
     8
 73
     4
 74
     0
 42
0.000000001
 43
0.00000001
 40
0.0
 40
0.0
 40
0.0
 40
0.0
 40
1.0
 40
1.0
 40
1.0
 40
1.0
 10
6.430765234016471
 20
3.884963618628483
 30
0.0
 10
6.567745910084446
 20
3.839750702919328
 30
0.0
 10
6.702155327841252
 20
3.755079421864872
 30
0.0
 10
6.823032451481915
 20
3.634313355163449
 30
0.0
  0
SPLINE
  5
F5
330
1F
100
AcDbEntity
  8
외형선
  6
Continuous
 62
     1
370
    15
100
AcDbSpline
210
0.0
220
0.0
230
1.0
 70
     8
 71
     3
 72
     8
 73
     4
 74
     0
 42
0.000000001
 43
0.00000001
 40
0.0
 40
0.0
 40
0.0
 40
0.0
 40
1.0
 40
1.0
 40
1.0
 40
1.0
 10
6.823032451481907
 20
3.634313355163457
 30
0.0
 10
6.89849839236549
 20
3.558916749288506
 30
0.0
 10
6.994750530030823
 20
3.527074387857273
 30
0.0
 10
7.074638005032982
 20
3.554210393366025
 30
0.0
  0
SPLINE
  5
F6
330
1F
100
AcDbEntity
  8
외형선
  6
Continuous
 62
     1
370
    15
100
AcDbSpline
210
0.0
220
0.0
230
1.0
 70
     8
 71
     3
 72
    12
 73
     8
 74
     0
 42
0.000000001
 43
0.00000001
 40
0.0
 40
0.0
 40
0.0
 40
0.0
 40
0.25
 40
0.25
 40
0.5
 40
0.5
 40
1.0
 40
1.0
 40
1.0
 40
1.0
 10
7.074638005032986
 20
3.55421039336602
 30
0.0
 10
7.153959595760398
 20
3.581154180522693
 30
0.0
 10
7.234800899978592
 20
3.587860655237643
 30
0.0
 10
7.402283377469971
 20
3.569444072363977
 30
0.0
 10
7.487068188925427
 20
3.544028035918942
 30
0.0
 10
7.740968644525823
 20
3.426374709587901
 30
0.0
 10
7.909691502871967
 20
3.293144948166834
 30
0.0
 10
8.060143113188971
 20
3.118149218729772
 30
0.0
  0
SPLINE
  5
F7
330
1F
100
AcDbEntity
  8
외형선
  6
Continuous
 62
     1
370
    15
100
AcDbSpline
210
0.0
220
0.0
230
1.0
 70
     8
 71
     3
 72
     8
 73
     4
 74
     0
 42
0.000000001
 43
0.00000001
 40
0.0
 40
0.0
 40
0.0
 40
0.0
 40
1.0
 40
1.0
 40
1.0
 40
1.0
 10
8.060143113188975
 20
3.118149218729773
 30
0.0
 10
8.135909119837658
 20
3.030023026048398
 30
0.0
 10
8.232335355968686
 20
2.975810359259522
 30
0.0
 10
8.311827219442199
 20
2.976762278672012
 30
0.0
  0
SPLINE
  5
F8
330
1F
100
AcDbEntity
  8
외형선
  6
Continuous
 62
     1
370
    15
100
AcDbSpline
210
0.0
220
0.0
230
1.0
 70
     8
 71
     3
 72
     8
 73
     4
 74
     0
 42
0.000000001
 43
0.00000001
 40
0.0
 40
0.0
 40
0.0
 40
0.0
 40
1.0
 40
1.0
 40
1.0
 40
1.0
 10
8.311827219439735
 20
2.976762278671978
 30
0.0
 10
8.436999938001625
 20
2.978261228822573
 30
0.0
 10
8.570749818017608
 20
2.930320400982114
 30
0.0
 10
8.705882395302824
 20
2.851396673733794
 30
0.0
  0
SPLINE
  5
F9
330
1F
100
AcDbEntity
  8
외형선
  6
Continuous
 62
     1
370
    15
100
AcDbSpline
210
0.0
220
0.0
230
1.0
 70
     8
 71
     3
 72
     8
 73
     4
 74
     0
 42
0.000000001
 43
0.00000001
 40
0.0
 40
0.0
 40
0.0
 40
0.0
 40
1.0
 40
1.0
 40
1.0
 40
1.0
 10
8.705882395302828
 20
2.851396673733797
 30
0.0
 10
8.843004515194815
 20
2.744583912656063
 30
0.0
 10
8.977594148421687
 20
2.610876148602498
 30
0.0
 10
9.098667555859887
 20
2.460697664382644
 30
0.0
  0
SPLINE
  5
FA
330
1F
100
AcDbEntity
  8
외형선
  6
Continuous
 62
     1
370
    15
100
AcDbSpline
210
0.0
220
0.0
230
1.0
 70
     8
 71
     3
 72
     8
 73
     4
 74
     0
 42
0.000000001
 43
0.00000001
 40
0.0
 40
0.0
 40
0.0
 40
0.0
 40
1.0
 40
1.0
 40
1.0
 40
1.0
 10
9.098667555859887
 20
2.460697664382643
 30
0.0
 10
9.174275116439867
 20
2.366914652210808
 30
0.0
 10
9.270565153787835
 20
2.295969155489704
 30
0.0
 10
9.350536534479392
 20
2.27277208539894
 30
0.0
  0
SPLINE
  5
FB
330
1F
100
AcDbEntity
  8
외형선
  6
Continuous
 62
     1
370
    15
100
AcDbSpline
210
0.0
220
0.0
230
1.0
 70
     8
 71
     3
 72
    12
 73
     8
 74
     0
 42
0.000000001
 43
0.00000001
 40
0.0
 40
0.0
 40
0.0
 40
0.0
 40
0.2500000000000002
 40
0.2500000000000002
 40
0.5000000000000004
 40
0.5000000000000004
 40
1.0
 40
1.0
 40
1.0
 40
1.0
 10
9.350536534479385
 20
2.272772085398953
 30
0.0
 10
9.429857992400715
 20
2.24976353655072
 30
0.0
 10
9.51069583329484
 20
2.209724145548212
 30
0.0
 10
9.678169502237235
 20
2.104606904333919
 30
0.0
 10
9.762970675997522
 20
2.040296094566257
 30
0.0
 10
10.0169115642415
 20
1.823764004650527
 30
0.0
 10
10.18584631497159
 20
1.648715811208846
 30
0.0
 10
10.33623596740521
 20
1.46727928646591
 30
0.0
  0
SPLINE
  5
FC
330
1F
100
AcDbEntity
  8
외형선
  6
Continuous
 62
     1
370
    15
100
AcDbSpline
210
0.0
220
0.0
230
1.0
 70
     8
 71
     3
 72
     8
 73
     4
 74
     0
 42
0.000000001
 43
0.00000001
 40
0.0
 40
0.0
 40
0.0
 40
0.0
 40
1.0
 40
1.0
 40
1.0
 40
1.0
 10
10.33623596740518
 20
1.467279286465931
 30
0.0
 10
10.41193144030132
 20
1.375957022475
 30
0.0
 10
10.50828924097717
 20
1.293215787701593
 30
0.0
 10
10.58772083154541
 20
1.245669489933489
 30
0.0
  0
SPLINE
  5
FD
330
1F
100
AcDbEntity
  8
외형선
  6
Continuous
 62
     1
370
    15
100
AcDbSpline
210
0.0
220
0.0
230
1.0
 70
     8
 71
     3
 72
     8
 73
     4
 74
     0
 42
0.000000001
 43
0.00000001
 40
0.0
 40
0.0
 40
0.0
 40
0.0
 40
1.0
 40
1.0
 40
1.0
 40
1.0
 10
10.58772083154541
 20
1.245669489933495
 30
0.0
 10
10.71272017652682
 20
1.170847167545311
 30
0.0
 10
10.84630886777906
 20
1.060014356671168
 30
0.0
 10
10.981317656505
 20
0.9362370801161416
 30
0.0
  0
SPLINE
  5
FE
330
1F
100
AcDbEntity
  8
외형선
  6
Continuous
 62
     1
370
    15
100
AcDbSpline
210
0.0
220
0.0
230
1.0
 70
     8
 71
     3
 72
     8
 73
     4
 74
     0
 42
0.000000001
 43
0.00000001
 40
0.0
 40
0.0
 40
0.0
 40
0.0
 40
1.0
 40
1.0
 40
1.0
 40
1.0
 10
10.981317656505
 20
0.9362370801161444
 30
0.0
 10
11.11835261896705
 20
0.8009796432433128
 30
0.0
 10
11.25283715901163
 20
0.6597049125522713
 30
0.0
 10
11.37391821055525
 20
0.5267068572669967
 30
0.0
  0
SPLINE
  5
FF
330
1F
100
AcDbEntity
  8
외형선
  6
Continuous
 62
     1
370
    15
100
AcDbSpline
210
0.0
220
0.0
230
1.0
 70
     8
 71
     3
 72
     8
 73
     4
 74
     0
 42
0.000000001
 43
0.00000001
 40
0.0
 40
0.0
 40
0.0
 40
0.0
 40
1.0
 40
1.0
 40
1.0
 40
1.0
 10
11.37391821055525
 20
0.5267068572670041
 30
0.0
 10
11.44969296912146
 20
0.4434742176381128
 30
0.0
 10
11.54607120894047
 20
0.355259837649939
 30
0.0
 10
11.62615170932947
 20
0.2887809104410002
 30
0.0
  0
SPLINE
  5
100
330
1F
100
AcDbEntity
  8
외형선
  6
Continuous
 62
     1
370
    15
100
AcDbSpline
210
0.0
220
0.0
230
1.0
 70
     8
 71
     3
 72
    12
 73
     8
 74
     0
 42
0.000000001
 43
0.00000001
 40
0.0
 40
0.0
 40
0.0
 40
0.0
 40
0.25
 40
0.25
 40
0.5
 40
0.5
 40
1.0
 40
1.0
 40
1.0
 40
1.0
 10
11.62615170932947
 20
0.2887809104410001
 30
0.0
 10
11.70550501679231
 20
0.2229056633460772
 30
0.0
 10
11.78636943771049
 20
0.148462998750738
 30
0.0
 10
11.9538915041641
 20
-0.0109325110919992
 30
0.0
 10
12.03873836145007
 20
-0.0943131522903136
 30
0.0
 10
12.2928024780195
 20
-0.3429090721994434
 30
0.0
 10
12.46194568026457
 20
-0.5056974882258672
 30
0.0
 10
12.6124205938616
 20
-0.6374232396437756
 30
0.0
  0
SPLINE
  5
101
330
1F
100
AcDbEntity
  8
외형선
  6
Continuous
 62
     1
370
    15
100
AcDbSpline
210
0.0
220
0.0
230
1.0
 70
     8
 71
     3
 72
     8
 73
     4
 74
     0
 42
0.000000001
 43
0.00000001
 40
0.0
 40
0.0
 40
0.0
 40
0.0
 40
1.0
 40
1.0
 40
1.0
 40
1.0
 10
12.6124205938616
 20
-0.6374232396437651
 30
0.0
 10
12.68812005981169
 20
-0.7036905582010131
 30
0.0
 10
12.78439888705156
 20
-0.7894329151467613
 30
0.0
 10
12.86380197825411
 20
-0.8708111829677423
 30
0.0
  0
SPLINE
  5
102
330
1F
100
AcDbEntity
  8
외형선
  6
Continuous
 62
     1
370
    15
100
AcDbSpline
210
0.0
220
0.0
230
1.0
 70
     8
 71
     3
 72
     8
 73
     4
 74
     0
 42
0.000000001
 43
0.00000001
 40
0.0
 40
0.0
 40
0.0
 40
0.0
 40
1.0
 40
1.0
 40
1.0
 40
1.0
 10
12.86380197825411
 20
-0.870811182967724
 30
0.0
 10
12.98867943332128
 20
-0.9987950036143832
 30
0.0
 10
13.12215402592643
 20
-1.138293804140554
 30
0.0
 10
13.25708394807567
 20
-1.268677904220898
 30
0.0
  0
SPLINE
  5
103
330
1F
100
AcDbEntity
  8
외형선
  6
Continuous
 62
     1
370
    15
100
AcDbSpline
210
0.0
220
0.0
230
1.0
 70
     8
 71
     3
 72
     8
 73
     4
 74
     0
 42
0.000000001
 43
0.00000001
 40
0.0
 40
0.0
 40
0.0
 40
0.0
 40
1.0
 40
1.0
 40
1.0
 40
1.0
 10
13.25708394807581
 20
-1.268677904221477
 30
0.0
 10
13.39392922963676
 20
-1.390435184061381
 30
0.0
 10
13.52825113660987
 20
-1.49542223186249
 30
0.0
 10
13.64915356205798
 20
-1.570074082344351
 30
0.0
  0
SPLINE
  5
104
330
1F
100
AcDbEntity
  8
외형선
  6
Continuous
 62
     1
370
    15
100
AcDbSpline
210
0.0
220
0.0
230
1.0
 70
     8
 71
     3
 72
     8
 73
     4
 74
     0
 42
0.000000001
 43
0.00000001
 40
0.0
 40
0.0
 40
0.0
 40
0.0
 40
1.0
 40
1.0
 40
1.0
 40
1.0
 10
13.64915356205798
 20
-1.57007408234435
 30
0.0
 10
13.72492805860123
 20
-1.616861451293471
 30
0.0
 10
13.82131087294438
 20
-1.695046564119388
 30
0.0
 10
13.90138438752365
 20
-1.784149416561033
 30
0.0
  0
SPLINE
  5
105
330
1F
100
AcDbEntity
  8
외형선
  6
Continuous
 62
     1
370
    15
100
AcDbSpline
210
0.0
220
0.0
230
1.0
 70
     8
 71
     3
 72
    12
 73
     8
 74
     0
 42
0.000000001
 43
0.00000001
 40
0.0
 40
0.0
 40
0.0
 40
0.0
 40
0.2500000000000009
 40
0.2500000000000009
 40
0.5000000000000018
 40
0.5000000000000018
 40
1.0
 40
1.0
 40
1.0
 40
1.0
 10
13.90138438752365
 20
-1.784149416561029
 30
0.0
 10
13.98080195493676
 20
-1.872522355199552
 30
0.0
 10
14.06172485425919
 20
-1.958368565832453
 30
0.0
 10
14.2293556800773
 20
-2.12282290931537
 30
0.0
 10
14.31427839149949
 20
-2.199545182528663
 30
0.0
 10
14.56855371814226
 20
-2.403490574246619
 30
0.0
 10
14.73791439063731
 20
-2.503830369052958
 30
0.0
 10
14.8885928251018
 20
-2.544997194084138
 30
0.0
  0
SPLINE
  5
106
330
1F
100
AcDbEntity
  8
외형선
  6
Continuous
 62
     1
370
    15
100
AcDbSpline
210
0.0
220
0.0
230
1.0
 70
     8
 71
     3
 72
     8
 73
     4
 74
     0
 42
0.000000001
 43
0.00000001
 40
0.0
 40
0.0
 40
0.0
 40
0.0
 40
1.0
 40
1.0
 40
1.0
 40
1.0
 10
14.8885928251018
 20
-2.544997194084138
 30
0.0
 10
14.96434812354232
 20
-2.565694284063665
 30
0.0
 10
15.06057020751444
 20
-2.62792736624492
 30
0.0
 10
15.13997121082826
 20
-2.717993161469314
 30
0.0
  0
SPLINE
  5
107
330
1F
100
AcDbEntity
  8
외형선
  6
Continuous
 62
     1
370
    15
100
AcDbSpline
210
0.0
220
0.0
230
1.0
 70
     8
 71
     3
 72
     8
 73
     4
 74
     0
 42
0.000000001
 43
0.00000001
 40
0.0
 40
0.0
 40
0.0
 40
0.0
 40
1.0
 40
1.0
 40
1.0
 40
1.0
 10
15.13997121082825
 20
-2.717993161469305
 30
0.0
 10
15.26477820750326
 20
-2.859563682444651
 30
0.0
 10
15.39818584094723
 20
-2.984667640050402
 30
0.0
 10
15.53308201463823
 20
-3.081405473398155
 30
0.0
  0
SPLINE
  5
108
330
1F
100
AcDbEntity
  8
외형선
  6
Continuous
 62
     1
370
    15
100
AcDbSpline
210
0.0
220
0.0
230
1.0
 70
     8
 71
     3
 72
     8
 73
     4
 74
     0
 42
0.000000001
 43
0.00000001
 40
0.0
 40
0.0
 40
0.0
 40
0.0
 40
1.0
 40
1.0
 40
1.0
 40
1.0
 10
15.53308201463824
 20
-3.081405473398166
 30
0.0
 10
15.66978554322188
 20
-3.152112951363346
 30
0.0
 10
15.80399556046454
 20
-3.188482090673846
 30
0.0
 10
15.92477101502799
 20
-3.181832473592864
 30
0.0
  0
SPLINE
  5
109
330
1F
100
AcDbEntity
  8
외형선
  6
Continuous
 62
     1
370
    15
100
AcDbSpline
210
0.0
220
0.0
230
1.0
 70
     8
 71
     3
 72
     8
 73
     4
 74
     0
 42
0.000000001
 43
0.00000001
 40
0.0
 40
0.0
 40
0.0
 40
0.0
 40
1.0
 40
1.0
 40
1.0
 40
1.0
 10
15.92477101502799
 20
-3.181832473592863
 30
0.0
 10
16.00043944946997
 20
-3.177666344672254
 30
0.0
 10
16.09672895306502
 20
-3.221623162288159
 30
0.0
 10
16.17663576362046
 20
-3.305675324871363
 30
0.0
  0
SPLINE
  5
10A
330
1F
100
AcDbEntity
  8
외형선
  6
Continuous
 62
     1
370
    15
100
AcDbSpline
210
0.0
220
0.0
230
1.0
 70
     8
 71
     3
 72
    12
 73
     8
 74
     0
 42
0.000000001
 43
0.00000001
 40
0.0
 40
0.0
 40
0.0
 40
0.0
 40
0.2499999999999993
 40
0.2499999999999993
 40
0.4999999999999987
 40
0.4999999999999987
 40
1.0
 40
1.0
 40
1.0
 40
1.0
 10
16.17663576362046
 20
-3.305675324871357
 30
0.0
 10
16.25606472824423
 20
-3.389224852151521
 30
0.0
 10
16.33702509865627
 20
-3.45987187616601
 30
0.0
 10
16.50477171315082
 20
-3.578408169264844
 30
0.0
 10
16.58974378845971
 20
-3.624674300996793
 30
0.0
 10
16.84425366500893
 20
-3.720817496891173
 30
0.0
 10
17.0137764569789
 20
-3.727635531363739
 30
0.0
 10
17.16465261256848
 20
-3.665434438941094
 30
0.0
  0
SPLINE
  5
10B
330
1F
100
AcDbEntity
  8
외형선
  6
Continuous
 62
     1
370
    15
100
AcDbSpline
210
0.0
220
0.0
230
1.0
 70
     8
 71
     3
 72
     8
 73
     4
 74
     0
 42
0.000000001
 43
0.00000001
 40
0.0
 40
0.0
 40
0.0
 40
0.0
 40
1.0
 40
1.0
 40
1.0
 40
1.0
 10
17.16465261256848
 20
-3.665434438941094
 30
0.0
 10
17.24048877676486
 20
-3.634169775285497
 30
0.0
 10
17.33670413463103
 20
-3.653568499522918
 30
0.0
 10
17.41612902943756
 20
-3.724438416788441
 30
0.0
  0
SPLINE
  5
10C
330
1F
100
AcDbEntity
  8
외형선
  6
Continuous
 62
     1
370
    15
100
AcDbSpline
210
0.0
220
0.0
230
1.0
 70
     8
 71
     3
 72
     8
 73
     4
 74
     0
 42
0.000000001
 43
0.00000001
 40
0.0
 40
0.0
 40
0.0
 40
0.0
 40
1.0
 40
1.0
 40
1.0
 40
1.0
 10
17.41612902943756
 20
-3.724438416788439
 30
0.0
 10
17.54091693689653
 20
-3.835785226864767
 30
0.0
 10
17.67430478081538
 20
-3.907837796948267
 30
0.0
 10
17.80921250460906
 20
-3.941048699076047
 30
0.0
  0
SPLINE
  5
10D
330
1F
100
AcDbEntity
  8
외형선
  6
Continuous
 62
     1
370
    15
100
AcDbSpline
210
0.0
220
0.0
230
1.0
 70
     8
 71
     3
 72
    12
 73
     8
 74
     0
 42
0.000000001
 43
0.00000001
 40
0.0
 40
0.0
 40
0.0
 40
0.0
 40
0.2754543658026353
 40
0.5528037443947821
 40
0.7736953995040036
 40
0.9956348911326858
 40
0.9999999999999999
 40
0.9999999999999999
 40
0.9999999999999999
 40
0.9999999999999999
 10
17.80921250460906
 20
-3.941048699076047
 30
0.0
 10
17.83510825129836
 20
-3.939781469729589
 30
0.0
 10
17.88707789676771
 20
-3.937238293019763
 30
0.0
 10
17.95889858404441
 20
-3.923183999113991
 30
0.0
 10
18.02452108435029
 20
-3.902726484426021
 30
0.0
 10
18.06497482041419
 20
-3.887756871008833
 30
0.0
 10
18.08475390712598
 20
-3.877423367522776
 30
0.0
 10
18.08513541888758
 20
-3.877224048253091
 30
0.0
  0
SPLINE
  5
10E
330
1F
100
AcDbEntity
  8
외형선
  6
Continuous
 62
     1
370
    15
100
AcDbSpline
210
0.0
220
0.0
230
1.0
 70
     8
 71
     3
 72
    10
 73
     6
 74
     0
 42
0.000000001
 43
0.00000001
 40
0.0
 40
0.0
 40
0.0
 40
0.0
 40
0.0743168812988993
 40
0.5330490600304524
 40
1.0
 40
1.0
 40
1.0
 40
1.0
 10
18.37856853239422
 20
-3.774464766923257
 30
0.0
 10
18.38047171822483
 20
-3.774703136044566
 30
0.0
 10
18.39412260615687
 20
-3.776412874583551
 30
0.0
 10
18.4192210070081
 20
-3.786369047326521
 30
0.0
 10
18.44118938536754
 20
-3.799125592149047
 30
0.0
 10
18.45227109866371
 20
-3.805560494628418
 30
0.0
  0
LINE
  5
10F
330
1F
100
AcDbEntity
  8
외형선
  6
Continuous
 62
     1
370
    15
100
AcDbLine
 10
18.45227109866371
 20
-3.805560494628418
 30
0.0
 11
18.50592747896353
 21
-3.826871575155625
 31
0.0
  0
SPLINE
  5
110
330
1F
100
AcDbEntity
  8
외형선
  6
Continuous
 62
     1
370
    15
100
AcDbSpline
210
0.0
220
0.0
230
1.0
 70
     8
 71
     3
 72
    10
 73
     6
 74
     0
 42
0.000000001
 43
0.00000001
 40
0.0
 40
0.0
 40
0.0
 40
0.0
 40
0.5
 40
0.5
 40
1.0
 40
1.0
 40
1.0
 40
1.0
 10
21.48693971961888
 20
-1.019781649898362
 30
0.0
 10
21.64613455333385
 20
-1.185087424493593
 30
0.0
 10
21.81483307559088
 20
-1.362493895428617
 30
0.0
 10
22.15334900033151
 20
-1.670325934400592
 30
0.0
 10
22.32297609493757
 20
-1.799630646925994
 30
0.0
 10
22.47441571668506
 20
-1.878296649754212
 30
0.0
  0
SPLINE
  5
111
330
1F
100
AcDbEntity
  8
외형선
  6
Continuous
 62
     1
370
    15
100
AcDbSpline
210
0.0
220
0.0
230
1.0
 70
     8
 71
     3
 72
    12
 73
     8
 74
     0
 42
0.000000001
 43
0.00000001
 40
0.0
 40
0.0
 40
0.0
 40
0.0
 40
0.2499999999999986
 40
0.2499999999999986
 40
0.4999999999999971
 40
0.4999999999999971
 40
1.0
 40
1.0
 40
1.0
 40
1.0
 10
22.75412242979345
 20
0.7171111717776094
 30
0.0
 10
22.67465800616254
 20
0.7965991075090872
 30
0.0
 10
22.59369889215921
 20
0.8796047241372997
 30
0.0
 10
22.42603459617172
 20
1.047928886804947
 30
0.0
 10
22.34116222875459
 20
1.131427576118295
 30
0.0
 10
22.087092977908
 20
1.368368150874799
 30
0.0
 10
21.91839874971168
 20
1.507762791225634
 30
0.0
 10
21.76773088574677
 20
1.600249167920772
 30
0.0
  0
SPLINE
  5
112
330
1F
100
AcDbEntity
  8
외형선
  6
Continuous
 62
     1
370
    15
100
AcDbSpline
210
0.0
220
0.0
230
1.0
 70
     8
 71
     3
 72
    10
 73
     6
 74
     0
 42
0.000000001
 43
0.00000001
 40
0.0
 40
0.0
 40
0.0
 40
0.0
 40
0.5
 40
0.5
 40
1.0
 40
1.0
 40
1.0
 40
1.0
 10
15.16918078526562
 20
-0.1039024247938566
 30
0.0
 10
15.01004714893931
 20
0.0336753460175767
 30
0.0
 10
14.8415238143071
 20
0.2061028874219346
 30
0.0
 10
14.50238446729869
 20
0.5376809888821086
 30
0.0
 10
14.33258827202819
 20
0.6969027407626623
 30
0.0
 10
14.18118153075597
 20
0.8216273551790536
 30
0.0
  0
SPLINE
  5
113
330
1F
100
AcDbEntity
  8
외형선
  6
Continuous
 62
     1
370
    15
100
AcDbSpline
210
0.0
220
0.0
230
1.0
 70
     8
 71
     3
 72
    12
 73
     8
 74
     0
 42
0.000000001
 43
0.00000001
 40
0.0
 40
0.0
 40
0.0
 40
0.0
 40
0.1480095973109872
 40
0.357882531577469
 40
0.569033267551603
 40
0.7839221407484296
 40
0.9999999999999999
 40
0.9999999999999999
 40
0.9999999999999999
 40
0.9999999999999999
 10
11.42541793072778
 20
3.072576133766223
 30
0.0
 10
11.44047563009319
 20
3.087830802873154
 30
0.0
 10
11.47688467157785
 20
3.124716110971751
 30
0.0
 10
11.53595675332267
 20
3.178801875504804
 30
0.0
 10
11.60268492085751
 20
3.235138608386045
 30
0.0
 10
11.67072002035401
 20
3.287402278130547
 30
0.0
 10
11.71672194235572
 20
3.318018750926929
 30
0.0
 10
11.73978636027753
 20
3.333369220932102
 30
0.0
  0
SPLINE
  5
114
330
1F
100
AcDbEntity
  8
외형선
  6
Continuous
 62
     1
370
    15
100
AcDbSpline
210
0.0
220
0.0
230
1.0
 70
     8
 71
     3
 72
     8
 73
     4
 74
     0
 42
0.000000001
 43
0.00000001
 40
0.0
 40
0.0
 40
0.0
 40
0.0
 40
1.0
 40
1.0
 40
1.0
 40
1.0
 10
11.73978636027744
 20
3.333369220932481
 30
0.0
 10
11.87648087770173
 20
3.391400179878084
 30
0.0
 10
12.01100396671156
 20
3.412670161301151
 30
0.0
 10
12.13225463911741
 20
3.389734908804796
 30
0.0
  0
SPLINE
  5
115
330
1F
100
AcDbEntity
  8
외형선
  6
Continuous
 62
     1
370
    15
100
AcDbSpline
210
0.0
220
0.0
230
1.0
 70
     8
 71
     3
 72
     8
 73
     4
 74
     0
 42
0.000000001
 43
0.00000001
 40
0.0
 40
0.0
 40
0.0
 40
0.0
 40
1.0
 40
1.0
 40
1.0
 40
1.0
 10
12.13225463911897
 20
3.389734908807557
 30
0.0
 10
12.20806987397341
 20
3.375394027062509
 30
0.0
 10
12.30473569980997
 20
3.410547479119567
 30
0.0
 10
12.38473189356881
 20
3.490407738237047
 30
0.0
  0
SPLINE
  5
116
330
1F
100
AcDbEntity
  8
외형선
  6
Continuous
 62
     1
370
    15
100
AcDbSpline
210
0.0
220
0.0
230
1.0
 70
     8
 71
     3
 72
    10
 73
     6
 74
     0
 42
0.000000001
 43
0.00000001
 40
0.0
 40
0.0
 40
0.0
 40
0.0
 40
0.5
 40
0.5
 40
1.0
 40
1.0
 40
1.0
 40
1.0
 10
12.3847318935688
 20
3.49040773823703
 30
0.0
 10
12.54371808664837
 20
3.649123771823737
 30
0.0
 10
12.71196824927846
 20
3.754513740844955
 30
0.0
 10
13.05050129386325
 20
3.849139517420872
 30
0.0
 10
13.22006585036928
 20
3.836774524602201
 30
0.0
 10
13.37118053486703
 20
3.755724428340824
 30
0.0
  0
SPLINE
  5
117
330
1F
100
AcDbEntity
  8
외형선
  6
Continuous
 62
     1
370
    15
100
AcDbSpline
210
0.0
220
0.0
230
1.0
 70
     8
 71
     3
 72
     8
 73
     4
 74
     0
 42
0.000000001
 43
0.00000001
 40
0.0
 40
0.0
 40
0.0
 40
0.0
 40
1.0
 40
1.0
 40
1.0
 40
1.0
 10
13.37118053486704
 20
3.755724428340813
 30
0.0
 10
13.44703259908338
 20
3.71504130659926
 30
0.0
 10
13.54342150789794
 20
3.72516811476882
 30
0.0
 10
13.62265075212057
 20
3.789411110740644
 30
0.0
  0
SPLINE
  5
118
330
1F
100
AcDbEntity
  8
외형선
  6
Continuous
 62
     1
370
    15
100
AcDbSpline
210
0.0
220
0.0
230
1.0
 70
     8
 71
     3
 72
     8
 73
     4
 74
     0
 42
0.000000001
 43
0.00000001
 40
0.0
 40
0.0
 40
0.0
 40
0.0
 40
1.0
 40
1.0
 40
1.0
 40
1.0
 10
13.62265075212056
 20
3.789411110740642
 30
0.0
 10
13.74769959066172
 20
3.890806903537903
 30
0.0
 10
13.88068722305212
 20
3.949385381013526
 30
0.0
 10
14.01564917094965
 20
3.968544927104952
 30
0.0
  0
SPLINE
  5
119
330
1F
100
AcDbEntity
  8
외형선
  6
Continuous
 62
     1
370
    15
100
AcDbSpline
210
0.0
220
0.0
230
1.0
 70
     8
 71
     3
 72
     8
 73
     4
 74
     0
 42
0.000000001
 43
0.00000001
 40
0.0
 40
0.0
 40
0.0
 40
0.0
 40
1.0
 40
1.0
 40
1.0
 40
1.0
 10
14.01564917094955
 20
3.968544927104937
 30
0.0
 10
14.15215810917294
 20
3.951880173523726
 30
0.0
 10
14.28652656565415
 20
3.894097901610792
 30
0.0
 10
14.40761113720246
 20
3.795515431156573
 30
0.0
  0
SPLINE
  5
11A
330
1F
100
AcDbEntity
  8
외형선
  6
Continuous
 62
     1
370
    15
100
AcDbSpline
210
0.0
220
0.0
230
1.0
 70
     8
 71
     3
 72
     8
 73
     4
 74
     0
 42
0.000000001
 43
0.00000001
 40
0.0
 40
0.0
 40
0.0
 40
0.0
 40
1.0
 40
1.0
 40
1.0
 40
1.0
 10
14.40761113720247
 20
3.795515431156568
 30
0.0
 10
14.48332829179086
 20
3.733869392692367
 30
0.0
 10
14.57992296765125
 20
3.720716678020659
 30
0.0
 10
14.65986479574061
 20
3.765613259708497
 30
0.0
  0
SPLINE
  5
11B
330
1F
100
AcDbEntity
  8
외형선
  6
Continuous
 62
     1
370
    15
100
AcDbSpline
210
0.0
220
0.0
230
1.0
 70
     8
 71
     3
 72
    12
 73
     8
 74
     0
 42
0.000000001
 43
0.00000001
 40
0.0
 40
0.0
 40
0.0
 40
0.0
 40
0.2500000000000001
 40
0.2500000000000001
 40
0.5000000000000001
 40
0.5000000000000001
 40
1.0
 40
1.0
 40
1.0
 40
1.0
 10
14.65986479574074
 20
3.7656132597084
 30
0.0
 10
14.7394618690525
 20
3.810316221717962
 30
0.0
 10
14.82040387844008
 20
3.835034935415683
 30
0.0
 10
14.98759891525506
 20
3.852690956209836
 30
0.0
 10
15.07219912213595
 20
3.845001057069708
 30
0.0
 10
15.32628410973873
 20
3.777184314780384
 30
0.0
 10
15.49600675353005
 20
3.672407278338889
 30
0.0
 10
15.64730383873253
 20
3.514484782461413
 30
0.0
  0
SPLINE
  5
11C
330
1F
100
AcDbEntity
  8
외형선
  6
Continuous
 62
     1
370
    15
100
AcDbSpline
210
0.0
220
0.0
230
1.0
 70
     8
 71
     3
 72
     8
 73
     4
 74
     0
 42
0.000000001
 43
0.00000001
 40
0.0
 40
0.0
 40
0.0
 40
0.0
 40
1.0
 40
1.0
 40
1.0
 40
1.0
 10
15.64730383873254
 20
3.514484782461401
 30
0.0
 10
15.72316896814488
 20
3.435297463215756
 30
0.0
 10
15.81957816031549
 20
3.397407535765065
 30
0.0
 10
15.89882918121067
 20
3.417712600407383
 30
0.0
  0
SPLINE
  5
11D
330
1F
100
AcDbEntity
  8
외형선
  6
Continuous
 62
     1
370
    15
100
AcDbSpline
210
0.0
220
0.0
230
1.0
 70
     8
 71
     3
 72
     8
 73
     4
 74
     0
 42
0.000000001
 43
0.00000001
 40
0.0
 40
0.0
 40
0.0
 40
0.0
 40
1.0
 40
1.0
 40
1.0
 40
1.0
 10
15.89882918121068
 20
3.417712600407385
 30
0.0
 10
16.02388589181981
 20
3.449753633623006
 30
0.0
 10
16.15682740940959
 20
3.430658746328004
 30
0.0
 10
16.29171307287623
 20
3.376377934246967
 30
0.0
  0
SPLINE
  5
11E
330
1F
100
AcDbEntity
  8
외형선
  6
Continuous
 62
     1
370
    15
100
AcDbSpline
210
0.0
220
0.0
230
1.0
 70
     8
 71
     3
 72
     8
 73
     4
 74
     0
 42
0.000000001
 43
0.00000001
 40
0.0
 40
0.0
 40
0.0
 40
0.0
 40
1.0
 40
1.0
 40
1.0
 40
1.0
 10
16.29171307287623
 20
3.376377934246965
 30
0.0
 10
16.42808387468278
 20
3.290243427525076
 30
0.0
 10
16.56234703049434
 20
3.171374672634664
 30
0.0
 10
16.68331873291914
 20
3.027759620328285
 30
0.0
  0
SPLINE
  5
11F
330
1F
100
AcDbEntity
  8
외형선
  6
Continuous
 62
     1
370
    15
100
AcDbSpline
210
0.0
220
0.0
230
1.0
 70
     8
 71
     3
 72
     8
 73
     4
 74
     0
 42
0.000000001
 43
0.00000001
 40
0.0
 40
0.0
 40
0.0
 40
0.0
 40
1.0
 40
1.0
 40
1.0
 40
1.0
 10
16.68331873291914
 20
3.027759620328279
 30
0.0
 10
16.758915817968
 20
2.938012356250137
 30
0.0
 10
16.85541206969603
 20
2.880635219940554
 30
0.0
 10
16.93524343654734
 20
2.87687861155142
 30
0.0
  0
SPLINE
  5
120
330
1F
100
AcDbEntity
  8
외형선
  6
Continuous
 62
     1
370
    15
100
AcDbSpline
210
0.0
220
0.0
230
1.0
 70
     8
 71
     3
 72
    10
 73
     6
 74
     0
 42
0.000000001
 43
0.00000001
 40
0.0
 40
0.0
 40
0.0
 40
0.0
 40
0.5
 40
0.5
 40
1.0
 40
1.0
 40
1.0
 40
1.0
 10
16.93524343654733
 20
2.876878611551429
 30
0.0
 10
17.09452418239556
 20
2.869383369897915
 30
0.0
 10
17.2631347566331
 20
2.785131436890476
 30
0.0
 10
17.6020693476647
 20
2.537076317085026
 30
0.0
 10
17.77185621887995
 20
2.372158299891258
 30
0.0
 10
17.92328368486475
 20
2.186197477445476
 30
0.0
  0
SPLINE
  5
121
330
1F
100
AcDbEntity
  8
외형선
  6
Continuous
 62
     1
370
    15
100
AcDbSpline
210
0.0
220
0.0
230
1.0
 70
     8
 71
     3
 72
     8
 73
     4
 74
     0
 42
0.000000001
 43
0.00000001
 40
0.0
 40
0.0
 40
0.0
 40
0.0
 40
1.0
 40
1.0
 40
1.0
 40
1.0
 10
17.92328368486476
 20
2.186197477445465
 30
0.0
 10
17.99919494362722
 20
2.09297449427954
 30
0.0
 10
18.09565252056304
 20
2.018797166564664
 30
0.0
 10
18.17495846898212
 20
1.98888553546297
 30
0.0
  0
SPLINE
  5
122
330
1F
100
AcDbEntity
  8
외형선
  6
Continuous
 62
     1
370
    15
100
AcDbSpline
210
0.0
220
0.0
230
1.0
 70
     8
 71
     3
 72
     8
 73
     4
 74
     0
 42
0.000000001
 43
0.00000001
 40
0.0
 40
0.0
 40
0.0
 40
0.0
 40
1.0
 40
1.0
 40
1.0
 40
1.0
 10
18.17495846898212
 20
1.988885535462966
 30
0.0
 10
18.30006626617907
 20
1.941698932789412
 30
0.0
 10
18.43303099343917
 20
1.850843901106215
 30
0.0
 10
18.56787861088462
 20
1.739853759248073
 30
0.0
  0
SPLINE
  5
123
330
1F
100
AcDbEntity
  8
외형선
  6
Continuous
 62
     1
370
    15
100
AcDbSpline
210
0.0
220
0.0
230
1.0
 70
     8
 71
     3
 72
     8
 73
     4
 74
     0
 42
0.000000001
 43
0.00000001
 40
0.0
 40
0.0
 40
0.0
 40
0.0
 40
1.0
 40
1.0
 40
1.0
 40
1.0
 10
18.56787861088598
 20
1.739853759246951
 30
0.0
 10
18.70415863753346
 20
1.610877543789983
 30
0.0
 10
18.83836592603047
 20
1.467685758096343
 30
0.0
 10
18.95927820007656
 20
1.323505930683791
 30
0.0
  0
SPLINE
  5
124
330
1F
100
AcDbEntity
  8
외형선
  6
Continuous
 62
     1
370
    15
100
AcDbSpline
210
0.0
220
0.0
230
1.0
 70
     8
 71
     3
 72
     8
 73
     4
 74
     0
 42
0.000000001
 43
0.00000001
 40
0.0
 40
0.0
 40
0.0
 40
0.0
 40
1.0
 40
1.0
 40
1.0
 40
1.0
 10
18.95927820007668
 20
1.323505930683333
 30
0.0
 10
19.0347884516922
 20
1.233464988755014
 30
0.0
 10
19.1312143401127
 20
1.149677375220703
 30
0.0
 10
19.21096817195264
 20
1.098506366613995
 30
0.0
  0
SPLINE
  5
125
330
1F
100
AcDbEntity
  8
외형선
  6
Continuous
 62
     1
370
    15
100
AcDbSpline
210
0.0
220
0.0
230
1.0
 70
     8
 71
     3
 72
    10
 73
     6
 74
     0
 42
0.000000001
 43
0.00000001
 40
0.0
 40
0.0
 40
0.0
 40
0.0
 40
0.5
 40
0.5
 40
1.0
 40
1.0
 40
1.0
 40
1.0
 10
19.21096817195405
 20
1.098506366608255
 30
0.0
 10
19.37024733851194
 20
0.996310955870194
 30
0.0
 10
19.53893758956888
 20
0.8414852264665755
 30
0.0
 10
19.87777450306737
 20
0.5124929741199264
 30
0.0
 10
20.04754455533924
 20
0.3384003501040496
 30
0.0
 10
20.19902072412776
 20
0.1819441296129403
 30
0.0
  0
SPLINE
  5
126
330
1F
100
AcDbEntity
  8
외형선
  6
Continuous
 62
     1
370
    15
100
AcDbSpline
210
0.0
220
0.0
230
1.0
 70
     8
 71
     3
 72
     8
 73
     4
 74
     0
 42
0.000000001
 43
0.00000001
 40
0.0
 40
0.0
 40
0.0
 40
0.0
 40
1.0
 40
1.0
 40
1.0
 40
1.0
 10
20.19902072412778
 20
0.181944129612913
 30
0.0
 10
20.2750110769386
 20
0.1034554571725296
 30
0.0
 10
20.37154510295387
 20
0.0159247748839773
 30
0.0
 10
20.45093912928484
 20
-0.0549988759713172
 30
0.0
  0
SPLINE
  5
127
330
1F
100
AcDbEntity
  8
외형선
  6
Continuous
 62
     1
370
    15
100
AcDbSpline
210
0.0
220
0.0
230
1.0
 70
     8
 71
     3
 72
     8
 73
     4
 74
     0
 42
0.000000001
 43
0.00000001
 40
0.0
 40
0.0
 40
0.0
 40
0.0
 40
1.0
 40
1.0
 40
1.0
 40
1.0
 10
20.45093912928484
 20
-0.0549988759713152
 30
0.0
 10
20.57614128155797
 20
-0.1668434837398422
 30
0.0
 10
20.70919862589646
 20
-0.3013672278062801
 30
0.0
 10
20.84404627183692
 20
-0.4348089778123236
 30
0.0
  0
SPLINE
  5
128
330
1F
100
AcDbEntity
  8
외형선
  6
Continuous
 62
     1
370
    15
100
AcDbSpline
210
0.0
220
0.0
230
1.0
 70
     8
 71
     3
 72
     8
 73
     4
 74
     0
 42
0.000000001
 43
0.00000001
 40
0.0
 40
0.0
 40
0.0
 40
0.0
 40
1.0
 40
1.0
 40
1.0
 40
1.0
 10
20.84404627183692
 20
-0.4348089778123185
 30
0.0
 10
20.98028278652882
 20
-0.5667987663047126
 30
0.0
 10
21.11448372335402
 20
-0.6900911376113589
 30
0.0
 10
21.23539020460734
 20
-0.7902435531829008
 30
0.0
  0
SPLINE
  5
129
330
1F
100
AcDbEntity
  8
외형선
  6
Continuous
 62
     1
370
    15
100
AcDbSpline
210
0.0
220
0.0
230
1.0
 70
     8
 71
     3
 72
     8
 73
     4
 74
     0
 42
0.000000001
 43
0.00000001
 40
0.0
 40
0.0
 40
0.0
 40
0.0
 40
1.0
 40
1.0
 40
1.0
 40
1.0
 10
21.23539020460734
 20
-0.7902435531829016
 30
0.0
 10
21.31084682421773
 20
-0.8527477518536867
 30
0.0
 10
21.40723043570507
 20
-0.9370126013537582
 30
0.0
 10
21.48693971961895
 20
-1.019781649898425
 30
0.0
  0
SPLINE
  5
12A
330
1F
100
AcDbEntity
  8
외형선
  6
Continuous
 62
     1
370
    15
100
AcDbSpline
210
0.0
220
0.0
230
1.0
 70
     8
 71
     3
 72
     8
 73
     4
 74
     0
 42
0.000000001
 43
0.00000001
 40
0.0
 40
0.0
 40
0.0
 40
0.0
 40
1.0
 40
1.0
 40
1.0
 40
1.0
 10
22.47441571668507
 20
-1.878296649754223
 30
0.0
 10
22.55051801860995
 20
-1.917828337890884
 30
0.0
 10
22.6471565060741
 20
-1.991640135978711
 30
0.0
 10
22.72667175261055
 20
-2.081692573377253
 30
0.0
  0
SPLINE
  5
12B
330
1F
100
AcDbEntity
  8
외형선
  6
Continuous
 62
     1
370
    15
100
AcDbSpline
210
0.0
220
0.0
230
1.0
 70
     8
 71
     3
 72
     8
 73
     4
 74
     0
 42
0.000000001
 43
0.00000001
 40
0.0
 40
0.0
 40
0.0
 40
0.0
 40
1.0
 40
1.0
 40
1.0
 40
1.0
 10
22.72667175261055
 20
-2.081692573377252
 30
0.0
 10
22.76474179357544
 20
-2.124807574966023
 30
0.0
 10
22.80342596386763
 20
-2.167272954167629
 30
0.0
 10
22.84285054105959
 20
-2.208983827699926
 30
0.0
  0
SPLINE
  5
12C
330
1F
100
AcDbEntity
  8
외형선
  6
Continuous
 62
     1
370
    15
100
AcDbSpline
210
0.0
220
0.0
230
1.0
 70
     8
 71
     3
 72
    10
 73
     6
 74
     0
 42
0.000000001
 43
0.00000001
 40
0.0
 40
0.0
 40
0.0
 40
0.0
 40
0.1598339632288446
 40
0.5870731189528174
 40
1.0
 40
1.0
 40
1.0
 40
1.0
 10
22.12490392476645
 20
-1.636585832604561
 30
0.0
 10
22.10173384309085
 20
-1.641733860104561
 30
0.0
 10
22.01662970226308
 20
-1.660642660836436
 30
0.0
 10
21.85221837739184
 20
-1.726053958002044
 30
0.0
 10
21.70990386017911
 20
-1.799930236909723
 30
0.0
 10
21.63995876938941
 20
-1.836239133124994
 30
0.0
  0
LINE
  5
12D
330
1F
100
AcDbEntity
  8
외형선
  6
Continuous
 62
     1
370
    15
100
AcDbLine
 10
23.01231532850779
 20
-2.151144699352092
 30
0.0
 11
22.93271841480313
 21
-2.139986291881587
 31
0.0
  0
SPLINE
  5
12E
330
1F
100
AcDbEntity
  8
외형선
  6
Continuous
 62
     1
370
    15
100
AcDbSpline
210
0.0
220
0.0
230
1.0
 70
     8
 71
     3
 72
     9
 73
     5
 74
     0
 42
0.000000001
 43
0.00000001
 40
0.0
 40
0.0
 40
0.0
 40
0.0
 40
0.3815461088474416
 40
1.0
 40
1.0
 40
1.0
 40
1.0
 10
22.75696168376573
 20
-2.115347582548259
 30
0.0
 10
22.61183748675746
 20
-2.099809780509559
 30
0.0
 10
22.23147927147733
 20
-2.05908651881614
 30
0.0
 10
21.86599434458412
 20
-1.921394993027636
 30
0.0
 10
21.63995876938941
 20
-1.836239133125002
 30
0.0
  0
LINE
  5
12F
330
1F
100
AcDbEntity
  8
외형선
  6
Continuous
 62
     1
370
    15
100
AcDbLine
 10
23.01231532850779
 20
-3.475118908202507
 30
0.0
 11
23.01231532850779
 21
-2.151144699352092
 31
0.0
  0
SPLINE
  5
130
330
1F
100
AcDbEntity
  8
외형선
  6
Continuous
 62
     1
370
    15
100
AcDbSpline
210
0.0
220
0.0
230
1.0
 70
     8
 71
     3
 72
     8
 73
     4
 74
     0
 42
0.000000001
 43
0.00000001
 40
0.0
 40
0.0
 40
0.0
 40
0.0
 40
1.0
 40
1.0
 40
1.0
 40
1.0
 10
22.88210217009177
 20
-3.638562775963959
 30
0.0
 10
22.92500303067543
 20
-3.584438034003175
 30
0.0
 10
22.96837699046205
 20
-3.529942703131622
 30
0.0
 10
23.01231532850779
 20
-3.475118908202504
 30
0.0
  0
SPLINE
  5
131
330
1F
100
AcDbEntity
  8
외형선
  6
Continuous
 62
     1
370
    15
100
AcDbSpline
210
0.0
220
0.0
230
1.0
 70
     8
 71
     3
 72
     8
 73
     4
 74
     0
 42
0.000000001
 43
0.00000001
 40
0.0
 40
0.0
 40
0.0
 40
0.0
 40
1.0
 40
1.0
 40
1.0
 40
1.0
 10
22.88210217009378
 20
-3.638562775966822
 30
0.0
 10
22.8029365341409
 20
-3.699170343941386
 30
0.0
 10
22.72207606577998
 20
-3.746963668018942
 30
0.0
 10
22.64038637148715
 20
-3.781446267127008
 30
0.0
  0
SPLINE
  5
132
330
1F
100
AcDbEntity
  8
외형선
  6
Continuous
 62
     1
370
    15
100
AcDbSpline
210
0.0
220
0.0
230
1.0
 70
     8
 71
     3
 72
     8
 73
     4
 74
     0
 42
0.000000001
 43
0.00000001
 40
0.0
 40
0.0
 40
0.0
 40
0.0
 40
1.0
 40
1.0
 40
1.0
 40
1.0
 10
22.64038637148716
 20
-3.781446267127008
 30
0.0
 10
22.50363598118674
 20
-3.805129038256488
 30
0.0
 10
22.36916732537363
 20
-3.788427470955375
 30
0.0
 10
22.24802382053157
 20
-3.727472905889722
 30
0.0
  0
SPLINE
  5
133
330
1F
100
AcDbEntity
  8
외형선
  6
Continuous
 62
     1
370
    15
100
AcDbSpline
210
0.0
220
0.0
230
1.0
 70
     8
 71
     3
 72
     8
 73
     4
 74
     0
 42
0.000000001
 43
0.00000001
 40
0.0
 40
0.0
 40
0.0
 40
0.0
 40
1.0
 40
1.0
 40
1.0
 40
1.0
 10
22.24802382053158
 20
-3.727472905889722
 30
0.0
 10
22.17219269090888
 20
-3.689317715228736
 30
0.0
 10
22.07554594714485
 20
-3.702236314758156
 30
0.0
 10
21.99557486606789
 20
-3.768224116234764
 30
0.0
  0
SPLINE
  5
134
330
1F
100
AcDbEntity
  8
외형선
  6
Continuous
 62
     1
370
    15
100
AcDbSpline
210
0.0
220
0.0
230
1.0
 70
     8
 71
     3
 72
    12
 73
     8
 74
     0
 42
0.000000001
 43
0.00000001
 40
0.0
 40
0.0
 40
0.0
 40
0.0
 40
0.2499999999999987
 40
0.2499999999999987
 40
0.4999999999999973
 40
0.4999999999999973
 40
1.0
 40
1.0
 40
1.0
 40
1.0
 10
21.99557486606785
 20
-3.768224116234784
 30
0.0
 10
21.91614868134777
 20
-3.833762298772396
 30
0.0
 10
21.83554785571226
 20
-3.881588898081143
 30
0.0
 10
21.66835880308464
 20
-3.948069506304396
 30
0.0
 10
21.58360275334967
 20
-3.965501627935117
 30
0.0
 10
21.32951082912601
 20
-3.97127511938153
 30
0.0
 10
21.15992882203088
 20
-3.913024209896761
 30
0.0
 10
21.00889915779142
 20
-3.791041407129351
 30
0.0
  0
SPLINE
  5
135
330
1F
100
AcDbEntity
  8
외형선
  6
Continuous
 62
     1
370
    15
100
AcDbSpline
210
0.0
220
0.0
230
1.0
 70
     8
 71
     3
 72
     8
 73
     4
 74
     0
 42
0.000000001
 43
0.00000001
 40
0.0
 40
0.0
 40
0.0
 40
0.0
 40
1.0
 40
1.0
 40
1.0
 40
1.0
 10
21.00889915779142
 20
-3.791041407129352
 30
0.0
 10
20.93302940211385
 20
-3.729763343052133
 30
0.0
 10
20.83667572196277
 20
-3.716748174923853
 30
0.0
 10
20.7574809801389
 20
-3.761996236623587
 30
0.0
  0
SPLINE
  5
136
330
1F
100
AcDbEntity
  8
외형선
  6
Continuous
 62
     1
370
    15
100
AcDbSpline
210
0.0
220
0.0
230
1.0
 70
     8
 71
     3
 72
     8
 73
     4
 74
     0
 42
0.000000001
 43
0.00000001
 40
0.0
 40
0.0
 40
0.0
 40
0.0
 40
1.0
 40
1.0
 40
1.0
 40
1.0
 10
20.75748098013891
 20
-3.761996236623582
 30
0.0
 10
20.63265369744128
 20
-3.833316534653895
 30
0.0
 10
20.49949318827612
 20
-3.856349113619573
 30
0.0
 10
20.36447722858252
 20
-3.840313539947683
 30
0.0
  0
SPLINE
  5
137
330
1F
100
AcDbEntity
  8
외형선
  6
Continuous
 62
     1
370
    15
100
AcDbSpline
210
0.0
220
0.0
230
1.0
 70
     8
 71
     3
 72
     8
 73
     4
 74
     0
 42
0.000000001
 43
0.00000001
 40
0.0
 40
0.0
 40
0.0
 40
0.0
 40
1.0
 40
1.0
 40
1.0
 40
1.0
 10
20.36447722858252
 20
-3.840313539947683
 30
0.0
 10
20.2278982138789
 20
-3.788900201379525
 30
0.0
 10
20.09357047958277
 20
-3.698764307064235
 30
0.0
 10
19.97258049014465
 20
-3.57407022238991
 30
0.0
  0
SPLINE
  5
138
330
1F
100
AcDbEntity
  8
외형선
  6
Continuous
 62
     1
370
    15
100
AcDbSpline
210
0.0
220
0.0
230
1.0
 70
     8
 71
     3
 72
     8
 73
     4
 74
     0
 42
0.000000001
 43
0.00000001
 40
0.0
 40
0.0
 40
0.0
 40
0.0
 40
1.0
 40
1.0
 40
1.0
 40
1.0
 10
19.97258049014464
 20
-3.574070222389909
 30
0.0
 10
19.89687091305644
 20
-3.496042804915657
 30
0.0
 10
19.80032294260326
 20
-3.460616217065782
 30
0.0
 10
19.72044162281381
 20
-3.483359512003438
 30
0.0
  0
SPLINE
  5
139
330
1F
100
AcDbEntity
  8
외형선
  6
Continuous
 62
     1
370
    15
100
AcDbSpline
210
0.0
220
0.0
230
1.0
 70
     8
 71
     3
 72
    12
 73
     8
 74
     0
 42
0.000000001
 43
0.00000001
 40
0.0
 40
0.0
 40
0.0
 40
0.0
 40
0.2500000000000002
 40
0.2500000000000002
 40
0.5000000000000004
 40
0.5000000000000004
 40
1.0
 40
1.0
 40
1.0
 40
1.0
 10
19.72044162281377
 20
-3.483359512003464
 30
0.0
 10
19.64091013816491
 20
-3.506003204132815
 30
0.0
 10
19.56018282266781
 20
-3.508069416489811
 30
0.0
 10
19.3928829904342
 20
-3.480962124387891
 30
0.0
 10
19.30808016703745
 20
-3.451557704357326
 30
0.0
 10
19.05376824863701
 20
-3.323219080037263
 30
0.0
 10
18.88401920677131
 20
-3.184634947263159
 30
0.0
 10
18.73279452899307
 20
-3.006508336519726
 30
0.0
  0
SPLINE
  5
13A
330
1F
100
AcDbEntity
  8
외형선
  6
Continuous
 62
     1
370
    15
100
AcDbSpline
210
0.0
220
0.0
230
1.0
 70
     8
 71
     3
 72
     8
 73
     4
 74
     0
 42
0.000000001
 43
0.00000001
 40
0.0
 40
0.0
 40
0.0
 40
0.0
 40
1.0
 40
1.0
 40
1.0
 40
1.0
 10
18.73279452899306
 20
-3.006508336519719
 30
0.0
 10
18.65690372091338
 20
-2.917117024014253
 30
0.0
 10
18.56052015449309
 20
-2.85979709544298
 30
0.0
 10
18.48129561836198
 20
-2.856140114237489
 30
0.0
  0
SPLINE
  5
13B
330
1F
100
AcDbEntity
  8
외형선
  6
Continuous
 62
     1
370
    15
100
AcDbSpline
210
0.0
220
0.0
230
1.0
 70
     8
 71
     3
 72
     8
 73
     4
 74
     0
 42
0.000000001
 43
0.00000001
 40
0.0
 40
0.0
 40
0.0
 40
0.0
 40
1.0
 40
1.0
 40
1.0
 40
1.0
 10
18.48129561836198
 20
-2.856140114237485
 30
0.0
 10
18.35642251100414
 20
-2.850376008456881
 30
0.0
 10
18.22337183347572
 20
-2.795521312608783
 30
0.0
 10
18.08838914407528
 20
-2.711362596391534
 30
0.0
  0
SPLINE
  5
13C
330
1F
100
AcDbEntity
  8
외형선
  6
Continuous
 62
     1
370
    15
100
AcDbSpline
210
0.0
220
0.0
230
1.0
 70
     8
 71
     3
 72
     8
 73
     4
 74
     0
 42
0.000000001
 43
0.00000001
 40
0.0
 40
0.0
 40
0.0
 40
0.0
 40
1.0
 40
1.0
 40
1.0
 40
1.0
 10
18.08838914407528
 20
-2.711362596391536
 30
0.0
 10
17.95193398169049
 20
-2.600826127970445
 30
0.0
 10
17.81769784756394
 20
-2.465222601863475
 30
0.0
 10
17.69680817090239
 20
-2.315478725032841
 30
0.0
  0
SPLINE
  5
13D
330
1F
100
AcDbEntity
  8
외형선
  6
Continuous
 62
     1
370
    15
100
AcDbSpline
210
0.0
220
0.0
230
1.0
 70
     8
 71
     3
 72
     8
 73
     4
 74
     0
 42
0.000000001
 43
0.00000001
 40
0.0
 40
0.0
 40
0.0
 40
0.0
 40
1.0
 40
1.0
 40
1.0
 40
1.0
 10
17.69680817090239
 20
-2.315478725032833
 30
0.0
 10
17.62121091738039
 20
-2.221837761364566
 30
0.0
 10
17.52475197468938
 20
-2.149074202376037
 30
0.0
 10
17.44497327276709
 20
-2.121739489100668
 30
0.0
  0
SPLINE
  5
13E
330
1F
100
AcDbEntity
  8
외형선
  6
Continuous
 62
     1
370
    15
100
AcDbSpline
210
0.0
220
0.0
230
1.0
 70
     8
 71
     3
 72
    12
 73
     8
 74
     0
 42
0.000000001
 43
0.00000001
 40
0.0
 40
0.0
 40
0.0
 40
0.0
 40
0.2500000000000001
 40
0.2500000000000001
 40
0.5
 40
0.5
 40
1.0
 40
1.0
 40
1.0
 40
1.0
 10
17.44497327276705
 20
-2.121739489100685
 30
0.0
 10
17.36540157204484
 20
-2.094475701001017
 30
0.0
 10
17.28458975628515
 20
-2.050250887912398
 30
0.0
 10
17.1172570014685
 20
-1.937746464700113
 30
0.0
 10
17.03245281145253
 20
-1.870487053798218
 30
0.0
 10
16.77802471237256
 20
-1.647414260153589
 30
0.0
 10
16.60821145929422
 20
-1.4712758774494
 30
0.0
 10
16.45685553542108
 20
-1.29214015622378
 30
0.0
  0
SPLINE
  5
13F
330
1F
100
AcDbEntity
  8
외형선
  6
Continuous
 62
     1
370
    15
100
AcDbSpline
210
0.0
220
0.0
230
1.0
 70
     8
 71
     3
 72
     8
 73
     4
 74
     0
 42
0.000000001
 43
0.00000001
 40
0.0
 40
0.0
 40
0.0
 40
0.0
 40
1.0
 40
1.0
 40
1.0
 40
1.0
 10
16.45685553542107
 20
-1.292140156223773
 30
0.0
 10
16.38091054005047
 20
-1.202256250982034
 30
0.0
 10
16.28446893546439
 20
-1.118377415377658
 30
0.0
 10
16.20518143087592
 20
-1.066941707667464
 30
0.0
  0
SPLINE
  5
140
330
1F
100
AcDbEntity
  8
외형선
  6
Continuous
 62
     1
370
    15
100
AcDbSpline
210
0.0
220
0.0
230
1.0
 70
     8
 71
     3
 72
     8
 73
     4
 74
     0
 42
0.000000001
 43
0.00000001
 40
0.0
 40
0.0
 40
0.0
 40
0.0
 40
1.0
 40
1.0
 40
1.0
 40
1.0
 10
16.20518143087592
 20
-1.066941707667463
 30
0.0
 10
16.08022011246959
 20
-0.9858763004259429
 30
0.0
 10
15.94720952703332
 20
-0.8700056911760402
 30
0.0
 10
15.81222154208077
 20
-0.7436841115538546
 30
0.0
  0
SPLINE
  5
141
330
1F
100
AcDbEntity
  8
외형선
  6
Continuous
 62
     1
370
    15
100
AcDbSpline
210
0.0
220
0.0
230
1.0
 70
     8
 71
     3
 72
     8
 73
     4
 74
     0
 42
0.000000001
 43
0.00000001
 40
0.0
 40
0.0
 40
0.0
 40
0.0
 40
1.0
 40
1.0
 40
1.0
 40
1.0
 10
15.81222154208077
 20
-0.7436841115538639
 30
0.0
 10
15.67584280951037
 20
-0.6081993837086915
 30
0.0
 10
15.54164887688894
 20
-0.4690590686842712
 30
0.0
 10
15.42080613339642
 20
-0.3406203350877542
 30
0.0
  0
SPLINE
  5
142
330
1F
100
AcDbEntity
  8
외형선
  6
Continuous
 62
     1
370
    15
100
AcDbSpline
210
0.0
220
0.0
230
1.0
 70
     8
 71
     3
 72
     8
 73
     4
 74
     0
 42
0.000000001
 43
0.00000001
 40
0.0
 40
0.0
 40
0.0
 40
0.0
 40
1.0
 40
1.0
 40
1.0
 40
1.0
 10
15.42080613339531
 20
-0.3406203350830607
 30
0.0
 10
15.34528786879616
 20
-0.2603551078282709
 30
0.0
 10
15.24888984552591
 20
-0.1728142845190657
 30
0.0
 10
15.16918078526565
 20
-0.1039024247938625
 30
0.0
  0
SPLINE
  5
143
330
1F
100
AcDbEntity
  8
외형선
  6
Continuous
 62
     1
370
    15
100
AcDbSpline
210
0.0
220
0.0
230
1.0
 70
     8
 71
     3
 72
     8
 73
     4
 74
     0
 42
0.000000001
 43
0.00000001
 40
0.0
 40
0.0
 40
0.0
 40
0.0
 40
1.0
 40
1.0
 40
1.0
 40
1.0
 10
14.18118153075596
 20
0.8216273551790524
 30
0.0
 10
14.10514933192068
 20
0.8842605418078476
 30
0.0
 10
14.00862158334721
 20
0.968756721406448
 30
0.0
 10
13.92923795539731
 20
1.052110461741754
 30
0.0
  0
SPLINE
  5
144
330
1F
100
AcDbEntity
  8
외형선
  6
Continuous
 62
     1
370
    15
100
AcDbSpline
210
0.0
220
0.0
230
1.0
 70
     8
 71
     3
 72
     8
 73
     4
 74
     0
 42
0.000000001
 43
0.00000001
 40
0.0
 40
0.0
 40
0.0
 40
0.0
 40
1.0
 40
1.0
 40
1.0
 40
1.0
 10
13.92923795539732
 20
1.052110461741745
 30
0.0
 10
13.80414171517118
 20
1.183462981071212
 30
0.0
 10
13.67110353136298
 20
1.324537866483255
 30
0.0
 10
13.53607389092662
 20
1.454005886291343
 30
0.0
  0
SPLINE
  5
145
330
1F
100
AcDbEntity
  8
외형선
  6
Continuous
 62
     1
370
    15
100
AcDbSpline
210
0.0
220
0.0
230
1.0
 70
     8
 71
     3
 72
     8
 73
     4
 74
     0
 42
0.000000001
 43
0.00000001
 40
0.0
 40
0.0
 40
0.0
 40
0.0
 40
1.0
 40
1.0
 40
1.0
 40
1.0
 10
13.53607389092663
 20
1.454005886291334
 30
0.0
 10
13.39972428119086
 20
1.572587169715669
 30
0.0
 10
13.26552309241936
 20
1.672292597436806
 30
0.0
 10
13.14467373914421
 20
1.739707334791686
 30
0.0
  0
SPLINE
  5
146
330
1F
100
AcDbEntity
  8
외형선
  6
Continuous
 62
     1
370
    15
100
AcDbSpline
210
0.0
220
0.0
230
1.0
 70
     8
 71
     3
 72
     8
 73
     4
 74
     0
 42
0.000000001
 43
0.00000001
 40
0.0
 40
0.0
 40
0.0
 40
0.0
 40
1.0
 40
1.0
 40
1.0
 40
1.0
 10
13.14467373914421
 20
1.739707334791676
 30
0.0
 10
13.06920118388972
 20
1.781809028777571
 30
0.0
 10
12.97283595591739
 20
1.857048900402163
 30
0.0
 10
12.89316351942637
 20
1.946262147855268
 30
0.0
  0
SPLINE
  5
147
330
1F
100
AcDbEntity
  8
외형선
  6
Continuous
 62
     1
370
    15
100
AcDbSpline
210
0.0
220
0.0
230
1.0
 70
     8
 71
     3
 72
    10
 73
     6
 74
     0
 42
0.000000001
 43
0.00000001
 40
0.0
 40
0.0
 40
0.0
 40
0.0
 40
0.5
 40
0.5
 40
1.0
 40
1.0
 40
1.0
 40
1.0
 10
12.89316351942633
 20
1.946262147855278
 30
0.0
 10
12.73412201806586
 20
2.124348942248524
 30
0.0
 10
12.56571236269751
 20
2.293430547111066
 30
0.0
 10
12.22687928621744
 20
2.556336039898282
 30
0.0
 10
12.0572478054885
 20
2.649210521728909
 30
0.0
 10
11.90587174316793
 20
2.681101607832491
 30
0.0
  0
SPLINE
  5
148
330
1F
100
AcDbEntity
  8
외형선
  6
Continuous
 62
     1
370
    15
100
AcDbSpline
210
0.0
220
0.0
230
1.0
 70
     8
 71
     3
 72
     8
 73
     4
 74
     0
 42
0.000000001
 43
0.00000001
 40
0.0
 40
0.0
 40
0.0
 40
0.0
 40
1.0
 40
1.0
 40
1.0
 40
1.0
 10
11.90587174316792
 20
2.681101607832493
 30
0.0
 10
11.82971945416085
 20
2.697144958204277
 30
0.0
 10
11.73307751747924
 20
2.756116176542667
 30
0.0
 10
11.65356463920945
 20
2.845651599719881
 30
0.0
  0
SPLINE
  5
149
330
1F
100
AcDbEntity
  8
외형선
  6
Continuous
 62
     1
370
    15
100
AcDbSpline
210
0.0
220
0.0
230
1.0
 70
     8
 71
     3
 72
     8
 73
     4
 74
     0
 42
0.000000001
 43
0.00000001
 40
0.0
 40
0.0
 40
0.0
 40
0.0
 40
1.0
 40
1.0
 40
1.0
 40
1.0
 10
11.65356463920918
 20
2.84565159972018
 30
0.0
 10
11.52828778162508
 20
2.986719521070727
 30
0.0
 10
11.39515374040688
 20
3.109308700983181
 30
0.0
 10
11.26004566535094
 20
3.201858973129357
 30
0.0
  0
SPLINE
  5
14A
330
1F
100
AcDbEntity
  8
외형선
  6
Continuous
 62
     1
370
    15
100
AcDbSpline
210
0.0
220
0.0
230
1.0
 70
     8
 71
     3
 72
     8
 73
     4
 74
     0
 42
0.000000001
 43
0.00000001
 40
0.0
 40
0.0
 40
0.0
 40
0.0
 40
1.0
 40
1.0
 40
1.0
 40
1.0
 10
11.2600456653511
 20
3.201858973128876
 30
0.0
 10
11.12367800131183
 20
3.266882002159154
 30
0.0
 10
10.98942005642894
 20
3.296354939523949
 30
0.0
 10
10.86851039801955
 20
3.281888744715193
 30
0.0
  0
SPLINE
  5
14B
330
1F
100
AcDbEntity
  8
외형선
  6
Continuous
 62
     1
370
    15
100
AcDbSpline
210
0.0
220
0.0
230
1.0
 70
     8
 71
     3
 72
     8
 73
     4
 74
     0
 42
0.000000001
 43
0.00000001
 40
0.0
 40
0.0
 40
0.0
 40
0.0
 40
1.0
 40
1.0
 40
1.0
 40
1.0
 10
10.86851039801955
 20
3.281888744715188
 30
0.0
 10
10.79305033418369
 20
3.272860351135293
 30
0.0
 10
10.69668977429379
 20
3.312547353410239
 30
0.0
 10
10.61702090891407
 20
3.394538466747266
 30
0.0
  0
SPLINE
  5
14C
330
1F
100
AcDbEntity
  8
외형선
  6
Continuous
 62
     1
370
    15
100
AcDbSpline
210
0.0
220
0.0
230
1.0
 70
     8
 71
     3
 72
    10
 73
     6
 74
     0
 42
0.000000001
 43
0.00000001
 40
0.0
 40
0.0
 40
0.0
 40
0.0
 40
0.5
 40
0.5
 40
1.0
 40
1.0
 40
1.0
 40
1.0
 10
10.61702090891402
 20
3.394538466747292
 30
0.0
 10
10.45810014447824
 20
3.558091573049927
 30
0.0
 10
10.28981764919516
 20
3.671610561821094
 30
0.0
 10
9.951395690325965
 20
3.784643577900539
 30
0.0
 10
9.781937376022118
 20
3.782558554723764
 30
0.0
 10
9.630715151595107
 20
3.711766515649529
 30
0.0
  0
SPLINE
  5
14D
330
1F
100
AcDbEntity
  8
외형선
  6
Continuous
 62
     1
370
    15
100
AcDbSpline
210
0.0
220
0.0
230
1.0
 70
     8
 71
     3
 72
     8
 73
     4
 74
     0
 42
0.000000001
 43
0.00000001
 40
0.0
 40
0.0
 40
0.0
 40
0.0
 40
1.0
 40
1.0
 40
1.0
 40
1.0
 10
9.630715151595107
 20
3.711766515649526
 30
0.0
 10
9.55454630240852
 20
3.676109401304817
 30
0.0
 10
9.457844615239342
 20
3.691387183450193
 30
0.0
 10
9.37826079308066
 20
3.759327501068778
 30
0.0
  0
SPLINE
  5
14E
330
1F
100
AcDbEntity
  8
외형선
  6
Continuous
 62
     1
370
    15
100
AcDbSpline
210
0.0
220
0.0
230
1.0
 70
     8
 71
     3
 72
     8
 73
     4
 74
     0
 42
0.000000001
 43
0.00000001
 40
0.0
 40
0.0
 40
0.0
 40
0.0
 40
1.0
 40
1.0
 40
1.0
 40
1.0
 10
9.378260793080667
 20
3.759327501068774
 30
0.0
 10
9.252759898417379
 20
3.866466997684553
 30
0.0
 10
9.11946034858353
 20
3.932530239051398
 30
0.0
 10
8.984236309034586
 20
3.959406602499829
 30
0.0
  0
SPLINE
  5
14F
330
1F
100
AcDbEntity
  8
외형선
  6
Continuous
 62
     1
370
    15
100
AcDbSpline
210
0.0
220
0.0
230
1.0
 70
     8
 71
     3
 72
    13
 73
     9
 74
     0
 42
0.000000001
 43
0.00000001
 40
0.0
 40
0.0
 40
0.0
 40
0.0
 40
0.2136794420927042
 40
0.4288271837826567
 40
0.6000725421051818
 40
0.7721350174426759
 40
0.9468367047767957
 40
1.0
 40
1.0
 40
1.0
 40
1.0
 10
8.984236309034582
 20
3.959406602499835
 30
0.0
 10
8.95835420021179
 20
3.956894460932583
 30
0.0
 10
8.906412133496652
 20
3.951852915601888
 30
0.0
 10
8.83462727540864
 20
3.934049425652778
 30
0.0
 10
8.768764472379724
 20
3.9110286194788
 30
0.0
 10
8.708902023796238
 20
3.883218317779273
 30
0.0
 10
8.663356296078447
 20
3.858437326147858
 30
0.0
 10
8.63847667014728
 20
3.840850001976971
 30
0.0
 10
8.632671991940136
 20
3.836746694410403
 30
0.0
  0
SPLINE
  5
150
330
1F
100
AcDbEntity
  8
외형선
  6
Continuous
370
    15
100
AcDbSpline
210
0.0
220
0.0
230
1.0
 70
     8
 71
     3
 72
     8
 73
     4
 74
     0
 42
0.000000001
 43
0.00000001
 40
0.0
 40
0.0
 40
0.0
 40
0.0
 40
1.0
 40
1.0
 40
1.0
 40
1.0
 10
2.962315328507788
 20
0.5119998742039586
 30
0.0
 10
3.202770266387256
 20
0.2734190564454072
 30
0.0
 10
3.441695682388757
 20
0.0359595131241614
 30
0.0
 10
3.683418143545823
 20
-0.1959324781334796
 30
0.0
  0
SPLINE
  5
151
330
1F
100
AcDbEntity
  8
외형선
  6
Continuous
370
    15
100
AcDbSpline
210
0.0
220
0.0
230
1.0
 70
     8
 71
     3
 72
     8
 73
     4
 74
     0
 42
0.000000001
 43
0.00000001
 40
0.0
 40
0.0
 40
0.0
 40
0.0
 40
1.0
 40
1.0
 40
1.0
 40
1.0
 10
3.683418143545823
 20
-0.1959324781334771
 30
0.0
 10
3.719357600718293
 20
-0.2305689808815027
 30
0.0
 10
3.754363110237506
 20
-0.2639402320750227
 30
0.0
 10
3.788373320329803
 20
-0.2960032660857012
 30
0.0
  0
SPLINE
  5
152
330
1F
100
AcDbEntity
  8
외형선
  6
Continuous
370
    15
100
AcDbSpline
210
0.0
220
0.0
230
1.0
 70
     8
 71
     3
 72
     8
 73
     4
 74
     0
 42
0.000000001
 43
0.00000001
 40
0.0
 40
0.0
 40
0.0
 40
0.0
 40
1.0
 40
1.0
 40
1.0
 40
1.0
 10
3.788373320329801
 20
-0.296003266085703
 30
0.0
 10
3.863803357404986
 20
-0.3671147304843332
 30
0.0
 10
3.960184309284176
 20
-0.4537143417725154
 30
0.0
 10
4.039924512230623
 20
-0.5310971301412452
 30
0.0
  0
SPLINE
  5
153
330
1F
100
AcDbEntity
  8
외형선
  6
Continuous
 62
     1
370
    15
100
AcDbSpline
210
0.0
220
0.0
230
1.0
 70
     8
 71
     3
 72
    10
 73
     6
 74
     0
 42
0.000000001
 43
0.00000001
 40
0.0
 40
0.0
 40
0.0
 40
0.0
 40
0.5
 40
0.5
 40
1.0
 40
1.0
 40
1.0
 40
1.0
 10
4.039924512230618
 20
-0.5310971301412273
 30
0.0
 10
4.198926796044934
 20
-0.6853987198526461
 30
0.0
 10
4.36808291127601
 20
-0.8614151578063515
 30
0.0
 10
4.705488406119056
 20
-1.183441879583294
 30
0.0
 10
4.874554996446915
 20
-1.327556015154034
 30
0.0
 10
5.025678125127609
 20
-1.427387391817378
 30
0.0
  0
SPLINE
  5
154
330
1F
100
AcDbEntity
  8
외형선
  6
Continuous
 62
     1
370
    15
100
AcDbSpline
210
0.0
220
0.0
230
1.0
 70
     8
 71
     3
 72
     8
 73
     4
 74
     0
 42
0.000000001
 43
0.00000001
 40
0.0
 40
0.0
 40
0.0
 40
0.0
 40
1.0
 40
1.0
 40
1.0
 40
1.0
 10
5.025678125126644
 20
-1.427387391816777
 30
0.0
 10
5.101695908342839
 20
-1.477604456640825
 30
0.0
 10
5.198324313785811
 20
-1.556926068203081
 30
0.0
 10
5.277865621699643
 20
-1.644810474031899
 30
0.0
  0
SPLINE
  5
155
330
1F
100
AcDbEntity
  8
외형선
  6
Continuous
 62
     1
370
    15
100
AcDbSpline
210
0.0
220
0.0
230
1.0
 70
     8
 71
     3
 72
     8
 73
     4
 74
     0
 42
0.000000001
 43
0.00000001
 40
0.0
 40
0.0
 40
0.0
 40
0.0
 40
1.0
 40
1.0
 40
1.0
 40
1.0
 10
5.277865621699647
 20
-1.644810474031895
 30
0.0
 10
5.403474038234446
 20
-1.783593973370605
 30
0.0
 10
5.537413494470661
 20
-1.923356749607657
 30
0.0
 10
5.67231258367459
 20
-2.046257936316882
 30
0.0
  0
SPLINE
  5
156
330
1F
100
AcDbEntity
  8
외형선
  6
Continuous
 62
     1
370
    15
100
AcDbSpline
210
0.0
220
0.0
230
1.0
 70
     8
 71
     3
 72
     8
 73
     4
 74
     0
 42
0.000000001
 43
0.00000001
 40
0.0
 40
0.0
 40
0.0
 40
0.0
 40
1.0
 40
1.0
 40
1.0
 40
1.0
 10
5.67231258367458
 20
-2.046257936316864
 30
0.0
 10
5.808779595535798
 20
-2.153000964180139
 30
0.0
 10
5.943089385731946
 20
-2.235169337894261
 30
0.0
 10
6.064343560681501
 20
-2.279713748763852
 30
0.0
  0
SPLINE
  5
157
330
1F
100
AcDbEntity
  8
외형선
  6
Continuous
 62
     1
370
    15
100
AcDbSpline
210
0.0
220
0.0
230
1.0
 70
     8
 71
     3
 72
     8
 73
     4
 74
     0
 42
0.000000001
 43
0.00000001
 40
0.0
 40
0.0
 40
0.0
 40
0.0
 40
1.0
 40
1.0
 40
1.0
 40
1.0
 10
6.064343560681501
 20
-2.279713748763854
 30
0.0
 10
6.139819538570651
 20
-2.307440901014711
 30
0.0
 10
6.236240804524826
 20
-2.37411073652502
 30
0.0
 10
6.316036146491771
 20
-2.46408554668765
 30
0.0
  0
SPLINE
  5
158
330
1F
100
AcDbEntity
  8
외형선
  6
Continuous
 62
     1
370
    15
100
AcDbSpline
210
0.0
220
0.0
230
1.0
 70
     8
 71
     3
 72
    10
 73
     6
 74
     0
 42
0.000000001
 43
0.00000001
 40
0.0
 40
0.0
 40
0.0
 40
0.0
 40
0.5
 40
0.5
 40
1.0
 40
1.0
 40
1.0
 40
1.0
 10
6.316036146491771
 20
-2.464085546687652
 30
0.0
 10
6.475004961566812
 20
-2.643333966527498
 30
0.0
 10
6.644145789791011
 20
-2.800076699745188
 30
0.0
 10
6.981602688543758
 20
-3.02551165780097
 30
0.0
 10
7.150442118227171
 20
-3.092379691466498
 30
0.0
 10
7.301471322137512
 20
-3.093164208001437
 30
0.0
  0
SPLINE
  5
159
330
1F
100
AcDbEntity
  8
외형선
  6
Continuous
 62
     1
370
    15
100
AcDbSpline
210
0.0
220
0.0
230
1.0
 70
     8
 71
     3
 72
     8
 73
     4
 74
     0
 42
0.000000001
 43
0.00000001
 40
0.0
 40
0.0
 40
0.0
 40
0.0
 40
1.0
 40
1.0
 40
1.0
 40
1.0
 10
7.301471322136839
 20
-3.093164208002438
 30
0.0
 10
7.377378091198532
 20
-3.093558503369808
 30
0.0
 10
7.473912544958793
 20
-3.140809082295288
 30
0.0
 10
7.553351890487455
 20
-3.226456531092506
 30
0.0
  0
SPLINE
  5
15A
330
1F
100
AcDbEntity
  8
외형선
  6
Continuous
 62
     1
370
    15
100
AcDbSpline
210
0.0
220
0.0
230
1.0
 70
     8
 71
     3
 72
     8
 73
     4
 74
     0
 42
0.000000001
 43
0.00000001
 40
0.0
 40
0.0
 40
0.0
 40
0.0
 40
1.0
 40
1.0
 40
1.0
 40
1.0
 10
7.553351890483712
 20
-3.226456531088472
 30
0.0
 10
7.678816890337611
 20
-3.36172649182787
 30
0.0
 10
7.812657662291025
 20
-3.470577590534985
 30
0.0
 10
7.947494696051304
 20
-3.545962638344712
 30
0.0
  0
SPLINE
  5
15B
330
1F
100
AcDbEntity
  8
외형선
  6
Continuous
 62
     1
370
    15
100
AcDbSpline
210
0.0
220
0.0
230
1.0
 70
     8
 71
     3
 72
     8
 73
     4
 74
     0
 42
0.000000001
 43
0.00000001
 40
0.0
 40
0.0
 40
0.0
 40
0.0
 40
1.0
 40
1.0
 40
1.0
 40
1.0
 10
7.947494696051983
 20
-3.54596263834684
 30
0.0
 10
8.084233509251055
 20
-3.590743006814149
 30
0.0
 10
8.218619830337625
 20
-3.597230941691127
 30
0.0
 10
8.340066500398443
 20
-3.558245984607969
 30
0.0
  0
SPLINE
  5
15C
330
1F
100
AcDbEntity
  8
외형선
  6
Continuous
 62
     1
370
    15
100
AcDbSpline
210
0.0
220
0.0
230
1.0
 70
     8
 71
     3
 72
     8
 73
     4
 74
     0
 42
0.000000001
 43
0.00000001
 40
0.0
 40
0.0
 40
0.0
 40
0.0
 40
1.0
 40
1.0
 40
1.0
 40
1.0
 10
8.340066500398443
 20
-3.558245984607965
 30
0.0
 10
8.415621404293292
 20
-3.533992502118176
 30
0.0
 10
8.512111045814272
 20
-3.560065432746673
 30
0.0
 10
8.591994743307787
 20
-3.634799610154591
 30
0.0
  0
SPLINE
  5
15D
330
1F
100
AcDbEntity
  8
외형선
  6
Continuous
 62
     1
370
    15
100
AcDbSpline
210
0.0
220
0.0
230
1.0
 70
     8
 71
     3
 72
    11
 73
     7
 74
     0
 42
0.000000001
 43
0.00000001
 40
0.0
 40
0.0
 40
0.0
 40
0.0
 40
0.3186550204683528
 40
0.6358470858688505
 40
0.9923427040433768
 40
1.0
 40
1.0
 40
1.0
 40
1.0
 10
8.591994743307787
 20
-3.634799610154591
 30
0.0
 10
8.683865853306473
 20
-3.708006348822111
 30
0.0
 10
8.86718629019256
 20
-3.854083731752681
 30
0.0
 10
9.165903628398327
 20
-3.928493324745456
 30
0.0
 10
9.3717031621002
 20
-3.912336901635304
 30
0.0
 10
9.4710266206138
 20
-3.859093591653846
 30
0.0
 10
9.473115163881646
 20
-3.857974007637305
 30
0.0
  0
SPLINE
  5
15E
330
1F
100
AcDbEntity
  8
외형선
  6
Continuous
 62
     1
370
    15
100
AcDbSpline
210
0.0
220
0.0
230
1.0
 70
     8
 71
     3
 72
     8
 73
     4
 74
     0
 42
0.000000001
 43
0.00000001
 40
0.0
 40
0.0
 40
0.0
 40
0.0
 40
1.0
 40
1.0
 40
1.0
 40
1.0
 10
9.577487977260619
 20
-3.80239435165887
 30
0.0
 10
9.653316768933992
 20
-3.752928551672374
 30
0.0
 10
9.749785277454643
 20
-3.753551881308642
 30
0.0
 10
9.829155652163864
 20
-3.810584554899211
 30
0.0
  0
SPLINE
  5
15F
330
1F
100
AcDbEntity
  8
외형선
  6
Continuous
 62
     1
370
    15
100
AcDbSpline
210
0.0
220
0.0
230
1.0
 70
     8
 71
     3
 72
    13
 73
     9
 74
     0
 42
0.000000001
 43
0.00000001
 40
0.0
 40
0.0
 40
0.0
 40
0.0
 40
0.1733126096215041
 40
0.3478953224393663
 40
0.5259493180898912
 40
0.7051033049688932
 40
0.8874650813193135
 40
1.0
 40
1.0
 40
1.0
 40
1.0
 10
9.82915565216386
 20
-3.810584554899204
 30
0.0
 10
9.84953627031746
 20
-3.824438359295922
 30
0.0
 10
9.890446863837148
 20
-3.852247494235002
 30
0.0
 10
9.953976743908106
 20
-3.885276906964747
 30
0.0
 10
10.01907239186697
 20
-3.912169581016903
 30
0.0
 10
10.08590742787577
 20
-3.931871367322927
 30
0.0
 10
10.1450540231738
 20
-3.943976764273784
 30
0.0
 10
10.18205291917964
 20
-3.946565050505687
 30
0.0
 10
10.19617199146307
 20
-3.947552761068529
 30
0.0
  0
SPLINE
  5
160
330
1F
100
AcDbEntity
  8
외형선
  6
Continuous
 62
     1
370
    15
100
AcDbSpline
210
0.0
220
0.0
230
1.0
 70
     8
 71
     3
 72
    10
 73
     6
 74
     0
 42
0.000000001
 43
0.00000001
 40
0.0
 40
0.0
 40
0.0
 40
0.0
 40
0.5
 40
0.5
 40
1.0
 40
1.0
 40
1.0
 40
1.0
 10
19.96949916368834
 20
3.082313027569537
 30
0.0
 10
20.1287841998321
 20
3.255624075216355
 30
0.0
 10
20.29846291444786
 20
3.388710507744964
 30
0.0
 10
20.63748827004789
 20
3.549187890863326
 30
0.0
 10
20.80616779927522
 20
3.575761690647352
 30
0.0
 10
20.95744392241738
 20
3.532681648797387
 30
0.0
  0
SPLINE
  5
161
330
1F
100
AcDbEntity
  8
외형선
  6
Continuous
 62
     1
370
    15
100
AcDbSpline
210
0.0
220
0.0
230
1.0
 70
     8
 71
     3
 72
     8
 73
     4
 74
     0
 42
0.000000001
 43
0.00000001
 40
0.0
 40
0.0
 40
0.0
 40
0.0
 40
1.0
 40
1.0
 40
1.0
 40
1.0
 10
20.9574439224174
 20
3.532681648797386
 30
0.0
 10
21.03337755381384
 20
3.511057456225342
 30
0.0
 10
21.12993702055127
 20
3.539380257736117
 30
0.0
 10
21.20945997892196
 20
3.615830334156697
 30
0.0
  0
SPLINE
  5
162
330
1F
100
AcDbEntity
  8
외형선
  6
Continuous
 62
     1
370
    15
100
AcDbSpline
210
0.0
220
0.0
230
1.0
 70
     8
 71
     3
 72
     8
 73
     4
 74
     0
 42
0.000000001
 43
0.00000001
 40
0.0
 40
0.0
 40
0.0
 40
0.0
 40
1.0
 40
1.0
 40
1.0
 40
1.0
 10
21.20945997892196
 20
3.6158303341567
 30
0.0
 10
21.33456570679517
 20
3.736101796040417
 30
0.0
 10
21.46811366210534
 20
3.820664180441571
 30
0.0
 10
21.60287546888002
 20
3.86758572666793
 30
0.0
  0
SPLINE
  5
163
330
1F
100
AcDbEntity
  8
외형선
  6
Continuous
 62
     1
370
    15
100
AcDbSpline
210
0.0
220
0.0
230
1.0
 70
     8
 71
     3
 72
     8
 73
     4
 74
     0
 42
0.000000001
 43
0.00000001
 40
0.0
 40
0.0
 40
0.0
 40
0.0
 40
1.0
 40
1.0
 40
1.0
 40
1.0
 10
21.60287546888001
 20
3.867585726667927
 30
0.0
 10
21.73952904075905
 20
3.880230709873613
 30
0.0
 10
21.87324054526481
 20
3.852188329281078
 30
0.0
 10
21.99407159156643
 20
3.780037028871007
 30
0.0
  0
SPLINE
  5
164
330
1F
100
AcDbEntity
  8
외형선
  6
Continuous
 62
     1
370
    15
100
AcDbSpline
210
0.0
220
0.0
230
1.0
 70
     8
 71
     3
 72
     8
 73
     4
 74
     0
 42
0.000000001
 43
0.00000001
 40
0.0
 40
0.0
 40
0.0
 40
0.0
 40
1.0
 40
1.0
 40
1.0
 40
1.0
 10
21.99407159156643
 20
3.780037028871006
 30
0.0
 10
22.06941783151641
 20
3.735045866750062
 30
0.0
 10
22.16574267762228
 20
3.740576255885165
 30
0.0
 10
22.24552908509543
 20
3.801246309944427
 30
0.0
  0
SPLINE
  5
165
330
1F
100
AcDbEntity
  8
외형선
  6
Continuous
 62
     1
370
    15
100
AcDbSpline
210
0.0
220
0.0
230
1.0
 70
     8
 71
     3
 72
    10
 73
     6
 74
     0
 42
0.000000001
 43
0.00000001
 40
0.0
 40
0.0
 40
0.0
 40
0.0
 40
0.5
 40
0.5
 40
1.0
 40
1.0
 40
1.0
 40
1.0
 10
22.24552908509544
 20
3.801246309944429
 30
0.0
 10
22.33636621950534
 20
3.870319401837829
 30
0.0
 10
22.42923974032904
 20
3.915469483288407
 30
0.0
 10
22.62267628389332
 20
3.966209928895799
 30
0.0
 10
22.7188121860306
 20
3.970366717920062
 30
0.0
 10
22.81582901941
 20
3.954354925921434
 30
0.0
  0
SPLINE
  5
166
330
1F
100
AcDbEntity
  8
외형선
  6
Continuous
 62
     1
370
    15
100
AcDbSpline
210
0.0
220
0.0
230
1.0
 70
     8
 71
     3
 72
     8
 73
     4
 74
     0
 42
0.000000001
 43
0.00000001
 40
0.0002980841766697
 40
0.0002980841766697
 40
0.0002980841766697
 40
0.0002980841766697
 40
0.0003432731560977
 40
0.0003432731560977
 40
0.0003432731560977
 40
0.0003432731560977
 10
22.84177790335749
 20
3.926443349080584
 30
0.0
 10
22.83313208991173
 20
3.935771024113919
 30
0.0
 10
22.82448240127063
 20
3.945074898453914
 30
0.0
 10
22.81582901941005
 20
3.954354925921531
 30
0.0
  0
SPLINE
  5
167
330
1F
100
AcDbEntity
  8
외형선
  6
Continuous
 62
     1
370
    15
100
AcDbSpline
210
0.0
220
0.0
230
1.0
 70
     8
 71
     3
 72
    16
 73
    12
 74
     0
 42
0.000000001
 43
0.00000001
 40
0.0
 40
0.0
 40
0.0
 40
0.0
 40
0.2500000000000006
 40
0.2500000000000006
 40
0.5000000000000012
 40
0.5000000000000012
 40
0.7500000000000018
 40
0.7500000000000018
 40
0.8750000000000009
 40
0.8750000000000009
 40
1.0
 40
1.0
 40
1.0
 40
1.0
 10
22.84177790336756
 20
3.926443349080381
 30
0.0
 10
22.84770992888809
 20
3.677633347214873
 30
0.0
 10
22.83743730647055
 20
3.430400072204102
 30
0.0
 10
22.76810680277279
 20
2.94068037185545
 30
0.0
 10
22.70810313647204
 20
2.696906748586196
 30
0.0
 10
22.51524615853179
 20
2.254379378494036
 30
0.0
 10
22.382306405709
 20
2.058279417184155
 30
0.0
 10
22.12799819056136
 20
1.842395351002279
 30
0.0
 10
22.03726938596274
 20
1.785670741461384
 30
0.0
 10
21.84422952341424
 20
1.701834547862203
 30
0.0
 10
21.74198745741353
 20
1.675431470985016
 30
0.0
 10
21.63995876938941
 20
1.664387217061513
 30
0.0
  0
SPLINE
  5
168
330
1F
100
AcDbEntity
  8
외형선
  6
Continuous
 62
     1
370
    15
100
AcDbSpline
210
0.0
220
0.0
230
1.0
 70
     8
 71
     3
 72
     9
 73
     5
 74
     0
 42
0.000000001
 43
0.00000001
 40
0.0
 40
0.0
 40
0.0
 40
0.0
 40
0.5322733118907325
 40
1.0
 40
1.0
 40
1.0
 40
1.0
 10
23.01231532850779
 20
0.9896463916443007
 30
0.0
 10
22.78119464168639
 20
1.118926413015125
 30
0.0
 10
22.34698033550522
 20
1.36180919237447
 30
0.0
 10
21.92971197959701
 20
1.539175368319626
 30
0.0
 10
21.73454443343526
 20
1.622134262377059
 30
0.0
  0
LINE
  5
169
330
1F
100
AcDbEntity
  8
외형선
  6
Continuous
 62
     1
370
    15
100
AcDbLine
 10
23.01231532850779
 20
0.4803481451937224
 30
0.0
 11
23.01231532850779
 21
0.9896463916443013
 31
0.0
  0
SPLINE
  5
16A
330
1F
100
AcDbEntity
  8
외형선
  6
Continuous
 62
     1
370
    15
100
AcDbSpline
210
0.0
220
0.0
230
1.0
 70
     8
 71
     3
 72
     8
 73
     4
 74
     0
 42
0.000000001
 43
0.00000001
 40
0.0
 40
0.0
 40
0.0
 40
0.0
 40
1.0
 40
1.0
 40
1.0
 40
1.0
 10
22.98455183343605
 20
0.5014840937222019
 30
0.0
 10
22.99378171522084
 20
0.4924234456413544
 30
0.0
 10
23.00303590571021
 20
0.4834350653051
 30
0.0
 10
23.01231532850779
 20
0.4745199249237119
 30
0.0
  0
SPLINE
  5
16B
330
1F
100
AcDbEntity
  8
외형선
  6
Continuous
 62
     1
370
    15
100
AcDbSpline
210
0.0
220
0.0
230
1.0
 70
     8
 71
     3
 72
     8
 73
     4
 74
     0
 42
0.000000001
 43
0.00000001
 40
0.0
 40
0.0
 40
0.0
 40
0.0
 40
1.0
 40
1.0
 40
1.0
 40
1.0
 10
22.98455183343626
 20
0.5014840937219863
 30
0.0
 10
22.9133168704068
 20
0.5664718581322854
 30
0.0
 10
22.82666987004544
 20
0.644542266038097
 30
0.0
 10
22.75412242979498
 20
0.7171111717773592
 30
0.0
  0
SPLINE
  5
16C
330
1F
100
AcDbEntity
  8
외형선
  6
Continuous
 62
     1
370
    15
100
AcDbSpline
210
0.0
220
0.0
230
1.0
 70
     8
 71
     3
 72
     8
 73
     4
 74
     0
 42
0.000000001
 43
0.00000001
 40
0.0
 40
0.0
 40
0.0
 40
0.0
 40
1.0
 40
1.0
 40
1.0
 40
1.0
 10
21.76773088574677
 20
1.60024916792077
 30
0.0
 10
21.69203582211588
 20
1.646714034314312
 30
0.0
 10
21.59567473701323
 20
1.72415205034432
 30
0.0
 10
21.51629178572441
 20
1.812950104550817
 30
0.0
  0
SPLINE
  5
16D
330
1F
100
AcDbEntity
  8
외형선
  6
Continuous
 62
     1
370
    15
100
AcDbSpline
210
0.0
220
0.0
230
1.0
 70
     8
 71
     3
 72
     8
 73
     4
 74
     0
 42
0.000000001
 43
0.00000001
 40
0.0
 40
0.0
 40
0.0
 40
0.0
 40
1.0
 40
1.0
 40
1.0
 40
1.0
 10
21.51629178572441
 20
1.812950104550816
 30
0.0
 10
21.39136189023312
 20
1.952697134004115
 30
0.0
 10
21.25787626073894
 20
2.090762726311194
 30
0.0
 10
21.12303469641368
 20
2.209984464056814
 30
0.0
  0
SPLINE
  5
16E
330
1F
100
AcDbEntity
  8
외형선
  6
Continuous
 62
     1
370
    15
100
AcDbSpline
210
0.0
220
0.0
230
1.0
 70
     8
 71
     3
 72
     8
 73
     4
 74
     0
 42
0.000000001
 43
0.00000001
 40
0.0
 40
0.0
 40
0.0
 40
0.0
 40
1.0
 40
1.0
 40
1.0
 40
1.0
 10
21.12303469641369
 20
2.209984464056806
 30
0.0
 10
20.98616817293799
 20
2.311811185135126
 30
0.0
 10
20.85192613849598
 20
2.387623947983114
 30
0.0
 10
20.73113451382813
 20
2.425705598400235
 30
0.0
  0
SPLINE
  5
16F
330
1F
100
AcDbEntity
  8
외형선
  6
Continuous
 62
     1
370
    15
100
AcDbSpline
210
0.0
220
0.0
230
1.0
 70
     8
 71
     3
 72
     8
 73
     4
 74
     0
 42
0.000000001
 43
0.00000001
 40
0.0
 40
0.0
 40
0.0
 40
0.0
 40
1.0
 40
1.0
 40
1.0
 40
1.0
 10
20.73113451382813
 20
2.425705598400236
 30
0.0
 10
20.6555206492388
 20
2.449544177986334
 30
0.0
 10
20.55906478282677
 20
2.513911355652904
 30
0.0
 10
20.47896666424799
 20
2.604089867224434
 30
0.0
  0
SPLINE
  5
170
330
1F
100
AcDbEntity
  8
외형선
  6
Continuous
 62
     1
370
    15
100
AcDbSpline
210
0.0
220
0.0
230
1.0
 70
     8
 71
     3
 72
    12
 73
     8
 74
     0
 42
0.000000001
 43
0.00000001
 40
0.0
 40
0.0
 40
0.0
 40
0.0
 40
0.2500000000000014
 40
0.2500000000000014
 40
0.5000000000000028
 40
0.5000000000000028
 40
1.0
 40
1.0
 40
1.0
 40
1.0
 10
20.47896666424797
 20
2.60408986722444
 30
0.0
 10
20.39943628068589
 20
2.69362919401008
 30
0.0
 10
20.31840307112077
 20
2.775469297341164
 30
0.0
 10
20.15060246523125
 20
2.924082142723275
 30
0.0
 10
20.06564782107572
 20
2.988978190598716
 30
0.0
 10
19.81132371278235
 20
3.148382227066007
 30
0.0
 10
19.64233701709051
 20
3.207272140413599
 30
0.0
 10
19.49157743218295
 20
3.19936266166727
 30
0.0
  0
SPLINE
  5
171
330
1F
100
AcDbEntity
  8
외형선
  6
Continuous
 62
     1
370
    15
100
AcDbSpline
210
0.0
220
0.0
230
1.0
 70
     8
 71
     3
 72
     8
 73
     4
 74
     0
 42
0.000000001
 43
0.00000001
 40
0.0
 40
0.0
 40
0.0
 40
0.0
 40
1.0
 40
1.0
 40
1.0
 40
1.0
 10
19.49157743218296
 20
3.199362661667265
 30
0.0
 10
19.41587856762369
 20
3.195391182436149
 30
0.0
 10
19.31951992251814
 20
3.238935264997516
 30
0.0
 10
19.24012274715315
 20
3.323160024109733
 30
0.0
  0
SPLINE
  5
172
330
1F
100
AcDbEntity
  8
외형선
  6
Continuous
 62
     1
370
    15
100
AcDbSpline
210
0.0
220
0.0
230
1.0
 70
     8
 71
     3
 72
     8
 73
     4
 74
     0
 42
0.000000001
 43
0.00000001
 40
0.0
 40
0.0
 40
0.0
 40
0.0
 40
1.0
 40
1.0
 40
1.0
 40
1.0
 10
19.24012274715315
 20
3.323160024109733
 30
0.0
 10
19.11525133483829
 20
3.455623988650967
 30
0.0
 10
18.98181927325157
 20
3.559749283039756
 30
0.0
 10
18.84699775741197
 20
3.629264127527446
 30
0.0
  0
SPLINE
  5
173
330
1F
100
AcDbEntity
  8
외형선
  6
Continuous
 62
     1
370
    15
100
AcDbSpline
210
0.0
220
0.0
230
1.0
 70
     8
 71
     3
 72
     8
 73
     4
 74
     0
 42
0.000000001
 43
0.00000001
 40
0.0
 40
0.0
 40
0.0
 40
0.0
 40
1.0
 40
1.0
 40
1.0
 40
1.0
 10
18.84699775741198
 20
3.629264127527445
 30
0.0
 10
18.7102594611292
 20
3.667188130714976
 30
0.0
 10
18.57611576130934
 20
3.665984407290028
 30
0.0
 10
18.45543847481304
 20
3.620358182719706
 30
0.0
  0
SPLINE
  5
174
330
1F
100
AcDbEntity
  8
외형선
  6
Continuous
 62
     1
370
    15
100
AcDbSpline
210
0.0
220
0.0
230
1.0
 70
     8
 71
     3
 72
     8
 73
     4
 74
     0
 42
0.000000001
 43
0.00000001
 40
0.0
 40
0.0
 40
0.0
 40
0.0
 40
1.0
 40
1.0
 40
1.0
 40
1.0
 10
18.45543847481304
 20
3.620358182719704
 30
0.0
 10
18.37989551926994
 20
3.591796553979232
 30
0.0
 10
18.28360144095757
 20
3.613998011422068
 30
0.0
 10
18.20363290942723
 20
3.686294936009651
 30
0.0
  0
SPLINE
  5
175
330
1F
100
AcDbEntity
  8
외형선
  6
Continuous
 62
     1
370
    15
100
AcDbSpline
210
0.0
220
0.0
230
1.0
 70
     8
 71
     3
 72
    10
 73
     6
 74
     0
 42
0.000000001
 43
0.00000001
 40
0.0
 40
0.0
 40
0.0
 40
0.0
 40
0.3767566173914778
 40
0.7517798259554911
 40
1.0
 40
1.0
 40
1.0
 40
1.0
 10
18.20363290942722
 20
3.686294936009663
 30
0.0
 10
18.11162735739957
 20
3.754979631760712
 30
0.0
 10
17.92803955907721
 20
3.892033013795611
 30
0.0
 10
17.66770838893661
 20
3.961485792894957
 30
0.0
 10
17.51380285988134
 20
3.917078494050775
 30
0.0
 10
17.45250664996633
 20
3.899392325604325
 30
0.0
  0
SPLINE
  5
176
330
1F
100
AcDbEntity
  8
외형선
  6
Continuous
 62
     1
370
    15
100
AcDbSpline
210
0.0
220
0.0
230
1.0
 70
     8
 71
     3
 72
     9
 73
     5
 74
     0
 42
0.000000001
 43
0.00000001
 40
0.0
 40
0.0
 40
0.0
 40
0.0
 40
0.468329759342081
 40
1.0
 40
1.0
 40
1.0
 40
1.0
 10
17.02747558983133
 20
3.776251710365638
 30
0.0
 10
17.01722176406098
 20
3.779413902280779
 30
0.0
 10
16.99532730707675
 20
3.786165965014488
 30
0.0
 10
16.97486592259726
 20
3.798721313655982
 30
0.0
 10
16.96398721338685
 20
3.805396618889749
 30
0.0
  0
SPLINE
  5
177
330
1F
100
AcDbEntity
  8
외형선
  6
Continuous
 62
     1
370
    15
100
AcDbSpline
210
0.0
220
0.0
230
1.0
 70
     8
 71
     3
 72
    11
 73
     7
 74
     0
 42
0.000000001
 43
0.00000001
 40
0.0
 40
0.0
 40
0.0
 40
0.0
 40
0.3275076476475209
 40
0.6574116972830513
 40
0.9907609910158186
 40
1.0
 40
1.0
 40
1.0
 40
1.0
 10
16.96398721338685
 20
3.805396618889749
 30
0.0
 10
16.94354383721734
 20
3.818417024126924
 30
0.0
 10
16.90250749891402
 20
3.844553106040642
 30
0.0
 10
16.83885471469118
 20
3.873965265504813
 30
0.0
 10
16.79525939552494
 20
3.891558426339135
 30
0.0
 10
16.77269661159527
 20
3.897189221866804
 30
0.0
 10
16.77208813266653
 20
3.897341074600993
 30
0.0
  0
SPLINE
  5
178
330
1F
100
AcDbEntity
  8
외형선
  6
Continuous
 62
     1
370
    15
100
AcDbSpline
210
0.0
220
0.0
230
1.0
 70
     8
 71
     3
 72
     8
 73
     4
 74
     0
 42
0.000000001
 43
0.00000001
 40
0.0
 40
0.0
 40
0.0
 40
0.0
 40
1.0
 40
1.0
 40
1.0
 40
1.0
 10
7.075033297140404
 20
-3.053908275757531
 30
0.0
 10
6.999463167011524
 20
-3.055171674145014
 30
0.0
 10
6.903228800230956
 20
-3.103378089541314
 30
0.0
 10
6.823524346804971
 20
-3.189201488192928
 30
0.0
  0
SPLINE
  5
179
330
1F
100
AcDbEntity
  8
외형선
  6
Continuous
 62
     1
370
    15
100
AcDbSpline
210
0.0
220
0.0
230
1.0
 70
     8
 71
     3
 72
    12
 73
     8
 74
     0
 42
0.000000001
 43
0.00000001
 40
0.0
 40
0.0
 40
0.0
 40
0.0
 40
0.2500000000000002
 40
0.2500000000000002
 40
0.5000000000000003
 40
0.5000000000000003
 40
1.0
 40
1.0
 40
1.0
 40
1.0
 10
6.823524346804971
 20
-3.18920148819291
 30
0.0
 10
6.744359894745894
 20
-3.274443429340048
 30
0.0
 10
6.663654396404248
 20
-3.347787028819398
 30
0.0
 10
6.496376715995553
 20
-3.473076333464504
 30
0.0
 10
6.411624893434204
 20
-3.523307106348886
 30
0.0
 10
6.157717634388705
 20
-3.632454534703883
 30
0.0
 10
5.988548217098457
 20
-3.649379487498442
 30
0.0
 10
5.837940236957631
 20
-3.597730467795923
 30
0.0
  0
SPLINE
  5
17A
330
1F
100
AcDbEntity
  8
외형선
  6
Continuous
 62
     1
370
    15
100
AcDbSpline
210
0.0
220
0.0
230
1.0
 70
     8
 71
     3
 72
     8
 73
     4
 74
     0
 42
0.000000001
 43
0.00000001
 40
0.0
 40
0.0
 40
0.0
 40
0.0
 40
1.0
 40
1.0
 40
1.0
 40
1.0
 10
5.837940236957631
 20
-3.597730467795921
 30
0.0
 10
5.761978204676114
 20
-3.571680291050423
 30
0.0
 10
5.665698177121631
 20
-3.596267094257856
 30
0.0
 10
5.586201150843792
 20
-3.670356207066138
 30
0.0
  0
SPLINE
  5
17B
330
1F
100
AcDbEntity
  8
외형선
  6
Continuous
 62
     1
370
    15
100
AcDbSpline
210
0.0
220
0.0
230
1.0
 70
     8
 71
     3
 72
     8
 73
     4
 74
     0
 42
0.000000001
 43
0.00000001
 40
0.0
 40
0.0
 40
0.0
 40
0.0
 40
1.0
 40
1.0
 40
1.0
 40
1.0
 10
5.586201150843781
 20
-3.67035620706615
 30
0.0
 10
5.461043869916149
 20
-3.786999462035431
 30
0.0
 10
5.327257055547586
 20
-3.866026060525328
 30
0.0
 10
5.191939114338709
 20
-3.906775755683346
 30
0.0
  0
SPLINE
  5
17C
330
1F
100
AcDbEntity
  8
외형선
  6
Continuous
 62
     1
370
    15
100
AcDbSpline
210
0.0
220
0.0
230
1.0
 70
     8
 71
     3
 72
     8
 73
     4
 74
     0
 42
0.000000001
 43
0.00000001
 40
0.0
 40
0.0
 40
0.0
 40
0.0
 40
1.0
 40
1.0
 40
1.0
 40
1.0
 10
5.191939114338726
 20
-3.906775755683343
 30
0.0
 10
5.054968975619804
 20
-3.91274745793122
 30
0.0
 10
4.920376632268672
 20
-3.87764539496978
 30
0.0
 10
4.799263896535598
 20
-3.799121831149269
 30
0.0
  0
SPLINE
  5
17D
330
1F
100
AcDbEntity
  8
외형선
  6
Continuous
 62
     1
370
    15
100
AcDbSpline
210
0.0
220
0.0
230
1.0
 70
     8
 71
     3
 72
     8
 73
     4
 74
     0
 42
0.000000001
 43
0.00000001
 40
0.0
 40
0.0
 40
0.0
 40
0.0
 40
1.0
 40
1.0
 40
1.0
 40
1.0
 10
4.799263896535605
 20
-3.799121831149276
 30
0.0
 10
4.72360959984414
 20
-3.750071291925715
 30
0.0
 10
4.627239156745418
 20
-3.751444961418057
 30
0.0
 10
4.547511158627835
 20
-3.808722720067955
 30
0.0
  0
SPLINE
  5
17E
330
1F
100
AcDbEntity
  8
외형선
  6
Continuous
 62
     1
370
    15
100
AcDbSpline
210
0.0
220
0.0
230
1.0
 70
     8
 71
     3
 72
    11
 73
     7
 74
     0
 42
0.000000001
 43
0.00000001
 40
0.0
 40
0.0
 40
0.0
 40
0.0
 40
0.4461546007253459
 40
0.8995778402908472
 40
0.9648690572440974
 40
1.0
 40
1.0
 40
1.0
 40
1.0
 10
4.507755574993706
 20
-3.826746729293822
 30
0.0
 10
4.428843530500306
 20
-3.870285332682769
 30
0.0
 10
4.269733826279168
 20
-3.958071859465713
 30
0.0
 10
4.08915696724505
 20
-3.955185535484043
 30
0.0
 10
3.987225181270341
 20
-3.937157504742701
 30
0.0
 10
3.968771149846601
 20
-3.932969345771236
 30
0.0
 10
3.962315328507558
 20
-3.931504191332162
 30
0.0
  0
SPLINE
  5
17F
330
1F
100
AcDbEntity
  8
외형선
  6
Continuous
370
    15
100
AcDbSpline
210
0.0
220
0.0
230
1.0
 70
    24
 71
     3
 72
     9
 73
     5
 74
     0
 42
0.000000001
 43
0.00000001
 40
0.0
 40
0.0
 40
0.0
 40
0.0
 40
0.5
 40
1.0
 40
1.0
 40
1.0
 40
1.0
 10
3.962315328507789
 20
-3.808706211076938
 30
0.0
 10
3.962315328507789
 20
-3.829212646927314
 30
0.0
 10
3.962315328507789
 20
-3.870193080058065
 30
0.0
 10
3.962315328507789
 20
-3.911085614418031
 30
0.0
 10
3.962315328507789
 20
-3.931504191332177
 30
0.0
  0
SPLINE
  5
180
330
1F
100
AcDbEntity
  8
외형선
  6
Continuous
370
    15
100
AcDbSpline
210
0.0
220
0.0
230
1.0
 70
     8
 71
     3
 72
     8
 73
     4
 74
     0
 42
0.000000001
 43
0.00000001
 40
0.0
 40
0.0
 40
0.0
 40
0.0
 40
1.0
 40
1.0
 40
1.0
 40
1.0
 10
3.962315328507787
 20
-3.808706211076936
 30
0.0
 10
3.866002439807348
 20
-3.809295325263702
 30
0.0
 10
3.770164949694233
 20
-3.806597450006807
 30
0.0
 10
3.674791499949045
 20
-3.800574452456662
 30
0.0
  0
SPLINE
  5
181
330
1F
100
AcDbEntity
  8
외형선
  6
Continuous
370
    15
100
AcDbSpline
210
0.0
220
0.0
230
1.0
 70
     8
 71
     3
 72
     8
 73
     4
 74
     0
 42
0.000000001
 43
0.00000001
 40
0.0
 40
0.0
 40
0.0
 40
0.0
 40
1.0
 40
1.0
 40
1.0
 40
1.0
 10
3.674791499949043
 20
-3.800574452456658
 30
0.0
 10
3.636126302012964
 20
-3.773784571865016
 30
0.0
 10
3.598425302054027
 20
-3.743557660092747
 30
0.0
 10
3.561934956902578
 20
-3.709884021504505
 30
0.0
  0
SPLINE
  5
182
330
1F
100
AcDbEntity
  8
외형선
  6
Continuous
370
    15
100
AcDbSpline
210
0.0
220
0.0
230
1.0
 70
     8
 71
     3
 72
     8
 73
     4
 74
     0
 42
0.000000001
 43
0.00000001
 40
0.0
 40
0.0
 40
0.0
 40
0.0
 40
1.0
 40
1.0
 40
1.0
 40
1.0
 10
3.561934956902578
 20
-3.709884021504505
 30
0.0
 10
3.486027102299515
 20
-3.639835529189523
 30
0.0
 10
3.389803517930587
 20
-3.615407518616699
 30
0.0
 10
3.310420394244473
 20
-3.650022151817589
 30
0.0
  0
SPLINE
  5
183
330
1F
100
AcDbEntity
  8
외형선
  6
Continuous
370
    15
100
AcDbSpline
210
0.0
220
0.0
230
1.0
 70
     8
 71
     3
 72
     8
 73
     4
 74
     0
 42
0.000000001
 43
0.00000001
 40
0.0
 40
0.0
 40
0.0
 40
0.0
 40
1.0
 40
1.0
 40
1.0
 40
1.0
 10
3.310420394244483
 20
-3.650022151817586
 30
0.0
 10
3.185462672483892
 20
-3.704509371562985
 30
0.0
 10
3.051864893928675
 20
-3.709283686504557
 30
0.0
 10
2.916698815931064
 20
-3.676080177699966
 30
0.0
  0
SPLINE
  5
184
330
1F
100
AcDbEntity
  8
외형선
  6
Continuous
370
    15
100
AcDbSpline
210
0.0
220
0.0
230
1.0
 70
     8
 71
     3
 72
     8
 73
     4
 74
     0
 42
0.000000001
 43
0.00000001
 40
0.0
 40
0.0
 40
0.0
 40
0.0
 40
0.0000125236776225
 40
0.0000125236776225
 40
0.0000125236776225
 40
0.0000125236776225
 10
2.915611548985093
 20
-3.675678622083485
 30
0.0
 10
2.915599813165084
 20
-3.679589403428476
 30
0.0
 10
2.915588855183191
 20
-3.683497558749834
 30
0.0
 10
2.915578667746642
 20
-3.687403049802059
 30
0.0
  0
SPLINE
  5
185
330
1F
100
AcDbEntity
  8
외형선
  6
Continuous
 62
     1
370
    15
100
AcDbSpline
210
0.0
220
0.0
230
1.0
 70
     8
 71
     3
 72
    14
 73
    10
 74
     0
 42
0.000000001
 43
0.00000001
 40
0.0
 40
0.0
 40
0.0
 40
0.0
 40
0.2500000000000001
 40
0.2500000000000001
 40
0.5000000000000001
 40
0.5000000000000001
 40
0.75
 40
0.75
 40
1.0
 40
1.0
 40
1.0
 40
1.0
 10
5.950213292130705
 20
0.6270204422873746
 30
0.0
 10
5.927900072397862
 20
0.4010795076171781
 30
0.0
 10
5.905353902478553
 20
0.1712161627507037
 30
0.0
 10
5.858579744383849
 20
-0.2935152431801477
 30
0.0
 10
5.834695655646341
 20
-0.5272011730617653
 30
0.0
 10
5.787032620316064
 20
-0.9863257979173293
 30
0.0
 10
5.763259395417952
 20
-1.211709712992082
 30
0.0
 10
5.716911957480059
 20
-1.644056744283176
 30
0.0
 10
5.6949508368354
 20
-1.849266925771361
 30
0.0
 10
5.672312583674872
 20
-2.046257936314391
 30
0.0
  0
SPLINE
  5
186
330
1F
100
AcDbEntity
  8
외형선
  6
Continuous
 62
     1
370
    15
100
AcDbSpline
210
0.0
220
0.0
230
1.0
 70
     8
 71
     3
 72
    12
 73
     8
 74
     0
 42
0.000000001
 43
0.00000001
 40
0.0
 40
0.0
 40
0.0
 40
0.0
 40
0.2499999999999999
 40
0.2499999999999999
 40
0.4999999999999999
 40
0.4999999999999999
 40
1.0
 40
1.0
 40
1.0
 40
1.0
 10
13.53607389092662
 20
1.454005886291317
 30
0.0
 10
13.51238763350192
 20
1.237099813453137
 30
0.0
 10
13.48895391845308
 20
1.013408493192522
 30
0.0
 10
13.44362402021343
 20
0.5630933910625991
 30
0.0
 10
13.42177499584693
 20
0.3366948254930716
 30
0.0
 10
13.35252990323192
 20
-0.3564238476124447
 30
0.0
 10
13.30386952168026
 20
-0.8287403516582137
 30
0.0
 10
13.25708394807576
 20
-1.268677904220138
 30
0.0
  0
SPLINE
  5
187
330
1F
100
AcDbEntity
  8
외형선
  6
Continuous
 62
     1
370
    15
100
AcDbSpline
210
0.0
220
0.0
230
1.0
 70
     8
 71
     3
 72
    12
 73
     8
 74
     0
 42
0.000000001
 43
0.00000001
 40
0.0
 40
0.0
 40
0.0
 40
0.0
 40
0.5000000000000002
 40
0.5000000000000002
 40
0.7500000000000001
 40
0.7500000000000001
 40
1.0
 40
1.0
 40
1.0
 40
1.0
 10
21.12303469641366
 20
2.209984464056595
 30
0.0
 10
21.07611751311835
 20
1.824031577419285
 30
0.0
 10
21.02750417943101
 20
1.386913926635151
 30
0.0
 10
20.95857832501643
 20
0.7143526931315626
 30
0.0
 10
20.93682489535891
 20
0.4894569174239794
 30
0.0
 10
20.891270138617
 20
0.0302984465409929
 30
0.0
 10
20.86776247436904
 20
-0.2030374099315611
 30
0.0
 10
20.84404627183693
 20
-0.4348089778123149
 30
0.0
  0
LINE
  5
189
330
1F
100
AcDbEntity
  8
외형선
  6
Continuous
 62
     1
370
    15
100
AcDbLine
 10
23.01231532850779
 20
-2.05361300086502
 30
0.0
 11
23.01231532850779
 21
0.4745199249237124
 31
0.0
  0
SPLINE
  5
18A
330
1F
100
AcDbEntity
  8
외형선
  6
Continuous
 62
     1
370
    15
100
AcDbSpline
210
0.0
220
0.0
230
1.0
 70
     8
 71
     3
 72
     8
 73
     4
 74
     0
 42
0.000000001
 43
0.00000001
 40
0.0001094052160353
 40
0.0001094052160353
 40
0.0001094052160353
 40
0.0001094052160353
 40
0.0003101536342217
 40
0.0003101536342217
 40
0.0003101536342217
 40
0.0003101536342217
 10
22.88292230127513
 20
-2.194021731260636
 30
0.0
 10
22.92616959107365
 20
-2.147239125047224
 30
0.0
 10
22.96930430478837
 20
-2.100436190345722
 30
0.0
 10
23.01231532850779
 20
-2.05361300086502
 30
0.0
  0
SPLINE
  5
18B
330
1F
100
AcDbEntity
  8
외형선
  6
Continuous
 62
     1
370
    15
100
AcDbSpline
210
0.0
220
0.0
230
1.0
 70
     8
 71
     3
 72
    14
 73
    10
 74
     0
 42
0.000000001
 43
0.00000001
 40
0.0
 40
0.0
 40
0.0
 40
0.0
 40
0.2499999999999999
 40
0.2499999999999999
 40
0.4999999999999999
 40
0.4999999999999999
 40
0.75
 40
0.75
 40
1.0
 40
1.0
 40
1.0
 40
1.0
 10
22.97046885826373
 20
0.1321494995301385
 30
0.0
 10
22.9620213310138
 20
-0.072095660670752
 30
0.0
 10
22.95379953914249
 20
-0.2754990018220859
 30
0.0
 10
22.93783080823079
 20
-0.680658236791156
 30
0.0
 10
22.93003160365327
 20
-0.8838596514140388
 30
0.0
 10
22.91533375922174
 20
-1.277412052588545
 30
0.0
 10
22.90839702185239
 20
-1.468649230262817
 30
0.0
 10
22.89529301273046
 20
-1.840151984544449
 30
0.0
 10
22.88906579948556
 20
-2.021340943916148
 30
0.0
 10
22.88292230127514
 20
-2.194021731260642
 30
0.0
  0
SPLINE
  5
18C
330
1F
100
AcDbEntity
  8
외형선
  6
Continuous
 62
     1
370
    15
100
AcDbSpline
210
0.0
220
0.0
230
1.0
 70
     8
 71
     3
 72
     8
 73
     4
 74
     0
 42
0.000000001
 43
0.00000001
 40
0.0
 40
0.0
 40
0.0
 40
0.0
 40
1.0
 40
1.0
 40
1.0
 40
1.0
 10
22.98455183343593
 20
0.5014840937221622
 30
0.0
 10
22.9802913133511
 20
0.3791558122432109
 30
0.0
 10
22.97559319177222
 20
0.2560461485025559
 30
0.0
 10
22.97046885826432
 20
0.1321494995445794
 30
0.0
  0
SPLINE
  5
18D
330
1F
100
AcDbEntity
  8
외형선
  6
Continuous
 62
     1
370
    15
100
AcDbSpline
210
0.0
220
0.0
230
1.0
 70
     8
 71
     3
 72
    12
 73
     8
 74
     0
 42
0.000000001
 43
0.00000001
 40
0.0
 40
0.0
 40
0.0
 40
0.0
 40
0.2499999999999999
 40
0.2499999999999999
 40
0.4999999999999999
 40
0.4999999999999999
 40
1.0
 40
1.0
 40
1.0
 40
1.0
 10
15.81222154208077
 20
-0.743684111553864
 30
0.0
 10
15.78843542062819
 20
-0.9729451716810493
 30
0.0
 10
15.76469665159506
 20
-1.198147351905436
 30
0.0
 10
15.71839181734023
 20
-1.630397631592684
 30
0.0
 10
15.69642732661181
 20
-1.835714548699309
 30
0.0
 10
15.62875577268269
 20
-2.426614065167967
 30
0.0
 10
15.58039710384777
 20
-2.787755694138546
 30
0.0
 10
15.53308201463824
 20
-3.081405473398156
 30
0.0
  0
SPLINE
  5
18E
330
1F
100
AcDbEntity
  8
외형선
  6
Continuous
 62
     1
370
    15
100
AcDbSpline
210
0.0
220
0.0
230
1.0
 70
     8
 71
     3
 72
     8
 73
     4
 74
     0
 42
0.000000001
 43
0.00000001
 40
0.0
 40
0.0
 40
0.0
 40
0.0
 40
1.0
 40
1.0
 40
1.0
 40
1.0
 10
22.88292230127514
 20
-2.194021731260642
 30
0.0
 10
22.86948508419931
 20
-2.199205934815861
 30
0.0
 10
22.85611294150365
 20
-2.204199294657601
 30
0.0
 10
22.84285054105964
 20
-2.208983827699619
 30
0.0
  0
SPLINE
  5
18F
330
1F
100
AcDbEntity
  8
외형선
  6
Continuous
 62
     1
370
    15
100
AcDbSpline
210
0.0
220
0.0
230
1.0
 70
     8
 71
     3
 72
    10
 73
     6
 74
     0
 42
0.000000001
 43
0.00000001
 40
0.0
 40
0.0
 40
0.0
 40
0.0
 40
0.5
 40
0.5
 40
1.0
 40
1.0
 40
1.0
 40
1.0
 10
11.26004566535089
 20
3.201858973129396
 30
0.0
 10
11.21315760986391
 20
2.927219484128642
 30
0.0
 10
11.16986116178437
 20
2.595258071626053
 30
0.0
 10
11.07594695385638
 20
1.8225613361255
 30
0.0
 10
11.02729526406404
 20
1.384998791106947
 30
0.0
 10
10.98131765650502
 20
0.9362370801161777
 30
0.0
  0
SPLINE
  5
190
330
1F
100
AcDbEntity
  8
외형선
  6
Continuous
370
    15
100
AcDbSpline
210
0.0
220
0.0
230
1.0
 70
    24
 71
     3
 72
     8
 73
     4
 74
     0
 42
0.000000001
 43
0.00000001
 40
0.0
 40
0.0
 40
0.0
 40
0.0
 40
1.0
 40
1.0
 40
1.0
 40
1.0
 10
3.962315328507787
 20
1.782150295715992
 30
0.0
 10
3.962315328507787
 20
1.98071669165872
 30
0.0
 10
3.962315328507787
 20
2.171975682725377
 30
0.0
 10
3.962315328507787
 20
2.352760928448132
 30
0.0
  0
SPLINE
  5
191
330
1F
100
AcDbEntity
  8
외형선
  6
Continuous
 62
     1
370
    15
100
AcDbSpline
210
0.0
220
0.0
230
1.0
 70
     8
 71
     3
 72
    12
 73
     8
 74
     0
 42
0.000000001
 43
0.00000001
 40
0.0
 40
0.0
 40
0.0
 40
0.0
 40
0.2500000000000001
 40
0.2500000000000001
 40
0.5000000000000002
 40
0.5000000000000002
 40
1.0
 40
1.0
 40
1.0
 40
1.0
 10
8.225570132214328
 20
-1.562816837327164
 30
0.0
 10
8.202679401721602
 20
-1.774852579736544
 30
0.0
 10
8.180919989631692
 20
-1.975661919261214
 30
0.0
 10
8.13505058087986
 20
-2.362262519807687
 30
0.0
 10
8.11142690215322
 20
-2.54639628626064
 30
0.0
 10
8.040079227700556
 20
-3.057310112829331
 30
0.0
 10
7.991955855956964
 20
-3.340749088778607
 30
0.0
 10
7.947494696050565
 20
-3.545962638344327
 30
0.0
  0
SPLINE
  5
192
330
1F
100
AcDbEntity
  8
외형선
  6
Continuous
 62
     1
370
    15
100
AcDbSpline
210
0.0
220
0.0
230
1.0
 70
     8
 71
     3
 72
    12
 73
     8
 74
     0
 42
0.000000001
 43
0.00000001
 40
0.0
 40
0.0
 40
0.0
 40
0.0
 40
0.4999999999999998
 40
0.4999999999999998
 40
0.7499999999999999
 40
0.7499999999999999
 40
1.0
 40
1.0
 40
1.0
 40
1.0
 10
18.84699775741198
 20
3.629264127527447
 30
0.0
 10
18.79961141181376
 20
3.440632203533387
 30
0.0
 10
18.75136489346364
 20
3.17372413458194
 30
0.0
 10
18.68409021787054
 20
2.696966007459263
 30
0.0
 10
18.66192229294227
 20
2.524524191140937
 30
0.0
 10
18.61544712281832
 20
2.150232731272621
 30
0.0
 10
18.59166431114771
 20
1.949601923430897
 30
0.0
 10
18.56787861088599
 20
1.739853759246955
 30
0.0
  0
LINE
  5
193
330
1F
100
AcDbEntity
  8
외형선
  6
Continuous
 62
     1
370
    15
100
AcDbLine
 10
17.21555213767239
 20
3.808958123602199
 30
0.0
 11
17.18291593441211
 21
3.779840195120964
 31
0.0
  0
SPLINE
  5
194
330
1F
100
AcDbEntity
  8
외형선
  6
Continuous
 62
     1
370
    15
100
AcDbSpline
210
0.0
220
0.0
230
1.0
 70
     8
 71
     3
 72
    10
 73
     6
 74
     0
 42
0.000000001
 43
0.00000001
 40
0.0
 40
0.0
 40
0.0
 40
0.0
 40
0.5000000000000001
 40
0.5000000000000001
 40
1.0
 40
1.0
 40
1.0
 40
1.0
 10
18.08838914407529
 20
-2.711362596391542
 30
0.0
 10
18.04090392238644
 20
-3.052019062848068
 30
0.0
 10
17.99283765277436
 20
-3.335867683981143
 30
0.0
 10
17.90395657212479
 20
-3.74771094558923
 30
0.0
 10
17.85677319421901
 20
-3.885999269362786
 30
0.0
 10
17.80921250460906
 20
-3.941048699076047
 30
0.0
  0
SPLINE
  5
195
330
1F
100
AcDbEntity
  8
외형선
  6
Continuous
 62
     1
370
    15
100
AcDbSpline
210
0.0
220
0.0
230
1.0
 70
     8
 71
     3
 72
    12
 73
     8
 74
     0
 42
0.000000001
 43
0.00000001
 40
0.0
 40
0.0
 40
0.0
 40
0.0
 40
0.25
 40
0.25
 40
0.5
 40
0.5
 40
1.0
 40
1.0
 40
1.0
 40
1.0
 10
8.984236309034582
 20
3.959406602499835
 30
0.0
 10
8.96117439695366
 20
3.9435469645519
 30
0.0
 10
8.93935152978807
 20
3.908174708695448
 30
0.0
 10
8.89383395529714
 20
3.797749348362976
 30
0.0
 10
8.870324485771603
 20
3.722330544309313
 30
0.0
 10
8.799108709839565
 20
3.438207257381508
 30
0.0
 10
8.750781940416292
 20
3.170273287204615
 30
0.0
 10
8.70588239530289
 20
2.851396673734209
 30
0.0
  0
LINE
  5
196
330
1F
100
AcDbEntity
  8
외형선
  6
Continuous
 62
     1
370
    15
100
AcDbLine
 10
8.549861368626328
 20
3.779325597747794
 30
0.0
 11
8.536947091954243
 21
3.770374858636015
 31
0.0
  0
SPLINE
  5
197
330
1F
100
AcDbEntity
  8
외형선
  6
Continuous
 62
     1
370
    15
100
AcDbSpline
210
0.0
220
0.0
230
1.0
 70
     8
 71
     3
 72
    11
 73
     7
 74
     0
 42
0.000000001
 43
0.00000001
 40
0.0
 40
0.0
 40
0.0
 40
0.0
 40
0.3075032142046321
 40
0.6166279368827451
 40
0.9289279241842817
 40
1.0
 40
1.0
 40
1.0
 40
1.0
 10
10.50128289870835
 20
-3.269763510950612
 30
0.0
 10
10.47862439980561
 20
-3.391014337046128
 30
0.0
 10
10.43318792049143
 20
-3.634155362202542
 30
0.0
 10
10.36434809562365
 20
-3.854027178800474
 30
0.0
 10
10.31098771411947
 20
-3.963454301512617
 30
0.0
 10
10.28219872871537
 20
-3.956456721800074
 30
0.0
 10
10.27686163415334
 20
-3.955159463695732
 30
0.0
  0
SPLINE
  5
198
330
1F
100
AcDbEntity
  8
외형선
  6
Continuous
 62
     1
370
    15
100
AcDbSpline
210
0.0
220
0.0
230
1.0
 70
     8
 71
     3
 72
    11
 73
     7
 74
     0
 42
0.000000001
 43
0.00000001
 40
0.0
 40
0.0
 40
0.0
 40
0.0
 40
0.0020381595177551
 40
0.298100404533112
 40
0.6469261737760051
 40
0.9999999999999999
 40
0.9999999999999999
 40
0.9999999999999999
 40
0.9999999999999999
 10
16.50610865844376
 20
3.968029325920148
 30
0.0
 10
16.50596093937679
 20
3.968126057153603
 30
0.0
 10
16.48435560709688
 20
3.982273929080636
 30
0.0
 10
16.43937449912549
 20
3.91104968649357
 30
0.0
 10
16.36872735612857
 20
3.739491926829232
 30
0.0
 10
16.31748787165574
 20
3.497903314963273
 30
0.0
 10
16.29171307287626
 20
3.376377934247078
 30
0.0
  0
LINE
  5
199
330
1F
100
AcDbEntity
  8
외형선
  6
Continuous
 62
     1
370
    15
100
AcDbLine
 10
8.340852421590734
 20
3.792802314868151
 30
0.0
 11
8.33343972116019
 21
3.79459243006607
 31
0.0
  0
LINE
  5
19A
330
1F
100
AcDbEntity
  8
외형선
  6
Continuous
 62
     1
370
    15
100
AcDbLine
 10
10.7228672242203
 20
-3.786236367140553
 30
0.0
 11
10.71524149122342
 21
-3.792069399637751
 31
0.0
  0
LINE
  5
19B
330
1F
100
AcDbEntity
  8
외형선
  6
Continuous
 62
     1
370
    15
100
AcDbLine
 10
15.83468091908947
 20
3.785613270768083
 30
0.0
 11
15.82984726740841
 21
3.788631811830672
 31
0.0
  0
LINE
  5
19C
330
1F
100
AcDbEntity
  8
외형선
  6
Continuous
370
    15
100
AcDbLine
 10
3.223826791264205
 20
-3.788610973174462
 30
0.0
 11
3.217646669917927
 21
-3.791963092175163
 31
0.0
  0
SPLINE
  5
19D
330
1F
100
AcDbEntity
  8
외형선
  6
Continuous
 62
     1
370
    15
100
AcDbSpline
210
0.0
220
0.0
230
1.0
 70
     8
 71
     3
 72
     9
 73
     5
 74
     0
 42
0.000000001
 43
0.00000001
 40
0.0
 40
0.0
 40
0.0
 40
0.0
 40
0.6210579884102843
 40
0.9999999999999999
 40
0.9999999999999999
 40
0.9999999999999999
 40
0.9999999999999999
 10
20.36447722858253
 20
-3.840313539947682
 30
0.0
 10
20.3450725545169
 20
-3.883410079806718
 30
0.0
 10
20.3138280098403
 20
-3.952802214942682
 30
0.0
 10
20.28277304115642
 20
-3.956537136145748
 30
0.0
 10
20.27100500885349
 20
-3.957952454699566
 30
0.0
  0
LINE
  5
19E
330
1F
100
AcDbEntity
  8
외형선
  6
Continuous
 62
     1
370
    15
100
AcDbLine
 10
6.971764159106859
 20
3.786458150915984
 30
0.0
 11
6.96715095384971
 21
3.791308193908593
 31
0.0
  0
SPLINE
  5
19F
330
1F
100
AcDbEntity
  8
외형선
  6
Continuous
 62
     1
370
    15
100
AcDbSpline
210
0.0
220
0.0
230
1.0
 70
     8
 71
     3
 72
     8
 73
     4
 74
     0
 42
0.000000001
 43
0.00000001
 40
0.0000457951438949
 40
0.0000457951438949
 40
0.0000457951438949
 40
0.0000457951438949
 40
0.0003101536342217
 40
0.0003101536342217
 40
0.0003101536342217
 40
0.0003101536342217
 10
22.84177790336188
 20
3.926443349075059
 30
0.0
 10
22.8988216071855
 20
3.872446420862649
 30
0.0
 10
22.95567571286392
 20
3.818149354716494
 30
0.0
 10
23.01231532850779
 20
3.763522169603057
 30
0.0
  0
LINE
  5
1A0
330
1F
100
AcDbEntity
  8
외형선
  6
Continuous
 62
     1
370
    15
100
AcDbLine
 10
23.01231532850779
 20
0.4745199249237124
 30
0.0
 11
23.01231532850779
 21
0.4803481451937224
 31
0.0
  0
LINE
  5
1A1
330
1F
100
AcDbEntity
  8
외형선
  6
Continuous
 62
     1
370
    15
100
AcDbLine
 10
23.01231532850779
 20
0.9896463916443007
 30
0.0
 11
23.01231532850779
 21
3.763522169603057
 31
0.0
  0
SPLINE
  5
1A2
330
1F
100
AcDbEntity
  8
외형선
  6
Continuous
 62
     1
370
    15
100
AcDbSpline
210
0.0
220
0.0
230
1.0
 70
     8
 71
     3
 72
    10
 73
     6
 74
     0
 42
0.000000001
 43
0.00000001
 40
0.0
 40
0.0
 40
0.0
 40
0.0
 40
0.0915022747205791
 40
0.8560797306845118
 40
1.0
 40
1.0
 40
1.0
 40
1.0
 10
6.516400091080805
 20
3.962603716435279
 30
0.0
 10
6.513719193107254
 20
3.964828577720728
 30
0.0
 10
6.488637167308461
 20
3.985644001773014
 30
0.0
 10
6.460254912662116
 20
3.942915192208775
 30
0.0
 10
6.434798006654825
 20
3.892888612423506
 30
0.0
 10
6.430765234016478
 20
3.884963618628486
 30
0.0
  0
SPLINE
  5
1A3
330
1F
100
AcDbEntity
  8
외형선
  6
Continuous
370
    15
100
AcDbSpline
210
0.0
220
0.0
230
1.0
 70
     8
 71
     3
 72
    12
 73
     8
 74
     0
 42
0.000000001
 43
0.00000001
 40
0.0
 40
0.0
 40
0.0
 40
0.0
 40
0.1009769955642761
 40
0.2817861600950891
 40
0.4624913477628969
 40
0.8255207167638999
 40
1.0
 40
1.0
 40
1.0
 40
1.0
 10
3.599933626288416
 20
-3.881094346104591
 30
0.0
 10
3.602385116809729
 20
-3.882961287993123
 30
0.0
 10
3.609226240341383
 20
-3.888171171521053
 30
0.0
 10
3.620708667955126
 20
-3.883669121703676
 30
0.0
 10
3.638749605561973
 20
-3.87106749937907
 30
0.0
 10
3.656828822580434
 20
-3.843788014079161
 30
0.0
 10
3.670389578348797
 20
-3.811164338720621
 30
0.0
 10
3.674791499949047
 20
-3.800574452456659
 30
0.0
  0
LINE
  5
1A4
330
1F
100
AcDbEntity
  8
외형선
  6
Continuous
 62
     1
370
    15
100
AcDbLine
 10
23.01231532850779
 20
-2.05361300086502
 30
0.0
 11
23.01231532850779
 21
-2.151144699352092
 31
0.0
  0
LINE
  5
1A5
330
1F
100
AcDbEntity
  8
외형선
  6
Continuous
 62
     1
370
    15
100
AcDbLine
 10
12.77725227918025
 20
-3.96572562484712
 30
0.0
 11
12.76655795669291
 21
-3.964170233826143
 31
0.0
  0
LINE
  5
1A6
330
1F
100
AcDbEntity
  8
외형선
  6
Continuous
 62
     1
370
    15
100
AcDbLine
 10
22.81385883188634
 20
3.963317643479724
 30
0.0
 11
22.81582901941
 21
3.954354925921433
 31
0.0
  0
LINE
  5
1A7
330
1F
100
AcDbEntity
  8
외형선
  6
Continuous
 62
     1
370
    15
100
AcDbLine
 10
23.01231532850779
 20
3.763522169603057
 30
0.0
 11
23.01231532850779
 21
3.768749999999994
 31
0.0
  0
LINE
  5
1A8
330
1F
100
AcDbEntity
  8
중심선
 62
     1
100
AcDbLine
 10
-43.48768467149222
 20
-0.0000000000000108
 30
0.0
 11
26.01231532850778
 21
-0.0000000000000023
 31
0.0
  0
LINE
  5
1A9
330
1F
100
AcDbEntity
  8
참조1
100
AcDbLine
 10
-8.737684671492222
 20
-0.0000000000000104
 30
0.0
 11
-8.737684671492216
 21
-40.00000000000001
 31
0.0
  0
LINE
  5
1AA
330
1F
100
AcDbEntity
  8
참조1
100
AcDbLine
 10
-8.737684671492216
 20
-40.00000000000001
 30
0.0
 11
-26.17828866478638
 21
-40.00000000000001
 31
0.0
  0
CIRCLE
  5
1AB
330
1F
100
AcDbEntity
  8
해칭선
100
AcDbCircle
 10
-0.0000000000000001
 20
0.0
 30
0.0
 40
3.000000000000001
  0
INSERT
  5
1AC
330
1F
100
AcDbEntity
  8
0
  6
Continuous
 62
     7
100
AcDbBlockReference
 66
     1
  2
블럭10
 10
-22.67795760361743
 20
-52.04717430164394
 30
0.0
  0
ATTRIB
  5
1AD
330
1AC
100
AcDbEntity
  8
FORMAT
 62
     2
100
AcDbText
 10
-33.72505895040791
 20
-49.97180738881175
 30
0.0
 40
4.233333333333333
  1
E2085020 [ 3 FLUTE ]
 41
0.75
  7
SLDTEXTSTYLE0
 11
-33.72505895040791
 21
-52.08847405547842
 31
0.0
100
AcDbAttribute
  2
AUTOATTR0
 70
     0
 74
     1
  0
SEQEND
  5
1AE
330
1AC
100
AcDbEntity
  8
0
  6
Continuous
 62
     7
  0
HATCH
  5
1AF
330
1F
100
AcDbEntity
  8
중심선
100
AcDbHatch
 10
0.0
 20
0.0
 30
0.0
210
0.0
220
0.0
230
1.0
  2
SOLID
 70
     1
 71
     0
 91
        1
 92
        0
 93
        4
 72
     1
 10
-16.96304829923658
 20
-35.8
 11
-20.40932354307387
 21
-35.8
 72
     1
 10
-20.40932354307387
 20
-35.8
 11
-22.53755340227789
 21
-38.33632558057261
 72
     1
 10
-22.53755340227789
 20
-38.33632558057261
 11
-19.09124507332746
 21
-38.33628615127012
 72
     1
 10
-19.09124507332746
 20
-38.33628615127012
 11
-16.96304829923658
 21
-35.8
 97
        0
 75
     0
 76
     1
 98
        1
 10
0.0293026266155504
 20
-0.0010749287238996
  0
HATCH
  5
1B0
330
1F
100
AcDbEntity
  8
중심선
100
AcDbHatch
 10
0.0
 20
0.0
 30
0.0
210
0.0
220
0.0
230
1.0
  2
SOLID
 70
     1
 71
     0
 91
        1
 92
        0
 93
        4
 72
     1
 10
-11.95028430820058
 20
-35.8
 11
-15.39655955203789
 21
-35.8
 72
     1
 10
-15.39655955203789
 20
-35.8
 11
-19.92769756039531
 21
-41.20000000000002
 72
     1
 10
-19.92769756039531
 20
-41.20000000000002
 11
-16.48142231655802
 21
-41.20000000000002
 72
     1
 10
-16.48142231655802
 20
-41.20000000000002
 11
-11.95028430820058
 21
-35.8
 97
        0
 75
     0
 76
     1
 98
        1
 10
0.0293026266155504
 20
-0.0010749287238996
  0
HATCH
  5
1B1
330
1F
100
AcDbEntity
  8
중심선
100
AcDbHatch
 10
0.0
 20
0.0
 30
0.0
210
0.0
220
0.0
230
1.0
  2
SOLID
 70
     1
 71
     0
 91
        1
 92
        0
 93
        4
 72
     1
 10
-6.93752031716471
 20
-35.8
 11
-10.38379556100183
 21
-35.8
 72
     1
 10
-10.38379556100183
 20
-35.8
 11
-17.4322324628911
 21
-44.20000000000002
 72
     1
 10
-17.4322324628911
 20
-44.20000000000002
 11
-13.98595721905382
 21
-44.20000000000002
 72
     1
 10
-13.98595721905382
 20
-44.20000000000002
 11
-6.93752031716471
 21
-35.8
 97
        0
 75
     0
 76
     1
 98
        1
 10
0.0293026266155504
 20
-0.0010749287238996
  0
HATCH
  5
1B2
330
1F
100
AcDbEntity
  8
중심선
100
AcDbHatch
 10
0.0
 20
0.0
 30
0.0
210
0.0
220
0.0
230
1.0
  2
SOLID
 70
     1
 71
     0
 91
        1
 92
        0
 93
        6
 72
     3
 10
-2.137629886152538
 20
-40.00000000005128
 11
3.960054785062284
 21
1.540882976769353E-10
 40
0.3939339440162627
 50
17.09539180608438
 51
320.0019657685087
 73
     0
 72
     1
 10
-0.4546302304519702
 20
-38.58789400463836
 11
1.850671643249095
 21
-36.65356729459042
 72
     3
 10
-2.137629886205385
 20
-40.00000000000016
 11
6.600054785286829
 21
-1.278976924368180E-13
 40
0.636358354079598
 50
39.99873849337382
 51
368.4976242363724
 73
     1
 72
     1
 10
4.287702605695225
 20
-39.03999999993003
 11
-3.457562579369462
 21
-39.03999999993003
 72
     1
 10
-3.457562579369462
 20
-39.03999999993003
 11
-3.457587623815396
 21
-40.95999999992992
 72
     1
 10
-3.457587623815396
 20
-40.95999999992992
 11
0.9837921456566416
 21
-40.95999999992989
 97
        0
 75
     0
 76
     1
 98
        1
 10
0.0293026266155504
 20
-0.0010749287238996
  0
DIMENSION
  5
1B3
330
1F
100
AcDbEntity
  8
치수문자_일반주서
100
AcDbDimension
  2
_D
 10
-52.37098164173894
 20
-4.762500000000053
 30
0.0
 11
-52.37098164173896
 21
-0.0000000000000003
 31
0.0
 70
   160
  1
%%c<>
 71
     2
 42
9.525000000000006
 52
-270.0
  3
SLDDIMSTYLE0
100
AcDbAlignedDimension
 13
-39.9876846714922
 23
4.762499999999999
 33
0.0
 14
-39.9876846714922
 24
-4.762500000000006
 34
0.0
 50
90.0000000000002
100
AcDbRotatedDimension
1001
ACAD
1000
DSTYLE
1002
{
1070
   171
1070
     7
1070
   273
1070
     7
1002
}
  0
DIMENSION
  5
1C8
330
1F
100
AcDbEntity
  8
치수문자_일반주서
100
AcDbDimension
  2
_D_1
 10
41.7996306570157
 20
-3.968749999999932
 30
0.0
 11
41.79963065701559
 21
24.57275000000007
 31
0.0
 70
   160
  1
%%c<>
 71
     2
 42
7.9375
 52
-270.0
  3
SLDDIMSTYLE1
100
AcDbAlignedDimension
 13
23.01231532850779
 23
3.968749999999998
 33
0.0
 14
23.01231532850779
 24
-3.968750000000002
 34
0.0
 50
90.0000000000002
100
AcDbRotatedDimension
1001
ACAD
1000
DSTYLE
1002
{
1070
   171
1070
     7
1070
   273
1070
     7
1002
}
  0
DIMENSION
  5
1DC
330
1F
100
AcDbEntity
  8
치수문자_일반주서
100
AcDbDimension
  2
_D_2
 10
3.96231532850749
 20
15.55526074574217
 30
0.0
 11
12.65564132993128
 21
15.55526074574217
 31
0.0
 70
   160
  1
<>
 71
     2
 42
19.0500000000003
  3
SLDDIMSTYLE0
100
AcDbAlignedDimension
 13
23.01231532850779
 23
3.763522169603057
 33
0.0
 14
3.962315328507485
 24
-3.16099020201024
 34
0.0
 50
0.0000000000000053
100
AcDbRotatedDimension
1001
ACAD
1000
DSTYLE
1002
{
1070
   171
1070
     7
1070
   273
1070
     7
1002
}
  0
DIMENSION
  5
1F1
330
1F
100
AcDbEntity
  8
치수문자_일반주서
100
AcDbDimension
  2
_D_3
 10
-40.4876846714922
 20
30.46279548762688
 30
0.0
 11
-8.737684671492223
 21
30.46279548762688
 31
0.0
 70
   160
  1
<>
 71
     2
 42
63.49999999999999
  3
SLDDIMSTYLE2
100
AcDbAlignedDimension
 13
23.01231532850779
 23
3.763522169603057
 33
0.0
 14
-40.4876846714922
 24
4.262499999999991
 34
0.0
 50
0.0000000000000064
100
AcDbRotatedDimension
1001
ACAD
1000
DSTYLE
1002
{
1070
   171
1070
     7
1070
   273
1070
     7
1002
}
  0
LINE
  5
205
330
1F
100
AcDbEntity
  8
참조1
100
AcDbLine
 10
71.79405196486788
 20
7.439999999999996
 30
0.0
 11
71.79405196486788
 21
-7.440000000000008
 31
0.0
  0
LINE
  5
206
330
1F
100
AcDbEntity
  8
참조1
100
AcDbLine
 10
84.49405196486788
 20
5.439999999999996
 30
0.0
 11
71.79405196486788
 21
5.439999999999996
 31
0.0
  0
SOLID
  5
207
330
1F
100
AcDbEntity
  8
참조1
100
AcDbTrace
 10
71.79405196486788
 20
5.439999999999996
 30
0.0
 11
78.14405196486787
 21
4.423999999999996
 31
0.0
 12
78.14405196486787
 22
6.455999999999996
 32
0.0
 13
78.14405196486787
 23
6.455999999999996
 33
0.0
  0
LINE
  5
208
330
1F
100
AcDbEntity
  8
참조1
100
AcDbLine
 10
84.49405196486788
 20
-5.440000000000008
 30
0.0
 11
71.79405196486788
 21
-5.440000000000008
 31
0.0
  0
SOLID
  5
209
330
1F
100
AcDbEntity
  8
참조1
100
AcDbTrace
 10
71.79405196486788
 20
-5.440000000000008
 30
0.0
 11
78.14405196486787
 21
-6.456000000000008
 31
0.0
 12
78.14405196486787
 22
-4.424000000000008
 32
0.0
 13
78.14405196486787
 23
-4.424000000000008
 33
0.0
  0
MTEXT
  5
20A
330
1F
100
AcDbEntity
  8
참조1
100
AcDbMText
 10
81.39416677543045
 20
11.06571756601607
 30
0.0
 40
3.5
 41
0.0
 71
     1
 72
     1
  1
A
  7
SLDTEXTSTYLE0
 73
     1
 44
1.0
  0
MTEXT
  5
20B
330
1F
100
AcDbEntity
  8
참조1
100
AcDbMText
 10
81.39416677543045
 20
0.1857175660160663
 30
0.0
 40
3.5
 41
0.0
 71
     1
 72
     1
  1
A
  7
SLDTEXTSTYLE0
 73
     1
 44
1.0
  0
INSERT
  5
212
330
1F
100
AcDbEntity
  8
해칭선
100
AcDbBlockReference
  2
SW_DOWELSYMBOL_0
 10
-0.0000000000000001
 20
0.0
 30
0.0
  0
LINE
  5
23A
330
1F
100
AcDbEntity
  8
외형선
  6
Continuous
370
    15
100
AcDbLine
 10
3.962315328507785
 20
3.968749999999998
 30
0.0
 11
3.962315328507785
 21
-3.968750000000002
 31
0.0
  0
LINE
  5
276
330
1F
100
AcDbEntity
  8
외형선
  6
Continuous
370
    15
100
AcDbLine
 10
-24.21263467149232
 20
3.492499999999996
 30
0.0
 11
-17.0752346714922
 21
3.492499999999996
 31
0.0
  0
LINE
  5
277
330
1F
100
AcDbEntity
  8
외형선
  6
Continuous
370
    15
100
AcDbLine
 10
-24.21263467149232
 20
3.492499999999996
 30
0.0
 11
-25.48263467149231
 21
4.762499999999978
 31
0.0
  0
LINE
  5
278
330
1F
100
AcDbEntity
  8
외형선
  6
Continuous
370
    15
100
AcDbLine
 10
-17.0752346714922
 20
3.492499999999996
 30
0.0
 11
-15.8052346714921
 21
4.762499999999978
 31
0.0
  0
LINE
  5
279
330
1F
100
AcDbEntity
  8
외형선
  6
Continuous
370
    15
100
AcDbLine
 10
-25.48263467149232
 20
4.762499999999992
 30
0.0
 11
-39.9876846714922
 21
4.76249999999999
 31
0.0
  0
ENDSEC
  0
SECTION
  2
OBJECTS
  0
DICTIONARY
  5
C
330
0
100
AcDbDictionary
281
     1
  3
ACAD_GROUP
350
D
  3
ACAD_IMAGE_VARS
350
236
  3
ACAD_LAYOUT
350
1A
  3
ACAD_MLINESTYLE
350
17
  3
ACAD_PLOTSETTINGS
350
19
  3
ACAD_PLOTSTYLENAME
350
E
  3
ACAD_SCALELIST
350
47
  3
APPDATA
350
234
  3
DWGPROPS
350
2C0
  0
DICTIONARY
  5
267
330
2
100
AcDbDictionary
280
     1
281
     1
  3
ACAD_LAYERSTATES
360
268
  0
DICTIONARY
  5
D
102
{ACAD_REACTORS
330
C
102
}
330
C
100
AcDbDictionary
281
     1
  0
RASTERVARIABLES
  5
236
102
{ACAD_REACTORS
330
C
102
}
330
C
100
AcDbRasterVariables
 90
        0
 70
     1
 71
     1
 72
     1
  0
DICTIONARY
  5
1A
102
{ACAD_REACTORS
330
C
102
}
330
C
100
AcDbDictionary
281
     1
  3
Layout1
350
1E
  3
Layout2
350
26
  3
Model
350
22
  0
DICTIONARY
  5
17
102
{ACAD_REACTORS
330
C
102
}
330
C
100
AcDbDictionary
281
     1
  3
Standard
350
18
  0
DICTIONARY
  5
19
102
{ACAD_REACTORS
330
C
102
}
330
C
100
AcDbDictionary
281
     1
  0
ACDBDICTIONARYWDFLT
  5
E
102
{ACAD_REACTORS
330
C
102
}
330
C
100
AcDbDictionary
281
     1
  3
Normal
350
F
100
AcDbDictionaryWithDefault
340
F
  0
DICTIONARY
  5
47
102
{ACAD_REACTORS
330
C
102
}
330
C
100
AcDbDictionary
281
     1
  3
A0
350
48
  3
A1
350
49
  3
A2
350
4A
  3
A3
350
4B
  3
A4
350
4C
  3
A5
350
4D
  3
A6
350
4E
  3
A7
350
4F
  3
A8
350
50
  3
A9
350
51
  3
B0
350
52
  3
B1
350
53
  3
B2
350
54
  3
B3
350
55
  3
B4
350
56
  3
B5
350
57
  3
B6
350
58
  3
B7
350
59
  3
B8
350
5A
  3
B9
350
5B
  3
C0
350
5C
  3
C1
350
5D
  3
C2
350
5E
  3
C3
350
5F
  3
C4
350
60
  3
C5
350
61
  3
C6
350
62
  3
C7
350
63
  3
C8
350
64
  3
C9
350
65
  3
D0
350
66
  3
D1
350
67
  3
D2
350
68
  0
DICTIONARY
  5
234
102
{ACAD_REACTORS
330
C
102
}
330
C
100
AcDbDictionary
281
     1
  0
XRECORD
  5
2C0
102
{ACAD_REACTORS
330
C
102
}
330
C
100
AcDbXrecord
280
     1
  1
DWGPROPS COOKIE
  2

  3

  4

  6

  7

  8
12016016
  9

300
=
301
=
302
=
303
=
304
=
305
=
306
=
307
=
308
=
309
=
 40
0.0
 41
2458324.101104815
 42
2458331.128997014
  1

 90
        0
  0
DICTIONARY
  5
268
102
{ACAD_REACTORS
330
267
102
}
330
267
100
AcDbDictionary
281
     1
  0
LAYOUT
  5
1E
102
{ACAD_REACTORS
330
1A
102
}
330
1A
100
AcDbPlotSettings
  1

  2
none_device
  4

  6

 40
0.0
 41
0.0
 42
0.0
 43
0.0
 44
0.0
 45
0.0
 46
0.0
 47
0.0
 48
0.0
 49
0.0
140
0.0
141
0.0
142
1.0
143
1.0
 70
   688
 72
     1
 73
     0
 74
     5
  7

 75
    16
147
1.0
148
0.0
149
0.0
100
AcDbLayout
  1
Layout1
 70
     1
 71
     1
 10
0.0
 20
0.0
 11
420.0
 21
297.0
 12
0.0
 22
0.0
 32
0.0
 14
1.000000000000000E+20
 24
1.000000000000000E+20
 34
1.000000000000000E+20
 15
-1.000000000000000E+20
 25
-1.000000000000000E+20
 35
-1.000000000000000E+20
146
0.0
 13
0.0
 23
0.0
 33
0.0
 16
1.0
 26
0.0
 36
0.0
 17
0.0
 27
1.0
 37
0.0
 76
     0
330
1B
  0
LAYOUT
  5
26
102
{ACAD_REACTORS
330
1A
102
}
330
1A
100
AcDbPlotSettings
  1

  2
none_device
  4

  6

 40
0.0
 41
0.0
 42
0.0
 43
0.0
 44
0.0
 45
0.0
 46
0.0
 47
0.0
 48
0.0
 49
0.0
140
0.0
141
0.0
142
1.0
143
1.0
 70
   688
 72
     1
 73
     0
 74
     5
  7

 75
    16
147
1.0
148
0.0
149
0.0
100
AcDbLayout
  1
Layout2
 70
     1
 71
     2
 10
0.0
 20
0.0
 11
0.0
 21
0.0
 12
0.0
 22
0.0
 32
0.0
 14
0.0
 24
0.0
 34
0.0
 15
0.0
 25
0.0
 35
0.0
146
0.0
 13
0.0
 23
0.0
 33
0.0
 16
1.0
 26
0.0
 36
0.0
 17
0.0
 27
1.0
 37
0.0
 76
     0
330
23
  0
LAYOUT
  5
22
102
{ACAD_REACTORS
330
1A
102
}
330
1A
100
AcDbPlotSettings
  1

  2
none_device
  4
ANSI_A_(11.00_x_8.50_Inches)
  6

 40
6.35
 41
19.05
 42
6.35000508
 43
19.05000254
 44
279.4
 45
215.9
 46
113.4260821984323
 47
97.75873354179824
 48
0.0
 49
0.0
140
0.0
141
0.0
142
0.0737515491547073
143
1.0
 70
  1696
 72
     0
 73
     0
 74
     0
  7

 75
     0
147
0.0235690232323232
148
0.0
149
0.0
100
AcDbLayout
  1
Model
 70
     1
 71
     0
 10
0.0
 20
0.0
 11
420.0
 21
297.0
 12
0.0
 22
0.0
 32
0.0
 14
-56.745981641739
 24
-49.97180738881175
 34
0.0
 15
84.49405196486788
 25
38.57275000000007
 35
0.0
146
0.0
 13
0.0
 23
0.0
 33
0.0
 16
1.0
 26
0.0
 36
0.0
 17
0.0
 27
1.0
 37
0.0
 76
     0
330
1F
331
29
  0
MLINESTYLE
  5
18
102
{ACAD_REACTORS
330
17
102
}
330
17
100
AcDbMlineStyle
  2
Standard
 70
     0
  3

 62
   256
 51
90.0
 52
90.0
 71
     2
 49
0.5
 62
   256
  6
BYLAYER
 49
-0.5
 62
   256
  6
BYLAYER
  0
ACDBPLACEHOLDER
  5
F
102
{ACAD_REACTORS
330
E
102
}
330
E
  0
SCALE
  5
48
102
{ACAD_REACTORS
330
47
102
}
330
47
100
AcDbScale
 70
     0
300
1:1
140
1.0
141
1.0
290
     1
  0
SCALE
  5
49
102
{ACAD_REACTORS
330
47
102
}
330
47
100
AcDbScale
 70
     0
300
1:2
140
1.0
141
2.0
290
     0
  0
SCALE
  5
4A
102
{ACAD_REACTORS
330
47
102
}
330
47
100
AcDbScale
 70
     0
300
1:4
140
1.0
141
4.0
290
     0
  0
SCALE
  5
4B
102
{ACAD_REACTORS
330
47
102
}
330
47
100
AcDbScale
 70
     0
300
1:5
140
1.0
141
5.0
290
     0
  0
SCALE
  5
4C
102
{ACAD_REACTORS
330
47
102
}
330
47
100
AcDbScale
 70
     0
300
1:8
140
1.0
141
8.0
290
     0
  0
SCALE
  5
4D
102
{ACAD_REACTORS
330
47
102
}
330
47
100
AcDbScale
 70
     0
300
1:10
140
1.0
141
10.0
290
     0
  0
SCALE
  5
4E
102
{ACAD_REACTORS
330
47
102
}
330
47
100
AcDbScale
 70
     0
300
1:16
140
1.0
141
16.0
290
     0
  0
SCALE
  5
4F
102
{ACAD_REACTORS
330
47
102
}
330
47
100
AcDbScale
 70
     0
300
1:20
140
1.0
141
20.0
290
     0
  0
SCALE
  5
50
102
{ACAD_REACTORS
330
47
102
}
330
47
100
AcDbScale
 70
     0
300
1:30
140
1.0
141
30.0
290
     0
  0
SCALE
  5
51
102
{ACAD_REACTORS
330
47
102
}
330
47
100
AcDbScale
 70
     0
300
1:40
140
1.0
141
40.0
290
     0
  0
SCALE
  5
52
102
{ACAD_REACTORS
330
47
102
}
330
47
100
AcDbScale
 70
     0
300
1:50
140
1.0
141
50.0
290
     0
  0
SCALE
  5
53
102
{ACAD_REACTORS
330
47
102
}
330
47
100
AcDbScale
 70
     0
300
1:100
140
1.0
141
100.0
290
     0
  0
SCALE
  5
54
102
{ACAD_REACTORS
330
47
102
}
330
47
100
AcDbScale
 70
     0
300
2:1
140
2.0
141
1.0
290
     0
  0
SCALE
  5
55
102
{ACAD_REACTORS
330
47
102
}
330
47
100
AcDbScale
 70
     0
300
4:1
140
4.0
141
1.0
290
     0
  0
SCALE
  5
56
102
{ACAD_REACTORS
330
47
102
}
330
47
100
AcDbScale
 70
     0
300
8:1
140
8.0
141
1.0
290
     0
  0
SCALE
  5
57
102
{ACAD_REACTORS
330
47
102
}
330
47
100
AcDbScale
 70
     0
300
10:1
140
10.0
141
1.0
290
     0
  0
SCALE
  5
58
102
{ACAD_REACTORS
330
47
102
}
330
47
100
AcDbScale
 70
     0
300
100:1
140
100.0
141
1.0
290
     0
  0
SCALE
  5
59
102
{ACAD_REACTORS
330
47
102
}
330
47
100
AcDbScale
 70
     0
300
1/128" = 1'-0"
140
0.0078125
141
12.0
290
     0
  0
SCALE
  5
5A
102
{ACAD_REACTORS
330
47
102
}
330
47
100
AcDbScale
 70
     0
300
1/64" = 1'-0"
140
0.015625
141
12.0
290
     0
  0
SCALE
  5
5B
102
{ACAD_REACTORS
330
47
102
}
330
47
100
AcDbScale
 70
     0
300
1/32" = 1'-0"
140
0.03125
141
12.0
290
     0
  0
SCALE
  5
5C
102
{ACAD_REACTORS
330
47
102
}
330
47
100
AcDbScale
 70
     0
300
1/16" = 1'-0"
140
0.0625
141
12.0
290
     0
  0
SCALE
  5
5D
102
{ACAD_REACTORS
330
47
102
}
330
47
100
AcDbScale
 70
     0
300
3/32" = 1'-0"
140
0.09375
141
12.0
290
     0
  0
SCALE
  5
5E
102
{ACAD_REACTORS
330
47
102
}
330
47
100
AcDbScale
 70
     0
300
1/8" = 1'-0"
140
0.125
141
12.0
290
     0
  0
SCALE
  5
5F
102
{ACAD_REACTORS
330
47
102
}
330
47
100
AcDbScale
 70
     0
300
3/16" = 1'-0"
140
0.1875
141
12.0
290
     0
  0
SCALE
  5
60
102
{ACAD_REACTORS
330
47
102
}
330
47
100
AcDbScale
 70
     0
300
1/4" = 1'-0"
140
0.25
141
12.0
290
     0
  0
SCALE
  5
61
102
{ACAD_REACTORS
330
47
102
}
330
47
100
AcDbScale
 70
     0
300
3/8" = 1'-0"
140
0.375
141
12.0
290
     0
  0
SCALE
  5
62
102
{ACAD_REACTORS
330
47
102
}
330
47
100
AcDbScale
 70
     0
300
1/2" = 1'-0"
140
0.5
141
12.0
290
     0
  0
SCALE
  5
63
102
{ACAD_REACTORS
330
47
102
}
330
47
100
AcDbScale
 70
     0
300
3/4" = 1'-0"
140
0.75
141
12.0
290
     0
  0
SCALE
  5
64
102
{ACAD_REACTORS
330
47
102
}
330
47
100
AcDbScale
 70
     0
300
1" = 1'-0"
140
1.0
141
12.0
290
     0
  0
SCALE
  5
65
102
{ACAD_REACTORS
330
47
102
}
330
47
100
AcDbScale
 70
     0
300
1-1/2" = 1'-0"
140
1.5
141
12.0
290
     0
  0
SCALE
  5
66
102
{ACAD_REACTORS
330
47
102
}
330
47
100
AcDbScale
 70
     0
300
3" = 1'-0"
140
3.0
141
12.0
290
     0
  0
SCALE
  5
67
102
{ACAD_REACTORS
330
47
102
}
330
47
100
AcDbScale
 70
     0
300
6" = 1'-0"
140
6.0
141
12.0
290
     0
  0
SCALE
  5
68
102
{ACAD_REACTORS
330
47
102
}
330
47
100
AcDbScale
 70
     0
300
1'-0" = 1'-0"
140
12.0
141
12.0
290
     0
  0
ENDSEC
  0
EOF
