  0
SECTION
  2
HEADER
  9
$ACADVER
  1
AC1015
  9
$ACADMAINTVER
 70
     6
  9
$DWGCODEPAGE
  3
ANSI_949
  9
$INSBASE
 10
0.0
 20
0.0
 30
0.0
  9
$EXTMIN
 10
-49.36625000000006
 20
-50.28867796974447
 30
0.0
  9
$EXTMAX
 10
81.71379082238857
 20
41.99964524059784
 30
0.0
  9
$LIMMIN
 10
0.0
 20
0.0
  9
$LIMMAX
 10
420.0
 20
297.0
  9
$ORTHOMODE
 70
     0
  9
$REGENMODE
 70
     1
  9
$FILLMODE
 70
     1
  9
$QTEXTMODE
 70
     0
  9
$MIRRTEXT
 70
     1
  9
$LTSCALE
 40
1.0
  9
$ATTMODE
 70
     1
  9
$TEXTSIZE
 40
3.5
  9
$TRACEWID
 40
1.0
  9
$TEXTSTYLE
  7
Standard
  9
$CLAYER
  8
0
  9
$CELTYPE
  6
ByLayer
  9
$CECOLOR
 62
   256
  9
$CELTSCALE
 40
1.0
  9
$DISPSILH
 70
     0
  9
$DIMSCALE
 40
1.0
  9
$DIMASZ
 40
3.302
  9
$DIMEXO
 40
1.0
  9
$DIMDLI
 40
3.75
  9
$DIMRND
 40
0.0
  9
$DIMDLE
 40
0.0
  9
$DIMEXE
 40
1.0
  9
$DIMTP
 40
0.0
  9
$DIMTM
 40
0.0
  9
$DIMTXT
 40
3.5
  9
$DIMCEN
 40
2.5
  9
$DIMTSZ
 40
0.0
  9
$DIMTOL
 70
     0
  9
$DIMLIM
 70
     0
  9
$DIMTIH
 70
     1
  9
$DIMTOH
 70
     1
  9
$DIMSE1
 70
     0
  9
$DIMSE2
 70
     0
  9
$DIMTAD
 70
     1
  9
$DIMZIN
 70
     0
  9
$DIMBLK
  1

  9
$DIMASO
 70
     1
  9
$DIMSHO
 70
     1
  9
$DIMPOST
  1

  9
$DIMAPOST
  1

  9
$DIMALT
 70
     0
  9
$DIMALTD
 70
     3
  9
$DIMALTF
 40
0.0393700787401575
  9
$DIMLFAC
 40
1.0
  9
$DIMTOFL
 70
     1
  9
$DIMTVP
 40
0.0
  9
$DIMTIX
 70
     0
  9
$DIMSOXD
 70
     0
  9
$DIMSAH
 70
     0
  9
$DIMBLK1
  1

  9
$DIMBLK2
  1

  9
$DIMSTYLE
  2
ISO-25
  9
$DIMCLRD
 70
     0
  9
$DIMCLRE
 70
     0
  9
$DIMCLRT
 70
     0
  9
$DIMTFAC
 40
1.0
  9
$DIMGAP
 40
1.524
  9
$DIMJUST
 70
     0
  9
$DIMSD1
 70
     0
  9
$DIMSD2
 70
     0
  9
$DIMTOLJ
 70
     0
  9
$DIMTZIN
 70
     0
  9
$DIMALTZ
 70
     0
  9
$DIMALTTZ
 70
     0
  9
$DIMUPT
 70
     0
  9
$DIMDEC
 70
     2
  9
$DIMTDEC
 70
     2
  9
$DIMALTU
 70
     2
  9
$DIMALTTD
 70
     3
  9
$DIMTXSTY
  7
Standard
  9
$DIMAUNIT
 70
     0
  9
$DIMADEC
 70
     2
  9
$DIMALTRND
 40
0.0
  9
$DIMAZIN
 70
     0
  9
$DIMDSEP
 70
    44
  9
$DIMATFIT
 70
     3
  9
$DIMFRAC
 70
     0
  9
$DIMLDRBLK
  1

  9
$DIMLUNIT
 70
     2
  9
$DIMLWD
 70
    -2
  9
$DIMLWE
 70
    -2
  9
$DIMTMOVE
 70
     0
  9
$LUNITS
 70
     2
  9
$LUPREC
 70
     2
  9
$SKETCHINC
 40
1.0
  9
$FILLETRAD
 40
10.0
  9
$AUNITS
 70
     0
  9
$AUPREC
 70
     2
  9
$MENU
  1
.
  9
$ELEVATION
 40
0.0
  9
$PELEVATION
 40
0.0
  9
$THICKNESS
 40
0.0
  9
$LIMCHECK
 70
     0
  9
$CHAMFERA
 40
0.0
  9
$CHAMFERB
 40
0.0
  9
$CHAMFERC
 40
0.0
  9
$CHAMFERD
 40
0.0
  9
$SKPOLY
 70
     0
  9
$TDCREATE
 40
2458299.343695776
  9
$TDUCREATE
 40
2458298.968695776
  9
$TDUPDATE
 40
2458331.563206053
  9
$TDUUPDATE
 40
2458331.188206053
  9
$TDINDWG
 40
0.0008012384
  9
$TDUSRTIMER
 40
2458331.188092245
  9
$USRTIMER
 70
     1
  9
$ANGBASE
 50
0.0
  9
$ANGDIR
 70
     0
  9
$PDMODE
 70
     0
  9
$PDSIZE
 40
-1.0
  9
$PLINEWID
 40
0.0
  9
$SPLFRAME
 70
     0
  9
$SPLINETYPE
 70
     6
  9
$SPLINESEGS
 70
     8
  9
$HANDSEED
  5
27D
  9
$SURFTAB1
 70
     6
  9
$SURFTAB2
 70
     6
  9
$SURFTYPE
 70
     6
  9
$SURFU
 70
     6
  9
$SURFV
 70
     6
  9
$UCSBASE
  2

  9
$UCSNAME
  2

  9
$UCSORG
 10
0.0
 20
0.0
 30
0.0
  9
$UCSXDIR
 10
1.0
 20
0.0
 30
0.0
  9
$UCSYDIR
 10
0.0
 20
1.0
 30
0.0
  9
$UCSORTHOREF
  2

  9
$UCSORTHOVIEW
 70
     0
  9
$UCSORGTOP
 10
0.0
 20
0.0
 30
0.0
  9
$UCSORGBOTTOM
 10
0.0
 20
0.0
 30
0.0
  9
$UCSORGLEFT
 10
0.0
 20
0.0
 30
0.0
  9
$UCSORGRIGHT
 10
0.0
 20
0.0
 30
0.0
  9
$UCSORGFRONT
 10
0.0
 20
0.0
 30
0.0
  9
$UCSORGBACK
 10
0.0
 20
0.0
 30
0.0
  9
$PUCSBASE
  2

  9
$PUCSNAME
  2

  9
$PUCSORG
 10
0.0
 20
0.0
 30
0.0
  9
$PUCSXDIR
 10
1.0
 20
0.0
 30
0.0
  9
$PUCSYDIR
 10
0.0
 20
1.0
 30
0.0
  9
$PUCSORTHOREF
  2

  9
$PUCSORTHOVIEW
 70
     0
  9
$PUCSORGTOP
 10
0.0
 20
0.0
 30
0.0
  9
$PUCSORGBOTTOM
 10
0.0
 20
0.0
 30
0.0
  9
$PUCSORGLEFT
 10
0.0
 20
0.0
 30
0.0
  9
$PUCSORGRIGHT
 10
0.0
 20
0.0
 30
0.0
  9
$PUCSORGFRONT
 10
0.0
 20
0.0
 30
0.0
  9
$PUCSORGBACK
 10
0.0
 20
0.0
 30
0.0
  9
$USERI1
 70
     0
  9
$USERI2
 70
     0
  9
$USERI3
 70
     0
  9
$USERI4
 70
     0
  9
$USERI5
 70
     0
  9
$USERR1
 40
0.0
  9
$USERR2
 40
0.0
  9
$USERR3
 40
0.0
  9
$USERR4
 40
0.0
  9
$USERR5
 40
0.0
  9
$WORLDVIEW
 70
     1
  9
$SHADEDGE
 70
     3
  9
$SHADEDIF
 70
    70
  9
$TILEMODE
 70
     1
  9
$MAXACTVP
 70
    64
  9
$PINSBASE
 10
0.0
 20
0.0
 30
0.0
  9
$PLIMCHECK
 70
     0
  9
$PEXTMIN
 10
1.000000000000000E+20
 20
1.000000000000000E+20
 30
1.000000000000000E+20
  9
$PEXTMAX
 10
-1.000000000000000E+20
 20
-1.000000000000000E+20
 30
-1.000000000000000E+20
  9
$PLIMMIN
 10
0.0
 20
0.0
  9
$PLIMMAX
 10
0.0
 20
0.0
  9
$UNITMODE
 70
     0
  9
$VISRETAIN
 70
     1
  9
$PLINEGEN
 70
     0
  9
$PSLTSCALE
 70
     1
  9
$TREEDEPTH
 70
  3020
  9
$CMLSTYLE
  2
Standard
  9
$CMLJUST
 70
     0
  9
$CMLSCALE
 40
20.0
  9
$PROXYGRAPHICS
 70
     1
  9
$MEASUREMENT
 70
     1
  9
$CELWEIGHT
370
    -1
  9
$ENDCAPS
280
     0
  9
$JOINSTYLE
280
     0
  9
$LWDISPLAY
290
     1
  9
$INSUNITS
 70
     4
  9
$HYPERLINKBASE
  1

  9
$STYLESHEET
  1

  9
$XEDIT
290
     1
  9
$CEPSNTYPE
380
     0
  9
$PSTYLEMODE
290
     1
  9
$FINGERPRINTGUID
  2
{B0543242-4841-4EA6-881E-243BD7D56D9A}
  9
$VERSIONGUID
  2
{FAEB1C32-E019-11D5-929B-00C0DF256EC4}
  9
$EXTNAMES
290
     1
  9
$PSVPSCALE
 40
0.0
  9
$OLESTARTUP
290
     0
  0
ENDSEC
  0
SECTION
  2
CLASSES
  0
CLASS
  1
ACDBDICTIONARYWDFLT
  2
AcDbDictionaryWithDefault
  3
ObjectDBX Classes
 90
        0
280
     0
281
     0
  0
CLASS
  1
VISUALSTYLE
  2
AcDbVisualStyle
  3
ObjectDBX Classes
 90
     4095
280
     0
281
     0
  0
CLASS
  1
MATERIAL
  2
AcDbMaterial
  3
ObjectDBX Classes
 90
     1153
280
     0
281
     0
  0
CLASS
  1
SCALE
  2
AcDbScale
  3
ObjectDBX Classes
 90
     1153
280
     0
281
     0
  0
CLASS
  1
SUN
  2
AcDbSun
  3
SCENEOE
 90
     1153
280
     0
281
     0
  0
CLASS
  1
ACDBPLACEHOLDER
  2
AcDbPlaceHolder
  3
ObjectDBX Classes
 90
        0
280
     0
281
     0
  0
CLASS
  1
LAYOUT
  2
AcDbLayout
  3
ObjectDBX Classes
 90
        0
280
     0
281
     0
  0
CLASS
  1
TABLESTYLE
  2
AcDbTableStyle
  3
ObjectDBX Classes
 90
     4095
280
     0
281
     0
  0
CLASS
  1
MLEADERSTYLE
  2
AcDbMLeaderStyle
  3
ACDB_MLEADERSTYLE_CLASS
 90
     4095
280
     0
281
     0
  0
CLASS
  1
RASTERVARIABLES
  2
AcDbRasterVariables
  3
ISM
 90
        0
280
     0
281
     0
  0
ENDSEC
  0
SECTION
  2
TABLES
  0
TABLE
  2
VPORT
  5
8
330
0
100
AcDbSymbolTable
 70
     1
  0
VPORT
  5
29
330
8
100
AcDbSymbolTableRecord
100
AcDbViewportTableRecord
  2
*Active
 70
     0
 10
0.0
 20
0.0
 11
1.0
 21
1.0
 12
7.288365503432818
 22
-19.14503613668303
 13
0.0
 23
0.0
 14
10.0
 24
10.0
 15
10.0
 25
10.0
 16
0.0
 26
0.0
 36
1.0
 17
0.0
 27
0.0
 37
0.0
 40
134.0897266648946
 41
1.516441005802708
 42
50.0
 43
0.0
 44
0.0
 50
0.0
 51
0.0
 71
    16
 72
  2000
 73
     1
 74
     3
 75
     0
 76
     0
 77
     0
 78
     0
281
     0
 65
     1
110
0.0
120
0.0
130
0.0
111
1.0
121
0.0
131
0.0
112
0.0
122
1.0
132
0.0
 79
     0
146
0.0
  0
ENDTAB
  0
TABLE
  2
LTYPE
  5
5
330
0
100
AcDbSymbolTable
 70
     6
  0
LTYPE
  5
14
330
5
100
AcDbSymbolTableRecord
100
AcDbLinetypeTableRecord
  2
ByBlock
 70
     0
  3

 72
    65
 73
     0
 40
0.0
  0
LTYPE
  5
15
330
5
100
AcDbSymbolTableRecord
100
AcDbLinetypeTableRecord
  2
ByLayer
 70
     0
  3

 72
    65
 73
     0
 40
0.0
  0
LTYPE
  5
16
330
5
100
AcDbSymbolTableRecord
100
AcDbLinetypeTableRecord
  2
Continuous
 70
     0
  3
Solid line
 72
    65
 73
     0
 40
0.0
  0
LTYPE
  5
6A
330
5
100
AcDbSymbolTableRecord
100
AcDbLinetypeTableRecord
  2
HIDDEN
 70
     0
  3
Hidden __ __ __ __ __ __ __ __ __ __ __ __ __ __
 72
    65
 73
     2
 40
1.905
 49
1.27
 74
     0
 49
-0.635
 74
     0
  0
LTYPE
  5
6B
330
5
100
AcDbSymbolTableRecord
100
AcDbLinetypeTableRecord
  2
PHANTOM
 70
     0
  3
Phantom ______  __  __  ______  __  __  ______
 72
    65
 73
     6
 40
12.7
 49
6.35
 74
     0
 49
-1.27
 74
     0
 49
1.27
 74
     0
 49
-1.27
 74
     0
 49
1.27
 74
     0
 49
-1.27
 74
     0
  0
LTYPE
  5
6C
330
5
100
AcDbSymbolTableRecord
100
AcDbLinetypeTableRecord
  2
CENTER
 70
     0
  3
Center ____ _ ____ _ ____ _ ____ _ ____ _ ____
 72
    65
 73
     4
 40
10.16
 49
6.35
 74
     0
 49
-1.27
 74
     0
 49
1.27
 74
     0
 49
-1.27
 74
     0
  0
LTYPE
  5
6D
330
5
100
AcDbSymbolTableRecord
100
AcDbLinetypeTableRecord
  2
CENTERX2
 70
     0
  3
Center (2x) ________  __  ________  __  _____
 72
    65
 73
     4
 40
20.32
 49
12.7
 74
     0
 49
-2.54
 74
     0
 49
2.54
 74
     0
 49
-2.54
 74
     0
  0
LTYPE
  5
6E
330
5
100
AcDbSymbolTableRecord
100
AcDbLinetypeTableRecord
  2
DOT2
 70
     0
  3
Dot (.5x) ........................................
 72
    65
 73
     2
 40
0.635
 49
0.0
 74
     0
 49
-0.635
 74
     0
  0
ENDTAB
  0
TABLE
  2
LAYER
  5
2
102
{ACAD_XDICTIONARY
360
242
102
}
330
0
100
AcDbSymbolTable
 70
    18
  0
LAYER
  5
10
330
2
100
AcDbSymbolTableRecord
100
AcDbLayerTableRecord
  2
0
 70
     0
 62
     7
  6
Continuous
370
    -3
390
F
  0
LAYER
  5
6F
330
2
100
AcDbSymbolTableRecord
100
AcDbLayerTableRecord
  2
FORMAT
 70
     0
 62
     2
  6
Continuous
370
    -3
390
F
  0
LAYER
  5
70
330
2
100
AcDbSymbolTableRecord
100
AcDbLayerTableRecord
  2
외형선
 70
     0
 62
     4
  6
Continuous
370
    30
390
F
  0
LAYER
  5
71
330
2
100
AcDbSymbolTableRecord
100
AcDbLayerTableRecord
  2
숨은선
 70
     0
 62
     2
  6
HIDDEN
370
    15
390
F
  0
LAYER
  5
72
330
2
100
AcDbSymbolTableRecord
100
AcDbLayerTableRecord
  2
중심선
 70
     0
 62
     1
  6
CENTERX2
370
    -3
390
F
  0
LAYER
  5
73
330
2
100
AcDbSymbolTableRecord
100
AcDbLayerTableRecord
  2
파단선
 70
     0
 62
     4
  6
Continuous
370
    -3
390
F
  0
LAYER
  5
74
330
2
100
AcDbSymbolTableRecord
100
AcDbLayerTableRecord
  2
해칭선
 70
     0
 62
   100
  6
Continuous
370
    -3
390
F
  0
LAYER
  5
75
330
2
100
AcDbSymbolTableRecord
100
AcDbLayerTableRecord
  2
가는실선
 70
     0
 62
     4
  6
Continuous
370
    -3
390
F
  0
LAYER
  5
76
330
2
100
AcDbSymbolTableRecord
100
AcDbLayerTableRecord
  2
치수_보조선
 70
     0
 62
     4
  6
Continuous
370
    -3
390
F
  0
LAYER
  5
77
330
2
100
AcDbSymbolTableRecord
100
AcDbLayerTableRecord
  2
치수문자_일반주서
 70
     0
 62
     7
  6
Continuous
370
    15
390
F
  0
LAYER
  5
78
330
2
100
AcDbSymbolTableRecord
100
AcDbLayerTableRecord
  2
개별주서
 70
     0
 62
   100
  6
Continuous
370
    30
390
F
  0
LAYER
  5
79
330
2
100
AcDbSymbolTableRecord
100
AcDbLayerTableRecord
  2
중간선
 70
     0
 62
     2
  6
Continuous
370
    15
390
F
  0
LAYER
  5
7A
330
2
100
AcDbSymbolTableRecord
100
AcDbLayerTableRecord
  2
윤곽선
 70
     0
 62
     3
  6
Continuous
370
    40
390
F
  0
LAYER
  5
7B
330
2
100
AcDbSymbolTableRecord
100
AcDbLayerTableRecord
  2
중심마크
 70
     0
 62
   100
  6
Continuous
370
    30
390
F
  0
LAYER
  5
7C
330
2
100
AcDbSymbolTableRecord
100
AcDbLayerTableRecord
  2
가상선
 70
     0
 62
     4
  6
PHANTOM
370
    -3
390
F
  0
LAYER
  5
7D
330
2
100
AcDbSymbolTableRecord
100
AcDbLayerTableRecord
  2
특수지정선
 70
     0
 62
     5
  6
CENTERX2
370
    60
390
F
  0
LAYER
  5
7E
330
2
100
AcDbSymbolTableRecord
100
AcDbLayerTableRecord
  2
참조1
 70
     0
 62
    -4
  6
Continuous
370
    -3
390
F
  0
LAYER
  5
1EB
330
2
100
AcDbSymbolTableRecord
100
AcDbLayerTableRecord
  2
Defpoints
 70
     0
 62
     7
  6
Continuous
290
     0
370
    -3
390
F
  0
ENDTAB
  0
TABLE
  2
STYLE
  5
3
330
0
100
AcDbSymbolTable
 70
     2
  0
STYLE
  5
11
330
3
100
AcDbSymbolTableRecord
100
AcDbTextStyleTableRecord
  2
Standard
 70
     0
 40
0.0
 41
1.0
 50
0.0
 71
     0
 42
3.5
  3
txt
  4

  0
STYLE
  5
94
330
3
100
AcDbSymbolTableRecord
100
AcDbTextStyleTableRecord
  2
SLDTEXTSTYLE0
 70
     0
 40
0.0
 41
0.75
 50
0.0
 71
     0
 42
3.5
  3
TXT
  4

  0
ENDTAB
  0
TABLE
  2
VIEW
  5
6
330
0
100
AcDbSymbolTable
 70
     0
  0
ENDTAB
  0
TABLE
  2
UCS
  5
7
330
0
100
AcDbSymbolTable
 70
     0
  0
ENDTAB
  0
TABLE
  2
APPID
  5
9
330
0
100
AcDbSymbolTable
 70
     1
  0
APPID
  5
12
330
9
100
AcDbSymbolTableRecord
100
AcDbRegAppTableRecord
  2
ACAD
 70
     0
  0
ENDTAB
  0
TABLE
  2
DIMSTYLE
  5
A
330
0
100
AcDbSymbolTable
 70
     4
100
AcDbDimStyleTable
  0
DIMSTYLE
105
27
330
A
100
AcDbSymbolTableRecord
100
AcDbDimStyleTableRecord
  2
ISO-25
 70
     0
 41
2.5
 42
0.625
 43
3.75
 44
1.25
 73
     0
 74
     0
 77
     1
 78
     8
140
2.5
141
2.5
143
0.03937007874016
147
0.625
171
     3
172
     1
178
     0
271
     2
272
     2
274
     3
278
    44
283
     0
284
     8
340
11
  0
DIMSTYLE
105
16A
102
{ACAD_REACTORS
330
169
330
191
102
}
330
A
100
AcDbSymbolTableRecord
100
AcDbDimStyleTableRecord
  2
SLDDIMSTYLE0
 70
     0
 41
3.302
 44
0.0
 45
0.000000001
 73
     0
 74
     0
 77
     1
 78
    12
 79
     3
140
3.5
143
0.0393700787401575
147
0.875
148
0.000000001
170
     1
173
     1
178
     0
271
     2
272
     2
276
     2
284
    12
340
94
  0
DIMSTYLE
105
17D
102
{ACAD_REACTORS
330
17C
102
}
330
A
100
AcDbSymbolTableRecord
100
AcDbDimStyleTableRecord
  2
SLDDIMSTYLE1
 70
     0
 41
3.302
 44
0.0
 45
0.000000001
 73
     0
 74
     0
 77
     1
 78
    12
 79
     3
140
3.5
143
0.0393700787401575
147
0.875
148
0.000000001
170
     1
172
     1
173
     1
178
     0
271
     2
272
     2
276
     2
284
    12
289
     0
340
94
  0
DIMSTYLE
105
1A6
102
{ACAD_REACTORS
330
1A5
102
}
330
A
100
AcDbSymbolTableRecord
100
AcDbDimStyleTableRecord
  2
SLDDIMSTYLE2
 70
     0
 41
3.302
 44
0.0
 45
0.000000001
 73
     0
 74
     0
 77
     1
 78
     4
 79
     1
140
3.5
143
0.0393700787401575
147
0.875
148
0.000000001
170
     1
173
     1
178
     0
271
     2
272
     2
276
     2
284
    12
340
94
  0
ENDTAB
  0
TABLE
  2
BLOCK_RECORD
  5
1
330
0
100
AcDbSymbolTable
 70
     7
  0
BLOCK_RECORD
  5
1F
330
1
100
AcDbSymbolTableRecord
100
AcDbBlockTableRecord
  2
*Model_Space
340
22
  0
BLOCK_RECORD
  5
1B
330
1
100
AcDbSymbolTableRecord
100
AcDbBlockTableRecord
  2
*Paper_Space
340
1E
  0
BLOCK_RECORD
  5
23
330
1
100
AcDbSymbolTableRecord
100
AcDbBlockTableRecord
  2
*Paper_Space0
340
26
  0
BLOCK_RECORD
  5
7F
330
1
100
AcDbSymbolTableRecord
100
AcDbBlockTableRecord
  2
블럭10
340
0
102
{BLKREFS
331
161
102
}
  0
BLOCK_RECORD
  5
16B
330
1
100
AcDbSymbolTableRecord
100
AcDbBlockTableRecord
  2
_D
340
0
  0
BLOCK_RECORD
  5
17E
330
1
100
AcDbSymbolTableRecord
100
AcDbBlockTableRecord
  2
_D_1
340
0
  0
BLOCK_RECORD
  5
192
330
1
100
AcDbSymbolTableRecord
100
AcDbBlockTableRecord
  2
_D_2
340
0
  0
BLOCK_RECORD
  5
1A7
330
1
100
AcDbSymbolTableRecord
100
AcDbBlockTableRecord
  2
_D_3
340
0
  0
BLOCK_RECORD
  5
1C0
330
1
100
AcDbSymbolTableRecord
100
AcDbBlockTableRecord
  2
SW_DOWELSYMBOL_0
340
0
102
{BLKREFS
331
1C6
102
}
  0
ENDTAB
  0
ENDSEC
  0
SECTION
  2
BLOCKS
  0
BLOCK
  5
20
330
1F
100
AcDbEntity
  8
0
100
AcDbBlockBegin
  2
*Model_Space
 70
     0
 10
0.0
 20
0.0
 30
0.0
  3
*Model_Space
  1
*Model_Space
  0
ENDBLK
  5
21
330
1F
100
AcDbEntity
  8
0
100
AcDbBlockEnd
  0
BLOCK
  5
1C
330
1B
100
AcDbEntity
 67
     1
  8
0
100
AcDbBlockBegin
  2
*Paper_Space
 70
     0
 10
0.0
 20
0.0
 30
0.0
  3
*Paper_Space
  1
*Paper_Space
  0
ENDBLK
  5
1D
330
1B
100
AcDbEntity
 67
     1
  8
0
100
AcDbBlockEnd
  0
BLOCK
  5
24
330
23
100
AcDbEntity
  8
0
100
AcDbBlockBegin
  2
*Paper_Space0
 70
     0
 10
0.0
 20
0.0
 30
0.0
  3
*Paper_Space0
  1
*Paper_Space0
  0
ENDBLK
  5
25
330
23
100
AcDbEntity
  8
0
100
AcDbBlockEnd
  0
BLOCK
  5
80
330
7F
100
AcDbEntity
  8
0
100
AcDbBlockBegin
  2
블럭10
 70
     2
 10
0.0
 20
0.0
 30
0.0
  3
블럭10
  1
블럭10
  0
ELLIPSE
  5
82
330
7F
100
AcDbEntity
  8
중심선
100
AcDbEllipse
 10
20.54032771741204
 20
12.0471743016438
 30
0.0
 11
6.600054785286829
 21
-1.261213355974178E-13
 31
0.0
210
0.0
220
0.0
230
1.0
 40
0.636358354079598
 41
0.9219305317359503
 42
6.513795318482858
  0
ELLIPSE
  5
83
330
7F
100
AcDbEntity
  8
중심선
100
AcDbEllipse
 10
20.54032771746488
 20
12.04717430159265
 30
0.0
 11
3.960054785062283
 21
1.540847449632565E-10
 31
0.0
210
0.0
220
0.0
230
1.0
 40
0.3939339440162632
 41
1.131841032648279
 42
5.62031148352944
  0
LINE
  5
84
330
7F
100
AcDbEntity
  8
중심선
100
AcDbLine
 10
2.268634060543552
 20
16.24717430164393
 30
0.0
 11
5.714909304380834
 21
16.24717430164393
 31
0.0
  0
LINE
  5
85
330
7F
100
AcDbEntity
  8
중심선
100
AcDbLine
 10
5.245725140726316
 20
7.84717430164391
 30
0.0
 11
8.692000384563599
 21
7.84717430164391
 31
0.0
  0
LINE
  5
86
330
7F
100
AcDbEntity
  8
중심선
100
AcDbLine
 10
15.74043728645272
 20
16.24717430164393
 30
0.0
 11
8.692000384563599
 21
7.84717430164391
 31
0.0
  0
LINE
  5
87
330
7F
100
AcDbEntity
  8
중심선
100
AcDbLine
 10
0.1404042013395286
 20
13.71084872107135
 30
0.0
 11
3.58671253028996
 21
13.71088815037384
 31
0.0
  0
LINE
  5
88
330
7F
100
AcDbEntity
  8
중심선
100
AcDbLine
 10
2.750260043222114
 20
10.84717430164391
 30
0.0
 11
6.196535287059397
 21
10.84717430164391
 31
0.0
  0
LINE
  5
89
330
7F
100
AcDbEntity
  8
중심선
100
AcDbLine
 10
12.29416204261559
 20
16.24717430164393
 30
0.0
 11
5.245725140726316
 21
7.84717430164391
 31
0.0
  0
LINE
  5
8A
330
7F
100
AcDbEntity
  8
중심선
100
AcDbLine
 10
10.72767329541681
 20
16.24717430164393
 30
0.0
 11
6.196535287059397
 21
10.84717430164391
 31
0.0
  0
LINE
  5
8B
330
7F
100
AcDbEntity
  8
중심선
100
AcDbLine
 10
7.28139805157953
 20
16.24717430164393
 30
0.0
 11
2.750260043222114
 21
10.84717430164391
 31
0.0
  0
LINE
  5
8C
330
7F
100
AcDbEntity
  8
중심선
100
AcDbLine
 10
5.714909304380834
 20
16.24717430164393
 30
0.0
 11
3.58671253028996
 21
13.71088815037384
 31
0.0
  0
LINE
  5
8D
330
7F
100
AcDbEntity
  8
중심선
100
AcDbLine
 10
2.268634060543552
 20
16.24717430164393
 30
0.0
 11
0.1404042013395286
 21
13.71084872107135
 31
0.0
  0
LINE
  5
8E
330
7F
100
AcDbEntity
  8
중심선
100
AcDbLine
 10
7.28139805157953
 20
16.24717430164393
 30
0.0
 11
10.72767329541681
 21
16.24717430164393
 31
0.0
  0
LINE
  5
8F
330
7F
100
AcDbEntity
  8
중심선
100
AcDbLine
 10
12.29416204261559
 20
16.24717430164393
 30
0.0
 11
15.74043728645272
 21
16.24717430164393
 31
0.0
  0
LINE
  5
90
330
7F
100
AcDbEntity
  8
중심선
100
AcDbLine
 10
19.22036997980202
 20
11.08717430171403
 30
0.0
 11
23.66174974927406
 21
11.08717430171406
 31
0.0
  0
LINE
  5
91
330
7F
100
AcDbEntity
  8
중심선
100
AcDbLine
 10
19.22039502424796
 20
13.00717430171391
 30
0.0
 11
19.22036997980202
 21
11.08717430171403
 31
0.0
  0
LINE
  5
92
330
7F
100
AcDbEntity
  8
중심선
100
AcDbLine
 10
19.22039502424796
 20
13.00717430171391
 30
0.0
 11
26.96566020931264
 21
13.00717430171391
 31
0.0
  0
LINE
  5
93
330
7F
100
AcDbEntity
  8
중심선
100
AcDbLine
 10
22.22332737316547
 20
13.45928029700563
 30
0.0
 11
24.52862924686651
 21
15.39360700705356
 31
0.0
  0
ATTDEF
  5
95
330
7F
100
AcDbEntity
  8
FORMAT
 62
     2
100
AcDbText
 10
-9.522313950597932
 20
2.075366912832191
 30
0.0
 40
4.233333333333333
  1
EH094024 [ 3 FLUTE ]
 41
0.75
  7
SLDTEXTSTYLE0
 11
-9.522313950597932
 21
-0.0412997538344756
 31
0.0
100
AcDbAttributeDefinition
  3

  2
AUTOATTR0
 70
     0
 74
     1
  0
ENDBLK
  5
81
330
7F
100
AcDbEntity
  8
0
100
AcDbBlockEnd
  0
BLOCK
  5
16C
330
16B
100
AcDbEntity
  8
0
100
AcDbBlockBegin
  2
_D
 70
     0
 10
0.0
 20
0.0
 30
0.0
  3
_D
  1
_D
  0
LINE
  5
16E
330
16B
100
AcDbEntity
  8
치수문자_일반주서
 62
     0
370
    -2
100
AcDbLine
 10
19.5875
 20
4.762499999999999
 30
0.0
 11
41.55751004574685
 21
4.762500000000081
 31
0.0
  0
LINE
  5
16F
330
16B
100
AcDbEntity
  8
치수문자_일반주서
 62
     0
370
    -2
100
AcDbLine
 10
19.5875
 20
-4.762499999999999
 30
0.0
 11
41.55751004574689
 21
-4.762499999999918
 31
0.0
  0
LINE
  5
170
330
16B
100
AcDbEntity
  8
치수문자_일반주서
 62
     0
370
    -2
100
AcDbLine
 10
41.55751004574685
 20
4.762500000000081
 30
0.0
 11
41.55751004574674
 21
34.53325000000014
 31
0.0
  0
LINE
  5
171
330
16B
100
AcDbEntity
  8
치수문자_일반주서
 62
     0
370
    -2
100
AcDbLine
 10
41.55751004574687
 20
1.460500000000081
 30
0.0
 11
41.55751004574687
 21
-1.460499999999918
 31
0.0
  0
SOLID
  5
172
330
16B
100
AcDbEntity
  8
치수문자_일반주서
 62
     0
100
AcDbTrace
 10
42.1078433790802
 20
1.460500000000083
 30
0.0
 11
41.00717671241353
 21
1.460500000000079
 31
0.0
 12
41.55751004574685
 22
4.762500000000081
 32
0.0
 13
41.55751004574685
 23
4.762500000000081
 33
0.0
  0
SOLID
  5
173
330
16B
100
AcDbEntity
  8
치수문자_일반주서
 62
     0
100
AcDbTrace
 10
41.00717671241354
 20
-1.46049999999992
 30
0.0
 11
42.10784337908021
 21
-1.460499999999916
 31
0.0
 12
41.55751004574689
 22
-4.762499999999918
 32
0.0
 13
41.55751004574689
 23
-4.762499999999918
 33
0.0
  0
MTEXT
  5
174
330
16B
100
AcDbEntity
  8
치수문자_일반주서
 62
     0
100
AcDbMText
 10
37.18251004574679
 20
21.40825000000012
 30
0.0
 40
3.5
 41
0.0
 71
     2
 72
     1
  1
\A1;%%c9.53 [3/8]
  7
SLDTEXTSTYLE0
 11
-3.729883127349608E-15
 21
1.0
 31
0.0
 73
     1
 44
1.0
  0
POINT
  5
175
330
16B
100
AcDbEntity
  8
Defpoints
 62
     0
100
AcDbPoint
 10
19.525
 20
4.762499999999999
 30
0.0
  0
POINT
  5
176
330
16B
100
AcDbEntity
  8
Defpoints
 62
     0
100
AcDbPoint
 10
19.525
 20
-4.762499999999999
 30
0.0
  0
POINT
  5
177
330
16B
100
AcDbEntity
  8
Defpoints
 62
     0
100
AcDbPoint
 10
41.55751004574689
 20
-4.762499999999917
 30
0.0
  0
ENDBLK
  5
16D
330
16B
100
AcDbEntity
  8
0
100
AcDbBlockEnd
  0
BLOCK
  5
17F
330
17E
100
AcDbEntity
  8
0
100
AcDbBlockBegin
  2
_D_1
 70
     0
 10
0.0
 20
0.0
 30
0.0
  3
_D_1
  1
_D_1
  0
LINE
  5
181
330
17E
100
AcDbEntity
  8
치수문자_일반주서
 62
     0
370
    -2
100
AcDbLine
 10
-34.24374999999999
 20
4.762499999999988
 30
0.0
 11
-44.99125000000004
 21
4.762499999999946
 31
0.0
  0
LINE
  5
182
330
17E
100
AcDbEntity
  8
치수문자_일반주서
 62
     0
370
    -2
100
AcDbLine
 10
-34.24374999999999
 20
-4.762500000000018
 30
0.0
 11
-44.99125
 21
-4.76250000000006
 31
0.0
  0
LINE
  5
183
330
17E
100
AcDbEntity
  8
치수문자_일반주서
 62
     0
370
    -2
100
AcDbLine
 10
-44.99125000000002
 20
1.460499999999946
 30
0.0
 11
-44.99125000000002
 21
-1.46050000000006
 31
0.0
  0
SOLID
  5
184
330
17E
100
AcDbEntity
  8
치수문자_일반주서
 62
     0
100
AcDbTrace
 10
-44.44091666666669
 20
1.460499999999948
 30
0.0
 11
-45.54158333333336
 21
1.460499999999944
 31
0.0
 12
-44.99125000000004
 22
4.762499999999946
 32
0.0
 13
-44.99125000000004
 23
4.762499999999946
 33
0.0
  0
SOLID
  5
185
330
17E
100
AcDbEntity
  8
치수문자_일반주서
 62
     0
100
AcDbTrace
 10
-45.54158333333335
 20
-1.460500000000062
 30
0.0
 11
-44.44091666666668
 21
-1.460500000000058
 31
0.0
 12
-44.99125
 22
-4.76250000000006
 32
0.0
 13
-44.99125
 23
-4.76250000000006
 33
0.0
  0
MTEXT
  5
186
330
17E
100
AcDbEntity
  8
치수문자_일반주서
 62
     0
100
AcDbMText
 10
-49.36625000000002
 20
-0.7630082607154907
 30
0.0
 40
3.5
 41
0.0
 71
     2
 72
     1
  1
\A1;%%c9.53 [3/8]
  7
SLDTEXTSTYLE0
 11
-3.729883127349606E-15
 21
1.0
 31
0.0
 73
     1
 44
1.0
  0
POINT
  5
187
330
17E
100
AcDbEntity
  8
Defpoints
 62
     0
100
AcDbPoint
 10
-34.18124999999999
 20
4.762499999999988
 30
0.0
  0
POINT
  5
188
330
17E
100
AcDbEntity
  8
Defpoints
 62
     0
100
AcDbPoint
 10
-34.18124999999999
 20
-4.762500000000018
 30
0.0
  0
POINT
  5
189
330
17E
100
AcDbEntity
  8
Defpoints
 62
     0
100
AcDbPoint
 10
-44.99125
 20
-4.762500000000058
 30
0.0
  0
ENDBLK
  5
180
330
17E
100
AcDbEntity
  8
0
100
AcDbBlockEnd
  0
BLOCK
  5
193
330
192
100
AcDbEntity
  8
0
100
AcDbBlockBegin
  2
_D_2
 70
     0
 10
0.0
 20
0.0
 30
0.0
  3
_D_2
  1
_D_2
  0
LINE
  5
195
330
192
100
AcDbEntity
  8
치수문자_일반주서
 62
     0
370
    -2
100
AcDbLine
 10
19.525
 20
3.146237631391744
 30
0.0
 11
19.525
 21
20.41145279401989
 31
0.0
  0
LINE
  5
196
330
192
100
AcDbEntity
  8
치수문자_일반주서
 62
     0
370
    -2
100
AcDbLine
 10
10.0
 20
4.824999999999999
 30
0.0
 11
10.0
 21
20.41145279401989
 31
0.0
  0
LINE
  5
197
330
192
100
AcDbEntity
  8
치수문자_일반주서
 62
     0
370
    -2
100
AcDbLine
 10
16.223
 20
20.41145279401989
 30
0.0
 11
13.302
 21
20.41145279401989
 31
0.0
  0
SOLID
  5
198
330
192
100
AcDbEntity
  8
치수문자_일반주서
 62
     0
100
AcDbTrace
 10
16.223
 20
19.86111946068656
 30
0.0
 11
16.223
 21
20.96178612735323
 31
0.0
 12
19.525
 22
20.41145279401989
 32
0.0
 13
19.525
 23
20.41145279401989
 33
0.0
  0
SOLID
  5
199
330
192
100
AcDbEntity
  8
치수문자_일반주서
 62
     0
100
AcDbTrace
 10
13.302
 20
20.96178612735323
 30
0.0
 11
13.302
 21
19.86111946068656
 31
0.0
 12
10.0
 22
20.41145279401989
 32
0.0
 13
10.0
 23
20.41145279401989
 33
0.0
  0
MTEXT
  5
19A
330
192
100
AcDbEntity
  8
치수문자_일반주서
 62
     0
100
AcDbMText
 10
12.38125
 20
24.78645279401989
 30
0.0
 40
3.5
 41
0.0
 71
     2
 72
     1
  1
\A1;9.53 [3/8]
  7
SLDTEXTSTYLE0
 73
     1
 44
1.0
  0
POINT
  5
19B
330
192
100
AcDbEntity
  8
Defpoints
 62
     0
100
AcDbPoint
 10
19.525
 20
3.083737631391744
 30
0.0
  0
POINT
  5
19C
330
192
100
AcDbEntity
  8
Defpoints
 62
     0
100
AcDbPoint
 10
10.0
 20
4.762499999999999
 30
0.0
  0
POINT
  5
19D
330
192
100
AcDbEntity
  8
Defpoints
 62
     0
100
AcDbPoint
 10
10.0
 20
20.41145279401989
 30
0.0
  0
ENDBLK
  5
194
330
192
100
AcDbEntity
  8
0
100
AcDbBlockEnd
  0
BLOCK
  5
1A8
330
1A7
100
AcDbEntity
  8
0
100
AcDbBlockBegin
  2
_D_3
 70
     0
 10
0.0
 20
0.0
 30
0.0
  3
_D_3
  1
_D_3
  0
LINE
  5
1AA
330
1A7
100
AcDbEntity
  8
치수문자_일반주서
 62
     0
370
    -2
100
AcDbLine
 10
19.525
 20
3.689765076973849
 30
0.0
 11
19.525
 21
37.62464524059784
 31
0.0
  0
LINE
  5
1AB
330
1A7
100
AcDbEntity
  8
치수문자_일반주서
 62
     0
370
    -2
100
AcDbLine
 10
-35.24375000000001
 20
3.824999999999988
 30
0.0
 11
-35.24375000000001
 21
37.62464524059784
 31
0.0
  0
LINE
  5
1AC
330
1A7
100
AcDbEntity
  8
치수문자_일반주서
 62
     0
370
    -2
100
AcDbLine
 10
16.223
 20
37.62464524059784
 30
0.0
 11
-31.94175000000001
 21
37.62464524059784
 31
0.0
  0
SOLID
  5
1AD
330
1A7
100
AcDbEntity
  8
치수문자_일반주서
 62
     0
100
AcDbTrace
 10
16.223
 20
37.0743119072645
 30
0.0
 11
16.223
 21
38.17497857393117
 31
0.0
 12
19.525
 22
37.62464524059784
 32
0.0
 13
19.525
 23
37.62464524059784
 33
0.0
  0
SOLID
  5
1AE
330
1A7
100
AcDbEntity
  8
치수문자_일반주서
 62
     0
100
AcDbTrace
 10
-31.94175000000001
 20
38.17497857393117
 30
0.0
 11
-31.94175000000001
 21
37.0743119072645
 31
0.0
 12
-35.24375000000001
 22
37.62464524059784
 32
0.0
 13
-35.24375000000001
 23
37.62464524059784
 33
0.0
  0
MTEXT
  5
1AF
330
1A7
100
AcDbEntity
  8
치수문자_일반주서
 62
     0
100
AcDbMText
 10
-7.859375000000007
 20
41.99964524059784
 30
0.0
 40
3.5
 41
0.0
 71
     2
 72
     1
  1
\A1;54.77 [2 5/32]
  7
SLDTEXTSTYLE0
 73
     1
 44
1.0
  0
POINT
  5
1B0
330
1A7
100
AcDbEntity
  8
Defpoints
 62
     0
100
AcDbPoint
 10
19.525
 20
3.627265076973849
 30
0.0
  0
POINT
  5
1B1
330
1A7
100
AcDbEntity
  8
Defpoints
 62
     0
100
AcDbPoint
 10
-35.24375000000001
 20
3.762499999999988
 30
0.0
  0
POINT
  5
1B2
330
1A7
100
AcDbEntity
  8
Defpoints
 62
     0
100
AcDbPoint
 10
-35.24375000000001
 20
37.62464524059784
 30
0.0
  0
ENDBLK
  5
1A9
330
1A7
100
AcDbEntity
  8
0
100
AcDbBlockEnd
  0
BLOCK
  5
1C1
330
1C0
100
AcDbEntity
  8
0
100
AcDbBlockBegin
  2
SW_DOWELSYMBOL_0
 70
     0
 10
0.0
 20
0.0
 30
0.0
  3
SW_DOWELSYMBOL_0
  1
SW_DOWELSYMBOL_0
  0
CIRCLE
  5
1C3
330
1C0
100
AcDbEntity
  8
해칭선
 62
     0
100
AcDbCircle
 10
0.0
 20
0.0
 30
0.0
 40
3.000000000000004
  0
HATCH
  5
1C4
330
1C0
100
AcDbEntity
  8
0
  6
Continuous
 62
     0
370
     0
100
AcDbHatch
 10
0.0
 20
0.0
 30
0.0
210
0.0
220
0.0
230
1.0
  2
SOLID
 70
     1
 71
     0
 91
        1
 92
        0
 93
        3
 72
     2
 10
0.0000000000000104
 20
-0.0000000000000035
 40
3.000000000000004
 50
0.0
 51
90.0
 73
     1
 72
     1
 10
0.0000000000000104
 20
3.000000000000001
 11
0.0000000000000104
 21
-0.0000000000000036
 72
     1
 10
0.0000000000000104
 20
-0.0000000000000035
 11
3.000000000000015
 21
-0.0000000000000035
 97
        0
 75
     0
 76
     1
 98
        1
 10
0.0
 20
0.0
  0
HATCH
  5
1C5
330
1C0
100
AcDbEntity
  8
0
  6
Continuous
 62
     0
370
     0
100
AcDbHatch
 10
0.0
 20
0.0
 30
0.0
210
0.0
220
0.0
230
1.0
  2
SOLID
 70
     1
 71
     0
 91
        1
 92
        0
 93
        3
 72
     2
 10
0.0000000000000104
 20
-0.0000000000000035
 40
3.000000000000004
 50
180.0
 51
270.0000000000007
 73
     1
 72
     1
 10
0.0000000000000104
 20
-3.000000000000008
 11
0.0000000000000104
 21
-0.0000000000000036
 72
     1
 10
0.0000000000000104
 20
-0.0000000000000035
 11
-2.999999999999994
 21
-0.0000000000000035
 97
        0
 75
     0
 76
     1
 98
        1
 10
0.0
 20
0.0
  0
ENDBLK
  5
1C2
330
1C0
100
AcDbEntity
  8
0
100
AcDbBlockEnd
  0
ENDSEC
  0
SECTION
  2
ENTITIES
  0
LINE
  5
96
330
1F
100
AcDbEntity
  8
외형선
  6
Continuous
370
    15
100
AcDbLine
 10
10.0
 20
4.762499999999996
 30
0.0
 11
-10.56129999999989
 21
4.762499999999993
 31
0.0
  0
LINE
  5
97
330
1F
100
AcDbEntity
  8
외형선
  6
Continuous
370
    15
100
AcDbLine
 10
-34.24374999999999
 20
-4.762500000000011
 30
0.0
 11
10.0
 21
-4.762500000000005
 31
0.0
  0
LINE
  5
98
330
1F
100
AcDbEntity
  8
외형선
  6
Continuous
370
    15
100
AcDbLine
 10
-34.24374999999999
 20
4.762499999999988
 30
0.0
 11
-35.24375000000001
 21
3.762499999999988
 31
0.0
  0
LINE
  5
99
330
1F
100
AcDbEntity
  8
외형선
  6
Continuous
370
    15
100
AcDbLine
 10
-35.24375000000001
 20
-3.762500000000011
 30
0.0
 11
-34.24374999999999
 21
-4.762500000000013
 31
0.0
  0
LINE
  5
9A
330
1F
100
AcDbEntity
  8
외형선
  6
Continuous
 62
     1
370
    15
100
AcDbLine
 10
15.92280657671865
 20
-0.7082191744203472
 30
0.0
 11
15.80461034014101
 21
-0.6413784740814066
 31
0.0
  0
SPLINE
  5
9D
330
1F
100
AcDbEntity
  8
외형선
  6
Continuous
 62
     1
370
    15
100
AcDbSpline
210
0.0
220
0.0
230
1.0
 70
     8
 71
     3
 72
    11
 73
     7
 74
     0
 42
0.000000001
 43
0.00000001
 40
0.0
 40
0.0
 40
0.0
 40
0.0
 40
0.2440153330753486
 40
0.4999875730589091
 40
0.755964630627739
 40
1.0
 40
1.0
 40
1.0
 40
1.0
 10
10.20538447631715
 20
-4.706138402407992
 30
0.0
 10
10.2494996687209
 20
-4.67613477935386
 30
0.0
 10
10.33989172608465
 20
-4.614657336585226
 30
0.0
 10
10.50627569864934
 20
-4.585384717002061
 30
0.0
 10
10.67265805311576
 20
-4.608173555639799
 30
0.0
 10
10.76303224510352
 20
-4.664805098196719
 30
0.0
 10
10.80714014749781
 20
-4.692444610059544
 30
0.0
  0
SPLINE
  5
9F
330
1F
100
AcDbEntity
  8
외형선
  6
Continuous
 62
     1
370
    15
100
AcDbSpline
210
0.0
220
0.0
230
1.0
 70
     8
 71
     3
 72
     9
 73
     5
 74
     0
 42
0.000000001
 43
0.00000001
 40
0.0
 40
0.0
 40
0.0
 40
0.0
 40
0.4985554915106001
 40
1.0
 40
1.0
 40
1.0
 40
1.0
 10
10.81705200130251
 20
-4.702406029819875
 30
0.0
 10
10.84335421444538
 20
-4.71967459657946
 30
0.0
 10
10.89611105614251
 20
-4.754311797560358
 30
0.0
 10
10.95729305178102
 20
-4.759758743827028
 30
0.0
 10
10.98797242751237
 20
-4.762490085120486
 30
0.0
  0
LINE
  5
A0
330
1F
100
AcDbEntity
  8
외형선
  6
Continuous
 62
     1
370
    15
100
AcDbLine
 10
10.98847363445679
 20
-4.762500000000006
 30
0.0
 11
12.06234449804486
 21
-4.762500000000006
 31
0.0
  0
SPLINE
  5
A3
330
1F
100
AcDbEntity
  8
외형선
  6
Continuous
 62
     1
370
    15
100
AcDbSpline
210
0.0
220
0.0
230
1.0
 70
     8
 71
     3
 72
     9
 73
     5
 74
     0
 42
0.000000001
 43
0.00000001
 40
0.0
 40
0.0
 40
0.0
 40
0.0
 40
0.5021232391725741
 40
1.0
 40
1.0
 40
1.0
 40
1.0
 10
12.06257142130827
 20
-4.76249999668684
 30
0.0
 10
12.0933036168104
 20
-4.759847678485848
 30
0.0
 10
12.15450810428397
 20
-4.754565472855688
 30
0.0
 10
12.20742875748465
 20
-4.719863218756341
 30
0.0
 10
12.23377672088107
 20
-4.70258577289195
 30
0.0
  0
SPLINE
  5
A4
330
1F
100
AcDbEntity
  8
외형선
  6
Continuous
 62
     1
370
    15
100
AcDbSpline
210
0.0
220
0.0
230
1.0
 70
     8
 71
     3
 72
    11
 73
     7
 74
     0
 42
0.000000001
 43
0.00000001
 40
0.0
 40
0.0
 40
0.0
 40
0.0
 40
0.2080640419484749
 40
0.446966460370972
 40
0.7138447390245498
 40
0.9999999999999999
 40
0.9999999999999999
 40
0.9999999999999999
 40
0.9999999999999999
 10
12.23691033598948
 20
-4.699898812145236
 30
0.0
 10
12.26975393721931
 20
-4.678134774120112
 30
0.0
 10
12.34030908000161
 20
-4.631380923967197
 30
0.0
 10
12.48920206925419
 20
-4.595082804902967
 30
0.0
 10
12.66581769089457
 20
-4.608955727877182
 30
0.0
 10
12.76495344946512
 20
-4.670116849842525
 30
0.0
 10
12.81624910665941
 20
-4.701763351480172
 30
0.0
  0
SPLINE
  5
A5
330
1F
100
AcDbEntity
  8
외형선
  6
Continuous
 62
     1
370
    15
100
AcDbSpline
210
0.0
220
0.0
230
1.0
 70
     8
 71
     3
 72
     9
 73
     5
 74
     0
 42
0.000000001
 43
0.00000001
 40
0.0
 40
0.0
 40
0.0
 40
0.0
 40
0.4985633009861354
 40
1.0
 40
1.0
 40
1.0
 40
1.0
 10
12.81704086754207
 20
-4.702397316210674
 30
0.0
 10
12.84345589237
 20
-4.7197343897479
 30
0.0
 10
12.89643818123016
 20
-4.754508456557335
 30
0.0
 10
12.95784302480155
 20
-4.759831053394232
 30
0.0
 10
12.98863366686544
 20
-4.762499998782308
 30
0.0
  0
LINE
  5
A6
330
1F
100
AcDbEntity
  8
외형선
  6
Continuous
 62
     1
370
    15
100
AcDbLine
 10
12.98862236945341
 20
-4.762500000000006
 30
0.0
 11
14.06245951903378
 21
-4.762500000000006
 31
0.0
  0
SPLINE
  5
A7
330
1F
100
AcDbEntity
  8
외형선
  6
Continuous
 62
     1
370
    15
100
AcDbSpline
210
0.0
220
0.0
230
1.0
 70
     8
 71
     3
 72
     9
 73
     5
 74
     0
 42
0.000000001
 43
0.00000001
 40
0.0
 40
0.0
 40
0.0
 40
0.0
 40
0.5021231499981732
 40
1.0
 40
1.0
 40
1.0
 40
1.0
 10
14.06257792142454
 20
-4.762499992103725
 30
0.0
 10
14.09330971302837
 20
-4.759846899625084
 30
0.0
 10
14.1545134069906
 20
-4.754563151049362
 30
0.0
 10
14.20743323614104
 20
-4.71986031819563
 30
0.0
 10
14.2337807939811
 20
-4.702582581088274
 30
0.0
  0
SPLINE
  5
A8
330
1F
100
AcDbEntity
  8
외형선
  6
Continuous
 62
     1
370
    15
100
AcDbSpline
210
0.0
220
0.0
230
1.0
 70
     8
 71
     3
 72
    11
 73
     7
 74
     0
 42
0.000000001
 43
0.00000001
 40
0.0
 40
0.0
 40
0.0
 40
0.0
 40
0.2450438954141269
 40
0.4998942731562089
 40
0.7547909839897298
 40
0.9999999999999999
 40
0.9999999999999999
 40
0.9999999999999999
 40
0.9999999999999999
 10
14.23016877964501
 20
-4.705106875987214
 30
0.0
 10
14.27346088183644
 20
-4.67693577962808
 30
0.0
 10
14.36177760534353
 20
-4.619466199679297
 30
0.0
 10
14.52685063098284
 20
-4.593627880240607
 30
0.0
 10
14.69191653038504
 20
-4.620139584780492
 30
0.0
 10
14.78014126852412
 20
-4.678062702261176
 30
0.0
 10
14.82339912394477
 20
-4.706463238146505
 30
0.0
  0
SPLINE
  5
A9
330
1F
100
AcDbEntity
  8
외형선
  6
Continuous
 62
     1
370
    15
100
AcDbSpline
210
0.0
220
0.0
230
1.0
 70
     8
 71
     3
 72
     9
 73
     5
 74
     0
 42
0.000000001
 43
0.00000001
 40
0.0
 40
0.0
 40
0.0
 40
0.0
 40
0.4985883877980591
 40
1.0
 40
1.0
 40
1.0
 40
1.0
 10
14.8201746489915
 20
-4.704629398213233
 30
0.0
 10
14.84576873286088
 20
-4.721171964690528
 30
0.0
 10
14.89710182543934
 20
-4.75435076885473
 30
0.0
 10
14.95689859309086
 20
-4.759731487512339
 30
0.0
 10
14.98688138676347
 20
-4.762429442329258
 30
0.0
  0
LINE
  5
AA
330
1F
100
AcDbEntity
  8
외형선
  6
Continuous
 62
     1
370
    15
100
AcDbLine
 10
14.98855513931554
 20
-4.762500000000006
 30
0.0
 11
15.72292115037709
 21
-4.762500000000006
 31
0.0
  0
LINE
  5
AB
330
1F
100
AcDbEntity
  8
외형선
  6
Continuous
 62
     1
370
    15
100
AcDbLine
 10
19.525
 20
3.662499999999993
 30
0.0
 11
18.86525019829411
 21
4.32224980170588
 31
0.0
  0
LINE
  5
B4
330
1F
100
AcDbEntity
  8
외형선
  6
Continuous
370
    15
100
AcDbLine
 10
-34.24374999999999
 20
4.762499999999989
 30
0.0
 11
-34.24374999999999
 21
-4.762500000000005
 31
0.0
  0
LINE
  5
B6
330
1F
100
AcDbEntity
  8
외형선
  6
Continuous
370
    15
100
AcDbLine
 10
-35.24375000000001
 20
3.762499999999989
 30
0.0
 11
-35.24375000000001
 21
-3.762500000000011
 31
0.0
  0
SPLINE
  5
B7
330
1F
100
AcDbEntity
  8
외형선
  6
Continuous
 62
     1
370
    15
100
AcDbSpline
210
0.0
220
0.0
230
1.0
 70
     8
 71
     3
 72
     8
 73
     4
 74
     0
 42
0.000000001
 43
0.00000001
 40
0.0
 40
0.0
 40
0.0
 40
0.0
 40
1.0
 40
1.0
 40
1.0
 40
1.0
 10
18.26521773570064
 20
1.012984024189204
 30
0.0
 10
18.31212645629985
 20
0.9896549550239717
 30
0.0
 10
18.36843504474324
 20
0.9593292882150526
 30
0.0
 10
18.42614111469076
 20
0.9267108493105776
 30
0.0
  0
SPLINE
  5
B8
330
1F
100
AcDbEntity
  8
외형선
  6
Continuous
 62
     1
370
    15
100
AcDbSpline
210
0.0
220
0.0
230
1.0
 70
     8
 71
     3
 72
    12
 73
     8
 74
     0
 42
0.000000001
 43
0.00000001
 40
0.0
 40
0.0
 40
0.0
 40
0.0
 40
0.2499999999999999
 40
0.2499999999999999
 40
0.4999999999999998
 40
0.4999999999999998
 40
1.0
 40
1.0
 40
1.0
 40
1.0
 10
18.42500240026842
 20
0.9273554808075537
 30
0.0
 10
18.4250763406536
 20
0.6743392073654954
 30
0.0
 10
18.42674438850947
 20
0.4170515153553768
 30
0.0
 10
18.43221221511587
 20
-0.093304421325396
 30
0.0
 10
18.43604370729588
 20
-0.3477309027890589
 30
0.0
 10
18.45027977899429
 20
-1.10875456645416
 30
0.0
 10
18.4633612020224
 20
-1.606104834414124
 30
0.0
 10
18.47833333333332
 20
-2.062876403088271
 30
0.0
  0
SPLINE
  5
B9
330
1F
100
AcDbEntity
  8
외형선
  6
Continuous
 62
     1
370
    15
100
AcDbSpline
210
0.0
220
0.0
230
1.0
 70
     8
 71
     3
 72
    12
 73
     8
 74
     0
 42
0.000000001
 43
0.00000001
 40
0.0
 40
0.0
 40
0.0
 40
0.0
 40
0.5
 40
0.5
 40
0.75
 40
0.75
 40
1.0
 40
1.0
 40
1.0
 40
1.0
 10
18.4795391758267
 20
-2.079278464821591
 30
0.0
 10
18.44501385852082
 20
-1.609842940840454
 30
0.0
 10
18.40793455945402
 20
-1.089456995975305
 30
0.0
 10
18.35303807482587
 20
-0.2950452325508334
 30
0.0
 10
18.33487177890923
 20
-0.0281920787766897
 30
0.0
 10
18.29955851408015
 20
0.4982556704717176
 30
0.0
 10
18.28279684353083
 20
0.7559752985394066
 30
0.0
 10
18.26521773570049
 20
1.012984024187017
 30
0.0
  0
SPLINE
  5
BA
330
1F
100
AcDbEntity
  8
외형선
  6
Continuous
 62
     1
370
    15
100
AcDbSpline
210
0.0
220
0.0
230
1.0
 70
     8
 71
     3
 72
    10
 73
     6
 74
     0
 42
0.000000001
 43
0.00000001
 40
0.0
 40
0.0
 40
0.0
 40
0.0
 40
0.5
 40
0.5
 40
1.0
 40
1.0
 40
1.0
 40
1.0
 10
18.42508431249801
 20
0.9273022047941377
 30
0.0
 10
18.60380106366653
 20
0.8135768479060557
 30
0.0
 10
18.7839555687887
 20
0.7198975708633277
 30
0.0
 10
19.14996485156642
 20
0.5770690271904972
 30
0.0
 10
19.33712509687283
 20
0.5276022485106368
 30
0.0
 10
19.525
 20
0.5068079630055596
 30
0.0
  0
LINE
  5
BB
330
1F
100
AcDbEntity
  8
외형선
  6
Continuous
 62
     1
370
    15
100
AcDbLine
 10
19.525
 20
0.5068079630055752
 30
0.0
 11
19.525
 21
-2.252541109290009
 31
0.0
  0
SPLINE
  5
BC
330
1F
100
AcDbEntity
  8
외형선
  6
Continuous
 62
     1
370
    15
100
AcDbSpline
210
0.0
220
0.0
230
1.0
 70
     8
 71
     3
 72
     8
 73
     4
 74
     0
 42
0.000000001
 43
0.00000001
 40
0.0
 40
0.0
 40
0.0
 40
0.0
 40
1.0
 40
1.0
 40
1.0
 40
1.0
 10
19.525
 20
-2.252541109290009
 30
0.0
 10
19.18915768417522
 20
-2.215542597143786
 30
0.0
 10
18.83738926818239
 20
-2.162628150663787
 30
0.0
 10
18.4793727153631
 20
-2.094616924921385
 30
0.0
  0
SPLINE
  5
BD
330
1F
100
AcDbEntity
  8
외형선
  6
Continuous
 62
     1
370
    15
100
AcDbSpline
210
0.0
220
0.0
230
1.0
 70
     8
 71
     3
 72
    10
 73
     6
 74
     0
 42
0.000000001
 43
0.00000001
 40
0.0
 40
0.0
 40
0.0
 40
0.0
 40
0.5
 40
0.5
 40
1.0
 40
1.0
 40
1.0
 40
1.0
 10
18.48074366606541
 20
-2.095649333076691
 30
0.0
 10
18.38302862455769
 20
-2.021963884873159
 30
0.0
 10
18.26716147080811
 20
-1.955339373165711
 30
0.0
 10
18.04039128986464
 20
-1.840946671258894
 30
0.0
 10
17.93088437708328
 20
-1.793571294198498
 30
0.0
 10
17.83897444563183
 20
-1.761688194034159
 30
0.0
  0
SPLINE
  5
BE
330
1F
100
AcDbEntity
  8
외형선
  6
Continuous
 62
     1
370
    15
100
AcDbSpline
210
0.0
220
0.0
230
1.0
 70
     8
 71
     3
 72
    12
 73
     8
 74
     0
 42
0.000000001
 43
0.00000001
 40
0.0
 40
0.0
 40
0.0
 40
0.0
 40
0.5
 40
0.5
 40
0.75
 40
0.75
 40
1.0
 40
1.0
 40
1.0
 40
1.0
 10
17.83897443433025
 20
-1.761688038124256
 30
0.0
 10
17.80328744776094
 20
-1.269371343982852
 30
0.0
 10
17.76565602036704
 20
-0.7338313117147788
 30
0.0
 10
17.71105480761523
 20
0.0669874090349751
 30
0.0
 10
17.69316790029854
 20
0.3333384772288747
 30
0.0
 10
17.6587352680033
 20
0.8537944403354456
 30
0.0
 10
17.64121029068353
 20
1.11282396532072
 30
0.0
 10
17.6231174687035
 20
1.367979976150059
 30
0.0
  0
SPLINE
  5
BF
330
1F
100
AcDbEntity
  8
외형선
  6
Continuous
 62
     1
370
    15
100
AcDbSpline
210
0.0
220
0.0
230
1.0
 70
     8
 71
     3
 72
    10
 73
     6
 74
     0
 42
0.000000001
 43
0.00000001
 40
0.0
 40
0.0
 40
0.0
 40
0.0
 40
0.5
 40
0.5
 40
1.0
 40
1.0
 40
1.0
 40
1.0
 10
17.62311746870278
 20
1.367979976160291
 30
0.0
 10
17.72086468941052
 20
1.302697009770755
 30
0.0
 10
17.83667224769867
 20
1.237584185615517
 30
0.0
 10
18.06349785460854
 20
1.115387254955345
 30
0.0
 10
18.1731834685684
 20
1.058755338266035
 30
0.0
 10
18.26521773570034
 20
1.012984024189156
 30
0.0
  0
SPLINE
  5
C0
330
1F
100
AcDbEntity
  8
외형선
  6
Continuous
 62
     1
370
    15
100
AcDbSpline
210
0.0
220
0.0
230
1.0
 70
     8
 71
     3
 72
     8
 73
     4
 74
     0
 42
0.000000001
 43
0.00000001
 40
0.0
 40
0.0
 40
0.0
 40
0.0
 40
1.0
 40
1.0
 40
1.0
 40
1.0
 10
17.83897444563181
 20
-1.761688194034159
 30
0.0
 10
17.79201047985456
 20
-1.745396626829786
 30
0.0
 10
17.73565997282227
 20
-1.719459996233704
 30
0.0
 10
17.67794395706038
 20
-1.688171666313401
 30
0.0
  0
SPLINE
  5
C1
330
1F
100
AcDbEntity
  8
외형선
  6
Continuous
 62
     1
370
    15
100
AcDbSpline
210
0.0
220
0.0
230
1.0
 70
     8
 71
     3
 72
    10
 73
     6
 74
     0
 42
0.000000001
 43
0.00000001
 40
0.0
 40
0.0
 40
0.0
 40
0.0
 40
0.5
 40
0.5
 40
1.0
 40
1.0
 40
1.0
 40
1.0
 10
17.67794396296482
 20
-1.688171749025901
 30
0.0
 10
17.64219914446588
 20
-1.18746966437055
 30
0.0
 10
17.60471765271427
 20
-0.6460185353057208
 30
0.0
 10
17.53256112286645
 20
0.4279475084916443
 30
0.0
 10
17.49918684235608
 20
0.9536466244079878
 30
0.0
 10
17.46302460113413
 20
1.465116923157258
 30
0.0
  0
SPLINE
  5
C2
330
1F
100
AcDbEntity
  8
외형선
  6
Continuous
 62
     1
370
    15
100
AcDbSpline
210
0.0
220
0.0
230
1.0
 70
     8
 71
     3
 72
     8
 73
     4
 74
     0
 42
0.000000001
 43
0.00000001
 40
0.0
 40
0.0
 40
0.0
 40
0.0
 40
1.0
 40
1.0
 40
1.0
 40
1.0
 10
17.46302464776423
 20
1.465116263659061
 30
0.0
 10
17.51863139849316
 20
1.434518135653927
 30
0.0
 10
17.57511155452045
 20
1.400041946407314
 30
0.0
 10
17.62311746870212
 20
1.367979976160729
 30
0.0
  0
SPLINE
  5
C3
330
1F
100
AcDbEntity
  8
외형선
  6
Continuous
 62
     1
370
    15
100
AcDbSpline
210
0.0
220
0.0
230
1.0
 70
     8
 71
     3
 72
     8
 73
     4
 74
     0
 42
0.000000001
 43
0.00000001
 40
0.0
 40
0.0
 40
0.0
 40
0.0
 40
1.0
 40
1.0
 40
1.0
 40
1.0
 10
16.5605378642319
 20
-1.071508892294842
 30
0.0
 10
16.50491935835441
 20
-1.040278360839932
 30
0.0
 10
16.44842058088088
 20
-1.006647485662793
 30
0.0
 10
16.40040964805873
 20
-0.9772581149987557
 30
0.0
  0
SPLINE
  5
C4
330
1F
100
AcDbEntity
  8
외형선
  6
Continuous
 62
     1
370
    15
100
AcDbSpline
210
0.0
220
0.0
230
1.0
 70
     8
 71
     3
 72
    10
 73
     6
 74
     0
 42
0.000000001
 43
0.00000001
 40
0.0
 40
0.0
 40
0.0
 40
0.0
 40
0.5
 40
0.5
 40
1.0
 40
1.0
 40
1.0
 40
1.0
 10
16.40040953887508
 20
-0.9772565598072052
 30
0.0
 10
16.36358812311684
 20
-0.4527790747977082
 30
0.0
 10
16.32648589712853
 20
0.0920412542523542
 30
0.0
 10
16.25779359087582
 20
1.131072736307199
 30
0.0
 10
16.22115212170023
 20
1.650381320059479
 30
0.0
 10
16.18430420807754
 20
2.128739464848783
 30
0.0
  0
SPLINE
  5
C5
330
1F
100
AcDbEntity
  8
외형선
  6
Continuous
 62
     1
370
    15
100
AcDbSpline
210
0.0
220
0.0
230
1.0
 70
     8
 71
     3
 72
     8
 73
     4
 74
     0
 42
0.000000001
 43
0.00000001
 40
0.0
 40
0.0
 40
0.0
 40
0.0
 40
1.0
 40
1.0
 40
1.0
 40
1.0
 10
16.18430420807525
 20
2.128739464882486
 30
0.0
 10
16.23129071533779
 20
2.116342920499471
 30
0.0
 10
16.28767190071198
 20
2.093120768540638
 30
0.0
 10
16.34545083901411
 20
2.063081873666757
 30
0.0
  0
SPLINE
  5
C6
330
1F
100
AcDbEntity
  8
외형선
  6
Continuous
 62
     1
370
    15
100
AcDbSpline
210
0.0
220
0.0
230
1.0
 70
     8
 71
     3
 72
    12
 73
     8
 74
     0
 42
0.000000001
 43
0.00000001
 40
0.0
 40
0.0
 40
0.0
 40
0.0
 40
0.5000000000000001
 40
0.5000000000000001
 40
0.75
 40
0.75
 40
1.0
 40
1.0
 40
1.0
 40
1.0
 10
16.56053783772058
 20
-1.071508511603761
 30
0.0
 10
16.52392740096532
 20
-0.5458071711163069
 30
0.0
 10
16.48686383501627
 20
0.0027790005155546
 30
0.0
 10
16.43513594505289
 20
0.7913206684590657
 30
0.0
 10
16.41796663105964
 20
1.05141171103258
 30
0.0
 10
16.38212032161616
 20
1.566542460169671
 30
0.0
 10
16.36379333135198
 20
1.819775868626001
 30
0.0
 10
16.34545080620978
 20
2.063082308803279
 30
0.0
  0
SPLINE
  5
C7
330
1F
100
AcDbEntity
  8
외형선
  6
Continuous
 62
     1
370
    15
100
AcDbSpline
210
0.0
220
0.0
230
1.0
 70
     8
 71
     3
 72
     9
 73
     5
 74
     0
 42
0.000000001
 43
0.00000001
 40
0.0
 40
0.0
 40
0.0
 40
0.0
 40
0.3727207505955455
 40
0.9999999999999999
 40
0.9999999999999999
 40
0.9999999999999999
 40
0.9999999999999999
 10
18.71322238871449
 20
-2.134753932477137
 30
0.0
 10
18.62823742992997
 20
-2.156156121388277
 30
0.0
 10
18.40022501406972
 20
-2.213577633007749
 30
0.0
 10
18.1441002612284
 20
-2.328528894991386
 30
0.0
 10
17.98343851851219
 20
-2.400635436326577
 30
0.0
  0
SPLINE
  5
C8
330
1F
100
AcDbEntity
  8
외형선
  6
Continuous
 62
     1
370
    15
100
AcDbSpline
210
0.0
220
0.0
230
1.0
 70
     8
 71
     3
 72
     8
 73
     4
 74
     0
 42
0.000000001
 43
0.00000001
 40
0.0
 40
0.0
 40
0.0
 40
0.0
 40
1.0
 40
1.0
 40
1.0
 40
1.0
 10
19.525
 20
-2.784196431186871
 30
0.0
 10
18.99792840035621
 20
-2.703525848157302
 30
0.0
 10
18.48454323427956
 20
-2.573999217926021
 30
0.0
 10
17.98343851851153
 20
-2.40063543632931
 30
0.0
  0
LINE
  5
C9
330
1F
100
AcDbEntity
  8
외형선
  6
Continuous
 62
     1
370
    15
100
AcDbLine
 10
19.525
 20
-3.394707684422259
 30
0.0
 11
19.525
 21
-2.78419643118687
 31
0.0
  0
SPLINE
  5
CA
330
1F
100
AcDbEntity
  8
외형선
  6
Continuous
 62
     1
370
    15
100
AcDbSpline
210
0.0
220
0.0
230
1.0
 70
     8
 71
     3
 72
    10
 73
     6
 74
     0
 42
0.000000001
 43
0.00000001
 40
0.0
 40
0.0
 40
0.0
 40
0.0
 40
0.4999999999999997
 40
0.4999999999999997
 40
1.0
 40
1.0
 40
1.0
 40
1.0
 10
18.58241579596284
 20
-4.338721678772719
 30
0.0
 10
18.7358010742453
 20
-4.174055725202486
 30
0.0
 10
18.89052999997256
 20
-4.012275914537563
 30
0.0
 10
19.204457653714
 20
-3.69651637395084
 30
0.0
 10
19.36461962875731
 20
-3.541677997431397
 30
0.0
 10
19.525
 20
-3.394707684422297
 30
0.0
  0
SPLINE
  5
CB
330
1F
100
AcDbEntity
  8
외형선
  6
Continuous
 62
     1
370
    15
100
AcDbSpline
210
0.0
220
0.0
230
1.0
 70
     8
 71
     3
 72
     8
 73
     4
 74
     0
 42
0.000000001
 43
0.00000001
 40
0.0
 40
0.0
 40
0.0
 40
0.0
 40
1.0
 40
1.0
 40
1.0
 40
1.0
 10
18.31525660477701
 20
-4.480580687593529
 30
0.0
 10
18.39578274017182
 20
-4.410831642507618
 30
0.0
 10
18.48913131899193
 20
-4.364265933701553
 30
0.0
 10
18.58241579596271
 20
-4.338721678772729
 30
0.0
  0
SPLINE
  5
CC
330
1F
100
AcDbEntity
  8
외형선
  6
Continuous
 62
     1
370
    15
100
AcDbSpline
210
0.0
220
0.0
230
1.0
 70
     8
 71
     3
 72
     8
 73
     4
 74
     0
 42
0.000000001
 43
0.00000001
 40
0.0
 40
0.0
 40
0.0
 40
0.0
 40
1.0
 40
1.0
 40
1.0
 40
1.0
 10
18.15522232888523
 20
-4.55681738678753
 30
0.0
 10
18.21080077287437
 20
-4.547495193062567
 30
0.0
 10
18.26727097472357
 20
-4.522144235349343
 30
0.0
 10
18.31525660477701
 20
-4.480580687593529
 30
0.0
  0
SPLINE
  5
CD
330
1F
100
AcDbEntity
  8
외형선
  6
Continuous
 62
     1
370
    15
100
AcDbSpline
210
0.0
220
0.0
230
1.0
 70
     8
 71
     3
 72
     8
 73
     4
 74
     0
 42
0.000000001
 43
0.00000001
 40
0.0
 40
0.0
 40
0.0
 40
0.0
 40
1.0
 40
1.0
 40
1.0
 40
1.0
 10
18.15522232882661
 20
-4.556817386797265
 30
0.0
 10
17.78213191671019
 20
-4.619395984701197
 30
0.0
 10
17.41250160383423
 20
-4.667857030330454
 30
0.0
 10
17.03894744465808
 20
-4.702057748961761
 30
0.0
  0
SPLINE
  5
CE
330
1F
100
AcDbEntity
  8
외형선
  6
Continuous
 62
     1
370
    15
100
AcDbSpline
210
0.0
220
0.0
230
1.0
 70
     8
 71
     3
 72
     8
 73
     4
 74
     0
 42
0.000000001
 43
0.00000001
 40
0.0
 40
0.0
 40
0.0
 40
0.0
 40
1.0
 40
1.0
 40
1.0
 40
1.0
 10
16.87810187093769
 20
-4.664052287824504
 30
0.0
 10
16.92498759493206
 20
-4.694509138242702
 30
0.0
 10
16.98127349937666
 20
-4.70733808201839
 30
0.0
 10
17.03894744481694
 20
-4.702057748947218
 30
0.0
  0
SPLINE
  5
CF
330
1F
100
AcDbEntity
  8
외형선
  6
Continuous
 62
     1
370
    15
100
AcDbSpline
210
0.0
220
0.0
230
1.0
 70
     8
 71
     3
 72
    10
 73
     6
 74
     0
 42
0.000000001
 43
0.00000001
 40
0.0
 40
0.0
 40
0.0
 40
0.0
 40
0.5
 40
0.5
 40
1.0
 40
1.0
 40
1.0
 40
1.0
 10
16.23630851929933
 20
-4.700450852474026
 30
0.0
 10
16.33399577782582
 20
-4.623561304436358
 30
0.0
 10
16.44980700844488
 20
-4.585597714575631
 30
0.0
 10
16.67656599009044
 20
-4.57627352988577
 30
0.0
 10
16.78616534870966
 20
-4.604330550226807
 30
0.0
 10
16.87810187093766
 20
-4.664052287824482
 30
0.0
  0
SPLINE
  5
D0
330
1F
100
AcDbEntity
  8
외형선
  6
Continuous
 62
     1
370
    15
100
AcDbSpline
210
0.0
220
0.0
230
1.0
 70
     8
 71
     3
 72
     8
 73
     4
 74
     0
 42
0.000000001
 43
0.00000001
 40
0.0
 40
0.0
 40
0.0
 40
0.0
 40
1.0
 40
1.0
 40
1.0
 40
1.0
 10
16.0762715975765
 20
-4.758111655999231
 30
0.0
 10
16.13184409090795
 20
-4.75673293635158
 30
0.0
 10
16.18831622458427
 20
-4.738225541881761
 30
0.0
 10
16.23630851929932
 20
-4.700450852474031
 30
0.0
  0
SPLINE
  5
D1
330
1F
100
AcDbEntity
  8
외형선
  6
Continuous
 62
     1
370
    15
100
AcDbSpline
210
0.0
220
0.0
230
1.0
 70
     8
 71
     3
 72
     8
 73
     4
 74
     0
 42
0.000000001
 43
0.00000001
 40
0.0
 40
0.0
 40
0.0
 40
0.0
 40
1.0
 40
1.0
 40
1.0
 40
1.0
 10
16.07627159748035
 20
-4.758111656001597
 30
0.0
 10
15.70405922710487
 20
-4.767346017772227
 30
0.0
 10
15.33284160442647
 20
-4.762015956431912
 30
0.0
 10
14.95878870546571
 20
-4.742080441992939
 30
0.0
  0
SPLINE
  5
D2
330
1F
100
AcDbEntity
  8
외형선
  6
Continuous
 62
     1
370
    15
100
AcDbSpline
210
0.0
220
0.0
230
1.0
 70
     8
 71
     3
 72
     8
 73
     4
 74
     0
 42
0.000000001
 43
0.00000001
 40
0.0
 40
0.0
 40
0.0
 40
0.0
 40
1.0
 40
1.0
 40
1.0
 40
1.0
 10
14.79765946013748
 20
-4.678802808342387
 30
0.0
 10
14.84464224095623
 20
-4.71733062201824
 30
0.0
 10
14.90102227131011
 20
-4.739001729533724
 30
0.0
 10
14.95879021470581
 20
-4.742080522429291
 30
0.0
  0
SPLINE
  5
D3
330
1F
100
AcDbEntity
  8
외형선
  6
Continuous
 62
     1
370
    15
100
AcDbSpline
210
0.0
220
0.0
230
1.0
 70
     8
 71
     3
 72
    10
 73
     6
 74
     0
 42
0.000000001
 43
0.00000001
 40
0.0
 40
0.0
 40
0.0
 40
0.0
 40
0.5
 40
0.5
 40
1.0
 40
1.0
 40
1.0
 40
1.0
 10
14.15509571698876
 20
-4.623105168928886
 30
0.0
 10
14.25289905501294
 20
-4.558844438652568
 30
0.0
 10
14.36882468918723
 20
-4.53587705678308
 30
0.0
 10
14.59581257892824
 20
-4.558466117509922
 30
0.0
 10
14.7055513841804
 20
-4.603270395686615
 30
0.0
 10
14.79765946013745
 20
-4.678802808342366
 30
0.0
  0
SPLINE
  5
D4
330
1F
100
AcDbEntity
  8
외형선
  6
Continuous
 62
     1
370
    15
100
AcDbSpline
210
0.0
220
0.0
230
1.0
 70
     8
 71
     3
 72
     8
 73
     4
 74
     0
 42
0.000000001
 43
0.00000001
 40
0.0
 40
0.0
 40
0.0
 40
0.0
 40
1.0
 40
1.0
 40
1.0
 40
1.0
 10
13.9949439034521
 20
-4.658413949939803
 30
0.0
 10
14.05054337047733
 20
-4.665114490142019
 30
0.0
 10
14.10705279871833
 20
-4.654671300259702
 30
0.0
 10
14.15509571698876
 20
-4.623105168928892
 30
0.0
  0
SPLINE
  5
D5
330
1F
100
AcDbEntity
  8
외형선
  6
Continuous
 62
     1
370
    15
100
AcDbSpline
210
0.0
220
0.0
230
1.0
 70
     8
 71
     3
 72
     8
 73
     4
 74
     0
 42
0.000000001
 43
0.00000001
 40
0.0
 40
0.0
 40
0.0
 40
0.0
 40
1.0
 40
1.0
 40
1.0
 40
1.0
 10
13.9949432579354
 20
-4.658413872145738
 30
0.0
 10
13.62479894990255
 20
-4.613806110824046
 30
0.0
 10
13.25100455429325
 20
-4.554816140763124
 30
0.0
 10
12.8776350376821
 20
-4.482076179132676
 30
0.0
  0
SPLINE
  5
D6
330
1F
100
AcDbEntity
  8
외형선
  6
Continuous
 62
     1
370
    15
100
AcDbSpline
210
0.0
220
0.0
230
1.0
 70
     8
 71
     3
 72
     8
 73
     4
 74
     0
 42
0.000000001
 43
0.00000001
 40
0.0
 40
0.0
 40
0.0
 40
0.0
 40
1.0
 40
1.0
 40
1.0
 40
1.0
 10
12.71666041622508
 20
-4.397517292991803
 30
0.0
 10
12.76358444046491
 20
-4.441672683592199
 30
0.0
 10
12.81991266854985
 20
-4.470830690099199
 30
0.0
 10
12.87763511590335
 20
-4.482076194371769
 30
0.0
  0
SPLINE
  5
D7
330
1F
100
AcDbEntity
  8
외형선
  6
Continuous
 62
     1
370
    15
100
AcDbSpline
210
0.0
220
0.0
230
1.0
 70
     8
 71
     3
 72
    10
 73
     6
 74
     0
 42
0.000000001
 43
0.00000001
 40
0.0
 40
0.0
 40
0.0
 40
0.0
 40
0.5
 40
0.5
 40
1.0
 40
1.0
 40
1.0
 40
1.0
 10
12.07496477720914
 20
-4.253105387784062
 30
0.0
 10
12.17262233715709
 20
-4.205593765789104
 30
0.0
 10
12.28836807752052
 20
-4.199102072815276
 30
0.0
 10
12.51507646973507
 20
-4.252209162794177
 30
0.0
 10
12.62467702897968
 20
-4.3109611533945
 30
0.0
 10
12.71666041622505
 20
-4.397517292991783
 30
0.0
  0
SPLINE
  5
D8
330
1F
100
AcDbEntity
  8
외형선
  6
Continuous
 62
     1
370
    15
100
AcDbSpline
210
0.0
220
0.0
230
1.0
 70
     8
 71
     3
 72
     8
 73
     4
 74
     0
 42
0.000000001
 43
0.00000001
 40
0.0
 40
0.0
 40
0.0
 40
0.0
 40
1.0
 40
1.0
 40
1.0
 40
1.0
 10
11.91509081789023
 20
-4.263902950212117
 30
0.0
 10
11.97062880035751
 20
-4.278210586684015
 30
0.0
 10
12.02703392856856
 20
-4.276424343978768
 30
0.0
 10
12.07496477720914
 20
-4.253105387784057
 30
0.0
  0
SPLINE
  5
D9
330
1F
100
AcDbEntity
  8
외형선
  6
Continuous
 62
     1
370
    15
100
AcDbSpline
210
0.0
220
0.0
230
1.0
 70
     8
 71
     3
 72
     8
 73
     4
 74
     0
 42
0.000000001
 43
0.00000001
 40
0.0
 40
0.0
 40
0.0
 40
0.0
 40
1.0
 40
1.0
 40
1.0
 40
1.0
 10
11.91509078941612
 20
-4.26390294287677
 30
0.0
 10
11.54454315534246
 20
-4.16844285153678
 30
0.0
 10
11.17070884957378
 20
-4.059692341342523
 30
0.0
 10
10.79868408239788
 20
-3.93908502423872
 30
0.0
  0
SPLINE
  5
DA
330
1F
100
AcDbEntity
  8
외형선
  6
Continuous
 62
     1
370
    15
100
AcDbSpline
210
0.0
220
0.0
230
1.0
 70
     8
 71
     3
 72
     8
 73
     4
 74
     0
 42
0.000000001
 43
0.00000001
 40
0.0
 40
0.0
 40
0.0
 40
0.0
 40
1.0
 40
1.0
 40
1.0
 40
1.0
 10
10.63762815803266
 20
-3.838512485952864
 30
0.0
 10
10.68458321969387
 20
-3.885534763961553
 30
0.0
 10
10.74093344664539
 20
-3.920362749352723
 30
0.0
 10
10.79868352362481
 20
-3.939084843089161
 30
0.0
  0
SPLINE
  5
DB
330
1F
100
AcDbEntity
  8
외형선
  6
Continuous
 62
     1
370
    15
100
AcDbSpline
210
0.0
220
0.0
230
1.0
 70
     8
 71
     3
 72
    10
 73
     6
 74
     0
 42
0.000000001
 43
0.00000001
 40
0.0082327957051692
 40
0.0082327957051692
 40
0.0082327957051692
 40
0.0082327957051692
 40
0.5
 40
0.5
 40
1.0
 40
1.0
 40
1.0
 40
1.0
 10
10.0
 20
-3.612744786790568
 30
0.0
 10
10.09683298033664
 20
-3.586607789124074
 30
0.0
 10
10.21080316166704
 20
-3.597396733022484
 30
0.0
 10
10.43582027981051
 20
-3.677247057580247
 30
0.0
 10
10.54552564254555
 20
-3.746278125368165
 30
0.0
 10
10.63762815803263
 20
-3.838512485952828
 30
0.0
  0
SPLINE
  5
F0
330
1F
100
AcDbEntity
  8
외형선
  6
Continuous
 62
     1
370
    15
100
AcDbSpline
210
0.0
220
0.0
230
1.0
 70
     8
 71
     3
 72
     8
 73
     4
 74
     0
 42
0.000000001
 43
0.00000001
 40
0.0
 40
0.0
 40
0.0
 40
0.0
 40
0.2518307130382911
 40
0.2518307130382911
 40
0.2518307130382911
 40
0.2518307130382911
 10
10.15888794661907
 20
2.452305298914938
 30
0.0
 10
10.10964515561347
 20
2.452449974526379
 30
0.0
 10
10.05580787162445
 20
2.460397352933724
 30
0.0
 10
10.0
 20
2.475126554052841
 30
0.0
  0
SPLINE
  5
F1
330
1F
100
AcDbEntity
  8
외형선
  6
Continuous
 62
     1
370
    15
100
AcDbSpline
210
0.0
220
0.0
230
1.0
 70
     8
 71
     3
 72
     8
 73
     4
 74
     0
 42
0.000000001
 43
0.00000001
 40
0.0
 40
0.0
 40
0.0
 40
0.0
 40
1.0
 40
1.0
 40
1.0
 40
1.0
 10
10.31903377709571
 20
2.406528706127741
 30
0.0
 10
10.26342311456282
 20
2.434333513714834
 30
0.0
 10
10.20692939357438
 20
2.452164152859423
 30
0.0
 10
10.15888794661909
 20
2.452305298914941
 30
0.0
  0
SPLINE
  5
F2
330
1F
100
AcDbEntity
  8
외형선
  6
Continuous
 62
     1
370
    15
100
AcDbSpline
210
0.0
220
0.0
230
1.0
 70
     8
 71
     3
 72
     8
 73
     4
 74
     0
 42
0.000000001
 43
0.00000001
 40
0.0
 40
0.0
 40
0.0
 40
0.0
 40
1.0
 40
1.0
 40
1.0
 40
1.0
 10
11.43675440568383
 20
1.829657816572972
 30
0.0
 10
11.06357754844195
 20
2.028244906592852
 30
0.0
 10
10.68929977414827
 20
2.221399192887592
 30
0.0
 10
10.31903391304349
 20
2.406528638155353
 30
0.0
  0
SPLINE
  5
F3
330
1F
100
AcDbEntity
  8
외형선
  6
Continuous
 62
     1
370
    15
100
AcDbSpline
210
0.0
220
0.0
230
1.0
 70
     8
 71
     3
 72
     8
 73
     4
 74
     0
 42
0.000000001
 43
0.00000001
 40
0.0
 40
0.0
 40
0.0
 40
0.0
 40
1.0
 40
1.0
 40
1.0
 40
1.0
 10
11.59787751934772
 20
1.717477493363861
 30
0.0
 10
11.55089987743281
 20
1.759802657156319
 30
0.0
 10
11.49452429162247
 20
1.79891541304735
 30
0.0
 10
11.43675439340035
 20
1.829657823109663
 30
0.0
  0
SPLINE
  5
F4
330
1F
100
AcDbEntity
  8
외형선
  6
Continuous
 62
     1
370
    15
100
AcDbSpline
210
0.0
220
0.0
230
1.0
 70
     8
 71
     3
 72
    10
 73
     6
 74
     0
 42
0.000000001
 43
0.00000001
 40
0.0
 40
0.0
 40
0.0
 40
0.0
 40
0.5
 40
0.5
 40
1.0
 40
1.0
 40
1.0
 40
1.0
 10
12.24031514003667
 20
1.370522298984294
 30
0.0
 10
12.14249993052918
 20
1.392570606860505
 30
0.0
 10
12.02664310570658
 20
1.437702928567515
 30
0.0
 10
11.79971266103948
 20
1.559059680117914
 30
0.0
 10
11.68999131264674
 20
1.634486282438716
 30
0.0
 10
11.59787751934773
 20
1.717477493363855
 30
0.0
  0
SPLINE
  5
F5
330
1F
100
AcDbEntity
  8
외형선
  6
Continuous
 62
     1
370
    15
100
AcDbSpline
210
0.0
220
0.0
230
1.0
 70
     8
 71
     3
 72
     8
 73
     4
 74
     0
 42
0.000000001
 43
0.00000001
 40
0.0
 40
0.0
 40
0.0
 40
0.0
 40
1.0
 40
1.0
 40
1.0
 40
1.0
 10
12.4003863554046
 20
1.304048501173194
 30
0.0
 10
12.34478596371303
 20
1.334952335799484
 30
0.0
 10
12.28831285424573
 20
1.359703241441354
 30
0.0
 10
12.2403151400367
 20
1.370522298984287
 30
0.0
  0
SPLINE
  5
F6
330
1F
100
AcDbEntity
  8
외형선
  6
Continuous
 62
     1
370
    15
100
AcDbSpline
210
0.0
220
0.0
230
1.0
 70
     8
 71
     3
 72
     8
 73
     4
 74
     0
 42
0.000000001
 43
0.00000001
 40
0.0
 40
0.0
 40
0.0
 40
0.0
 40
1.0
 40
1.0
 40
1.0
 40
1.0
 10
13.51672978884401
 20
0.6749433292801486
 30
0.0
 10
13.14506352008868
 20
0.8872577656319507
 30
0.0
 10
12.77125043640247
 20
1.097914662142977
 30
0.0
 10
12.40038622632885
 20
1.304048572916385
 30
0.0
  0
SPLINE
  5
F7
330
1F
100
AcDbEntity
  8
외형선
  6
Continuous
 62
     1
370
    15
100
AcDbSpline
210
0.0
220
0.0
230
1.0
 70
     8
 71
     3
 72
     8
 73
     4
 74
     0
 42
0.000000001
 43
0.00000001
 40
0.0
 40
0.0
 40
0.0
 40
0.0
 40
1.0
 40
1.0
 40
1.0
 40
1.0
 10
13.67755164360159
 20
0.5693927025277852
 30
0.0
 10
13.63067864291812
 20
0.60507808592352
 30
0.0
 10
13.57440701975847
 20
0.6419951986471883
 30
0.0
 10
13.51672979851108
 20
0.6749433237578298
 30
0.0
  0
SPLINE
  5
F8
330
1F
100
AcDbEntity
  8
외형선
  6
Continuous
 62
     1
370
    15
100
AcDbSpline
210
0.0
220
0.0
230
1.0
 70
     8
 71
     3
 72
    10
 73
     6
 74
     0
 42
0.000000001
 43
0.00000001
 40
0.0
 40
0.0
 40
0.0
 40
0.0
 40
0.5
 40
0.5
 40
1.0
 40
1.0
 40
1.0
 40
1.0
 10
14.31933043831953
 20
0.203515992612895
 30
0.0
 10
14.22157203244365
 20
0.2457584829823102
 30
0.0
 10
14.10572095844276
 20
0.3016666945714153
 30
0.0
 10
13.8790741385803
 20
0.4289539791801817
 30
0.0
 10
13.76951131779122
 20
0.4993819035058806
 30
0.0
 10
13.6775516436016
 20
0.5693927025277833
 30
0.0
  0
SPLINE
  5
F9
330
1F
100
AcDbEntity
  8
외형선
  6
Continuous
 62
     1
370
    15
100
AcDbSpline
210
0.0
220
0.0
230
1.0
 70
     8
 71
     3
 72
     8
 73
     4
 74
     0
 42
0.000000001
 43
0.00000001
 40
0.0
 40
0.0
 40
0.0
 40
0.0
 40
1.0
 40
1.0
 40
1.0
 40
1.0
 10
14.47934183855123
 20
0.1206198366983152
 30
0.0
 10
14.42375906034539
 20
0.1526740241948873
 30
0.0
 10
14.36730166047974
 20
0.1827870959829261
 30
0.0
 10
14.31933043831955
 20
0.2035159926128881
 30
0.0
  0
SPLINE
  5
FA
330
1F
100
AcDbEntity
  8
외형선
  6
Continuous
 62
     1
370
    15
100
AcDbSpline
210
0.0
220
0.0
230
1.0
 70
     8
 71
     3
 72
     8
 73
     4
 74
     0
 42
0.000000001
 43
0.00000001
 40
0.0
 40
0.0
 40
0.0
 40
0.0
 40
1.0
 40
1.0
 40
1.0
 40
1.0
 10
15.59663915561527
 20
-0.5226167780257733
 30
0.0
 10
15.22570149097805
 20
-0.3094313966677926
 30
0.0
 10
14.85156594714273
 20
-0.0940391238724992
 30
0.0
 10
14.47934107914115
 20
0.1206202746448862
 30
0.0
  0
SPLINE
  5
FB
330
1F
100
AcDbEntity
  8
외형선
  6
Continuous
 62
     1
370
    15
100
AcDbSpline
210
0.0
220
0.0
230
1.0
 70
     8
 71
     3
 72
     8
 73
     4
 74
     0
 42
0.000000001
 43
0.00000001
 40
0.0
 40
0.0
 40
0.0
 40
0.0
 40
1.0
 40
1.0
 40
1.0
 40
1.0
 10
15.7577940539267
 20
-0.615289841641727
 30
0.0
 10
15.71080244597538
 20
-0.5883523347944222
 30
0.0
 10
15.65442299288687
 20
-0.5558263184542598
 30
0.0
 10
15.59663954510308
 20
-0.5226170018723023
 30
0.0
  0
SPLINE
  5
FC
330
1F
100
AcDbEntity
  8
외형선
  6
Continuous
 62
     1
370
    15
100
AcDbSpline
210
0.0
220
0.0
230
1.0
 70
     8
 71
     3
 72
    10
 73
     6
 74
     0
 42
0.000000001
 43
0.00000001
 40
0.0
 40
0.0
 40
0.0
 40
0.0
 40
0.5
 40
0.5
 40
1.0
 40
1.0
 40
1.0
 40
1.0
 10
16.40040964805871
 20
-0.9772581149987436
 30
0.0
 10
16.30251112489866
 20
-0.9173305981710528
 30
0.0
 10
16.1864843100173
 20
-0.854006323556066
 30
0.0
 10
15.95946761364477
 20
-0.7290980025356623
 30
0.0
 10
15.84985874788512
 20
-0.6680650802858097
 30
0.0
 10
15.75779405392671
 20
-0.6152898416417301
 30
0.0
  0
SPLINE
  5
FD
330
1F
100
AcDbEntity
  8
외형선
  6
Continuous
 62
     1
370
    15
100
AcDbSpline
210
0.0
220
0.0
230
1.0
 70
     8
 71
     3
 72
     8
 73
     4
 74
     0
 42
0.000000001
 43
0.00000001
 40
0.0
 40
0.0
 40
0.0
 40
0.0
 40
1.0
 40
1.0
 40
1.0
 40
1.0
 10
17.67794395697888
 20
-1.68817166626922
 30
0.0
 10
17.3079663235889
 20
-1.487603728515886
 30
0.0
 10
16.93385549407322
 20
-1.281131711129726
 30
0.0
 10
16.56053786419485
 20
-1.07150889227379
 30
0.0
  0
SPLINE
  5
FE
330
1F
100
AcDbEntity
  8
외형선
  6
Continuous
 62
     1
370
    15
100
AcDbSpline
210
0.0
220
0.0
230
1.0
 70
     8
 71
     3
 72
     8
 73
     4
 74
     0
 42
0.000000001
 43
0.00000001
 40
0.0
 40
0.0
 40
0.0
 40
0.0
 40
1.0
 40
1.0
 40
1.0
 40
1.0
 10
17.46302434601086
 20
1.465116429700577
 30
0.0
 10
17.09206544720344
 20
1.669239985760726
 30
0.0
 10
16.71783684768987
 20
1.869480805989693
 30
0.0
 10
16.34545080042493
 20
2.063081893729016
 30
0.0
  0
SPLINE
  5
FF
330
1F
100
AcDbEntity
  8
외형선
  6
Continuous
 62
     1
370
    15
100
AcDbSpline
210
0.0
220
0.0
230
1.0
 70
     8
 71
     3
 72
    12
 73
     8
 74
     0
 42
0.000000001
 43
0.00000001
 40
0.0
 40
0.0
 40
0.0
 40
0.0
 40
0.2500000000000001
 40
0.2500000000000001
 40
0.5000000000000002
 40
0.5000000000000002
 40
1.0
 40
1.0
 40
1.0
 40
1.0
 10
14.47934180615224
 20
0.1206203230457437
 30
0.0
 10
14.46152799461607
 20
0.3880232170284466
 30
0.0
 10
14.44462830692657
 20
0.6502861218156568
 30
0.0
 10
14.40976057072536
 20
1.171659606091185
 30
0.0
 10
14.39173989470199
 20
1.430967392505876
 30
0.0
 10
14.33701830606048
 20
2.187568273200402
 30
0.0
 10
14.29969419396787
 20
2.662181628689698
 30
0.0
 10
14.26462548392552
 20
3.069124505237478
 30
0.0
  0
SPLINE
  5
100
330
1F
100
AcDbEntity
  8
외형선
  6
Continuous
 62
     1
370
    15
100
AcDbSpline
210
0.0
220
0.0
230
1.0
 70
     8
 71
     3
 72
     8
 73
     4
 74
     0
 42
0.000000001
 43
0.00000001
 40
0.0
 40
0.0
 40
0.0
 40
0.0
 40
1.0
 40
1.0
 40
1.0
 40
1.0
 10
15.38158730077824
 20
2.550130007175149
 30
0.0
 10
15.00977750724152
 20
2.731358155376259
 30
0.0
 10
14.63575532041412
 20
2.905141665741126
 30
0.0
 10
14.26462495440576
 20
3.069124345768344
 30
0.0
  0
SPLINE
  5
101
330
1F
100
AcDbEntity
  8
외형선
  6
Continuous
 62
     1
370
    15
100
AcDbSpline
210
0.0
220
0.0
230
1.0
 70
     8
 71
     3
 72
    12
 73
     8
 74
     0
 42
0.000000001
 43
0.00000001
 40
0.0
 40
0.0
 40
0.0
 40
0.0
 40
0.2499999999999999
 40
0.2499999999999999
 40
0.4999999999999999
 40
0.4999999999999999
 40
1.0
 40
1.0
 40
1.0
 40
1.0
 10
15.59663949601251
 20
-0.5226162822786258
 30
0.0
 10
15.57835039133413
 20
-0.2545236717938423
 30
0.0
 10
15.56021551600243
 20
0.0153224821901425
 30
0.0
 10
15.52500405423033
 20
0.5470654379424768
 30
0.0
 10
15.50824163049446
 20
0.8074355549769836
 30
0.0
 10
15.45531693382368
 20
1.586649241801039
 30
0.0
 10
15.41794266769844
 20
2.09547419992938
 30
0.0
 10
15.38158944086707
 20
2.550131576138439
 30
0.0
  0
SPLINE
  5
102
330
1F
100
AcDbEntity
  8
외형선
  6
Continuous
 62
     1
370
    15
100
AcDbSpline
210
0.0
220
0.0
230
1.0
 70
     8
 71
     3
 72
     8
 73
     4
 74
     0
 42
0.000000001
 43
0.00000001
 40
0.0
 40
0.0
 40
0.0
 40
0.0
 40
1.0
 40
1.0
 40
1.0
 40
1.0
 10
15.38158965819465
 20
2.550128858120142
 30
0.0
 10
15.43720435525052
 20
2.523021044582123
 30
0.0
 10
15.49369464224827
 20
2.48796140543357
 30
0.0
 10
15.54170383401387
 20
2.449885939715181
 30
0.0
  0
SPLINE
  5
103
330
1F
100
AcDbEntity
  8
외형선
  6
Continuous
 62
     1
370
    15
100
AcDbSpline
210
0.0
220
0.0
230
1.0
 70
     8
 71
     3
 72
    12
 73
     8
 74
     0
 42
0.000000001
 43
0.00000001
 40
0.0
 40
0.0
 40
0.0
 40
0.0
 40
0.25
 40
0.25
 40
0.5
 40
0.5
 40
1.0
 40
1.0
 40
1.0
 40
1.0
 10
15.75779405179273
 20
-0.6152898108249132
 30
0.0
 10
15.73938965233425
 20
-0.3495113151013122
 30
0.0
 10
15.72109094015431
 20
-0.0812526709187922
 30
0.0
 10
15.68547621992018
 20
0.4486586598751037
 30
0.0
 10
15.66860093960054
 20
0.7081468868420286
 30
0.0
 10
15.61580216657222
 20
1.483667582870559
 30
0.0
 10
15.57832471868807
 20
1.992778379227201
 30
0.0
 10
15.54170394911708
 20
2.449884502986885
 30
0.0
  0
SPLINE
  5
104
330
1F
100
AcDbEntity
  8
외형선
  6
Continuous
 62
     1
370
    15
100
AcDbSpline
210
0.0
220
0.0
230
1.0
 70
     8
 71
     3
 72
    12
 73
     8
 74
     0
 42
0.000000001
 43
0.00000001
 40
0.0
 40
0.0
 40
0.0
 40
0.0
 40
0.5
 40
0.5
 40
0.75
 40
0.75
 40
1.0
 40
1.0
 40
1.0
 40
1.0
 10
12.40038633061711
 20
1.304048857566756
 30
0.0
 10
12.36453240141188
 20
1.81954588643707
 30
0.0
 10
12.32704597131605
 20
2.317064146962961
 30
0.0
 10
12.27307949188326
 20
2.973638527811556
 30
0.0
 10
12.25569972831981
 20
3.176920452654992
 30
0.0
 10
12.22138348675065
 20
3.550883671412731
 30
0.0
 10
12.20356714090954
 20
3.724599602611923
 30
0.0
 10
12.18544564840935
 20
3.880519936813383
 30
0.0
  0
SPLINE
  5
105
330
1F
100
AcDbEntity
  8
외형선
  6
Continuous
 62
     1
370
    15
100
AcDbSpline
210
0.0
220
0.0
230
1.0
 70
     8
 71
     3
 72
     8
 73
     4
 74
     0
 42
0.000000001
 43
0.00000001
 40
0.0
 40
0.0
 40
0.0
 40
0.0
 40
1.0
 40
1.0
 40
1.0
 40
1.0
 10
13.30228066806459
 20
3.472626651055529
 30
0.0
 10
12.92946778208974
 20
3.619688717292973
 30
0.0
 10
12.55548916409672
 20
3.756247036135287
 30
0.0
 10
12.18544566775431
 20
3.880519770354216
 30
0.0
  0
SPLINE
  5
106
330
1F
100
AcDbEntity
  8
외형선
  6
Continuous
 62
     1
370
    15
100
AcDbSpline
210
0.0
220
0.0
230
1.0
 70
     8
 71
     3
 72
    12
 73
     8
 74
     0
 42
0.000000001
 43
0.00000001
 40
0.0
 40
0.0
 40
0.0
 40
0.0
 40
0.4999999999999999
 40
0.4999999999999999
 40
0.75
 40
0.75
 40
1.0
 40
1.0
 40
1.0
 40
1.0
 10
13.51672984611823
 20
0.6749425951043954
 30
0.0
 10
13.48260605041336
 20
1.197222083250793
 30
0.0
 10
13.44569053057398
 20
1.720675650548085
 30
0.0
 10
13.39061733259017
 20
2.439768223084547
 30
0.0
 10
13.37232411783298
 20
2.668463754685545
 30
0.0
 10
13.33663824249284
 20
3.094771536259023
 30
0.0
 10
13.31969736324186
 20
3.29086999831684
 30
0.0
 10
13.30228073438631
 20
3.472626073599961
 30
0.0
  0
SPLINE
  5
107
330
1F
100
AcDbEntity
  8
외형선
  6
Continuous
 62
     1
370
    15
100
AcDbSpline
210
0.0
220
0.0
230
1.0
 70
     8
 71
     3
 72
    10
 73
     6
 74
     0
 42
0.000000001
 43
0.00000001
 40
0.0
 40
0.0
 40
0.0
 40
0.0
 40
0.5
 40
0.5
 40
1.0
 40
1.0
 40
1.0
 40
1.0
 10
15.54170383401452
 20
2.449885939714663
 30
0.0
 10
15.63958519433221
 20
2.372257505612917
 30
0.0
 10
15.75553203511078
 20
2.305117642186336
 30
0.0
 10
15.98245430521701
 20
2.195304738306925
 30
0.0
 10
16.09217179830154
 20
2.153046943207642
 30
0.0
 10
16.18430420807495
 20
2.128739464882384
 30
0.0
  0
SPLINE
  5
108
330
1F
100
AcDbEntity
  8
외형선
  6
Continuous
 62
     1
370
    15
100
AcDbSpline
210
0.0
220
0.0
230
1.0
 70
     8
 71
     3
 72
    12
 73
     8
 74
     0
 42
0.000000001
 43
0.00000001
 40
0.0
 40
0.0
 40
0.0
 40
0.0
 40
0.2499999999999999
 40
0.2499999999999999
 40
0.4999999999999999
 40
0.4999999999999999
 40
1.0
 40
1.0
 40
1.0
 40
1.0
 10
14.31933043831943
 20
0.2035159926143143
 30
0.0
 10
14.30153178935484
 20
0.468540508773641
 30
0.0
 10
14.28465859142696
 20
0.7280396555037776
 30
0.0
 10
14.24937095196885
 20
1.245313207799357
 30
0.0
 10
14.23117301581275
 20
1.501935400873738
 30
0.0
 10
14.17605233608419
 20
2.248542022895353
 30
0.0
 10
14.13864686068987
 20
2.713821366491465
 30
0.0
 10
14.10369818415156
 20
3.109816256584792
 30
0.0
  0
SPLINE
  5
109
330
1F
100
AcDbEntity
  8
외형선
  6
Continuous
 62
     1
370
    15
100
AcDbSpline
210
0.0
220
0.0
230
1.0
 70
     8
 71
     3
 72
     8
 73
     4
 74
     0
 42
0.000000001
 43
0.00000001
 40
0.0
 40
0.0
 40
0.0
 40
0.0
 40
1.0
 40
1.0
 40
1.0
 40
1.0
 10
14.1036981841448
 20
3.109816256664976
 30
0.0
 10
14.15060623144385
 20
3.109206293707237
 30
0.0
 10
14.20691364218472
 20
3.094623892583713
 30
0.0
 10
14.2646255191723
 20
3.06912409622818
 30
0.0
  0
SPLINE
  5
10A
330
1F
100
AcDbEntity
  8
외형선
  6
Continuous
 62
     1
370
    15
100
AcDbSpline
210
0.0
220
0.0
230
1.0
 70
     8
 71
     3
 72
     8
 73
     4
 74
     0
 42
0.000000001
 43
0.00000001
 40
0.0
 40
0.0
 40
0.0
 40
0.0
 40
1.0
 40
1.0
 40
1.0
 40
1.0
 10
17.94718020713496
 20
4.723216594287561
 30
0.0
 10
17.89155313709626
 20
4.719095856200675
 30
0.0
 10
17.83505095922829
 20
4.698094850923598
 30
0.0
 10
17.78702397971587
 20
4.658730228275644
 30
0.0
  0
SPLINE
  5
10B
330
1F
100
AcDbEntity
  8
외형선
  6
Continuous
 62
     1
370
    15
100
AcDbSpline
210
0.0
220
0.0
230
1.0
 70
     8
 71
     3
 72
     8
 73
     4
 74
     0
 42
0.000000001
 43
0.00000001
 40
0.0
 40
0.0
 40
0.0
 40
0.0
 40
1.0
 40
1.0
 40
1.0
 40
1.0
 10
18.4250000000001
 20
4.75062095227548
 30
0.0
 10
18.26534338925899
 20
4.744126705511308
 30
0.0
 10
18.10583371350323
 20
4.734972771001645
 30
0.0
 10
17.94687071275711
 20
4.723193664219965
 30
0.0
  0
SPLINE
  5
10C
330
1F
100
AcDbEntity
  8
외형선
  6
Continuous
 62
     1
370
    15
100
AcDbSpline
210
0.0
220
0.0
230
1.0
 70
     8
 71
     3
 72
     8
 73
     4
 74
     0
 42
0.000000001
 43
0.00000001
 40
0.0
 40
0.0
 40
0.0
 40
0.0
 40
1.0
 40
1.0
 40
1.0
 40
1.0
 10
19.525
 20
3.627265076973849
 30
0.0
 10
19.1721729717058
 20
4.021600993925663
 30
0.0
 10
18.80187026229293
 20
4.393371914127949
 30
0.0
 10
18.42499999999999
 20
4.750620952275477
 30
0.0
  0
LINE
  5
10D
330
1F
100
AcDbEntity
  8
외형선
  6
Continuous
 62
     1
370
    15
100
AcDbLine
 10
19.525
 20
3.083737631391744
 30
0.0
 11
19.525
 21
3.627265076973849
 31
0.0
  0
SPLINE
  5
10E
330
1F
100
AcDbEntity
  8
외형선
  6
Continuous
 62
     1
370
    15
100
AcDbSpline
210
0.0
220
0.0
230
1.0
 70
     8
 71
     3
 72
    12
 73
     8
 74
     0
 42
0.000000001
 43
0.00000001
 40
0.0
 40
0.0
 40
0.0
 40
0.0
 40
0.2500000000000003
 40
0.2500000000000003
 40
0.5000000000000007
 40
0.5000000000000007
 40
1.0
 40
1.0
 40
1.0
 40
1.0
 10
19.525
 20
3.083737631391745
 30
0.0
 10
19.44653093977822
 20
2.904524753650831
 30
0.0
 10
19.35402629097041
 20
2.738489630631814
 30
0.0
 10
19.13943996163115
 20
2.434188713045318
 30
0.0
 10
19.01577086405158
 20
2.295026471038984
 30
0.0
 10
18.61707248400325
 20
1.940226699704469
 30
0.0
 10
18.30566545649613
 20
1.779028503699692
 30
0.0
 10
17.98343851851195
 20
1.694338970691253
 30
0.0
  0
SPLINE
  5
10F
330
1F
100
AcDbEntity
  8
외형선
  6
Continuous
 62
     1
370
    15
100
AcDbSpline
210
0.0
220
0.0
230
1.0
 70
     8
 71
     3
 72
     8
 73
     4
 74
     0
 42
0.000000001
 43
0.00000001
 40
0.0
 40
0.0
 40
0.0
 40
0.0
 40
1.0
 40
1.0
 40
1.0
 40
1.0
 10
19.525
 20
0.9186882131466267
 30
0.0
 10
18.99792840035619
 20
1.205300908192385
 30
0.0
 10
18.48454323427952
 20
1.4628561538083
 30
0.0
 10
17.98343851851147
 20
1.694338970689035
 30
0.0
  0
LINE
  5
110
330
1F
100
AcDbEntity
  8
외형선
  6
Continuous
 62
     1
370
    15
100
AcDbLine
 10
19.525
 20
0.5068079630055752
 30
0.0
 11
19.525
 21
0.9186882131466256
 31
0.0
  0
SPLINE
  5
111
330
1F
100
AcDbEntity
  8
외형선
  6
Continuous
 62
     1
370
    15
100
AcDbSpline
210
0.0
220
0.0
230
1.0
 70
     8
 71
     3
 72
    10
 73
     6
 74
     0
 42
0.000000001
 43
0.00000001
 40
0.0
 40
0.0
 40
0.0
 40
0.0
 40
0.5
 40
0.5
 40
1.0
 40
1.0
 40
1.0
 40
1.0
 10
13.46219211101351
 20
3.375605492727711
 30
0.0
 10
13.55990339347692
 20
3.290664676943827
 30
0.0
 10
13.67573719395896
 20
3.225938035821303
 30
0.0
 10
13.90238680478496
 20
3.136109804886645
 30
0.0
 10
14.01180317058917
 20
3.111011202041701
 30
0.0
 10
14.1036981841445
 20
3.10981625666482
 30
0.0
  0
SPLINE
  5
112
330
1F
100
AcDbEntity
  8
외형선
  6
Continuous
 62
     1
370
    15
100
AcDbSpline
210
0.0
220
0.0
230
1.0
 70
     8
 71
     3
 72
     8
 73
     4
 74
     0
 42
0.000000001
 43
0.00000001
 40
0.0
 40
0.0
 40
0.0
 40
0.0
 40
1.0
 40
1.0
 40
1.0
 40
1.0
 10
13.30228067948564
 20
3.472626646551069
 30
0.0
 10
13.35783185552069
 20
3.45071358761576
 30
0.0
 10
13.41425763360914
 20
3.417275129152876
 30
0.0
 10
13.46219211101285
 20
3.375605492728279
 30
0.0
  0
SPLINE
  5
113
330
1F
100
AcDbEntity
  8
외형선
  6
Continuous
 62
     1
370
    15
100
AcDbSpline
210
0.0
220
0.0
230
1.0
 70
     8
 71
     3
 72
     8
 73
     4
 74
     0
 42
0.000000001
 43
0.00000001
 40
0.0
 40
0.0
 40
0.0
 40
0.0
 40
1.0
 40
1.0
 40
1.0
 40
1.0
 10
12.02432285047106
 20
3.893799043649593
 30
0.0
 10
12.0713203785129
 20
3.905002404131453
 30
0.0
 10
12.12768181850058
 20
3.899918764139344
 30
0.0
 10
12.18544566775575
 20
3.880519770353735
 30
0.0
  0
SPLINE
  5
114
330
1F
100
AcDbEntity
  8
외형선
  6
Continuous
 62
     1
370
    15
100
AcDbSpline
210
0.0
220
0.0
230
1.0
 70
     8
 71
     3
 72
    10
 73
     6
 74
     0
 42
0.000000001
 43
0.00000001
 40
0.0
 40
0.0
 40
0.0
 40
0.0
 40
0.5000000000000002
 40
0.5000000000000002
 40
1.0
 40
1.0
 40
1.0
 40
1.0
 10
11.38180502973439
 20
4.088088846191418
 30
0.0
 10
11.47967017943762
 20
4.000989035754405
 30
0.0
 10
11.59566722129521
 20
3.942582703044955
 30
0.0
 10
11.82266242790646
 20
3.8781165009874
 30
0.0
 10
11.93229739809711
 20
3.871861840578946
 30
0.0
 10
12.02432285047076
 20
3.893799043649402
 30
0.0
  0
SPLINE
  5
115
330
1F
100
AcDbEntity
  8
외형선
  6
Continuous
 62
     1
370
    15
100
AcDbSpline
210
0.0
220
0.0
230
1.0
 70
     8
 71
     3
 72
     8
 73
     4
 74
     0
 42
0.000000001
 43
0.00000001
 40
0.0
 40
0.0
 40
0.0
 40
0.0
 40
1.0
 40
1.0
 40
1.0
 40
1.0
 10
11.22167544186334
 20
4.175995687305148
 30
0.0
 10
11.27729292094447
 20
4.160590246476593
 30
0.0
 10
11.3337937819458
 20
4.130818771950414
 30
0.0
 10
11.38180502973373
 20
4.088088846192004
 30
0.0
  0
SPLINE
  5
11D
330
1F
100
AcDbEntity
  8
외형선
  6
Continuous
 62
     1
370
    15
100
AcDbSpline
210
0.0
220
0.0
230
1.0
 70
     8
 71
     3
 72
    10
 73
     6
 74
     0
 42
0.000000001
 43
0.00000001
 40
0.0
 40
0.0
 40
0.0
 40
0.0
 40
0.3742128458706203
 40
0.7468321276013405
 40
1.0
 40
1.0
 40
1.0
 40
1.0
 10
13.62702308267849
 20
3.746221947880915
 30
0.0
 10
13.57160659413108
 20
3.704175075439034
 30
0.0
 10
13.46100960500376
 20
3.620260384772296
 30
0.0
 10
13.29250072426185
 20
3.54821994387745
 30
0.0
 10
13.1967164443601
 20
3.533246903595589
 30
0.0
 10
13.15796604465638
 20
3.527189424264982
 30
0.0
  0
SPLINE
  5
11E
330
1F
100
AcDbEntity
  8
외형선
  6
Continuous
 62
     1
370
    15
100
AcDbSpline
210
0.0
220
0.0
230
1.0
 70
     8
 71
     3
 72
     8
 73
     4
 74
     0
 42
0.000000001
 43
0.00000001
 40
0.0
 40
0.0
 40
0.0
 40
0.0
 40
1.0
 40
1.0
 40
1.0
 40
1.0
 10
13.7871266124814
 20
3.839804113471716
 30
0.0
 10
13.73153589385125
 20
3.820780949468132
 30
0.0
 10
13.67504234129674
 20
3.788792766382596
 30
0.0
 10
13.62702308267874
 20
3.74622194788114
 30
0.0
  0
SPLINE
  5
11F
330
1F
100
AcDbEntity
  8
외형선
  6
Continuous
 62
     1
370
    15
100
AcDbSpline
210
0.0
220
0.0
230
1.0
 70
     8
 71
     3
 72
     8
 73
     4
 74
     0
 42
0.000000001
 43
0.00000001
 40
0.0
 40
0.0
 40
0.0
 40
0.0
 40
1.0
 40
1.0
 40
1.0
 40
1.0
 10
14.90396394862021
 20
4.185094361138129
 30
0.0
 10
14.53023684759039
 20
4.082330318971876
 30
0.0
 10
14.15860128614126
 20
3.966922881037061
 30
0.0
 10
13.78712661236465
 20
3.839804113431764
 30
0.0
  0
SPLINE
  5
120
330
1F
100
AcDbEntity
  8
외형선
  6
Continuous
 62
     1
370
    15
100
AcDbSpline
210
0.0
220
0.0
230
1.0
 70
     8
 71
     3
 72
     8
 73
     4
 74
     0
 42
0.000000001
 43
0.00000001
 40
0.0
 40
0.0
 40
0.0
 40
0.0
 40
1.0
 40
1.0
 40
1.0
 40
1.0
 10
15.0648240857799
 20
4.184408328301193
 30
0.0
 10
15.01794067081851
 20
4.20115458273733
 30
0.0
 10
14.9616487617464
 20
4.200955997521197
 30
0.0
 10
14.90396484671483
 20
4.185094608087909
 30
0.0
  0
SPLINE
  5
121
330
1F
100
AcDbEntity
  8
외형선
  6
Continuous
 62
     1
370
    15
100
AcDbSpline
210
0.0
220
0.0
230
1.0
 70
     8
 71
     3
 72
    10
 73
     6
 74
     0
 42
0.000000001
 43
0.00000001
 40
0.0
 40
0.0
 40
0.0
 40
0.0
 40
0.5
 40
0.5
 40
1.0
 40
1.0
 40
1.0
 40
1.0
 10
15.70630129151619
 20
4.339576847598765
 30
0.0
 10
15.60867926409413
 20
4.25347064017106
 30
0.0
 10
15.49294680183862
 20
4.199350078229967
 30
0.0
 10
15.26630652184923
 20
4.148542033432759
 30
0.0
 10
15.15674128568822
 20
4.151576487488305
 30
0.0
 10
15.06482408578067
 20
4.184408328300656
 30
0.0
  0
SPLINE
  5
122
330
1F
100
AcDbEntity
  8
외형선
  6
Continuous
 62
     1
370
    15
100
AcDbSpline
210
0.0
220
0.0
230
1.0
 70
     8
 71
     3
 72
     8
 73
     4
 74
     0
 42
0.000000001
 43
0.00000001
 40
0.0
 40
0.0
 40
0.0
 40
0.0
 40
1.0
 40
1.0
 40
1.0
 40
1.0
 10
15.86628026807967
 20
4.421251215261789
 30
0.0
 10
15.81072316293914
 20
4.40928476874367
 30
0.0
 10
15.75428412786841
 20
4.381899468517541
 30
0.0
 10
15.70630129151644
 20
4.339576847598982
 30
0.0
  0
SPLINE
  5
123
330
1F
100
AcDbEntity
  8
외형선
  6
Continuous
 62
     1
370
    15
100
AcDbSpline
210
0.0
220
0.0
230
1.0
 70
     8
 71
     3
 72
     8
 73
     4
 74
     0
 42
0.000000001
 43
0.00000001
 40
0.0
 40
0.0
 40
0.0
 40
0.0
 40
1.0
 40
1.0
 40
1.0
 40
1.0
 10
16.98362807374071
 20
4.619725742170015
 30
0.0
 10
16.61054738698607
 20
4.567468158505255
 30
0.0
 10
16.23639535078773
 20
4.500970330389624
 30
0.0
 10
15.86627961400142
 20
4.42125107437985
 30
0.0
  0
SPLINE
  5
124
330
1F
100
AcDbEntity
  8
외형선
  6
Continuous
 62
     1
370
    15
100
AcDbSpline
210
0.0
220
0.0
230
1.0
 70
     8
 71
     3
 72
     8
 73
     4
 74
     0
 42
0.000000001
 43
0.00000001
 40
0.0
 40
0.0
 40
0.0
 40
0.0
 40
1.0
 40
1.0
 40
1.0
 40
1.0
 10
17.14442765841691
 20
4.590972392089471
 30
0.0
 10
17.09745428005332
 20
4.618199548759935
 30
0.0
 10
17.0410845502479
 20
4.62777489133009
 30
0.0
 10
16.98331956600223
 20
4.619682526151933
 30
0.0
  0
SPLINE
  5
125
330
1F
100
AcDbEntity
  8
외형선
  6
Continuous
 62
     1
370
    15
100
AcDbSpline
210
0.0
220
0.0
230
1.0
 70
     8
 71
     3
 72
    10
 73
     6
 74
     0
 42
0.000000001
 43
0.00000001
 40
0.0
 40
0.0
 40
0.0
 40
0.0
 40
0.5
 40
0.5
 40
1.0
 40
1.0
 40
1.0
 40
1.0
 10
17.78702397971563
 20
4.658730228275443
 30
0.0
 10
17.68917659200631
 20
4.578531024965581
 30
0.0
 10
17.57329454480327
 20
4.535987997345271
 30
0.0
 10
17.34631700715033
 20
4.515751198926865
 30
0.0
 10
17.23656186927399
 20
4.537568683836812
 30
0.0
 10
17.14442765841769
 20
4.590972392088878
 30
0.0
  0
SPLINE
  5
126
330
1F
100
AcDbEntity
  8
외형선
  6
Continuous
 62
     1
370
    15
100
AcDbSpline
210
0.0
220
0.0
230
1.0
 70
     8
 71
     3
 72
    14
 73
    10
 74
     0
 42
0.000000001
 43
0.00000001
 40
0.0
 40
0.0
 40
0.0
 40
0.0
 40
0.2499999999999999
 40
0.2499999999999999
 40
0.4999999999999999
 40
0.4999999999999999
 40
0.7499999999999998
 40
0.7499999999999998
 40
1.0
 40
1.0
 40
1.0
 40
1.0
 10
13.67755166552662
 20
0.5693923714404594
 30
0.0
 10
13.66028020605496
 20
0.8302067540354947
 30
0.0
 10
13.64283619946895
 20
1.089261318960721
 30
0.0
 10
13.60666568412631
 20
1.600571477121811
 30
0.0
 10
13.58819670297355
 20
1.851504603066745
 30
0.0
 10
13.55128625705742
 20
2.33272338063669
 30
0.0
 10
13.5328486880387
 20
2.562958565100112
 30
0.0
 10
13.49679936925423
 20
2.993278366176835
 30
0.0
 10
13.47956211281033
 20
3.192062758298492
 30
0.0
 10
13.46219208096525
 20
3.375605810237173
 30
0.0
  0
SPLINE
  5
127
330
1F
100
AcDbEntity
  8
외형선
  6
Continuous
 62
     1
370
    15
100
AcDbSpline
210
0.0
220
0.0
230
1.0
 70
     8
 71
     3
 72
    12
 73
     8
 74
     0
 42
0.000000001
 43
0.00000001
 40
0.0
 40
0.0
 40
0.0
 40
0.0
 40
0.5000000000000001
 40
0.5000000000000001
 40
0.75
 40
0.75
 40
1.0
 40
1.0
 40
1.0
 40
1.0
 10
12.2403151009033
 20
1.370522850722598
 30
0.0
 10
12.20413410107768
 20
1.880635774835657
 30
0.0
 10
12.16647298914601
 20
2.37025273270102
 30
0.0
 10
12.11253588787781
 20
3.012215028184583
 30
0.0
 10
12.09538703641632
 20
3.20964081283111
 30
0.0
 10
12.06060960271545
 20
3.574676026332154
 30
0.0
 10
12.04259583578211
 20
3.743360230084441
 30
0.0
 10
12.02432285047159
 20
3.893799043642572
 30
0.0
  0
SPLINE
  5
12A
330
1F
100
AcDbEntity
  8
외형선
  6
Continuous
 62
     1
370
    15
100
AcDbSpline
210
0.0
220
0.0
230
1.0
 70
     8
 71
     3
 72
    12
 73
     8
 74
     0
 42
0.000000001
 43
0.00000001
 40
0.0
 40
0.0
 40
0.0
 40
0.0
 40
0.5000000000000001
 40
0.5000000000000001
 40
0.75
 40
0.75
 40
1.0
 40
1.0
 40
1.0
 40
1.0
 10
11.59787751934743
 20
1.717477493367872
 30
0.0
 10
11.56120135172862
 20
2.21604569560723
 30
0.0
 10
11.52379380271515
 20
2.683265642868269
 30
0.0
 10
11.471260494407
 20
3.281328730266789
 30
0.0
 10
11.45430924212743
 20
3.464343856610432
 30
0.0
 10
11.41855859645545
 20
3.802118696936609
 30
0.0
 10
11.40021947155134
 20
3.955015001378245
 30
0.0
 10
11.38180506900414
 20
4.088088562404578
 30
0.0
  0
SPLINE
  5
12D
330
1F
100
AcDbEntity
  8
외형선
  6
Continuous
 62
     1
370
    15
100
AcDbSpline
210
0.0
220
0.0
230
1.0
 70
     8
 71
     3
 72
    12
 73
     8
 74
     0
 42
0.000000001
 43
0.00000001
 40
0.0
 40
0.0
 40
0.0
 40
0.0
 40
0.25
 40
0.25
 40
0.5
 40
0.5
 40
0.9733951991034769
 40
0.9733951991034769
 40
0.9733951991034769
 40
0.9733951991034769
 10
10.31903377799561
 20
2.406528694671722
 30
0.0
 10
10.30076395566766
 20
2.63922277243129
 30
0.0
 10
10.28267503550906
 20
2.859475139046368
 30
0.0
 10
10.24760244432209
 20
3.266856307403634
 30
0.0
 10
10.230811588092
 20
3.453628382849006
 30
0.0
 10
10.17956182466178
 20
3.954190084405254
 30
0.0
 10
10.14423746521268
 20
4.224372897277056
 30
0.0
 10
10.11576600984909
 20
4.706922829956591
 30
0.0
  0
SPLINE
  5
12E
330
1F
100
AcDbEntity
  8
외형선
  6
Continuous
 62
     1
370
    15
100
AcDbSpline
210
0.0
220
0.0
230
1.0
 70
     8
 71
     3
 72
    12
 73
     8
 74
     0
 42
0.000000001
 43
0.00000001
 40
0.0
 40
0.0
 40
0.0
 40
0.0
 40
0.5000000000000002
 40
0.5000000000000002
 40
0.7500000000000001
 40
0.7500000000000001
 40
1.0
 40
1.0
 40
1.0
 40
1.0
 10
11.43675436586196
 20
1.829658197946331
 30
0.0
 10
11.40016613037468
 20
2.327682587613416
 30
0.0
 10
11.3630560971013
 20
2.791455934587597
 30
0.0
 10
11.31117360615906
 20
3.381917555174172
 30
0.0
 10
11.29410189483012
 20
3.56332687777449
 30
0.0
 10
11.25832408357405
 20
3.896262783717648
 30
0.0
 10
11.24001590091938
 20
4.046219145416071
 30
0.0
 10
11.22167542855163
 20
4.175995781482924
 30
0.0
  0
SPLINE
  5
135
330
1F
100
AcDbEntity
  8
외형선
  6
Continuous
 62
     1
370
    15
100
AcDbSpline
210
0.0
220
0.0
230
1.0
 70
     8
 71
     3
 72
    12
 73
     8
 74
     0
 42
0.000000001
 43
0.00000001
 40
0.0
 40
0.0
 40
0.0
 40
0.0
 40
0.2500000000000001
 40
0.2500000000000001
 40
0.5000000000000002
 40
0.5000000000000002
 40
0.7406634619599886
 40
0.7406634619599886
 40
0.7406634619599886
 40
0.7406634619599886
 10
10.15888794661891
 20
2.452305298916859
 30
0.0
 10
10.14057656029653
 20
2.680799914372519
 30
0.0
 10
10.12249005019393
 20
2.896372381826905
 30
0.0
 10
10.08750852469148
 20
3.293738005816077
 30
0.0
 10
10.07052078241378
 20
3.476233970183315
 30
0.0
 10
10.03538716766252
 20
3.806413490290847
 30
0.0
 10
10.01772916197401
 20
3.953058398653077
 30
0.0
 10
10.0
 20
4.081736112681744
 30
0.0
  0
SPLINE
  5
13F
330
1F
100
AcDbEntity
  8
외형선
  6
Continuous
 62
     1
370
    15
100
AcDbSpline
210
0.0
220
0.0
230
1.0
 70
     8
 71
     3
 72
     8
 73
     4
 74
     0
 42
0.000000001
 43
0.00000001
 40
0.0
 40
0.0
 40
0.0
 40
0.0
 40
0.0449754906278849
 40
0.0449754906278849
 40
0.0449754906278849
 40
0.0449754906278849
 10
10.0500810758473
 20
-4.758907647285247
 30
0.0
 10
10.03339376278813
 20
-4.758532926025503
 30
0.0
 10
10.01669991576598
 20
-4.758128717200126
 30
0.0
 10
9.999999999999998
 20
-4.757695044563324
 30
0.0
  0
SPLINE
  5
140
330
1F
100
AcDbEntity
  8
외형선
  6
Continuous
 62
     1
370
    15
100
AcDbSpline
210
0.0
220
0.0
230
1.0
 70
     8
 71
     3
 72
     8
 73
     4
 74
     0
 42
0.000000001
 43
0.00000001
 40
0.0
 40
0.0
 40
0.0
 40
0.0
 40
0.2279440180669632
 40
0.2279440180669632
 40
0.2279440180669632
 40
0.2279440180669632
 10
10.05008105475242
 20
-4.758907637610915
 30
0.0
 10
10.03348081472872
 20
-4.749372053620282
 30
0.0
 10
10.01668917036713
 20
-4.720294560920379
 30
0.0
 10
10.0
 20
-4.672869089042162
 30
0.0
  0
SPLINE
  5
143
330
1F
100
AcDbEntity
  8
외형선
  6
Continuous
 62
     1
370
    15
100
AcDbSpline
210
0.0
220
0.0
230
1.0
 70
     8
 71
     3
 72
     8
 73
     4
 74
     0
 42
0.000000001
 43
0.00000001
 40
0.0
 40
0.0
 40
0.0
 40
0.0
 40
1.0
 40
1.0
 40
1.0
 40
1.0
 10
10.21120249326763
 20
-4.708423137217163
 30
0.0
 10
10.16422368601448
 20
-4.743019338818605
 30
0.0
 10
10.10785425674071
 20
-4.760204970547774
 30
0.0
 10
10.05008107142158
 20
-4.758907647185866
 30
0.0
  0
LINE
  5
145
330
1F
100
AcDbEntity
  8
외형선
  6
Continuous
 62
     1
370
    15
100
AcDbLine
 10
10.81796389302951
 20
-4.688188373777543
 30
0.0
 11
10.80716033573888
 21
-4.684401174602124
 31
0.0
  0
LINE
  5
149
330
1F
100
AcDbEntity
  8
외형선
  6
Continuous
 62
     1
370
    15
100
AcDbLine
 10
19.525
 20
0.9186882131466267
 30
0.0
 11
19.525
 21
3.083737631391744
 31
0.0
  0
LINE
  5
14A
330
1F
100
AcDbEntity
  8
외형선
  6
Continuous
 62
     1
370
    15
100
AcDbLine
 10
14.98855513931554
 20
-4.753296816898776
 30
0.0
 11
14.98667955216136
 21
-4.752590030299025
 31
0.0
  0
LINE
  5
14B
330
1F
100
AcDbEntity
  8
외형선
  6
Continuous
 62
     1
370
    15
100
AcDbLine
 10
19.525
 20
-2.252541109290009
 30
0.0
 11
19.525
 21
-2.784196431186873
 31
0.0
  0
LINE
  5
14C
330
1F
100
AcDbEntity
  8
외형선
  6
Continuous
 62
     1
370
    15
100
AcDbLine
 10
19.525
 20
3.662499999999993
 30
0.0
 11
19.525
 21
3.627265076973849
 31
0.0
  0
SPLINE
  5
14E
330
1F
100
AcDbEntity
  8
외형선
  6
Continuous
 62
     1
370
    15
100
AcDbSpline
210
0.0
220
0.0
230
1.0
 70
     8
 71
     3
 72
    12
 73
     8
 74
     0
 42
0.000000001
 43
0.00000001
 40
0.0
 40
0.0
 40
0.0
 40
0.0
 40
0.1983442683062807
 40
0.4238771902857609
 40
0.6464880819661974
 40
0.8695657630902527
 40
0.9772004265782254
 40
0.9772004265782254
 40
0.9772004265782254
 40
0.9772004265782254
 10
10.20530969726548
 20
-4.700507071181044
 30
0.0
 10
10.19122881003907
 20
-4.687594687523871
 30
0.0
 10
10.16113685444475
 20
-4.659999915306694
 30
0.0
 10
10.11504085895219
 20
-4.492196868882191
 30
0.0
 10
10.06915473460623
 20
-4.228829064624233
 30
0.0
 10
10.03103277659592
 20
-3.937297609375584
 30
0.0
 10
10.00762864649378
 20
-3.72711419176943
 30
0.0
 10
10.0
 20
-3.658041798050462
 30
0.0
  0
SPLINE
  5
14F
330
1F
100
AcDbEntity
  8
외형선
  6
Continuous
 62
     1
370
    15
100
AcDbSpline
210
0.0
220
0.0
230
1.0
 70
     8
 71
     3
 72
    12
 73
     8
 74
     0
 42
0.000000001
 43
0.00000001
 40
0.0
 40
0.0
 40
0.0
 40
0.0
 40
0.0449330881768829
 40
0.3609735633207112
 40
0.6733789165246542
 40
0.9850598517403331
 40
1.0
 40
1.0
 40
1.0
 40
1.0
 10
10.80716033573888
 20
-4.684401174602124
 30
0.0
 10
10.80459536276458
 20
-4.68385321958278
 30
0.0
 10
10.78398944690347
 20
-4.679451179039889
 30
0.0
 10
10.74486150511634
 20
-4.544151907733903
 30
0.0
 10
10.692357128142
 20
-4.275720536420169
 30
0.0
 10
10.65704790846149
 20
-4.003480238699449
 30
0.0
 10
10.63847760694891
 20
-3.84572842252706
 30
0.0
 10
10.63762817293543
 20
-3.838512613012349
 30
0.0
  0
SPLINE
  5
151
330
1F
100
AcDbEntity
  8
외형선
  6
Continuous
 62
     1
370
    15
100
AcDbSpline
210
0.0
220
0.0
230
1.0
 70
     8
 71
     3
 72
    11
 73
     7
 74
     0
 42
0.000000001
 43
0.00000001
 40
0.0
 40
0.0
 40
0.0
 40
0.0
 40
0.148475911510347
 40
0.4347650859929363
 40
0.7181102021978848
 40
1.0
 40
1.0
 40
1.0
 40
1.0
 10
10.98748979869839
 20
-4.745455644108358
 30
0.0
 10
10.97809808652968
 20
-4.748076006261545
 30
0.0
 10
10.95059740640509
 20
-4.755748914043517
 30
0.0
 10
10.9041987691016
 20
-4.618018855646398
 30
0.0
 10
10.85113709920088
 20
-4.356980380930096
 30
0.0
 10
10.81613803270296
 20
-4.07814422768125
 30
0.0
 10
10.79868355575209
 20
-3.939085112769154
 30
0.0
  0
SPLINE
  5
152
330
1F
100
AcDbEntity
  8
외형선
  6
Continuous
 62
     1
370
    15
100
AcDbSpline
210
0.0
220
0.0
230
1.0
 70
     8
 71
     3
 72
    10
 73
     6
 74
     0
 42
0.000000001
 43
0.00000001
 40
0.0
 40
0.0
 40
0.0
 40
0.0
 40
0.0796248460622916
 40
0.5425174741162053
 40
1.0
 40
1.0
 40
1.0
 40
1.0
 10
12.06234449804486
 20
-4.747250959428301
 30
0.0
 10
12.05848166152307
 20
-4.752024794369102
 30
0.0
 10
12.03216253606966
 20
-4.78455093416101
 30
0.0
 10
11.98136440866957
 20
-4.647518484491624
 30
0.0
 10
11.93709531570677
 20
-4.391272993802239
 30
0.0
 10
11.91509087938474
 20
-4.26390337302818
 30
0.0
  0
SPLINE
  5
154
330
1F
100
AcDbEntity
  8
외형선
  6
Continuous
 62
     1
370
    15
100
AcDbSpline
210
0.0
220
0.0
230
1.0
 70
     8
 71
     3
 72
    11
 73
     7
 74
     0
 42
0.000000001
 43
0.00000001
 40
0.0
 40
0.0
 40
0.0
 40
0.0
 40
0.0556733152873586
 40
0.3715902017925329
 40
0.687634379827891
 40
1.0
 40
1.0
 40
1.0
 40
1.0
 10
12.23222498834551
 20
-4.69555097023948
 30
0.0
 10
12.22936086644498
 20
-4.700191415848926
 30
0.0
 10
12.21024435381266
 20
-4.731163958287277
 30
0.0
 10
12.17346554456729
 20
-4.677876712775486
 30
0.0
 10
12.12330489576433
 20
-4.537480954224464
 30
0.0
 10
12.09101527538741
 20
-4.347527450695562
 30
0.0
 10
12.07496497298453
 20
-4.253106669697361
 30
0.0
  0
SPLINE
  5
155
330
1F
100
AcDbEntity
  8
외형선
  6
Continuous
 62
     1
370
    15
100
AcDbSpline
210
0.0
220
0.0
230
1.0
 70
     8
 71
     3
 72
     9
 73
     5
 74
     0
 42
0.000000001
 43
0.00000001
 40
0.0
 40
0.0
 40
0.0
 40
0.0
 40
0.4200415129551596
 40
1.0
 40
1.0
 40
1.0
 40
1.0
 10
12.81657645795992
 20
-4.686615631086116
 30
0.0
 10
12.80249566887555
 20
-4.67483342696391
 30
0.0
 10
12.76897329394335
 20
-4.646783332487974
 30
0.0
 10
12.73586300772586
 20
-4.489015871167059
 30
0.0
 10
12.71666041622555
 20
-4.397517292994475
 30
0.0
  0
SPLINE
  5
156
330
1F
100
AcDbEntity
  8
외형선
  6
Continuous
 62
     1
370
    15
100
AcDbSpline
210
0.0
220
0.0
230
1.0
 70
     8
 71
     3
 72
     9
 73
     5
 74
     0
 42
0.000000001
 43
0.00000001
 40
0.0
 40
0.0
 40
0.0
 40
0.0
 40
0.4968686475329215
 40
0.9999999999999999
 40
0.9999999999999999
 40
0.9999999999999999
 40
0.9999999999999999
 10
12.98862245793443
 20
-4.761425106575063
 30
0.0
 10
12.97016470170318
 20
-4.750077374276757
 30
0.0
 10
12.93301654127308
 20
-4.727238878922606
 30
0.0
 10
12.89617250647548
 20
-4.564137579455094
 30
0.0
 10
12.87763511741742
 20
-4.482076202064869
 30
0.0
  0
SPLINE
  5
157
330
1F
100
AcDbEntity
  8
외형선
  6
Continuous
 62
     1
370
    15
100
AcDbSpline
210
0.0
220
0.0
230
1.0
 70
     8
 71
     3
 72
     9
 73
     5
 74
     0
 42
0.000000001
 43
0.00000001
 40
0.0
 40
0.0
 40
0.0
 40
0.0
 40
0.077806512064201
 40
1.0
 40
1.0
 40
1.0
 40
1.0
 10
14.06245951903377
 20
-4.755742429975621
 30
0.0
 10
14.06074787344134
 20
-4.757975801685181
 30
0.0
 10
14.03874912877302
 20
-4.786679976314118
 30
0.0
 10
14.0159599085776
 20
-4.719950883957172
 30
0.0
 10
13.99494383811825
 20
-4.658413749529729
 30
0.0
  0
SPLINE
  5
158
330
1F
100
AcDbEntity
  8
외형선
  6
Continuous
 62
     1
370
    15
100
AcDbSpline
210
0.0
220
0.0
230
1.0
 70
     8
 71
     3
 72
     9
 73
     5
 74
     0
 42
0.000000001
 43
0.00000001
 40
0.0
 40
0.0
 40
0.0
 40
0.0
 40
0.2363524371874834
 40
0.9999999999999999
 40
0.9999999999999999
 40
0.9999999999999999
 40
0.9999999999999999
 10
14.23249912376165
 20
-4.686668223820896
 30
0.0
 10
14.22653027665266
 20
-4.696053983675669
 30
0.0
 10
14.20127626539723
 20
-4.735764849222319
 30
0.0
 10
14.17509159740204
 20
-4.671886090092176
 30
0.0
 10
14.15509573950445
 20
-4.623105231366952
 30
0.0
  0
LINE
  5
159
330
1F
100
AcDbEntity
  8
외형선
  6
Continuous
 62
     1
370
    15
100
AcDbLine
 10
14.8209610950227
 20
-4.692817257277782
 30
0.0
 11
14.79765946013775
 21
-4.678802808342869
 31
0.0
  0
LINE
  5
15A
330
1F
100
AcDbEntity
  8
외형선
  6
Continuous
 62
     1
370
    15
100
AcDbLine
 10
14.98667955216136
 20
-4.752590030299025
 30
0.0
 11
14.95879004598385
 21
-4.742080292483871
 31
0.0
  0
LINE
  5
15B
330
1F
100
AcDbEntity
  8
중심선
100
AcDbLine
 10
-38.24375000000001
 20
-0.0000000000000077
 30
0.0
 11
22.525
 21
-0.0000000000000002
 31
0.0
  0
LINE
  5
15C
330
1F
100
AcDbEntity
  8
참조1
100
AcDbLine
 10
-12.225
 20
-0.3168705809327398
 30
0.0
 11
-12.22499999999999
 21
-40.31687058093274
 31
0.0
  0
LINE
  5
15D
330
1F
100
AcDbEntity
  8
참조1
100
AcDbLine
 10
-24.49110765519647
 20
-4.762499999999999
 30
0.0
 11
43.65147268839601
 21
-4.762499999999999
 31
0.0
  0
LINE
  5
15E
330
1F
100
AcDbEntity
  8
참조1
100
AcDbLine
 10
43.65147268839601
 20
-4.762499999999999
 30
0.0
 11
43.651472688396
 21
-6.927248606176849
 31
0.0
  0
LINE
  5
15F
330
1F
100
AcDbEntity
  8
참조1
100
AcDbLine
 10
-12.22499999999999
 20
-40.31687058093274
 30
0.0
 11
-28.95854980726569
 21
-40.31687058093274
 31
0.0
  0
CIRCLE
  5
160
330
1F
100
AcDbEntity
  8
해칭선
100
AcDbCircle
 10
0.0
 20
0.0
 30
0.0
 40
3.000000000000005
  0
INSERT
  5
161
330
1F
100
AcDbEntity
  8
0
  6
Continuous
 62
     7
100
AcDbBlockReference
 66
     1
  2
블럭10
 10
-26.1652729321252
 20
-52.36404488257666
 30
0.0
  0
ATTRIB
  5
162
330
161
100
AcDbEntity
  8
FORMAT
 62
     2
100
AcDbText
 10
-35.68758688272314
 20
-50.28867796974447
 30
0.0
 40
4.233333333333333
  1
E2086024 [ 3 FLUTE ]
 41
0.75
  7
SLDTEXTSTYLE0
 11
-35.68758688272314
 21
-52.40534463641114
 31
0.0
100
AcDbAttribute
  2
AUTOATTR0
 70
     0
 74
     1
  0
SEQEND
  5
163
330
161
100
AcDbEntity
  8
0
  6
Continuous
 62
     7
  0
HATCH
  5
164
330
1F
100
AcDbEntity
  8
중심선
100
AcDbHatch
 10
0.0
 20
0.0
 30
0.0
210
0.0
220
0.0
230
1.0
  2
SOLID
 70
     1
 71
     0
 91
        1
 92
        0
 93
        4
 72
     1
 10
-20.45036362774435
 20
-36.11687058093273
 11
-23.89663887158163
 21
-36.11687058093273
 72
     1
 10
-23.89663887158163
 20
-36.11687058093273
 11
-26.02486873078566
 21
-38.65319616150533
 72
     1
 10
-26.02486873078566
 20
-38.65319616150533
 11
-22.57856040183523
 21
-38.65315673220284
 72
     1
 10
-22.57856040183523
 20
-38.65315673220284
 11
-20.45036362774435
 21
-36.11687058093273
 97
        0
 75
     0
 76
     1
 98
        1
 10
-4.762500000000001
 20
-0.3168705809327363
  0
HATCH
  5
165
330
1F
100
AcDbEntity
  8
중심선
100
AcDbHatch
 10
0.0
 20
0.0
 30
0.0
210
0.0
220
0.0
230
1.0
  2
SOLID
 70
     1
 71
     0
 91
        1
 92
        0
 93
        4
 72
     1
 10
-15.43759963670837
 20
-36.11687058093277
 11
-18.88387488054566
 21
-36.11687058093277
 72
     1
 10
-18.88387488054566
 20
-36.11687058093277
 11
-23.41501288890307
 21
-41.51687058093275
 72
     1
 10
-23.41501288890307
 20
-41.51687058093275
 11
-19.96873764506579
 21
-41.51687058093275
 72
     1
 10
-19.96873764506579
 20
-41.51687058093275
 11
-15.43759963670837
 21
-36.11687058093277
 97
        0
 75
     0
 76
     1
 98
        1
 10
-4.762500000000001
 20
-0.3168705809327363
  0
HATCH
  5
166
330
1F
100
AcDbEntity
  8
중심선
100
AcDbHatch
 10
0.0
 20
0.0
 30
0.0
210
0.0
220
0.0
230
1.0
  2
SOLID
 70
     1
 71
     0
 91
        1
 92
        0
 93
        4
 72
     1
 10
-10.42483564567248
 20
-36.11687058093273
 11
-13.87111088950965
 21
-36.11687058093277
 72
     1
 10
-13.87111088950965
 20
-36.11687058093277
 11
-20.91954779139887
 21
-44.51687058093275
 72
     1
 10
-20.91954779139887
 20
-44.51687058093275
 11
-17.47327254756159
 21
-44.51687058093275
 72
     1
 10
-17.47327254756159
 20
-44.51687058093275
 11
-10.42483564567248
 21
-36.11687058093273
 97
        0
 75
     0
 76
     1
 98
        1
 10
-4.762500000000001
 20
-0.3168705809327363
  0
HATCH
  5
167
330
1F
100
AcDbEntity
  8
중심선
100
AcDbHatch
 10
0.0
 20
0.0
 30
0.0
210
0.0
220
0.0
230
1.0
  2
SOLID
 70
     1
 71
     0
 91
        1
 92
        0
 93
        6
 72
     3
 10
-5.624945214660308
 20
-40.31687058098401
 11
3.960054785062284
 21
1.540882976769353E-10
 40
0.3939339440162627
 50
17.09539180608436
 51
320.001965768507
 73
     0
 72
     1
 10
-3.94194555895974
 20
-38.90476458557101
 11
-1.636643685258675
 21
-36.97043787552312
 72
     3
 10
-5.624945214713154
 20
-40.31687058093289
 11
6.600054785286829
 21
-1.278976924368180E-13
 40
0.636358354079598
 50
39.99873849337411
 51
368.4976242363724
 73
     1
 72
     1
 10
0.800387277187455
 20
-39.35687058086275
 11
-6.944877907877232
 21
-39.35687058086275
 72
     1
 10
-6.944877907877232
 20
-39.35687058086275
 11
-6.944902952323166
 21
-41.27687058086265
 72
     1
 10
-6.944902952323166
 20
-41.27687058086265
 11
-2.503523182851128
 21
-41.27687058086261
 97
        0
 75
     0
 76
     1
 98
        1
 10
-4.762500000000001
 20
-0.3168705809327363
  0
DIMENSION
  5
169
330
1F
100
AcDbEntity
  8
치수문자_일반주서
100
AcDbDimension
  2
_D
 10
41.55751004574689
 20
-4.762499999999918
 30
0.0
 11
41.55751004574679
 21
21.40825000000013
 31
0.0
 70
   160
  1
%%c<>
 71
     2
 42
9.524999999999999
 52
-270.0
  3
SLDDIMSTYLE0
100
AcDbAlignedDimension
 13
19.525
 23
4.762499999999999
 33
0.0
 14
19.525
 24
-4.762499999999999
 34
0.0
 50
90.0000000000002
100
AcDbRotatedDimension
1001
ACAD
1000
DSTYLE
1002
{
1070
   171
1070
     6
1070
   273
1070
     7
1002
}
  0
DIMENSION
  5
17C
330
1F
100
AcDbEntity
  8
치수문자_일반주서
100
AcDbDimension
  2
_D_1
 10
-44.99125
 20
-4.76250000000006
 30
0.0
 11
-44.99125000000002
 21
-0.7630082607154743
 31
0.0
 70
   160
  1
%%c<>
 71
     2
 42
9.525000000000006
 52
-270.0
  3
SLDDIMSTYLE1
100
AcDbAlignedDimension
 13
-34.18124999999999
 23
4.762499999999988
 33
0.0
 14
-34.18124999999999
 24
-4.762500000000018
 34
0.0
 50
90.0000000000002
100
AcDbRotatedDimension
1001
ACAD
1000
DSTYLE
1002
{
1070
   171
1070
     6
1070
   273
1070
     7
1002
}
  0
DIMENSION
  5
191
330
1F
100
AcDbEntity
  8
치수문자_일반주서
100
AcDbDimension
  2
_D_2
 10
10.0
 20
20.41145279401989
 30
0.0
 11
12.38125
 21
20.41145279401989
 31
0.0
 70
   160
  1
<>
 71
     2
 42
9.524999999999999
  3
SLDDIMSTYLE0
100
AcDbAlignedDimension
 13
19.525
 23
3.083737631391744
 33
0.0
 14
10.0
 24
4.762499999999999
 34
0.0
 50
0.0000000000000142
100
AcDbRotatedDimension
1001
ACAD
1000
DSTYLE
1002
{
1070
   171
1070
     6
1070
   273
1070
     7
1002
}
  0
DIMENSION
  5
1A5
330
1F
100
AcDbEntity
  8
치수문자_일반주서
100
AcDbDimension
  2
_D_3
 10
-35.24375000000001
 20
37.62464524059784
 30
0.0
 11
-7.859375000000007
 21
37.62464524059784
 31
0.0
 70
   160
  1
<>
 71
     2
 42
54.76875000000001
  3
SLDDIMSTYLE2
100
AcDbAlignedDimension
 13
19.525
 23
3.627265076973849
 33
0.0
 14
-35.24375000000001
 24
3.762499999999988
 34
0.0
100
AcDbRotatedDimension
1001
ACAD
1000
DSTYLE
1002
{
1070
   171
1070
     6
1070
   273
1070
     7
1002
}
  0
LINE
  5
1B9
330
1F
100
AcDbEntity
  8
참조1
100
AcDbLine
 10
69.01379082238857
 20
7.123129419067266
 30
0.0
 11
69.01379082238857
 21
-7.756870580932739
 31
0.0
  0
LINE
  5
1BA
330
1F
100
AcDbEntity
  8
참조1
100
AcDbLine
 10
81.71379082238857
 20
5.123129419067266
 30
0.0
 11
69.01379082238857
 21
5.123129419067266
 31
0.0
  0
SOLID
  5
1BB
330
1F
100
AcDbEntity
  8
참조1
100
AcDbTrace
 10
69.01379082238857
 20
5.123129419067266
 30
0.0
 11
75.36379082238857
 21
4.107129419067266
 31
0.0
 12
75.36379082238857
 22
6.139129419067266
 32
0.0
 13
75.36379082238857
 23
6.139129419067266
 33
0.0
  0
LINE
  5
1BC
330
1F
100
AcDbEntity
  8
참조1
100
AcDbLine
 10
81.71379082238857
 20
-5.756870580932739
 30
0.0
 11
69.01379082238857
 21
-5.756870580932739
 31
0.0
  0
SOLID
  5
1BD
330
1F
100
AcDbEntity
  8
참조1
100
AcDbTrace
 10
69.01379082238857
 20
-5.756870580932739
 30
0.0
 11
75.36379082238857
 21
-6.772870580932739
 31
0.0
 12
75.36379082238857
 22
-4.740870580932738
 32
0.0
 13
75.36379082238857
 23
-4.740870580932738
 33
0.0
  0
MTEXT
  5
1BE
330
1F
100
AcDbEntity
  8
참조1
100
AcDbMText
 10
78.61390563295113
 20
10.74884698508334
 30
0.0
 40
3.5
 41
0.0
 71
     1
 72
     1
  1
A
  7
SLDTEXTSTYLE0
 73
     1
 44
1.0
  0
MTEXT
  5
1BF
330
1F
100
AcDbEntity
  8
참조1
100
AcDbMText
 10
78.61390563295113
 20
-0.1311530149166628
 30
0.0
 40
3.5
 41
0.0
 71
     1
 72
     1
  1
A
  7
SLDTEXTSTYLE0
 73
     1
 44
1.0
  0
INSERT
  5
1C6
330
1F
100
AcDbEntity
  8
해칭선
100
AcDbBlockReference
  2
SW_DOWELSYMBOL_0
 10
0.0
 20
0.0
 30
0.0
  0
LINE
  5
213
330
1F
100
AcDbEntity
  8
외형선
  6
Continuous
370
    15
100
AcDbLine
 10
10.0
 20
4.762499999999999
 30
0.0
 11
10.0
 21
-4.762499999999999
 31
0.0
  0
LINE
  5
214
330
1F
100
AcDbEntity
  8
외형선
  6
Continuous
 62
     1
370
    15
100
AcDbLine
 10
11.22167545333959
 20
4.175995684125057
 30
0.0
 11
10.0
 21
4.762499999999999
 31
0.0
  0
LINE
  5
252
330
1F
100
AcDbEntity
  8
외형선
  6
Continuous
370
    15
100
AcDbLine
 10
-18.96870000000013
 20
3.492499999999993
 30
0.0
 11
-11.8313
 21
3.492499999999993
 31
0.0
  0
LINE
  5
253
330
1F
100
AcDbEntity
  8
외형선
  6
Continuous
370
    15
100
AcDbLine
 10
-18.96870000000013
 20
3.492499999999993
 30
0.0
 11
-20.23870000000011
 21
4.762499999999974
 31
0.0
  0
LINE
  5
254
330
1F
100
AcDbEntity
  8
외형선
  6
Continuous
370
    15
100
AcDbLine
 10
-11.8313
 20
3.492499999999993
 30
0.0
 11
-10.5612999999999
 21
4.762499999999974
 31
0.0
  0
LINE
  5
257
330
1F
100
AcDbEntity
  8
외형선
  6
Continuous
370
    15
100
AcDbLine
 10
-20.23870000000013
 20
4.762499999999991
 30
0.0
 11
-34.24374999999999
 21
4.76249999999999
 31
0.0
  0
ENDSEC
  0
SECTION
  2
OBJECTS
  0
DICTIONARY
  5
C
330
0
100
AcDbDictionary
281
     1
  3
ACAD_GROUP
350
D
  3
ACAD_IMAGE_VARS
350
1EA
  3
ACAD_LAYOUT
350
1A
  3
ACAD_MLINESTYLE
350
17
  3
ACAD_PLOTSETTINGS
350
19
  3
ACAD_PLOTSTYLENAME
350
E
  3
ACAD_SCALELIST
350
47
  3
APPDATA
350
1E8
  3
DWGPROPS
350
27C
  0
DICTIONARY
  5
242
330
2
100
AcDbDictionary
280
     1
281
     1
  3
ACAD_LAYERSTATES
360
243
  0
DICTIONARY
  5
D
102
{ACAD_REACTORS
330
C
102
}
330
C
100
AcDbDictionary
281
     1
  0
RASTERVARIABLES
  5
1EA
102
{ACAD_REACTORS
330
C
102
}
330
C
100
AcDbRasterVariables
 90
        0
 70
     1
 71
     1
 72
     1
  0
DICTIONARY
  5
1A
102
{ACAD_REACTORS
330
C
102
}
330
C
100
AcDbDictionary
281
     1
  3
Layout1
350
1E
  3
Layout2
350
26
  3
Model
350
22
  0
DICTIONARY
  5
17
102
{ACAD_REACTORS
330
C
102
}
330
C
100
AcDbDictionary
281
     1
  3
Standard
350
18
  0
DICTIONARY
  5
19
102
{ACAD_REACTORS
330
C
102
}
330
C
100
AcDbDictionary
281
     1
  0
ACDBDICTIONARYWDFLT
  5
E
102
{ACAD_REACTORS
330
C
102
}
330
C
100
AcDbDictionary
281
     1
  3
Normal
350
F
100
AcDbDictionaryWithDefault
340
F
  0
DICTIONARY
  5
47
102
{ACAD_REACTORS
330
C
102
}
330
C
100
AcDbDictionary
281
     1
  3
A0
350
48
  3
A1
350
49
  3
A2
350
4A
  3
A3
350
4B
  3
A4
350
4C
  3
A5
350
4D
  3
A6
350
4E
  3
A7
350
4F
  3
A8
350
50
  3
A9
350
51
  3
B0
350
52
  3
B1
350
53
  3
B2
350
54
  3
B3
350
55
  3
B4
350
56
  3
B5
350
57
  3
B6
350
58
  3
B7
350
59
  3
B8
350
5A
  3
B9
350
5B
  3
C0
350
5C
  3
C1
350
5D
  3
C2
350
5E
  3
C3
350
5F
  3
C4
350
60
  3
C5
350
61
  3
C6
350
62
  3
C7
350
63
  3
C8
350
64
  3
C9
350
65
  3
D0
350
66
  3
D1
350
67
  3
D2
350
68
  0
DICTIONARY
  5
1E8
102
{ACAD_REACTORS
330
C
102
}
330
C
100
AcDbDictionary
281
     1
  0
XRECORD
  5
27C
102
{ACAD_REACTORS
330
C
102
}
330
C
100
AcDbXrecord
280
     1
  1
DWGPROPS COOKIE
  2

  3

  4

  6

  7

  8
12016016
  9

300
=
301
=
302
=
303
=
304
=
305
=
306
=
307
=
308
=
309
=
 40
0.0
 41
2458298.968695776
 42
2458331.188206053
  1

 90
        0
  0
DICTIONARY
  5
243
102
{ACAD_REACTORS
330
242
102
}
330
242
100
AcDbDictionary
281
     1
  0
LAYOUT
  5
1E
102
{ACAD_REACTORS
330
1A
102
}
330
1A
100
AcDbPlotSettings
  1

  2
none_device
  4

  6

 40
0.0
 41
0.0
 42
0.0
 43
0.0
 44
0.0
 45
0.0
 46
0.0
 47
0.0
 48
0.0
 49
0.0
140
0.0
141
0.0
142
1.0
143
1.0
 70
   688
 72
     1
 73
     0
 74
     5
  7

 75
    16
147
1.0
148
0.0
149
0.0
100
AcDbLayout
  1
Layout1
 70
     1
 71
     1
 10
0.0
 20
0.0
 11
420.0
 21
297.0
 12
0.0
 22
0.0
 32
0.0
 14
1.000000000000000E+20
 24
1.000000000000000E+20
 34
1.000000000000000E+20
 15
-1.000000000000000E+20
 25
-1.000000000000000E+20
 35
-1.000000000000000E+20
146
0.0
 13
0.0
 23
0.0
 33
0.0
 16
1.0
 26
0.0
 36
0.0
 17
0.0
 27
1.0
 37
0.0
 76
     0
330
1B
  0
LAYOUT
  5
26
102
{ACAD_REACTORS
330
1A
102
}
330
1A
100
AcDbPlotSettings
  1

  2
none_device
  4

  6

 40
0.0
 41
0.0
 42
0.0
 43
0.0
 44
0.0
 45
0.0
 46
0.0
 47
0.0
 48
0.0
 49
0.0
140
0.0
141
0.0
142
1.0
143
1.0
 70
   688
 72
     1
 73
     0
 74
     5
  7

 75
    16
147
1.0
148
0.0
149
0.0
100
AcDbLayout
  1
Layout2
 70
     1
 71
     2
 10
0.0
 20
0.0
 11
0.0
 21
0.0
 12
0.0
 22
0.0
 32
0.0
 14
0.0
 24
0.0
 34
0.0
 15
0.0
 25
0.0
 35
0.0
146
0.0
 13
0.0
 23
0.0
 33
0.0
 16
1.0
 26
0.0
 36
0.0
 17
0.0
 27
1.0
 37
0.0
 76
     0
330
23
  0
LAYOUT
  5
22
102
{ACAD_REACTORS
330
1A
102
}
330
1A
100
AcDbPlotSettings
  1

  2
none_device
  4
ANSI_A_(11.00_x_8.50_Inches)
  6

 40
6.35
 41
19.05
 42
6.35000508
 43
19.05000254
 44
279.4
 45
215.9
 46
108.1449830654433
 47
90.7731756740194
 48
0.0
 49
0.0
140
0.0
141
0.0
142
0.0744403274023622
143
1.0
 70
  1696
 72
     0
 73
     0
 74
     0
  7

 75
     0
147
0.0235690232323232
148
0.0
149
0.0
100
AcDbLayout
  1
Model
 70
     1
 71
     0
 10
0.0
 20
0.0
 11
420.0
 21
297.0
 12
0.0
 22
0.0
 32
0.0
 14
-49.36625000000006
 24
-50.28867796974447
 34
0.0
 15
81.71379082238857
 25
41.99964524059784
 35
0.0
146
0.0
 13
0.0
 23
0.0
 33
0.0
 16
1.0
 26
0.0
 36
0.0
 17
0.0
 27
1.0
 37
0.0
 76
     0
330
1F
331
29
  0
MLINESTYLE
  5
18
102
{ACAD_REACTORS
330
17
102
}
330
17
100
AcDbMlineStyle
  2
Standard
 70
     0
  3

 62
   256
 51
90.0
 52
90.0
 71
     2
 49
0.5
 62
   256
  6
BYLAYER
 49
-0.5
 62
   256
  6
BYLAYER
  0
ACDBPLACEHOLDER
  5
F
102
{ACAD_REACTORS
330
E
102
}
330
E
  0
SCALE
  5
48
102
{ACAD_REACTORS
330
47
102
}
330
47
100
AcDbScale
 70
     0
300
1:1
140
1.0
141
1.0
290
     1
  0
SCALE
  5
49
102
{ACAD_REACTORS
330
47
102
}
330
47
100
AcDbScale
 70
     0
300
1:2
140
1.0
141
2.0
290
     0
  0
SCALE
  5
4A
102
{ACAD_REACTORS
330
47
102
}
330
47
100
AcDbScale
 70
     0
300
1:4
140
1.0
141
4.0
290
     0
  0
SCALE
  5
4B
102
{ACAD_REACTORS
330
47
102
}
330
47
100
AcDbScale
 70
     0
300
1:5
140
1.0
141
5.0
290
     0
  0
SCALE
  5
4C
102
{ACAD_REACTORS
330
47
102
}
330
47
100
AcDbScale
 70
     0
300
1:8
140
1.0
141
8.0
290
     0
  0
SCALE
  5
4D
102
{ACAD_REACTORS
330
47
102
}
330
47
100
AcDbScale
 70
     0
300
1:10
140
1.0
141
10.0
290
     0
  0
SCALE
  5
4E
102
{ACAD_REACTORS
330
47
102
}
330
47
100
AcDbScale
 70
     0
300
1:16
140
1.0
141
16.0
290
     0
  0
SCALE
  5
4F
102
{ACAD_REACTORS
330
47
102
}
330
47
100
AcDbScale
 70
     0
300
1:20
140
1.0
141
20.0
290
     0
  0
SCALE
  5
50
102
{ACAD_REACTORS
330
47
102
}
330
47
100
AcDbScale
 70
     0
300
1:30
140
1.0
141
30.0
290
     0
  0
SCALE
  5
51
102
{ACAD_REACTORS
330
47
102
}
330
47
100
AcDbScale
 70
     0
300
1:40
140
1.0
141
40.0
290
     0
  0
SCALE
  5
52
102
{ACAD_REACTORS
330
47
102
}
330
47
100
AcDbScale
 70
     0
300
1:50
140
1.0
141
50.0
290
     0
  0
SCALE
  5
53
102
{ACAD_REACTORS
330
47
102
}
330
47
100
AcDbScale
 70
     0
300
1:100
140
1.0
141
100.0
290
     0
  0
SCALE
  5
54
102
{ACAD_REACTORS
330
47
102
}
330
47
100
AcDbScale
 70
     0
300
2:1
140
2.0
141
1.0
290
     0
  0
SCALE
  5
55
102
{ACAD_REACTORS
330
47
102
}
330
47
100
AcDbScale
 70
     0
300
4:1
140
4.0
141
1.0
290
     0
  0
SCALE
  5
56
102
{ACAD_REACTORS
330
47
102
}
330
47
100
AcDbScale
 70
     0
300
8:1
140
8.0
141
1.0
290
     0
  0
SCALE
  5
57
102
{ACAD_REACTORS
330
47
102
}
330
47
100
AcDbScale
 70
     0
300
10:1
140
10.0
141
1.0
290
     0
  0
SCALE
  5
58
102
{ACAD_REACTORS
330
47
102
}
330
47
100
AcDbScale
 70
     0
300
100:1
140
100.0
141
1.0
290
     0
  0
SCALE
  5
59
102
{ACAD_REACTORS
330
47
102
}
330
47
100
AcDbScale
 70
     0
300
1/128" = 1'-0"
140
0.0078125
141
12.0
290
     0
  0
SCALE
  5
5A
102
{ACAD_REACTORS
330
47
102
}
330
47
100
AcDbScale
 70
     0
300
1/64" = 1'-0"
140
0.015625
141
12.0
290
     0
  0
SCALE
  5
5B
102
{ACAD_REACTORS
330
47
102
}
330
47
100
AcDbScale
 70
     0
300
1/32" = 1'-0"
140
0.03125
141
12.0
290
     0
  0
SCALE
  5
5C
102
{ACAD_REACTORS
330
47
102
}
330
47
100
AcDbScale
 70
     0
300
1/16" = 1'-0"
140
0.0625
141
12.0
290
     0
  0
SCALE
  5
5D
102
{ACAD_REACTORS
330
47
102
}
330
47
100
AcDbScale
 70
     0
300
3/32" = 1'-0"
140
0.09375
141
12.0
290
     0
  0
SCALE
  5
5E
102
{ACAD_REACTORS
330
47
102
}
330
47
100
AcDbScale
 70
     0
300
1/8" = 1'-0"
140
0.125
141
12.0
290
     0
  0
SCALE
  5
5F
102
{ACAD_REACTORS
330
47
102
}
330
47
100
AcDbScale
 70
     0
300
3/16" = 1'-0"
140
0.1875
141
12.0
290
     0
  0
SCALE
  5
60
102
{ACAD_REACTORS
330
47
102
}
330
47
100
AcDbScale
 70
     0
300
1/4" = 1'-0"
140
0.25
141
12.0
290
     0
  0
SCALE
  5
61
102
{ACAD_REACTORS
330
47
102
}
330
47
100
AcDbScale
 70
     0
300
3/8" = 1'-0"
140
0.375
141
12.0
290
     0
  0
SCALE
  5
62
102
{ACAD_REACTORS
330
47
102
}
330
47
100
AcDbScale
 70
     0
300
1/2" = 1'-0"
140
0.5
141
12.0
290
     0
  0
SCALE
  5
63
102
{ACAD_REACTORS
330
47
102
}
330
47
100
AcDbScale
 70
     0
300
3/4" = 1'-0"
140
0.75
141
12.0
290
     0
  0
SCALE
  5
64
102
{ACAD_REACTORS
330
47
102
}
330
47
100
AcDbScale
 70
     0
300
1" = 1'-0"
140
1.0
141
12.0
290
     0
  0
SCALE
  5
65
102
{ACAD_REACTORS
330
47
102
}
330
47
100
AcDbScale
 70
     0
300
1-1/2" = 1'-0"
140
1.5
141
12.0
290
     0
  0
SCALE
  5
66
102
{ACAD_REACTORS
330
47
102
}
330
47
100
AcDbScale
 70
     0
300
3" = 1'-0"
140
3.0
141
12.0
290
     0
  0
SCALE
  5
67
102
{ACAD_REACTORS
330
47
102
}
330
47
100
AcDbScale
 70
     0
300
6" = 1'-0"
140
6.0
141
12.0
290
     0
  0
SCALE
  5
68
102
{ACAD_REACTORS
330
47
102
}
330
47
100
AcDbScale
 70
     0
300
1'-0" = 1'-0"
140
12.0
141
12.0
290
     0
  0
ENDSEC
  0
EOF
