  0
SECTION
  2
HEADER
  9
$ACADVER
  1
AC1015
  9
$ACADMAINTVER
 70
     6
  9
$DWGCODEPAGE
  3
ANSI_949
  9
$INSBASE
 10
0.0
 20
0.0
 30
0.0
  9
$EXTMIN
 10
-65.90750000000004
 20
-50.28867796974447
 30
0.0
  9
$EXTMAX
 10
93.23879082238858
 20
65.43807102789049
 30
0.0
  9
$LIMMIN
 10
0.0
 20
0.0
  9
$LIMMAX
 10
420.0
 20
297.0
  9
$ORTHOMODE
 70
     1
  9
$REGENMODE
 70
     1
  9
$FILLMODE
 70
     1
  9
$QTEXTMODE
 70
     0
  9
$MIRRTEXT
 70
     1
  9
$LTSCALE
 40
1.0
  9
$ATTMODE
 70
     1
  9
$TEXTSIZE
 40
3.5
  9
$TRACEWID
 40
1.0
  9
$TEXTSTYLE
  7
Standard
  9
$CLAYER
  8
0
  9
$CELTYPE
  6
ByLayer
  9
$CECOLOR
 62
   256
  9
$CELTSCALE
 40
1.0
  9
$DISPSILH
 70
     0
  9
$DIMSCALE
 40
1.0
  9
$DIMASZ
 40
3.302
  9
$DIMEXO
 40
1.0
  9
$DIMDLI
 40
3.75
  9
$DIMRND
 40
0.0
  9
$DIMDLE
 40
0.0
  9
$DIMEXE
 40
1.0
  9
$DIMTP
 40
0.0
  9
$DIMTM
 40
0.0
  9
$DIMTXT
 40
3.5
  9
$DIMCEN
 40
2.5
  9
$DIMTSZ
 40
0.0
  9
$DIMTOL
 70
     0
  9
$DIMLIM
 70
     0
  9
$DIMTIH
 70
     1
  9
$DIMTOH
 70
     1
  9
$DIMSE1
 70
     0
  9
$DIMSE2
 70
     0
  9
$DIMTAD
 70
     1
  9
$DIMZIN
 70
     0
  9
$DIMBLK
  1

  9
$DIMASO
 70
     1
  9
$DIMSHO
 70
     1
  9
$DIMPOST
  1

  9
$DIMAPOST
  1

  9
$DIMALT
 70
     0
  9
$DIMALTD
 70
     3
  9
$DIMALTF
 40
0.0393700787401575
  9
$DIMLFAC
 40
1.0
  9
$DIMTOFL
 70
     1
  9
$DIMTVP
 40
0.0
  9
$DIMTIX
 70
     0
  9
$DIMSOXD
 70
     0
  9
$DIMSAH
 70
     0
  9
$DIMBLK1
  1

  9
$DIMBLK2
  1

  9
$DIMSTYLE
  2
ISO-25
  9
$DIMCLRD
 70
     0
  9
$DIMCLRE
 70
     0
  9
$DIMCLRT
 70
     0
  9
$DIMTFAC
 40
1.0
  9
$DIMGAP
 40
1.524
  9
$DIMJUST
 70
     0
  9
$DIMSD1
 70
     0
  9
$DIMSD2
 70
     0
  9
$DIMTOLJ
 70
     0
  9
$DIMTZIN
 70
     0
  9
$DIMALTZ
 70
     0
  9
$DIMALTTZ
 70
     0
  9
$DIMUPT
 70
     0
  9
$DIMDEC
 70
     2
  9
$DIMTDEC
 70
     2
  9
$DIMALTU
 70
     2
  9
$DIMALTTD
 70
     3
  9
$DIMTXSTY
  7
Standard
  9
$DIMAUNIT
 70
     0
  9
$DIMADEC
 70
     2
  9
$DIMALTRND
 40
0.0
  9
$DIMAZIN
 70
     0
  9
$DIMDSEP
 70
    44
  9
$DIMATFIT
 70
     3
  9
$DIMFRAC
 70
     0
  9
$DIMLDRBLK
  1

  9
$DIMLUNIT
 70
     2
  9
$DIMLWD
 70
    -2
  9
$DIMLWE
 70
    -2
  9
$DIMTMOVE
 70
     0
  9
$LUNITS
 70
     2
  9
$LUPREC
 70
     2
  9
$SKETCHINC
 40
1.0
  9
$FILLETRAD
 40
10.0
  9
$AUNITS
 70
     0
  9
$AUPREC
 70
     2
  9
$MENU
  1
.
  9
$ELEVATION
 40
0.0
  9
$PELEVATION
 40
0.0
  9
$THICKNESS
 40
0.0
  9
$LIMCHECK
 70
     0
  9
$CHAMFERA
 40
0.0
  9
$CHAMFERB
 40
0.0
  9
$CHAMFERC
 40
0.0
  9
$CHAMFERD
 40
0.0
  9
$SKPOLY
 70
     0
  9
$TDCREATE
 40
2458299.343695776
  9
$TDUCREATE
 40
2458298.968695776
  9
$TDUPDATE
 40
2458331.560211701
  9
$TDUUPDATE
 40
2458331.185211701
  9
$TDINDWG
 40
0.0015833333
  9
$TDUSRTIMER
 40
2458331.185003831
  9
$USRTIMER
 70
     1
  9
$ANGBASE
 50
0.0
  9
$ANGDIR
 70
     0
  9
$PDMODE
 70
     0
  9
$PDSIZE
 40
-1.0
  9
$PLINEWID
 40
0.0
  9
$SPLFRAME
 70
     0
  9
$SPLINETYPE
 70
     6
  9
$SPLINESEGS
 70
     8
  9
$HANDSEED
  5
36B
  9
$SURFTAB1
 70
     6
  9
$SURFTAB2
 70
     6
  9
$SURFTYPE
 70
     6
  9
$SURFU
 70
     6
  9
$SURFV
 70
     6
  9
$UCSBASE
  2

  9
$UCSNAME
  2

  9
$UCSORG
 10
0.0
 20
0.0
 30
0.0
  9
$UCSXDIR
 10
1.0
 20
0.0
 30
0.0
  9
$UCSYDIR
 10
0.0
 20
1.0
 30
0.0
  9
$UCSORTHOREF
  2

  9
$UCSORTHOVIEW
 70
     0
  9
$UCSORGTOP
 10
0.0
 20
0.0
 30
0.0
  9
$UCSORGBOTTOM
 10
0.0
 20
0.0
 30
0.0
  9
$UCSORGLEFT
 10
0.0
 20
0.0
 30
0.0
  9
$UCSORGRIGHT
 10
0.0
 20
0.0
 30
0.0
  9
$UCSORGFRONT
 10
0.0
 20
0.0
 30
0.0
  9
$UCSORGBACK
 10
0.0
 20
0.0
 30
0.0
  9
$PUCSBASE
  2

  9
$PUCSNAME
  2

  9
$PUCSORG
 10
0.0
 20
0.0
 30
0.0
  9
$PUCSXDIR
 10
1.0
 20
0.0
 30
0.0
  9
$PUCSYDIR
 10
0.0
 20
1.0
 30
0.0
  9
$PUCSORTHOREF
  2

  9
$PUCSORTHOVIEW
 70
     0
  9
$PUCSORGTOP
 10
0.0
 20
0.0
 30
0.0
  9
$PUCSORGBOTTOM
 10
0.0
 20
0.0
 30
0.0
  9
$PUCSORGLEFT
 10
0.0
 20
0.0
 30
0.0
  9
$PUCSORGRIGHT
 10
0.0
 20
0.0
 30
0.0
  9
$PUCSORGFRONT
 10
0.0
 20
0.0
 30
0.0
  9
$PUCSORGBACK
 10
0.0
 20
0.0
 30
0.0
  9
$USERI1
 70
     0
  9
$USERI2
 70
     0
  9
$USERI3
 70
     0
  9
$USERI4
 70
     0
  9
$USERI5
 70
     0
  9
$USERR1
 40
0.0
  9
$USERR2
 40
0.0
  9
$USERR3
 40
0.0
  9
$USERR4
 40
0.0
  9
$USERR5
 40
0.0
  9
$WORLDVIEW
 70
     1
  9
$SHADEDGE
 70
     3
  9
$SHADEDIF
 70
    70
  9
$TILEMODE
 70
     1
  9
$MAXACTVP
 70
    64
  9
$PINSBASE
 10
0.0
 20
0.0
 30
0.0
  9
$PLIMCHECK
 70
     0
  9
$PEXTMIN
 10
1.000000000000000E+20
 20
1.000000000000000E+20
 30
1.000000000000000E+20
  9
$PEXTMAX
 10
-1.000000000000000E+20
 20
-1.000000000000000E+20
 30
-1.000000000000000E+20
  9
$PLIMMIN
 10
0.0
 20
0.0
  9
$PLIMMAX
 10
0.0
 20
0.0
  9
$UNITMODE
 70
     0
  9
$VISRETAIN
 70
     1
  9
$PLINEGEN
 70
     0
  9
$PSLTSCALE
 70
     1
  9
$TREEDEPTH
 70
  3020
  9
$CMLSTYLE
  2
Standard
  9
$CMLJUST
 70
     0
  9
$CMLSCALE
 40
20.0
  9
$PROXYGRAPHICS
 70
     1
  9
$MEASUREMENT
 70
     1
  9
$CELWEIGHT
370
    -1
  9
$ENDCAPS
280
     0
  9
$JOINSTYLE
280
     0
  9
$LWDISPLAY
290
     1
  9
$INSUNITS
 70
     4
  9
$HYPERLINKBASE
  1

  9
$STYLESHEET
  1

  9
$XEDIT
290
     1
  9
$CEPSNTYPE
380
     0
  9
$PSTYLEMODE
290
     1
  9
$FINGERPRINTGUID
  2
{B0543242-4841-4EA6-881E-243BD7D56D9A}
  9
$VERSIONGUID
  2
{FAEB1C32-E019-11D5-929B-00C0DF256EC4}
  9
$EXTNAMES
290
     1
  9
$PSVPSCALE
 40
0.0
  9
$OLESTARTUP
290
     0
  0
ENDSEC
  0
SECTION
  2
CLASSES
  0
CLASS
  1
ACDBDICTIONARYWDFLT
  2
AcDbDictionaryWithDefault
  3
ObjectDBX Classes
 90
        0
280
     0
281
     0
  0
CLASS
  1
VISUALSTYLE
  2
AcDbVisualStyle
  3
ObjectDBX Classes
 90
     4095
280
     0
281
     0
  0
CLASS
  1
MATERIAL
  2
AcDbMaterial
  3
ObjectDBX Classes
 90
     1153
280
     0
281
     0
  0
CLASS
  1
SCALE
  2
AcDbScale
  3
ObjectDBX Classes
 90
     1153
280
     0
281
     0
  0
CLASS
  1
SUN
  2
AcDbSun
  3
SCENEOE
 90
     1153
280
     0
281
     0
  0
CLASS
  1
ACDBPLACEHOLDER
  2
AcDbPlaceHolder
  3
ObjectDBX Classes
 90
        0
280
     0
281
     0
  0
CLASS
  1
LAYOUT
  2
AcDbLayout
  3
ObjectDBX Classes
 90
        0
280
     0
281
     0
  0
CLASS
  1
TABLESTYLE
  2
AcDbTableStyle
  3
ObjectDBX Classes
 90
     4095
280
     0
281
     0
  0
CLASS
  1
MLEADERSTYLE
  2
AcDbMLeaderStyle
  3
ACDB_MLEADERSTYLE_CLASS
 90
     4095
280
     0
281
     0
  0
CLASS
  1
RASTERVARIABLES
  2
AcDbRasterVariables
  3
ISM
 90
        0
280
     0
281
     0
  0
ENDSEC
  0
SECTION
  2
TABLES
  0
TABLE
  2
VPORT
  5
8
330
0
100
AcDbSymbolTable
 70
     1
  0
VPORT
  5
29
330
8
100
AcDbSymbolTableRecord
100
AcDbViewportTableRecord
  2
*Active
 70
     0
 10
0.0
 20
0.0
 11
1.0
 21
1.0
 12
-4.298577236473605
 22
-27.81877803523064
 13
0.0
 23
0.0
 14
10.0
 24
10.0
 15
10.0
 25
10.0
 16
0.0
 26
0.0
 36
1.0
 17
0.0
 27
0.0
 37
0.0
 40
105.4052485947653
 41
1.516441005802708
 42
50.0
 43
0.0
 44
0.0
 50
0.0
 51
0.0
 71
    16
 72
  2000
 73
     1
 74
     3
 75
     0
 76
     0
 77
     0
 78
     0
281
     0
 65
     1
110
0.0
120
0.0
130
0.0
111
1.0
121
0.0
131
0.0
112
0.0
122
1.0
132
0.0
 79
     0
146
0.0
  0
ENDTAB
  0
TABLE
  2
LTYPE
  5
5
330
0
100
AcDbSymbolTable
 70
     6
  0
LTYPE
  5
14
330
5
100
AcDbSymbolTableRecord
100
AcDbLinetypeTableRecord
  2
ByBlock
 70
     0
  3

 72
    65
 73
     0
 40
0.0
  0
LTYPE
  5
15
330
5
100
AcDbSymbolTableRecord
100
AcDbLinetypeTableRecord
  2
ByLayer
 70
     0
  3

 72
    65
 73
     0
 40
0.0
  0
LTYPE
  5
16
330
5
100
AcDbSymbolTableRecord
100
AcDbLinetypeTableRecord
  2
Continuous
 70
     0
  3
Solid line
 72
    65
 73
     0
 40
0.0
  0
LTYPE
  5
6A
330
5
100
AcDbSymbolTableRecord
100
AcDbLinetypeTableRecord
  2
HIDDEN
 70
     0
  3
Hidden __ __ __ __ __ __ __ __ __ __ __ __ __ __
 72
    65
 73
     2
 40
1.905
 49
1.27
 74
     0
 49
-0.635
 74
     0
  0
LTYPE
  5
6B
330
5
100
AcDbSymbolTableRecord
100
AcDbLinetypeTableRecord
  2
PHANTOM
 70
     0
  3
Phantom ______  __  __  ______  __  __  ______
 72
    65
 73
     6
 40
12.7
 49
6.35
 74
     0
 49
-1.27
 74
     0
 49
1.27
 74
     0
 49
-1.27
 74
     0
 49
1.27
 74
     0
 49
-1.27
 74
     0
  0
LTYPE
  5
6C
330
5
100
AcDbSymbolTableRecord
100
AcDbLinetypeTableRecord
  2
CENTER
 70
     0
  3
Center ____ _ ____ _ ____ _ ____ _ ____ _ ____
 72
    65
 73
     4
 40
10.16
 49
6.35
 74
     0
 49
-1.27
 74
     0
 49
1.27
 74
     0
 49
-1.27
 74
     0
  0
LTYPE
  5
6D
330
5
100
AcDbSymbolTableRecord
100
AcDbLinetypeTableRecord
  2
CENTERX2
 70
     0
  3
Center (2x) ________  __  ________  __  _____
 72
    65
 73
     4
 40
20.32
 49
12.7
 74
     0
 49
-2.54
 74
     0
 49
2.54
 74
     0
 49
-2.54
 74
     0
  0
LTYPE
  5
6E
330
5
100
AcDbSymbolTableRecord
100
AcDbLinetypeTableRecord
  2
DOT2
 70
     0
  3
Dot (.5x) ........................................
 72
    65
 73
     2
 40
0.635
 49
0.0
 74
     0
 49
-0.635
 74
     0
  0
ENDTAB
  0
TABLE
  2
LAYER
  5
2
102
{ACAD_XDICTIONARY
360
242
102
}
330
0
100
AcDbSymbolTable
 70
    18
  0
LAYER
  5
10
330
2
100
AcDbSymbolTableRecord
100
AcDbLayerTableRecord
  2
0
 70
     0
 62
     7
  6
Continuous
370
    -3
390
F
  0
LAYER
  5
6F
330
2
100
AcDbSymbolTableRecord
100
AcDbLayerTableRecord
  2
FORMAT
 70
     0
 62
     2
  6
Continuous
370
    -3
390
F
  0
LAYER
  5
70
330
2
100
AcDbSymbolTableRecord
100
AcDbLayerTableRecord
  2
외형선
 70
     0
 62
     4
  6
Continuous
370
    30
390
F
  0
LAYER
  5
71
330
2
100
AcDbSymbolTableRecord
100
AcDbLayerTableRecord
  2
숨은선
 70
     0
 62
     2
  6
HIDDEN
370
    15
390
F
  0
LAYER
  5
72
330
2
100
AcDbSymbolTableRecord
100
AcDbLayerTableRecord
  2
중심선
 70
     0
 62
     1
  6
CENTERX2
370
    -3
390
F
  0
LAYER
  5
73
330
2
100
AcDbSymbolTableRecord
100
AcDbLayerTableRecord
  2
파단선
 70
     0
 62
     4
  6
Continuous
370
    -3
390
F
  0
LAYER
  5
74
330
2
100
AcDbSymbolTableRecord
100
AcDbLayerTableRecord
  2
해칭선
 70
     0
 62
   100
  6
Continuous
370
    -3
390
F
  0
LAYER
  5
75
330
2
100
AcDbSymbolTableRecord
100
AcDbLayerTableRecord
  2
가는실선
 70
     0
 62
     4
  6
Continuous
370
    -3
390
F
  0
LAYER
  5
76
330
2
100
AcDbSymbolTableRecord
100
AcDbLayerTableRecord
  2
치수_보조선
 70
     0
 62
     4
  6
Continuous
370
    -3
390
F
  0
LAYER
  5
77
330
2
100
AcDbSymbolTableRecord
100
AcDbLayerTableRecord
  2
치수문자_일반주서
 70
     0
 62
     7
  6
Continuous
370
    15
390
F
  0
LAYER
  5
78
330
2
100
AcDbSymbolTableRecord
100
AcDbLayerTableRecord
  2
개별주서
 70
     0
 62
   100
  6
Continuous
370
    30
390
F
  0
LAYER
  5
79
330
2
100
AcDbSymbolTableRecord
100
AcDbLayerTableRecord
  2
중간선
 70
     0
 62
     2
  6
Continuous
370
    15
390
F
  0
LAYER
  5
7A
330
2
100
AcDbSymbolTableRecord
100
AcDbLayerTableRecord
  2
윤곽선
 70
     0
 62
     3
  6
Continuous
370
    40
390
F
  0
LAYER
  5
7B
330
2
100
AcDbSymbolTableRecord
100
AcDbLayerTableRecord
  2
중심마크
 70
     0
 62
   100
  6
Continuous
370
    30
390
F
  0
LAYER
  5
7C
330
2
100
AcDbSymbolTableRecord
100
AcDbLayerTableRecord
  2
가상선
 70
     0
 62
     4
  6
PHANTOM
370
    -3
390
F
  0
LAYER
  5
7D
330
2
100
AcDbSymbolTableRecord
100
AcDbLayerTableRecord
  2
특수지정선
 70
     0
 62
     5
  6
CENTERX2
370
    60
390
F
  0
LAYER
  5
7E
330
2
100
AcDbSymbolTableRecord
100
AcDbLayerTableRecord
  2
참조1
 70
     0
 62
    -4
  6
Continuous
370
    -3
390
F
  0
LAYER
  5
1EB
330
2
100
AcDbSymbolTableRecord
100
AcDbLayerTableRecord
  2
Defpoints
 70
     0
 62
     7
  6
Continuous
290
     0
370
    -3
390
F
  0
ENDTAB
  0
TABLE
  2
STYLE
  5
3
330
0
100
AcDbSymbolTable
 70
     2
  0
STYLE
  5
11
330
3
100
AcDbSymbolTableRecord
100
AcDbTextStyleTableRecord
  2
Standard
 70
     0
 40
0.0
 41
1.0
 50
0.0
 71
     0
 42
3.5
  3
txt
  4

  0
STYLE
  5
94
330
3
100
AcDbSymbolTableRecord
100
AcDbTextStyleTableRecord
  2
SLDTEXTSTYLE0
 70
     0
 40
0.0
 41
0.75
 50
0.0
 71
     0
 42
3.5
  3
TXT
  4

  0
ENDTAB
  0
TABLE
  2
VIEW
  5
6
330
0
100
AcDbSymbolTable
 70
     0
  0
ENDTAB
  0
TABLE
  2
UCS
  5
7
330
0
100
AcDbSymbolTable
 70
     0
  0
ENDTAB
  0
TABLE
  2
APPID
  5
9
330
0
100
AcDbSymbolTable
 70
     1
  0
APPID
  5
12
330
9
100
AcDbSymbolTableRecord
100
AcDbRegAppTableRecord
  2
ACAD
 70
     0
  0
ENDTAB
  0
TABLE
  2
DIMSTYLE
  5
A
330
0
100
AcDbSymbolTable
 70
     4
100
AcDbDimStyleTable
  0
DIMSTYLE
105
27
330
A
100
AcDbSymbolTableRecord
100
AcDbDimStyleTableRecord
  2
ISO-25
 70
     0
 41
2.5
 42
0.625
 43
3.75
 44
1.25
 73
     0
 74
     0
 77
     1
 78
     8
140
2.5
141
2.5
143
0.03937007874016
147
0.625
171
     3
172
     1
178
     0
271
     2
272
     2
274
     3
278
    44
283
     0
284
     8
340
11
  0
DIMSTYLE
105
16A
102
{ACAD_REACTORS
330
169
330
191
102
}
330
A
100
AcDbSymbolTableRecord
100
AcDbDimStyleTableRecord
  2
SLDDIMSTYLE0
 70
     0
 41
3.302
 44
0.0
 45
0.000000001
 73
     0
 74
     0
 77
     1
 78
    12
 79
     3
140
3.5
143
0.0393700787401575
147
0.875
148
0.000000001
170
     1
173
     1
178
     0
271
     2
272
     2
276
     2
284
    12
340
94
  0
DIMSTYLE
105
17D
102
{ACAD_REACTORS
330
17C
102
}
330
A
100
AcDbSymbolTableRecord
100
AcDbDimStyleTableRecord
  2
SLDDIMSTYLE1
 70
     0
 41
3.302
 44
0.0
 45
0.000000001
 73
     0
 74
     0
 77
     1
 78
    12
 79
     3
140
3.5
143
0.0393700787401575
147
0.875
148
0.000000001
170
     1
172
     1
173
     1
178
     0
271
     2
272
     2
276
     2
284
    12
289
     0
340
94
  0
DIMSTYLE
105
1A6
102
{ACAD_REACTORS
330
1A5
102
}
330
A
100
AcDbSymbolTableRecord
100
AcDbDimStyleTableRecord
  2
SLDDIMSTYLE2
 70
     0
 41
3.302
 44
0.0
 45
0.000000001
 73
     0
 74
     0
 77
     1
 78
     4
 79
     1
140
3.5
143
0.0393700787401575
147
0.875
148
0.000000001
170
     1
173
     1
178
     0
271
     2
272
     2
276
     2
284
    12
340
94
  0
ENDTAB
  0
TABLE
  2
BLOCK_RECORD
  5
1
330
0
100
AcDbSymbolTable
 70
     7
  0
BLOCK_RECORD
  5
1F
330
1
100
AcDbSymbolTableRecord
100
AcDbBlockTableRecord
  2
*Model_Space
340
22
  0
BLOCK_RECORD
  5
1B
330
1
100
AcDbSymbolTableRecord
100
AcDbBlockTableRecord
  2
*Paper_Space
340
1E
  0
BLOCK_RECORD
  5
23
330
1
100
AcDbSymbolTableRecord
100
AcDbBlockTableRecord
  2
*Paper_Space0
340
26
  0
BLOCK_RECORD
  5
7F
330
1
100
AcDbSymbolTableRecord
100
AcDbBlockTableRecord
  2
블럭10
340
0
102
{BLKREFS
331
161
102
}
  0
BLOCK_RECORD
  5
16B
330
1
100
AcDbSymbolTableRecord
100
AcDbBlockTableRecord
  2
_D
340
0
  0
BLOCK_RECORD
  5
17E
330
1
100
AcDbSymbolTableRecord
100
AcDbBlockTableRecord
  2
_D_1
340
0
  0
BLOCK_RECORD
  5
192
330
1
100
AcDbSymbolTableRecord
100
AcDbBlockTableRecord
  2
_D_2
340
0
  0
BLOCK_RECORD
  5
1A7
330
1
100
AcDbSymbolTableRecord
100
AcDbBlockTableRecord
  2
_D_3
340
0
  0
BLOCK_RECORD
  5
1C0
330
1
100
AcDbSymbolTableRecord
100
AcDbBlockTableRecord
  2
SW_DOWELSYMBOL_0
340
0
102
{BLKREFS
331
1C6
102
}
  0
ENDTAB
  0
ENDSEC
  0
SECTION
  2
BLOCKS
  0
BLOCK
  5
20
330
1F
100
AcDbEntity
  8
0
100
AcDbBlockBegin
  2
*Model_Space
 70
     0
 10
0.0
 20
0.0
 30
0.0
  3
*Model_Space
  1
*Model_Space
  0
ENDBLK
  5
21
330
1F
100
AcDbEntity
  8
0
100
AcDbBlockEnd
  0
BLOCK
  5
1C
330
1B
100
AcDbEntity
 67
     1
  8
0
100
AcDbBlockBegin
  2
*Paper_Space
 70
     0
 10
0.0
 20
0.0
 30
0.0
  3
*Paper_Space
  1
*Paper_Space
  0
ENDBLK
  5
1D
330
1B
100
AcDbEntity
 67
     1
  8
0
100
AcDbBlockEnd
  0
BLOCK
  5
24
330
23
100
AcDbEntity
  8
0
100
AcDbBlockBegin
  2
*Paper_Space0
 70
     0
 10
0.0
 20
0.0
 30
0.0
  3
*Paper_Space0
  1
*Paper_Space0
  0
ENDBLK
  5
25
330
23
100
AcDbEntity
  8
0
100
AcDbBlockEnd
  0
BLOCK
  5
80
330
7F
100
AcDbEntity
  8
0
100
AcDbBlockBegin
  2
블럭10
 70
     2
 10
0.0
 20
0.0
 30
0.0
  3
블럭10
  1
블럭10
  0
ELLIPSE
  5
82
330
7F
100
AcDbEntity
  8
중심선
100
AcDbEllipse
 10
20.54032771741204
 20
12.0471743016438
 30
0.0
 11
6.600054785286829
 21
-1.261213355974178E-13
 31
0.0
210
0.0
220
0.0
230
1.0
 40
0.636358354079598
 41
0.9219305317359503
 42
6.513795318482858
  0
ELLIPSE
  5
83
330
7F
100
AcDbEntity
  8
중심선
100
AcDbEllipse
 10
20.54032771746488
 20
12.04717430159265
 30
0.0
 11
3.960054785062283
 21
1.540847449632565E-10
 31
0.0
210
0.0
220
0.0
230
1.0
 40
0.3939339440162632
 41
1.131841032648279
 42
5.62031148352944
  0
LINE
  5
84
330
7F
100
AcDbEntity
  8
중심선
100
AcDbLine
 10
2.268634060543552
 20
16.24717430164393
 30
0.0
 11
5.714909304380834
 21
16.24717430164393
 31
0.0
  0
LINE
  5
85
330
7F
100
AcDbEntity
  8
중심선
100
AcDbLine
 10
5.245725140726316
 20
7.84717430164391
 30
0.0
 11
8.692000384563599
 21
7.84717430164391
 31
0.0
  0
LINE
  5
86
330
7F
100
AcDbEntity
  8
중심선
100
AcDbLine
 10
15.74043728645272
 20
16.24717430164393
 30
0.0
 11
8.692000384563599
 21
7.84717430164391
 31
0.0
  0
LINE
  5
87
330
7F
100
AcDbEntity
  8
중심선
100
AcDbLine
 10
0.1404042013395286
 20
13.71084872107135
 30
0.0
 11
3.58671253028996
 21
13.71088815037384
 31
0.0
  0
LINE
  5
88
330
7F
100
AcDbEntity
  8
중심선
100
AcDbLine
 10
2.750260043222114
 20
10.84717430164391
 30
0.0
 11
6.196535287059397
 21
10.84717430164391
 31
0.0
  0
LINE
  5
89
330
7F
100
AcDbEntity
  8
중심선
100
AcDbLine
 10
12.29416204261559
 20
16.24717430164393
 30
0.0
 11
5.245725140726316
 21
7.84717430164391
 31
0.0
  0
LINE
  5
8A
330
7F
100
AcDbEntity
  8
중심선
100
AcDbLine
 10
10.72767329541681
 20
16.24717430164393
 30
0.0
 11
6.196535287059397
 21
10.84717430164391
 31
0.0
  0
LINE
  5
8B
330
7F
100
AcDbEntity
  8
중심선
100
AcDbLine
 10
7.28139805157953
 20
16.24717430164393
 30
0.0
 11
2.750260043222114
 21
10.84717430164391
 31
0.0
  0
LINE
  5
8C
330
7F
100
AcDbEntity
  8
중심선
100
AcDbLine
 10
5.714909304380834
 20
16.24717430164393
 30
0.0
 11
3.58671253028996
 21
13.71088815037384
 31
0.0
  0
LINE
  5
8D
330
7F
100
AcDbEntity
  8
중심선
100
AcDbLine
 10
2.268634060543552
 20
16.24717430164393
 30
0.0
 11
0.1404042013395286
 21
13.71084872107135
 31
0.0
  0
LINE
  5
8E
330
7F
100
AcDbEntity
  8
중심선
100
AcDbLine
 10
7.28139805157953
 20
16.24717430164393
 30
0.0
 11
10.72767329541681
 21
16.24717430164393
 31
0.0
  0
LINE
  5
8F
330
7F
100
AcDbEntity
  8
중심선
100
AcDbLine
 10
12.29416204261559
 20
16.24717430164393
 30
0.0
 11
15.74043728645272
 21
16.24717430164393
 31
0.0
  0
LINE
  5
90
330
7F
100
AcDbEntity
  8
중심선
100
AcDbLine
 10
19.22036997980202
 20
11.08717430171403
 30
0.0
 11
23.66174974927406
 21
11.08717430171406
 31
0.0
  0
LINE
  5
91
330
7F
100
AcDbEntity
  8
중심선
100
AcDbLine
 10
19.22039502424796
 20
13.00717430171391
 30
0.0
 11
19.22036997980202
 21
11.08717430171403
 31
0.0
  0
LINE
  5
92
330
7F
100
AcDbEntity
  8
중심선
100
AcDbLine
 10
19.22039502424796
 20
13.00717430171391
 30
0.0
 11
26.96566020931264
 21
13.00717430171391
 31
0.0
  0
LINE
  5
93
330
7F
100
AcDbEntity
  8
중심선
100
AcDbLine
 10
22.22332737316547
 20
13.45928029700563
 30
0.0
 11
24.52862924686651
 21
15.39360700705356
 31
0.0
  0
ATTDEF
  5
95
330
7F
100
AcDbEntity
  8
FORMAT
 62
     2
100
AcDbText
 10
-9.522313950597932
 20
2.075366912832191
 30
0.0
 40
4.233333333333333
  1
EH094024 [ 3 FLUTE ]
 41
0.75
  7
SLDTEXTSTYLE0
 11
-9.522313950597932
 21
-0.0412997538344756
 31
0.0
100
AcDbAttributeDefinition
  3

  2
AUTOATTR0
 70
     0
 74
     1
  0
ENDBLK
  5
81
330
7F
100
AcDbEntity
  8
0
100
AcDbBlockEnd
  0
BLOCK
  5
16C
330
16B
100
AcDbEntity
  8
0
100
AcDbBlockBegin
  2
_D
 70
     0
 10
0.0
 20
0.0
 30
0.0
  3
_D
  1
_D
  0
LINE
  5
16E
330
16B
100
AcDbEntity
  8
치수문자_일반주서
 62
     0
370
    -2
100
AcDbLine
 10
31.11250000000001
 20
9.525000000000004
 30
0.0
 11
52.24719747506889
 21
9.525000000000077
 31
0.0
  0
LINE
  5
16F
330
16B
100
AcDbEntity
  8
치수문자_일반주서
 62
     0
370
    -2
100
AcDbLine
 10
31.11250000000001
 20
-9.525000000000004
 30
0.0
 11
52.24719747506896
 21
-9.524999999999924
 31
0.0
  0
LINE
  5
170
330
16B
100
AcDbEntity
  8
치수문자_일반주서
 62
     0
370
    -2
100
AcDbLine
 10
52.24719747506889
 20
9.525000000000077
 30
0.0
 11
52.24719747506879
 21
40.38950000000008
 31
0.0
  0
LINE
  5
171
330
16B
100
AcDbEntity
  8
치수문자_일반주서
 62
     0
370
    -2
100
AcDbLine
 10
52.24719747506891
 20
6.223000000000077
 30
0.0
 11
52.24719747506894
 21
-6.222999999999924
 31
0.0
  0
SOLID
  5
172
330
16B
100
AcDbEntity
  8
치수문자_일반주서
 62
     0
100
AcDbTrace
 10
52.79753080840224
 20
6.223000000000079
 30
0.0
 11
51.69686414173557
 21
6.223000000000075
 31
0.0
 12
52.24719747506889
 22
9.525000000000077
 32
0.0
 13
52.24719747506889
 23
9.525000000000077
 33
0.0
  0
SOLID
  5
173
330
16B
100
AcDbEntity
  8
치수문자_일반주서
 62
     0
100
AcDbTrace
 10
51.69686414173561
 20
-6.222999999999926
 30
0.0
 11
52.79753080840228
 21
-6.222999999999923
 31
0.0
 12
52.24719747506896
 22
-9.524999999999924
 32
0.0
 13
52.24719747506896
 23
-9.524999999999924
 33
0.0
  0
MTEXT
  5
174
330
16B
100
AcDbEntity
  8
치수문자_일반주서
 62
     0
100
AcDbMText
 10
47.87219747506884
 20
26.60825000000007
 30
0.0
 40
3.5
 41
0.0
 71
     2
 72
     1
  1
\A1;%%c19.05 [3/4]
  7
SLDTEXTSTYLE0
 11
-3.356894814614646E-15
 21
1.0
 31
0.0
 73
     1
 44
1.0
  0
POINT
  5
175
330
16B
100
AcDbEntity
  8
Defpoints
 62
     0
100
AcDbPoint
 10
31.05000000000001
 20
9.525000000000004
 30
0.0
  0
POINT
  5
176
330
16B
100
AcDbEntity
  8
Defpoints
 62
     0
100
AcDbPoint
 10
31.05000000000001
 20
-9.525000000000004
 30
0.0
  0
POINT
  5
33C
330
16B
100
AcDbEntity
  8
Defpoints
 62
     0
100
AcDbPoint
 10
52.24719747506896
 20
-9.524999999999924
 30
0.0
  0
ENDBLK
  5
16D
330
16B
100
AcDbEntity
  8
0
100
AcDbBlockEnd
  0
BLOCK
  5
17F
330
17E
100
AcDbEntity
  8
0
100
AcDbBlockBegin
  2
_D_1
 70
     0
 10
0.0
 20
0.0
 30
0.0
  3
_D_1
  1
_D_1
  0
LINE
  5
181
330
17E
100
AcDbEntity
  8
치수문자_일반주서
 62
     0
370
    -2
100
AcDbLine
 10
-39.97499999999992
 20
9.525000000000025
 30
0.0
 11
-61.53250000000004
 21
9.524999999999944
 31
0.0
  0
LINE
  5
182
330
17E
100
AcDbEntity
  8
치수문자_일반주서
 62
     0
370
    -2
100
AcDbLine
 10
-39.97499999999992
 20
-9.524999999999999
 30
0.0
 11
-61.53249999999998
 21
-9.52500000000008
 31
0.0
  0
LINE
  5
183
330
17E
100
AcDbEntity
  8
치수문자_일반주서
 62
     0
370
    -2
100
AcDbLine
 10
-61.53250000000003
 20
6.222999999999944
 30
0.0
 11
-61.53249999999999
 21
-6.223000000000081
 31
0.0
  0
SOLID
  5
184
330
17E
100
AcDbEntity
  8
치수문자_일반주서
 62
     0
100
AcDbTrace
 10
-60.98216666666669
 20
6.222999999999946
 30
0.0
 11
-62.08283333333336
 21
6.222999999999942
 31
0.0
 12
-61.53250000000004
 22
9.524999999999944
 32
0.0
 13
-61.53250000000004
 23
9.524999999999944
 33
0.0
  0
SOLID
  5
185
330
17E
100
AcDbEntity
  8
치수문자_일반주서
 62
     0
100
AcDbTrace
 10
-62.08283333333333
 20
-6.223000000000082
 30
0.0
 11
-60.98216666666666
 21
-6.223000000000079
 31
0.0
 12
-61.53249999999998
 22
-9.52500000000008
 32
0.0
 13
-61.53249999999998
 23
-9.52500000000008
 33
0.0
  0
MTEXT
  5
186
330
17E
100
AcDbEntity
  8
치수문자_일반주서
 62
     0
100
AcDbMText
 10
-65.9075
 20
-1.526016521430921
 30
0.0
 40
3.5
 41
0.0
 71
     2
 72
     1
  1
\A1;%%c19.05 [3/4]
  7
SLDTEXTSTYLE0
 11
-3.356894814614643E-15
 21
1.0
 31
0.0
 73
     1
 44
1.0
  0
POINT
  5
187
330
17E
100
AcDbEntity
  8
Defpoints
 62
     0
100
AcDbPoint
 10
-39.91249999999992
 20
9.525000000000025
 30
0.0
  0
POINT
  5
188
330
17E
100
AcDbEntity
  8
Defpoints
 62
     0
100
AcDbPoint
 10
-39.91249999999992
 20
-9.524999999999999
 30
0.0
  0
POINT
  5
189
330
17E
100
AcDbEntity
  8
Defpoints
 62
     0
100
AcDbPoint
 10
-61.53249999999998
 20
-9.525000000000079
 30
0.0
  0
ENDBLK
  5
180
330
17E
100
AcDbEntity
  8
0
100
AcDbBlockEnd
  0
BLOCK
  5
193
330
192
100
AcDbEntity
  8
0
100
AcDbBlockBegin
  2
_D_2
 70
     0
 10
0.0
 20
0.0
 30
0.0
  3
_D_2
  1
_D_2
  0
LINE
  5
195
330
192
100
AcDbEntity
  8
치수문자_일반주서
 62
     0
370
    -2
100
AcDbLine
 10
31.05000000000001
 20
6.229975262783491
 30
0.0
 11
31.05000000000001
 21
40.82290558803981
 31
0.0
  0
LINE
  5
196
330
192
100
AcDbEntity
  8
치수문자_일반주서
 62
     0
370
    -2
100
AcDbLine
 10
12.0
 20
9.587500000000004
 30
0.0
 11
12.0
 21
40.82290558803981
 31
0.0
  0
LINE
  5
197
330
192
100
AcDbEntity
  8
치수문자_일반주서
 62
     0
370
    -2
100
AcDbLine
 10
27.74800000000001
 20
40.82290558803981
 30
0.0
 11
15.302
 21
40.82290558803981
 31
0.0
  0
SOLID
  5
198
330
192
100
AcDbEntity
  8
치수문자_일반주서
 62
     0
100
AcDbTrace
 10
27.74800000000001
 20
40.27257225470647
 30
0.0
 11
27.74800000000001
 21
41.37323892137314
 31
0.0
 12
31.05000000000001
 22
40.82290558803981
 32
0.0
 13
31.05000000000001
 23
40.82290558803981
 33
0.0
  0
SOLID
  5
199
330
192
100
AcDbEntity
  8
치수문자_일반주서
 62
     0
100
AcDbTrace
 10
15.302
 20
41.37323892137314
 30
0.0
 11
15.302
 21
40.27257225470647
 31
0.0
 12
12.0
 22
40.82290558803981
 32
0.0
 13
12.0
 23
40.82290558803981
 33
0.0
  0
MTEXT
  5
19A
330
192
100
AcDbEntity
  8
치수문자_일반주서
 62
     0
100
AcDbMText
 10
16.76250000000001
 20
45.19790558803981
 30
0.0
 40
3.5
 41
0.0
 71
     2
 72
     1
  1
\A1;19.05 [3/4]
  7
SLDTEXTSTYLE0
 73
     1
 44
1.0
  0
POINT
  5
19B
330
192
100
AcDbEntity
  8
Defpoints
 62
     0
100
AcDbPoint
 10
31.05000000000001
 20
6.167475262783491
 30
0.0
  0
POINT
  5
19C
330
192
100
AcDbEntity
  8
Defpoints
 62
     0
100
AcDbPoint
 10
12.0
 20
9.525000000000004
 30
0.0
  0
POINT
  5
19D
330
192
100
AcDbEntity
  8
Defpoints
 62
     0
100
AcDbPoint
 10
12.0
 20
40.82290558803981
 30
0.0
  0
ENDBLK
  5
194
330
192
100
AcDbEntity
  8
0
100
AcDbBlockEnd
  0
BLOCK
  5
1A8
330
1A7
100
AcDbEntity
  8
0
100
AcDbBlockBegin
  2
_D_3
 70
     0
 10
0.0
 20
0.0
 30
0.0
  3
_D_3
  1
_D_3
  0
LINE
  5
1AA
330
1A7
100
AcDbEntity
  8
치수문자_일반주서
 62
     0
370
    -2
100
AcDbLine
 10
31.05000000000001
 20
7.317030153947702
 30
0.0
 11
31.05
 21
61.06307102789049
 31
0.0
  0
LINE
  5
1AB
330
1A7
100
AcDbEntity
  8
치수문자_일반주서
 62
     0
370
    -2
100
AcDbLine
 10
-41.97499999999997
 20
7.587500000000001
 30
0.0
 11
-41.97499999999998
 21
61.06307102789049
 31
0.0
  0
LINE
  5
1AC
330
1A7
100
AcDbEntity
  8
치수문자_일반주서
 62
     0
370
    -2
100
AcDbLine
 10
27.748
 20
61.06307102789049
 30
0.0
 11
-38.67299999999998
 21
61.06307102789049
 31
0.0
  0
SOLID
  5
1AD
330
1A7
100
AcDbEntity
  8
치수문자_일반주서
 62
     0
100
AcDbTrace
 10
27.748
 20
60.51273769455715
 30
0.0
 11
27.748
 21
61.61340436122382
 31
0.0
 12
31.05
 22
61.06307102789049
 32
0.0
 13
31.05
 23
61.06307102789049
 33
0.0
  0
SOLID
  5
1AE
330
1A7
100
AcDbEntity
  8
치수문자_일반주서
 62
     0
100
AcDbTrace
 10
-38.67299999999998
 20
61.61340436122382
 30
0.0
 11
-38.67299999999998
 21
60.51273769455715
 31
0.0
 12
-41.97499999999998
 22
61.06307102789049
 32
0.0
 13
-41.97499999999998
 23
61.06307102789049
 33
0.0
  0
MTEXT
  5
1AF
330
1A7
100
AcDbEntity
  8
치수문자_일반주서
 62
     0
100
AcDbMText
 10
-5.462499999999991
 20
65.43807102789049
 30
0.0
 40
3.5
 41
0.0
 71
     2
 72
     1
  1
\A1;73.03 [2 7/8]
  7
SLDTEXTSTYLE0
 73
     1
 44
1.0
  0
POINT
  5
1B0
330
1A7
100
AcDbEntity
  8
Defpoints
 62
     0
100
AcDbPoint
 10
31.05000000000001
 20
7.254530153947702
 30
0.0
  0
POINT
  5
1B1
330
1A7
100
AcDbEntity
  8
Defpoints
 62
     0
100
AcDbPoint
 10
-41.97499999999997
 20
7.525000000000001
 30
0.0
  0
POINT
  5
1B2
330
1A7
100
AcDbEntity
  8
Defpoints
 62
     0
100
AcDbPoint
 10
-41.97499999999997
 20
61.06307102789049
 30
0.0
  0
ENDBLK
  5
1A9
330
1A7
100
AcDbEntity
  8
0
100
AcDbBlockEnd
  0
BLOCK
  5
1C1
330
1C0
100
AcDbEntity
  8
0
100
AcDbBlockBegin
  2
SW_DOWELSYMBOL_0
 70
     0
 10
0.0
 20
0.0
 30
0.0
  3
SW_DOWELSYMBOL_0
  1
SW_DOWELSYMBOL_0
  0
CIRCLE
  5
1C3
330
1C0
100
AcDbEntity
  8
해칭선
 62
     0
100
AcDbCircle
 10
0.0
 20
0.0
 30
0.0
 40
3.000000000000004
  0
HATCH
  5
1C4
330
1C0
100
AcDbEntity
  8
0
  6
Continuous
 62
     0
370
     0
100
AcDbHatch
 10
0.0
 20
0.0
 30
0.0
210
0.0
220
0.0
230
1.0
  2
SOLID
 70
     1
 71
     0
 91
        1
 92
        0
 93
        3
 72
     2
 10
0.0000000000000104
 20
-0.0000000000000035
 40
3.000000000000004
 50
0.0
 51
90.0
 73
     1
 72
     1
 10
0.0000000000000104
 20
3.000000000000001
 11
0.0000000000000104
 21
-0.0000000000000036
 72
     1
 10
0.0000000000000104
 20
-0.0000000000000035
 11
3.000000000000015
 21
-0.0000000000000035
 97
        0
 75
     0
 76
     1
 98
        1
 10
0.0
 20
0.0
  0
HATCH
  5
1C5
330
1C0
100
AcDbEntity
  8
0
  6
Continuous
 62
     0
370
     0
100
AcDbHatch
 10
0.0
 20
0.0
 30
0.0
210
0.0
220
0.0
230
1.0
  2
SOLID
 70
     1
 71
     0
 91
        1
 92
        0
 93
        3
 72
     2
 10
0.0000000000000104
 20
-0.0000000000000035
 40
3.000000000000004
 50
180.0
 51
270.0000000000007
 73
     1
 72
     1
 10
0.0000000000000104
 20
-3.000000000000008
 11
0.0000000000000104
 21
-0.0000000000000036
 72
     1
 10
0.0000000000000104
 20
-0.0000000000000035
 11
-2.999999999999994
 21
-0.0000000000000035
 97
        0
 75
     0
 76
     1
 98
        1
 10
0.0
 20
0.0
  0
ENDBLK
  5
1C2
330
1C0
100
AcDbEntity
  8
0
100
AcDbBlockEnd
  0
ENDSEC
  0
SECTION
  2
ENTITIES
  0
LINE
  5
96
330
1F
100
AcDbEntity
  8
외형선
  6
Continuous
370
    15
100
AcDbLine
 10
12.0
 20
9.524999999999997
 30
0.0
 11
-8.481924999999972
 21
9.524999999999995
 31
0.0
  0
LINE
  5
97
330
1F
100
AcDbEntity
  8
외형선
  6
Continuous
370
    15
100
AcDbLine
 10
-39.97499999999991
 20
-9.525000000000022
 30
0.0
 11
11.99999999999999
 21
-9.525000000000015
 31
0.0
  0
LINE
  5
98
330
1F
100
AcDbEntity
  8
외형선
  6
Continuous
370
    15
100
AcDbLine
 10
-39.97499999999992
 20
9.524999999999999
 30
0.0
 11
-41.97499999999997
 21
7.524999999999999
 31
0.0
  0
LINE
  5
99
330
1F
100
AcDbEntity
  8
외형선
  6
Continuous
370
    15
100
AcDbLine
 10
-41.97499999999997
 20
-7.525000000000008
 30
0.0
 11
-39.97499999999992
 21
-9.525000000000015
 31
0.0
  0
LINE
  5
9A
330
1F
100
AcDbEntity
  8
외형선
  6
Continuous
 62
     1
370
    15
100
AcDbLine
 10
23.84561315343731
 20
-1.416438348840695
 30
0.0
 11
23.60922068028203
 21
-1.282756948162814
 31
0.0
  0
SPLINE
  5
9D
330
1F
100
AcDbEntity
  8
외형선
  6
Continuous
 62
     1
370
    15
100
AcDbSpline
210
0.0
220
0.0
230
1.0
 70
     8
 71
     3
 72
    11
 73
     7
 74
     0
 42
0.000000001
 43
0.00000001
 40
0.0
 40
0.0
 40
0.0
 40
0.0
 40
0.2440153330753486
 40
0.4999875730589091
 40
0.755964630627739
 40
1.0
 40
1.0
 40
1.0
 40
1.0
 10
12.4107689526343
 20
-9.41227680481599
 30
0.0
 10
12.4989993374418
 20
-9.352269558707725
 30
0.0
 10
12.6797834521693
 20
-9.229314673170457
 30
0.0
 10
13.01255139729868
 20
-9.170769434004127
 30
0.0
 10
13.34531610623152
 20
-9.216347111279603
 30
0.0
 10
13.52606449020704
 20
-9.329610196393443
 30
0.0
 10
13.61428029499562
 20
-9.384889220119094
 30
0.0
  0
SPLINE
  5
9F
330
1F
100
AcDbEntity
  8
외형선
  6
Continuous
 62
     1
370
    15
100
AcDbSpline
210
0.0
220
0.0
230
1.0
 70
     8
 71
     3
 72
     9
 73
     5
 74
     0
 42
0.000000001
 43
0.00000001
 40
0.0
 40
0.0
 40
0.0
 40
0.0
 40
0.4985554915106001
 40
1.0
 40
1.0
 40
1.0
 40
1.0
 10
13.63410400260502
 20
-9.404812059639756
 30
0.0
 10
13.68670842889076
 20
-9.439349193158925
 30
0.0
 10
13.79222211228502
 20
-9.50862359512072
 30
0.0
 10
13.91458610356204
 20
-9.519517487654062
 30
0.0
 10
13.97594485502474
 20
-9.524980170240978
 30
0.0
  0
LINE
  5
A0
330
1F
100
AcDbEntity
  8
외형선
  6
Continuous
 62
     1
370
    15
100
AcDbLine
 10
13.97694726891358
 20
-9.525000000000018
 30
0.0
 11
16.12468899608972
 21
-9.525000000000018
 31
0.0
  0
SPLINE
  5
A3
330
1F
100
AcDbEntity
  8
외형선
  6
Continuous
 62
     1
370
    15
100
AcDbSpline
210
0.0
220
0.0
230
1.0
 70
     8
 71
     3
 72
     9
 73
     5
 74
     0
 42
0.000000001
 43
0.00000001
 40
0.0
 40
0.0
 40
0.0
 40
0.0
 40
0.5021232391725741
 40
1.0
 40
1.0
 40
1.0
 40
1.0
 10
16.12514284261654
 20
-9.524999993373685
 30
0.0
 10
16.1866072336208
 20
-9.5196953569717
 30
0.0
 10
16.30901620856794
 20
-9.509130945711382
 30
0.0
 10
16.4148575149693
 20
-9.439726437512688
 30
0.0
 10
16.46755344176214
 20
-9.405171545783904
 30
0.0
  0
SPLINE
  5
A4
330
1F
100
AcDbEntity
  8
외형선
  6
Continuous
 62
     1
370
    15
100
AcDbSpline
210
0.0
220
0.0
230
1.0
 70
     8
 71
     3
 72
    11
 73
     7
 74
     0
 42
0.000000001
 43
0.00000001
 40
0.0
 40
0.0
 40
0.0
 40
0.0
 40
0.2080640419484749
 40
0.446966460370972
 40
0.7138447390245498
 40
0.9999999999999999
 40
0.9999999999999999
 40
0.9999999999999999
 40
0.9999999999999999
 10
16.47382067197896
 20
-9.399797624290477
 30
0.0
 10
16.53950787443862
 20
-9.35626954824023
 30
0.0
 10
16.68061816000322
 20
-9.2627618479344
 30
0.0
 10
16.97840413850838
 20
-9.19016560980594
 30
0.0
 10
17.33163538178914
 20
-9.21791145575437
 30
0.0
 10
17.52990689893025
 20
-9.340233699685056
 30
0.0
 10
17.63249821331882
 20
-9.403526702960349
 30
0.0
  0
SPLINE
  5
A5
330
1F
100
AcDbEntity
  8
외형선
  6
Continuous
 62
     1
370
    15
100
AcDbSpline
210
0.0
220
0.0
230
1.0
 70
     8
 71
     3
 72
     9
 73
     5
 74
     0
 42
0.000000001
 43
0.00000001
 40
0.0
 40
0.0
 40
0.0
 40
0.0
 40
0.4985633009861354
 40
1.0
 40
1.0
 40
1.0
 40
1.0
 10
17.63408173508414
 20
-9.404794632421353
 30
0.0
 10
17.68691178474001
 20
-9.439468779495805
 30
0.0
 10
17.79287636246032
 20
-9.509016913114674
 30
0.0
 10
17.9156860496031
 20
-9.51966210678847
 30
0.0
 10
17.97726733373088
 20
-9.52499999756462
 30
0.0
  0
LINE
  5
A6
330
1F
100
AcDbEntity
  8
외형선
  6
Continuous
 62
     1
370
    15
100
AcDbLine
 10
17.97724473890682
 20
-9.525000000000018
 30
0.0
 11
20.12491903806756
 21
-9.525000000000018
 31
0.0
  0
SPLINE
  5
A7
330
1F
100
AcDbEntity
  8
외형선
  6
Continuous
 62
     1
370
    15
100
AcDbSpline
210
0.0
220
0.0
230
1.0
 70
     8
 71
     3
 72
     9
 73
     5
 74
     0
 42
0.000000001
 43
0.00000001
 40
0.0
 40
0.0
 40
0.0
 40
0.0
 40
0.5021231499981732
 40
1.0
 40
1.0
 40
1.0
 40
1.0
 10
20.12515584284909
 20
-9.524999984207456
 30
0.0
 10
20.18661942605675
 20
-9.519693799250174
 30
0.0
 10
20.3090268139812
 20
-9.509126302098728
 30
0.0
 10
20.41486647228208
 20
-9.439720636391264
 30
0.0
 10
20.46756158796221
 20
-9.405165162176553
 30
0.0
  0
SPLINE
  5
A8
330
1F
100
AcDbEntity
  8
외형선
  6
Continuous
 62
     1
370
    15
100
AcDbSpline
210
0.0
220
0.0
230
1.0
 70
     8
 71
     3
 72
    11
 73
     7
 74
     0
 42
0.000000001
 43
0.00000001
 40
0.0
 40
0.0
 40
0.0
 40
0.0
 40
0.2450438954141269
 40
0.4998942731562089
 40
0.7547909839897298
 40
0.9999999999999999
 40
0.9999999999999999
 40
0.9999999999999999
 40
0.9999999999999999
 10
20.46033755929002
 20
-9.410213751974434
 30
0.0
 10
20.54692176367289
 20
-9.353871559256165
 30
0.0
 10
20.72355521068706
 20
-9.2389323993586
 30
0.0
 10
21.05370126196569
 20
-9.18725576048122
 30
0.0
 10
21.38383306077008
 20
-9.240279169560988
 30
0.0
 10
21.56028253704824
 20
-9.356125404522357
 30
0.0
 10
21.64679824788955
 20
-9.412926476293014
 30
0.0
  0
SPLINE
  5
A9
330
1F
100
AcDbEntity
  8
외형선
  6
Continuous
 62
     1
370
    15
100
AcDbSpline
210
0.0
220
0.0
230
1.0
 70
     8
 71
     3
 72
     9
 73
     5
 74
     0
 42
0.000000001
 43
0.00000001
 40
0.0
 40
0.0
 40
0.0
 40
0.0
 40
0.4985883877980591
 40
1.0
 40
1.0
 40
1.0
 40
1.0
 10
21.640349297983
 20
-9.409258796426471
 30
0.0
 10
21.69153746572177
 20
-9.442343929381062
 30
0.0
 10
21.79420365087868
 20
-9.508701537709465
 30
0.0
 10
21.91379718618172
 20
-9.519462975024684
 30
0.0
 10
21.97376277352695
 20
-9.52485888465852
 30
0.0
  0
LINE
  5
AA
330
1F
100
AcDbEntity
  8
외형선
  6
Continuous
 62
     1
370
    15
100
AcDbLine
 10
21.97711027863108
 20
-9.525000000000018
 30
0.0
 11
23.44584230075419
 21
-9.525000000000018
 31
0.0
  0
LINE
  5
AB
330
1F
100
AcDbEntity
  8
외형선
  6
Continuous
 62
     1
370
    15
100
AcDbLine
 10
31.05000000000001
 20
7.32499999999999
 30
0.0
 11
29.73050039658823
 21
8.644499603411765
 31
0.0
  0
LINE
  5
B4
330
1F
100
AcDbEntity
  8
외형선
  6
Continuous
370
    15
100
AcDbLine
 10
-39.97499999999992
 20
9.525
 30
0.0
 11
-39.97499999999992
 21
-9.524999999999999
 31
0.0
  0
LINE
  5
B6
330
1F
100
AcDbEntity
  8
외형선
  6
Continuous
370
    15
100
AcDbLine
 10
-41.97499999999997
 20
7.525000000000001
 30
0.0
 11
-41.97499999999997
 21
-7.525000000000008
 31
0.0
  0
SPLINE
  5
B7
330
1F
100
AcDbEntity
  8
외형선
  6
Continuous
 62
     1
370
    15
100
AcDbSpline
210
0.0
220
0.0
230
1.0
 70
     8
 71
     3
 72
     8
 73
     4
 74
     0
 42
0.000000001
 43
0.00000001
 40
0.0
 40
0.0
 40
0.0
 40
0.0
 40
1.0
 40
1.0
 40
1.0
 40
1.0
 10
28.53043547140129
 20
2.02596804837841
 30
0.0
 10
28.62425291259971
 20
1.979309910047945
 30
0.0
 10
28.73687008948649
 20
1.918658576430107
 30
0.0
 10
28.85228222938153
 20
1.853421698621156
 30
0.0
  0
SPLINE
  5
B8
330
1F
100
AcDbEntity
  8
외형선
  6
Continuous
 62
     1
370
    15
100
AcDbSpline
210
0.0
220
0.0
230
1.0
 70
     8
 71
     3
 72
    12
 73
     8
 74
     0
 42
0.000000001
 43
0.00000001
 40
0.0
 40
0.0
 40
0.0
 40
0.0
 40
0.2499999999999999
 40
0.2499999999999999
 40
0.4999999999999998
 40
0.4999999999999998
 40
1.0
 40
1.0
 40
1.0
 40
1.0
 10
28.85000480053685
 20
1.854710961615109
 30
0.0
 10
28.85015268130721
 20
1.348678414730992
 30
0.0
 10
28.85348877701895
 20
0.8341030307107544
 30
0.0
 10
28.86442443023175
 20
-0.1866088426507918
 30
0.0
 10
28.87208741459177
 20
-0.6954618055781179
 30
0.0
 10
28.90055955798859
 20
-2.217509132908321
 30
0.0
 10
28.92672240404481
 20
-3.21220966882825
 30
0.0
 10
28.95666666666665
 20
-4.125752806176544
 30
0.0
  0
SPLINE
  5
B9
330
1F
100
AcDbEntity
  8
외형선
  6
Continuous
 62
     1
370
    15
100
AcDbSpline
210
0.0
220
0.0
230
1.0
 70
     8
 71
     3
 72
    12
 73
     8
 74
     0
 42
0.000000001
 43
0.00000001
 40
0.0
 40
0.0
 40
0.0
 40
0.0
 40
0.5
 40
0.5
 40
0.75
 40
0.75
 40
1.0
 40
1.0
 40
1.0
 40
1.0
 10
28.95907835165341
 20
-4.158556929643185
 30
0.0
 10
28.89002771704165
 20
-3.21968588168091
 30
0.0
 10
28.81586911890805
 20
-2.178913991950611
 30
0.0
 10
28.70607614965175
 20
-0.5900904651016669
 30
0.0
 10
28.66974355781846
 20
-0.0563841575533791
 30
0.0
 10
28.59911702816031
 20
0.9965113409434362
 30
0.0
 10
28.56559368706166
 20
1.511950597078815
 30
0.0
 10
28.53043547140098
 20
2.025968048374036
 30
0.0
  0
SPLINE
  5
BA
330
1F
100
AcDbEntity
  8
외형선
  6
Continuous
 62
     1
370
    15
100
AcDbSpline
210
0.0
220
0.0
230
1.0
 70
     8
 71
     3
 72
    10
 73
     6
 74
     0
 42
0.000000001
 43
0.00000001
 40
0.0
 40
0.0
 40
0.0
 40
0.0
 40
0.5
 40
0.5
 40
1.0
 40
1.0
 40
1.0
 40
1.0
 10
28.85016862499603
 20
1.854604409588277
 30
0.0
 10
29.20760212733307
 20
1.627153695812113
 30
0.0
 10
29.5679111375774
 20
1.439795141726657
 30
0.0
 10
30.29992970313285
 20
1.154138054380996
 30
0.0
 10
30.67425019374566
 20
1.055204497021275
 30
0.0
 10
31.05000000000001
 20
1.01361592601112
 30
0.0
  0
LINE
  5
BB
330
1F
100
AcDbEntity
  8
외형선
  6
Continuous
 62
     1
370
    15
100
AcDbLine
 10
31.05000000000001
 20
1.013615926011151
 30
0.0
 11
31.05000000000001
 21
-4.505082218580021
 31
0.0
  0
SPLINE
  5
BC
330
1F
100
AcDbEntity
  8
외형선
  6
Continuous
 62
     1
370
    15
100
AcDbSpline
210
0.0
220
0.0
230
1.0
 70
     8
 71
     3
 72
     8
 73
     4
 74
     0
 42
0.000000001
 43
0.00000001
 40
0.0
 40
0.0
 40
0.0
 40
0.0
 40
1.0
 40
1.0
 40
1.0
 40
1.0
 10
31.05000000000001
 20
-4.505082218580021
 30
0.0
 10
30.37831536835045
 20
-4.431085194287575
 30
0.0
 10
29.67477853636478
 20
-4.325256301327577
 30
0.0
 10
28.95874543072621
 20
-4.189233849842773
 30
0.0
  0
SPLINE
  5
BD
330
1F
100
AcDbEntity
  8
외형선
  6
Continuous
 62
     1
370
    15
100
AcDbSpline
210
0.0
220
0.0
230
1.0
 70
     8
 71
     3
 72
    10
 73
     6
 74
     0
 42
0.000000001
 43
0.00000001
 40
0.0
 40
0.0
 40
0.0
 40
0.0
 40
0.5
 40
0.5
 40
1.0
 40
1.0
 40
1.0
 40
1.0
 10
28.96148733213083
 20
-4.191298666153385
 30
0.0
 10
28.76605724911539
 20
-4.043927769746321
 30
0.0
 10
28.53432294161622
 20
-3.910678746331424
 30
0.0
 10
28.08078257972929
 20
-3.68189334251779
 30
0.0
 10
27.86176875416657
 20
-3.587142588396997
 30
0.0
 10
27.67794889126367
 20
-3.52337638806832
 30
0.0
  0
SPLINE
  5
BE
330
1F
100
AcDbEntity
  8
외형선
  6
Continuous
 62
     1
370
    15
100
AcDbSpline
210
0.0
220
0.0
230
1.0
 70
     8
 71
     3
 72
    12
 73
     8
 74
     0
 42
0.000000001
 43
0.00000001
 40
0.0
 40
0.0
 40
0.0
 40
0.0
 40
0.5
 40
0.5
 40
0.75
 40
0.75
 40
1.0
 40
1.0
 40
1.0
 40
1.0
 10
27.67794886866051
 20
-3.523376076248514
 30
0.0
 10
27.60657489552189
 20
-2.538742687965705
 30
0.0
 10
27.53131204073409
 20
-1.467662623429558
 30
0.0
 10
27.42210961523047
 20
0.1339748180699507
 30
0.0
 10
27.38633580059709
 20
0.6666769544577502
 30
0.0
 10
27.31747053600661
 20
1.707588880670893
 30
0.0
 10
27.28242058136707
 20
2.225647930641442
 30
0.0
 10
27.24623493740701
 20
2.73595995230012
 30
0.0
  0
SPLINE
  5
BF
330
1F
100
AcDbEntity
  8
외형선
  6
Continuous
 62
     1
370
    15
100
AcDbSpline
210
0.0
220
0.0
230
1.0
 70
     8
 71
     3
 72
    10
 73
     6
 74
     0
 42
0.000000001
 43
0.00000001
 40
0.0
 40
0.0
 40
0.0
 40
0.0
 40
0.5
 40
0.5
 40
1.0
 40
1.0
 40
1.0
 40
1.0
 10
27.24623493740557
 20
2.735959952320584
 30
0.0
 10
27.44172937882104
 20
2.605394019541512
 30
0.0
 10
27.67334449539734
 20
2.475168371231036
 30
0.0
 10
28.12699570921709
 20
2.230774509910692
 30
0.0
 10
28.34636693713681
 20
2.117510676532072
 30
0.0
 10
28.53043547140069
 20
2.025968048378314
 30
0.0
  0
SPLINE
  5
C0
330
1F
100
AcDbEntity
  8
외형선
  6
Continuous
 62
     1
370
    15
100
AcDbSpline
210
0.0
220
0.0
230
1.0
 70
     8
 71
     3
 72
     8
 73
     4
 74
     0
 42
0.000000001
 43
0.00000001
 40
0.0
 40
0.0
 40
0.0
 40
0.0
 40
1.0
 40
1.0
 40
1.0
 40
1.0
 10
27.67794889126363
 20
-3.52337638806832
 30
0.0
 10
27.58402095970913
 20
-3.490793253659574
 30
0.0
 10
27.47131994564455
 20
-3.43891999246741
 30
0.0
 10
27.35588791412077
 20
-3.376343332626804
 30
0.0
  0
SPLINE
  5
C1
330
1F
100
AcDbEntity
  8
외형선
  6
Continuous
 62
     1
370
    15
100
AcDbSpline
210
0.0
220
0.0
230
1.0
 70
     8
 71
     3
 72
    10
 73
     6
 74
     0
 42
0.000000001
 43
0.00000001
 40
0.0
 40
0.0
 40
0.0
 40
0.0
 40
0.5
 40
0.5
 40
1.0
 40
1.0
 40
1.0
 40
1.0
 10
27.35588792592965
 20
-3.376343498051804
 30
0.0
 10
27.28439828893177
 20
-2.374939328741101
 30
0.0
 10
27.20943530542855
 20
-1.292037070611442
 30
0.0
 10
27.06512224573291
 20
0.8558950169832895
 30
0.0
 10
26.99837368471217
 20
1.907293248815977
 30
0.0
 10
26.92604920226827
 20
2.930233846314518
 30
0.0
  0
SPLINE
  5
C2
330
1F
100
AcDbEntity
  8
외형선
  6
Continuous
 62
     1
370
    15
100
AcDbSpline
210
0.0
220
0.0
230
1.0
 70
     8
 71
     3
 72
     8
 73
     4
 74
     0
 42
0.000000001
 43
0.00000001
 40
0.0
 40
0.0
 40
0.0
 40
0.0
 40
1.0
 40
1.0
 40
1.0
 40
1.0
 10
26.92604929552846
 20
2.930232527318124
 30
0.0
 10
27.03726279698633
 20
2.869036271307856
 30
0.0
 10
27.15022310904091
 20
2.80008389281463
 30
0.0
 10
27.24623493740425
 20
2.73595995232146
 30
0.0
  0
SPLINE
  5
C3
330
1F
100
AcDbEntity
  8
외형선
  6
Continuous
 62
     1
370
    15
100
AcDbSpline
210
0.0
220
0.0
230
1.0
 70
     8
 71
     3
 72
     8
 73
     4
 74
     0
 42
0.000000001
 43
0.00000001
 40
0.0
 40
0.0
 40
0.0
 40
0.0
 40
1.0
 40
1.0
 40
1.0
 40
1.0
 10
25.12107572846381
 20
-2.143017784589685
 30
0.0
 10
25.00983871670883
 20
-2.080556721679865
 30
0.0
 10
24.89684116176177
 20
-2.013294971325587
 30
0.0
 10
24.80081929611747
 20
-1.954516229997512
 30
0.0
  0
SPLINE
  5
C4
330
1F
100
AcDbEntity
  8
외형선
  6
Continuous
 62
     1
370
    15
100
AcDbSpline
210
0.0
220
0.0
230
1.0
 70
     8
 71
     3
 72
    10
 73
     6
 74
     0
 42
0.000000001
 43
0.00000001
 40
0.0
 40
0.0
 40
0.0
 40
0.0
 40
0.5
 40
0.5
 40
1.0
 40
1.0
 40
1.0
 40
1.0
 10
24.80081907775017
 20
-1.954513119614411
 30
0.0
 10
24.72717624623369
 20
-0.9055581495954167
 30
0.0
 10
24.65297179425707
 20
0.1840825085047089
 30
0.0
 10
24.51558718175165
 20
2.2621454726144
 30
0.0
 10
24.44230424340046
 20
3.300762640118961
 30
0.0
 10
24.36860841615508
 20
4.257478929697569
 30
0.0
  0
SPLINE
  5
C5
330
1F
100
AcDbEntity
  8
외형선
  6
Continuous
 62
     1
370
    15
100
AcDbSpline
210
0.0
220
0.0
230
1.0
 70
     8
 71
     3
 72
     8
 73
     4
 74
     0
 42
0.000000001
 43
0.00000001
 40
0.0
 40
0.0
 40
0.0
 40
0.0
 40
1.0
 40
1.0
 40
1.0
 40
1.0
 10
24.36860841615051
 20
4.257478929764975
 30
0.0
 10
24.46258143067558
 20
4.232685840998944
 30
0.0
 10
24.57534380142397
 20
4.186241537081279
 30
0.0
 10
24.69090167802823
 20
4.126163747333517
 30
0.0
  0
SPLINE
  5
C6
330
1F
100
AcDbEntity
  8
외형선
  6
Continuous
 62
     1
370
    15
100
AcDbSpline
210
0.0
220
0.0
230
1.0
 70
     8
 71
     3
 72
    12
 73
     8
 74
     0
 42
0.000000001
 43
0.00000001
 40
0.0
 40
0.0
 40
0.0
 40
0.0
 40
0.5000000000000001
 40
0.5000000000000001
 40
0.75
 40
0.75
 40
1.0
 40
1.0
 40
1.0
 40
1.0
 10
25.12107567544117
 20
-2.143017023207523
 30
0.0
 10
25.04785480193065
 20
-1.091614342232614
 30
0.0
 10
24.97372767003255
 20
0.0055580010311096
 30
0.0
 10
24.87027189010579
 20
1.582641336918133
 30
0.0
 10
24.83593326211929
 20
2.102823422065162
 30
0.0
 10
24.76424064323233
 20
3.133084920339344
 30
0.0
 10
24.72758666270397
 20
3.639551737252005
 30
0.0
 10
24.69090161241957
 20
4.126164617606561
 30
0.0
  0
SPLINE
  5
C7
330
1F
100
AcDbEntity
  8
외형선
  6
Continuous
 62
     1
370
    15
100
AcDbSpline
210
0.0
220
0.0
230
1.0
 70
     8
 71
     3
 72
     9
 73
     5
 74
     0
 42
0.000000001
 43
0.00000001
 40
0.0
 40
0.0
 40
0.0
 40
0.0
 40
0.3727207505955455
 40
0.9999999999999999
 40
0.9999999999999999
 40
0.9999999999999999
 40
0.9999999999999999
 10
29.42644477742899
 20
-4.269507864954277
 30
0.0
 10
29.25647485985995
 20
-4.312312242776557
 30
0.0
 10
28.80045002813944
 20
-4.4271552660155
 30
0.0
 10
28.2882005224568
 20
-4.657057789982774
 30
0.0
 10
27.96687703702439
 20
-4.801270872653157
 30
0.0
  0
SPLINE
  5
C8
330
1F
100
AcDbEntity
  8
외형선
  6
Continuous
 62
     1
370
    15
100
AcDbSpline
210
0.0
220
0.0
230
1.0
 70
     8
 71
     3
 72
     8
 73
     4
 74
     0
 42
0.000000001
 43
0.00000001
 40
0.0
 40
0.0
 40
0.0
 40
0.0
 40
1.0
 40
1.0
 40
1.0
 40
1.0
 10
31.05000000000001
 20
-5.568392862373746
 30
0.0
 10
29.99585680071242
 20
-5.407051696314608
 30
0.0
 10
28.96908646855913
 20
-5.147998435852045
 30
0.0
 10
27.96687703702307
 20
-4.801270872658622
 30
0.0
  0
LINE
  5
C9
330
1F
100
AcDbEntity
  8
외형선
  6
Continuous
 62
     1
370
    15
100
AcDbLine
 10
31.05000000000001
 20
-6.789415368844521
 30
0.0
 11
31.05000000000001
 21
-5.568392862373743
 31
0.0
  0
SPLINE
  5
CA
330
1F
100
AcDbEntity
  8
외형선
  6
Continuous
 62
     1
370
    15
100
AcDbSpline
210
0.0
220
0.0
230
1.0
 70
     8
 71
     3
 72
    10
 73
     6
 74
     0
 42
0.000000001
 43
0.00000001
 40
0.0
 40
0.0
 40
0.0
 40
0.0
 40
0.4999999999999997
 40
0.4999999999999997
 40
1.0
 40
1.0
 40
1.0
 40
1.0
 10
29.16483159192569
 20
-8.677443357545444
 30
0.0
 10
29.47160214849061
 20
-8.348111450404977
 30
0.0
 10
29.78105999994514
 20
-8.024551829075131
 30
0.0
 10
30.40891530742801
 20
-7.393032747901684
 30
0.0
 10
30.72923925751464
 20
-7.083355994862798
 30
0.0
 10
31.05000000000001
 20
-6.789415368844599
 30
0.0
  0
SPLINE
  5
CB
330
1F
100
AcDbEntity
  8
외형선
  6
Continuous
 62
     1
370
    15
100
AcDbSpline
210
0.0
220
0.0
230
1.0
 70
     8
 71
     3
 72
     8
 73
     4
 74
     0
 42
0.000000001
 43
0.00000001
 40
0.0
 40
0.0
 40
0.0
 40
0.0
 40
1.0
 40
1.0
 40
1.0
 40
1.0
 10
28.63051320955402
 20
-8.961161375187062
 30
0.0
 10
28.79156548034365
 20
-8.82166328501524
 30
0.0
 10
28.97826263798387
 20
-8.728531867403111
 30
0.0
 10
29.16483159192543
 20
-8.677443357545464
 30
0.0
  0
SPLINE
  5
CC
330
1F
100
AcDbEntity
  8
외형선
  6
Continuous
 62
     1
370
    15
100
AcDbSpline
210
0.0
220
0.0
230
1.0
 70
     8
 71
     3
 72
     8
 73
     4
 74
     0
 42
0.000000001
 43
0.00000001
 40
0.0
 40
0.0
 40
0.0
 40
0.0
 40
1.0
 40
1.0
 40
1.0
 40
1.0
 10
28.31044465777047
 20
-9.113634773575065
 30
0.0
 10
28.42160154574875
 20
-9.09499038612514
 30
0.0
 10
28.53454194944715
 20
-9.04428847069869
 30
0.0
 10
28.63051320955402
 20
-8.961161375187062
 30
0.0
  0
SPLINE
  5
CD
330
1F
100
AcDbEntity
  8
외형선
  6
Continuous
 62
     1
370
    15
100
AcDbSpline
210
0.0
220
0.0
230
1.0
 70
     8
 71
     3
 72
     8
 73
     4
 74
     0
 42
0.000000001
 43
0.00000001
 40
0.0
 40
0.0
 40
0.0
 40
0.0
 40
1.0
 40
1.0
 40
1.0
 40
1.0
 10
28.31044465765323
 20
-9.113634773594535
 30
0.0
 10
27.56426383342038
 20
-9.2387919694024
 30
0.0
 10
26.82500320766847
 20
-9.335714060660914
 30
0.0
 10
26.07789488931617
 20
-9.404115497923527
 30
0.0
  0
SPLINE
  5
CE
330
1F
100
AcDbEntity
  8
외형선
  6
Continuous
 62
     1
370
    15
100
AcDbSpline
210
0.0
220
0.0
230
1.0
 70
     8
 71
     3
 72
     8
 73
     4
 74
     0
 42
0.000000001
 43
0.00000001
 40
0.0
 40
0.0
 40
0.0
 40
0.0
 40
1.0
 40
1.0
 40
1.0
 40
1.0
 10
25.75620374187539
 20
-9.328104575649013
 30
0.0
 10
25.84997518986413
 20
-9.389018276485409
 30
0.0
 10
25.96254699875333
 20
-9.414676164036786
 30
0.0
 10
26.07789488963389
 20
-9.404115497894441
 30
0.0
  0
SPLINE
  5
CF
330
1F
100
AcDbEntity
  8
외형선
  6
Continuous
 62
     1
370
    15
100
AcDbSpline
210
0.0
220
0.0
230
1.0
 70
     8
 71
     3
 72
    10
 73
     6
 74
     0
 42
0.000000001
 43
0.00000001
 40
0.0
 40
0.0
 40
0.0
 40
0.0
 40
0.5
 40
0.5
 40
1.0
 40
1.0
 40
1.0
 40
1.0
 10
24.47261703859867
 20
-9.400901704948057
 30
0.0
 10
24.66799155565164
 20
-9.247122608872722
 30
0.0
 10
24.89961401688976
 20
-9.171195429151267
 30
0.0
 10
25.35313198018089
 20
-9.152547059771546
 30
0.0
 10
25.57233069741933
 20
-9.20866110045362
 30
0.0
 10
25.75620374187532
 20
-9.32810457564897
 30
0.0
  0
SPLINE
  5
D0
330
1F
100
AcDbEntity
  8
외형선
  6
Continuous
 62
     1
370
    15
100
AcDbSpline
210
0.0
220
0.0
230
1.0
 70
     8
 71
     3
 72
     8
 73
     4
 74
     0
 42
0.000000001
 43
0.00000001
 40
0.0
 40
0.0
 40
0.0
 40
0.0
 40
1.0
 40
1.0
 40
1.0
 40
1.0
 10
24.152543195153
 20
-9.516223311998468
 30
0.0
 10
24.26368818181591
 20
-9.513465872703165
 30
0.0
 10
24.37663244916855
 20
-9.476451083763527
 30
0.0
 10
24.47261703859865
 20
-9.400901704948067
 30
0.0
  0
SPLINE
  5
D1
330
1F
100
AcDbEntity
  8
외형선
  6
Continuous
 62
     1
370
    15
100
AcDbSpline
210
0.0
220
0.0
230
1.0
 70
     8
 71
     3
 72
     8
 73
     4
 74
     0
 42
0.000000001
 43
0.00000001
 40
0.0
 40
0.0
 40
0.0
 40
0.0
 40
1.0
 40
1.0
 40
1.0
 40
1.0
 10
24.15254319496071
 20
-9.516223312003198
 30
0.0
 10
23.40811845420975
 20
-9.53469203554446
 30
0.0
 10
22.66568320885295
 20
-9.52403191286383
 30
0.0
 10
21.91757741093142
 20
-9.484160883985883
 30
0.0
  0
SPLINE
  5
D2
330
1F
100
AcDbEntity
  8
외형선
  6
Continuous
 62
     1
370
    15
100
AcDbSpline
210
0.0
220
0.0
230
1.0
 70
     8
 71
     3
 72
     8
 73
     4
 74
     0
 42
0.000000001
 43
0.00000001
 40
0.0
 40
0.0
 40
0.0
 40
0.0
 40
1.0
 40
1.0
 40
1.0
 40
1.0
 10
21.59531892027497
 20
-9.35760561668478
 30
0.0
 10
21.68928448191246
 20
-9.434661244036485
 30
0.0
 10
21.80204454262023
 20
-9.478003459067454
 30
0.0
 10
21.91758042941163
 20
-9.484161044858586
 30
0.0
  0
SPLINE
  5
D3
330
1F
100
AcDbEntity
  8
외형선
  6
Continuous
 62
     1
370
    15
100
AcDbSpline
210
0.0
220
0.0
230
1.0
 70
     8
 71
     3
 72
    10
 73
     6
 74
     0
 42
0.000000001
 43
0.00000001
 40
0.0
 40
0.0
 40
0.0
 40
0.0
 40
0.5
 40
0.5
 40
1.0
 40
1.0
 40
1.0
 40
1.0
 10
20.31019143397752
 20
-9.246210337857777
 30
0.0
 10
20.50579811002588
 20
-9.117688877305142
 30
0.0
 10
20.73764937837446
 20
-9.071754113566165
 30
0.0
 10
21.19162515785648
 20
-9.11693223501985
 30
0.0
 10
21.4111027683608
 20
-9.206540791373236
 30
0.0
 10
21.59531892027491
 20
-9.357605616684737
 30
0.0
  0
SPLINE
  5
D4
330
1F
100
AcDbEntity
  8
외형선
  6
Continuous
 62
     1
370
    15
100
AcDbSpline
210
0.0
220
0.0
230
1.0
 70
     8
 71
     3
 72
     8
 73
     4
 74
     0
 42
0.000000001
 43
0.00000001
 40
0.0
 40
0.0
 40
0.0
 40
0.0
 40
1.0
 40
1.0
 40
1.0
 40
1.0
 10
19.98988780690421
 20
-9.31682789987961
 30
0.0
 10
20.10108674095466
 20
-9.330228980284044
 30
0.0
 10
20.21410559743666
 20
-9.30934260051941
 30
0.0
 10
20.31019143397752
 20
-9.24621033785779
 30
0.0
  0
SPLINE
  5
D5
330
1F
100
AcDbEntity
  8
외형선
  6
Continuous
 62
     1
370
    15
100
AcDbSpline
210
0.0
220
0.0
230
1.0
 70
     8
 71
     3
 72
     8
 73
     4
 74
     0
 42
0.000000001
 43
0.00000001
 40
0.0
 40
0.0
 40
0.0
 40
0.0
 40
1.0
 40
1.0
 40
1.0
 40
1.0
 10
19.9898865158708
 20
-9.316827744291482
 30
0.0
 10
19.2495978998051
 20
-9.227612221648098
 30
0.0
 10
18.5020091085865
 20
-9.109632281526252
 30
0.0
 10
17.7552700753642
 20
-8.964152358265357
 30
0.0
  0
SPLINE
  5
D6
330
1F
100
AcDbEntity
  8
외형선
  6
Continuous
 62
     1
370
    15
100
AcDbSpline
210
0.0
220
0.0
230
1.0
 70
     8
 71
     3
 72
     8
 73
     4
 74
     0
 42
0.000000001
 43
0.00000001
 40
0.0
 40
0.0
 40
0.0
 40
0.0
 40
1.0
 40
1.0
 40
1.0
 40
1.0
 10
17.43332083245016
 20
-8.795034585983611
 30
0.0
 10
17.52716888092982
 20
-8.883345367184404
 30
0.0
 10
17.6398253370997
 20
-8.941661380198404
 30
0.0
 10
17.7552702318067
 20
-8.964152388743543
 30
0.0
  0
SPLINE
  5
D7
330
1F
100
AcDbEntity
  8
외형선
  6
Continuous
 62
     1
370
    15
100
AcDbSpline
210
0.0
220
0.0
230
1.0
 70
     8
 71
     3
 72
    10
 73
     6
 74
     0
 42
0.000000001
 43
0.00000001
 40
0.0
 40
0.0
 40
0.0
 40
0.0
 40
0.5
 40
0.5
 40
1.0
 40
1.0
 40
1.0
 40
1.0
 10
16.14992955441828
 20
-8.50621077556813
 30
0.0
 10
16.34524467431418
 20
-8.411187531578213
 30
0.0
 10
16.57673615504104
 20
-8.398204145630558
 30
0.0
 10
17.03015293947014
 20
-8.50441832558836
 30
0.0
 10
17.24935405795936
 20
-8.621922306789005
 30
0.0
 10
17.4333208324501
 20
-8.795034585983572
 30
0.0
  0
SPLINE
  5
D8
330
1F
100
AcDbEntity
  8
외형선
  6
Continuous
 62
     1
370
    15
100
AcDbSpline
210
0.0
220
0.0
230
1.0
 70
     8
 71
     3
 72
     8
 73
     4
 74
     0
 42
0.000000001
 43
0.00000001
 40
0.0
 40
0.0
 40
0.0
 40
0.0
 40
1.0
 40
1.0
 40
1.0
 40
1.0
 10
15.83018163578046
 20
-8.527805900424239
 30
0.0
 10
15.94125760071502
 20
-8.556421173368035
 30
0.0
 10
16.05406785713712
 20
-8.55284868795754
 30
0.0
 10
16.14992955441828
 20
-8.50621077556812
 30
0.0
  0
SPLINE
  5
D9
330
1F
100
AcDbEntity
  8
외형선
  6
Continuous
 62
     1
370
    15
100
AcDbSpline
210
0.0
220
0.0
230
1.0
 70
     8
 71
     3
 72
     8
 73
     4
 74
     0
 42
0.000000001
 43
0.00000001
 40
0.0
 40
0.0
 40
0.0
 40
0.0
 40
1.0
 40
1.0
 40
1.0
 40
1.0
 10
15.83018157883224
 20
-8.527805885753546
 30
0.0
 10
15.08908631068492
 20
-8.336885703073566
 30
0.0
 10
14.34141769914756
 20
-8.119384682685052
 30
0.0
 10
13.59736816479576
 20
-7.878170048477444
 30
0.0
  0
SPLINE
  5
DA
330
1F
100
AcDbEntity
  8
외형선
  6
Continuous
 62
     1
370
    15
100
AcDbSpline
210
0.0
220
0.0
230
1.0
 70
     8
 71
     3
 72
     8
 73
     4
 74
     0
 42
0.000000001
 43
0.00000001
 40
0.0
 40
0.0
 40
0.0
 40
0.0
 40
1.0
 40
1.0
 40
1.0
 40
1.0
 10
13.27525631606532
 20
-7.677024971905733
 30
0.0
 10
13.36916643938774
 20
-7.77106952792311
 30
0.0
 10
13.48186689329078
 20
-7.84072549870545
 30
0.0
 10
13.59736704724962
 20
-7.878169686178326
 30
0.0
  0
SPLINE
  5
DB
330
1F
100
AcDbEntity
  8
외형선
  6
Continuous
 62
     1
370
    15
100
AcDbSpline
210
0.0
220
0.0
230
1.0
 70
     8
 71
     3
 72
    10
 73
     6
 74
     0
 42
0.000000001
 43
0.00000001
 40
0.0082327957051692
 40
0.0082327957051692
 40
0.0082327957051692
 40
0.0082327957051692
 40
0.5
 40
0.5
 40
1.0
 40
1.0
 40
1.0
 40
1.0
 10
12.0
 20
-7.225489573581141
 30
0.0
 10
12.19366596067328
 20
-7.173215578248153
 30
0.0
 10
12.42160632333408
 20
-7.194793466044973
 30
0.0
 10
12.87164055962102
 20
-7.354494115160499
 30
0.0
 10
13.0910512850911
 20
-7.492556250736333
 30
0.0
 10
13.27525631606526
 20
-7.677024971905661
 30
0.0
  0
SPLINE
  5
F0
330
1F
100
AcDbEntity
  8
외형선
  6
Continuous
 62
     1
370
    15
100
AcDbSpline
210
0.0
220
0.0
230
1.0
 70
     8
 71
     3
 72
     8
 73
     4
 74
     0
 42
0.000000001
 43
0.00000001
 40
0.0
 40
0.0
 40
0.0
 40
0.0
 40
0.2518307130382911
 40
0.2518307130382911
 40
0.2518307130382911
 40
0.2518307130382911
 10
12.31777589323814
 20
4.904610597829879
 30
0.0
 10
12.21929031122694
 20
4.904899949052761
 30
0.0
 10
12.1116157432489
 20
4.920794705867451
 30
0.0
 10
12.0
 20
4.950253108105685
 30
0.0
  0
SPLINE
  5
F1
330
1F
100
AcDbEntity
  8
외형선
  6
Continuous
 62
     1
370
    15
100
AcDbSpline
210
0.0
220
0.0
230
1.0
 70
     8
 71
     3
 72
     8
 73
     4
 74
     0
 42
0.000000001
 43
0.00000001
 40
0.0
 40
0.0
 40
0.0
 40
0.0
 40
1.0
 40
1.0
 40
1.0
 40
1.0
 10
12.63806755419142
 20
4.813057412255485
 30
0.0
 10
12.52684622912564
 20
4.86866702742967
 30
0.0
 10
12.41385878714876
 20
4.90432830571885
 30
0.0
 10
12.31777589323818
 20
4.904610597829886
 30
0.0
  0
SPLINE
  5
F2
330
1F
100
AcDbEntity
  8
외형선
  6
Continuous
 62
     1
370
    15
100
AcDbSpline
210
0.0
220
0.0
230
1.0
 70
     8
 71
     3
 72
     8
 73
     4
 74
     0
 42
0.000000001
 43
0.00000001
 40
0.0
 40
0.0
 40
0.0
 40
0.0
 40
1.0
 40
1.0
 40
1.0
 40
1.0
 10
14.87350881136766
 20
3.659315633145947
 30
0.0
 10
14.1271550968839
 20
4.056489813185706
 30
0.0
 10
13.37859954829654
 20
4.442798385775187
 30
0.0
 10
12.63806782608698
 20
4.813057276310708
 30
0.0
  0
SPLINE
  5
F3
330
1F
100
AcDbEntity
  8
외형선
  6
Continuous
 62
     1
370
    15
100
AcDbSpline
210
0.0
220
0.0
230
1.0
 70
     8
 71
     3
 72
     8
 73
     4
 74
     0
 42
0.000000001
 43
0.00000001
 40
0.0
 40
0.0
 40
0.0
 40
0.0
 40
1.0
 40
1.0
 40
1.0
 40
1.0
 10
15.19575503869545
 20
3.434954986727725
 30
0.0
 10
15.10179975486562
 20
3.519605314312641
 30
0.0
 10
14.98904858324494
 20
3.597830826094703
 30
0.0
 10
14.8735087868007
 20
3.659315646219329
 30
0.0
  0
SPLINE
  5
F4
330
1F
100
AcDbEntity
  8
외형선
  6
Continuous
 62
     1
370
    15
100
AcDbSpline
210
0.0
220
0.0
230
1.0
 70
     8
 71
     3
 72
    10
 73
     6
 74
     0
 42
0.000000001
 43
0.00000001
 40
0.0
 40
0.0
 40
0.0
 40
0.0
 40
0.5
 40
0.5
 40
1.0
 40
1.0
 40
1.0
 40
1.0
 10
16.48063028007335
 20
2.74104459796859
 30
0.0
 10
16.28499986105836
 20
2.785141213721012
 30
0.0
 10
16.05328621141316
 20
2.875405857135032
 30
0.0
 10
15.59942532207896
 20
3.11811936023583
 30
0.0
 10
15.37998262529348
 20
3.268972564877434
 30
0.0
 10
15.19575503869546
 20
3.434954986727712
 30
0.0
  0
SPLINE
  5
F5
330
1F
100
AcDbEntity
  8
외형선
  6
Continuous
 62
     1
370
    15
100
AcDbSpline
210
0.0
220
0.0
230
1.0
 70
     8
 71
     3
 72
     8
 73
     4
 74
     0
 42
0.000000001
 43
0.00000001
 40
0.0
 40
0.0
 40
0.0
 40
0.0
 40
1.0
 40
1.0
 40
1.0
 40
1.0
 10
16.8007727108092
 20
2.60809700234639
 30
0.0
 10
16.68957192742606
 20
2.66990467159897
 30
0.0
 10
16.57662570849146
 20
2.71940648288271
 30
0.0
 10
16.4806302800734
 20
2.741044597968576
 30
0.0
  0
SPLINE
  5
F6
330
1F
100
AcDbEntity
  8
외형선
  6
Continuous
 62
     1
370
    15
100
AcDbSpline
210
0.0
220
0.0
230
1.0
 70
     8
 71
     3
 72
     8
 73
     4
 74
     0
 42
0.000000001
 43
0.00000001
 40
0.0
 40
0.0
 40
0.0
 40
0.0
 40
1.0
 40
1.0
 40
1.0
 40
1.0
 10
19.03345957768803
 20
1.349886658560298
 30
0.0
 10
18.29012704017736
 20
1.774515531263903
 30
0.0
 10
17.54250087280494
 20
2.195829324285956
 30
0.0
 10
16.8007724526577
 20
2.608097145832772
 30
0.0
  0
SPLINE
  5
F7
330
1F
100
AcDbEntity
  8
외형선
  6
Continuous
 62
     1
370
    15
100
AcDbSpline
210
0.0
220
0.0
230
1.0
 70
     8
 71
     3
 72
     8
 73
     4
 74
     0
 42
0.000000001
 43
0.00000001
 40
0.0
 40
0.0
 40
0.0
 40
0.0
 40
1.0
 40
1.0
 40
1.0
 40
1.0
 10
19.35510328720318
 20
1.138785405055571
 30
0.0
 10
19.26135728583624
 20
1.210156171847041
 30
0.0
 10
19.14881403951694
 20
1.283990397294378
 30
0.0
 10
19.03345959702216
 20
1.349886647515661
 30
0.0
  0
SPLINE
  5
F8
330
1F
100
AcDbEntity
  8
외형선
  6
Continuous
 62
     1
370
    15
100
AcDbSpline
210
0.0
220
0.0
230
1.0
 70
     8
 71
     3
 72
    10
 73
     6
 74
     0
 42
0.000000001
 43
0.00000001
 40
0.0
 40
0.0
 40
0.0
 40
0.0
 40
0.5
 40
0.5
 40
1.0
 40
1.0
 40
1.0
 40
1.0
 10
20.63866087663907
 20
0.4070319852257905
 30
0.0
 10
20.44314406488731
 20
0.491516965964621
 30
0.0
 10
20.21144191688552
 20
0.6033333891428313
 30
0.0
 10
19.7581482771606
 20
0.8579079583603642
 30
0.0
 10
19.53902263558245
 20
0.9987638070117622
 30
0.0
 10
19.3551032872032
 20
1.138785405055568
 30
0.0
  0
SPLINE
  5
F9
330
1F
100
AcDbEntity
  8
외형선
  6
Continuous
 62
     1
370
    15
100
AcDbSpline
210
0.0
220
0.0
230
1.0
 70
     8
 71
     3
 72
     8
 73
     4
 74
     0
 42
0.000000001
 43
0.00000001
 40
0.0
 40
0.0
 40
0.0
 40
0.0
 40
1.0
 40
1.0
 40
1.0
 40
1.0
 10
20.95868367710246
 20
0.2412396733966309
 30
0.0
 10
20.84751812069078
 20
0.3053480483897751
 30
0.0
 10
20.73460332095948
 20
0.3655741919658528
 30
0.0
 10
20.6386608766391
 20
0.4070319852257768
 30
0.0
  0
SPLINE
  5
FA
330
1F
100
AcDbEntity
  8
외형선
  6
Continuous
 62
     1
370
    15
100
AcDbSpline
210
0.0
220
0.0
230
1.0
 70
     8
 71
     3
 72
     8
 73
     4
 74
     0
 42
0.000000001
 43
0.00000001
 40
0.0
 40
0.0
 40
0.0
 40
0.0
 40
1.0
 40
1.0
 40
1.0
 40
1.0
 10
23.19327831123055
 20
-1.045233556051547
 30
0.0
 10
22.45140298195611
 20
-0.6188627933355852
 30
0.0
 10
21.70313189428546
 20
-0.1880782477449982
 30
0.0
 10
20.9586821582823
 20
0.2412405492897729
 30
0.0
  0
SPLINE
  5
FB
330
1F
100
AcDbEntity
  8
외형선
  6
Continuous
 62
     1
370
    15
100
AcDbSpline
210
0.0
220
0.0
230
1.0
 70
     8
 71
     3
 72
     8
 73
     4
 74
     0
 42
0.000000001
 43
0.00000001
 40
0.0
 40
0.0
 40
0.0
 40
0.0
 40
1.0
 40
1.0
 40
1.0
 40
1.0
 10
23.51558810785341
 20
-1.230579683283454
 30
0.0
 10
23.42160489195076
 20
-1.176704669588845
 30
0.0
 10
23.30884598577375
 20
-1.11165263690852
 30
0.0
 10
23.19327909020616
 20
-1.045234003744605
 30
0.0
  0
SPLINE
  5
FC
330
1F
100
AcDbEntity
  8
외형선
  6
Continuous
 62
     1
370
    15
100
AcDbSpline
210
0.0
220
0.0
230
1.0
 70
     8
 71
     3
 72
    10
 73
     6
 74
     0
 42
0.000000001
 43
0.00000001
 40
0.0
 40
0.0
 40
0.0
 40
0.0
 40
0.5
 40
0.5
 40
1.0
 40
1.0
 40
1.0
 40
1.0
 10
24.80081929611742
 20
-1.954516229997488
 30
0.0
 10
24.60502224979733
 20
-1.834661196342106
 30
0.0
 10
24.3729686200346
 20
-1.708012647112133
 30
0.0
 10
23.91893522728955
 20
-1.458196005071325
 30
0.0
 10
23.69971749577025
 20
-1.33613016057162
 30
0.0
 10
23.51558810785343
 20
-1.23057968328346
 30
0.0
  0
SPLINE
  5
FD
330
1F
100
AcDbEntity
  8
외형선
  6
Continuous
 62
     1
370
    15
100
AcDbSpline
210
0.0
220
0.0
230
1.0
 70
     8
 71
     3
 72
     8
 73
     4
 74
     0
 42
0.000000001
 43
0.00000001
 40
0.0
 40
0.0
 40
0.0
 40
0.0
 40
1.0
 40
1.0
 40
1.0
 40
1.0
 10
27.35588791395777
 20
-3.376343332538442
 30
0.0
 10
26.61593264717781
 20
-2.975207457031773
 30
0.0
 10
25.86771098814645
 20
-2.562263422259453
 30
0.0
 10
25.12107572838971
 20
-2.143017784547581
 30
0.0
  0
SPLINE
  5
FE
330
1F
100
AcDbEntity
  8
외형선
  6
Continuous
 62
     1
370
    15
100
AcDbSpline
210
0.0
220
0.0
230
1.0
 70
     8
 71
     3
 72
     8
 73
     4
 74
     0
 42
0.000000001
 43
0.00000001
 40
0.0
 40
0.0
 40
0.0
 40
0.0
 40
1.0
 40
1.0
 40
1.0
 40
1.0
 10
26.92604869202173
 20
2.930232859401156
 30
0.0
 10
26.18413089440688
 20
3.338479971521454
 30
0.0
 10
25.43567369537975
 20
3.738961611979388
 30
0.0
 10
24.69090160084987
 20
4.126163787458035
 30
0.0
  0
SPLINE
  5
FF
330
1F
100
AcDbEntity
  8
외형선
  6
Continuous
 62
     1
370
    15
100
AcDbSpline
210
0.0
220
0.0
230
1.0
 70
     8
 71
     3
 72
    12
 73
     8
 74
     0
 42
0.000000001
 43
0.00000001
 40
0.0
 40
0.0
 40
0.0
 40
0.0
 40
0.2500000000000001
 40
0.2500000000000001
 40
0.5000000000000002
 40
0.5000000000000002
 40
1.0
 40
1.0
 40
1.0
 40
1.0
 10
20.95868361230448
 20
0.2412406460914879
 30
0.0
 10
20.92305598923214
 20
0.776046434056894
 30
0.0
 10
20.88925661385315
 20
1.300572243631315
 30
0.0
 10
20.81952114145072
 20
2.343319212182372
 30
0.0
 10
20.78347978940398
 20
2.861934785011754
 30
0.0
 10
20.67403661212097
 20
4.375136546400807
 30
0.0
 10
20.59938838793574
 20
5.324363257379399
 30
0.0
 10
20.52925096785104
 20
6.13824901047496
 30
0.0
  0
SPLINE
  5
100
330
1F
100
AcDbEntity
  8
외형선
  6
Continuous
 62
     1
370
    15
100
AcDbSpline
210
0.0
220
0.0
230
1.0
 70
     8
 71
     3
 72
     8
 73
     4
 74
     0
 42
0.000000001
 43
0.00000001
 40
0.0
 40
0.0
 40
0.0
 40
0.0
 40
1.0
 40
1.0
 40
1.0
 40
1.0
 10
22.76317460155648
 20
5.100260014350302
 30
0.0
 10
22.01955501448304
 20
5.462716310752522
 30
0.0
 10
21.27151064082825
 20
5.810283331482256
 30
0.0
 10
20.52924990881152
 20
6.138248691536692
 30
0.0
  0
SPLINE
  5
101
330
1F
100
AcDbEntity
  8
외형선
  6
Continuous
 62
     1
370
    15
100
AcDbSpline
210
0.0
220
0.0
230
1.0
 70
     8
 71
     3
 72
    12
 73
     8
 74
     0
 42
0.000000001
 43
0.00000001
 40
0.0
 40
0.0
 40
0.0
 40
0.0
 40
0.2499999999999999
 40
0.2499999999999999
 40
0.4999999999999999
 40
0.4999999999999999
 40
1.0
 40
1.0
 40
1.0
 40
1.0
 10
23.19327899202503
 20
-1.045232564557252
 30
0.0
 10
23.15670078266826
 20
-0.5090473435876846
 30
0.0
 10
23.12043103200487
 20
0.0306449643802854
 30
0.0
 10
23.05000810846067
 20
1.094130875884955
 30
0.0
 10
23.01648326098893
 20
1.614871109953969
 30
0.0
 10
22.91063386764736
 20
3.17329848360208
 30
0.0
 10
22.83588533539688
 20
4.190948399858763
 30
0.0
 10
22.76317888173415
 20
5.100263152276882
 30
0.0
  0
SPLINE
  5
102
330
1F
100
AcDbEntity
  8
외형선
  6
Continuous
 62
     1
370
    15
100
AcDbSpline
210
0.0
220
0.0
230
1.0
 70
     8
 71
     3
 72
     8
 73
     4
 74
     0
 42
0.000000001
 43
0.00000001
 40
0.0
 40
0.0
 40
0.0
 40
0.0
 40
1.0
 40
1.0
 40
1.0
 40
1.0
 10
22.76317931638931
 20
5.100257716240288
 30
0.0
 10
22.87440871050105
 20
5.046042089164248
 30
0.0
 10
22.98738928449655
 20
4.975922810867144
 30
0.0
 10
23.08340766802774
 20
4.899771879430365
 30
0.0
  0
SPLINE
  5
103
330
1F
100
AcDbEntity
  8
외형선
  6
Continuous
 62
     1
370
    15
100
AcDbSpline
210
0.0
220
0.0
230
1.0
 70
     8
 71
     3
 72
    12
 73
     8
 74
     0
 42
0.000000001
 43
0.00000001
 40
0.0
 40
0.0
 40
0.0
 40
0.0
 40
0.25
 40
0.25
 40
0.5
 40
0.5
 40
1.0
 40
1.0
 40
1.0
 40
1.0
 10
23.51558810358547
 20
-1.230579621649827
 30
0.0
 10
23.4787793046685
 20
-0.6990226302026246
 30
0.0
 10
23.44218188030863
 20
-0.1625053418375841
 30
0.0
 10
23.37095243984036
 20
0.8973173197502083
 30
0.0
 10
23.33720187920109
 20
1.416293773684059
 30
0.0
 10
23.23160433314445
 20
2.967335165741121
 30
0.0
 10
23.15664943737615
 20
3.985556758454405
 30
0.0
 10
23.08340789823416
 20
4.899769005973773
 30
0.0
  0
SPLINE
  5
104
330
1F
100
AcDbEntity
  8
외형선
  6
Continuous
 62
     1
370
    15
100
AcDbSpline
210
0.0
220
0.0
230
1.0
 70
     8
 71
     3
 72
    12
 73
     8
 74
     0
 42
0.000000001
 43
0.00000001
 40
0.0
 40
0.0
 40
0.0
 40
0.0
 40
0.5
 40
0.5
 40
0.75
 40
0.75
 40
1.0
 40
1.0
 40
1.0
 40
1.0
 10
16.80077266123422
 20
2.608097715133514
 30
0.0
 10
16.72906480282376
 20
3.639091772874143
 30
0.0
 10
16.6540919426321
 20
4.634128293925925
 30
0.0
 10
16.54615898376653
 20
5.947277055623116
 30
0.0
 10
16.51139945663962
 20
6.353840905309989
 30
0.0
 10
16.4427669735013
 20
7.101767342825466
 30
0.0
 10
16.40713428181909
 20
7.44919920522385
 30
0.0
 10
16.37089129681871
 20
7.76103987362677
 30
0.0
  0
SPLINE
  5
105
330
1F
100
AcDbEntity
  8
외형선
  6
Continuous
 62
     1
370
    15
100
AcDbSpline
210
0.0
220
0.0
230
1.0
 70
     8
 71
     3
 72
     8
 73
     4
 74
     0
 42
0.000000001
 43
0.00000001
 40
0.0
 40
0.0
 40
0.0
 40
0.0
 40
1.0
 40
1.0
 40
1.0
 40
1.0
 10
18.60456133612918
 20
6.945253302111063
 30
0.0
 10
17.85893556417948
 20
7.239377434585951
 30
0.0
 10
17.11097832819344
 20
7.512494072270578
 30
0.0
 10
16.37089133550862
 20
7.761039540708437
 30
0.0
  0
SPLINE
  5
106
330
1F
100
AcDbEntity
  8
외형선
  6
Continuous
 62
     1
370
    15
100
AcDbSpline
210
0.0
220
0.0
230
1.0
 70
     8
 71
     3
 72
    12
 73
     8
 74
     0
 42
0.000000001
 43
0.00000001
 40
0.0
 40
0.0
 40
0.0
 40
0.0
 40
0.4999999999999999
 40
0.4999999999999999
 40
0.75
 40
0.75
 40
1.0
 40
1.0
 40
1.0
 40
1.0
 10
19.03345969223646
 20
1.349885190208792
 30
0.0
 10
18.96521210082672
 20
2.394444166501588
 30
0.0
 10
18.89138106114796
 20
3.441351301096172
 30
0.0
 10
18.78123466518034
 20
4.879536446169097
 30
0.0
 10
18.74464823566596
 20
5.336927509371093
 30
0.0
 10
18.67327648498568
 20
6.18954307251805
 30
0.0
 10
18.63939472648373
 20
6.581739996633685
 30
0.0
 10
18.60456146877262
 20
6.945252147199925
 30
0.0
  0
SPLINE
  5
107
330
1F
100
AcDbEntity
  8
외형선
  6
Continuous
 62
     1
370
    15
100
AcDbSpline
210
0.0
220
0.0
230
1.0
 70
     8
 71
     3
 72
    10
 73
     6
 74
     0
 42
0.000000001
 43
0.00000001
 40
0.0
 40
0.0
 40
0.0
 40
0.0
 40
0.5
 40
0.5
 40
1.0
 40
1.0
 40
1.0
 40
1.0
 10
23.08340766802904
 20
4.89977187942933
 30
0.0
 10
23.27917038866442
 20
4.744515011225837
 30
0.0
 10
23.51106407022156
 20
4.610235284372675
 30
0.0
 10
23.96490861043403
 20
4.390609476613853
 30
0.0
 10
24.18434359660309
 20
4.306093886415287
 30
0.0
 10
24.3686084161499
 20
4.257478929764771
 30
0.0
  0
SPLINE
  5
108
330
1F
100
AcDbEntity
  8
외형선
  6
Continuous
 62
     1
370
    15
100
AcDbSpline
210
0.0
220
0.0
230
1.0
 70
     8
 71
     3
 72
    12
 73
     8
 74
     0
 42
0.000000001
 43
0.00000001
 40
0.0
 40
0.0
 40
0.0
 40
0.0
 40
0.2499999999999999
 40
0.2499999999999999
 40
0.4999999999999999
 40
0.4999999999999999
 40
1.0
 40
1.0
 40
1.0
 40
1.0
 10
20.63866087663886
 20
0.4070319852286292
 30
0.0
 10
20.60306357870968
 20
0.9370810175472829
 30
0.0
 10
20.56931718285392
 20
1.456079311007556
 30
0.0
 10
20.4987419039377
 20
2.490626415598716
 30
0.0
 10
20.4623460316255
 20
3.003870801747478
 30
0.0
 10
20.35210467216838
 20
4.497084045790709
 30
0.0
 10
20.27729372137974
 20
5.427642732982933
 30
0.0
 10
20.20739636830312
 20
6.219632513169588
 30
0.0
  0
SPLINE
  5
109
330
1F
100
AcDbEntity
  8
외형선
  6
Continuous
 62
     1
370
    15
100
AcDbSpline
210
0.0
220
0.0
230
1.0
 70
     8
 71
     3
 72
     8
 73
     4
 74
     0
 42
0.000000001
 43
0.00000001
 40
0.0
 40
0.0
 40
0.0
 40
0.0
 40
1.0
 40
1.0
 40
1.0
 40
1.0
 10
20.2073963682896
 20
6.219632513329955
 30
0.0
 10
20.30121246288771
 20
6.218412587414478
 30
0.0
 10
20.41382728436944
 20
6.189247785167431
 30
0.0
 10
20.52925103834461
 20
6.138248192456364
 30
0.0
  0
SPLINE
  5
10A
330
1F
100
AcDbEntity
  8
외형선
  6
Continuous
 62
     1
370
    15
100
AcDbSpline
210
0.0
220
0.0
230
1.0
 70
     8
 71
     3
 72
     8
 73
     4
 74
     0
 42
0.000000001
 43
0.00000001
 40
0.0
 40
0.0
 40
0.0
 40
0.0
 40
1.0
 40
1.0
 40
1.0
 40
1.0
 10
27.89436041426993
 20
9.446433188575128
 30
0.0
 10
27.78310627419253
 20
9.438191712401355
 30
0.0
 10
27.67010191845659
 20
9.3961897018472
 30
0.0
 10
27.57404795943174
 20
9.317460456551293
 30
0.0
  0
SPLINE
  5
10B
330
1F
100
AcDbEntity
  8
외형선
  6
Continuous
 62
     1
370
    15
100
AcDbSpline
210
0.0
220
0.0
230
1.0
 70
     8
 71
     3
 72
     8
 73
     4
 74
     0
 42
0.000000001
 43
0.00000001
 40
0.0
 40
0.0
 40
0.0
 40
0.0
 40
1.0
 40
1.0
 40
1.0
 40
1.0
 10
28.85000000000021
 20
9.501241904550966
 30
0.0
 10
28.53068677851799
 20
9.48825341102262
 30
0.0
 10
28.21166742700647
 20
9.469945542003295
 30
0.0
 10
27.89374142551423
 20
9.446387328439934
 30
0.0
  0
SPLINE
  5
10C
330
1F
100
AcDbEntity
  8
외형선
  6
Continuous
 62
     1
370
    15
100
AcDbSpline
210
0.0
220
0.0
230
1.0
 70
     8
 71
     3
 72
     8
 73
     4
 74
     0
 42
0.000000001
 43
0.00000001
 40
0.0
 40
0.0
 40
0.0
 40
0.0
 40
1.0
 40
1.0
 40
1.0
 40
1.0
 10
31.05000000000001
 20
7.254530153947702
 30
0.0
 10
30.3443459434116
 20
8.043201987851331
 30
0.0
 10
29.60374052458587
 20
8.786743828255902
 30
0.0
 10
28.84999999999999
 20
9.501241904550959
 30
0.0
  0
LINE
  5
10D
330
1F
100
AcDbEntity
  8
외형선
  6
Continuous
 62
     1
370
    15
100
AcDbLine
 10
31.05000000000001
 20
6.167475262783491
 30
0.0
 11
31.05000000000001
 21
7.254530153947702
 31
0.0
  0
SPLINE
  5
10E
330
1F
100
AcDbEntity
  8
외형선
  6
Continuous
 62
     1
370
    15
100
AcDbSpline
210
0.0
220
0.0
230
1.0
 70
     8
 71
     3
 72
    12
 73
     8
 74
     0
 42
0.000000001
 43
0.00000001
 40
0.0
 40
0.0
 40
0.0
 40
0.0
 40
0.2500000000000003
 40
0.2500000000000003
 40
0.5000000000000007
 40
0.5000000000000007
 40
1.0
 40
1.0
 40
1.0
 40
1.0
 10
31.05000000000001
 20
6.167475262783494
 30
0.0
 10
30.89306187955646
 20
5.809049507301666
 30
0.0
 10
30.70805258194083
 20
5.47697926126363
 30
0.0
 10
30.27887992326231
 20
4.86837742609064
 30
0.0
 10
30.03154172810316
 20
4.59005294207797
 30
0.0
 10
29.2341449680065
 20
3.880453399408941
 30
0.0
 10
28.61133091299227
 20
3.558057007399386
 30
0.0
 10
27.96687703702391
 20
3.388677941382508
 30
0.0
  0
SPLINE
  5
10F
330
1F
100
AcDbEntity
  8
외형선
  6
Continuous
 62
     1
370
    15
100
AcDbSpline
210
0.0
220
0.0
230
1.0
 70
     8
 71
     3
 72
     8
 73
     4
 74
     0
 42
0.000000001
 43
0.00000001
 40
0.0
 40
0.0
 40
0.0
 40
0.0
 40
1.0
 40
1.0
 40
1.0
 40
1.0
 10
31.05000000000001
 20
1.837376426293255
 30
0.0
 10
29.9958568007124
 20
2.410601816384772
 30
0.0
 10
28.96908646855905
 20
2.925712307616602
 30
0.0
 10
27.96687703702295
 20
3.388677941378073
 30
0.0
  0
LINE
  5
110
330
1F
100
AcDbEntity
  8
외형선
  6
Continuous
 62
     1
370
    15
100
AcDbLine
 10
31.05000000000001
 20
1.013615926011151
 30
0.0
 11
31.05000000000001
 21
1.837376426293253
 31
0.0
  0
SPLINE
  5
111
330
1F
100
AcDbEntity
  8
외형선
  6
Continuous
 62
     1
370
    15
100
AcDbSpline
210
0.0
220
0.0
230
1.0
 70
     8
 71
     3
 72
    10
 73
     6
 74
     0
 42
0.000000001
 43
0.00000001
 40
0.0
 40
0.0
 40
0.0
 40
0.0
 40
0.5
 40
0.5
 40
1.0
 40
1.0
 40
1.0
 40
1.0
 10
18.92438422202703
 20
6.751210985455425
 30
0.0
 10
19.11980678695384
 20
6.581329353887658
 30
0.0
 10
19.35147438791793
 20
6.45187607164261
 30
0.0
 10
19.80477360956993
 20
6.272219609773294
 30
0.0
 10
20.02360634117834
 20
6.222022404083406
 30
0.0
 10
20.20739636828901
 20
6.219632513329644
 30
0.0
  0
SPLINE
  5
112
330
1F
100
AcDbEntity
  8
외형선
  6
Continuous
 62
     1
370
    15
100
AcDbSpline
210
0.0
220
0.0
230
1.0
 70
     8
 71
     3
 72
     8
 73
     4
 74
     0
 42
0.000000001
 43
0.00000001
 40
0.0
 40
0.0
 40
0.0
 40
0.0
 40
1.0
 40
1.0
 40
1.0
 40
1.0
 10
18.60456135897129
 20
6.945253293102142
 30
0.0
 10
18.71566371104138
 20
6.901427175231523
 30
0.0
 10
18.82851526721828
 20
6.834550258305756
 30
0.0
 10
18.9243842220257
 20
6.751210985456563
 30
0.0
  0
SPLINE
  5
113
330
1F
100
AcDbEntity
  8
외형선
  6
Continuous
 62
     1
370
    15
100
AcDbSpline
210
0.0
220
0.0
230
1.0
 70
     8
 71
     3
 72
     8
 73
     4
 74
     0
 42
0.000000001
 43
0.00000001
 40
0.0
 40
0.0
 40
0.0
 40
0.0
 40
1.0
 40
1.0
 40
1.0
 40
1.0
 10
16.04864570094212
 20
7.78759808729919
 30
0.0
 10
16.1426407570258
 20
7.810004808262911
 30
0.0
 10
16.25536363700116
 20
7.799837528278693
 30
0.0
 10
16.3708913355115
 20
7.761039540707475
 30
0.0
  0
SPLINE
  5
114
330
1F
100
AcDbEntity
  8
외형선
  6
Continuous
 62
     1
370
    15
100
AcDbSpline
210
0.0
220
0.0
230
1.0
 70
     8
 71
     3
 72
    10
 73
     6
 74
     0
 42
0.000000001
 43
0.00000001
 40
0.0
 40
0.0
 40
0.0
 40
0.0
 40
0.5000000000000002
 40
0.5000000000000002
 40
1.0
 40
1.0
 40
1.0
 40
1.0
 10
14.76361005946878
 20
8.176177692382842
 30
0.0
 10
14.95934035887524
 20
8.001978071508816
 30
0.0
 10
15.19133444259042
 20
7.885165406089914
 30
0.0
 10
15.64532485581292
 20
7.756233001974804
 30
0.0
 10
15.86459479619422
 20
7.743723681157896
 30
0.0
 10
16.04864570094152
 20
7.787598087298808
 30
0.0
  0
SPLINE
  5
115
330
1F
100
AcDbEntity
  8
외형선
  6
Continuous
 62
     1
370
    15
100
AcDbSpline
210
0.0
220
0.0
230
1.0
 70
     8
 71
     3
 72
     8
 73
     4
 74
     0
 42
0.000000001
 43
0.00000001
 40
0.0
 40
0.0
 40
0.0
 40
0.0
 40
1.0
 40
1.0
 40
1.0
 40
1.0
 10
14.44335088372668
 20
8.351991374610302
 30
0.0
 10
14.55458584188894
 20
8.321180492953191
 30
0.0
 10
14.6675875638916
 20
8.261637543900834
 30
0.0
 10
14.76361005946746
 20
8.176177692384014
 30
0.0
  0
SPLINE
  5
11D
330
1F
100
AcDbEntity
  8
외형선
  6
Continuous
 62
     1
370
    15
100
AcDbSpline
210
0.0
220
0.0
230
1.0
 70
     8
 71
     3
 72
    10
 73
     6
 74
     0
 42
0.000000001
 43
0.00000001
 40
0.0
 40
0.0
 40
0.0
 40
0.0
 40
0.3742128458706203
 40
0.7468321276013405
 40
1.0
 40
1.0
 40
1.0
 40
1.0
 10
19.25404616535699
 20
7.492443895761834
 30
0.0
 10
19.14321318826216
 20
7.408350150878073
 30
0.0
 10
18.92201921000752
 20
7.240520769544595
 30
0.0
 10
18.5850014485237
 20
7.096439887754905
 30
0.0
 10
18.3934328887202
 20
7.066493807191183
 30
0.0
 10
18.31593208931276
 20
7.05437884852997
 30
0.0
  0
SPLINE
  5
11E
330
1F
100
AcDbEntity
  8
외형선
  6
Continuous
 62
     1
370
    15
100
AcDbSpline
210
0.0
220
0.0
230
1.0
 70
     8
 71
     3
 72
     8
 73
     4
 74
     0
 42
0.000000001
 43
0.00000001
 40
0.0
 40
0.0
 40
0.0
 40
0.0
 40
1.0
 40
1.0
 40
1.0
 40
1.0
 10
19.57425322496281
 20
7.679608226943437
 30
0.0
 10
19.4630717877025
 20
7.64156189893627
 30
0.0
 10
19.35008468259348
 20
7.577585532765197
 30
0.0
 10
19.25404616535749
 20
7.492443895762284
 30
0.0
  0
SPLINE
  5
11F
330
1F
100
AcDbEntity
  8
외형선
  6
Continuous
 62
     1
370
    15
100
AcDbSpline
210
0.0
220
0.0
230
1.0
 70
     8
 71
     3
 72
     8
 73
     4
 74
     0
 42
0.000000001
 43
0.00000001
 40
0.0
 40
0.0
 40
0.0
 40
0.0
 40
1.0
 40
1.0
 40
1.0
 40
1.0
 10
21.80792789724043
 20
8.370188722276263
 30
0.0
 10
21.06047369518079
 20
8.164660637943758
 30
0.0
 10
20.31720257228252
 20
7.933845762074126
 30
0.0
 10
19.57425322472931
 20
7.679608226863533
 30
0.0
  0
SPLINE
  5
120
330
1F
100
AcDbEntity
  8
외형선
  6
Continuous
 62
     1
370
    15
100
AcDbSpline
210
0.0
220
0.0
230
1.0
 70
     8
 71
     3
 72
     8
 73
     4
 74
     0
 42
0.000000001
 43
0.00000001
 40
0.0
 40
0.0
 40
0.0
 40
0.0
 40
1.0
 40
1.0
 40
1.0
 40
1.0
 10
22.1296481715598
 20
8.368816656602391
 30
0.0
 10
22.03588134163702
 20
8.402309165474666
 30
0.0
 10
21.92329752349281
 20
8.401911995042399
 30
0.0
 10
21.80792969342967
 20
8.370189216175824
 30
0.0
  0
SPLINE
  5
121
330
1F
100
AcDbEntity
  8
외형선
  6
Continuous
 62
     1
370
    15
100
AcDbSpline
210
0.0
220
0.0
230
1.0
 70
     8
 71
     3
 72
    10
 73
     6
 74
     0
 42
0.000000001
 43
0.00000001
 40
0.0
 40
0.0
 40
0.0
 40
0.0
 40
0.5
 40
0.5
 40
1.0
 40
1.0
 40
1.0
 40
1.0
 10
23.41260258303239
 20
8.679153695197535
 30
0.0
 10
23.21735852818827
 20
8.506941280342126
 30
0.0
 10
22.98589360367725
 20
8.39870015645994
 30
0.0
 10
22.53261304369847
 20
8.297084066865523
 30
0.0
 10
22.31348257137644
 20
8.303152974976616
 30
0.0
 10
22.12964817156135
 20
8.368816656601318
 30
0.0
  0
SPLINE
  5
122
330
1F
100
AcDbEntity
  8
외형선
  6
Continuous
 62
     1
370
    15
100
AcDbSpline
210
0.0
220
0.0
230
1.0
 70
     8
 71
     3
 72
     8
 73
     4
 74
     0
 42
0.000000001
 43
0.00000001
 40
0.0
 40
0.0
 40
0.0
 40
0.0
 40
1.0
 40
1.0
 40
1.0
 40
1.0
 10
23.73256053615935
 20
8.842502430523583
 30
0.0
 10
23.62144632587829
 20
8.818569537487345
 30
0.0
 10
23.50856825573682
 20
8.763798937035087
 30
0.0
 10
23.41260258303289
 20
8.67915369519797
 30
0.0
  0
SPLINE
  5
123
330
1F
100
AcDbEntity
  8
외형선
  6
Continuous
 62
     1
370
    15
100
AcDbSpline
210
0.0
220
0.0
230
1.0
 70
     8
 71
     3
 72
     8
 73
     4
 74
     0
 42
0.000000001
 43
0.00000001
 40
0.0
 40
0.0
 40
0.0
 40
0.0
 40
1.0
 40
1.0
 40
1.0
 40
1.0
 10
25.96725614748143
 20
9.239451484340035
 30
0.0
 10
25.22109477397215
 20
9.134936317010515
 30
0.0
 10
24.47279070157547
 20
9.001940660779253
 30
0.0
 10
23.73255922800285
 20
8.842502148759705
 30
0.0
  0
SPLINE
  5
124
330
1F
100
AcDbEntity
  8
외형선
  6
Continuous
 62
     1
370
    15
100
AcDbSpline
210
0.0
220
0.0
230
1.0
 70
     8
 71
     3
 72
     8
 73
     4
 74
     0
 42
0.000000001
 43
0.00000001
 40
0.0
 40
0.0
 40
0.0
 40
0.0
 40
1.0
 40
1.0
 40
1.0
 40
1.0
 10
26.28885531683382
 20
9.181944784178947
 30
0.0
 10
26.19490856010665
 20
9.236399097519875
 30
0.0
 10
26.0821691004958
 20
9.255549782660186
 30
0.0
 10
25.96663913200447
 20
9.23936505230387
 30
0.0
  0
SPLINE
  5
125
330
1F
100
AcDbEntity
  8
외형선
  6
Continuous
 62
     1
370
    15
100
AcDbSpline
210
0.0
220
0.0
230
1.0
 70
     8
 71
     3
 72
    10
 73
     6
 74
     0
 42
0.000000001
 43
0.00000001
 40
0.0
 40
0.0
 40
0.0
 40
0.0
 40
0.5
 40
0.5
 40
1.0
 40
1.0
 40
1.0
 40
1.0
 10
27.57404795943127
 20
9.317460456550892
 30
0.0
 10
27.37835318401262
 20
9.157062049931167
 30
0.0
 10
27.14658908960655
 20
9.071975994690547
 30
0.0
 10
26.69263401430067
 20
9.031502397853735
 30
0.0
 10
26.47312373854799
 20
9.07513736767363
 30
0.0
 10
26.28885531683539
 20
9.18194478417776
 30
0.0
  0
SPLINE
  5
126
330
1F
100
AcDbEntity
  8
외형선
  6
Continuous
 62
     1
370
    15
100
AcDbSpline
210
0.0
220
0.0
230
1.0
 70
     8
 71
     3
 72
    14
 73
    10
 74
     0
 42
0.000000001
 43
0.00000001
 40
0.0
 40
0.0
 40
0.0
 40
0.0
 40
0.2499999999999999
 40
0.2499999999999999
 40
0.4999999999999999
 40
0.4999999999999999
 40
0.7499999999999998
 40
0.7499999999999998
 40
1.0
 40
1.0
 40
1.0
 40
1.0
 10
19.35510333105324
 20
1.13878474288092
 30
0.0
 10
19.32056041210993
 20
1.660413508070991
 30
0.0
 10
19.28567239893791
 20
2.178522637921444
 30
0.0
 10
19.21333136825262
 20
3.201142954243624
 30
0.0
 10
19.1763934059471
 20
3.703009206133493
 30
0.0
 10
19.10257251411484
 20
4.665446761273382
 30
0.0
 10
19.0656973760774
 20
5.125917130200228
 30
0.0
 10
18.99359873850846
 20
5.986556732353674
 30
0.0
 10
18.95912422562066
 20
6.384125516596987
 30
0.0
 10
18.9243841619305
 20
6.751211620474351
 30
0.0
  0
SPLINE
  5
127
330
1F
100
AcDbEntity
  8
외형선
  6
Continuous
 62
     1
370
    15
100
AcDbSpline
210
0.0
220
0.0
230
1.0
 70
     8
 71
     3
 72
    12
 73
     8
 74
     0
 42
0.000000001
 43
0.00000001
 40
0.0
 40
0.0
 40
0.0
 40
0.0
 40
0.5000000000000001
 40
0.5000000000000001
 40
0.75
 40
0.75
 40
1.0
 40
1.0
 40
1.0
 40
1.0
 10
16.48063020180661
 20
2.741045701445198
 30
0.0
 10
16.40826820215536
 20
3.761271549671317
 30
0.0
 10
16.33294597829203
 20
4.740505465402043
 30
0.0
 10
16.22507177575563
 20
6.02443005636917
 30
0.0
 10
16.19077407283264
 20
6.419281625662223
 30
0.0
 10
16.1212192054309
 20
7.149352052664313
 30
0.0
 10
16.08519167156422
 20
7.486720460168886
 30
0.0
 10
16.04864570094318
 20
7.787598087285148
 30
0.0
  0
SPLINE
  5
12A
330
1F
100
AcDbEntity
  8
외형선
  6
Continuous
 62
     1
370
    15
100
AcDbSpline
210
0.0
220
0.0
230
1.0
 70
     8
 71
     3
 72
    12
 73
     8
 74
     0
 42
0.000000001
 43
0.00000001
 40
0.0
 40
0.0
 40
0.0
 40
0.0
 40
0.5000000000000001
 40
0.5000000000000001
 40
0.75
 40
0.75
 40
1.0
 40
1.0
 40
1.0
 40
1.0
 10
15.19575503869486
 20
3.434954986735747
 30
0.0
 10
15.12240270345724
 20
4.432091391214462
 30
0.0
 10
15.04758760543031
 20
5.366531285736541
 30
0.0
 10
14.942520988814
 20
6.562657460533583
 30
0.0
 10
14.90861848425486
 20
6.928687713220867
 30
0.0
 10
14.8371171929109
 20
7.604237393873222
 30
0.0
 10
14.80043894310268
 20
7.910030002756495
 30
0.0
 10
14.76361013800828
 20
8.176177124809161
 30
0.0
  0
SPLINE
  5
12D
330
1F
100
AcDbEntity
  8
외형선
  6
Continuous
 62
     1
370
    15
100
AcDbSpline
210
0.0
220
0.0
230
1.0
 70
     8
 71
     3
 72
    12
 73
     8
 74
     0
 42
0.000000001
 43
0.00000001
 40
0.0
 40
0.0
 40
0.0
 40
0.0
 40
0.25
 40
0.25
 40
0.5
 40
0.5
 40
0.9733951991034769
 40
0.9733951991034769
 40
0.9733951991034769
 40
0.9733951991034769
 10
12.63806755599122
 20
4.813057389343448
 30
0.0
 10
12.60152791133532
 20
5.278445544862584
 30
0.0
 10
12.56535007101812
 20
5.718950278092739
 30
0.0
 10
12.49520488864418
 20
6.533712614807272
 30
0.0
 10
12.461623176184
 20
6.907256765698016
 30
0.0
 10
12.35912364932356
 20
7.908380168810512
 30
0.0
 10
12.28847493042536
 20
8.448745794554117
 30
0.0
 10
12.23153201969818
 20
9.413845659913187
 30
0.0
  0
SPLINE
  5
12E
330
1F
100
AcDbEntity
  8
외형선
  6
Continuous
 62
     1
370
    15
100
AcDbSpline
210
0.0
220
0.0
230
1.0
 70
     8
 71
     3
 72
    12
 73
     8
 74
     0
 42
0.000000001
 43
0.00000001
 40
0.0
 40
0.0
 40
0.0
 40
0.0
 40
0.5000000000000002
 40
0.5000000000000002
 40
0.7500000000000001
 40
0.7500000000000001
 40
1.0
 40
1.0
 40
1.0
 40
1.0
 10
14.87350873172392
 20
3.659316395892665
 30
0.0
 10
14.80033226074936
 20
4.655365175226835
 30
0.0
 10
14.7261121942026
 20
5.582911869175198
 30
0.0
 10
14.62234721231812
 20
6.763835110348348
 30
0.0
 10
14.58820378966024
 20
7.126653755548984
 30
0.0
 10
14.5166481671481
 20
7.7925255674353
 30
0.0
 10
14.48003180183876
 20
8.092438290832147
 30
0.0
 10
14.44335085710326
 20
8.351991562965853
 30
0.0
  0
SPLINE
  5
135
330
1F
100
AcDbEntity
  8
외형선
  6
Continuous
 62
     1
370
    15
100
AcDbSpline
210
0.0
220
0.0
230
1.0
 70
     8
 71
     3
 72
    12
 73
     8
 74
     0
 42
0.000000001
 43
0.00000001
 40
0.0
 40
0.0
 40
0.0
 40
0.0
 40
0.2500000000000001
 40
0.2500000000000001
 40
0.5000000000000002
 40
0.5000000000000002
 40
0.7406634619599886
 40
0.7406634619599886
 40
0.7406634619599886
 40
0.7406634619599886
 10
12.31777589323782
 20
4.904610597833721
 30
0.0
 10
12.28115312059306
 20
5.361599828745041
 30
0.0
 10
12.24498010038786
 20
5.792744763653814
 30
0.0
 10
12.17501704938296
 20
6.587476011632158
 30
0.0
 10
12.14104156482756
 20
6.952467940366635
 30
0.0
 10
12.07077433532504
 20
7.612826980581699
 30
0.0
 10
12.03545832394802
 20
7.906116797306159
 30
0.0
 10
12.0
 20
8.163472225363494
 30
0.0
  0
SPLINE
  5
13F
330
1F
100
AcDbEntity
  8
외형선
  6
Continuous
 62
     1
370
    15
100
AcDbSpline
210
0.0
220
0.0
230
1.0
 70
     8
 71
     3
 72
     8
 73
     4
 74
     0
 42
0.000000001
 43
0.00000001
 40
0.0
 40
0.0
 40
0.0
 40
0.0
 40
0.0449754906278849
 40
0.0449754906278849
 40
0.0449754906278849
 40
0.0449754906278849
 10
12.1001621516946
 20
-9.5178152945705
 30
0.0
 10
12.06678752557626
 20
-9.517065852051012
 30
0.0
 10
12.03339983153196
 20
-9.516257434400258
 30
0.0
 10
11.99999999999999
 20
-9.515390089126653
 30
0.0
  0
SPLINE
  5
140
330
1F
100
AcDbEntity
  8
외형선
  6
Continuous
 62
     1
370
    15
100
AcDbSpline
210
0.0
220
0.0
230
1.0
 70
     8
 71
     3
 72
     8
 73
     4
 74
     0
 42
0.000000001
 43
0.00000001
 40
0.0
 40
0.0
 40
0.0
 40
0.0
 40
0.2279440180669632
 40
0.2279440180669632
 40
0.2279440180669632
 40
0.2279440180669632
 10
12.10016210950484
 20
-9.517815275221835
 30
0.0
 10
12.06696162945744
 20
-9.498744107240569
 30
0.0
 10
12.03337834073426
 20
-9.440589121840762
 30
0.0
 10
12.0
 20
-9.345738178084328
 30
0.0
  0
SPLINE
  5
143
330
1F
100
AcDbEntity
  8
외형선
  6
Continuous
 62
     1
370
    15
100
AcDbSpline
210
0.0
220
0.0
230
1.0
 70
     8
 71
     3
 72
     8
 73
     4
 74
     0
 42
0.000000001
 43
0.00000001
 40
0.0
 40
0.0
 40
0.0
 40
0.0
 40
1.0
 40
1.0
 40
1.0
 40
1.0
 10
12.42240498653526
 20
-9.41684627443433
 30
0.0
 10
12.32844737202896
 20
-9.486038677637215
 30
0.0
 10
12.21570851348142
 20
-9.520409941095552
 30
0.0
 10
12.10016214284316
 20
-9.517815294371736
 30
0.0
  0
LINE
  5
145
330
1F
100
AcDbEntity
  8
외형선
  6
Continuous
 62
     1
370
    15
100
AcDbLine
 10
13.63592778605902
 20
-9.376376747555092
 30
0.0
 11
13.61432067147776
 21
-9.368802349204254
 31
0.0
  0
LINE
  5
149
330
1F
100
AcDbEntity
  8
외형선
  6
Continuous
 62
     1
370
    15
100
AcDbLine
 10
31.05000000000001
 20
1.837376426293255
 30
0.0
 11
31.05000000000001
 21
6.167475262783491
 31
0.0
  0
LINE
  5
14A
330
1F
100
AcDbEntity
  8
외형선
  6
Continuous
 62
     1
370
    15
100
AcDbLine
 10
21.97711027863108
 20
-9.506593633797557
 30
0.0
 11
21.97335910432273
 21
-9.505180060598056
 31
0.0
  0
LINE
  5
14B
330
1F
100
AcDbEntity
  8
외형선
  6
Continuous
 62
     1
370
    15
100
AcDbLine
 10
31.05000000000001
 20
-4.505082218580021
 30
0.0
 11
31.05000000000001
 21
-5.56839286237375
 31
0.0
  0
LINE
  5
14C
330
1F
100
AcDbEntity
  8
외형선
  6
Continuous
 62
     1
370
    15
100
AcDbLine
 10
31.05000000000001
 20
7.32499999999999
 30
0.0
 11
31.05000000000001
 21
7.254530153947702
 31
0.0
  0
SPLINE
  5
14E
330
1F
100
AcDbEntity
  8
외형선
  6
Continuous
 62
     1
370
    15
100
AcDbSpline
210
0.0
220
0.0
230
1.0
 70
     8
 71
     3
 72
    12
 73
     8
 74
     0
 42
0.000000001
 43
0.00000001
 40
0.0
 40
0.0
 40
0.0
 40
0.0
 40
0.1983442683062807
 40
0.4238771902857609
 40
0.6464880819661974
 40
0.8695657630902527
 40
0.9772004265782254
 40
0.9772004265782254
 40
0.9772004265782254
 40
0.9772004265782254
 10
12.41061939453096
 20
-9.401014142362094
 30
0.0
 10
12.38245762007814
 20
-9.375189375047748
 30
0.0
 10
12.3222737088895
 20
-9.319999830613394
 30
0.0
 10
12.23008171790438
 20
-8.984393737764387
 30
0.0
 10
12.13830946921246
 20
-8.457658129248472
 30
0.0
 10
12.06206555319184
 20
-7.874595218751172
 30
0.0
 10
12.01525729298756
 20
-7.454228383538863
 30
0.0
 10
12.0
 20
-7.316083596100928
 30
0.0
  0
SPLINE
  5
14F
330
1F
100
AcDbEntity
  8
외형선
  6
Continuous
 62
     1
370
    15
100
AcDbSpline
210
0.0
220
0.0
230
1.0
 70
     8
 71
     3
 72
    12
 73
     8
 74
     0
 42
0.000000001
 43
0.00000001
 40
0.0
 40
0.0
 40
0.0
 40
0.0
 40
0.0449330881768829
 40
0.3609735633207112
 40
0.6733789165246542
 40
0.9850598517403331
 40
1.0
 40
1.0
 40
1.0
 40
1.0
 10
13.61432067147776
 20
-9.368802349204254
 30
0.0
 10
13.60919072552916
 20
-9.367706439165564
 30
0.0
 10
13.56797889380694
 20
-9.358902358079783
 30
0.0
 10
13.48972301023268
 20
-9.088303815467812
 30
0.0
 10
13.384714256284
 20
-8.551441072840344
 30
0.0
 10
13.31409581692298
 20
-8.006960477398904
 30
0.0
 10
13.27695521389782
 20
-7.691456845054124
 30
0.0
 10
13.27525634587086
 20
-7.677025226024702
 30
0.0
  0
SPLINE
  5
151
330
1F
100
AcDbEntity
  8
외형선
  6
Continuous
 62
     1
370
    15
100
AcDbSpline
210
0.0
220
0.0
230
1.0
 70
     8
 71
     3
 72
    11
 73
     7
 74
     0
 42
0.000000001
 43
0.00000001
 40
0.0
 40
0.0
 40
0.0
 40
0.0
 40
0.148475911510347
 40
0.4347650859929363
 40
0.7181102021978848
 40
1.0
 40
1.0
 40
1.0
 40
1.0
 10
13.97497959739678
 20
-9.490911288216722
 30
0.0
 10
13.95619617305936
 20
-9.496152012523096
 30
0.0
 10
13.90119481281018
 20
-9.51149782808704
 30
0.0
 10
13.8083975382032
 20
-9.236037711292802
 30
0.0
 10
13.70227419840176
 20
-8.713960761860198
 30
0.0
 10
13.63227606540592
 20
-8.156288455362505
 30
0.0
 10
13.59736711150418
 20
-7.878170225538312
 30
0.0
  0
SPLINE
  5
152
330
1F
100
AcDbEntity
  8
외형선
  6
Continuous
 62
     1
370
    15
100
AcDbSpline
210
0.0
220
0.0
230
1.0
 70
     8
 71
     3
 72
    10
 73
     6
 74
     0
 42
0.000000001
 43
0.00000001
 40
0.0
 40
0.0
 40
0.0
 40
0.0
 40
0.0796248460622916
 40
0.5425174741162053
 40
1.0
 40
1.0
 40
1.0
 40
1.0
 10
16.12468899608972
 20
-9.494501918856608
 30
0.0
 10
16.11696332304614
 20
-9.504049588738209
 30
0.0
 10
16.06432507213932
 20
-9.569101868322026
 30
0.0
 10
15.96272881733914
 20
-9.295036968983254
 30
0.0
 10
15.87419063141354
 20
-8.782545987604482
 30
0.0
 10
15.83018175876948
 20
-8.527806746056365
 30
0.0
  0
SPLINE
  5
154
330
1F
100
AcDbEntity
  8
외형선
  6
Continuous
 62
     1
370
    15
100
AcDbSpline
210
0.0
220
0.0
230
1.0
 70
     8
 71
     3
 72
    11
 73
     7
 74
     0
 42
0.000000001
 43
0.00000001
 40
0.0
 40
0.0
 40
0.0
 40
0.0
 40
0.0556733152873586
 40
0.3715902017925329
 40
0.687634379827891
 40
1.0
 40
1.0
 40
1.0
 40
1.0
 10
16.46444997669102
 20
-9.391101940478965
 30
0.0
 10
16.45872173288997
 20
-9.400382831697858
 30
0.0
 10
16.42048870762532
 20
-9.462327916574559
 30
0.0
 10
16.34693108913458
 20
-9.355753425550978
 30
0.0
 10
16.24660979152866
 20
-9.074961908448934
 30
0.0
 10
16.18203055077482
 20
-8.69505490139113
 30
0.0
 10
16.14992994596906
 20
-8.506213339394728
 30
0.0
  0
SPLINE
  5
155
330
1F
100
AcDbEntity
  8
외형선
  6
Continuous
 62
     1
370
    15
100
AcDbSpline
210
0.0
220
0.0
230
1.0
 70
     8
 71
     3
 72
     9
 73
     5
 74
     0
 42
0.000000001
 43
0.00000001
 40
0.0
 40
0.0
 40
0.0
 40
0.0
 40
0.4200415129551596
 40
1.0
 40
1.0
 40
1.0
 40
1.0
 10
17.63315291591984
 20
-9.373231262172236
 30
0.0
 10
17.60499133775111
 20
-9.349666853927825
 30
0.0
 10
17.5379465878867
 20
-9.293566664975954
 30
0.0
 10
17.47172601545172
 20
-8.978031742334123
 30
0.0
 10
17.4333208324511
 20
-8.795034585988954
 30
0.0
  0
SPLINE
  5
156
330
1F
100
AcDbEntity
  8
외형선
  6
Continuous
 62
     1
370
    15
100
AcDbSpline
210
0.0
220
0.0
230
1.0
 70
     8
 71
     3
 72
     9
 73
     5
 74
     0
 42
0.000000001
 43
0.00000001
 40
0.0
 40
0.0
 40
0.0
 40
0.0
 40
0.4968686475329215
 40
0.9999999999999999
 40
0.9999999999999999
 40
0.9999999999999999
 40
0.9999999999999999
 10
17.97724491586886
 20
-9.52285021315013
 30
0.0
 10
17.94032940340636
 20
-9.50015474855352
 30
0.0
 10
17.86603308254616
 20
-9.454477757845217
 30
0.0
 10
17.79234501295096
 20
-9.128275158910194
 30
0.0
 10
17.75527023483484
 20
-8.964152404129743
 30
0.0
  0
SPLINE
  5
157
330
1F
100
AcDbEntity
  8
외형선
  6
Continuous
 62
     1
370
    15
100
AcDbSpline
210
0.0
220
0.0
230
1.0
 70
     8
 71
     3
 72
     9
 73
     5
 74
     0
 42
0.000000001
 43
0.00000001
 40
0.0
 40
0.0
 40
0.0
 40
0.0
 40
0.077806512064201
 40
1.0
 40
1.0
 40
1.0
 40
1.0
 10
20.12491903806754
 20
-9.511484859951247
 30
0.0
 10
20.12149574688268
 20
-9.515951603370368
 30
0.0
 10
20.07749825754604
 20
-9.573359952628241
 30
0.0
 10
20.0319198171552
 20
-9.43990176791435
 30
0.0
 10
19.98988767623651
 20
-9.316827499059464
 30
0.0
  0
SPLINE
  5
158
330
1F
100
AcDbEntity
  8
외형선
  6
Continuous
 62
     1
370
    15
100
AcDbSpline
210
0.0
220
0.0
230
1.0
 70
     8
 71
     3
 72
     9
 73
     5
 74
     0
 42
0.000000001
 43
0.00000001
 40
0.0
 40
0.0
 40
0.0
 40
0.0
 40
0.2363524371874834
 40
0.9999999999999999
 40
0.9999999999999999
 40
0.9999999999999999
 40
0.9999999999999999
 10
20.4649982475233
 20
-9.373336447641798
 30
0.0
 10
20.45306055330533
 20
-9.392107967351343
 30
0.0
 10
20.40255253079447
 20
-9.471529698444643
 30
0.0
 10
20.35018319480409
 20
-9.343772180184358
 30
0.0
 10
20.3101914790089
 20
-9.24621046273391
 30
0.0
  0
LINE
  5
159
330
1F
100
AcDbEntity
  8
외형선
  6
Continuous
 62
     1
370
    15
100
AcDbLine
 10
21.6419221900454
 20
-9.38563451455557
 30
0.0
 11
21.5953189202755
 21
-9.357605616685744
 31
0.0
  0
LINE
  5
15A
330
1F
100
AcDbEntity
  8
외형선
  6
Continuous
 62
     1
370
    15
100
AcDbLine
 10
21.97335910432273
 20
-9.505180060598056
 30
0.0
 11
21.9175800919677
 21
-9.484160584967748
 31
0.0
  0
LINE
  5
15B
330
1F
100
AcDbEntity
  8
중심선
100
AcDbLine
 10
-48.97499999999997
 20
-0.0000000000000107
 30
0.0
 11
31.05
 21
-0.0000000000000008
 31
0.0
  0
LINE
  5
15C
330
1F
100
AcDbEntity
  8
참조1
100
AcDbLine
 10
-0.6999999999999869
 20
-0.3168705809327389
 30
0.0
 11
-0.699999999999978
 21
-40.31687058093274
 31
0.0
  0
LINE
  5
15D
330
1F
100
AcDbEntity
  8
참조1
100
AcDbLine
 10
-12.96610765519646
 20
-4.762499999999998
 30
0.0
 11
55.17647268839603
 21
-4.762499999999998
 31
0.0
  0
LINE
  5
15E
330
1F
100
AcDbEntity
  8
참조1
100
AcDbLine
 10
55.17647268839603
 20
-4.762499999999998
 30
0.0
 11
55.17647268839601
 21
-6.927248606176848
 31
0.0
  0
LINE
  5
15F
330
1F
100
AcDbEntity
  8
참조1
100
AcDbLine
 10
-0.699999999999978
 20
-40.31687058093274
 30
0.0
 11
-17.43354980726568
 21
-40.31687058093274
 31
0.0
  0
CIRCLE
  5
160
330
1F
100
AcDbEntity
  8
해칭선
100
AcDbCircle
 10
0.0
 20
0.0
 30
0.0
 40
6.000000000000013
  0
INSERT
  5
161
330
1F
100
AcDbEntity
  8
0
  6
Continuous
 62
     7
100
AcDbBlockReference
 66
     1
  2
블럭10
 10
-14.64027293212519
 20
-52.36404488257666
 30
0.0
  0
ATTRIB
  5
162
330
161
100
AcDbEntity
  8
FORMAT
 62
     2
100
AcDbText
 10
-24.16258688272313
 20
-50.28867796974447
 30
0.0
 40
4.233333333333333
  1
E2086048 [ 3 FLUTE ]
 41
0.75
  7
SLDTEXTSTYLE0
 11
-24.16258688272313
 21
-52.40534463641114
 31
0.0
100
AcDbAttribute
  2
AUTOATTR0
 70
     0
 74
     1
  0
SEQEND
  5
163
330
161
100
AcDbEntity
  8
0
  6
Continuous
 62
     7
  0
HATCH
  5
164
330
1F
100
AcDbEntity
  8
중심선
100
AcDbHatch
 10
0.0
 20
0.0
 30
0.0
210
0.0
220
0.0
230
1.0
  2
SOLID
 70
     1
 71
     0
 91
        1
 92
        0
 93
        4
 72
     1
 10
-8.925363627744336
 20
-36.11687058093273
 11
-12.37163887158162
 21
-36.11687058093273
 72
     1
 10
-12.37163887158162
 20
-36.11687058093273
 11
-14.49986873078565
 21
-38.65319616150533
 72
     1
 10
-14.49986873078565
 20
-38.65319616150533
 11
-11.05356040183522
 21
-38.65315673220284
 72
     1
 10
-11.05356040183522
 20
-38.65315673220284
 11
-8.925363627744336
 21
-36.11687058093273
 97
        0
 75
     0
 76
     1
 98
        1
 10
6.762500000000012
 20
-0.3168705809327354
  0
HATCH
  5
165
330
1F
100
AcDbEntity
  8
중심선
100
AcDbHatch
 10
0.0
 20
0.0
 30
0.0
210
0.0
220
0.0
230
1.0
  2
SOLID
 70
     1
 71
     0
 91
        1
 92
        0
 93
        4
 72
     1
 10
-3.912599636708357
 20
-36.11687058093277
 11
-7.358874880545649
 21
-36.11687058093277
 72
     1
 10
-7.358874880545649
 20
-36.11687058093277
 11
-11.89001288890306
 21
-41.51687058093275
 72
     1
 10
-11.89001288890306
 20
-41.51687058093275
 11
-8.443737645065777
 21
-41.51687058093275
 72
     1
 10
-8.443737645065777
 20
-41.51687058093275
 11
-3.912599636708357
 21
-36.11687058093277
 97
        0
 75
     0
 76
     1
 98
        1
 10
6.762500000000012
 20
-0.3168705809327354
  0
HATCH
  5
166
330
1F
100
AcDbEntity
  8
중심선
100
AcDbHatch
 10
0.0
 20
0.0
 30
0.0
210
0.0
220
0.0
230
1.0
  2
SOLID
 70
     1
 71
     0
 91
        1
 92
        0
 93
        4
 72
     1
 10
1.100164354327532
 20
-36.11687058093273
 11
-2.346110889509637
 21
-36.11687058093277
 72
     1
 10
-2.346110889509637
 20
-36.11687058093277
 11
-9.394547791398857
 21
-44.51687058093275
 72
     1
 10
-9.394547791398857
 20
-44.51687058093275
 11
-5.948272547561576
 21
-44.51687058093275
 72
     1
 10
-5.948272547561576
 20
-44.51687058093275
 11
1.100164354327532
 21
-36.11687058093273
 97
        0
 75
     0
 76
     1
 98
        1
 10
6.762500000000012
 20
-0.3168705809327354
  0
HATCH
  5
167
330
1F
100
AcDbEntity
  8
중심선
100
AcDbHatch
 10
0.0
 20
0.0
 30
0.0
210
0.0
220
0.0
230
1.0
  2
SOLID
 70
     1
 71
     0
 91
        1
 92
        0
 93
        6
 72
     3
 10
5.900054785339705
 20
-40.31687058098401
 11
3.960054785062283
 21
1.540882976769353E-10
 40
0.3939339440162628
 50
17.09539180608439
 51
320.001965768507
 73
     0
 72
     1
 10
7.583054441040273
 20
-38.90476458557101
 11
9.888356314741339
 21
-36.97043787552312
 72
     3
 10
5.900054785286859
 20
-40.31687058093289
 11
6.600054785286829
 21
-1.278976924368180E-13
 40
0.636358354079598
 50
39.99873849337413
 51
368.4976242363721
 73
     1
 72
     1
 10
12.32538727718747
 20
-39.35687058086275
 11
4.58012209212278
 21
-39.35687058086275
 72
     1
 10
4.580122092122781
 20
-39.35687058086275
 11
4.580097047676847
 21
-41.27687058086265
 72
     1
 10
4.580097047676847
 20
-41.27687058086265
 11
9.021476817148883
 21
-41.27687058086261
 97
        0
 75
     0
 76
     1
 98
        1
 10
6.762500000000012
 20
-0.3168705809327354
  0
DIMENSION
  5
169
330
1F
100
AcDbEntity
  8
치수문자_일반주서
100
AcDbDimension
  2
_D
 10
52.24719747506896
 20
-9.524999999999924
 30
0.0
 11
52.24719747506884
 21
26.60825000000008
 31
0.0
 70
   160
  1
%%c<>
 71
     2
 42
19.05000000000001
 52
-270.0
  3
SLDDIMSTYLE0
100
AcDbAlignedDimension
 13
31.05000000000001
 23
9.525000000000004
 33
0.0
 14
31.05000000000001
 24
-9.525000000000004
 34
0.0
 50
90.0000000000002
100
AcDbRotatedDimension
1001
ACAD
1000
DSTYLE
1002
{
1070
   171
1070
     6
1070
   273
1070
     7
1002
}
  0
DIMENSION
  5
17C
330
1F
100
AcDbEntity
  8
치수문자_일반주서
100
AcDbDimension
  2
_D_1
 10
-61.53249999999998
 20
-9.52500000000008
 30
0.0
 11
-61.53250000000001
 21
-1.526016521430906
 31
0.0
 70
   160
  1
%%c<>
 71
     2
 42
19.05000000000003
 52
-270.0
  3
SLDDIMSTYLE1
100
AcDbAlignedDimension
 13
-39.91249999999992
 23
9.525000000000025
 33
0.0
 14
-39.91249999999992
 24
-9.524999999999999
 34
0.0
 50
90.0000000000002
100
AcDbRotatedDimension
1001
ACAD
1000
DSTYLE
1002
{
1070
   171
1070
     6
1070
   273
1070
     7
1002
}
  0
DIMENSION
  5
191
330
1F
100
AcDbEntity
  8
치수문자_일반주서
100
AcDbDimension
  2
_D_2
 10
12.0
 20
40.82290558803981
 30
0.0
 11
16.76250000000001
 21
40.82290558803981
 31
0.0
 70
   160
  1
<>
 71
     2
 42
19.05000000000001
  3
SLDDIMSTYLE0
100
AcDbAlignedDimension
 13
31.05000000000001
 23
6.167475262783491
 33
0.0
 14
12.0
 24
9.525000000000004
 34
0.0
 50
0.0000000000000142
100
AcDbRotatedDimension
1001
ACAD
1000
DSTYLE
1002
{
1070
   171
1070
     6
1070
   273
1070
     7
1002
}
  0
DIMENSION
  5
1A5
330
1F
100
AcDbEntity
  8
치수문자_일반주서
100
AcDbDimension
  2
_D_3
 10
-41.97499999999998
 20
61.06307102789049
 30
0.0
 11
-5.462499999999991
 21
61.06307102789049
 31
0.0
 70
   160
  1
<>
 71
     2
 42
73.02499999999998
  3
SLDDIMSTYLE2
100
AcDbAlignedDimension
 13
31.05000000000001
 23
7.254530153947702
 33
0.0
 14
-41.97499999999997
 24
7.525000000000001
 34
0.0
100
AcDbRotatedDimension
1001
ACAD
1000
DSTYLE
1002
{
1070
   171
1070
     6
1070
   273
1070
     7
1002
}
  0
LINE
  5
1B9
330
1F
100
AcDbEntity
  8
참조1
100
AcDbLine
 10
80.53879082238859
 20
7.123129419067267
 30
0.0
 11
80.53879082238859
 21
-7.756870580932739
 31
0.0
  0
LINE
  5
1BA
330
1F
100
AcDbEntity
  8
참조1
100
AcDbLine
 10
93.23879082238858
 20
5.123129419067267
 30
0.0
 11
80.53879082238859
 21
5.123129419067267
 31
0.0
  0
SOLID
  5
1BB
330
1F
100
AcDbEntity
  8
참조1
100
AcDbTrace
 10
80.53879082238859
 20
5.123129419067267
 30
0.0
 11
86.88879082238859
 21
4.107129419067267
 31
0.0
 12
86.88879082238859
 22
6.139129419067267
 32
0.0
 13
86.88879082238859
 23
6.139129419067267
 33
0.0
  0
LINE
  5
1BC
330
1F
100
AcDbEntity
  8
참조1
100
AcDbLine
 10
93.23879082238858
 20
-5.756870580932739
 30
0.0
 11
80.53879082238859
 21
-5.756870580932739
 31
0.0
  0
SOLID
  5
1BD
330
1F
100
AcDbEntity
  8
참조1
100
AcDbTrace
 10
80.53879082238859
 20
-5.756870580932739
 30
0.0
 11
86.88879082238859
 21
-6.772870580932739
 31
0.0
 12
86.88879082238859
 22
-4.740870580932737
 32
0.0
 13
86.88879082238859
 23
-4.740870580932737
 33
0.0
  0
MTEXT
  5
1BE
330
1F
100
AcDbEntity
  8
참조1
100
AcDbMText
 10
90.13890563295115
 20
10.74884698508334
 30
0.0
 40
3.5
 41
0.0
 71
     1
 72
     1
  1
A
  7
SLDTEXTSTYLE0
 73
     1
 44
1.0
  0
MTEXT
  5
1BF
330
1F
100
AcDbEntity
  8
참조1
100
AcDbMText
 10
90.13890563295115
 20
-0.1311530149166619
 30
0.0
 40
3.5
 41
0.0
 71
     1
 72
     1
  1
A
  7
SLDTEXTSTYLE0
 73
     1
 44
1.0
  0
INSERT
  5
1C6
330
1F
100
AcDbEntity
  8
해칭선
100
AcDbBlockReference
  2
SW_DOWELSYMBOL_0
 10
0.0
 20
0.0
 30
0.0
 41
2.000000000000001
 42
2.000000000000001
 43
2.000000000000001
  0
LINE
  5
213
330
1F
100
AcDbEntity
  8
외형선
  6
Continuous
370
    15
100
AcDbLine
 10
12.0
 20
9.525000000000004
 30
0.0
 11
12.0
 21
-9.525000000000004
 31
0.0
  0
LINE
  5
214
330
1F
100
AcDbEntity
  8
외형선
  6
Continuous
 62
     1
370
    15
100
AcDbLine
 10
14.44335090667918
 20
8.35199136825012
 30
0.0
 11
12.0
 21
9.525000000000004
 31
0.0
  0
LINE
  5
257
330
1F
100
AcDbEntity
  8
외형선
  6
Continuous
370
    15
100
AcDbLine
 10
12.00000000000003
 20
9.524999999999991
 30
0.0
 11
-8.481924999999977
 21
9.52499999999999
 31
0.0
  0
LINE
  5
2BC
330
1F
100
AcDbEntity
  8
외형선
  6
Continuous
370
    15
100
AcDbLine
 10
12.0
 20
9.524999999999988
 30
0.0
 11
-8.481924999999976
 21
9.524999999999988
 31
0.0
  0
LINE
  5
2FE
330
1F
100
AcDbEntity
  8
외형선
  6
Continuous
370
    15
100
AcDbLine
 10
-31.81118999999997
 20
9.524999999999988
 30
0.0
 11
-39.97499999999992
 21
9.524999999999988
 31
0.0
  0
LINE
  5
340
330
1F
100
AcDbEntity
  8
외형선
  6
Continuous
370
    15
100
AcDbLine
 10
-21.96932499999994
 20
7.61999999999999
 30
0.0
 11
-10.38692499999993
 21
7.61999999999999
 31
0.0
  0
LINE
  5
341
330
1F
100
AcDbEntity
  8
외형선
  6
Continuous
370
    15
100
AcDbLine
 10
-21.96932499999994
 20
7.619999999999976
 30
0.0
 11
-23.87432500000008
 21
9.525000000000006
 31
0.0
  0
LINE
  5
342
330
1F
100
AcDbEntity
  8
외형선
  6
Continuous
370
    15
100
AcDbLine
 10
-10.38692499999993
 20
7.619999999999976
 30
0.0
 11
-8.481924999999961
 21
9.525000000000006
 31
0.0
  0
LINE
  5
343
330
1F
100
AcDbEntity
  8
외형선
  6
Continuous
370
    15
100
AcDbLine
 10
-23.87432500000007
 20
9.52499999999999
 30
0.0
 11
-39.97499999999992
 21
9.524999999999988
 31
0.0
  0
ENDSEC
  0
SECTION
  2
OBJECTS
  0
DICTIONARY
  5
C
330
0
100
AcDbDictionary
281
     1
  3
ACAD_GROUP
350
D
  3
ACAD_IMAGE_VARS
350
1EA
  3
ACAD_LAYOUT
350
1A
  3
ACAD_MLINESTYLE
350
17
  3
ACAD_PLOTSETTINGS
350
19
  3
ACAD_PLOTSTYLENAME
350
E
  3
ACAD_SCALELIST
350
47
  3
APPDATA
350
1E8
  3
DWGPROPS
350
36A
  0
DICTIONARY
  5
242
330
2
100
AcDbDictionary
280
     1
281
     1
  3
ACAD_LAYERSTATES
360
243
  0
DICTIONARY
  5
D
102
{ACAD_REACTORS
330
C
102
}
330
C
100
AcDbDictionary
281
     1
  0
RASTERVARIABLES
  5
1EA
102
{ACAD_REACTORS
330
C
102
}
330
C
100
AcDbRasterVariables
 90
        0
 70
     1
 71
     1
 72
     1
  0
DICTIONARY
  5
1A
102
{ACAD_REACTORS
330
C
102
}
330
C
100
AcDbDictionary
281
     1
  3
Layout1
350
1E
  3
Layout2
350
26
  3
Model
350
22
  0
DICTIONARY
  5
17
102
{ACAD_REACTORS
330
C
102
}
330
C
100
AcDbDictionary
281
     1
  3
Standard
350
18
  0
DICTIONARY
  5
19
102
{ACAD_REACTORS
330
C
102
}
330
C
100
AcDbDictionary
281
     1
  0
ACDBDICTIONARYWDFLT
  5
E
102
{ACAD_REACTORS
330
C
102
}
330
C
100
AcDbDictionary
281
     1
  3
Normal
350
F
100
AcDbDictionaryWithDefault
340
F
  0
DICTIONARY
  5
47
102
{ACAD_REACTORS
330
C
102
}
330
C
100
AcDbDictionary
281
     1
  3
A0
350
48
  3
A1
350
49
  3
A2
350
4A
  3
A3
350
4B
  3
A4
350
4C
  3
A5
350
4D
  3
A6
350
4E
  3
A7
350
4F
  3
A8
350
50
  3
A9
350
51
  3
B0
350
52
  3
B1
350
53
  3
B2
350
54
  3
B3
350
55
  3
B4
350
56
  3
B5
350
57
  3
B6
350
58
  3
B7
350
59
  3
B8
350
5A
  3
B9
350
5B
  3
C0
350
5C
  3
C1
350
5D
  3
C2
350
5E
  3
C3
350
5F
  3
C4
350
60
  3
C5
350
61
  3
C6
350
62
  3
C7
350
63
  3
C8
350
64
  3
C9
350
65
  3
D0
350
66
  3
D1
350
67
  3
D2
350
68
  0
DICTIONARY
  5
1E8
102
{ACAD_REACTORS
330
C
102
}
330
C
100
AcDbDictionary
281
     1
  0
XRECORD
  5
36A
102
{ACAD_REACTORS
330
C
102
}
330
C
100
AcDbXrecord
280
     1
  1
DWGPROPS COOKIE
  2

  3

  4

  6

  7

  8
12016016
  9

300
=
301
=
302
=
303
=
304
=
305
=
306
=
307
=
308
=
309
=
 40
0.0
 41
2458298.968695776
 42
2458331.185211701
  1

 90
        0
  0
DICTIONARY
  5
243
102
{ACAD_REACTORS
330
242
102
}
330
242
100
AcDbDictionary
281
     1
  0
LAYOUT
  5
1E
102
{ACAD_REACTORS
330
1A
102
}
330
1A
100
AcDbPlotSettings
  1

  2
none_device
  4

  6

 40
0.0
 41
0.0
 42
0.0
 43
0.0
 44
0.0
 45
0.0
 46
0.0
 47
0.0
 48
0.0
 49
0.0
140
0.0
141
0.0
142
1.0
143
1.0
 70
   688
 72
     1
 73
     0
 74
     5
  7

 75
    16
147
1.0
148
0.0
149
0.0
100
AcDbLayout
  1
Layout1
 70
     1
 71
     1
 10
0.0
 20
0.0
 11
420.0
 21
297.0
 12
0.0
 22
0.0
 32
0.0
 14
1.000000000000000E+20
 24
1.000000000000000E+20
 34
1.000000000000000E+20
 15
-1.000000000000000E+20
 25
-1.000000000000000E+20
 35
-1.000000000000000E+20
146
0.0
 13
0.0
 23
0.0
 33
0.0
 16
1.0
 26
0.0
 36
0.0
 17
0.0
 27
1.0
 37
0.0
 76
     0
330
1B
  0
LAYOUT
  5
26
102
{ACAD_REACTORS
330
1A
102
}
330
1A
100
AcDbPlotSettings
  1

  2
none_device
  4

  6

 40
0.0
 41
0.0
 42
0.0
 43
0.0
 44
0.0
 45
0.0
 46
0.0
 47
0.0
 48
0.0
 49
0.0
140
0.0
141
0.0
142
1.0
143
1.0
 70
   688
 72
     1
 73
     0
 74
     5
  7

 75
    16
147
1.0
148
0.0
149
0.0
100
AcDbLayout
  1
Layout2
 70
     1
 71
     2
 10
0.0
 20
0.0
 11
0.0
 21
0.0
 12
0.0
 22
0.0
 32
0.0
 14
0.0
 24
0.0
 34
0.0
 15
0.0
 25
0.0
 35
0.0
146
0.0
 13
0.0
 23
0.0
 33
0.0
 16
1.0
 26
0.0
 36
0.0
 17
0.0
 27
1.0
 37
0.0
 76
     0
330
23
  0
LAYOUT
  5
22
102
{ACAD_REACTORS
330
1A
102
}
330
1A
100
AcDbPlotSettings
  1

  2
none_device
  4
ANSI_A_(11.00_x_8.50_Inches)
  6

 40
6.35
 41
19.05
 42
6.35000508
 43
19.05000254
 44
279.4
 45
215.9
 46
108.1449830654433
 47
90.7731756740194
 48
0.0
 49
0.0
140
0.0
141
0.0
142
0.0744403274023622
143
1.0
 70
  1696
 72
     0
 73
     0
 74
     0
  7

 75
     0
147
0.0235690232323232
148
0.0
149
0.0
100
AcDbLayout
  1
Model
 70
     1
 71
     0
 10
0.0
 20
0.0
 11
420.0
 21
297.0
 12
0.0
 22
0.0
 32
0.0
 14
-65.90750000000004
 24
-50.28867796974447
 34
0.0
 15
93.23879082238858
 25
65.43807102789049
 35
0.0
146
0.0
 13
0.0
 23
0.0
 33
0.0
 16
1.0
 26
0.0
 36
0.0
 17
0.0
 27
1.0
 37
0.0
 76
     0
330
1F
331
29
  0
MLINESTYLE
  5
18
102
{ACAD_REACTORS
330
17
102
}
330
17
100
AcDbMlineStyle
  2
Standard
 70
     0
  3

 62
   256
 51
90.0
 52
90.0
 71
     2
 49
0.5
 62
   256
  6
BYLAYER
 49
-0.5
 62
   256
  6
BYLAYER
  0
ACDBPLACEHOLDER
  5
F
102
{ACAD_REACTORS
330
E
102
}
330
E
  0
SCALE
  5
48
102
{ACAD_REACTORS
330
47
102
}
330
47
100
AcDbScale
 70
     0
300
1:1
140
1.0
141
1.0
290
     1
  0
SCALE
  5
49
102
{ACAD_REACTORS
330
47
102
}
330
47
100
AcDbScale
 70
     0
300
1:2
140
1.0
141
2.0
290
     0
  0
SCALE
  5
4A
102
{ACAD_REACTORS
330
47
102
}
330
47
100
AcDbScale
 70
     0
300
1:4
140
1.0
141
4.0
290
     0
  0
SCALE
  5
4B
102
{ACAD_REACTORS
330
47
102
}
330
47
100
AcDbScale
 70
     0
300
1:5
140
1.0
141
5.0
290
     0
  0
SCALE
  5
4C
102
{ACAD_REACTORS
330
47
102
}
330
47
100
AcDbScale
 70
     0
300
1:8
140
1.0
141
8.0
290
     0
  0
SCALE
  5
4D
102
{ACAD_REACTORS
330
47
102
}
330
47
100
AcDbScale
 70
     0
300
1:10
140
1.0
141
10.0
290
     0
  0
SCALE
  5
4E
102
{ACAD_REACTORS
330
47
102
}
330
47
100
AcDbScale
 70
     0
300
1:16
140
1.0
141
16.0
290
     0
  0
SCALE
  5
4F
102
{ACAD_REACTORS
330
47
102
}
330
47
100
AcDbScale
 70
     0
300
1:20
140
1.0
141
20.0
290
     0
  0
SCALE
  5
50
102
{ACAD_REACTORS
330
47
102
}
330
47
100
AcDbScale
 70
     0
300
1:30
140
1.0
141
30.0
290
     0
  0
SCALE
  5
51
102
{ACAD_REACTORS
330
47
102
}
330
47
100
AcDbScale
 70
     0
300
1:40
140
1.0
141
40.0
290
     0
  0
SCALE
  5
52
102
{ACAD_REACTORS
330
47
102
}
330
47
100
AcDbScale
 70
     0
300
1:50
140
1.0
141
50.0
290
     0
  0
SCALE
  5
53
102
{ACAD_REACTORS
330
47
102
}
330
47
100
AcDbScale
 70
     0
300
1:100
140
1.0
141
100.0
290
     0
  0
SCALE
  5
54
102
{ACAD_REACTORS
330
47
102
}
330
47
100
AcDbScale
 70
     0
300
2:1
140
2.0
141
1.0
290
     0
  0
SCALE
  5
55
102
{ACAD_REACTORS
330
47
102
}
330
47
100
AcDbScale
 70
     0
300
4:1
140
4.0
141
1.0
290
     0
  0
SCALE
  5
56
102
{ACAD_REACTORS
330
47
102
}
330
47
100
AcDbScale
 70
     0
300
8:1
140
8.0
141
1.0
290
     0
  0
SCALE
  5
57
102
{ACAD_REACTORS
330
47
102
}
330
47
100
AcDbScale
 70
     0
300
10:1
140
10.0
141
1.0
290
     0
  0
SCALE
  5
58
102
{ACAD_REACTORS
330
47
102
}
330
47
100
AcDbScale
 70
     0
300
100:1
140
100.0
141
1.0
290
     0
  0
SCALE
  5
59
102
{ACAD_REACTORS
330
47
102
}
330
47
100
AcDbScale
 70
     0
300
1/128" = 1'-0"
140
0.0078125
141
12.0
290
     0
  0
SCALE
  5
5A
102
{ACAD_REACTORS
330
47
102
}
330
47
100
AcDbScale
 70
     0
300
1/64" = 1'-0"
140
0.015625
141
12.0
290
     0
  0
SCALE
  5
5B
102
{ACAD_REACTORS
330
47
102
}
330
47
100
AcDbScale
 70
     0
300
1/32" = 1'-0"
140
0.03125
141
12.0
290
     0
  0
SCALE
  5
5C
102
{ACAD_REACTORS
330
47
102
}
330
47
100
AcDbScale
 70
     0
300
1/16" = 1'-0"
140
0.0625
141
12.0
290
     0
  0
SCALE
  5
5D
102
{ACAD_REACTORS
330
47
102
}
330
47
100
AcDbScale
 70
     0
300
3/32" = 1'-0"
140
0.09375
141
12.0
290
     0
  0
SCALE
  5
5E
102
{ACAD_REACTORS
330
47
102
}
330
47
100
AcDbScale
 70
     0
300
1/8" = 1'-0"
140
0.125
141
12.0
290
     0
  0
SCALE
  5
5F
102
{ACAD_REACTORS
330
47
102
}
330
47
100
AcDbScale
 70
     0
300
3/16" = 1'-0"
140
0.1875
141
12.0
290
     0
  0
SCALE
  5
60
102
{ACAD_REACTORS
330
47
102
}
330
47
100
AcDbScale
 70
     0
300
1/4" = 1'-0"
140
0.25
141
12.0
290
     0
  0
SCALE
  5
61
102
{ACAD_REACTORS
330
47
102
}
330
47
100
AcDbScale
 70
     0
300
3/8" = 1'-0"
140
0.375
141
12.0
290
     0
  0
SCALE
  5
62
102
{ACAD_REACTORS
330
47
102
}
330
47
100
AcDbScale
 70
     0
300
1/2" = 1'-0"
140
0.5
141
12.0
290
     0
  0
SCALE
  5
63
102
{ACAD_REACTORS
330
47
102
}
330
47
100
AcDbScale
 70
     0
300
3/4" = 1'-0"
140
0.75
141
12.0
290
     0
  0
SCALE
  5
64
102
{ACAD_REACTORS
330
47
102
}
330
47
100
AcDbScale
 70
     0
300
1" = 1'-0"
140
1.0
141
12.0
290
     0
  0
SCALE
  5
65
102
{ACAD_REACTORS
330
47
102
}
330
47
100
AcDbScale
 70
     0
300
1-1/2" = 1'-0"
140
1.5
141
12.0
290
     0
  0
SCALE
  5
66
102
{ACAD_REACTORS
330
47
102
}
330
47
100
AcDbScale
 70
     0
300
3" = 1'-0"
140
3.0
141
12.0
290
     0
  0
SCALE
  5
67
102
{ACAD_REACTORS
330
47
102
}
330
47
100
AcDbScale
 70
     0
300
6" = 1'-0"
140
6.0
141
12.0
290
     0
  0
SCALE
  5
68
102
{ACAD_REACTORS
330
47
102
}
330
47
100
AcDbScale
 70
     0
300
1'-0" = 1'-0"
140
12.0
141
12.0
290
     0
  0
ENDSEC
  0
EOF
