  0
SECTION
  2
HEADER
  9
$ACADVER
  1
AC1015
  9
$ACADMAINTVER
 70
     6
  9
$DWGCODEPAGE
  3
ANSI_949
  9
$INSBASE
 10
0.0
 20
0.0
 30
0.0
  9
$EXTMIN
 10
-100.125
 20
-49.97073246008785
 30
0.0
  9
$EXTMAX
 10
101.1634838153456
 20
87.71445338898924
 30
0.0
  9
$LIMMIN
 10
0.0
 20
0.0
  9
$LIMMAX
 10
420.0
 20
297.0
  9
$ORTHOMODE
 70
     0
  9
$REGENMODE
 70
     1
  9
$FILLMODE
 70
     1
  9
$QTEXTMODE
 70
     0
  9
$MIRRTEXT
 70
     1
  9
$LTSCALE
 40
1.0
  9
$ATTMODE
 70
     1
  9
$TEXTSIZE
 40
3.5
  9
$TRACEWID
 40
1.0
  9
$TEXTSTYLE
  7
Standard
  9
$CLAYER
  8
0
  9
$CELTYPE
  6
ByLayer
  9
$CECOLOR
 62
   256
  9
$CELTSCALE
 40
1.0
  9
$DISPSILH
 70
     0
  9
$DIMSCALE
 40
1.0
  9
$DIMASZ
 40
3.302
  9
$DIMEXO
 40
1.0
  9
$DIMDLI
 40
3.75
  9
$DIMRND
 40
0.0
  9
$DIMDLE
 40
0.0
  9
$DIMEXE
 40
1.0
  9
$DIMTP
 40
0.0
  9
$DIMTM
 40
0.0
  9
$DIMTXT
 40
3.5
  9
$DIMCEN
 40
2.5
  9
$DIMTSZ
 40
0.0
  9
$DIMTOL
 70
     0
  9
$DIMLIM
 70
     0
  9
$DIMTIH
 70
     1
  9
$DIMTOH
 70
     1
  9
$DIMSE1
 70
     0
  9
$DIMSE2
 70
     0
  9
$DIMTAD
 70
     1
  9
$DIMZIN
 70
     0
  9
$DIMBLK
  1

  9
$DIMASO
 70
     1
  9
$DIMSHO
 70
     1
  9
$DIMPOST
  1

  9
$DIMAPOST
  1

  9
$DIMALT
 70
     0
  9
$DIMALTD
 70
     3
  9
$DIMALTF
 40
0.0393700787401575
  9
$DIMLFAC
 40
1.0
  9
$DIMTOFL
 70
     1
  9
$DIMTVP
 40
0.0
  9
$DIMTIX
 70
     0
  9
$DIMSOXD
 70
     0
  9
$DIMSAH
 70
     0
  9
$DIMBLK1
  1

  9
$DIMBLK2
  1

  9
$DIMSTYLE
  2
ISO-25
  9
$DIMCLRD
 70
     0
  9
$DIMCLRE
 70
     0
  9
$DIMCLRT
 70
     0
  9
$DIMTFAC
 40
1.0
  9
$DIMGAP
 40
1.524
  9
$DIMJUST
 70
     0
  9
$DIMSD1
 70
     0
  9
$DIMSD2
 70
     0
  9
$DIMTOLJ
 70
     0
  9
$DIMTZIN
 70
     0
  9
$DIMALTZ
 70
     0
  9
$DIMALTTZ
 70
     0
  9
$DIMUPT
 70
     0
  9
$DIMDEC
 70
     2
  9
$DIMTDEC
 70
     2
  9
$DIMALTU
 70
     2
  9
$DIMALTTD
 70
     3
  9
$DIMTXSTY
  7
Standard
  9
$DIMAUNIT
 70
     0
  9
$DIMADEC
 70
     2
  9
$DIMALTRND
 40
0.0
  9
$DIMAZIN
 70
     0
  9
$DIMDSEP
 70
    44
  9
$DIMATFIT
 70
     3
  9
$DIMFRAC
 70
     0
  9
$DIMLDRBLK
  1

  9
$DIMLUNIT
 70
     2
  9
$DIMLWD
 70
    -2
  9
$DIMLWE
 70
    -2
  9
$DIMTMOVE
 70
     0
  9
$LUNITS
 70
     2
  9
$LUPREC
 70
     2
  9
$SKETCHINC
 40
1.0
  9
$FILLETRAD
 40
10.0
  9
$AUNITS
 70
     0
  9
$AUPREC
 70
     2
  9
$MENU
  1
.
  9
$ELEVATION
 40
0.0
  9
$PELEVATION
 40
0.0
  9
$THICKNESS
 40
0.0
  9
$LIMCHECK
 70
     0
  9
$CHAMFERA
 40
0.0
  9
$CHAMFERB
 40
0.0
  9
$CHAMFERC
 40
0.0
  9
$CHAMFERD
 40
0.0
  9
$SKPOLY
 70
     0
  9
$TDCREATE
 40
2458323.43877978
  9
$TDUCREATE
 40
2458323.06377978
  9
$TDUPDATE
 40
2458323.737072315
  9
$TDUUPDATE
 40
2458323.362072315
  9
$TDINDWG
 40
0.0016123148
  9
$TDUSRTIMER
 40
2458323.362033437
  9
$USRTIMER
 70
     1
  9
$ANGBASE
 50
0.0
  9
$ANGDIR
 70
     0
  9
$PDMODE
 70
     0
  9
$PDSIZE
 40
-1.0
  9
$PLINEWID
 40
0.0
  9
$SPLFRAME
 70
     0
  9
$SPLINETYPE
 70
     6
  9
$SPLINESEGS
 70
     8
  9
$HANDSEED
  5
2EF
  9
$SURFTAB1
 70
     6
  9
$SURFTAB2
 70
     6
  9
$SURFTYPE
 70
     6
  9
$SURFU
 70
     6
  9
$SURFV
 70
     6
  9
$UCSBASE
  2

  9
$UCSNAME
  2

  9
$UCSORG
 10
0.0
 20
0.0
 30
0.0
  9
$UCSXDIR
 10
1.0
 20
0.0
 30
0.0
  9
$UCSYDIR
 10
0.0
 20
1.0
 30
0.0
  9
$UCSORTHOREF
  2

  9
$UCSORTHOVIEW
 70
     0
  9
$UCSORGTOP
 10
0.0
 20
0.0
 30
0.0
  9
$UCSORGBOTTOM
 10
0.0
 20
0.0
 30
0.0
  9
$UCSORGLEFT
 10
0.0
 20
0.0
 30
0.0
  9
$UCSORGRIGHT
 10
0.0
 20
0.0
 30
0.0
  9
$UCSORGFRONT
 10
0.0
 20
0.0
 30
0.0
  9
$UCSORGBACK
 10
0.0
 20
0.0
 30
0.0
  9
$PUCSBASE
  2

  9
$PUCSNAME
  2

  9
$PUCSORG
 10
0.0
 20
0.0
 30
0.0
  9
$PUCSXDIR
 10
1.0
 20
0.0
 30
0.0
  9
$PUCSYDIR
 10
0.0
 20
1.0
 30
0.0
  9
$PUCSORTHOREF
  2

  9
$PUCSORTHOVIEW
 70
     0
  9
$PUCSORGTOP
 10
0.0
 20
0.0
 30
0.0
  9
$PUCSORGBOTTOM
 10
0.0
 20
0.0
 30
0.0
  9
$PUCSORGLEFT
 10
0.0
 20
0.0
 30
0.0
  9
$PUCSORGRIGHT
 10
0.0
 20
0.0
 30
0.0
  9
$PUCSORGFRONT
 10
0.0
 20
0.0
 30
0.0
  9
$PUCSORGBACK
 10
0.0
 20
0.0
 30
0.0
  9
$USERI1
 70
     0
  9
$USERI2
 70
     0
  9
$USERI3
 70
     0
  9
$USERI4
 70
     0
  9
$USERI5
 70
     0
  9
$USERR1
 40
0.0
  9
$USERR2
 40
0.0
  9
$USERR3
 40
0.0
  9
$USERR4
 40
0.0
  9
$USERR5
 40
0.0
  9
$WORLDVIEW
 70
     1
  9
$SHADEDGE
 70
     3
  9
$SHADEDIF
 70
    70
  9
$TILEMODE
 70
     1
  9
$MAXACTVP
 70
    64
  9
$PINSBASE
 10
0.0
 20
0.0
 30
0.0
  9
$PLIMCHECK
 70
     0
  9
$PEXTMIN
 10
1.000000000000000E+20
 20
1.000000000000000E+20
 30
1.000000000000000E+20
  9
$PEXTMAX
 10
-1.000000000000000E+20
 20
-1.000000000000000E+20
 30
-1.000000000000000E+20
  9
$PLIMMIN
 10
0.0
 20
0.0
  9
$PLIMMAX
 10
0.0
 20
0.0
  9
$UNITMODE
 70
     0
  9
$VISRETAIN
 70
     1
  9
$PLINEGEN
 70
     0
  9
$PSLTSCALE
 70
     1
  9
$TREEDEPTH
 70
  3020
  9
$CMLSTYLE
  2
Standard
  9
$CMLJUST
 70
     0
  9
$CMLSCALE
 40
20.0
  9
$PROXYGRAPHICS
 70
     1
  9
$MEASUREMENT
 70
     1
  9
$CELWEIGHT
370
    -1
  9
$ENDCAPS
280
     0
  9
$JOINSTYLE
280
     0
  9
$LWDISPLAY
290
     1
  9
$INSUNITS
 70
     4
  9
$HYPERLINKBASE
  1

  9
$STYLESHEET
  1

  9
$XEDIT
290
     1
  9
$CEPSNTYPE
380
     0
  9
$PSTYLEMODE
290
     1
  9
$FINGERPRINTGUID
  2
{62F81633-85D5-4E44-9795-BF984E11FCF1}
  9
$VERSIONGUID
  2
{FAEB1C32-E019-11D5-929B-00C0DF256EC4}
  9
$EXTNAMES
290
     1
  9
$PSVPSCALE
 40
0.0
  9
$OLESTARTUP
290
     0
  0
ENDSEC
  0
SECTION
  2
CLASSES
  0
CLASS
  1
ACDBDICTIONARYWDFLT
  2
AcDbDictionaryWithDefault
  3
ObjectDBX Classes
 90
        0
280
     0
281
     0
  0
CLASS
  1
VISUALSTYLE
  2
AcDbVisualStyle
  3
ObjectDBX Classes
 90
     4095
280
     0
281
     0
  0
CLASS
  1
MATERIAL
  2
AcDbMaterial
  3
ObjectDBX Classes
 90
     1153
280
     0
281
     0
  0
CLASS
  1
SCALE
  2
AcDbScale
  3
ObjectDBX Classes
 90
     1153
280
     0
281
     0
  0
CLASS
  1
SUN
  2
AcDbSun
  3
SCENEOE
 90
     1153
280
     0
281
     0
  0
CLASS
  1
ACDBPLACEHOLDER
  2
AcDbPlaceHolder
  3
ObjectDBX Classes
 90
        0
280
     0
281
     0
  0
CLASS
  1
LAYOUT
  2
AcDbLayout
  3
ObjectDBX Classes
 90
        0
280
     0
281
     0
  0
CLASS
  1
TABLESTYLE
  2
AcDbTableStyle
  3
ObjectDBX Classes
 90
     4095
280
     0
281
     0
  0
CLASS
  1
MLEADERSTYLE
  2
AcDbMLeaderStyle
  3
ACDB_MLEADERSTYLE_CLASS
 90
     4095
280
     0
281
     0
  0
CLASS
  1
RASTERVARIABLES
  2
AcDbRasterVariables
  3
ISM
 90
        0
280
     0
281
     0
  0
ENDSEC
  0
SECTION
  2
TABLES
  0
TABLE
  2
VPORT
  5
8
330
0
100
AcDbSymbolTable
 70
     1
  0
VPORT
  5
29
330
8
100
AcDbSymbolTableRecord
100
AcDbViewportTableRecord
  2
*Active
 70
     0
 10
0.0
 20
0.0
 11
1.0
 21
1.0
 12
10.33328335984245
 22
12.0002625966648
 13
0.0
 23
0.0
 14
10.0
 24
10.0
 15
10.0
 25
10.0
 16
0.0
 26
0.0
 36
1.0
 17
0.0
 27
0.0
 37
0.0
 40
160.1160227314577
 41
1.632093933463797
 42
50.0
 43
0.0
 44
0.0
 50
0.0
 51
0.0
 71
    16
 72
  2000
 73
     1
 74
     3
 75
     0
 76
     0
 77
     0
 78
     0
281
     0
 65
     1
110
0.0
120
0.0
130
0.0
111
1.0
121
0.0
131
0.0
112
0.0
122
1.0
132
0.0
 79
     0
146
0.0
  0
ENDTAB
  0
TABLE
  2
LTYPE
  5
5
330
0
100
AcDbSymbolTable
 70
     6
  0
LTYPE
  5
14
330
5
100
AcDbSymbolTableRecord
100
AcDbLinetypeTableRecord
  2
ByBlock
 70
     0
  3

 72
    65
 73
     0
 40
0.0
  0
LTYPE
  5
15
330
5
100
AcDbSymbolTableRecord
100
AcDbLinetypeTableRecord
  2
ByLayer
 70
     0
  3

 72
    65
 73
     0
 40
0.0
  0
LTYPE
  5
16
330
5
100
AcDbSymbolTableRecord
100
AcDbLinetypeTableRecord
  2
Continuous
 70
     0
  3
Solid line
 72
    65
 73
     0
 40
0.0
  0
LTYPE
  5
6A
330
5
100
AcDbSymbolTableRecord
100
AcDbLinetypeTableRecord
  2
HIDDEN
 70
     0
  3
Hidden __ __ __ __ __ __ __ __ __ __ __ __ __ __
 72
    65
 73
     2
 40
1.905
 49
1.27
 74
     0
 49
-0.635
 74
     0
  0
LTYPE
  5
6B
330
5
100
AcDbSymbolTableRecord
100
AcDbLinetypeTableRecord
  2
PHANTOM
 70
     0
  3
Phantom ______  __  __  ______  __  __  ______
 72
    65
 73
     6
 40
12.7
 49
6.35
 74
     0
 49
-1.27
 74
     0
 49
1.27
 74
     0
 49
-1.27
 74
     0
 49
1.27
 74
     0
 49
-1.27
 74
     0
  0
LTYPE
  5
6C
330
5
100
AcDbSymbolTableRecord
100
AcDbLinetypeTableRecord
  2
CENTER
 70
     0
  3
Center ____ _ ____ _ ____ _ ____ _ ____ _ ____
 72
    65
 73
     4
 40
10.16
 49
6.35
 74
     0
 49
-1.27
 74
     0
 49
1.27
 74
     0
 49
-1.27
 74
     0
  0
LTYPE
  5
6D
330
5
100
AcDbSymbolTableRecord
100
AcDbLinetypeTableRecord
  2
CENTERX2
 70
     0
  3
Center (2x) ________  __  ________  __  _____
 72
    65
 73
     4
 40
20.32
 49
12.7
 74
     0
 49
-2.54
 74
     0
 49
2.54
 74
     0
 49
-2.54
 74
     0
  0
LTYPE
  5
6E
330
5
100
AcDbSymbolTableRecord
100
AcDbLinetypeTableRecord
  2
DOT2
 70
     0
  3
Dot (.5x) ........................................
 72
    65
 73
     2
 40
0.635
 49
0.0
 74
     0
 49
-0.635
 74
     0
  0
ENDTAB
  0
TABLE
  2
LAYER
  5
2
330
0
100
AcDbSymbolTable
 70
    18
  0
LAYER
  5
10
330
2
100
AcDbSymbolTableRecord
100
AcDbLayerTableRecord
  2
0
 70
     0
 62
     7
  6
Continuous
370
    -3
390
F
  0
LAYER
  5
6F
330
2
100
AcDbSymbolTableRecord
100
AcDbLayerTableRecord
  2
FORMAT
 70
     0
 62
     2
  6
Continuous
370
    -3
390
F
  0
LAYER
  5
70
330
2
100
AcDbSymbolTableRecord
100
AcDbLayerTableRecord
  2
외형선
 70
     0
 62
     4
  6
Continuous
370
    30
390
F
  0
LAYER
  5
71
330
2
100
AcDbSymbolTableRecord
100
AcDbLayerTableRecord
  2
숨은선
 70
     0
 62
     2
  6
HIDDEN
370
    15
390
F
  0
LAYER
  5
72
330
2
100
AcDbSymbolTableRecord
100
AcDbLayerTableRecord
  2
중심선
 70
     0
 62
     1
  6
CENTERX2
370
    -3
390
F
  0
LAYER
  5
73
330
2
100
AcDbSymbolTableRecord
100
AcDbLayerTableRecord
  2
파단선
 70
     0
 62
     4
  6
Continuous
370
    -3
390
F
  0
LAYER
  5
74
330
2
100
AcDbSymbolTableRecord
100
AcDbLayerTableRecord
  2
해칭선
 70
     0
 62
   100
  6
Continuous
370
    -3
390
F
  0
LAYER
  5
75
330
2
100
AcDbSymbolTableRecord
100
AcDbLayerTableRecord
  2
가는실선
 70
     0
 62
     4
  6
Continuous
370
    -3
390
F
  0
LAYER
  5
76
330
2
100
AcDbSymbolTableRecord
100
AcDbLayerTableRecord
  2
치수_보조선
 70
     0
 62
     4
  6
Continuous
370
    -3
390
F
  0
LAYER
  5
77
330
2
100
AcDbSymbolTableRecord
100
AcDbLayerTableRecord
  2
치수문자_일반주서
 70
     0
 62
     7
  6
Continuous
370
    15
390
F
  0
LAYER
  5
78
330
2
100
AcDbSymbolTableRecord
100
AcDbLayerTableRecord
  2
개별주서
 70
     0
 62
   100
  6
Continuous
370
    30
390
F
  0
LAYER
  5
79
330
2
100
AcDbSymbolTableRecord
100
AcDbLayerTableRecord
  2
중간선
 70
     0
 62
     2
  6
Continuous
370
    15
390
F
  0
LAYER
  5
7A
330
2
100
AcDbSymbolTableRecord
100
AcDbLayerTableRecord
  2
윤곽선
 70
     0
 62
     3
  6
Continuous
370
    40
390
F
  0
LAYER
  5
7B
330
2
100
AcDbSymbolTableRecord
100
AcDbLayerTableRecord
  2
중심마크
 70
     0
 62
   100
  6
Continuous
370
    30
390
F
  0
LAYER
  5
7C
330
2
100
AcDbSymbolTableRecord
100
AcDbLayerTableRecord
  2
가상선
 70
     0
 62
     4
  6
PHANTOM
370
    -3
390
F
  0
LAYER
  5
7D
330
2
100
AcDbSymbolTableRecord
100
AcDbLayerTableRecord
  2
특수지정선
 70
     0
 62
     5
  6
CENTERX2
370
    60
390
F
  0
LAYER
  5
7E
330
2
100
AcDbSymbolTableRecord
100
AcDbLayerTableRecord
  2
참조1
 70
     0
 62
    -4
  6
Continuous
370
    -3
390
F
  0
LAYER
  5
153
330
2
100
AcDbSymbolTableRecord
100
AcDbLayerTableRecord
  2
Defpoints
 70
     0
 62
     7
  6
Continuous
290
     0
370
    -3
390
F
  0
ENDTAB
  0
TABLE
  2
STYLE
  5
3
330
0
100
AcDbSymbolTable
 70
     2
  0
STYLE
  5
11
330
3
100
AcDbSymbolTableRecord
100
AcDbTextStyleTableRecord
  2
Standard
 70
     0
 40
0.0
 41
1.0
 50
0.0
 71
     0
 42
3.5
  3
txt
  4

  0
STYLE
  5
94
330
3
100
AcDbSymbolTableRecord
100
AcDbTextStyleTableRecord
  2
SLDTEXTSTYLE0
 70
     0
 40
0.0
 41
0.75
 50
0.0
 71
     0
 42
3.5
  3
TXT
  4

  0
ENDTAB
  0
TABLE
  2
VIEW
  5
6
330
0
100
AcDbSymbolTable
 70
     0
  0
ENDTAB
  0
TABLE
  2
UCS
  5
7
330
0
100
AcDbSymbolTable
 70
     0
  0
ENDTAB
  0
TABLE
  2
APPID
  5
9
330
0
100
AcDbSymbolTable
 70
     1
  0
APPID
  5
12
330
9
100
AcDbSymbolTableRecord
100
AcDbRegAppTableRecord
  2
ACAD
 70
     0
  0
ENDTAB
  0
TABLE
  2
DIMSTYLE
  5
A
330
0
100
AcDbSymbolTable
 70
     3
100
AcDbDimStyleTable
  0
DIMSTYLE
105
27
330
A
100
AcDbSymbolTableRecord
100
AcDbDimStyleTableRecord
  2
ISO-25
 70
     0
 41
2.5
 42
0.625
 43
3.75
 44
1.25
 73
     0
 74
     0
 77
     1
 78
     8
140
2.5
141
2.5
143
0.03937007874016
147
0.625
171
     3
172
     1
178
     0
271
     2
272
     2
274
     3
278
    44
283
     0
284
     8
340
11
  0
DIMSTYLE
105
D4
102
{ACAD_REACTORS
330
E6
330
10D
330
27D
330
F9
102
}
330
A
100
AcDbSymbolTableRecord
100
AcDbDimStyleTableRecord
  2
SLDDIMSTYLE0
 70
     0
 41
3.302
 44
0.0
 45
0.000000001
 73
     0
 74
     0
 77
     1
 78
     4
 79
     1
140
3.5
143
0.0393700787401575
147
0.875
148
0.000000001
170
     1
173
     1
178
     0
271
     2
272
     2
276
     2
284
    12
340
94
  0
DIMSTYLE
105
FA
102
{ACAD_REACTORS
102
}
330
A
100
AcDbSymbolTableRecord
100
AcDbDimStyleTableRecord
  2
SLDDIMSTYLE1
 70
     0
 41
3.302
 44
0.0
 45
0.000000001
 73
     0
 74
     0
 77
     1
 78
    12
 79
     3
140
3.5
143
0.0393700787401575
147
0.875
148
0.000000001
170
     1
173
     1
178
     0
271
     2
272
     2
276
     2
284
    12
340
94
  0
ENDTAB
  0
TABLE
  2
BLOCK_RECORD
  5
1
330
0
100
AcDbSymbolTable
 70
    15
  0
BLOCK_RECORD
  5
1F
330
1
100
AcDbSymbolTableRecord
100
AcDbBlockTableRecord
  2
*Model_Space
340
22
  0
BLOCK_RECORD
  5
1B
330
1
100
AcDbSymbolTableRecord
100
AcDbBlockTableRecord
  2
*Paper_Space
340
1E
  0
BLOCK_RECORD
  5
23
330
1
100
AcDbSymbolTableRecord
100
AcDbBlockTableRecord
  2
*Paper_Space0
340
26
  0
BLOCK_RECORD
  5
7F
330
1
100
AcDbSymbolTableRecord
100
AcDbBlockTableRecord
  2
블럭10
340
0
102
{BLKREFS
331
CC
102
}
  0
BLOCK_RECORD
  5
D5
330
1
100
AcDbSymbolTableRecord
100
AcDbBlockTableRecord
  2
_D
340
0
  0
BLOCK_RECORD
  5
E7
330
1
100
AcDbSymbolTableRecord
100
AcDbBlockTableRecord
  2
_D_1
340
0
  0
BLOCK_RECORD
  5
FB
330
1
100
AcDbSymbolTableRecord
100
AcDbBlockTableRecord
  2
_D_2
340
0
  0
BLOCK_RECORD
  5
10E
330
1
100
AcDbSymbolTableRecord
100
AcDbBlockTableRecord
  2
_D_3
340
0
  0
BLOCK_RECORD
  5
127
330
1
100
AcDbSymbolTableRecord
100
AcDbBlockTableRecord
  2
SW_DOWELSYMBOL_0
340
0
102
{BLKREFS
331
12D
102
}
  0
BLOCK_RECORD
  5
1FC
330
1
100
AcDbSymbolTableRecord
100
AcDbBlockTableRecord
  2
*D7
340
0
  0
BLOCK_RECORD
  5
220
330
1
100
AcDbSymbolTableRecord
100
AcDbBlockTableRecord
  2
*D8
340
0
  0
BLOCK_RECORD
  5
22C
330
1
100
AcDbSymbolTableRecord
100
AcDbBlockTableRecord
  2
*D9
340
0
  0
BLOCK_RECORD
  5
238
330
1
100
AcDbSymbolTableRecord
100
AcDbBlockTableRecord
  2
*D10
340
0
  0
BLOCK_RECORD
  5
299
330
1
100
AcDbSymbolTableRecord
100
AcDbBlockTableRecord
  2
*D11
340
0
  0
BLOCK_RECORD
  5
2A5
330
1
100
AcDbSymbolTableRecord
100
AcDbBlockTableRecord
  2
*D12
340
0
  0
BLOCK_RECORD
  5
2B1
330
1
100
AcDbSymbolTableRecord
100
AcDbBlockTableRecord
  2
*D13
340
0
  0
BLOCK_RECORD
  5
2BD
330
1
100
AcDbSymbolTableRecord
100
AcDbBlockTableRecord
  2
*D14
340
0
  0
ENDTAB
  0
ENDSEC
  0
SECTION
  2
BLOCKS
  0
BLOCK
  5
20
330
1F
100
AcDbEntity
  8
0
100
AcDbBlockBegin
  2
*Model_Space
 70
     0
 10
0.0
 20
0.0
 30
0.0
  3
*Model_Space
  1
*Model_Space
  0
ENDBLK
  5
21
330
1F
100
AcDbEntity
  8
0
100
AcDbBlockEnd
  0
BLOCK
  5
1C
330
1B
100
AcDbEntity
 67
     1
  8
0
100
AcDbBlockBegin
  2
*Paper_Space
 70
     0
 10
0.0
 20
0.0
 30
0.0
  3
*Paper_Space
  1
*Paper_Space
  0
ENDBLK
  5
1D
330
1B
100
AcDbEntity
 67
     1
  8
0
100
AcDbBlockEnd
  0
BLOCK
  5
24
330
23
100
AcDbEntity
  8
0
100
AcDbBlockBegin
  2
*Paper_Space0
 70
     0
 10
0.0
 20
0.0
 30
0.0
  3
*Paper_Space0
  1
*Paper_Space0
  0
ENDBLK
  5
25
330
23
100
AcDbEntity
  8
0
100
AcDbBlockEnd
  0
BLOCK
  5
80
330
7F
100
AcDbEntity
  8
0
100
AcDbBlockBegin
  2
블럭10
 70
     2
 10
0.0
 20
0.0
 30
0.0
  3
블럭10
  1
블럭10
  0
ELLIPSE
  5
82
330
7F
100
AcDbEntity
  8
중심선
100
AcDbEllipse
 10
20.54032771741204
 20
12.0471743016438
 30
0.0
 11
6.600054785286829
 21
-1.261213355974178E-13
 31
0.0
210
0.0
220
0.0
230
1.0
 40
0.636358354079598
 41
0.9219305317359503
 42
6.513795318482858
  0
ELLIPSE
  5
83
330
7F
100
AcDbEntity
  8
중심선
100
AcDbEllipse
 10
20.54032771746488
 20
12.04717430159265
 30
0.0
 11
3.960054785062283
 21
1.540847449632565E-10
 31
0.0
210
0.0
220
0.0
230
1.0
 40
0.3939339440162632
 41
1.131841032648279
 42
5.62031148352944
  0
LINE
  5
84
330
7F
100
AcDbEntity
  8
중심선
100
AcDbLine
 10
2.268634060543552
 20
16.24717430164393
 30
0.0
 11
5.714909304380834
 21
16.24717430164393
 31
0.0
  0
LINE
  5
85
330
7F
100
AcDbEntity
  8
중심선
100
AcDbLine
 10
5.245725140726316
 20
7.84717430164391
 30
0.0
 11
8.692000384563599
 21
7.84717430164391
 31
0.0
  0
LINE
  5
86
330
7F
100
AcDbEntity
  8
중심선
100
AcDbLine
 10
15.74043728645272
 20
16.24717430164393
 30
0.0
 11
8.692000384563599
 21
7.84717430164391
 31
0.0
  0
LINE
  5
87
330
7F
100
AcDbEntity
  8
중심선
100
AcDbLine
 10
0.1404042013395286
 20
13.71084872107135
 30
0.0
 11
3.58671253028996
 21
13.71088815037384
 31
0.0
  0
LINE
  5
88
330
7F
100
AcDbEntity
  8
중심선
100
AcDbLine
 10
2.750260043222114
 20
10.84717430164391
 30
0.0
 11
6.196535287059397
 21
10.84717430164391
 31
0.0
  0
LINE
  5
89
330
7F
100
AcDbEntity
  8
중심선
100
AcDbLine
 10
12.29416204261559
 20
16.24717430164393
 30
0.0
 11
5.245725140726316
 21
7.84717430164391
 31
0.0
  0
LINE
  5
8A
330
7F
100
AcDbEntity
  8
중심선
100
AcDbLine
 10
10.72767329541681
 20
16.24717430164393
 30
0.0
 11
6.196535287059397
 21
10.84717430164391
 31
0.0
  0
LINE
  5
8B
330
7F
100
AcDbEntity
  8
중심선
100
AcDbLine
 10
7.28139805157953
 20
16.24717430164393
 30
0.0
 11
2.750260043222114
 21
10.84717430164391
 31
0.0
  0
LINE
  5
8C
330
7F
100
AcDbEntity
  8
중심선
100
AcDbLine
 10
5.714909304380834
 20
16.24717430164393
 30
0.0
 11
3.58671253028996
 21
13.71088815037384
 31
0.0
  0
LINE
  5
8D
330
7F
100
AcDbEntity
  8
중심선
100
AcDbLine
 10
2.268634060543552
 20
16.24717430164393
 30
0.0
 11
0.1404042013395286
 21
13.71084872107135
 31
0.0
  0
LINE
  5
8E
330
7F
100
AcDbEntity
  8
중심선
100
AcDbLine
 10
7.28139805157953
 20
16.24717430164393
 30
0.0
 11
10.72767329541681
 21
16.24717430164393
 31
0.0
  0
LINE
  5
8F
330
7F
100
AcDbEntity
  8
중심선
100
AcDbLine
 10
12.29416204261559
 20
16.24717430164393
 30
0.0
 11
15.74043728645272
 21
16.24717430164393
 31
0.0
  0
LINE
  5
90
330
7F
100
AcDbEntity
  8
중심선
100
AcDbLine
 10
19.22036997980202
 20
11.08717430171403
 30
0.0
 11
23.66174974927406
 21
11.08717430171406
 31
0.0
  0
LINE
  5
91
330
7F
100
AcDbEntity
  8
중심선
100
AcDbLine
 10
19.22039502424796
 20
13.00717430171391
 30
0.0
 11
19.22036997980202
 21
11.08717430171403
 31
0.0
  0
LINE
  5
92
330
7F
100
AcDbEntity
  8
중심선
100
AcDbLine
 10
19.22039502424796
 20
13.00717430171391
 30
0.0
 11
26.96566020931264
 21
13.00717430171391
 31
0.0
  0
LINE
  5
93
330
7F
100
AcDbEntity
  8
중심선
100
AcDbLine
 10
22.22332737316547
 20
13.45928029700563
 30
0.0
 11
24.52862924686651
 21
15.39360700705356
 31
0.0
  0
ATTDEF
  5
95
330
7F
100
AcDbEntity
  8
FORMAT
 62
     2
100
AcDbText
 10
4.408487351596664
 20
2.075366912832191
 30
0.0
 40
4.233333333333333
  1
E1100200
 41
0.75
  7
SLDTEXTSTYLE0
 11
4.408487351596664
 21
-0.0412997538344756
 31
0.0
100
AcDbAttributeDefinition
  3

  2
AUTOATTR0
 70
     0
 74
     1
  0
ENDBLK
  5
81
330
7F
100
AcDbEntity
  8
0
100
AcDbBlockEnd
  0
BLOCK
  5
D6
330
D5
100
AcDbEntity
  8
0
100
AcDbBlockBegin
  2
_D
 70
     0
 10
0.0
 20
0.0
 30
0.0
  3
_D
  1
_D
  0
LINE
  5
D8
330
D5
100
AcDbEntity
  8
치수문자_일반주서
 62
     0
370
    -2
100
AcDbLine
 10
-36.95749999999996
 20
25.4010749287239
 30
0.0
 11
-51.48250000000006
 21
25.40107492872385
 31
0.0
  0
LINE
  5
D9
330
D5
100
AcDbEntity
  8
치수문자_일반주서
 62
     0
370
    -2
100
AcDbLine
 10
-36.95749999999996
 20
-25.39892507127611
 30
0.0
 11
-51.48249999999988
 21
-25.39892507127616
 31
0.0
  0
LINE
  5
DA
330
D5
100
AcDbEntity
  8
치수문자_일반주서
 62
     0
370
    -2
100
AcDbLine
 10
-51.48250000000004
 20
22.09907492872386
 30
0.0
 11
-51.4824999999999
 21
-22.09692507127616
 31
0.0
  0
SOLID
  5
DB
330
D5
100
AcDbEntity
  8
치수문자_일반주서
 62
     0
100
AcDbTrace
 10
-50.93216666666671
 20
22.09907492872386
 30
0.0
 11
-52.03283333333338
 21
22.09907492872385
 31
0.0
 12
-51.48250000000006
 22
25.40107492872385
 32
0.0
 13
-51.48250000000006
 23
25.40107492872385
 33
0.0
  0
SOLID
  5
DC
330
D5
100
AcDbEntity
  8
치수문자_일반주서
 62
     0
100
AcDbTrace
 10
-52.03283333333323
 20
-22.09692507127616
 30
0.0
 11
-50.93216666666656
 21
-22.09692507127616
 31
0.0
 12
-51.48249999999988
 22
-25.39892507127616
 32
0.0
 13
-51.48249999999988
 23
-25.39892507127616
 33
0.0
  0
MTEXT
  5
DD
330
D5
100
AcDbEntity
  8
치수문자_일반주서
 62
     0
100
AcDbMText
 10
-55.85749999999997
 20
0.0010749287238891
 30
0.0
 40
3.5
 41
0.0
 71
     2
 72
     1
  1
\A1;%%c50.80 [2]
  7
SLDTEXTSTYLE0
 11
-3.496765431890256E-15
 21
1.0
 31
0.0
 73
     1
 44
1.0
  0
POINT
  5
DE
330
D5
100
AcDbEntity
  8
Defpoints
 62
     0
100
AcDbPoint
 10
-36.89499999999996
 20
25.4010749287239
 30
0.0
  0
POINT
  5
DF
330
D5
100
AcDbEntity
  8
Defpoints
 62
     0
100
AcDbPoint
 10
-36.89499999999996
 20
-25.39892507127611
 30
0.0
  0
POINT
  5
E0
330
D5
100
AcDbEntity
  8
Defpoints
 62
     0
100
AcDbPoint
 10
-51.48249999999997
 20
-25.39892507127616
 30
0.0
  0
ENDBLK
  5
D7
330
D5
100
AcDbEntity
  8
0
100
AcDbBlockEnd
  0
BLOCK
  5
E8
330
E7
100
AcDbEntity
  8
0
100
AcDbBlockBegin
  2
_D_1
 70
     0
 10
0.0
 20
0.0
 30
0.0
  3
_D_1
  1
_D_1
  0
LINE
  5
EA
330
E7
100
AcDbEntity
  8
치수문자_일반주서
 62
     0
370
    -2
100
AcDbLine
 10
62.80000000000003
 20
25.27821972169406
 30
0.0
 11
62.80000000000003
 21
47.75570626228483
 31
0.0
  0
LINE
  5
EB
330
E7
100
AcDbEntity
  8
치수문자_일반주서
 62
     0
370
    -2
100
AcDbLine
 10
12.00000000000001
 20
25.46357492872389
 30
0.0
 11
12.00000000000001
 21
47.75570626228483
 31
0.0
  0
LINE
  5
EC
330
E7
100
AcDbEntity
  8
치수문자_일반주서
 62
     0
370
    -2
100
AcDbLine
 10
59.49800000000003
 20
47.75570626228483
 30
0.0
 11
15.30200000000001
 21
47.75570626228483
 31
0.0
  0
SOLID
  5
ED
330
E7
100
AcDbEntity
  8
치수문자_일반주서
 62
     0
100
AcDbTrace
 10
59.49800000000003
 20
47.2053729289515
 30
0.0
 11
59.49800000000003
 21
48.30603959561817
 31
0.0
 12
62.80000000000003
 22
47.75570626228483
 32
0.0
 13
62.80000000000003
 23
47.75570626228483
 33
0.0
  0
SOLID
  5
EE
330
E7
100
AcDbEntity
  8
치수문자_일반주서
 62
     0
100
AcDbTrace
 10
15.30200000000001
 20
48.30603959561817
 30
0.0
 11
15.30200000000001
 21
47.2053729289515
 31
0.0
 12
12.00000000000001
 22
47.75570626228483
 32
0.0
 13
12.00000000000001
 23
47.75570626228483
 33
0.0
  0
MTEXT
  5
EF
330
E7
100
AcDbEntity
  8
치수문자_일반주서
 62
     0
100
AcDbMText
 10
37.40000000000002
 20
52.13070626228483
 30
0.0
 40
3.5
 41
0.0
 71
     2
 72
     1
  1
\A1;50.80 [2]
  7
SLDTEXTSTYLE0
 73
     1
 44
1.0
  0
POINT
  5
F0
330
E7
100
AcDbEntity
  8
Defpoints
 62
     0
100
AcDbPoint
 10
62.80000000000003
 20
25.21571972169406
 30
0.0
  0
POINT
  5
F1
330
E7
100
AcDbEntity
  8
Defpoints
 62
     0
100
AcDbPoint
 10
12.00000000000001
 20
25.40107492872389
 30
0.0
  0
POINT
  5
F2
330
E7
100
AcDbEntity
  8
Defpoints
 62
     0
100
AcDbPoint
 10
12.00000000000001
 20
47.75570626228483
 30
0.0
  0
ENDBLK
  5
E9
330
E7
100
AcDbEntity
  8
0
100
AcDbBlockEnd
  0
BLOCK
  5
FC
330
FB
100
AcDbEntity
  8
0
100
AcDbBlockBegin
  2
_D_2
 70
     0
 10
0.0
 20
0.0
 30
0.0
  3
_D_2
  1
_D_2
  0
LINE
  5
FE
330
FB
100
AcDbEntity
  8
치수문자_일반주서
 62
     0
370
    -2
100
AcDbLine
 10
62.80000000000003
 20
25.27821972169406
 30
0.0
 11
62.80000000000001
 21
59.75570626228483
 31
0.0
  0
LINE
  5
FF
330
FB
100
AcDbEntity
  8
치수문자_일반주서
 62
     0
370
    -2
100
AcDbLine
 10
-83.25
 20
20.38357492872391
 30
0.0
 11
-83.25000000000001
 21
59.75570626228483
 31
0.0
  0
LINE
  5
100
330
FB
100
AcDbEntity
  8
치수문자_일반주서
 62
     0
370
    -2
100
AcDbLine
 10
59.49800000000001
 20
59.75570626228483
 30
0.0
 11
-79.94800000000001
 21
59.75570626228483
 31
0.0
  0
SOLID
  5
101
330
FB
100
AcDbEntity
  8
치수문자_일반주서
 62
     0
100
AcDbTrace
 10
59.49800000000001
 20
59.2053729289515
 30
0.0
 11
59.49800000000001
 21
60.30603959561817
 31
0.0
 12
62.80000000000001
 22
59.75570626228483
 32
0.0
 13
62.80000000000001
 23
59.75570626228483
 33
0.0
  0
SOLID
  5
102
330
FB
100
AcDbEntity
  8
치수문자_일반주서
 62
     0
100
AcDbTrace
 10
-79.94800000000001
 20
60.30603959561817
 30
0.0
 11
-79.94800000000001
 21
59.2053729289515
 31
0.0
 12
-83.25000000000001
 22
59.75570626228483
 32
0.0
 13
-83.25000000000001
 23
59.75570626228483
 33
0.0
  0
MTEXT
  5
103
330
FB
100
AcDbEntity
  8
치수문자_일반주서
 62
     0
100
AcDbMText
 10
-10.22499999999999
 20
64.13070626228483
 30
0.0
 40
3.5
 41
0.0
 71
     2
 72
     1
  1
\A1;146.05 [5 3/4]
  7
SLDTEXTSTYLE0
 73
     1
 44
1.0
  0
POINT
  5
104
330
FB
100
AcDbEntity
  8
Defpoints
 62
     0
100
AcDbPoint
 10
62.80000000000003
 20
25.21571972169406
 30
0.0
  0
POINT
  5
105
330
FB
100
AcDbEntity
  8
Defpoints
 62
     0
100
AcDbPoint
 10
-83.25
 20
20.32107492872391
 30
0.0
  0
POINT
  5
106
330
FB
100
AcDbEntity
  8
Defpoints
 62
     0
100
AcDbPoint
 10
-83.25
 20
59.75570626228483
 30
0.0
  0
ENDBLK
  5
FD
330
FB
100
AcDbEntity
  8
0
100
AcDbBlockEnd
  0
BLOCK
  5
10F
330
10E
100
AcDbEntity
  8
0
100
AcDbBlockBegin
  2
_D_3
 70
     0
 10
0.0
 20
0.0
 30
0.0
  3
_D_3
  1
_D_3
  0
LINE
  5
111
330
10E
100
AcDbEntity
  8
치수문자_일반주서
 62
     0
370
    -2
100
AcDbLine
 10
62.86250000000003
 20
25.40107492872389
 30
0.0
 11
87.9217131897149
 21
25.40107492872398
 31
0.0
  0
LINE
  5
112
330
10E
100
AcDbEntity
  8
치수문자_일반주서
 62
     0
370
    -2
100
AcDbLine
 10
62.86250000000003
 20
-25.3989250712761
 30
0.0
 11
87.92171318971506
 21
-25.398925071276
 31
0.0
  0
LINE
  5
113
330
10E
100
AcDbEntity
  8
치수문자_일반주서
 62
     0
370
    -2
100
AcDbLine
 10
87.9217131897149
 20
25.40107492872398
 30
0.0
 11
87.92171318971468
 21
87.71445338898924
 31
0.0
  0
LINE
  5
114
330
10E
100
AcDbEntity
  8
치수문자_일반주서
 62
     0
370
    -2
100
AcDbLine
 10
87.92171318971491
 20
22.09907492872398
 30
0.0
 11
87.92171318971505
 21
-22.096925071276
 31
0.0
  0
SOLID
  5
115
330
10E
100
AcDbEntity
  8
치수문자_일반주서
 62
     0
100
AcDbTrace
 10
88.47204652304823
 20
22.09907492872398
 30
0.0
 11
87.37137985638158
 21
22.09907492872398
 31
0.0
 12
87.9217131897149
 22
25.40107492872398
 32
0.0
 13
87.9217131897149
 23
25.40107492872398
 33
0.0
  0
SOLID
  5
116
330
10E
100
AcDbEntity
  8
치수문자_일반주서
 62
     0
100
AcDbTrace
 10
87.37137985638172
 20
-22.096925071276
 30
0.0
 11
88.47204652304838
 21
-22.09692507127599
 31
0.0
 12
87.92171318971506
 22
-25.398925071276
 32
0.0
 13
87.92171318971506
 23
-25.398925071276
 33
0.0
  0
MTEXT
  5
117
330
10E
100
AcDbEntity
  8
치수문자_일반주서
 62
     0
100
AcDbMText
 10
83.54671318971472
 20
76.33945338898923
 30
0.0
 40
3.5
 41
0.0
 71
     2
 72
     1
  1
\A1;%%c50.80 [2]
  7
SLDTEXTSTYLE0
 11
-3.356894814614647E-15
 21
1.0
 31
0.0
 73
     1
 44
1.0
  0
POINT
  5
118
330
10E
100
AcDbEntity
  8
Defpoints
 62
     0
100
AcDbPoint
 10
62.80000000000003
 20
25.40107492872389
 30
0.0
  0
POINT
  5
119
330
10E
100
AcDbEntity
  8
Defpoints
 62
     0
100
AcDbPoint
 10
62.80000000000003
 20
-25.3989250712761
 30
0.0
  0
POINT
  5
11A
330
10E
100
AcDbEntity
  8
Defpoints
 62
     0
100
AcDbPoint
 10
87.92171318971506
 20
-25.39892507127601
 30
0.0
  0
ENDBLK
  5
110
330
10E
100
AcDbEntity
  8
0
100
AcDbBlockEnd
  0
BLOCK
  5
128
330
127
100
AcDbEntity
  8
0
100
AcDbBlockBegin
  2
SW_DOWELSYMBOL_0
 70
     0
 10
0.0
 20
0.0
 30
0.0
  3
SW_DOWELSYMBOL_0
  1
SW_DOWELSYMBOL_0
  0
CIRCLE
  5
12A
330
127
100
AcDbEntity
  8
해칭선
 62
     0
100
AcDbCircle
 10
0.0
 20
0.0
 30
0.0
 40
3.000000000000001
  0
HATCH
  5
12B
330
127
100
AcDbEntity
  8
0
  6
Continuous
 62
     0
370
     0
100
AcDbHatch
 10
0.0
 20
0.0
 30
0.0
210
0.0
220
0.0
230
1.0
  2
SOLID
 70
     1
 71
     0
 91
        1
 92
        0
 93
        3
 72
     2
 10
0.0
 20
0.0
 40
3.000000000000001
 50
0.0
 51
90.0
 73
     1
 72
     1
 10
0.0
 20
3.000000000000001
 11
0.0
 21
0.0
 72
     1
 10
0.0
 20
0.0
 11
3.000000000000003
 21
0.0
 97
        0
 75
     0
 76
     1
 98
        1
 10
0.0
 20
0.0
  0
HATCH
  5
12C
330
127
100
AcDbEntity
  8
0
  6
Continuous
 62
     0
370
     0
100
AcDbHatch
 10
0.0
 20
0.0
 30
0.0
210
0.0
220
0.0
230
1.0
  2
SOLID
 70
     1
 71
     0
 91
        1
 92
        0
 93
        3
 72
     2
 10
0.0
 20
0.0
 40
3.000000000000001
 50
180.0
 51
270.0000000000007
 73
     1
 72
     1
 10
0.0
 20
-3.000000000000001
 11
0.0
 21
0.0
 72
     1
 10
0.0
 20
0.0
 11
-3.000000000000003
 21
0.0
 97
        0
 75
     0
 76
     1
 98
        1
 10
0.0
 20
0.0
  0
ENDBLK
  5
129
330
127
100
AcDbEntity
  8
0
100
AcDbBlockEnd
  0
BLOCK
  5
1FD
330
1FC
100
AcDbEntity
  8
0
100
AcDbBlockBegin
  2
*D7
 70
     1
 10
0.0
 20
0.0
 30
0.0
  3
*D7
  1
*D7
  0
LINE
  5
1FE
330
1FC
100
AcDbEntity
  8
치수문자_일반주서
 62
     0
370
    -2
100
AcDbLine
 10
188.3875
 20
75.37180738881173
 30
0.0
 11
204.8014617075472
 21
75.37180738881173
 31
0.0
  0
LINE
  5
1FF
330
1FC
100
AcDbEntity
  8
치수문자_일반주서
 62
     0
370
    -2
100
AcDbLine
 10
188.3875
 20
24.57180738881173
 30
0.0
 11
204.8014617075472
 21
24.57180738881173
 31
0.0
  0
LINE
  5
200
330
1FC
100
AcDbEntity
  8
치수문자_일반주서
 62
     0
370
    -2
100
AcDbLine
 10
204.8014617075472
 20
72.06980738881174
 30
0.0
 11
204.8014617075472
 21
27.87380738881173
 31
0.0
  0
SOLID
  5
201
330
1FC
100
AcDbEntity
  8
치수문자_일반주서
 62
     0
100
AcDbTrace
 10
205.3517950408806
 20
72.06980738881174
 30
0.0
 11
204.2511283742139
 21
72.06980738881174
 31
0.0
 12
204.8014617075472
 22
75.37180738881173
 32
0.0
 13
204.8014617075472
 23
75.37180738881173
 33
0.0
  0
SOLID
  5
202
330
1FC
100
AcDbEntity
  8
치수문자_일반주서
 62
     0
100
AcDbTrace
 10
204.2511283742139
 20
27.87380738881173
 30
0.0
 11
205.3517950408806
 21
27.87380738881173
 31
0.0
 12
204.8014617075472
 22
24.57180738881173
 32
0.0
 13
204.8014617075472
 23
24.57180738881173
 33
0.0
  0
MTEXT
  5
203
330
1FC
100
AcDbEntity
  8
치수문자_일반주서
 62
     0
100
AcDbMText
 10
202.1764617075472
 20
49.97180738881173
 30
0.0
 40
3.5
 41
0.0
 71
     5
 72
     1
  1
\A1;{%%C50.80 [2]}
  7
SLDTEXTSTYLE0
 11
0.0
 21
1.0
 31
0.0
 73
     1
 44
1.0
  0
POINT
  5
204
330
1FC
100
AcDbEntity
  8
Defpoints
 62
     0
100
AcDbPoint
 10
188.325
 20
75.37180738881173
 30
0.0
  0
POINT
  5
205
330
1FC
100
AcDbEntity
  8
Defpoints
 62
     0
100
AcDbPoint
 10
188.325
 20
24.57180738881173
 30
0.0
  0
POINT
  5
206
330
1FC
100
AcDbEntity
  8
Defpoints
 62
     0
100
AcDbPoint
 10
204.8014617075472
 20
24.57180738881173
 30
0.0
  0
ENDBLK
  5
207
330
1FC
100
AcDbEntity
  8
0
100
AcDbBlockEnd
  0
BLOCK
  5
221
330
220
100
AcDbEntity
  8
0
100
AcDbBlockBegin
  2
*D8
 70
     1
 10
0.0
 20
0.0
 30
0.0
  3
*D8
  1
*D9
  0
LINE
  5
223
330
220
100
AcDbEntity
  8
치수문자_일반주서
 62
     0
370
    -2
100
AcDbLine
 10
17.81250000000004
 20
75.37180738881175
 30
0.0
 11
4.37499999999994
 21
75.3718073888117
 31
0.0
  0
LINE
  5
224
330
220
100
AcDbEntity
  8
치수문자_일반주서
 62
     0
370
    -2
100
AcDbLine
 10
17.81250000000004
 20
24.57180738881173
 30
0.0
 11
4.375000000000117
 21
24.57180738881169
 31
0.0
  0
LINE
  5
225
330
220
100
AcDbEntity
  8
치수문자_일반주서
 62
     0
370
    -2
100
AcDbLine
 10
4.374999999999951
 20
72.06980738881171
 30
0.0
 11
4.375000000000106
 21
27.87380738881169
 31
0.0
  0
SOLID
  5
226
330
220
100
AcDbEntity
  8
치수문자_일반주서
 62
     0
100
AcDbTrace
 10
4.925333333333285
 20
72.06980738881171
 30
0.0
 11
3.824666666666618
 21
72.06980738881171
 31
0.0
 12
4.37499999999994
 22
75.3718073888117
 32
0.0
 13
4.37499999999994
 23
75.3718073888117
 33
0.0
  0
SOLID
  5
227
330
220
100
AcDbEntity
  8
치수문자_일반주서
 62
     0
100
AcDbTrace
 10
3.824666666666773
 20
27.87380738881168
 30
0.0
 11
4.925333333333439
 21
27.87380738881169
 31
0.0
 12
4.375000000000117
 22
24.57180738881169
 32
0.0
 13
4.375000000000117
 23
24.57180738881169
 33
0.0
  0
MTEXT
  5
228
330
220
100
AcDbEntity
  8
치수문자_일반주서
 62
     0
100
AcDbMText
 10
0.0000000000000284
 20
49.97180738881173
 30
0.0
 40
3.5
 41
0.0
 71
     2
 72
     1
  1
\A1;%%c50.80 [2]
  7
SLDTEXTSTYLE0
 11
-3.496765431890255E-15
 21
1.0
 31
0.0
 73
     1
 44
1.0
  0
POINT
  5
229
330
220
100
AcDbEntity
  8
Defpoints
 62
     0
100
AcDbPoint
 10
17.87500000000004
 20
75.37180738881175
 30
0.0
  0
POINT
  5
22A
330
220
100
AcDbEntity
  8
Defpoints
 62
     0
100
AcDbPoint
 10
17.87500000000004
 20
24.57180738881173
 30
0.0
  0
POINT
  5
22B
330
220
100
AcDbEntity
  8
Defpoints
 62
     0
100
AcDbPoint
 10
4.375000000000114
 20
24.57180738881168
 30
0.0
  0
ENDBLK
  5
222
330
220
100
AcDbEntity
  8
0
100
AcDbBlockEnd
  0
BLOCK
  5
22D
330
22C
100
AcDbEntity
  8
0
100
AcDbBlockBegin
  2
*D9
 70
     1
 10
0.0
 20
0.0
 30
0.0
  3
*D9
  1
*D10
  0
LINE
  5
22F
330
22C
100
AcDbEntity
  8
치수문자_일반주서
 62
     0
370
    -2
100
AcDbLine
 10
188.325
 20
75.41283969564469
 30
0.0
 11
188.325
 21
88.5266814264676
 31
0.0
  0
LINE
  5
230
330
22C
100
AcDbEntity
  8
치수문자_일반주서
 62
     0
370
    -2
100
AcDbLine
 10
112.1250000000001
 20
70.11946737054765
 30
0.0
 11
112.1250000000001
 21
88.5266814264676
 31
0.0
  0
LINE
  5
231
330
22C
100
AcDbEntity
  8
치수문자_일반주서
 62
     0
370
    -2
100
AcDbLine
 10
185.0230000000001
 20
88.5266814264676
 30
0.0
 11
115.427
 21
88.5266814264676
 31
0.0
  0
SOLID
  5
232
330
22C
100
AcDbEntity
  8
치수문자_일반주서
 62
     0
100
AcDbTrace
 10
185.0230000000001
 20
87.97634809313428
 30
0.0
 11
185.0230000000001
 21
89.07701475980093
 31
0.0
 12
188.325
 22
88.5266814264676
 32
0.0
 13
188.325
 23
88.5266814264676
 33
0.0
  0
SOLID
  5
233
330
22C
100
AcDbEntity
  8
치수문자_일반주서
 62
     0
100
AcDbTrace
 10
115.427
 20
89.07701475980093
 30
0.0
 11
115.427
 21
87.97634809313428
 31
0.0
 12
112.1250000000001
 22
88.5266814264676
 32
0.0
 13
112.1250000000001
 23
88.5266814264676
 33
0.0
  0
MTEXT
  5
234
330
22C
100
AcDbEntity
  8
치수문자_일반주서
 62
     0
100
AcDbMText
 10
150.2250000000001
 20
92.9016814264676
 30
0.0
 40
3.5
 41
0.0
 71
     2
 72
     1
  1
\A1;76.20 [3]
  7
SLDTEXTSTYLE0
 73
     1
 44
1.0
  0
POINT
  5
235
330
22C
100
AcDbEntity
  8
Defpoints
 62
     0
100
AcDbPoint
 10
188.325
 20
75.35033969564469
 30
0.0
  0
POINT
  5
236
330
22C
100
AcDbEntity
  8
Defpoints
 62
     0
100
AcDbPoint
 10
112.1250000000001
 20
70.05696737054765
 30
0.0
  0
POINT
  5
237
330
22C
100
AcDbEntity
  8
Defpoints
 62
     0
100
AcDbPoint
 10
112.1250000000001
 20
88.5266814264676
 30
0.0
  0
ENDBLK
  5
22E
330
22C
100
AcDbEntity
  8
0
100
AcDbBlockEnd
  0
BLOCK
  5
239
330
238
100
AcDbEntity
  8
0
100
AcDbBlockBegin
  2
*D10
 70
     1
 10
0.0
 20
0.0
 30
0.0
  3
*D10
  1
*D11
  0
LINE
  5
23B
330
238
100
AcDbEntity
  8
치수문자_일반주서
 62
     0
370
    -2
100
AcDbLine
 10
188.325
 20
74.137405467302
 30
0.0
 11
188.325
 21
104.6004350326861
 31
0.0
  0
LINE
  5
23C
330
238
100
AcDbEntity
  8
치수문자_일반주서
 62
     0
370
    -2
100
AcDbLine
 10
16.87500000000004
 20
74.43430738881173
 30
0.0
 11
16.87500000000004
 21
104.6004350326861
 31
0.0
  0
LINE
  5
23D
330
238
100
AcDbEntity
  8
치수문자_일반주서
 62
     0
370
    -2
100
AcDbLine
 10
185.0230000000001
 20
104.6004350326861
 30
0.0
 11
20.17700000000004
 21
104.6004350326861
 31
0.0
  0
SOLID
  5
23E
330
238
100
AcDbEntity
  8
치수문자_일반주서
 62
     0
100
AcDbTrace
 10
185.0230000000001
 20
104.0501016993528
 30
0.0
 11
185.0230000000001
 21
105.1507683660194
 31
0.0
 12
188.325
 22
104.6004350326861
 32
0.0
 13
188.325
 23
104.6004350326861
 33
0.0
  0
SOLID
  5
23F
330
238
100
AcDbEntity
  8
치수문자_일반주서
 62
     0
100
AcDbTrace
 10
20.17700000000004
 20
105.1507683660194
 30
0.0
 11
20.17700000000004
 21
104.0501016993528
 31
0.0
 12
16.87500000000004
 22
104.6004350326861
 32
0.0
 13
16.87500000000004
 23
104.6004350326861
 33
0.0
  0
MTEXT
  5
240
330
238
100
AcDbEntity
  8
치수문자_일반주서
 62
     0
100
AcDbMText
 10
102.6
 20
108.9754350326861
 30
0.0
 40
3.5
 41
0.0
 71
     2
 72
     1
  1
\A1;171.45 [6 3/4]
  7
SLDTEXTSTYLE0
 73
     1
 44
1.0
  0
POINT
  5
241
330
238
100
AcDbEntity
  8
Defpoints
 62
     0
100
AcDbPoint
 10
188.325
 20
74.074905467302
 30
0.0
  0
POINT
  5
242
330
238
100
AcDbEntity
  8
Defpoints
 62
     0
100
AcDbPoint
 10
16.87500000000004
 20
74.37180738881173
 30
0.0
  0
POINT
  5
243
330
238
100
AcDbEntity
  8
Defpoints
 62
     0
100
AcDbPoint
 10
16.87500000000004
 20
104.6004350326861
 30
0.0
  0
ENDBLK
  5
23A
330
238
100
AcDbEntity
  8
0
100
AcDbBlockEnd
  0
BLOCK
  5
29A
330
299
100
AcDbEntity
  8
0
100
AcDbBlockBegin
  2
*D11
 70
     1
 10
0.0
 20
0.0
 30
0.0
  3
*D11
  1
*D12
  0
LINE
  5
29C
330
299
100
AcDbEntity
  8
치수문자_일반주서
 62
     0
370
    -2
100
AcDbLine
 10
-82.31249999999999
 20
25.40107492872392
 30
0.0
 11
-95.75000000000009
 21
25.40107492872387
 31
0.0
  0
LINE
  5
29D
330
299
100
AcDbEntity
  8
치수문자_일반주서
 62
     0
370
    -2
100
AcDbLine
 10
-82.31249999999999
 20
-25.3989250712761
 30
0.0
 11
-95.74999999999991
 21
-25.39892507127615
 31
0.0
  0
LINE
  5
29E
330
299
100
AcDbEntity
  8
치수문자_일반주서
 62
     0
370
    -2
100
AcDbLine
 10
-95.75000000000007
 20
22.09907492872387
 30
0.0
 11
-95.74999999999993
 21
-22.09692507127615
 31
0.0
  0
SOLID
  5
29F
330
299
100
AcDbEntity
  8
치수문자_일반주서
 62
     0
100
AcDbTrace
 10
-95.19966666666674
 20
22.09907492872387
 30
0.0
 11
-96.3003333333334
 21
22.09907492872386
 31
0.0
 12
-95.75000000000009
 22
25.40107492872387
 32
0.0
 13
-95.75000000000009
 23
25.40107492872387
 33
0.0
  0
SOLID
  5
2A0
330
299
100
AcDbEntity
  8
치수문자_일반주서
 62
     0
100
AcDbTrace
 10
-96.30033333333326
 20
-22.09692507127615
 30
0.0
 11
-95.1996666666666
 21
-22.09692507127614
 31
0.0
 12
-95.74999999999991
 22
-25.39892507127615
 32
0.0
 13
-95.74999999999991
 23
-25.39892507127615
 33
0.0
  0
MTEXT
  5
2A1
330
299
100
AcDbEntity
  8
치수문자_일반주서
 62
     0
100
AcDbMText
 10
-100.125
 20
0.001074928723909
 30
0.0
 40
3.5
 41
0.0
 71
     2
 72
     1
  1
\A1;%%c50.80 [2]
  7
SLDTEXTSTYLE0
 11
-3.356894814614646E-15
 21
1.0
 31
0.0
 73
     1
 44
1.0
  0
POINT
  5
2A2
330
299
100
AcDbEntity
  8
Defpoints
 62
     0
100
AcDbPoint
 10
-82.24999999999999
 20
25.40107492872392
 30
0.0
  0
POINT
  5
2A3
330
299
100
AcDbEntity
  8
Defpoints
 62
     0
100
AcDbPoint
 10
-82.24999999999999
 20
-25.3989250712761
 30
0.0
  0
POINT
  5
2A4
330
299
100
AcDbEntity
  8
Defpoints
 62
     0
100
AcDbPoint
 10
-95.74999999999991
 20
-25.39892507127615
 30
0.0
  0
ENDBLK
  5
29B
330
299
100
AcDbEntity
  8
0
100
AcDbBlockEnd
  0
BLOCK
  5
2A6
330
2A5
100
AcDbEntity
  8
0
100
AcDbBlockBegin
  2
*D12
 70
     1
 10
0.0
 20
0.0
 30
0.0
  3
*D12
  1
*D13
  0
LINE
  5
2A8
330
2A5
100
AcDbEntity
  8
치수문자_일반주서
 62
     0
370
    -2
100
AcDbLine
 10
296.90339183836
 20
-65.18902995664794
 30
0.0
 11
296.90339183836
 21
-52.07518822582503
 31
0.0
  0
LINE
  5
2A9
330
2A5
100
AcDbEntity
  8
치수문자_일반주서
 62
     0
370
    -2
100
AcDbLine
 10
220.70339183836
 20
-70.48240228174498
 30
0.0
 11
220.70339183836
 21
-52.07518822582503
 31
0.0
  0
LINE
  5
2AA
330
2A5
100
AcDbEntity
  8
치수문자_일반주서
 62
     0
370
    -2
100
AcDbLine
 10
293.60139183836
 20
-52.07518822582503
 30
0.0
 11
224.00539183836
 21
-52.07518822582503
 31
0.0
  0
SOLID
  5
2AB
330
2A5
100
AcDbEntity
  8
치수문자_일반주서
 62
     0
100
AcDbTrace
 10
293.60139183836
 20
-52.62552155915836
 30
0.0
 11
293.60139183836
 21
-51.5248548924917
 31
0.0
 12
296.90339183836
 22
-52.07518822582503
 32
0.0
 13
296.90339183836
 23
-52.07518822582503
 33
0.0
  0
SOLID
  5
2AC
330
2A5
100
AcDbEntity
  8
치수문자_일반주서
 62
     0
100
AcDbTrace
 10
224.00539183836
 20
-51.5248548924917
 30
0.0
 11
224.00539183836
 21
-52.62552155915836
 31
0.0
 12
220.70339183836
 22
-52.07518822582503
 32
0.0
 13
220.70339183836
 23
-52.07518822582503
 33
0.0
  0
MTEXT
  5
2AD
330
2A5
100
AcDbEntity
  8
치수문자_일반주서
 62
     0
100
AcDbMText
 10
258.80339183836
 20
-47.70018822582503
 30
0.0
 40
3.5
 41
0.0
 71
     2
 72
     1
  1
\A1;76.20 [3]
  7
SLDTEXTSTYLE0
 73
     1
 44
1.0
  0
POINT
  5
2AE
330
2A5
100
AcDbEntity
  8
Defpoints
 62
     0
100
AcDbPoint
 10
296.90339183836
 20
-65.25152995664794
 30
0.0
  0
POINT
  5
2AF
330
2A5
100
AcDbEntity
  8
Defpoints
 62
     0
100
AcDbPoint
 10
220.70339183836
 20
-70.54490228174498
 30
0.0
  0
POINT
  5
2B0
330
2A5
100
AcDbEntity
  8
Defpoints
 62
     0
100
AcDbPoint
 10
220.70339183836
 20
-52.07518822582503
 30
0.0
  0
ENDBLK
  5
2A7
330
2A5
100
AcDbEntity
  8
0
100
AcDbBlockEnd
  0
BLOCK
  5
2B2
330
2B1
100
AcDbEntity
  8
0
100
AcDbBlockBegin
  2
*D13
 70
     1
 10
0.0
 20
0.0
 30
0.0
  3
*D13
  1
*D14
  0
LINE
  5
2B4
330
2B1
100
AcDbEntity
  8
외형선
  6
Continuous
 62
     0
370
    -2
100
AcDbLine
 10
296.90339183836
 20
-66.46446418499063
 30
0.0
 11
296.90339183836
 21
-36.00143461960654
 31
0.0
  0
LINE
  5
2B5
330
2B1
100
AcDbEntity
  8
외형선
  6
Continuous
 62
     0
370
    -2
100
AcDbLine
 10
125.45339183836
 20
-66.1675622634809
 30
0.0
 11
125.45339183836
 21
-36.00143461960654
 31
0.0
  0
LINE
  5
2B6
330
2B1
100
AcDbEntity
  8
외형선
  6
Continuous
 62
     0
370
    -2
100
AcDbLine
 10
293.60139183836
 20
-36.00143461960654
 30
0.0
 11
128.75539183836
 21
-36.00143461960654
 31
0.0
  0
SOLID
  5
2B7
330
2B1
100
AcDbEntity
  8
외형선
 62
     0
100
AcDbTrace
 10
293.60139183836
 20
-36.55176795293988
 30
0.0
 11
293.60139183836
 21
-35.45110128627321
 31
0.0
 12
296.90339183836
 22
-36.00143461960654
 32
0.0
 13
296.90339183836
 23
-36.00143461960654
 33
0.0
  0
SOLID
  5
2B8
330
2B1
100
AcDbEntity
  8
외형선
 62
     0
100
AcDbTrace
 10
128.75539183836
 20
-35.45110128627321
 30
0.0
 11
128.75539183836
 21
-36.55176795293988
 31
0.0
 12
125.45339183836
 22
-36.00143461960654
 32
0.0
 13
125.45339183836
 23
-36.00143461960654
 33
0.0
  0
MTEXT
  5
2B9
330
2B1
100
AcDbEntity
  8
외형선
 62
     0
370
    15
100
AcDbMText
 10
211.17839183836
 20
-31.62643461960654
 30
0.0
 40
3.5
 41
0.0
 71
     2
 72
     1
  1
\A1;171.45 [6 3/4]
  7
SLDTEXTSTYLE0
 73
     1
 44
1.0
  0
POINT
  5
2BA
330
2B1
100
AcDbEntity
  8
Defpoints
 62
     0
100
AcDbPoint
 10
296.90339183836
 20
-66.52696418499063
 30
0.0
  0
POINT
  5
2BB
330
2B1
100
AcDbEntity
  8
Defpoints
 62
     0
100
AcDbPoint
 10
125.45339183836
 20
-66.2300622634809
 30
0.0
  0
POINT
  5
2BC
330
2B1
100
AcDbEntity
  8
Defpoints
 62
     0
100
AcDbPoint
 10
125.45339183836
 20
-36.00143461960654
 30
0.0
  0
ENDBLK
  5
2B3
330
2B1
100
AcDbEntity
  8
0
100
AcDbBlockEnd
  0
BLOCK
  5
2BE
330
2BD
100
AcDbEntity
  8
0
100
AcDbBlockBegin
  2
*D14
 70
     1
 10
0.0
 20
0.0
 30
0.0
  3
*D14
  1
*D15
  0
LINE
  5
2C0
330
2BD
100
AcDbEntity
  8
치수문자_일반주서
 62
     0
370
    -2
100
AcDbLine
 10
296.96589183836
 20
-65.2300622634809
 30
0.0
 11
313.3798535459072
 21
-65.2300622634809
 31
0.0
  0
LINE
  5
2C1
330
2BD
100
AcDbEntity
  8
치수문자_일반주서
 62
     0
370
    -2
100
AcDbLine
 10
296.96589183836
 20
-116.0300622634809
 30
0.0
 11
313.3798535459072
 21
-116.0300622634809
 31
0.0
  0
LINE
  5
2C2
330
2BD
100
AcDbEntity
  8
치수문자_일반주서
 62
     0
370
    -2
100
AcDbLine
 10
313.3798535459072
 20
-68.5320622634809
 30
0.0
 11
313.3798535459072
 21
-112.7280622634809
 31
0.0
  0
SOLID
  5
2C3
330
2BD
100
AcDbEntity
  8
치수문자_일반주서
 62
     0
100
AcDbTrace
 10
313.9301868792405
 20
-68.5320622634809
 30
0.0
 11
312.8295202125738
 21
-68.5320622634809
 31
0.0
 12
313.3798535459072
 22
-65.2300622634809
 32
0.0
 13
313.3798535459072
 23
-65.2300622634809
 33
0.0
  0
SOLID
  5
2C4
330
2BD
100
AcDbEntity
  8
치수문자_일반주서
 62
     0
100
AcDbTrace
 10
312.8295202125738
 20
-112.7280622634809
 30
0.0
 11
313.9301868792405
 21
-112.7280622634809
 31
0.0
 12
313.3798535459072
 22
-116.0300622634809
 32
0.0
 13
313.3798535459072
 23
-116.0300622634809
 33
0.0
  0
MTEXT
  5
2C5
330
2BD
100
AcDbEntity
  8
치수문자_일반주서
 62
     0
100
AcDbMText
 10
310.7548535459072
 20
-90.63006226348091
 30
0.0
 40
3.5
 41
0.0
 71
     5
 72
     1
  1
\A1;{%%C50.80 [2]}
  7
SLDTEXTSTYLE0
 11
0.0
 21
1.0
 31
0.0
 73
     1
 44
1.0
  0
POINT
  5
2C6
330
2BD
100
AcDbEntity
  8
Defpoints
 62
     0
100
AcDbPoint
 10
296.90339183836
 20
-65.2300622634809
 30
0.0
  0
POINT
  5
2C7
330
2BD
100
AcDbEntity
  8
Defpoints
 62
     0
100
AcDbPoint
 10
296.90339183836
 20
-116.0300622634809
 30
0.0
  0
POINT
  5
2C8
330
2BD
100
AcDbEntity
  8
Defpoints
 62
     0
100
AcDbPoint
 10
313.3798535459072
 20
-116.0300622634809
 30
0.0
  0
ENDBLK
  5
2BF
330
2BD
100
AcDbEntity
  8
0
100
AcDbBlockEnd
  0
ENDSEC
  0
SECTION
  2
ENTITIES
  0
LINE
  5
96
330
1F
100
AcDbEntity
  8
외형선
  6
Continuous
370
    15
100
AcDbLine
 10
12.67170575203334
 20
25.40107492872389
 30
0.0
 11
12.00000000000001
 21
25.40107492872389
 31
0.0
  0
LINE
  5
97
330
1F
100
AcDbEntity
  8
외형선
  6
Continuous
 62
     1
370
    15
100
AcDbLine
 10
59.72867766752543
 20
-25.3989250712761
 30
0.0
 11
62.80000000000003
 21
-25.3989250712761
 31
0.0
  0
LINE
  5
98
330
1F
100
AcDbEntity
  8
외형선
  6
Continuous
 62
     1
370
    15
100
AcDbLine
 10
39.27175441717549
 20
25.40107492872389
 30
0.0
 11
33.13123775105429
 21
25.40107492872389
 31
0.0
  0
LINE
  5
99
330
1F
100
AcDbEntity
  8
외형선
  6
Continuous
 62
     1
370
    15
100
AcDbLine
 10
33.13123775105409
 20
-25.3989250712761
 30
0.0
 11
39.27175441717549
 21
-25.3989250712761
 31
0.0
  0
LINE
  5
9A
330
1F
100
AcDbEntity
  8
외형선
  6
Continuous
 62
     1
370
    15
100
AcDbLine
 10
62.80000000000003
 20
25.40107492872389
 30
0.0
 11
59.72867766752543
 21
25.40107492872389
 31
0.0
  0
LINE
  5
9B
330
1F
100
AcDbEntity
  8
외형선
  6
Continuous
370
    15
100
AcDbLine
 10
12.00000000000001
 20
-25.3989250712761
 30
0.0
 11
12.67170575203318
 21
-25.3989250712761
 31
0.0
  0
LINE
  5
9C
330
1F
100
AcDbEntity
  8
외형선
  6
Continuous
370
    15
100
AcDbLine
 10
-78.17
 20
-25.3989250712761
 30
0.0
 11
-73.725
 21
-25.3989250712761
 31
0.0
  0
LINE
  5
9D
330
1F
100
AcDbEntity
  8
외형선
  6
Continuous
370
    15
100
AcDbLine
 10
12.00000000000001
 20
25.40107492872389
 30
0.0
 11
-28.1828
 21
25.40107492872389
 31
0.0
  0
LINE
  5
A0
330
1F
100
AcDbEntity
  8
외형선
  6
Continuous
 62
     1
370
    15
100
AcDbLine
 10
62.80000000000003
 20
-9.9536513859467
 30
0.0
 11
62.80000000000003
 21
9.955801243394966
 31
0.0
  0
SPLINE
  5
A1
330
1F
100
AcDbEntity
  8
외형선
  6
Continuous
 62
     1
370
    15
100
AcDbSpline
210
0.0
220
0.0
230
1.0
 70
     8
 71
     3
 72
    23
 73
    19
 74
     0
 42
0.000000001
 43
0.00000001
 40
0.0
 40
0.0
 40
0.0
 40
0.0
 40
0.0501662761727933
 40
0.1137483496514482
 40
0.1773056747677272
 40
0.2408499471515509
 40
0.304397243988235
 40
0.3668310083514209
 40
0.4292777226463126
 40
0.4916963342475514
 40
0.5541045517271332
 40
0.6177950670088467
 40
0.6815092242415653
 40
0.7452229065173499
 40
0.8089131822232574
 40
0.8725956845227815
 40
0.9362860795625805
 40
1.0
 40
1.0
 40
1.0
 40
1.0
 10
12.67170575203334
 20
25.36785027497612
 30
0.0
 10
13.50995707040706
 20
25.35719079450163
 30
0.0
 10
15.41063041777168
 20
25.33302120479682
 30
0.0
 10
18.37415649139304
 20
24.82148511427811
 30
0.0
 10
21.56015545378359
 20
23.92698555359538
 30
0.0
 10
24.7453580025972
 20
22.64432129511488
 30
0.0
 10
27.91181546950536
 20
21.01879754141298
 30
0.0
 10
31.06048852859028
 20
19.07886254558275
 30
0.0
 10
34.19094590583336
 20
16.86203159170499
 30
0.0
 10
37.31979842786234
 20
14.38900285538659
 30
0.0
 10
40.46927243527543
 20
11.67987600999395
 30
0.0
 10
43.64064183277385
 20
8.770671664206276
 30
0.0
 10
46.83465082710514
 20
5.703785161645016
 30
0.0
 10
50.02864347906727
 20
2.547103756733131
 30
0.0
 10
53.22125718246059
 20
-0.6508847523986052
 30
0.0
 10
56.41337427386178
 20
-3.835284090450129
 30
0.0
 10
59.60599614442904
 20
-6.970689974361958
 30
0.0
 10
61.73520099452182
 20
-8.959208521109403
 30
0.0
 10
62.80000000000008
 20
-9.953651385946701
 30
0.0
  0
SPLINE
  5
A2
330
1F
100
AcDbEntity
  8
외형선
  6
Continuous
 62
     1
370
    15
100
AcDbSpline
210
0.0
220
0.0
230
1.0
 70
     8
 71
     3
 72
    20
 73
    16
 74
     0
 42
0.000000001
 43
0.00000001
 40
0.0
 40
0.0
 40
0.0
 40
0.0
 40
0.0798761983513658
 40
0.1597224945146244
 40
0.2395590501910182
 40
0.3194060691167961
 40
0.3992836459054536
 40
0.4777332858135315
 40
0.5561510999269883
 40
0.6345618541138985
 40
0.712990349034736
 40
0.7930499726575295
 40
0.8730881120404584
 40
0.9531035403868514
 40
1.0
 40
1.0
 40
1.0
 40
1.0
 10
62.8
 20
9.955801243394967
 30
0.0
 10
61.73752226979687
 20
10.91785779928638
 30
0.0
 10
59.61296455502207
 20
12.8416107587748
 30
0.0
 10
56.42732565190688
 20
15.4840195841835
 30
0.0
 10
53.24217652606831
 20
17.89413038063533
 30
0.0
 10
50.0565024247383
 20
20.02027384925838
 30
0.0
 10
46.88835724736253
 20
21.8216109849729
 30
0.0
 10
43.73935061711487
 20
23.27605783400615
 30
0.0
 10
40.61076265129793
 20
24.36905590979494
 30
0.0
 10
37.48250722625218
 20
25.09289311767272
 30
0.0
 10
34.33215108699905
 20
25.43756965370306
 30
0.0
 10
31.15901971339218
 20
25.39421711437799
 30
0.0
 10
27.96558606915345
 20
24.93310778325243
 30
0.0
 10
25.21363269581268
 20
24.24999726531425
 30
0.0
 10
23.5259840045497
 20
23.57405595710826
 30
0.0
 10
22.90236434240877
 20
23.3242822379493
 30
0.0
  0
SPLINE
  5
A3
330
1F
100
AcDbEntity
  8
외형선
  6
Continuous
 62
     1
370
    15
100
AcDbSpline
210
0.0
220
0.0
230
1.0
 70
     8
 71
     3
 72
    19
 73
    15
 74
     0
 42
0.000000001
 43
0.00000001
 40
0.0
 40
0.0
 40
0.0
 40
0.0
 40
0.0849683561007415
 40
0.1699589651643272
 40
0.2549164929162072
 40
0.3398565729879373
 40
0.4248006958672803
 40
0.5082563519830081
 40
0.5917293183643942
 40
0.6751647196756401
 40
0.7585862270906668
 40
0.8437217910823582
 40
0.9288889574378206
 40
1.0
 40
1.0
 40
1.0
 40
1.0
 10
11.99999999999998
 20
-12.11254129397375
 30
0.0
 10
13.06213834050254
 20
-13.02773148883235
 30
0.0
 10
15.18669319241866
 20
-14.85835156417296
 30
0.0
 10
18.37415137165995
 20
-17.31879756969709
 30
0.0
 10
21.56015682615678
 20
-19.52131413125029
 30
0.0
 10
24.74535763082989
 20
-21.41312936068507
 30
0.0
 10
27.91181558140912
 20
-22.96029461454328
 30
0.0
 10
31.06048844684881
 20
-24.14435319201935
 30
0.0
 10
34.19094612202068
 20
-24.95543094964187
 30
0.0
 10
37.31979764529852
 20
-25.3876224312264
 30
0.0
 10
40.4692753742833
 20
-25.43795059204379
 30
0.0
 10
43.64063061300422
 20
-25.08343180073253
 30
0.0
 10
46.65896076737714
 20
-24.40876333623732
 30
0.0
 10
48.61271645309212
 20
-23.67492146115073
 30
0.0
 10
49.50173101683205
 20
-23.34100247670233
 30
0.0
  0
SPLINE
  5
A4
330
1F
100
AcDbEntity
  8
외형선
  6
Continuous
370
    15
100
AcDbSpline
210
0.0
220
0.0
230
1.0
 70
    24
 71
     3
 72
    36
 73
    32
 74
     0
 42
0.000000001
 43
0.00000001
 40
0.0
 40
0.0
 40
0.0
 40
0.0
 40
0.1249999999999996
 40
0.1249999999999996
 40
0.1562499999999996
 40
0.1562499999999996
 40
0.1874999999999996
 40
0.1874999999999996
 40
0.2499999999999997
 40
0.2499999999999997
 40
0.375
 40
0.375
 40
0.4375
 40
0.4375
 40
0.5
 40
0.5
 40
0.5625
 40
0.5625
 40
0.6249999999999999
 40
0.6249999999999999
 40
0.6875
 40
0.6875
 40
0.75
 40
0.75
 40
0.8125
 40
0.8125
 40
0.875
 40
0.875
 40
0.9375
 40
0.9375
 40
1.0
 40
1.0
 40
1.0
 40
1.0
 10
12.00000000000003
 20
7.708220996850889
 30
0.0
 10
12.00000000000004
 20
7.605319622636246
 30
0.0
 10
12.00000000000006
 20
7.379118952725115
 30
0.0
 10
12.00000000000004
 20
7.032201385490634
 30
0.0
 10
11.99999999999999
 20
6.959450781087469
 30
0.0
 10
12.0
 20
6.808833743948482
 30
0.0
 10
12.00000000000006
 20
6.729495705542584
 30
0.0
 10
12.00000000000004
 20
6.466912118938523
 30
0.0
 10
12.00000000000007
 20
6.263183588203685
 30
0.0
 10
12.00000000000004
 20
5.547175534788748
 30
0.0
 10
12.00000000000006
 20
4.928467203986886
 30
0.0
 10
12.00000000000003
 20
3.723333487224688
 30
0.0
 10
12.00000000000003
 20
3.275692034083268
 30
0.0
 10
12.00000000000001
 20
2.285975049790681
 30
0.0
 10
12.00000000000001
 20
1.743752283044826
 30
0.0
 10
12.00000000000006
 20
0.5730920623081045
 30
0.0
 10
12.00000000000004
 20
-0.0554282602969297
 30
0.0
 10
12.00000000000006
 20
-1.375631337745604
 30
0.0
 10
12.00000000000004
 20
-2.067246687392476
 30
0.0
 10
12.0
 20
-3.475200966106792
 30
0.0
 10
12.00000000000004
 20
-4.191281833678036
 30
0.0
 10
12.00000000000006
 20
-5.599155918935649
 30
0.0
 10
12.00000000000003
 20
-6.290569729593173
 30
0.0
 10
12.00000000000003
 20
-7.599478652405232
 30
0.0
 10
12.00000000000001
 20
-8.21663768969148
 30
0.0
 10
12.00000000000004
 20
-9.338199826270483
 30
0.0
 10
12.00000000000006
 20
-9.842458725876975
 30
0.0
 10
12.00000000000001
 20
-10.7178695671572
 30
0.0
 10
12.0
 20
-11.08909676981455
 30
0.0
 10
12.00000000000001
 20
-11.69758660901139
 30
0.0
 10
12.00000000000007
 20
-11.93505622906582
 30
0.0
 10
12.00000000000006
 20
-12.11254129397359
 30
0.0
  0
SPLINE
  5
A5
330
1F
100
AcDbEntity
  8
외형선
  6
Continuous
 62
     1
370
    15
100
AcDbSpline
210
0.0
220
0.0
230
1.0
 70
     8
 71
     3
 72
    23
 73
    19
 74
     0
 42
0.000000001
 43
0.00000001
 40
0.0
 40
0.0
 40
0.0
 40
0.0
 40
0.0024293839600446
 40
0.0691752732744601
 40
0.1359130202267451
 40
0.2026595137198067
 40
0.2694315514376033
 40
0.3350099343265741
 40
0.4005617130890268
 40
0.4661075902492951
 40
0.5316682974157124
 40
0.5985925134864839
 40
0.6654987702433623
 40
0.7323860421705908
 40
0.7992707679641188
 40
0.8661693971251703
 40
0.933093535632425
 40
1.0
 40
1.0
 40
1.0
 40
1.0
 10
59.72867766752546
 20
-25.39192556288879
 30
0.0
 10
59.69002222963211
 20
-25.3942474170096
 30
0.0
 10
58.58933146860204
 20
-25.46036084162742
 30
0.0
 10
56.42736710139998
 20
-25.2218414658699
 30
0.0
 10
53.24216541840305
 20
-24.64710952858174
 30
0.0
 10
50.05650540395831
 20
-23.63862416755549
 30
0.0
 10
46.88835646591045
 20
-22.27934907110476
 30
0.0
 10
43.73935082081856
 20
-20.58226359828905
 30
0.0
 10
40.61076261165245
 20
-18.5840205170888
 30
0.0
 10
37.48250718118892
 20
-16.30397102100247
 30
0.0
 10
34.33215130880363
 20
-13.75942873181759
 30
0.0
 10
31.15901885200334
 20
-10.98437470234354
 30
0.0
 10
27.96558928417616
 20
-8.016762230939557
 30
0.0
 10
24.77325605413003
 20
-4.9229032093196
 30
0.0
 10
21.58107758925842
 20
-1.750798979340897
 30
0.0
 10
18.38807589238638
 20
1.446963917587707
 30
0.0
 10
15.19364922542462
 20
4.629922007985792
 30
0.0
 10
13.06445601222906
 20
6.682211678090986
 30
0.0
 10
12.0
 20
7.708220996850919
 30
0.0
  0
LINE
  5
A6
330
1F
100
AcDbEntity
  8
외형선
  6
Continuous
 62
     1
370
    15
100
AcDbLine
 10
62.80000000000003
 20
-25.21356986424625
 30
0.0
 11
62.80000000000003
 21
-15.25830972392474
 31
0.0
  0
SPLINE
  5
A7
330
1F
100
AcDbEntity
  8
외형선
  6
Continuous
 62
     1
370
    15
100
AcDbSpline
210
0.0
220
0.0
230
1.0
 70
     8
 71
     3
 72
    50
 73
    46
 74
     0
 42
0.000000001
 43
0.00000001
 40
0.0
 40
0.0
 40
0.0
 40
0.0
 40
0.0624999999999992
 40
0.0624999999999992
 40
0.0937499999999992
 40
0.0937499999999992
 40
0.1249999999999992
 40
0.1249999999999992
 40
0.1874999999999983
 40
0.1874999999999983
 40
0.2187499999999983
 40
0.2187499999999983
 40
0.2499999999999983
 40
0.2499999999999983
 40
0.3124999999999975
 40
0.3124999999999975
 40
0.3749999999999968
 40
0.3749999999999968
 40
0.4062499999999964
 40
0.4062499999999964
 40
0.4374999999999963
 40
0.4374999999999963
 40
0.4999999999999967
 40
0.4999999999999967
 40
0.5312499999999966
 40
0.5312499999999966
 40
0.5624999999999966
 40
0.5624999999999966
 40
0.6249999999999968
 40
0.6249999999999968
 40
0.6874999999999971
 40
0.6874999999999971
 40
0.7187499999999976
 40
0.7187499999999976
 40
0.7499999999999979
 40
0.7499999999999979
 40
0.8124999999999987
 40
0.8124999999999987
 40
0.843749999999999
 40
0.843749999999999
 40
0.8749999999999993
 40
0.8749999999999993
 40
0.9374999999999997
 40
0.9374999999999997
 40
1.0
 40
1.0
 40
1.0
 40
1.0
 10
62.80000000000008
 20
-25.21356986424625
 30
0.0
 10
61.74495244054305
 20
-25.08608075626909
 30
0.0
 10
60.6821141939898
 20
-24.89249753016482
 30
0.0
 10
59.09477259826792
 20
-24.50607853119612
 30
0.0
 10
58.56783422016773
 20
-24.36143482655597
 30
0.0
 10
57.50973166010162
 20
-24.04025912131286
 30
0.0
 10
56.97948504330033
 20
-23.86378130543324
 30
0.0
 10
55.38981612919508
 20
-23.28815434188112
 30
0.0
 10
54.33556340233586
 20
-22.84342929276238
 30
0.0
 10
52.74602207386053
 20
-22.08779451685908
 30
0.0
 10
52.21573503791424
 20
-21.82127577048352
 30
0.0
 10
51.15738653149424
 20
-21.26055464466192
 30
0.0
 10
50.63043374898524
 20
-20.9665823504032
 30
0.0
 10
49.04347425361965
 20
-20.04320087415229
 30
0.0
 10
47.9805590400195
 20
-19.3726648282628
 30
0.0
 10
45.86965252122121
 20
-17.93759195526795
 30
0.0
 10
44.80770473389644
 20
-17.16993042790606
 30
0.0
 10
43.22000740458523
 20
-15.95562337887534
 30
0.0
 10
42.69302581345819
 20
-15.54079084726423
 30
0.0
 10
41.63518677064792
 20
-14.69043976882673
 30
0.0
 10
41.10498942479379
 20
-14.25507421664152
 30
0.0
 10
39.51521942103439
 20
-12.92217835763864
 30
0.0
 10
38.46091776574464
 20
-11.99916509526873
 30
0.0
 10
36.87153051178556
 20
-10.56912240645829
 30
0.0
 10
36.34121191074843
 20
-10.085080618317
 30
0.0
 10
35.28263504251899
 20
-9.105123419977224
 30
0.0
 10
34.75561023896343
 20
-8.609603759494442
 30
0.0
 10
33.16905918952962
 20
-7.105506051825221
 30
0.0
 10
32.10608484664898
 20
-6.079928884439636
 30
0.0
 10
29.99440177635729
 20
-4.00708590988967
 30
0.0
 10
28.9332959465784
 20
-2.955794480469842
 30
0.0
 10
27.34526927017956
 20
-1.372596815318306
 30
0.0
 10
26.81818685098366
 20
-0.8443788830505775
 30
0.0
 10
25.76062888171884
 20
0.2135984934527118
 30
0.0
 10
25.23048965586926
 20
0.7432465915832988
 30
0.0
 10
23.64064506404864
 20
2.329514982716505
 30
0.0
 10
22.58624555461577
 20
3.381887769439756
 30
0.0
 10
20.99703885549892
 20
4.945667345845849
 30
0.0
 10
20.466697545184
 20
5.464240895928438
 30
0.0
 10
19.40790991235982
 20
6.492982058083609
 30
0.0
 10
18.88075547510949
 20
7.002739458520897
 30
0.0
 10
17.29463919453724
 20
8.5188575351882
 30
0.0
 10
16.231623563463
 20
9.511762581780996
 30
0.0
 10
14.11919883301443
 20
11.43876471414214
 30
0.0
 10
13.05888641247274
 20
12.37620119686075
 30
0.0
 10
11.99999999999998
 20
13.27856862806646
 30
0.0
  0
SPLINE
  5
A8
330
1F
100
AcDbEntity
  8
외형선
  6
Continuous
370
    15
100
AcDbSpline
210
0.0
220
0.0
230
1.0
 70
    24
 71
     3
 72
    15
 73
    11
 74
     0
 42
0.000000001
 43
0.00000001
 40
0.0
 40
0.0
 40
0.0
 40
0.0
 40
0.1548967158178311
 40
0.2910026447735143
 40
0.4310556548893829
 40
0.5671615838450703
 40
0.707214593960942
 40
0.8433205229166244
 40
0.9833735330324939
 40
1.0
 40
1.0
 40
1.0
 40
1.0
 10
12.0
 20
24.81460799646631
 30
0.0
 10
12.00000000000001
 20
24.21424191187174
 30
0.0
 10
12.00000000000004
 20
23.08634118442954
 30
0.0
 10
12.00000000000006
 20
21.30851675312005
 30
0.0
 10
12.00000000000006
 20
19.59846761851426
 30
0.0
 10
12.00000000000007
 20
17.90350255906539
 30
0.0
 10
12.0
 20
16.29786928879235
 30
0.0
 10
11.99999999999999
 20
14.82418486298423
 30
0.0
 10
12.00000000000023
 20
13.84885608135417
 30
0.0
 10
12.00000000000001
 20
13.43408843530714
 30
0.0
 10
12.00000000000003
 20
13.39007424343872
 30
0.0
  0
SPLINE
  5
A9
330
1F
100
AcDbEntity
  8
외형선
  6
Continuous
 62
     1
370
    15
100
AcDbSpline
210
0.0
220
0.0
230
1.0
 70
     8
 71
     3
 72
    50
 73
    46
 74
     0
 42
0.000000001
 43
0.00000001
 40
0.0
 40
0.0
 40
0.0
 40
0.0
 40
0.0625000000000003
 40
0.0625000000000003
 40
0.0937500000000001
 40
0.0937500000000001
 40
0.1249999999999998
 40
0.1249999999999998
 40
0.1874999999999993
 40
0.1874999999999993
 40
0.218749999999999
 40
0.218749999999999
 40
0.2499999999999987
 40
0.2499999999999987
 40
0.312499999999999
 40
0.312499999999999
 40
0.3749999999999993
 40
0.3749999999999993
 40
0.406249999999999
 40
0.406249999999999
 40
0.4374999999999987
 40
0.4374999999999987
 40
0.4999999999999986
 40
0.4999999999999986
 40
0.5312499999999986
 40
0.5312499999999986
 40
0.5624999999999986
 40
0.5624999999999986
 40
0.6249999999999984
 40
0.6249999999999984
 40
0.6874999999999983
 40
0.6874999999999983
 40
0.7187499999999983
 40
0.7187499999999983
 40
0.7499999999999984
 40
0.7499999999999984
 40
0.8124999999999989
 40
0.8124999999999989
 40
0.843749999999999
 40
0.843749999999999
 40
0.8749999999999992
 40
0.8749999999999992
 40
0.9374999999999997
 40
0.9374999999999997
 40
1.0
 40
1.0
 40
1.0
 40
1.0
 10
62.8
 20
-15.25884354957528
 30
0.0
 10
61.74495244054293
 20
-14.4136881598478
 30
0.0
 10
60.68211419398972
 20
-13.52664997753744
 30
0.0
 10
59.09477259826792
 20
-12.1486342304811
 30
0.0
 10
58.5678342201677
 20
-11.6817288421368
 30
0.0
 10
57.50973166010151
 20
-10.73208480955659
 30
0.0
 10
56.97948504330027
 20
-10.24960274379915
 30
0.0
 10
55.38981612919514
 20
-8.783382639947321
 30
0.0
 10
54.33556340233575
 20
-7.782183671599499
 30
0.0
 10
52.7460220738605
 20
-6.251352106908014
 30
0.0
 10
52.21573503791427
 20
-5.736523416449931
 30
0.0
 10
51.1573865314943
 20
-4.700788386674603
 30
0.0
 10
50.63043374898527
 20
-4.18025215371006
 30
0.0
 10
49.04347425361971
 20
-2.609500012762792
 30
0.0
 10
47.98055904001951
 20
-1.551154741628845
 30
0.0
 10
45.86965252122116
 20
0.5631588107626111
 30
0.0
 10
44.80770473389644
 20
1.623766520198897
 30
0.0
 10
43.22000740458526
 20
3.202479572142878
 30
0.0
 10
42.69302581345819
 20
3.726232041523335
 30
0.0
 10
41.63518677064798
 20
4.769490266333645
 30
0.0
 10
41.10498942479381
 20
5.288772550267606
 30
0.0
 10
39.5152194210343
 20
6.834998788773037
 30
0.0
 10
38.46091776574464
 20
7.84890599559215
 30
0.0
 10
36.87153051178552
 20
9.337719047166965
 30
0.0
 10
36.34121191074836
 20
9.828387419510975
 30
0.0
 10
35.28263504251899
 20
10.79565671227247
 30
0.0
 10
34.75561023896348
 20
11.27189752543935
 30
0.0
 10
33.16905918952965
 20
12.67934996458446
 30
0.0
 10
32.10608484664895
 20
13.58852029164139
 30
0.0
 10
29.99440177635724
 20
15.32749340647111
 30
0.0
 10
28.93329594657831
 20
16.16072158189935
 30
0.0
 10
27.34526927017953
 20
17.34326660240226
 30
0.0
 10
26.81818685098361
 20
17.7258660177646
 30
0.0
 10
25.76062888171882
 20
18.46833913494918
 30
0.0
 10
25.23048965586922
 20
18.82810711636117
 30
0.0
 10
23.64064506404861
 20
19.86976501944111
 30
0.0
 10
22.58624555461572
 20
20.51306728511751
 30
0.0
 10
20.99703885549889
 20
21.39702297745192
 30
0.0
 10
20.46669754518397
 20
21.67802625031867
 30
0.0
 10
19.40790991235979
 20
22.21110757325986
 30
0.0
 10
18.88075547510945
 20
22.4630005935541
 30
0.0
 10
17.29463919453725
 20
23.17512366129051
 30
0.0
 10
16.23162356346296
 20
23.59139810140952
 30
0.0
 10
14.11919883301436
 20
24.29741741869287
 30
0.0
 10
13.05888641247274
 20
24.58846132732659
 30
0.0
 10
12.00000000000001
 20
24.81460799646631
 30
0.0
  0
LINE
  5
AA
330
1F
100
AcDbEntity
  8
외형선
  6
Continuous
 62
     1
370
    15
100
AcDbLine
 10
62.80000000000003
 20
-15.25884354957529
 30
0.0
 11
62.80000000000003
 21
-9.9536513859467
 31
0.0
  0
LINE
  5
AB
330
1F
100
AcDbEntity
  8
외형선
  6
Continuous
370
    15
100
AcDbLine
 10
12.0
 20
24.81460799646631
 30
0.0
 11
12.00000000000001
 21
25.40107492872389
 31
0.0
  0
LINE
  5
AC
330
1F
100
AcDbEntity
  8
외형선
  6
Continuous
 62
     1
370
    15
100
AcDbLine
 10
62.80000000000003
 20
-25.3989250712761
 30
0.0
 11
62.80000000000003
 21
-25.21356986424625
 31
0.0
  0
LINE
  5
AD
330
1F
100
AcDbEntity
  8
외형선
  6
Continuous
370
    15
100
AcDbLine
 10
12.0
 20
7.708220996850907
 30
0.0
 11
11.99999999999999
 21
13.27856862806647
 31
0.0
  0
SPLINE
  5
AE
330
1F
100
AcDbEntity
  8
외형선
  6
Continuous
 62
     1
370
    15
100
AcDbSpline
210
0.0
220
0.0
230
1.0
 70
     8
 71
     3
 72
    15
 73
    11
 74
     0
 42
0.000000001
 43
0.00000001
 40
0.0
 40
0.0
 40
0.0
 40
0.0
 40
0.0499957183751908
 40
0.1856917934324342
 40
0.321438238940347
 40
0.4571836725269164
 40
0.5928792371549945
 40
0.728558240121868
 40
0.864254058997233
 40
1.0
 40
1.0
 40
1.0
 40
1.0
 10
39.27175441717549
 20
25.35587862019723
 30
0.0
 10
39.66379740837591
 20
25.36758785235858
 30
0.0
 10
41.1199054213123
 20
25.41107774290163
 30
0.0
 10
43.64064456791152
 20
25.07606029875366
 30
0.0
 10
46.83465009411044
 20
24.35178163856963
 30
0.0
 10
50.02864367538758
 20
23.21724780373925
 30
0.0
 10
53.2212571298904
 20
21.7242664570105
 30
0.0
 10
56.41337428788157
 20
19.88211177684433
 30
0.0
 10
59.60599614092246
 20
17.7437774356777
 30
0.0
 10
61.73520099335281
 20
16.0886899547019
 30
0.0
 10
62.80000000000008
 20
15.2609934070232
 30
0.0
  0
LINE
  5
AF
330
1F
100
AcDbEntity
  8
외형선
  6
Continuous
 62
     1
370
    15
100
AcDbLine
 10
62.80000000000003
 20
9.955801243394966
 30
0.0
 11
62.80000000000003
 21
15.2609934070232
 31
0.0
  0
SPLINE
  5
B0
330
1F
100
AcDbEntity
  8
외형선
  6
Continuous
 62
     1
370
    15
100
AcDbSpline
210
0.0
220
0.0
230
1.0
 70
     8
 71
     3
 72
    14
 73
    10
 74
     0
 42
0.000000001
 43
0.00000001
 40
0.0
 40
0.0
 40
0.0
 40
0.0
 40
0.0933245004433081
 40
0.2444483977462759
 40
0.3955294132384025
 40
0.5466046776742527
 40
0.6977113462147055
 40
0.8488756337582648
 40
1.0
 40
1.0
 40
1.0
 40
1.0
 10
33.13123775105412
 20
-25.35151538407849
 30
0.0
 10
32.47376797387516
 20
-25.35537327775159
 30
0.0
 10
30.75163249139679
 20
-25.36547840472881
 30
0.0
 10
27.9655812880964
 20
-24.93075853434502
 30
0.0
 10
24.77325819625584
 20
-24.1023802554434
 30
0.0
 10
21.58107701535805
 20
-22.87795404989369
 30
0.0
 10
18.38807604550639
 20
-21.29162815904418
 30
0.0
 10
15.19364918715035
 20
-19.38784008624925
 30
0.0
 10
13.06445599947208
 20
-17.86608775335722
 30
0.0
 10
12.0
 20
-17.10531207089137
 30
0.0
  0
LINE
  5
B1
330
1F
100
AcDbEntity
  8
외형선
  6
Continuous
370
    15
100
AcDbLine
 10
12.0
 20
-17.10531207089137
 30
0.0
 11
11.99999999999999
 21
-12.11254129397376
 31
0.0
  0
SPLINE
  5
B2
330
1F
100
AcDbEntity
  8
외형선
  6
Continuous
 62
     1
370
    15
100
AcDbSpline
210
0.0
220
0.0
230
1.0
 70
     8
 71
     3
 72
    12
 73
     8
 74
     0
 42
0.000000001
 43
0.00000001
 40
0.0
 40
0.0
 40
0.0
 40
0.0
 40
0.2396415279376026
 40
0.4791933444693721
 40
0.7187159379634491
 40
0.9582699228998003
 40
1.0
 40
1.0
 40
1.0
 40
1.0
 10
62.8
 20
25.21571972169406
 30
0.0
 10
61.73752160722715
 20
25.30511514692476
 30
0.0
 10
59.61296256756091
 20
25.48387253161193
 30
0.0
 10
56.42733359787574
 20
25.25364125830652
 30
0.0
 10
53.24214673072366
 20
24.62218659208252
 30
0.0
 10
50.93381854850456
 20
23.96802958865148
 30
0.0
 10
49.68674187508934
 20
23.42387999541657
 30
0.0
 10
49.50173101683205
 20
23.34315233415012
 30
0.0
  0
LINE
  5
B3
330
1F
100
AcDbEntity
  8
외형선
  6
Continuous
 62
     1
370
    15
100
AcDbLine
 10
62.80000000000003
 20
15.25262747261771
 30
0.0
 11
62.80000000000003
 21
25.21571972169406
 31
0.0
  0
SPLINE
  5
B4
330
1F
100
AcDbEntity
  8
외형선
  6
Continuous
 62
     1
370
    15
100
AcDbSpline
210
0.0
220
0.0
230
1.0
 70
     8
 71
     3
 72
    11
 73
     7
 74
     0
 42
0.000000001
 43
0.00000001
 40
0.0
 40
0.0
 40
0.0
 40
0.0
 40
0.2922817649540878
 40
0.5846400776437567
 40
0.8768845942731517
 40
1.0
 40
1.0
 40
1.0
 40
1.0
 10
12.00000000000001
 20
-25.39003499331612
 30
0.0
 10
13.06213867117944
 20
-25.38077199398171
 30
0.0
 10
15.18669418453595
 20
-25.36224356936057
 30
0.0
 10
18.3741474026222
 20
-24.80843703437314
 30
0.0
 10
20.94581720492016
 20
-24.1362609659817
 30
0.0
 10
22.4550251940894
 20
-23.50827233137361
 30
0.0
 10
22.9023643424086
 20
-23.32213238050151
 30
0.0
  0
SPLINE
  5
B5
330
1F
100
AcDbEntity
  8
외형선
  6
Continuous
370
    15
100
AcDbSpline
210
0.0
220
0.0
230
1.0
 70
    24
 71
     3
 72
    13
 73
     9
 74
     0
 42
0.000000001
 43
0.00000001
 40
0.0
 40
0.0
 40
0.0
 40
0.0
 40
0.1763976790418531
 40
0.3786797010888102
 40
0.5752608563167974
 40
0.7775428783637497
 40
0.8882792815150684
 40
1.0
 40
1.0
 40
1.0
 40
1.0
 10
12.00000000000006
 20
-17.21682768626363
 30
0.0
 10
12.00000000000007
 20
-17.63850395924767
 30
0.0
 10
12.00000000000009
 20
-18.54373267811278
 30
0.0
 10
11.99999999999996
 20
-20.08936102663592
 30
0.0
 10
12.00000000000007
 20
-21.77444320947156
 30
0.0
 10
11.99999999999995
 20
-23.23888412315654
 30
0.0
 10
12.00000000000014
 20
-24.45229687937343
 30
0.0
 10
12.00000000000007
 20
-25.07653492460302
 30
0.0
 10
12.00000000000001
 20
-25.39003499331612
 30
0.0
  0
LINE
  5
B6
330
1F
100
AcDbEntity
  8
외형선
  6
Continuous
 62
     1
370
    15
100
AcDbLine
 10
62.80000000000003
 20
25.21571972169406
 30
0.0
 11
62.80000000000003
 21
25.40107492872389
 31
0.0
  0
LINE
  5
B7
330
1F
100
AcDbEntity
  8
외형선
  6
Continuous
370
    15
100
AcDbLine
 10
12.00000000000001
 20
-25.3989250712761
 30
0.0
 11
12.00000000000001
 21
-25.39003499331612
 31
0.0
  0
SPLINE
  5
B8
330
1F
100
AcDbEntity
  8
외형선
  6
Continuous
370
    15
100
AcDbSpline
210
0.0
220
0.0
230
1.0
 70
     8
 71
     3
 72
     8
 73
     4
 74
     0
 42
0.000000001
 43
0.00000001
 40
0.0
 40
0.0
 40
0.0
 40
0.0
 40
1.0
 40
1.0
 40
1.0
 40
1.0
 10
12.00000000000001
 20
24.81460799646631
 30
0.0
 10
11.66615833321114
 20
24.88590665520352
 30
0.0
 10
11.33267709160784
 20
24.95075207431196
 30
0.0
 10
10.99994277463186
 20
25.00909025117222
 30
0.0
  0
LINE
  5
B9
330
1F
100
AcDbEntity
  8
외형선
  6
Continuous
370
    15
100
AcDbLine
 10
10.99994277463186
 20
14.12110515155649
 30
0.0
 11
10.99994277463186
 21
25.00909161086577
 31
0.0
  0
SPLINE
  5
BA
330
1F
100
AcDbEntity
  8
외형선
  6
Continuous
370
    15
100
AcDbSpline
210
0.0
220
0.0
230
1.0
 70
     8
 71
     3
 72
     8
 73
     4
 74
     0
 42
0.000000001
 43
0.00000001
 40
0.0
 40
0.0
 40
0.0
 40
0.0
 40
1.0
 40
1.0
 40
1.0
 40
1.0
 10
11.99999999999998
 20
13.27856862806646
 30
0.0
 10
11.6661583332111
 20
13.56306358781028
 30
0.0
 10
11.33267709160783
 20
13.84401674941478
 30
0.0
 10
10.99994277463185
 20
14.12111322305253
 30
0.0
  0
SPLINE
  5
BB
330
1F
100
AcDbEntity
  8
외형선
  6
Continuous
370
    15
100
AcDbSpline
210
0.0
220
0.0
230
1.0
 70
     8
 71
     3
 72
     8
 73
     4
 74
     0
 42
0.000000001
 43
0.00000001
 40
0.0
 40
0.0
 40
0.0
 40
0.0
 40
1.0
 40
1.0
 40
1.0
 40
1.0
 10
12.00000000000001
 20
7.708220996850891
 30
0.0
 10
11.66615833321114
 20
8.026207746734164
 30
0.0
 10
11.33267709160784
 20
8.342083547042796
 30
0.0
 10
10.99994277463186
 20
8.655488166616747
 30
0.0
  0
LINE
  5
BC
330
1F
100
AcDbEntity
  8
외형선
  6
Continuous
370
    15
100
AcDbLine
 10
10.99994277463186
 20
-11.22383708248537
 30
0.0
 11
10.99994277463186
 21
8.655495471174502
 31
0.0
  0
SPLINE
  5
BD
330
1F
100
AcDbEntity
  8
외형선
  6
Continuous
370
    15
100
AcDbSpline
210
0.0
220
0.0
230
1.0
 70
     8
 71
     3
 72
     8
 73
     4
 74
     0
 42
0.000000001
 43
0.00000001
 40
0.0
 40
0.0
 40
0.0
 40
0.0
 40
1.0
 40
1.0
 40
1.0
 40
1.0
 10
11.99999999999998
 20
-12.11254129397375
 30
0.0
 10
11.6661583332111
 20
-11.81921765289022
 30
0.0
 10
11.33267709160783
 20
-11.52286181855799
 30
0.0
 10
10.99994277463185
 20
-11.2238283719929
 30
0.0
  0
SPLINE
  5
BE
330
1F
100
AcDbEntity
  8
외형선
  6
Continuous
370
    15
100
AcDbSpline
210
0.0
220
0.0
230
1.0
 70
     8
 71
     3
 72
     8
 73
     4
 74
     0
 42
0.000000001
 43
0.00000001
 40
0.0
 40
0.0
 40
0.0
 40
0.0
 40
1.0
 40
1.0
 40
1.0
 40
1.0
 10
12.00000000000001
 20
-17.10531207089139
 30
0.0
 10
11.66615833321114
 20
-16.85862397974533
 30
0.0
 10
11.33267709160784
 20
-16.60759359854514
 30
0.0
 10
10.99994277463186
 20
-16.35252715583145
 30
0.0
  0
LINE
  5
BF
330
1F
100
AcDbEntity
  8
외형선
  6
Continuous
370
    15
100
AcDbLine
 10
10.99994277463186
 20
-25.34386730531777
 30
0.0
 11
10.99994277463186
 21
-16.35252121096725
 31
0.0
  0
SPLINE
  5
C0
330
1F
100
AcDbEntity
  8
외형선
  6
Continuous
370
    15
100
AcDbSpline
210
0.0
220
0.0
230
1.0
 70
     8
 71
     3
 72
     8
 73
     4
 74
     0
 42
0.000000001
 43
0.00000001
 40
0.0
 40
0.0
 40
0.0
 40
0.0
 40
1.0
 40
1.0
 40
1.0
 40
1.0
 10
11.99999999999998
 20
-25.39003499331612
 30
0.0
 10
11.6661583332111
 20
-25.38120631197641
 30
0.0
 10
11.33267709160783
 20
-25.36580363924867
 30
0.0
 10
10.99994277463185
 20
-25.34386666632134
 30
0.0
  0
LINE
  5
C4
330
1F
100
AcDbEntity
  8
외형선
  6
Continuous
370
    15
100
AcDbLine
 10
-83.25
 20
-20.31892507127611
 30
0.0
 11
-83.25
 21
0.0010749287238949
 31
0.0
  0
SPLINE
  5
C5
330
1F
100
AcDbEntity
  8
외형선
  6
Continuous
370
    15
100
AcDbSpline
210
0.0
220
0.0
230
1.0
 70
    24
 71
     3
 72
    36
 73
    32
 74
     0
 42
0.000000001
 43
0.00000001
 40
0.0
 40
0.0
 40
0.0
 40
0.0
 40
0.0624999999999999
 40
0.0624999999999999
 40
0.1249999999999998
 40
0.1249999999999998
 40
0.1874999999999996
 40
0.1874999999999996
 40
0.2499999999999995
 40
0.2499999999999995
 40
0.3124999999999994
 40
0.3124999999999994
 40
0.3749999999999992
 40
0.3749999999999992
 40
0.4374999999999991
 40
0.4374999999999991
 40
0.499999999999999
 40
0.499999999999999
 40
0.5624999999999989
 40
0.5624999999999989
 40
0.6249999999999988
 40
0.6249999999999988
 40
0.7499999999999987
 40
0.7499999999999987
 40
0.8124999999999987
 40
0.8124999999999987
 40
0.8437499999999987
 40
0.8437499999999987
 40
0.8749999999999986
 40
0.8749999999999986
 40
1.0
 40
1.0
 40
1.0
 40
1.0
 10
12.00000000000004
 20
-12.11254129397358
 30
0.0
 10
12.00000000000001
 20
-11.93505622906588
 30
0.0
 10
12.0
 20
-11.69758660901156
 30
0.0
 10
12.00000000000001
 20
-11.08909676981505
 30
0.0
 10
12.0
 20
-10.71786956715793
 30
0.0
 10
12.00000000000006
 20
-9.842458725878242
 30
0.0
 10
12.00000000000001
 20
-9.338199826272065
 30
0.0
 10
11.99999999999996
 20
-8.216637689693743
 30
0.0
 10
11.99999999999998
 20
-7.599478652407861
 30
0.0
 10
11.99999999999999
 20
-6.290569729596531
 30
0.0
 10
12.0
 20
-5.599155918939358
 30
0.0
 10
11.99999999999999
 20
-4.191281833682381
 30
0.0
 10
12.0
 20
-3.47520096611142
 30
0.0
 10
12.0
 20
-2.067246687397534
 30
0.0
 10
12.0
 20
-1.375631337750824
 30
0.0
 10
12.00000000000001
 20
-0.0554282603023233
 30
0.0
 10
12.00000000000001
 20
0.5730920623026837
 30
0.0
 10
12.0
 20
1.743752283039477
 30
0.0
 10
12.00000000000001
 20
2.285975049785432
 30
0.0
 10
12.00000000000007
 20
3.275692034078286
 30
0.0
 10
12.0
 20
3.723333487219874
 30
0.0
 10
12.00000000000001
 20
4.928467203982658
 30
0.0
 10
12.00000000000004
 20
5.547175534784998
 30
0.0
 10
12.0
 20
6.263183588200627
 30
0.0
 10
12.00000000000001
 20
6.466912118935693
 30
0.0
 10
12.0
 20
6.729495705540084
 30
0.0
 10
12.00000000000003
 20
6.808833743946126
 30
0.0
 10
12.00000000000004
 20
6.959450781085165
 30
0.0
 10
12.00000000000004
 20
7.032201385488356
 30
0.0
 10
11.99999999999998
 20
7.379118952723065
 30
0.0
 10
12.0
 20
7.605319622634569
 30
0.0
 10
12.00000000000003
 20
7.708220996849951
 30
0.0
  0
SPLINE
  5
C6
330
1F
100
AcDbEntity
  8
외형선
  6
Continuous
370
    15
100
AcDbSpline
210
0.0
220
0.0
230
1.0
 70
    24
 71
     3
 72
    15
 73
    11
 74
     0
 42
0.000000001
 43
0.00000001
 40
0.0
 40
0.0
 40
0.0
 40
0.0
 40
0.1381849388583248
 40
0.2764213244607908
 40
0.4146577100632567
 40
0.5528940956657292
 40
0.6911304812682014
 40
0.8293668668706717
 40
0.967603252473142
 40
1.0
 40
1.0
 40
1.0
 40
1.0
 10
12.00000000000003
 20
13.39007424343872
 30
0.0
 10
12.0
 20
13.80614494313165
 30
0.0
 10
11.99999999999998
 20
14.63844124711861
 30
0.0
 10
12.00000000000006
 20
16.11709875740842
 30
0.0
 10
12.00000000000001
 20
17.70884228323654
 30
0.0
 10
12.0
 20
19.39115515863051
 30
0.0
 10
11.99999999999991
 20
21.10919084310071
 30
0.0
 10
11.99999999999995
 20
22.81458478033229
 30
0.0
 10
12.00000000000018
 20
24.04413989440892
 30
0.0
 10
11.99999999999999
 20
24.69166717366442
 30
0.0
 10
11.99999999999998
 20
24.81460799645816
 30
0.0
  0
SPLINE
  5
C7
330
1F
100
AcDbEntity
  8
외형선
  6
Continuous
370
    15
100
AcDbSpline
210
0.0
220
0.0
230
1.0
 70
    24
 71
     3
 72
    14
 73
    10
 74
     0
 42
0.000000001
 43
0.00000001
 40
0.0
 40
0.0
 40
0.0
 40
0.0
 40
0.0005193144106095
 40
0.2001531907886593
 40
0.3997870671667088
 40
0.5994209435447596
 40
0.79905481992281
 40
0.998688696300862
 40
1.0
 40
1.0
 40
1.0
 40
1.0
 10
11.99999999999999
 20
-25.39003499331611
 30
0.0
 10
12.0
 20
-25.38858904794398
 30
0.0
 10
12.00000000000422
 20
-24.83129548160813
 30
0.0
 10
11.99999999999813
 20
-23.69353698138631
 30
0.0
 10
12.00000000000055
 20
-21.97578295398739
 30
0.0
 10
11.99999999999994
 20
-20.28413719395353
 30
0.0
 10
11.99999999999943
 20
-18.6926735554321
 30
0.0
 10
12.00000000000136
 20
-17.65885252075094
 30
0.0
 10
11.99999999999996
 20
-17.21968356182316
 30
0.0
 10
11.99999999999999
 20
-17.21681768626363
 30
0.0
  0
LINE
  5
C8
330
1F
100
AcDbEntity
  8
중심선
 62
     1
100
AcDbLine
 10
-86.25
 20
0.0010749287238888
 30
0.0
 11
65.80000000000003
 21
0.0010749287239083
 31
0.0
  0
LINE
  5
C9
330
1F
100
AcDbEntity
  8
참조1
100
AcDbLine
 10
31.05000000000005
 20
0.0010749287238892
 30
0.0
 11
31.05000000000005
 21
-39.99892507127611
 31
0.0
  0
LINE
  5
CA
330
1F
100
AcDbEntity
  8
참조1
100
AcDbLine
 10
31.05000000000005
 20
-39.99892507127611
 30
0.0
 11
-9.508856814308633
 21
-39.9989250712761
 31
0.0
  0
CIRCLE
  5
CB
330
1F
100
AcDbEntity
  8
해칭선
100
AcDbCircle
 10
0.0
 20
0.0
 30
0.0
 40
3.000000000000004
  0
INSERT
  5
CC
330
1F
100
AcDbEntity
  8
0
  6
Continuous
 62
     7
100
AcDbBlockReference
 66
     1
  2
블럭10
 10
-24.1652729321252
 20
-52.04609937292004
 30
0.0
  0
ATTRIB
  5
CD
330
CC
100
AcDbEntity
  8
FORMAT
 62
     2
100
AcDbText
 10
-33.34656822086648
 20
-49.97073246008785
 30
0.0
 40
4.233333333333333
  1
E2100200 [ 6 FLUTE ]
 41
0.75
  7
SLDTEXTSTYLE0
 11
-33.34656822086648
 21
-52.08739912675452
 31
0.0
100
AcDbAttribute
  2
AUTOATTR0
 70
     0
 74
     1
  0
SEQEND
  5
CE
330
CC
100
AcDbEntity
  8
0
  6
Continuous
 62
     7
  0
HATCH
  5
CF
330
1F
100
AcDbEntity
  8
중심선
100
AcDbHatch
 10
0.0
 20
0.0
 30
0.0
210
0.0
220
0.0
230
1.0
  2
SOLID
 70
     1
 71
     0
 91
        1
 92
        0
 93
        4
 72
     1
 10
-18.45036362774436
 20
-35.7989250712761
 11
-21.89663887158164
 21
-35.7989250712761
 72
     1
 10
-21.89663887158164
 20
-35.7989250712761
 11
-24.02486873078566
 21
-38.3352506518487
 72
     1
 10
-24.02486873078566
 20
-38.3352506518487
 11
-20.57856040183523
 21
-38.33521122254621
 72
     1
 10
-20.57856040183523
 20
-38.33521122254621
 11
-18.45036362774436
 21
-35.7989250712761
 97
        0
 75
     0
 76
     1
 98
        1
 10
-41.27500000000003
 20
0.0
  0
HATCH
  5
D0
330
1F
100
AcDbEntity
  8
중심선
100
AcDbHatch
 10
0.0
 20
0.0
 30
0.0
210
0.0
220
0.0
230
1.0
  2
SOLID
 70
     1
 71
     0
 91
        1
 92
        0
 93
        4
 72
     1
 10
-13.43759963670835
 20
-35.7989250712761
 11
-16.88387488054563
 21
-35.79892507127608
 72
     1
 10
-16.88387488054563
 20
-35.79892507127608
 11
-21.41501288890307
 21
-41.19892507127612
 72
     1
 10
-21.41501288890307
 20
-41.19892507127612
 11
-17.96873764506579
 21
-41.19892507127612
 72
     1
 10
-17.96873764506579
 20
-41.19892507127612
 11
-13.43759963670835
 21
-35.7989250712761
 97
        0
 75
     0
 76
     1
 98
        1
 10
-41.27500000000003
 20
0.0
  0
HATCH
  5
D1
330
1F
100
AcDbEntity
  8
중심선
100
AcDbHatch
 10
0.0
 20
0.0
 30
0.0
210
0.0
220
0.0
230
1.0
  2
SOLID
 70
     1
 71
     0
 91
        1
 92
        0
 93
        4
 72
     1
 10
-8.424835645672509
 20
-35.7989250712761
 11
-11.87111088950957
 21
-35.79892507127608
 72
     1
 10
-11.87111088950957
 20
-35.79892507127608
 11
-18.91954779139887
 21
-44.19892507127612
 72
     1
 10
-18.91954779139887
 20
-44.19892507127612
 11
-15.47327254756159
 21
-44.19892507127612
 72
     1
 10
-15.47327254756159
 20
-44.19892507127612
 11
-8.424835645672509
 21
-35.7989250712761
 97
        0
 75
     0
 76
     1
 98
        1
 10
-41.27500000000003
 20
0.0
  0
HATCH
  5
D2
330
1F
100
AcDbEntity
  8
중심선
100
AcDbHatch
 10
0.0
 20
0.0
 30
0.0
210
0.0
220
0.0
230
1.0
  2
SOLID
 70
     1
 71
     0
 91
        1
 92
        0
 93
        6
 72
     3
 10
-3.624945214660308
 20
-39.99892507132738
 11
3.960054785062283
 21
1.540882976769353E-10
 40
0.3939339440162628
 50
17.09539180608436
 51
320.0019657685081
 73
     0
 72
     1
 10
-1.941945558959709
 20
-38.58681907591441
 11
0.3633563147413523
 21
-36.65249236586649
 72
     3
 10
-3.624945214713158
 20
-39.99892507127625
 11
6.600054785286829
 21
-1.278976924368180E-13
 40
0.636358354079598
 50
39.99873849337385
 51
368.4976242363724
 73
     1
 72
     1
 10
2.800387277187454
 20
-39.03892507120613
 11
-4.944877907877235
 21
-39.0389250712061
 72
     1
 10
-4.944877907877235
 20
-39.0389250712061
 11
-4.944902952323169
 21
-40.95892507120602
 72
     1
 10
-4.944902952323169
 20
-40.95892507120602
 11
-0.5035231828511257
 21
-40.95892507120599
 97
        0
 75
     0
 76
     1
 98
        1
 10
-41.27500000000003
 20
0.0
  0
DIMENSION
  5
E6
330
1F
100
AcDbEntity
  8
치수문자_일반주서
100
AcDbDimension
  2
_D_1
 10
12.00000000000001
 20
47.75570626228483
 30
0.0
 11
37.40000000000002
 21
47.75570626228483
 31
0.0
 70
   160
  1
<>
 71
     2
 42
50.80000000000001
  3
SLDDIMSTYLE0
100
AcDbAlignedDimension
 13
62.80000000000003
 23
25.21571972169406
 33
0.0
 14
12.00000000000001
 24
25.40107492872389
 34
0.0
 50
-0.0000000000000321
100
AcDbRotatedDimension
1001
ACAD
1000
DSTYLE
1002
{
1070
   171
1070
     6
1070
   273
1070
     7
1002
}
  0
DIMENSION
  5
F9
330
1F
100
AcDbEntity
  8
치수문자_일반주서
100
AcDbDimension
  2
_D_2
 10
-83.25000000000001
 20
59.75570626228483
 30
0.0
 11
-10.22499999999999
 21
59.75570626228483
 31
0.0
 70
   160
  1
<>
 71
     2
 42
146.05
  3
SLDDIMSTYLE0
100
AcDbAlignedDimension
 13
62.80000000000003
 23
25.21571972169406
 33
0.0
 14
-83.25
 24
20.32107492872391
 34
0.0
 50
0.0000000000000028
100
AcDbRotatedDimension
1001
ACAD
1000
DSTYLE
1002
{
1070
   171
1070
     6
1070
   273
1070
     7
1002
}
  0
DIMENSION
  5
10D
330
1F
100
AcDbEntity
  8
치수문자_일반주서
100
AcDbDimension
  2
_D_3
 10
87.92171318971506
 20
-25.398925071276
 30
0.0
 11
87.92171318971472
 21
76.33945338898924
 31
0.0
 70
   160
  1
%%c<>
 71
     2
 42
50.79999999999998
 52
-270.0
  3
SLDDIMSTYLE0
100
AcDbAlignedDimension
 13
62.80000000000003
 23
25.40107492872389
 33
0.0
 14
62.80000000000003
 24
-25.3989250712761
 34
0.0
 50
90.0000000000002
100
AcDbRotatedDimension
1001
ACAD
1000
DSTYLE
1002
{
1070
   171
1070
     6
1070
   273
1070
     7
1002
}
  0
LINE
  5
120
330
1F
100
AcDbEntity
  8
참조1
100
AcDbLine
 10
88.46348381534564
 20
7.441074928723896
 30
0.0
 11
88.46348381534564
 21
-7.438925071276109
 31
0.0
  0
LINE
  5
121
330
1F
100
AcDbEntity
  8
참조1
100
AcDbLine
 10
101.1634838153456
 20
5.441074928723896
 30
0.0
 11
88.46348381534564
 21
5.441074928723896
 31
0.0
  0
SOLID
  5
122
330
1F
100
AcDbEntity
  8
참조1
100
AcDbTrace
 10
88.46348381534564
 20
5.441074928723896
 30
0.0
 11
94.81348381534563
 21
4.425074928723896
 31
0.0
 12
94.81348381534563
 22
6.457074928723896
 32
0.0
 13
94.81348381534563
 23
6.457074928723896
 33
0.0
  0
LINE
  5
123
330
1F
100
AcDbEntity
  8
참조1
100
AcDbLine
 10
101.1634838153456
 20
-5.438925071276109
 30
0.0
 11
88.46348381534564
 21
-5.438925071276109
 31
0.0
  0
SOLID
  5
124
330
1F
100
AcDbEntity
  8
참조1
100
AcDbTrace
 10
88.46348381534564
 20
-5.438925071276109
 30
0.0
 11
94.81348381534563
 21
-6.454925071276109
 31
0.0
 12
94.81348381534563
 22
-4.422925071276109
 32
0.0
 13
94.81348381534563
 23
-4.422925071276109
 33
0.0
  0
MTEXT
  5
125
330
1F
100
AcDbEntity
  8
참조1
100
AcDbMText
 10
97.8609739078159
 20
10.98929157337383
 30
0.0
 40
3.5
 41
0.0
 71
     1
 72
     1
  1
A
  7
SLDTEXTSTYLE0
 73
     1
 44
1.0
  0
MTEXT
  5
126
330
1F
100
AcDbEntity
  8
참조1
100
AcDbMText
 10
97.8609739078159
 20
0.1092915733738251
 30
0.0
 40
3.5
 41
0.0
 71
     1
 72
     1
  1
A
  7
SLDTEXTSTYLE0
 73
     1
 44
1.0
  0
INSERT
  5
12D
330
1F
100
AcDbEntity
  8
해칭선
100
AcDbBlockReference
  2
SW_DOWELSYMBOL_0
 10
0.0
 20
0.0
 30
0.0
  0
LINE
  5
245
330
1F
100
AcDbEntity
  8
외형선
  6
Continuous
370
    15
100
AcDbLine
 10
8.949890311373707
 20
25.4010749287239
 30
0.0
 11
-28.18279999999999
 21
25.4010749287239
 31
0.0
  0
LINE
  5
246
330
1F
100
AcDbEntity
  8
외형선
  6
Continuous
370
    15
100
AcDbLine
 10
-82.24999999999999
 20
-25.3989250712761
 30
0.0
 11
-73.725
 21
-25.3989250712761
 31
0.0
  0
LINE
  5
247
330
1F
100
AcDbEntity
  8
외형선
  6
Continuous
370
    15
100
AcDbLine
 10
-83.24999999999999
 20
-24.3989250712761
 30
0.0
 11
-82.24999999999999
 21
-25.3989250712761
 31
0.0
  0
LINE
  5
256
330
1F
100
AcDbEntity
  8
외형선
  6
Continuous
370
    15
100
AcDbLine
 10
-82.24999999999999
 20
19.86387492872392
 30
0.0
 11
-82.24999999999999
 21
-25.3989250712761
 31
0.0
  0
LINE
  5
258
330
1F
100
AcDbEntity
  8
외형선
  6
Continuous
370
    15
100
AcDbLine
 10
-83.24999999999999
 20
19.86387492872392
 30
0.0
 11
-83.24999999999999
 21
-24.3989250712761
 31
0.0
  0
DIMENSION
  5
27D
330
1F
100
AcDbEntity
  8
치수문자_일반주서
100
AcDbDimension
  2
*D11
 10
-95.74999999999991
 20
-25.39892507127615
 30
0.0
 11
-95.75
 21
0.0010749287239236
 31
0.0
 70
   160
  1
%%c<>
 71
     2
 42
50.80000000000001
 52
-270.0
  3
SLDDIMSTYLE0
100
AcDbAlignedDimension
 13
-82.24999999999999
 23
25.40107492872392
 33
0.0
 14
-82.24999999999999
 24
-25.3989250712761
 34
0.0
 50
90.0000000000002
100
AcDbRotatedDimension
1001
ACAD
1000
DSTYLE
1002
{
1070
   171
1070
     6
1070
   273
1070
     7
1002
}
  0
LINE
  5
283
330
1F
100
AcDbEntity
  8
외형선
  6
Continuous
370
    15
100
AcDbLine
 10
-47.69
 20
-14.8238238891433
 30
0.0
 11
-47.69
 21
14.82597374659109
 31
0.0
  0
LINE
  5
284
330
1F
100
AcDbEntity
  8
외형선
  6
Continuous
370
    15
100
AcDbLine
 10
-47.69
 20
14.82597374659109
 30
0.0
 11
-29.90999999999997
 21
14.82597374659109
 31
0.0
  0
LINE
  5
285
330
1F
100
AcDbEntity
  8
외형선
  6
Continuous
370
    15
100
AcDbLine
 10
-47.69
 20
-14.8238238891433
 30
0.0
 11
-29.90999999999997
 21
-14.8238238891433
 31
0.0
  0
LINE
  5
286
330
1F
100
AcDbEntity
  8
외형선
  6
Continuous
370
    15
100
AcDbLine
 10
-29.90999999999997
 20
14.82597374659109
 30
0.0
 11
-29.90999999999997
 21
-14.8238238891433
 31
0.0
  0
SPLINE
  5
287
330
1F
100
AcDbEntity
  8
외형선
  6
Continuous
370
    15
100
AcDbSpline
210
0.0
220
0.0
230
1.0
 70
  1064
 71
     3
 72
     9
 73
     5
 74
     3
 42
0.000000001
 43
0.0000000001
 44
0.0
 40
0.0
 40
0.0
 40
0.0
 40
0.0
 40
15.44052883416385
 40
30.88105766832773
 40
30.88105766832773
 40
30.88105766832773
 40
30.88105766832773
 10
-47.69
 20
14.82597374659109
 30
0.0
 10
-49.84825773012895
 20
9.88434080730203
 30
0.0
 10
-54.16477319038685
 20
0.0010749287239005
 30
0.0
 10
-49.84825773012895
 20
-9.88219094985423
 30
0.0
 10
-47.69
 20
-14.8238238891433
 30
0.0
 11
-47.69
 21
14.82597374659109
 31
0.0
 11
-52.0065154602579
 21
0.0010749287239094
 31
0.0
 11
-47.69
 21
-14.8238238891433
 31
0.0
  0
SPLINE
  5
288
330
1F
100
AcDbEntity
  8
외형선
  6
Continuous
370
    15
100
AcDbSpline
210
0.0
220
0.0
230
1.0
 70
  1064
 71
     3
 72
     9
 73
     5
 74
     3
 42
0.000000001
 43
0.0000000001
 44
0.0
 40
0.0
 40
0.0
 40
0.0
 40
0.0
 40
15.44052883416385
 40
30.88105766832773
 40
30.88105766832773
 40
30.88105766832773
 40
30.88105766832773
 10
-29.90999999999997
 20
14.82597374659109
 30
0.0
 10
-27.75174226987102
 20
9.88434080730203
 30
0.0
 10
-23.43522680961311
 20
0.0010749287238996
 30
0.0
 10
-27.75174226987101
 20
-9.882190949854229
 30
0.0
 10
-29.90999999999997
 20
-14.8238238891433
 30
0.0
 11
-29.90999999999997
 21
14.82597374659109
 31
0.0
 11
-25.59348453974206
 21
0.0010749287239094
 31
0.0
 11
-29.90999999999997
 21
-14.8238238891433
 31
0.0
  0
LINE
  5
289
330
1F
100
AcDbEntity
  8
외형선
  6
Continuous
370
    15
100
AcDbLine
 10
-61.02500000000001
 20
25.4010749287239
 30
0.0
 11
-61.02500000000001
 21
-25.3989250712761
 31
0.0
  0
LINE
  5
28A
330
1F
100
AcDbEntity
  8
외형선
  6
Continuous
370
    15
100
AcDbLine
 10
-73.725
 20
19.86387492872392
 30
0.0
 11
-73.725
 21
-25.3989250712761
 31
0.0
  0
LINE
  5
28B
330
1F
100
AcDbEntity
  8
외형선
  6
Continuous
370
    15
100
AcDbLine
 10
-61.02500000000001
 20
-25.3989250712761
 30
0.0
 11
8.949890311373707
 21
-25.39892507127608
 31
0.0
  0
LINE
  5
28C
330
1F
100
AcDbEntity
  8
외형선
  6
Continuous
370
    15
100
AcDbLine
 10
-61.02500000000001
 20
25.02007492872389
 30
0.0
 11
-61.02500000000001
 21
-25.01792507127611
 31
0.0
  0
LINE
  5
28D
330
1F
100
AcDbEntity
  8
외형선
  6
Continuous
370
    15
100
AcDbLine
 10
-61.02500000000001
 20
25.02007492872389
 30
0.0
 11
-61.5968037668174
 21
25.02007492872389
 31
0.0
  0
LINE
  5
28E
330
1F
100
AcDbEntity
  8
외형선
  6
Continuous
370
    15
100
AcDbLine
 10
-61.02500000000001
 20
-25.0179250712761
 30
0.0
 11
-73.725
 21
-25.0179250712761
 31
0.0
  0
LINE
  5
28F
330
1F
100
AcDbEntity
  8
외형선
  6
Continuous
370
    15
100
AcDbLine
 10
-48.45199999999997
 20
22.9118749287239
 30
0.0
 11
-30.67199999999997
 21
22.9118749287239
 31
0.0
  0
LINE
  5
290
330
1F
100
AcDbEntity
  8
외형선
  6
Continuous
370
    15
100
AcDbLine
 10
-48.45199999999997
 20
22.9118749287239
 30
0.0
 11
-50.94119999999998
 21
25.4010749287239
 31
0.0
  0
LINE
  5
291
330
1F
100
AcDbEntity
  8
외형선
  6
Continuous
370
    15
100
AcDbLine
 10
-30.67199999999997
 20
22.9118749287239
 30
0.0
 11
-28.18279999999999
 21
25.4010749287239
 31
0.0
  0
LINE
  5
293
330
1F
100
AcDbEntity
  8
외형선
  6
Continuous
370
    15
100
AcDbLine
 10
-62.09179999999998
 20
23.07312647568634
 30
0.0
 11
-62.09179999999998
 21
-6.9409650436275
 31
0.0
  0
LINE
  5
294
330
1F
100
AcDbEntity
  8
외형선
  6
Continuous
370
    15
100
AcDbLine
 10
-82.24999999999999
 20
19.86387492872392
 30
0.0
 11
-82.24999999999999
 21
-25.3989250712761
 31
0.0
  0
LINE
  5
295
330
1F
100
AcDbEntity
  8
외형선
  6
Continuous
370
    15
100
AcDbLine
 10
-67.92357134821705
 20
19.86387492872392
 30
0.0
 11
-83.24999999999999
 21
19.86387492872392
 31
0.0
  0
ARC
  5
296
330
1F
100
AcDbEntity
  8
외형선
  6
Continuous
370
    15
100
AcDbCircle
 10
-67.17179999999999
 20
25.4010749287239
 30
0.0
 40
5.588
100
AcDbArc
 50
262.2683738127862
 51
356.0904364753407
  0
LINE
  5
297
330
1F
100
AcDbEntity
  8
외형선
  6
Continuous
370
    15
100
AcDbLine
 10
-71.87515845852457
 20
19.86387492872392
 30
0.0
 11
-71.87515845852457
 21
-6.9409650436275
 31
0.0
  0
ARC
  5
298
330
1F
100
AcDbEntity
  8
외형선
  6
Continuous
370
    15
100
AcDbCircle
 10
-66.98347922926229
 20
-6.9409650436275
 30
0.0
 40
4.891679229262294
100
AcDbArc
 50
180.0
 51
0.0
  0
LINE
  5
2C9
330
1F
100
AcDbEntity
  8
외형선
  6
Continuous
370
    15
100
AcDbLine
 10
-50.94119999999997
 20
25.40107492872389
 30
0.0
 11
-61.02500000000001
 21
25.40107492872389
 31
0.0
  0
LINE
  5
2CA
330
1F
100
AcDbEntity
  8
외형선
  6
Continuous
370
    15
100
AcDbLine
 10
-61.02500000000001
 20
-25.3989250712761
 30
0.0
 11
12.00000000000001
 21
-25.3989250712761
 31
0.0
  0
ENDSEC
  0
SECTION
  2
OBJECTS
  0
DICTIONARY
  5
C
330
0
100
AcDbDictionary
281
     1
  3
ACAD_GROUP
350
D
  3
ACAD_IMAGE_VARS
350
151
  3
ACAD_LAYOUT
350
1A
  3
ACAD_MLINESTYLE
350
17
  3
ACAD_PLOTSETTINGS
350
19
  3
ACAD_PLOTSTYLENAME
350
E
  3
ACAD_SCALELIST
350
47
  3
APPDATA
350
14F
  3
DWGPROPS
350
2EE
  0
DICTIONARY
  5
D
102
{ACAD_REACTORS
330
C
102
}
330
C
100
AcDbDictionary
281
     1
  0
RASTERVARIABLES
  5
151
102
{ACAD_REACTORS
330
C
102
}
330
C
100
AcDbRasterVariables
 90
        0
 70
     1
 71
     1
 72
     1
  0
DICTIONARY
  5
1A
102
{ACAD_REACTORS
330
C
102
}
330
C
100
AcDbDictionary
281
     1
  3
Layout1
350
1E
  3
Layout2
350
26
  3
Model
350
22
  0
DICTIONARY
  5
17
102
{ACAD_REACTORS
330
C
102
}
330
C
100
AcDbDictionary
281
     1
  3
Standard
350
18
  0
DICTIONARY
  5
19
102
{ACAD_REACTORS
330
C
102
}
330
C
100
AcDbDictionary
281
     1
  0
ACDBDICTIONARYWDFLT
  5
E
102
{ACAD_REACTORS
330
C
102
}
330
C
100
AcDbDictionary
281
     1
  3
Normal
350
F
100
AcDbDictionaryWithDefault
340
F
  0
DICTIONARY
  5
47
102
{ACAD_REACTORS
330
C
102
}
330
C
100
AcDbDictionary
281
     1
  3
A0
350
48
  3
A1
350
49
  3
A2
350
4A
  3
A3
350
4B
  3
A4
350
4C
  3
A5
350
4D
  3
A6
350
4E
  3
A7
350
4F
  3
A8
350
50
  3
A9
350
51
  3
B0
350
52
  3
B1
350
53
  3
B2
350
54
  3
B3
350
55
  3
B4
350
56
  3
B5
350
57
  3
B6
350
58
  3
B7
350
59
  3
B8
350
5A
  3
B9
350
5B
  3
C0
350
5C
  3
C1
350
5D
  3
C2
350
5E
  3
C3
350
5F
  3
C4
350
60
  3
C5
350
61
  3
C6
350
62
  3
C7
350
63
  3
C8
350
64
  3
C9
350
65
  3
D0
350
66
  3
D1
350
67
  3
D2
350
68
  0
DICTIONARY
  5
14F
102
{ACAD_REACTORS
330
C
102
}
330
C
100
AcDbDictionary
281
     1
  0
XRECORD
  5
2EE
102
{ACAD_REACTORS
330
C
102
}
330
C
100
AcDbXrecord
280
     1
  1
DWGPROPS COOKIE
  2

  3

  4

  6

  7

  8
12016016
  9

300
=
301
=
302
=
303
=
304
=
305
=
306
=
307
=
308
=
309
=
 40
0.0
 41
2458323.06377978
 42
2458323.362072315
  1

 90
        0
  0
LAYOUT
  5
1E
102
{ACAD_REACTORS
330
1A
102
}
330
1A
100
AcDbPlotSettings
  1

  2
none_device
  4

  6

 40
0.0
 41
0.0
 42
0.0
 43
0.0
 44
0.0
 45
0.0
 46
0.0
 47
0.0
 48
0.0
 49
0.0
140
0.0
141
0.0
142
1.0
143
1.0
 70
   688
 72
     1
 73
     0
 74
     5
  7

 75
    16
147
1.0
148
0.0
149
0.0
100
AcDbLayout
  1
Layout1
 70
     1
 71
     1
 10
0.0
 20
0.0
 11
420.0
 21
297.0
 12
0.0
 22
0.0
 32
0.0
 14
1.000000000000000E+20
 24
1.000000000000000E+20
 34
1.000000000000000E+20
 15
-1.000000000000000E+20
 25
-1.000000000000000E+20
 35
-1.000000000000000E+20
146
0.0
 13
0.0
 23
0.0
 33
0.0
 16
1.0
 26
0.0
 36
0.0
 17
0.0
 27
1.0
 37
0.0
 76
     0
330
1B
  0
LAYOUT
  5
26
102
{ACAD_REACTORS
330
1A
102
}
330
1A
100
AcDbPlotSettings
  1

  2
none_device
  4

  6

 40
0.0
 41
0.0
 42
0.0
 43
0.0
 44
0.0
 45
0.0
 46
0.0
 47
0.0
 48
0.0
 49
0.0
140
0.0
141
0.0
142
1.0
143
1.0
 70
   688
 72
     1
 73
     0
 74
     5
  7

 75
    16
147
1.0
148
0.0
149
0.0
100
AcDbLayout
  1
Layout2
 70
     1
 71
     2
 10
0.0
 20
0.0
 11
0.0
 21
0.0
 12
0.0
 22
0.0
 32
0.0
 14
0.0
 24
0.0
 34
0.0
 15
0.0
 25
0.0
 35
0.0
146
0.0
 13
0.0
 23
0.0
 33
0.0
 16
1.0
 26
0.0
 36
0.0
 17
0.0
 27
1.0
 37
0.0
 76
     0
330
23
  0
LAYOUT
  5
22
102
{ACAD_REACTORS
330
1A
102
}
330
1A
100
AcDbPlotSettings
  1

  2
none_device
  4
ANSI_A_(11.00_x_8.50_Inches)
  6

 40
6.35
 41
19.05
 42
6.35000508
 43
19.05000254
 44
279.4
 45
215.9
 46
62.28243294049711
 47
73.07021391816443
 48
0.0
 49
0.0
140
0.0
141
0.0
142
0.0425057914709504
143
1.0
 70
  1696
 72
     0
 73
     0
 74
     0
  7

 75
     0
147
0.0235690232323232
148
0.0
149
0.0
100
AcDbLayout
  1
Model
 70
     1
 71
     0
 10
0.0
 20
0.0
 11
420.0
 21
297.0
 12
0.0
 22
0.0
 32
0.0
 14
-100.125
 24
-49.97073246008785
 34
0.0
 15
101.1634838153456
 25
87.71445338898924
 35
0.0
146
0.0
 13
0.0
 23
0.0
 33
0.0
 16
1.0
 26
0.0
 36
0.0
 17
0.0
 27
1.0
 37
0.0
 76
     0
330
1F
331
29
  0
MLINESTYLE
  5
18
102
{ACAD_REACTORS
330
17
102
}
330
17
100
AcDbMlineStyle
  2
Standard
 70
     0
  3

 62
   256
 51
90.0
 52
90.0
 71
     2
 49
0.5
 62
   256
  6
BYLAYER
 49
-0.5
 62
   256
  6
BYLAYER
  0
ACDBPLACEHOLDER
  5
F
102
{ACAD_REACTORS
330
E
102
}
330
E
  0
SCALE
  5
48
102
{ACAD_REACTORS
330
47
102
}
330
47
100
AcDbScale
 70
     0
300
1:1
140
1.0
141
1.0
290
     1
  0
SCALE
  5
49
102
{ACAD_REACTORS
330
47
102
}
330
47
100
AcDbScale
 70
     0
300
1:2
140
1.0
141
2.0
290
     0
  0
SCALE
  5
4A
102
{ACAD_REACTORS
330
47
102
}
330
47
100
AcDbScale
 70
     0
300
1:4
140
1.0
141
4.0
290
     0
  0
SCALE
  5
4B
102
{ACAD_REACTORS
330
47
102
}
330
47
100
AcDbScale
 70
     0
300
1:5
140
1.0
141
5.0
290
     0
  0
SCALE
  5
4C
102
{ACAD_REACTORS
330
47
102
}
330
47
100
AcDbScale
 70
     0
300
1:8
140
1.0
141
8.0
290
     0
  0
SCALE
  5
4D
102
{ACAD_REACTORS
330
47
102
}
330
47
100
AcDbScale
 70
     0
300
1:10
140
1.0
141
10.0
290
     0
  0
SCALE
  5
4E
102
{ACAD_REACTORS
330
47
102
}
330
47
100
AcDbScale
 70
     0
300
1:16
140
1.0
141
16.0
290
     0
  0
SCALE
  5
4F
102
{ACAD_REACTORS
330
47
102
}
330
47
100
AcDbScale
 70
     0
300
1:20
140
1.0
141
20.0
290
     0
  0
SCALE
  5
50
102
{ACAD_REACTORS
330
47
102
}
330
47
100
AcDbScale
 70
     0
300
1:30
140
1.0
141
30.0
290
     0
  0
SCALE
  5
51
102
{ACAD_REACTORS
330
47
102
}
330
47
100
AcDbScale
 70
     0
300
1:40
140
1.0
141
40.0
290
     0
  0
SCALE
  5
52
102
{ACAD_REACTORS
330
47
102
}
330
47
100
AcDbScale
 70
     0
300
1:50
140
1.0
141
50.0
290
     0
  0
SCALE
  5
53
102
{ACAD_REACTORS
330
47
102
}
330
47
100
AcDbScale
 70
     0
300
1:100
140
1.0
141
100.0
290
     0
  0
SCALE
  5
54
102
{ACAD_REACTORS
330
47
102
}
330
47
100
AcDbScale
 70
     0
300
2:1
140
2.0
141
1.0
290
     0
  0
SCALE
  5
55
102
{ACAD_REACTORS
330
47
102
}
330
47
100
AcDbScale
 70
     0
300
4:1
140
4.0
141
1.0
290
     0
  0
SCALE
  5
56
102
{ACAD_REACTORS
330
47
102
}
330
47
100
AcDbScale
 70
     0
300
8:1
140
8.0
141
1.0
290
     0
  0
SCALE
  5
57
102
{ACAD_REACTORS
330
47
102
}
330
47
100
AcDbScale
 70
     0
300
10:1
140
10.0
141
1.0
290
     0
  0
SCALE
  5
58
102
{ACAD_REACTORS
330
47
102
}
330
47
100
AcDbScale
 70
     0
300
100:1
140
100.0
141
1.0
290
     0
  0
SCALE
  5
59
102
{ACAD_REACTORS
330
47
102
}
330
47
100
AcDbScale
 70
     0
300
1/128" = 1'-0"
140
0.0078125
141
12.0
290
     0
  0
SCALE
  5
5A
102
{ACAD_REACTORS
330
47
102
}
330
47
100
AcDbScale
 70
     0
300
1/64" = 1'-0"
140
0.015625
141
12.0
290
     0
  0
SCALE
  5
5B
102
{ACAD_REACTORS
330
47
102
}
330
47
100
AcDbScale
 70
     0
300
1/32" = 1'-0"
140
0.03125
141
12.0
290
     0
  0
SCALE
  5
5C
102
{ACAD_REACTORS
330
47
102
}
330
47
100
AcDbScale
 70
     0
300
1/16" = 1'-0"
140
0.0625
141
12.0
290
     0
  0
SCALE
  5
5D
102
{ACAD_REACTORS
330
47
102
}
330
47
100
AcDbScale
 70
     0
300
3/32" = 1'-0"
140
0.09375
141
12.0
290
     0
  0
SCALE
  5
5E
102
{ACAD_REACTORS
330
47
102
}
330
47
100
AcDbScale
 70
     0
300
1/8" = 1'-0"
140
0.125
141
12.0
290
     0
  0
SCALE
  5
5F
102
{ACAD_REACTORS
330
47
102
}
330
47
100
AcDbScale
 70
     0
300
3/16" = 1'-0"
140
0.1875
141
12.0
290
     0
  0
SCALE
  5
60
102
{ACAD_REACTORS
330
47
102
}
330
47
100
AcDbScale
 70
     0
300
1/4" = 1'-0"
140
0.25
141
12.0
290
     0
  0
SCALE
  5
61
102
{ACAD_REACTORS
330
47
102
}
330
47
100
AcDbScale
 70
     0
300
3/8" = 1'-0"
140
0.375
141
12.0
290
     0
  0
SCALE
  5
62
102
{ACAD_REACTORS
330
47
102
}
330
47
100
AcDbScale
 70
     0
300
1/2" = 1'-0"
140
0.5
141
12.0
290
     0
  0
SCALE
  5
63
102
{ACAD_REACTORS
330
47
102
}
330
47
100
AcDbScale
 70
     0
300
3/4" = 1'-0"
140
0.75
141
12.0
290
     0
  0
SCALE
  5
64
102
{ACAD_REACTORS
330
47
102
}
330
47
100
AcDbScale
 70
     0
300
1" = 1'-0"
140
1.0
141
12.0
290
     0
  0
SCALE
  5
65
102
{ACAD_REACTORS
330
47
102
}
330
47
100
AcDbScale
 70
     0
300
1-1/2" = 1'-0"
140
1.5
141
12.0
290
     0
  0
SCALE
  5
66
102
{ACAD_REACTORS
330
47
102
}
330
47
100
AcDbScale
 70
     0
300
3" = 1'-0"
140
3.0
141
12.0
290
     0
  0
SCALE
  5
67
102
{ACAD_REACTORS
330
47
102
}
330
47
100
AcDbScale
 70
     0
300
6" = 1'-0"
140
6.0
141
12.0
290
     0
  0
SCALE
  5
68
102
{ACAD_REACTORS
330
47
102
}
330
47
100
AcDbScale
 70
     0
300
1'-0" = 1'-0"
140
12.0
141
12.0
290
     0
  0
ENDSEC
  0
EOF
