  0
SECTION
  2
HEADER
  9
$ACADVER
  1
AC1015
  9
$ACADMAINTVER
 70
     6
  9
$DWGCODEPAGE
  3
ANSI_949
  9
$INSBASE
 10
0.0
 20
0.0
 30
0.0
  9
$EXTMIN
 10
-100.125
 20
-49.97073246008785
 30
0.0
  9
$EXTMAX
 10
236.2546836971485
 20
76.2882808660535
 30
0.0
  9
$LIMMIN
 10
0.0
 20
0.0
  9
$LIMMAX
 10
420.0
 20
297.0
  9
$ORTHOMODE
 70
     0
  9
$REGENMODE
 70
     1
  9
$FILLMODE
 70
     1
  9
$QTEXTMODE
 70
     0
  9
$MIRRTEXT
 70
     1
  9
$LTSCALE
 40
1.0
  9
$ATTMODE
 70
     1
  9
$TEXTSIZE
 40
3.5
  9
$TRACEWID
 40
1.0
  9
$TEXTSTYLE
  7
Standard
  9
$CLAYER
  8
0
  9
$CELTYPE
  6
ByLayer
  9
$CECOLOR
 62
   256
  9
$CELTSCALE
 40
1.0
  9
$DISPSILH
 70
     0
  9
$DIMSCALE
 40
1.0
  9
$DIMASZ
 40
3.302
  9
$DIMEXO
 40
1.0
  9
$DIMDLI
 40
3.75
  9
$DIMRND
 40
0.0
  9
$DIMDLE
 40
0.0
  9
$DIMEXE
 40
1.0
  9
$DIMTP
 40
0.0
  9
$DIMTM
 40
0.0
  9
$DIMTXT
 40
3.5
  9
$DIMCEN
 40
2.5
  9
$DIMTSZ
 40
0.0
  9
$DIMTOL
 70
     0
  9
$DIMLIM
 70
     0
  9
$DIMTIH
 70
     1
  9
$DIMTOH
 70
     1
  9
$DIMSE1
 70
     0
  9
$DIMSE2
 70
     0
  9
$DIMTAD
 70
     1
  9
$DIMZIN
 70
     0
  9
$DIMBLK
  1

  9
$DIMASO
 70
     1
  9
$DIMSHO
 70
     1
  9
$DIMPOST
  1

  9
$DIMAPOST
  1

  9
$DIMALT
 70
     0
  9
$DIMALTD
 70
     3
  9
$DIMALTF
 40
0.0393700787401575
  9
$DIMLFAC
 40
1.0
  9
$DIMTOFL
 70
     1
  9
$DIMTVP
 40
0.0
  9
$DIMTIX
 70
     0
  9
$DIMSOXD
 70
     0
  9
$DIMSAH
 70
     0
  9
$DIMBLK1
  1

  9
$DIMBLK2
  1

  9
$DIMSTYLE
  2
ISO-25
  9
$DIMCLRD
 70
     0
  9
$DIMCLRE
 70
     0
  9
$DIMCLRT
 70
     0
  9
$DIMTFAC
 40
1.0
  9
$DIMGAP
 40
1.524
  9
$DIMJUST
 70
     0
  9
$DIMSD1
 70
     0
  9
$DIMSD2
 70
     0
  9
$DIMTOLJ
 70
     0
  9
$DIMTZIN
 70
     0
  9
$DIMALTZ
 70
     0
  9
$DIMALTTZ
 70
     0
  9
$DIMUPT
 70
     0
  9
$DIMDEC
 70
     2
  9
$DIMTDEC
 70
     2
  9
$DIMALTU
 70
     2
  9
$DIMALTTD
 70
     3
  9
$DIMTXSTY
  7
Standard
  9
$DIMAUNIT
 70
     0
  9
$DIMADEC
 70
     2
  9
$DIMALTRND
 40
0.0
  9
$DIMAZIN
 70
     0
  9
$DIMDSEP
 70
    44
  9
$DIMATFIT
 70
     3
  9
$DIMFRAC
 70
     0
  9
$DIMLDRBLK
  1

  9
$DIMLUNIT
 70
     2
  9
$DIMLWD
 70
    -2
  9
$DIMLWE
 70
    -2
  9
$DIMTMOVE
 70
     0
  9
$LUNITS
 70
     2
  9
$LUPREC
 70
     2
  9
$SKETCHINC
 40
1.0
  9
$FILLETRAD
 40
10.0
  9
$AUNITS
 70
     0
  9
$AUPREC
 70
     2
  9
$MENU
  1
.
  9
$ELEVATION
 40
0.0
  9
$PELEVATION
 40
0.0
  9
$THICKNESS
 40
0.0
  9
$LIMCHECK
 70
     0
  9
$CHAMFERA
 40
0.0
  9
$CHAMFERB
 40
0.0
  9
$CHAMFERC
 40
0.0
  9
$CHAMFERD
 40
0.0
  9
$SKPOLY
 70
     0
  9
$TDCREATE
 40
2458323.439626933
  9
$TDUCREATE
 40
2458323.064626933
  9
$TDUPDATE
 40
2458323.737118785
  9
$TDUUPDATE
 40
2458323.362118785
  9
$TDINDWG
 40
0.0009561227
  9
$TDUSRTIMER
 40
2458323.36207963
  9
$USRTIMER
 70
     1
  9
$ANGBASE
 50
0.0
  9
$ANGDIR
 70
     0
  9
$PDMODE
 70
     0
  9
$PDSIZE
 40
-1.0
  9
$PLINEWID
 40
0.0
  9
$SPLFRAME
 70
     0
  9
$SPLINETYPE
 70
     6
  9
$SPLINESEGS
 70
     8
  9
$HANDSEED
  5
32C
  9
$SURFTAB1
 70
     6
  9
$SURFTAB2
 70
     6
  9
$SURFTYPE
 70
     6
  9
$SURFU
 70
     6
  9
$SURFV
 70
     6
  9
$UCSBASE
  2

  9
$UCSNAME
  2

  9
$UCSORG
 10
0.0
 20
0.0
 30
0.0
  9
$UCSXDIR
 10
1.0
 20
0.0
 30
0.0
  9
$UCSYDIR
 10
0.0
 20
1.0
 30
0.0
  9
$UCSORTHOREF
  2

  9
$UCSORTHOVIEW
 70
     0
  9
$UCSORGTOP
 10
0.0
 20
0.0
 30
0.0
  9
$UCSORGBOTTOM
 10
0.0
 20
0.0
 30
0.0
  9
$UCSORGLEFT
 10
0.0
 20
0.0
 30
0.0
  9
$UCSORGRIGHT
 10
0.0
 20
0.0
 30
0.0
  9
$UCSORGFRONT
 10
0.0
 20
0.0
 30
0.0
  9
$UCSORGBACK
 10
0.0
 20
0.0
 30
0.0
  9
$PUCSBASE
  2

  9
$PUCSNAME
  2

  9
$PUCSORG
 10
0.0
 20
0.0
 30
0.0
  9
$PUCSXDIR
 10
1.0
 20
0.0
 30
0.0
  9
$PUCSYDIR
 10
0.0
 20
1.0
 30
0.0
  9
$PUCSORTHOREF
  2

  9
$PUCSORTHOVIEW
 70
     0
  9
$PUCSORGTOP
 10
0.0
 20
0.0
 30
0.0
  9
$PUCSORGBOTTOM
 10
0.0
 20
0.0
 30
0.0
  9
$PUCSORGLEFT
 10
0.0
 20
0.0
 30
0.0
  9
$PUCSORGRIGHT
 10
0.0
 20
0.0
 30
0.0
  9
$PUCSORGFRONT
 10
0.0
 20
0.0
 30
0.0
  9
$PUCSORGBACK
 10
0.0
 20
0.0
 30
0.0
  9
$USERI1
 70
     0
  9
$USERI2
 70
     0
  9
$USERI3
 70
     0
  9
$USERI4
 70
     0
  9
$USERI5
 70
     0
  9
$USERR1
 40
0.0
  9
$USERR2
 40
0.0
  9
$USERR3
 40
0.0
  9
$USERR4
 40
0.0
  9
$USERR5
 40
0.0
  9
$WORLDVIEW
 70
     1
  9
$SHADEDGE
 70
     3
  9
$SHADEDIF
 70
    70
  9
$TILEMODE
 70
     1
  9
$MAXACTVP
 70
    64
  9
$PINSBASE
 10
0.0
 20
0.0
 30
0.0
  9
$PLIMCHECK
 70
     0
  9
$PEXTMIN
 10
1.000000000000000E+20
 20
1.000000000000000E+20
 30
1.000000000000000E+20
  9
$PEXTMAX
 10
-1.000000000000000E+20
 20
-1.000000000000000E+20
 30
-1.000000000000000E+20
  9
$PLIMMIN
 10
0.0
 20
0.0
  9
$PLIMMAX
 10
0.0
 20
0.0
  9
$UNITMODE
 70
     0
  9
$VISRETAIN
 70
     1
  9
$PLINEGEN
 70
     0
  9
$PSLTSCALE
 70
     1
  9
$TREEDEPTH
 70
  3020
  9
$CMLSTYLE
  2
Standard
  9
$CMLJUST
 70
     0
  9
$CMLSCALE
 40
20.0
  9
$PROXYGRAPHICS
 70
     1
  9
$MEASUREMENT
 70
     1
  9
$CELWEIGHT
370
    -1
  9
$ENDCAPS
280
     0
  9
$JOINSTYLE
280
     0
  9
$LWDISPLAY
290
     1
  9
$INSUNITS
 70
     4
  9
$HYPERLINKBASE
  1

  9
$STYLESHEET
  1

  9
$XEDIT
290
     1
  9
$CEPSNTYPE
380
     0
  9
$PSTYLEMODE
290
     1
  9
$FINGERPRINTGUID
  2
{AFB932B5-B6E6-49B6-B668-EFD338FFD477}
  9
$VERSIONGUID
  2
{FAEB1C32-E019-11D5-929B-00C0DF256EC4}
  9
$EXTNAMES
290
     1
  9
$PSVPSCALE
 40
0.0
  9
$OLESTARTUP
290
     0
  0
ENDSEC
  0
SECTION
  2
CLASSES
  0
CLASS
  1
ACDBDICTIONARYWDFLT
  2
AcDbDictionaryWithDefault
  3
ObjectDBX Classes
 90
        0
280
     0
281
     0
  0
CLASS
  1
VISUALSTYLE
  2
AcDbVisualStyle
  3
ObjectDBX Classes
 90
     4095
280
     0
281
     0
  0
CLASS
  1
MATERIAL
  2
AcDbMaterial
  3
ObjectDBX Classes
 90
     1153
280
     0
281
     0
  0
CLASS
  1
SCALE
  2
AcDbScale
  3
ObjectDBX Classes
 90
     1153
280
     0
281
     0
  0
CLASS
  1
SUN
  2
AcDbSun
  3
SCENEOE
 90
     1153
280
     0
281
     0
  0
CLASS
  1
ACDBPLACEHOLDER
  2
AcDbPlaceHolder
  3
ObjectDBX Classes
 90
        0
280
     0
281
     0
  0
CLASS
  1
LAYOUT
  2
AcDbLayout
  3
ObjectDBX Classes
 90
        0
280
     0
281
     0
  0
CLASS
  1
TABLESTYLE
  2
AcDbTableStyle
  3
ObjectDBX Classes
 90
     4095
280
     0
281
     0
  0
CLASS
  1
MLEADERSTYLE
  2
AcDbMLeaderStyle
  3
ACDB_MLEADERSTYLE_CLASS
 90
     4095
280
     0
281
     0
  0
CLASS
  1
RASTERVARIABLES
  2
AcDbRasterVariables
  3
ISM
 90
        0
280
     0
281
     0
  0
ENDSEC
  0
SECTION
  2
TABLES
  0
TABLE
  2
VPORT
  5
8
330
0
100
AcDbSymbolTable
 70
     1
  0
VPORT
  5
29
330
8
100
AcDbSymbolTableRecord
100
AcDbViewportTableRecord
  2
*Active
 70
     0
 10
0.0
 20
0.0
 11
1.0
 21
1.0
 12
24.82001763093236
 22
-0.6365984830058977
 13
0.0
 23
0.0
 14
10.0
 24
10.0
 15
10.0
 25
10.0
 16
0.0
 26
0.0
 36
1.0
 17
0.0
 27
0.0
 37
0.0
 40
160.865931854231
 41
1.632093933463796
 42
50.0
 43
0.0
 44
0.0
 50
0.0
 51
0.0
 71
    16
 72
  2000
 73
     1
 74
     3
 75
     0
 76
     0
 77
     0
 78
     0
281
     0
 65
     1
110
0.0
120
0.0
130
0.0
111
1.0
121
0.0
131
0.0
112
0.0
122
1.0
132
0.0
 79
     0
146
0.0
  0
ENDTAB
  0
TABLE
  2
LTYPE
  5
5
330
0
100
AcDbSymbolTable
 70
     6
  0
LTYPE
  5
14
330
5
100
AcDbSymbolTableRecord
100
AcDbLinetypeTableRecord
  2
ByBlock
 70
     0
  3

 72
    65
 73
     0
 40
0.0
  0
LTYPE
  5
15
330
5
100
AcDbSymbolTableRecord
100
AcDbLinetypeTableRecord
  2
ByLayer
 70
     0
  3

 72
    65
 73
     0
 40
0.0
  0
LTYPE
  5
16
330
5
100
AcDbSymbolTableRecord
100
AcDbLinetypeTableRecord
  2
Continuous
 70
     0
  3
Solid line
 72
    65
 73
     0
 40
0.0
  0
LTYPE
  5
6A
330
5
100
AcDbSymbolTableRecord
100
AcDbLinetypeTableRecord
  2
HIDDEN
 70
     0
  3
Hidden __ __ __ __ __ __ __ __ __ __ __ __ __ __
 72
    65
 73
     2
 40
1.905
 49
1.27
 74
     0
 49
-0.635
 74
     0
  0
LTYPE
  5
6B
330
5
100
AcDbSymbolTableRecord
100
AcDbLinetypeTableRecord
  2
PHANTOM
 70
     0
  3
Phantom ______  __  __  ______  __  __  ______
 72
    65
 73
     6
 40
12.7
 49
6.35
 74
     0
 49
-1.27
 74
     0
 49
1.27
 74
     0
 49
-1.27
 74
     0
 49
1.27
 74
     0
 49
-1.27
 74
     0
  0
LTYPE
  5
6C
330
5
100
AcDbSymbolTableRecord
100
AcDbLinetypeTableRecord
  2
CENTER
 70
     0
  3
Center ____ _ ____ _ ____ _ ____ _ ____ _ ____
 72
    65
 73
     4
 40
10.16
 49
6.35
 74
     0
 49
-1.27
 74
     0
 49
1.27
 74
     0
 49
-1.27
 74
     0
  0
LTYPE
  5
6D
330
5
100
AcDbSymbolTableRecord
100
AcDbLinetypeTableRecord
  2
CENTERX2
 70
     0
  3
Center (2x) ________  __  ________  __  _____
 72
    65
 73
     4
 40
20.32
 49
12.7
 74
     0
 49
-2.54
 74
     0
 49
2.54
 74
     0
 49
-2.54
 74
     0
  0
LTYPE
  5
6E
330
5
100
AcDbSymbolTableRecord
100
AcDbLinetypeTableRecord
  2
DOT2
 70
     0
  3
Dot (.5x) ........................................
 72
    65
 73
     2
 40
0.635
 49
0.0
 74
     0
 49
-0.635
 74
     0
  0
ENDTAB
  0
TABLE
  2
LAYER
  5
2
330
0
100
AcDbSymbolTable
 70
    18
  0
LAYER
  5
10
330
2
100
AcDbSymbolTableRecord
100
AcDbLayerTableRecord
  2
0
 70
     0
 62
     7
  6
Continuous
370
    -3
390
F
  0
LAYER
  5
6F
330
2
100
AcDbSymbolTableRecord
100
AcDbLayerTableRecord
  2
FORMAT
 70
     0
 62
     2
  6
Continuous
370
    -3
390
F
  0
LAYER
  5
70
330
2
100
AcDbSymbolTableRecord
100
AcDbLayerTableRecord
  2
외형선
 70
     0
 62
     4
  6
Continuous
370
    30
390
F
  0
LAYER
  5
71
330
2
100
AcDbSymbolTableRecord
100
AcDbLayerTableRecord
  2
숨은선
 70
     0
 62
     2
  6
HIDDEN
370
    15
390
F
  0
LAYER
  5
72
330
2
100
AcDbSymbolTableRecord
100
AcDbLayerTableRecord
  2
중심선
 70
     0
 62
     1
  6
CENTERX2
370
    -3
390
F
  0
LAYER
  5
73
330
2
100
AcDbSymbolTableRecord
100
AcDbLayerTableRecord
  2
파단선
 70
     0
 62
     4
  6
Continuous
370
    -3
390
F
  0
LAYER
  5
74
330
2
100
AcDbSymbolTableRecord
100
AcDbLayerTableRecord
  2
해칭선
 70
     0
 62
   100
  6
Continuous
370
    -3
390
F
  0
LAYER
  5
75
330
2
100
AcDbSymbolTableRecord
100
AcDbLayerTableRecord
  2
가는실선
 70
     0
 62
     4
  6
Continuous
370
    -3
390
F
  0
LAYER
  5
76
330
2
100
AcDbSymbolTableRecord
100
AcDbLayerTableRecord
  2
치수_보조선
 70
     0
 62
     4
  6
Continuous
370
    -3
390
F
  0
LAYER
  5
77
330
2
100
AcDbSymbolTableRecord
100
AcDbLayerTableRecord
  2
치수문자_일반주서
 70
     0
 62
     7
  6
Continuous
370
    15
390
F
  0
LAYER
  5
78
330
2
100
AcDbSymbolTableRecord
100
AcDbLayerTableRecord
  2
개별주서
 70
     0
 62
   100
  6
Continuous
370
    30
390
F
  0
LAYER
  5
79
330
2
100
AcDbSymbolTableRecord
100
AcDbLayerTableRecord
  2
중간선
 70
     0
 62
     2
  6
Continuous
370
    15
390
F
  0
LAYER
  5
7A
330
2
100
AcDbSymbolTableRecord
100
AcDbLayerTableRecord
  2
윤곽선
 70
     0
 62
     3
  6
Continuous
370
    40
390
F
  0
LAYER
  5
7B
330
2
100
AcDbSymbolTableRecord
100
AcDbLayerTableRecord
  2
중심마크
 70
     0
 62
   100
  6
Continuous
370
    30
390
F
  0
LAYER
  5
7C
330
2
100
AcDbSymbolTableRecord
100
AcDbLayerTableRecord
  2
가상선
 70
     0
 62
     4
  6
PHANTOM
370
    -3
390
F
  0
LAYER
  5
7D
330
2
100
AcDbSymbolTableRecord
100
AcDbLayerTableRecord
  2
특수지정선
 70
     0
 62
     5
  6
CENTERX2
370
    60
390
F
  0
LAYER
  5
7E
330
2
100
AcDbSymbolTableRecord
100
AcDbLayerTableRecord
  2
참조1
 70
     0
 62
    -4
  6
Continuous
370
    -3
390
F
  0
LAYER
  5
16E
330
2
100
AcDbSymbolTableRecord
100
AcDbLayerTableRecord
  2
Defpoints
 70
     0
 62
     7
  6
Continuous
290
     0
370
    -3
390
F
  0
ENDTAB
  0
TABLE
  2
STYLE
  5
3
330
0
100
AcDbSymbolTable
 70
     2
  0
STYLE
  5
11
330
3
100
AcDbSymbolTableRecord
100
AcDbTextStyleTableRecord
  2
Standard
 70
     0
 40
0.0
 41
1.0
 50
0.0
 71
     0
 42
3.5
  3
txt
  4

  0
STYLE
  5
94
330
3
100
AcDbSymbolTableRecord
100
AcDbTextStyleTableRecord
  2
SLDTEXTSTYLE0
 70
     0
 40
0.0
 41
0.75
 50
0.0
 71
     0
 42
3.5
  3
TXT
  4

  0
ENDTAB
  0
TABLE
  2
VIEW
  5
6
330
0
100
AcDbSymbolTable
 70
     0
  0
ENDTAB
  0
TABLE
  2
UCS
  5
7
330
0
100
AcDbSymbolTable
 70
     0
  0
ENDTAB
  0
TABLE
  2
APPID
  5
9
330
0
100
AcDbSymbolTable
 70
     1
  0
APPID
  5
12
330
9
100
AcDbSymbolTableRecord
100
AcDbRegAppTableRecord
  2
ACAD
 70
     0
  0
ENDTAB
  0
TABLE
  2
DIMSTYLE
  5
A
330
0
100
AcDbSymbolTable
 70
     3
100
AcDbDimStyleTable
  0
DIMSTYLE
105
27
330
A
100
AcDbSymbolTableRecord
100
AcDbDimStyleTableRecord
  2
ISO-25
 70
     0
 41
2.5
 42
0.625
 43
3.75
 44
1.25
 73
     0
 74
     0
 77
     1
 78
     8
140
2.5
141
2.5
143
0.03937007874016
147
0.625
171
     3
172
     1
178
     0
271
     2
272
     2
274
     3
278
    44
283
     0
284
     8
340
11
  0
DIMSTYLE
105
F0
102
{ACAD_REACTORS
330
102
330
129
330
2B0
330
115
102
}
330
A
100
AcDbSymbolTableRecord
100
AcDbDimStyleTableRecord
  2
SLDDIMSTYLE0
 70
     0
 41
3.302
 44
0.0
 45
0.000000001
 73
     0
 74
     0
 77
     1
 78
     4
 79
     1
140
3.5
143
0.0393700787401575
147
0.875
148
0.000000001
170
     1
173
     1
178
     0
271
     2
272
     2
276
     2
284
    12
340
94
  0
DIMSTYLE
105
116
330
A
100
AcDbSymbolTableRecord
100
AcDbDimStyleTableRecord
  2
SLDDIMSTYLE1
 70
     0
 41
3.302
 44
0.0
 45
0.000000001
 73
     0
 74
     0
 77
     1
 78
    12
 79
     3
140
3.5
143
0.0393700787401575
147
0.875
148
0.000000001
170
     1
173
     1
178
     0
271
     2
272
     2
276
     2
284
    12
340
94
  0
ENDTAB
  0
TABLE
  2
BLOCK_RECORD
  5
1
330
0
100
AcDbSymbolTable
 70
    15
  0
BLOCK_RECORD
  5
1F
330
1
100
AcDbSymbolTableRecord
100
AcDbBlockTableRecord
  2
*Model_Space
340
22
  0
BLOCK_RECORD
  5
1B
330
1
100
AcDbSymbolTableRecord
100
AcDbBlockTableRecord
  2
*Paper_Space
340
1E
  0
BLOCK_RECORD
  5
23
330
1
100
AcDbSymbolTableRecord
100
AcDbBlockTableRecord
  2
*Paper_Space0
340
26
  0
BLOCK_RECORD
  5
7F
330
1
100
AcDbSymbolTableRecord
100
AcDbBlockTableRecord
  2
블럭10
340
0
102
{BLKREFS
331
E8
102
}
  0
BLOCK_RECORD
  5
F1
330
1
100
AcDbSymbolTableRecord
100
AcDbBlockTableRecord
  2
_D
340
0
  0
BLOCK_RECORD
  5
103
330
1
100
AcDbSymbolTableRecord
100
AcDbBlockTableRecord
  2
_D_1
340
0
  0
BLOCK_RECORD
  5
117
330
1
100
AcDbSymbolTableRecord
100
AcDbBlockTableRecord
  2
_D_2
340
0
  0
BLOCK_RECORD
  5
12A
330
1
100
AcDbSymbolTableRecord
100
AcDbBlockTableRecord
  2
_D_3
340
0
  0
BLOCK_RECORD
  5
143
330
1
100
AcDbSymbolTableRecord
100
AcDbBlockTableRecord
  2
SW_DOWELSYMBOL_0
340
0
102
{BLKREFS
331
149
102
}
  0
BLOCK_RECORD
  5
20E
330
1
100
AcDbSymbolTableRecord
100
AcDbBlockTableRecord
  2
*D7
340
0
  0
BLOCK_RECORD
  5
240
330
1
100
AcDbSymbolTableRecord
100
AcDbBlockTableRecord
  2
*D8
340
0
  0
BLOCK_RECORD
  5
24C
330
1
100
AcDbSymbolTableRecord
100
AcDbBlockTableRecord
  2
*D9
340
0
  0
BLOCK_RECORD
  5
258
330
1
100
AcDbSymbolTableRecord
100
AcDbBlockTableRecord
  2
*D10
340
0
  0
BLOCK_RECORD
  5
2D5
330
1
100
AcDbSymbolTableRecord
100
AcDbBlockTableRecord
  2
*D11
340
0
  0
BLOCK_RECORD
  5
2E1
330
1
100
AcDbSymbolTableRecord
100
AcDbBlockTableRecord
  2
*D12
340
0
  0
BLOCK_RECORD
  5
2ED
330
1
100
AcDbSymbolTableRecord
100
AcDbBlockTableRecord
  2
*D13
340
0
  0
BLOCK_RECORD
  5
2FA
330
1
100
AcDbSymbolTableRecord
100
AcDbBlockTableRecord
  2
*D14
340
0
  0
ENDTAB
  0
ENDSEC
  0
SECTION
  2
BLOCKS
  0
BLOCK
  5
20
330
1F
100
AcDbEntity
  8
0
100
AcDbBlockBegin
  2
*Model_Space
 70
     0
 10
0.0
 20
0.0
 30
0.0
  3
*Model_Space
  1
*Model_Space
  0
ENDBLK
  5
21
330
1F
100
AcDbEntity
  8
0
100
AcDbBlockEnd
  0
BLOCK
  5
1C
330
1B
100
AcDbEntity
 67
     1
  8
0
100
AcDbBlockBegin
  2
*Paper_Space
 70
     0
 10
0.0
 20
0.0
 30
0.0
  3
*Paper_Space
  1
*Paper_Space
  0
ENDBLK
  5
1D
330
1B
100
AcDbEntity
 67
     1
  8
0
100
AcDbBlockEnd
  0
BLOCK
  5
24
330
23
100
AcDbEntity
  8
0
100
AcDbBlockBegin
  2
*Paper_Space0
 70
     0
 10
0.0
 20
0.0
 30
0.0
  3
*Paper_Space0
  1
*Paper_Space0
  0
ENDBLK
  5
25
330
23
100
AcDbEntity
  8
0
100
AcDbBlockEnd
  0
BLOCK
  5
80
330
7F
100
AcDbEntity
  8
0
100
AcDbBlockBegin
  2
블럭10
 70
     2
 10
0.0
 20
0.0
 30
0.0
  3
블럭10
  1
블럭10
  0
ELLIPSE
  5
82
330
7F
100
AcDbEntity
  8
중심선
100
AcDbEllipse
 10
20.54032771741204
 20
12.0471743016438
 30
0.0
 11
6.600054785286829
 21
-1.261213355974178E-13
 31
0.0
210
0.0
220
0.0
230
1.0
 40
0.636358354079598
 41
0.9219305317359503
 42
6.513795318482858
  0
ELLIPSE
  5
83
330
7F
100
AcDbEntity
  8
중심선
100
AcDbEllipse
 10
20.54032771746488
 20
12.04717430159265
 30
0.0
 11
3.960054785062283
 21
1.540847449632565E-10
 31
0.0
210
0.0
220
0.0
230
1.0
 40
0.3939339440162632
 41
1.131841032648279
 42
5.62031148352944
  0
LINE
  5
84
330
7F
100
AcDbEntity
  8
중심선
100
AcDbLine
 10
2.268634060543552
 20
16.24717430164393
 30
0.0
 11
5.714909304380834
 21
16.24717430164393
 31
0.0
  0
LINE
  5
85
330
7F
100
AcDbEntity
  8
중심선
100
AcDbLine
 10
5.245725140726316
 20
7.84717430164391
 30
0.0
 11
8.692000384563599
 21
7.84717430164391
 31
0.0
  0
LINE
  5
86
330
7F
100
AcDbEntity
  8
중심선
100
AcDbLine
 10
15.74043728645272
 20
16.24717430164393
 30
0.0
 11
8.692000384563599
 21
7.84717430164391
 31
0.0
  0
LINE
  5
87
330
7F
100
AcDbEntity
  8
중심선
100
AcDbLine
 10
0.1404042013395286
 20
13.71084872107135
 30
0.0
 11
3.58671253028996
 21
13.71088815037384
 31
0.0
  0
LINE
  5
88
330
7F
100
AcDbEntity
  8
중심선
100
AcDbLine
 10
2.750260043222114
 20
10.84717430164391
 30
0.0
 11
6.196535287059397
 21
10.84717430164391
 31
0.0
  0
LINE
  5
89
330
7F
100
AcDbEntity
  8
중심선
100
AcDbLine
 10
12.29416204261559
 20
16.24717430164393
 30
0.0
 11
5.245725140726316
 21
7.84717430164391
 31
0.0
  0
LINE
  5
8A
330
7F
100
AcDbEntity
  8
중심선
100
AcDbLine
 10
10.72767329541681
 20
16.24717430164393
 30
0.0
 11
6.196535287059397
 21
10.84717430164391
 31
0.0
  0
LINE
  5
8B
330
7F
100
AcDbEntity
  8
중심선
100
AcDbLine
 10
7.28139805157953
 20
16.24717430164393
 30
0.0
 11
2.750260043222114
 21
10.84717430164391
 31
0.0
  0
LINE
  5
8C
330
7F
100
AcDbEntity
  8
중심선
100
AcDbLine
 10
5.714909304380834
 20
16.24717430164393
 30
0.0
 11
3.58671253028996
 21
13.71088815037384
 31
0.0
  0
LINE
  5
8D
330
7F
100
AcDbEntity
  8
중심선
100
AcDbLine
 10
2.268634060543552
 20
16.24717430164393
 30
0.0
 11
0.1404042013395286
 21
13.71084872107135
 31
0.0
  0
LINE
  5
8E
330
7F
100
AcDbEntity
  8
중심선
100
AcDbLine
 10
7.28139805157953
 20
16.24717430164393
 30
0.0
 11
10.72767329541681
 21
16.24717430164393
 31
0.0
  0
LINE
  5
8F
330
7F
100
AcDbEntity
  8
중심선
100
AcDbLine
 10
12.29416204261559
 20
16.24717430164393
 30
0.0
 11
15.74043728645272
 21
16.24717430164393
 31
0.0
  0
LINE
  5
90
330
7F
100
AcDbEntity
  8
중심선
100
AcDbLine
 10
19.22036997980202
 20
11.08717430171403
 30
0.0
 11
23.66174974927406
 21
11.08717430171406
 31
0.0
  0
LINE
  5
91
330
7F
100
AcDbEntity
  8
중심선
100
AcDbLine
 10
19.22039502424796
 20
13.00717430171391
 30
0.0
 11
19.22036997980202
 21
11.08717430171403
 31
0.0
  0
LINE
  5
92
330
7F
100
AcDbEntity
  8
중심선
100
AcDbLine
 10
19.22039502424796
 20
13.00717430171391
 30
0.0
 11
26.96566020931264
 21
13.00717430171391
 31
0.0
  0
LINE
  5
93
330
7F
100
AcDbEntity
  8
중심선
100
AcDbLine
 10
22.22332737316547
 20
13.45928029700563
 30
0.0
 11
24.52862924686651
 21
15.39360700705356
 31
0.0
  0
ATTDEF
  5
95
330
7F
100
AcDbEntity
  8
FORMAT
 62
     2
100
AcDbText
 10
4.408487351596664
 20
2.075366912832191
 30
0.0
 40
4.233333333333333
  1
E1100204
 41
0.75
  7
SLDTEXTSTYLE0
 11
4.408487351596664
 21
-0.0412997538344756
 31
0.0
100
AcDbAttributeDefinition
  3

  2
AUTOATTR0
 70
     0
 74
     1
  0
ENDBLK
  5
81
330
7F
100
AcDbEntity
  8
0
100
AcDbBlockEnd
  0
BLOCK
  5
F2
330
F1
100
AcDbEntity
  8
0
100
AcDbBlockBegin
  2
_D
 70
     0
 10
0.0
 20
0.0
 30
0.0
  3
_D
  1
_D
  0
LINE
  5
F4
330
F1
100
AcDbEntity
  8
치수문자_일반주서
 62
     0
370
    -2
100
AcDbLine
 10
-36.95749999999996
 20
25.4010749287239
 30
0.0
 11
-51.48250000000006
 21
25.40107492872385
 31
0.0
  0
LINE
  5
F5
330
F1
100
AcDbEntity
  8
치수문자_일반주서
 62
     0
370
    -2
100
AcDbLine
 10
-36.95749999999996
 20
-25.39892507127611
 30
0.0
 11
-51.48249999999988
 21
-25.39892507127616
 31
0.0
  0
LINE
  5
F6
330
F1
100
AcDbEntity
  8
치수문자_일반주서
 62
     0
370
    -2
100
AcDbLine
 10
-51.48250000000004
 20
22.09907492872386
 30
0.0
 11
-51.4824999999999
 21
-22.09692507127616
 31
0.0
  0
SOLID
  5
F7
330
F1
100
AcDbEntity
  8
치수문자_일반주서
 62
     0
100
AcDbTrace
 10
-50.93216666666671
 20
22.09907492872386
 30
0.0
 11
-52.03283333333338
 21
22.09907492872385
 31
0.0
 12
-51.48250000000006
 22
25.40107492872385
 32
0.0
 13
-51.48250000000006
 23
25.40107492872385
 33
0.0
  0
SOLID
  5
F8
330
F1
100
AcDbEntity
  8
치수문자_일반주서
 62
     0
100
AcDbTrace
 10
-52.03283333333323
 20
-22.09692507127616
 30
0.0
 11
-50.93216666666656
 21
-22.09692507127616
 31
0.0
 12
-51.48249999999988
 22
-25.39892507127616
 32
0.0
 13
-51.48249999999988
 23
-25.39892507127616
 33
0.0
  0
MTEXT
  5
F9
330
F1
100
AcDbEntity
  8
치수문자_일반주서
 62
     0
100
AcDbMText
 10
-55.85749999999997
 20
0.0010749287238891
 30
0.0
 40
3.5
 41
0.0
 71
     2
 72
     1
  1
\A1;%%c50.80 [2]
  7
SLDTEXTSTYLE0
 11
-3.496765431890256E-15
 21
1.0
 31
0.0
 73
     1
 44
1.0
  0
POINT
  5
FA
330
F1
100
AcDbEntity
  8
Defpoints
 62
     0
100
AcDbPoint
 10
-36.89499999999996
 20
25.4010749287239
 30
0.0
  0
POINT
  5
FB
330
F1
100
AcDbEntity
  8
Defpoints
 62
     0
100
AcDbPoint
 10
-36.89499999999996
 20
-25.39892507127611
 30
0.0
  0
POINT
  5
FC
330
F1
100
AcDbEntity
  8
Defpoints
 62
     0
100
AcDbPoint
 10
-51.48249999999997
 20
-25.39892507127616
 30
0.0
  0
ENDBLK
  5
F3
330
F1
100
AcDbEntity
  8
0
100
AcDbBlockEnd
  0
BLOCK
  5
104
330
103
100
AcDbEntity
  8
0
100
AcDbBlockBegin
  2
_D_1
 70
     0
 10
0.0
 20
0.0
 30
0.0
  3
_D_1
  1
_D_1
  0
LINE
  5
106
330
103
100
AcDbEntity
  8
치수문자_일반주서
 62
     0
370
    -2
100
AcDbLine
 10
215.2
 20
25.4635749287239
 30
0.0
 11
215.2
 21
47.75570626228484
 31
0.0
  0
LINE
  5
107
330
103
100
AcDbEntity
  8
치수문자_일반주서
 62
     0
370
    -2
100
AcDbLine
 10
11.99999999999999
 20
24.6311941037412
 30
0.0
 11
12.0
 21
47.75570626228484
 31
0.0
  0
LINE
  5
108
330
103
100
AcDbEntity
  8
치수문자_일반주서
 62
     0
370
    -2
100
AcDbLine
 10
211.898
 20
47.75570626228484
 30
0.0
 11
15.302
 21
47.75570626228484
 31
0.0
  0
SOLID
  5
109
330
103
100
AcDbEntity
  8
치수문자_일반주서
 62
     0
100
AcDbTrace
 10
211.898
 20
47.2053729289515
 30
0.0
 11
211.898
 21
48.30603959561817
 31
0.0
 12
215.2
 22
47.75570626228484
 32
0.0
 13
215.2
 23
47.75570626228484
 33
0.0
  0
SOLID
  5
10A
330
103
100
AcDbEntity
  8
치수문자_일반주서
 62
     0
100
AcDbTrace
 10
15.302
 20
48.30603959561817
 30
0.0
 11
15.302
 21
47.2053729289515
 31
0.0
 12
12.0
 22
47.75570626228484
 32
0.0
 13
12.0
 23
47.75570626228484
 33
0.0
  0
MTEXT
  5
10B
330
103
100
AcDbEntity
  8
치수문자_일반주서
 62
     0
100
AcDbMText
 10
113.6
 20
52.13070626228484
 30
0.0
 40
3.5
 41
0.0
 71
     2
 72
     1
  1
\A1;203.20 [8]
  7
SLDTEXTSTYLE0
 73
     1
 44
1.0
  0
POINT
  5
10C
330
103
100
AcDbEntity
  8
Defpoints
 62
     0
100
AcDbPoint
 10
215.2
 20
25.4010749287239
 30
0.0
  0
POINT
  5
10D
330
103
100
AcDbEntity
  8
Defpoints
 62
     0
100
AcDbPoint
 10
11.99999999999999
 20
24.5686941037412
 30
0.0
  0
POINT
  5
10E
330
103
100
AcDbEntity
  8
Defpoints
 62
     0
100
AcDbPoint
 10
11.99999999999999
 20
47.75570626228484
 30
0.0
  0
ENDBLK
  5
105
330
103
100
AcDbEntity
  8
0
100
AcDbBlockEnd
  0
BLOCK
  5
118
330
117
100
AcDbEntity
  8
0
100
AcDbBlockBegin
  2
_D_2
 70
     0
 10
0.0
 20
0.0
 30
0.0
  3
_D_2
  1
_D_2
  0
LINE
  5
11A
330
117
100
AcDbEntity
  8
치수문자_일반주서
 62
     0
370
    -2
100
AcDbLine
 10
215.2
 20
25.4635749287239
 30
0.0
 11
215.2
 21
59.75570626228485
 31
0.0
  0
LINE
  5
11B
330
117
100
AcDbEntity
  8
치수문자_일반주서
 62
     0
370
    -2
100
AcDbLine
 10
-83.25
 20
20.38357492872391
 30
0.0
 11
-83.25000000000001
 21
59.75570626228485
 31
0.0
  0
LINE
  5
11C
330
117
100
AcDbEntity
  8
치수문자_일반주서
 62
     0
370
    -2
100
AcDbLine
 10
211.898
 20
59.75570626228485
 30
0.0
 11
-79.94800000000001
 21
59.75570626228485
 31
0.0
  0
SOLID
  5
11D
330
117
100
AcDbEntity
  8
치수문자_일반주서
 62
     0
100
AcDbTrace
 10
211.898
 20
59.20537292895152
 30
0.0
 11
211.898
 21
60.30603959561819
 31
0.0
 12
215.2
 22
59.75570626228485
 32
0.0
 13
215.2
 23
59.75570626228485
 33
0.0
  0
SOLID
  5
11E
330
117
100
AcDbEntity
  8
치수문자_일반주서
 62
     0
100
AcDbTrace
 10
-79.94800000000001
 20
60.30603959561819
 30
0.0
 11
-79.94800000000001
 21
59.20537292895152
 31
0.0
 12
-83.25000000000001
 22
59.75570626228485
 32
0.0
 13
-83.25000000000001
 23
59.75570626228485
 33
0.0
  0
MTEXT
  5
11F
330
117
100
AcDbEntity
  8
치수문자_일반주서
 62
     0
100
AcDbMText
 10
65.97500000000001
 20
64.13070626228486
 30
0.0
 40
3.5
 41
0.0
 71
     2
 72
     1
  1
\A1;298.45 [11 3/4]
  7
SLDTEXTSTYLE0
 73
     1
 44
1.0
  0
POINT
  5
120
330
117
100
AcDbEntity
  8
Defpoints
 62
     0
100
AcDbPoint
 10
215.2
 20
25.4010749287239
 30
0.0
  0
POINT
  5
121
330
117
100
AcDbEntity
  8
Defpoints
 62
     0
100
AcDbPoint
 10
-83.25
 20
20.32107492872391
 30
0.0
  0
POINT
  5
122
330
117
100
AcDbEntity
  8
Defpoints
 62
     0
100
AcDbPoint
 10
-83.25
 20
59.75570626228485
 30
0.0
  0
ENDBLK
  5
119
330
117
100
AcDbEntity
  8
0
100
AcDbBlockEnd
  0
BLOCK
  5
12B
330
12A
100
AcDbEntity
  8
0
100
AcDbBlockBegin
  2
_D_3
 70
     0
 10
0.0
 20
0.0
 30
0.0
  3
_D_3
  1
_D_3
  0
LINE
  5
12D
330
12A
100
AcDbEntity
  8
치수문자_일반주서
 62
     0
370
    -2
100
AcDbLine
 10
215.2625
 20
25.4010749287239
 30
0.0
 11
235.704350363815
 21
25.40107492872398
 31
0.0
  0
LINE
  5
12E
330
12A
100
AcDbEntity
  8
치수문자_일반주서
 62
     0
370
    -2
100
AcDbLine
 10
215.2625
 20
-25.39892507127611
 30
0.0
 11
235.7043503638152
 21
-25.39892507127604
 31
0.0
  0
LINE
  5
12F
330
12A
100
AcDbEntity
  8
치수문자_일반주서
 62
     0
370
    -2
100
AcDbLine
 10
235.704350363815
 20
25.40107492872398
 30
0.0
 11
235.7043503638148
 21
76.2882808660535
 31
0.0
  0
LINE
  5
130
330
12A
100
AcDbEntity
  8
치수문자_일반주서
 62
     0
370
    -2
100
AcDbLine
 10
235.704350363815
 20
22.09907492872398
 30
0.0
 11
235.7043503638152
 21
-22.09692507127604
 31
0.0
  0
SOLID
  5
131
330
12A
100
AcDbEntity
  8
치수문자_일반주서
 62
     0
100
AcDbTrace
 10
236.2546836971483
 20
22.09907492872398
 30
0.0
 11
235.1540170304817
 21
22.09907492872398
 31
0.0
 12
235.704350363815
 22
25.40107492872398
 32
0.0
 13
235.704350363815
 23
25.40107492872398
 33
0.0
  0
SOLID
  5
132
330
12A
100
AcDbEntity
  8
치수문자_일반주서
 62
     0
100
AcDbTrace
 10
235.1540170304818
 20
-22.09692507127604
 30
0.0
 11
236.2546836971485
 21
-22.09692507127604
 31
0.0
 12
235.7043503638152
 22
-25.39892507127604
 32
0.0
 13
235.7043503638152
 23
-25.39892507127604
 33
0.0
  0
MTEXT
  5
133
330
12A
100
AcDbEntity
  8
치수문자_일반주서
 62
     0
100
AcDbMText
 10
231.3293503638149
 20
64.91328086605348
 30
0.0
 40
3.5
 41
0.0
 71
     2
 72
     1
  1
\A1;%%c50.80 [2]
  7
SLDTEXTSTYLE0
 11
-3.356894814614645E-15
 21
1.0
 31
0.0
 73
     1
 44
1.0
  0
POINT
  5
134
330
12A
100
AcDbEntity
  8
Defpoints
 62
     0
100
AcDbPoint
 10
215.2
 20
25.4010749287239
 30
0.0
  0
POINT
  5
135
330
12A
100
AcDbEntity
  8
Defpoints
 62
     0
100
AcDbPoint
 10
215.2
 20
-25.39892507127611
 30
0.0
  0
POINT
  5
136
330
12A
100
AcDbEntity
  8
Defpoints
 62
     0
100
AcDbPoint
 10
235.7043503638151
 20
-25.39892507127604
 30
0.0
  0
ENDBLK
  5
12C
330
12A
100
AcDbEntity
  8
0
100
AcDbBlockEnd
  0
BLOCK
  5
144
330
143
100
AcDbEntity
  8
0
100
AcDbBlockBegin
  2
SW_DOWELSYMBOL_0
 70
     0
 10
0.0
 20
0.0
 30
0.0
  3
SW_DOWELSYMBOL_0
  1
SW_DOWELSYMBOL_0
  0
CIRCLE
  5
146
330
143
100
AcDbEntity
  8
해칭선
 62
     0
100
AcDbCircle
 10
0.0
 20
0.0
 30
0.0
 40
3.000000000000001
  0
HATCH
  5
147
330
143
100
AcDbEntity
  8
0
  6
Continuous
 62
     0
370
     0
100
AcDbHatch
 10
0.0
 20
0.0
 30
0.0
210
0.0
220
0.0
230
1.0
  2
SOLID
 70
     1
 71
     0
 91
        1
 92
        0
 93
        3
 72
     2
 10
0.0
 20
0.0
 40
3.000000000000001
 50
0.0
 51
90.0
 73
     1
 72
     1
 10
0.0
 20
3.000000000000001
 11
0.0
 21
0.0
 72
     1
 10
0.0
 20
0.0
 11
3.000000000000003
 21
0.0
 97
        0
 75
     0
 76
     1
 98
        1
 10
0.0
 20
0.0
  0
HATCH
  5
148
330
143
100
AcDbEntity
  8
0
  6
Continuous
 62
     0
370
     0
100
AcDbHatch
 10
0.0
 20
0.0
 30
0.0
210
0.0
220
0.0
230
1.0
  2
SOLID
 70
     1
 71
     0
 91
        1
 92
        0
 93
        3
 72
     2
 10
0.0
 20
0.0
 40
3.000000000000001
 50
180.0
 51
270.0000000000007
 73
     1
 72
     1
 10
0.0
 20
-3.000000000000001
 11
0.0
 21
0.0
 72
     1
 10
0.0
 20
0.0
 11
-3.000000000000003
 21
0.0
 97
        0
 75
     0
 76
     1
 98
        1
 10
0.0
 20
0.0
  0
ENDBLK
  5
145
330
143
100
AcDbEntity
  8
0
100
AcDbBlockEnd
  0
BLOCK
  5
20F
330
20E
100
AcDbEntity
  8
0
100
AcDbBlockBegin
  2
*D7
 70
     1
 10
0.0
 20
0.0
 30
0.0
  3
*D7
  1
*D8
  0
LINE
  5
210
330
20E
100
AcDbEntity
  8
치수문자_일반주서
 62
     0
370
    -2
100
AcDbLine
 10
16.81250000000004
 20
50.90019327235149
 30
0.0
 11
4.374999999999954
 21
50.90019327235144
 31
0.0
  0
LINE
  5
211
330
20E
100
AcDbEntity
  8
치수문자_일반주서
 62
     0
370
    -2
100
AcDbLine
 10
17.81250000000007
 20
0.1001932723514753
 30
0.0
 11
4.375000000000131
 21
0.1001932723514223
 31
0.0
  0
LINE
  5
212
330
20E
100
AcDbEntity
  8
치수문자_일반주서
 62
     0
370
    -2
100
AcDbLine
 10
4.374999999999965
 20
47.59819327235144
 30
0.0
 11
4.37500000000012
 21
3.402193272351422
 31
0.0
  0
SOLID
  5
213
330
20E
100
AcDbEntity
  8
치수문자_일반주서
 62
     0
100
AcDbTrace
 10
4.925333333333299
 20
47.59819327235144
 30
0.0
 11
3.824666666666632
 21
47.59819327235144
 31
0.0
 12
4.374999999999954
 22
50.90019327235144
 32
0.0
 13
4.374999999999954
 23
50.90019327235144
 33
0.0
  0
SOLID
  5
214
330
20E
100
AcDbEntity
  8
치수문자_일반주서
 62
     0
100
AcDbTrace
 10
3.824666666666787
 20
3.40219327235142
 30
0.0
 11
4.925333333333453
 21
3.402193272351424
 31
0.0
 12
4.375000000000131
 22
0.1001932723514223
 32
0.0
 13
4.375000000000131
 23
0.1001932723514223
 33
0.0
  0
MTEXT
  5
215
330
20E
100
AcDbEntity
  8
치수문자_일반주서
 62
     0
100
AcDbMText
 10
0.0000000000000426
 20
25.50019327235146
 30
0.0
 40
3.5
 41
0.0
 71
     2
 72
     1
  1
\A1;%%c50.80 [2]
  7
SLDTEXTSTYLE0
 11
-3.496765431890256E-15
 21
1.0
 31
0.0
 73
     1
 44
1.0
  0
POINT
  5
216
330
20E
100
AcDbEntity
  8
Defpoints
 62
     0
100
AcDbPoint
 10
16.87500000000004
 20
50.90019327235149
 30
0.0
  0
POINT
  5
217
330
20E
100
AcDbEntity
  8
Defpoints
 62
     0
100
AcDbPoint
 10
17.87500000000007
 20
0.1001932723514756
 30
0.0
  0
POINT
  5
218
330
20E
100
AcDbEntity
  8
Defpoints
 62
     0
100
AcDbPoint
 10
4.375000000000128
 20
0.1001932723514251
 30
0.0
  0
ENDBLK
  5
219
330
20E
100
AcDbEntity
  8
0
100
AcDbBlockEnd
  0
BLOCK
  5
241
330
240
100
AcDbEntity
  8
0
100
AcDbBlockBegin
  2
*D8
 70
     1
 10
0.0
 20
0.0
 30
0.0
  3
*D8
  1
*D9
  0
LINE
  5
243
330
240
100
AcDbEntity
  8
치수문자_일반주서
 62
     0
370
    -2
100
AcDbLine
 10
264.525
 20
50.96269327235145
 30
0.0
 11
264.525
 21
73.25482460591238
 31
0.0
  0
LINE
  5
244
330
240
100
AcDbEntity
  8
치수문자_일반주서
 62
     0
370
    -2
100
AcDbLine
 10
112.125
 20
50.62901001578467
 30
0.0
 11
112.125
 21
73.25482460591238
 31
0.0
  0
LINE
  5
245
330
240
100
AcDbEntity
  8
치수문자_일반주서
 62
     0
370
    -2
100
AcDbLine
 10
261.223
 20
73.25482460591238
 30
0.0
 11
115.427
 21
73.25482460591238
 31
0.0
  0
SOLID
  5
246
330
240
100
AcDbEntity
  8
치수문자_일반주서
 62
     0
100
AcDbTrace
 10
261.223
 20
72.70449127257905
 30
0.0
 11
261.223
 21
73.8051579392457
 31
0.0
 12
264.525
 22
73.25482460591238
 32
0.0
 13
264.525
 23
73.25482460591238
 33
0.0
  0
SOLID
  5
247
330
240
100
AcDbEntity
  8
치수문자_일반주서
 62
     0
100
AcDbTrace
 10
115.427
 20
73.8051579392457
 30
0.0
 11
115.427
 21
72.70449127257905
 31
0.0
 12
112.125
 22
73.25482460591238
 32
0.0
 13
112.125
 23
73.25482460591238
 33
0.0
  0
MTEXT
  5
248
330
240
100
AcDbEntity
  8
치수문자_일반주서
 62
     0
100
AcDbMText
 10
188.325
 20
77.62982460591238
 30
0.0
 40
3.5
 41
0.0
 71
     2
 72
     1
  1
\A1;152.40 [6]
  7
SLDTEXTSTYLE0
 73
     1
 44
1.0
  0
POINT
  5
249
330
240
100
AcDbEntity
  8
Defpoints
 62
     0
100
AcDbPoint
 10
264.525
 20
50.90019327235145
 30
0.0
  0
POINT
  5
24A
330
240
100
AcDbEntity
  8
Defpoints
 62
     0
100
AcDbPoint
 10
112.125
 20
50.56651001578467
 30
0.0
  0
POINT
  5
24B
330
240
100
AcDbEntity
  8
Defpoints
 62
     0
100
AcDbPoint
 10
112.125
 20
73.25482460591238
 30
0.0
  0
ENDBLK
  5
242
330
240
100
AcDbEntity
  8
0
100
AcDbBlockEnd
  0
BLOCK
  5
24D
330
24C
100
AcDbEntity
  8
0
100
AcDbBlockBegin
  2
*D9
 70
     1
 10
0.0
 20
0.0
 30
0.0
  3
*D9
  1
*D10
  0
LINE
  5
24F
330
24C
100
AcDbEntity
  8
치수문자_일반주서
 62
     0
370
    -2
100
AcDbLine
 10
264.525
 20
50.96269327235145
 30
0.0
 11
264.525
 21
85.2548246059124
 31
0.0
  0
LINE
  5
250
330
24C
100
AcDbEntity
  8
치수문자_일반주서
 62
     0
370
    -2
100
AcDbLine
 10
16.87500000000004
 20
45.88269327235146
 30
0.0
 11
16.87500000000004
 21
85.2548246059124
 31
0.0
  0
LINE
  5
251
330
24C
100
AcDbEntity
  8
치수문자_일반주서
 62
     0
370
    -2
100
AcDbLine
 10
261.223
 20
85.2548246059124
 30
0.0
 11
20.17700000000004
 21
85.2548246059124
 31
0.0
  0
SOLID
  5
252
330
24C
100
AcDbEntity
  8
치수문자_일반주서
 62
     0
100
AcDbTrace
 10
261.223
 20
84.70449127257908
 30
0.0
 11
261.223
 21
85.80515793924573
 31
0.0
 12
264.525
 22
85.2548246059124
 32
0.0
 13
264.525
 23
85.2548246059124
 33
0.0
  0
SOLID
  5
253
330
24C
100
AcDbEntity
  8
치수문자_일반주서
 62
     0
100
AcDbTrace
 10
20.17700000000004
 20
85.80515793924573
 30
0.0
 11
20.17700000000004
 21
84.70449127257908
 31
0.0
 12
16.87500000000004
 22
85.2548246059124
 32
0.0
 13
16.87500000000004
 23
85.2548246059124
 33
0.0
  0
MTEXT
  5
254
330
24C
100
AcDbEntity
  8
치수문자_일반주서
 62
     0
100
AcDbMText
 10
140.7
 20
89.6298246059124
 30
0.0
 40
3.5
 41
0.0
 71
     2
 72
     1
  1
\A1;247.65 [9 3/4]
  7
SLDTEXTSTYLE0
 73
     1
 44
1.0
  0
POINT
  5
255
330
24C
100
AcDbEntity
  8
Defpoints
 62
     0
100
AcDbPoint
 10
264.525
 20
50.90019327235145
 30
0.0
  0
POINT
  5
256
330
24C
100
AcDbEntity
  8
Defpoints
 62
     0
100
AcDbPoint
 10
16.87500000000004
 20
45.82019327235146
 30
0.0
  0
POINT
  5
257
330
24C
100
AcDbEntity
  8
Defpoints
 62
     0
100
AcDbPoint
 10
16.87500000000004
 20
85.2548246059124
 30
0.0
  0
ENDBLK
  5
24E
330
24C
100
AcDbEntity
  8
0
100
AcDbBlockEnd
  0
BLOCK
  5
259
330
258
100
AcDbEntity
  8
0
100
AcDbBlockBegin
  2
*D10
 70
     1
 10
0.0
 20
0.0
 30
0.0
  3
*D10
  1
*D11
  0
LINE
  5
25B
330
258
100
AcDbEntity
  8
치수문자_일반주서
 62
     0
370
    -2
100
AcDbLine
 10
264.5875
 20
50.90019327235145
 30
0.0
 11
289.4919763018229
 21
50.90019327235154
 31
0.0
  0
LINE
  5
25C
330
258
100
AcDbEntity
  8
치수문자_일반주서
 62
     0
370
    -2
100
AcDbLine
 10
264.5875
 20
0.1001932723514509
 30
0.0
 11
289.4919763018231
 21
0.1001932723515324
 31
0.0
  0
LINE
  5
25D
330
258
100
AcDbEntity
  8
치수문자_일반주서
 62
     0
370
    -2
100
AcDbLine
 10
289.4919763018229
 20
50.90019327235154
 30
0.0
 11
289.4919763018227
 21
107.9053542986497
 31
0.0
  0
LINE
  5
25E
330
258
100
AcDbEntity
  8
치수문자_일반주서
 62
     0
370
    -2
100
AcDbLine
 10
289.4919763018229
 20
47.59819327235154
 30
0.0
 11
289.4919763018231
 21
3.402193272351532
 31
0.0
  0
SOLID
  5
25F
330
258
100
AcDbEntity
  8
치수문자_일반주서
 62
     0
100
AcDbTrace
 10
290.0423096351562
 20
47.59819327235154
 30
0.0
 11
288.9416429684895
 21
47.59819327235154
 31
0.0
 12
289.4919763018229
 22
50.90019327235154
 32
0.0
 13
289.4919763018229
 23
50.90019327235154
 33
0.0
  0
SOLID
  5
260
330
258
100
AcDbEntity
  8
치수문자_일반주서
 62
     0
100
AcDbTrace
 10
288.9416429684897
 20
3.40219327235153
 30
0.0
 11
290.0423096351564
 21
3.402193272351534
 31
0.0
 12
289.4919763018231
 22
0.1001932723515324
 32
0.0
 13
289.4919763018231
 23
0.1001932723515324
 33
0.0
  0
MTEXT
  5
261
330
258
100
AcDbEntity
  8
치수문자_일반주서
 62
     0
100
AcDbMText
 10
285.1169763018227
 20
96.53035429864973
 30
0.0
 40
3.5
 41
0.0
 71
     2
 72
     1
  1
\A1;%%c50.80 [2]
  7
SLDTEXTSTYLE0
 11
-3.356894814614647E-15
 21
1.0
 31
0.0
 73
     1
 44
1.0
  0
POINT
  5
262
330
258
100
AcDbEntity
  8
Defpoints
 62
     0
100
AcDbPoint
 10
264.525
 20
50.90019327235145
 30
0.0
  0
POINT
  5
263
330
258
100
AcDbEntity
  8
Defpoints
 62
     0
100
AcDbPoint
 10
264.525
 20
0.1001932723514507
 30
0.0
  0
POINT
  5
264
330
258
100
AcDbEntity
  8
Defpoints
 62
     0
100
AcDbPoint
 10
289.491976301823
 20
0.100193272351544
 30
0.0
  0
ENDBLK
  5
25A
330
258
100
AcDbEntity
  8
0
100
AcDbBlockEnd
  0
BLOCK
  5
2D6
330
2D5
100
AcDbEntity
  8
0
100
AcDbBlockBegin
  2
*D11
 70
     1
 10
0.0
 20
0.0
 30
0.0
  3
*D11
  1
*D12
  0
LINE
  5
2D8
330
2D5
100
AcDbEntity
  8
치수문자_일반주서
 62
     0
370
    -2
100
AcDbLine
 10
423.921742780625
 20
-88.72639979088595
 30
0.0
 11
423.921742780625
 21
-66.43426845732503
 31
0.0
  0
LINE
  5
2D9
330
2D5
100
AcDbEntity
  8
치수문자_일반주서
 62
     0
370
    -2
100
AcDbLine
 10
271.521742780625
 20
-89.06008304745274
 30
0.0
 11
271.521742780625
 21
-66.43426845732503
 31
0.0
  0
LINE
  5
2DA
330
2D5
100
AcDbEntity
  8
치수문자_일반주서
 62
     0
370
    -2
100
AcDbLine
 10
420.619742780625
 20
-66.43426845732503
 30
0.0
 11
274.823742780625
 21
-66.43426845732503
 31
0.0
  0
SOLID
  5
2DB
330
2D5
100
AcDbEntity
  8
치수문자_일반주서
 62
     0
100
AcDbTrace
 10
420.619742780625
 20
-66.98460179065836
 30
0.0
 11
420.619742780625
 21
-65.8839351239917
 31
0.0
 12
423.921742780625
 22
-66.43426845732503
 32
0.0
 13
423.921742780625
 23
-66.43426845732503
 33
0.0
  0
SOLID
  5
2DC
330
2D5
100
AcDbEntity
  8
치수문자_일반주서
 62
     0
100
AcDbTrace
 10
274.823742780625
 20
-65.8839351239917
 30
0.0
 11
274.823742780625
 21
-66.98460179065836
 31
0.0
 12
271.521742780625
 22
-66.43426845732503
 32
0.0
 13
271.521742780625
 23
-66.43426845732503
 33
0.0
  0
MTEXT
  5
2DD
330
2D5
100
AcDbEntity
  8
치수문자_일반주서
 62
     0
100
AcDbMText
 10
347.721742780625
 20
-62.05926845732503
 30
0.0
 40
3.5
 41
0.0
 71
     2
 72
     1
  1
\A1;152.40 [6]
  7
SLDTEXTSTYLE0
 73
     1
 44
1.0
  0
POINT
  5
2DE
330
2D5
100
AcDbEntity
  8
Defpoints
 62
     0
100
AcDbPoint
 10
423.921742780625
 20
-88.78889979088595
 30
0.0
  0
POINT
  5
2DF
330
2D5
100
AcDbEntity
  8
Defpoints
 62
     0
100
AcDbPoint
 10
271.521742780625
 20
-89.12258304745274
 30
0.0
  0
POINT
  5
2E0
330
2D5
100
AcDbEntity
  8
Defpoints
 62
     0
100
AcDbPoint
 10
271.521742780625
 20
-66.43426845732503
 30
0.0
  0
ENDBLK
  5
2D7
330
2D5
100
AcDbEntity
  8
0
100
AcDbBlockEnd
  0
BLOCK
  5
2E2
330
2E1
100
AcDbEntity
  8
0
100
AcDbBlockBegin
  2
*D12
 70
     1
 10
0.0
 20
0.0
 30
0.0
  3
*D12
  1
*D13
  0
LINE
  5
2E4
330
2E1
100
AcDbEntity
  8
치수문자_일반주서
 62
     0
370
    -2
100
AcDbLine
 10
423.921742780625
 20
-88.72639979088595
 30
0.0
 11
423.921742780625
 21
-54.434268457325
 31
0.0
  0
LINE
  5
2E5
330
2E1
100
AcDbEntity
  8
치수문자_일반주서
 62
     0
370
    -2
100
AcDbLine
 10
176.271742780625
 20
-93.80639979088595
 30
0.0
 11
176.271742780625
 21
-54.434268457325
 31
0.0
  0
LINE
  5
2E6
330
2E1
100
AcDbEntity
  8
치수문자_일반주서
 62
     0
370
    -2
100
AcDbLine
 10
420.619742780625
 20
-54.434268457325
 30
0.0
 11
179.573742780625
 21
-54.434268457325
 31
0.0
  0
SOLID
  5
2E7
330
2E1
100
AcDbEntity
  8
치수문자_일반주서
 62
     0
100
AcDbTrace
 10
420.619742780625
 20
-54.98460179065834
 30
0.0
 11
420.619742780625
 21
-53.88393512399167
 31
0.0
 12
423.921742780625
 22
-54.434268457325
 32
0.0
 13
423.921742780625
 23
-54.434268457325
 33
0.0
  0
SOLID
  5
2E8
330
2E1
100
AcDbEntity
  8
치수문자_일반주서
 62
     0
100
AcDbTrace
 10
179.573742780625
 20
-53.88393512399167
 30
0.0
 11
179.573742780625
 21
-54.98460179065834
 31
0.0
 12
176.271742780625
 22
-54.434268457325
 32
0.0
 13
176.271742780625
 23
-54.434268457325
 33
0.0
  0
MTEXT
  5
2E9
330
2E1
100
AcDbEntity
  8
치수문자_일반주서
 62
     0
100
AcDbMText
 10
300.096742780625
 20
-50.059268457325
 30
0.0
 40
3.5
 41
0.0
 71
     2
 72
     1
  1
\A1;247.65 [9 3/4]
  7
SLDTEXTSTYLE0
 73
     1
 44
1.0
  0
POINT
  5
2EA
330
2E1
100
AcDbEntity
  8
Defpoints
 62
     0
100
AcDbPoint
 10
423.921742780625
 20
-88.78889979088595
 30
0.0
  0
POINT
  5
2EB
330
2E1
100
AcDbEntity
  8
Defpoints
 62
     0
100
AcDbPoint
 10
176.271742780625
 20
-93.86889979088595
 30
0.0
  0
POINT
  5
2EC
330
2E1
100
AcDbEntity
  8
Defpoints
 62
     0
100
AcDbPoint
 10
176.271742780625
 20
-54.434268457325
 30
0.0
  0
ENDBLK
  5
2E3
330
2E1
100
AcDbEntity
  8
0
100
AcDbBlockEnd
  0
BLOCK
  5
2EE
330
2ED
100
AcDbEntity
  8
0
100
AcDbBlockBegin
  2
*D13
 70
     1
 10
0.0
 20
0.0
 30
0.0
  3
*D13
  1
*D14
  0
LINE
  5
2F0
330
2ED
100
AcDbEntity
  8
치수문자_일반주서
 62
     0
370
    -2
100
AcDbLine
 10
423.984242780625
 20
-88.78889979088595
 30
0.0
 11
448.8887190824478
 21
-88.78889979088586
 31
0.0
  0
LINE
  5
2F1
330
2ED
100
AcDbEntity
  8
치수문자_일반주서
 62
     0
370
    -2
100
AcDbLine
 10
423.984242780625
 20
-139.588899790886
 30
0.0
 11
448.888719082448
 21
-139.5888997908859
 31
0.0
  0
LINE
  5
2F2
330
2ED
100
AcDbEntity
  8
치수문자_일반주서
 62
     0
370
    -2
100
AcDbLine
 10
448.8887190824478
 20
-88.78889979088586
 30
0.0
 11
448.8887190824476
 21
-31.78373876458767
 31
0.0
  0
LINE
  5
2F3
330
2ED
100
AcDbEntity
  8
치수문자_일반주서
 62
     0
370
    -2
100
AcDbLine
 10
448.8887190824478
 20
-92.09089979088586
 30
0.0
 11
448.888719082448
 21
-136.2868997908859
 31
0.0
  0
SOLID
  5
2F4
330
2ED
100
AcDbEntity
  8
치수문자_일반주서
 62
     0
100
AcDbTrace
 10
449.4390524157812
 20
-92.09089979088586
 30
0.0
 11
448.3383857491145
 21
-92.09089979088586
 31
0.0
 12
448.8887190824478
 22
-88.78889979088586
 32
0.0
 13
448.8887190824478
 23
-88.78889979088586
 33
0.0
  0
SOLID
  5
2F5
330
2ED
100
AcDbEntity
  8
치수문자_일반주서
 62
     0
100
AcDbTrace
 10
448.3383857491147
 20
-136.2868997908859
 30
0.0
 11
449.4390524157814
 21
-136.2868997908859
 31
0.0
 12
448.888719082448
 22
-139.5888997908859
 32
0.0
 13
448.888719082448
 23
-139.5888997908859
 33
0.0
  0
MTEXT
  5
2F6
330
2ED
100
AcDbEntity
  8
치수문자_일반주서
 62
     0
100
AcDbMText
 10
444.5137190824477
 20
-43.15873876458768
 30
0.0
 40
3.5
 41
0.0
 71
     2
 72
     1
  1
\A1;%%c50.80 [2]
  7
SLDTEXTSTYLE0
 11
-3.356894814614646E-15
 21
1.0
 31
0.0
 73
     1
 44
1.0
  0
POINT
  5
2F7
330
2ED
100
AcDbEntity
  8
Defpoints
 62
     0
100
AcDbPoint
 10
423.921742780625
 20
-88.78889979088595
 30
0.0
  0
POINT
  5
2F8
330
2ED
100
AcDbEntity
  8
Defpoints
 62
     0
100
AcDbPoint
 10
423.921742780625
 20
-139.588899790886
 30
0.0
  0
POINT
  5
2F9
330
2ED
100
AcDbEntity
  8
Defpoints
 62
     0
100
AcDbPoint
 10
448.888719082448
 20
-139.5888997908859
 30
0.0
  0
ENDBLK
  5
2EF
330
2ED
100
AcDbEntity
  8
0
100
AcDbBlockEnd
  0
BLOCK
  5
2FB
330
2FA
100
AcDbEntity
  8
0
100
AcDbBlockBegin
  2
*D14
 70
     1
 10
0.0
 20
0.0
 30
0.0
  3
*D14
  1
*D15
  0
LINE
  5
2FD
330
2FA
100
AcDbEntity
  8
치수문자_일반주서
 62
     0
370
    -2
100
AcDbLine
 10
-83.3125
 20
25.40107492872393
 30
0.0
 11
-95.75000000000009
 21
25.40107492872388
 31
0.0
  0
LINE
  5
2FE
330
2FA
100
AcDbEntity
  8
치수문자_일반주서
 62
     0
370
    -2
100
AcDbLine
 10
-82.3125
 20
-25.39892507127608
 30
0.0
 11
-95.74999999999991
 21
-25.39892507127614
 31
0.0
  0
LINE
  5
2FF
330
2FA
100
AcDbEntity
  8
치수문자_일반주서
 62
     0
370
    -2
100
AcDbLine
 10
-95.75000000000007
 20
22.09907492872388
 30
0.0
 11
-95.74999999999993
 21
-22.09692507127614
 31
0.0
  0
SOLID
  5
300
330
2FA
100
AcDbEntity
  8
치수문자_일반주서
 62
     0
100
AcDbTrace
 10
-95.19966666666674
 20
22.09907492872388
 30
0.0
 11
-96.3003333333334
 21
22.09907492872388
 31
0.0
 12
-95.75000000000009
 22
25.40107492872388
 32
0.0
 13
-95.75000000000009
 23
25.40107492872388
 33
0.0
  0
SOLID
  5
301
330
2FA
100
AcDbEntity
  8
치수문자_일반주서
 62
     0
100
AcDbTrace
 10
-96.30033333333326
 20
-22.09692507127614
 30
0.0
 11
-95.1996666666666
 21
-22.09692507127613
 31
0.0
 12
-95.74999999999991
 22
-25.39892507127614
 32
0.0
 13
-95.74999999999991
 23
-25.39892507127614
 33
0.0
  0
MTEXT
  5
302
330
2FA
100
AcDbEntity
  8
치수문자_일반주서
 62
     0
100
AcDbMText
 10
-100.125
 20
0.001074928723909
 30
0.0
 40
3.5
 41
0.0
 71
     2
 72
     1
  1
\A1;%%c50.80 [2]
  7
SLDTEXTSTYLE0
 11
-3.356894814614646E-15
 21
1.0
 31
0.0
 73
     1
 44
1.0
  0
POINT
  5
303
330
2FA
100
AcDbEntity
  8
Defpoints
 62
     0
100
AcDbPoint
 10
-83.25
 20
25.40107492872393
 30
0.0
  0
POINT
  5
304
330
2FA
100
AcDbEntity
  8
Defpoints
 62
     0
100
AcDbPoint
 10
-82.25
 20
-25.39892507127608
 30
0.0
  0
POINT
  5
305
330
2FA
100
AcDbEntity
  8
Defpoints
 62
     0
100
AcDbPoint
 10
-95.74999999999991
 20
-25.39892507127613
 30
0.0
  0
ENDBLK
  5
2FC
330
2FA
100
AcDbEntity
  8
0
100
AcDbBlockEnd
  0
ENDSEC
  0
SECTION
  2
ENTITIES
  0
LINE
  5
96
330
1F
100
AcDbEntity
  8
외형선
  6
Continuous
 62
     1
370
    15
100
AcDbLine
 10
76.89008437631797
 20
-4.884540013898625
 30
0.0
 11
77.09097786118888
 21
-5.078930826123434
 31
0.0
  0
LINE
  5
97
330
1F
100
AcDbEntity
  8
외형선
  6
Continuous
 62
     1
370
    15
100
AcDbLine
 10
87.4616403394918
 20
4.943739529395303
 30
0.0
 11
87.32097860419742
 21
5.080861918870857
 31
0.0
  0
LINE
  5
98
330
1F
100
AcDbEntity
  8
외형선
  6
Continuous
 62
     1
370
    15
100
AcDbLine
 10
34.28109133072915
 20
4.928034041185304
 30
0.0
 11
34.12310523985346
 21
5.081181803330747
 31
0.0
  0
LINE
  5
99
330
1F
100
AcDbEntity
  8
외형선
  6
Continuous
 62
     1
370
    15
100
AcDbLine
 10
193.7870191714966
 20
5.00887770255577
 30
0.0
 11
193.7165484959868
 21
5.080656641599833
 31
0.0
  0
LINE
  5
9A
330
1F
100
AcDbEntity
  8
외형선
  6
Continuous
 62
     1
370
    15
100
AcDbLine
 10
183.278140893303
 20
-4.877886590717249
 30
0.0
 11
183.4863155777021
 21
-5.078909272144513
 31
0.0
  0
LINE
  5
9B
330
1F
100
AcDbEntity
  8
외형선
  6
Continuous
 62
     1
370
    15
100
AcDbLine
 10
212.1290049659173
 20
-25.39892507127611
 30
0.0
 11
215.2
 21
-25.39892507127611
 31
0.0
  0
LINE
  5
9C
330
1F
100
AcDbEntity
  8
외형선
  6
Continuous
 62
     1
370
    15
100
AcDbLine
 10
52.53747908852516
 20
-25.39892507127611
 30
0.0
 11
58.67681089925154
 21
-25.39892507127611
 31
0.0
  0
LINE
  5
9D
330
1F
100
AcDbEntity
  8
외형선
  6
Continuous
 62
     1
370
    15
100
AcDbLine
 10
138.4750736562541
 20
25.4010749287239
 30
0.0
 11
132.3339219813583
 21
25.4010749287239
 31
0.0
  0
LINE
  5
9E
330
1F
100
AcDbEntity
  8
외형선
  6
Continuous
 62
     1
370
    15
100
AcDbLine
 10
132.3339219813583
 20
-25.39892507127611
 30
0.0
 11
138.4750736562539
 21
-25.39892507127611
 31
0.0
  0
LINE
  5
9F
330
1F
100
AcDbEntity
  8
외형선
  6
Continuous
 62
     1
370
    15
100
AcDbLine
 10
58.67681089925136
 20
25.4010749287239
 30
0.0
 11
52.53747908852527
 21
25.4010749287239
 31
0.0
  0
LINE
  5
A0
330
1F
100
AcDbEntity
  8
외형선
  6
Continuous
 62
     1
370
    15
100
AcDbLine
 10
215.2
 20
25.4010749287239
 30
0.0
 11
212.1290049659173
 21
25.4010749287239
 31
0.0
  0
LINE
  5
A1
330
1F
100
AcDbEntity
  8
외형선
  6
Continuous
 62
     1
370
    15
100
AcDbLine
 10
79.13598552862477
 20
-25.39892507127611
 30
0.0
 11
85.27629622487481
 21
-25.39892507127611
 31
0.0
  0
LINE
  5
A2
330
1F
100
AcDbEntity
  8
외형선
  6
Continuous
 62
     1
370
    15
100
AcDbLine
 10
165.071054669691
 20
25.4010749287239
 30
0.0
 11
158.9322370054332
 21
25.4010749287239
 31
0.0
  0
LINE
  5
A3
330
1F
100
AcDbEntity
  8
외형선
  6
Continuous
 62
     1
370
    15
100
AcDbLine
 10
105.7327059259029
 20
-25.39892507127611
 30
0.0
 11
111.8755992022892
 21
-25.39892507127611
 31
0.0
  0
LINE
  5
A4
330
1F
100
AcDbEntity
  8
외형선
  6
Continuous
 62
     1
370
    15
100
AcDbLine
 10
32.0785006950352
 20
25.4010749287239
 30
0.0
 11
25.93672732990757
 21
25.4010749287239
 31
0.0
  0
LINE
  5
A5
330
1F
100
AcDbEntity
  8
외형선
  6
Continuous
 62
     1
370
    15
100
AcDbLine
 10
191.6719584478664
 20
25.4010749287239
 30
0.0
 11
185.5306724843616
 21
25.4010749287239
 31
0.0
  0
LINE
  5
A6
330
1F
100
AcDbEntity
  8
외형선
  6
Continuous
 62
     1
370
    15
100
AcDbLine
 10
158.9322370054331
 20
-25.39892507127611
 30
0.0
 11
165.0710546696907
 21
-25.39892507127611
 31
0.0
  0
LINE
  5
A7
330
1F
100
AcDbEntity
  8
외형선
  6
Continuous
 62
     1
370
    15
100
AcDbLine
 10
85.2762962248747
 20
25.4010749287239
 30
0.0
 11
79.1359855286246
 21
25.4010749287239
 31
0.0
  0
LINE
  5
A8
330
1F
100
AcDbEntity
  8
외형선
  6
Continuous
 62
     1
370
    15
100
AcDbLine
 10
185.5306724843613
 20
-25.39892507127611
 30
0.0
 11
191.6719584478664
 21
-25.39892507127611
 31
0.0
  0
LINE
  5
A9
330
1F
100
AcDbEntity
  8
외형선
  6
Continuous
 62
     1
370
    15
100
AcDbLine
 10
25.93672732990743
 20
-25.39892507127611
 30
0.0
 11
32.0785006950352
 21
-25.39892507127611
 31
0.0
  0
LINE
  5
AA
330
1F
100
AcDbEntity
  8
외형선
  6
Continuous
 62
     1
370
    15
100
AcDbLine
 10
111.8755992022893
 20
25.4010749287239
 30
0.0
 11
105.7327059259027
 21
25.4010749287239
 31
0.0
  0
LINE
  5
AB
330
1F
100
AcDbEntity
  8
외형선
  6
Continuous
370
    15
100
AcDbLine
 10
-78.17
 20
-25.3989250712761
 30
0.0
 11
-73.72499999999997
 21
-25.3989250712761
 31
0.0
  0
LINE
  5
AC
330
1F
100
AcDbEntity
  8
외형선
  6
Continuous
370
    15
100
AcDbLine
 10
11.00033501722812
 20
25.40107492872389
 30
0.0
 11
-28.18280000000001
 21
25.40107492872389
 31
0.0
  0
LINE
  5
AF
330
1F
100
AcDbEntity
  8
외형선
  6
Continuous
 62
     1
370
    15
100
AcDbLine
 10
12.0
 20
-24.56654424629337
 30
0.0
 11
15.70709436872233
 21
-23.34145264594563
 31
0.0
  0
SPLINE
  5
B0
330
1F
100
AcDbEntity
  8
외형선
  6
Continuous
 62
     1
370
    15
100
AcDbSpline
210
0.0
220
0.0
230
1.0
 70
     8
 71
     3
 72
    29
 73
    25
 74
     0
 42
0.000000001
 43
0.00000001
 40
0.0
 40
0.0
 40
0.0
 40
0.0
 40
0.025528340443097
 40
0.072779868464967
 40
0.1200334180123082
 40
0.1672886729528099
 40
0.2145453163155433
 40
0.2618030304461552
 40
0.3090614971628105
 40
0.3563203979127174
 40
0.403579413929066
 40
0.4508382263881974
 40
0.4980965165668415
 40
0.5453539659992404
 40
0.5926102566339886
 40
0.6398650709904135
 40
0.6871180923143294
 40
0.7343690251407661
 40
0.7816203506460263
 40
0.828873726811976
 40
0.8761288375915105
 40
0.9233853660846281
 40
0.9706429946935413
 40
1.0
 40
1.0
 40
1.0
 40
1.0
 10
85.27629622487467
 20
25.31264988662109
 30
0.0
 10
86.04230941393348
 20
25.32690282521746
 30
0.0
 10
88.22617010266092
 20
25.36753715468337
 30
0.0
 10
91.8279579283992
 20
24.65405296889438
 30
0.0
 10
96.08180669105386
 20
23.25106090999427
 30
0.0
 10
100.3358802664104
 20
21.16266659741126
 30
0.0
 10
104.5901427927038
 20
18.49130065109359
 30
0.0
 10
108.8445495289422
 20
15.29992067080095
 30
0.0
 10
113.0990580083384
 20
11.68100210898172
 30
0.0
 10
117.3536250772366
 20
7.734989067666608
 30
0.0
 10
121.6082077248495
 20
3.572560781890062
 30
0.0
 10
125.8627628652251
 20
-0.6898304610324072
 30
0.0
 10
130.1172475195761
 20
-4.932857722027761
 30
0.0
 10
134.3716184450196
 20
-9.037759187722278
 30
0.0
 10
138.6258335771635
 20
-12.88964423369569
 30
0.0
 10
142.8798467708646
 20
-16.38070063265307
 30
0.0
 10
147.1336281453041
 20
-19.41328120962109
 30
0.0
 10
151.3871738406599
 20
-21.90243163453366
 30
0.0
 10
155.6407612953594
 20
-23.77914195424233
 30
0.0
 10
159.8945866720229
 20
-24.98838565339349
 30
0.0
 10
164.1486405493385
 20
-25.5057434976457
 30
0.0
 10
168.4028884668225
 20
-25.28150957955645
 30
0.0
 10
172.1200847258554
 20
-24.55783864007792
 30
0.0
 10
174.4192026987356
 20
-23.64111622863344
 30
0.0
 10
175.300173018382
 20
-23.28984880983911
 30
0.0
  0
SPLINE
  5
B1
330
1F
100
AcDbEntity
  8
외형선
  6
Continuous
370
    15
100
AcDbSpline
210
0.0
220
0.0
230
1.0
 70
    24
 71
     3
 72
    10
 73
     6
 74
     0
 42
0.000000001
 43
0.00000001
 40
0.0
 40
0.0
 40
0.0
 40
0.0
 40
0.1045576378323822
 40
0.7364522377286379
 40
0.9999999999999999
 40
0.9999999999999999
 40
0.9999999999999999
 40
0.9999999999999999
 10
11.99999999999994
 20
-21.88135448979903
 30
0.0
 10
11.99999999999992
 20
-21.9699139591665
 30
0.0
 10
11.99999999999981
 20
-22.59368301841294
 30
0.0
 10
12.00000000000009
 20
-23.50993134098308
 30
0.0
 10
12.0
 20
-24.32627648135761
 30
0.0
 10
12.0
 20
-24.56654424629336
 30
0.0
  0
SPLINE
  5
B2
330
1F
100
AcDbEntity
  8
외형선
  6
Continuous
 62
     1
370
    15
100
AcDbSpline
210
0.0
220
0.0
230
1.0
 70
     8
 71
     3
 72
    30
 73
    26
 74
     0
 42
0.000000001
 43
0.00000001
 40
0.0
 40
0.0
 40
0.0
 40
0.0
 40
0.0012189073189273
 40
0.0484762793400591
 40
0.0957335066688834
 40
0.142990270562871
 40
0.1902462525080026
 40
0.2375011343756714
 40
0.2847545985791569
 40
0.3320063282294983
 40
0.3792560072906049
 40
0.4265052936865708
 40
0.4737566685072431
 40
0.5210098362979472
 40
0.5682644803155344
 40
0.6155202830903949
 40
0.662776926582205
 40
0.7100340923363045
 40
0.7572914616405282
 40
0.804548715682327
 40
0.8518055357059969
 40
0.8990616031698475
 40
0.9463165999031297
 40
0.9935702082625587
 40
1.0
 40
1.0
 40
1.0
 40
1.0
 10
185.5306724843615
 20
-25.38999180834542
 30
0.0
 10
185.4940930670008
 20
-25.39296004854832
 30
0.0
 10
184.0393195772229
 20
-25.51100777784668
 30
0.0
 10
181.1663463609802
 20
-25.0897042523537
 30
0.0
 10
176.9117840892307
 20
-24.07701077981255
 30
0.0
 10
172.657282872173
 20
-22.30643634732296
 30
0.0
 10
168.4028877701115
 20
-19.93404958874362
 30
0.0
 10
164.148640736014
 20
-16.99773861554621
 30
0.0
 10
159.894586622006
 20
-13.58735552235681
 30
0.0
 10
155.6407613087604
 20
-9.796333874821554
 30
0.0
 10
151.3871738370701
 20
-5.731264458456486
 30
0.0
 10
147.1336281462635
 20
-1.505726493178955
 30
0.0
 10
142.879846770617
 20
2.761945353133571
 30
0.0
 10
138.6258335771954
 20
6.952446117005468
 30
0.0
 10
134.3716184451401
 20
10.94846432637125
 30
0.0
 10
130.1172475190627
 20
14.63815306924876
 30
0.0
 10
125.8627628671586
 20
17.91819387400779
 30
0.0
 10
121.6082077176293
 20
20.69687482227851
 30
0.0
 10
117.3536251041844
 20
22.89600112609616
 30
0.0
 10
113.0990579077682
 20
24.4555423313805
 30
0.0
 10
108.8445499042695
 20
25.32615035496132
 30
0.0
 10
104.5901413920014
 20
25.50474117505109
 30
0.0
 10
100.3358854937093
 20
24.9069498742699
 30
0.0
 10
97.30682000080816
 20
24.15137373590737
 30
0.0
 10
95.69587263114633
 20
23.41839489900691
 30
0.0
 10
95.50292553636075
 20
23.33060423633059
 30
0.0
  0
SPLINE
  5
B3
330
1F
100
AcDbEntity
  8
외형선
  6
Continuous
 62
     1
370
    15
100
AcDbSpline
210
0.0
220
0.0
230
1.0
 70
     8
 71
     3
 72
    11
 73
     7
 74
     0
 42
0.000000001
 43
0.00000001
 40
0.0
 40
0.0
 40
0.0
 40
0.0
 40
0.1202086417249491
 40
0.4134740646538149
 40
0.7067378848280028
 40
1.0
 40
1.0
 40
1.0
 40
1.0
 10
25.9367273299074
 20
-25.3194296732617
 30
0.0
 10
25.37828616660175
 20
-25.3390219277841
 30
0.0
 10
23.45745140506827
 20
-25.40641216692884
 30
0.0
 10
20.1742414959357
 20
-24.82315574087693
 30
0.0
 10
16.08710514745857
 20
-23.64586997323362
 30
0.0
 10
13.36236574225816
 20
-22.32867314093847
 30
0.0
 10
12.00000000000004
 20
-21.67007663930426
 30
0.0
  0
LINE
  5
B4
330
1F
100
AcDbEntity
  8
외형선
  6
Continuous
 62
     1
370
    15
100
AcDbLine
 10
215.2
 20
-9.9536513859467
 30
0.0
 11
215.2
 21
9.95580124339497
 31
0.0
  0
SPLINE
  5
B5
330
1F
100
AcDbEntity
  8
외형선
  6
Continuous
 62
     1
370
    15
100
AcDbSpline
210
0.0
220
0.0
230
1.0
 70
     8
 71
     3
 72
    27
 73
    23
 74
     0
 42
0.000000001
 43
0.00000001
 40
0.0
 40
0.0
 40
0.0
 40
0.0
 40
0.0489477288072597
 40
0.0978957421926501
 40
0.1468440230902666
 40
0.1957925544164514
 40
0.2447413190709191
 40
0.2936902999378866
 40
0.3446368863619803
 40
0.3955845955157758
 40
0.4465330843296473
 40
0.497482009349651
 40
0.5484310269067465
 40
0.5993797932862553
 40
0.6503279648973715
 40
0.7012751984425306
 40
0.7522211510864607
 40
0.8031654806247187
 40
0.8541078456515324
 40
0.9050479937314916
 40
0.9559889444860709
 40
0.9999999999999999
 40
0.9999999999999999
 40
0.9999999999999999
 40
0.9999999999999999
 10
12.0
 20
24.5686941037412
 30
0.0
 10
13.36236579894388
 20
24.16142938337861
 30
0.0
 10
16.08710531751601
 20
23.34689757484934
 30
0.0
 10
20.17424081569995
 20
21.35181766636755
 30
0.0
 10
24.26141066640241
 20
18.85065196142557
 30
0.0
 10
28.34860555552123
 20
15.85024226574733
 30
0.0
 10
32.43585413204403
 20
12.44356687442172
 30
0.0
 10
36.57863199676839
 20
8.663875167755002
 30
0.0
 10
40.77741319617171
 20
4.597382707554861
 30
0.0
 10
45.031813198157
 20
0.3484064792743064
 30
0.0
 10
49.28633369289379
 20
-3.910327233564158
 30
0.0
 10
53.54090271630835
 20
-8.0596051948742
 30
0.0
 10
57.79548497481495
 20
-11.98328499849931
 30
0.0
 10
62.05003531408052
 20
-15.57152899923854
 30
0.0
 10
66.30451131395418
 20
-18.72393243988983
 30
0.0
 10
70.55886958069834
 20
-21.3521537391929
 30
0.0
 10
74.81306812291879
 20
-23.38306840879435
 30
0.0
 10
79.06706069542649
 20
-24.75828128883806
 30
0.0
 10
83.3208196356035
 20
-25.44522251615081
 30
0.0
 10
87.57435115416274
 20
-25.40274654461532
 30
0.0
 10
91.63501179816302
 20
-24.74521769871249
 30
0.0
 10
94.27791678891816
 20
-23.77715814461261
 30
0.0
 10
95.50292553636098
 20
-23.32845437888281
 30
0.0
  0
SPLINE
  5
B6
330
1F
100
AcDbEntity
  8
외형선
  6
Continuous
 62
     1
370
    15
100
AcDbSpline
210
0.0
220
0.0
230
1.0
 70
     8
 71
     3
 72
    19
 73
    15
 74
     0
 42
0.000000001
 43
0.00000001
 40
0.0
 40
0.0
 40
0.0
 40
0.0
 40
0.0664649114148186
 40
0.1513332969163562
 40
0.236203086742473
 40
0.3210737088646244
 40
0.4059445908438772
 40
0.4908151601131433
 40
0.5756848442595521
 40
0.6605530713066635
 40
0.7454192699961814
 40
0.8302828700688937
 40
0.9151433025444927
 40
1.0
 40
1.0
 40
1.0
 40
1.0
 10
165.071054669691
 20
25.34064527041574
 30
0.0
 10
166.1816548541279
 20
25.32276791982202
 30
0.0
 10
168.7103693876928
 20
25.282063157747
 30
0.0
 10
172.6572841121147
 20
24.3768589281765
 30
0.0
 10
176.9117835236706
 20
22.80144423224927
 30
0.0
 10
181.1663473832686
 20
20.56576807564792
 30
0.0
 10
185.4209302905057
 20
17.76043881633914
 30
0.0
 10
189.6754898031989
 20
14.45650284687141
 30
0.0
 10
193.9299827559351
 20
10.74832964759131
 30
0.0
 10
198.1843659944478
 20
6.739670857223784
 30
0.0
 10
202.4385972594854
 20
2.541063175201688
 30
0.0
 10
206.6926310567975
 20
-1.723214092450813
 30
0.0
 10
210.946434431876
 20
-5.95914963349936
 30
0.0
 10
213.7821656129115
 20
-8.622170337118579
 30
0.0
 10
215.2
 20
-9.953651385946703
 30
0.0
  0
SPLINE
  5
B7
330
1F
100
AcDbEntity
  8
외형선
  6
Continuous
 62
     1
370
    15
100
AcDbSpline
210
0.0
220
0.0
230
1.0
 70
     8
 71
     3
 72
    17
 73
    13
 74
     0
 42
0.000000001
 43
0.00000001
 40
0.0
 40
0.0
 40
0.0
 40
0.0
 40
0.1066111980530006
 40
0.2132270886639127
 40
0.3198469589409361
 40
0.426470094035694
 40
0.5330957774930389
 40
0.6397232916026085
 40
0.7463519177517816
 40
0.8529809367796238
 40
0.9596096293314442
 40
1.0
 40
1.0
 40
1.0
 40
1.0
 10
215.2
 20
9.955801243394976
 30
0.0
 10
213.7821656128806
 20
11.23341964597772
 30
0.0
 10
210.946434431783
 20
13.78871268630849
 30
0.0
 10
206.6926310571707
 20
17.16111733382076
 30
0.0
 10
202.4385972580855
 20
20.0734194047895
 30
0.0
 10
198.1843659996745
 20
22.418434452496
 30
0.0
 10
193.9299827364277
 20
24.13832270046027
 30
0.0
 10
189.6754898760033
 20
25.17928333468595
 30
0.0
 10
185.4209300187926
 20
25.52690245604865
 30
0.0
 10
181.1663483973172
 20
25.11812944255034
 30
0.0
 10
177.7927548508371
 20
24.36071002208462
 30
0.0
 10
175.837372784933
 20
23.52232670820908
 30
0.0
 10
175.3001730183821
 20
23.29199866728689
 30
0.0
  0
SPLINE
  5
B8
330
1F
100
AcDbEntity
  8
외형선
  6
Continuous
 62
     1
370
    15
100
AcDbSpline
210
0.0
220
0.0
230
1.0
 70
     8
 71
     3
 72
    30
 73
    26
 74
     0
 42
0.000000001
 43
0.00000001
 40
0.0
 40
0.0
 40
0.0
 40
0.0
 40
0.0126914328004356
 40
0.0599468031449469
 40
0.1072007851046282
 40
0.1544530617170902
 40
0.2017033168585373
 40
0.2489528274795145
 40
0.2962043944285135
 40
0.3434577835591877
 40
0.3907126782007717
 40
0.4379687609416942
 40
0.4852257137852575
 40
0.532483218305967
 40
0.57974095580633
 40
0.6269986074739565
 40
0.6742558545387886
 40
0.7215123784302797
 40
0.7687678609343589
 40
0.8141704653345165
 40
0.8595728691868693
 40
0.9049750566156822
 40
0.9503770117595933
 40
0.9957787187726637
 40
1.0
 40
1.0
 40
1.0
 40
1.0
 10
105.7327059259029
 20
-25.32900637768461
 30
0.0
 10
105.3518431184934
 20
-25.34968878135705
 30
0.0
 10
103.5528730494695
 20
-25.44738019264307
 30
0.0
 10
100.3358824094372
 20
-24.90943588199627
 30
0.0
 10
96.08180579325276
 20
-23.70687752917375
 30
0.0
 10
91.8279593766022
 20
-21.78568160566113
 30
0.0
 10
87.57434980364417
 20
-19.26959593876583
 30
0.0
 10
83.32081999748839
 20
-16.21024023257455
 30
0.0
 10
79.0670605984538
 20
-12.69830915077042
 30
0.0
 10
74.81306814890377
 20
-8.830623692575365
 30
0.0
 10
70.55886957373548
 20
-4.715787369585259
 30
0.0
 10
66.30451131581955
 20
-0.4688668313383508
 30
0.0
 10
62.05003531358177
 20
3.791239965109463
 30
0.0
 10
57.79548497494422
 20
7.945294663095219
 30
0.0
 10
53.54090271629003
 20
11.87701336616124
 30
0.0
 10
49.28633369283753
 20
15.47634899418388
 30
0.0
 10
45.03181319840024
 20
18.64252402734962
 30
0.0
 10
40.77741319525474
 20
21.28703228469818
 30
0.0
 10
36.5786320001357
 20
23.30870214578476
 30
0.0
 10
32.43585412002336
 20
24.68123608910924
 30
0.0
 10
28.34860560044211
 20
25.39325420272388
 30
0.0
 10
24.2614104987402
 20
25.46584641617666
 30
0.0
 10
20.17424144142291
 20
24.81827468973535
 30
0.0
 10
17.32280573287447
 20
24.08112939017052
 30
0.0
 10
15.83376285392455
 20
23.40142311146525
 30
0.0
 10
15.70709436872254
 20
23.34360250339342
 30
0.0
  0
LINE
  5
B9
330
1F
100
AcDbEntity
  8
외형선
  6
Continuous
 62
     1
370
    15
100
AcDbLine
 10
215.2
 20
15.22085797437896
 30
0.0
 11
215.2
 21
25.21571972169408
 31
0.0
  0
SPLINE
  5
BA
330
1F
100
AcDbEntity
  8
외형선
  6
Continuous
 62
     1
370
    15
100
AcDbSpline
210
0.0
220
0.0
230
1.0
 70
     8
 71
     3
 72
    30
 73
    26
 74
     0
 42
0.000000001
 43
0.00000001
 40
0.0
 40
0.0
 40
0.0
 40
0.0
 40
0.0039693673975806
 40
0.0493717152504917
 40
0.096626930737645
 40
0.143883187606326
 40
0.1911401676442609
 40
0.2383975522827043
 40
0.2856550227533992
 40
0.3329122602457569
 40
0.3801689460640864
 40
0.4274247617846908
 40
0.4746793894126705
 40
0.521932511538247
 40
0.5691838114924447
 40
0.6164330551302395
 40
0.6636830432842975
 40
0.7109350528979477
 40
0.7581887678491817
 40
0.8054438711774007
 40
0.852700045238603
 40
0.8999569718613231
 40
0.94721433250315
 40
0.9944718084076624
 40
1.0
 40
1.0
 40
1.0
 40
1.0
 10
32.0785006950352
 20
25.3748810737251
 30
0.0
 10
32.19761197932027
 20
25.38346360056483
 30
0.0
 10
33.67913984555589
 20
25.49021463387043
 30
0.0
 10
36.57862915512943
 20
25.07073191032429
 30
0.0
 10
40.77741397043644
 20
24.05027892168817
 30
0.0
 10
45.03181299068574
 20
22.26951981223947
 30
0.0
 10
49.28633374849508
 20
19.88525488730193
 30
0.0
 10
53.54090270137759
 20
16.93916626872931
 30
0.0
 10
57.79548497893633
 20
13.52042651599043
 30
0.0
 10
62.05003531252576
 20
9.722934140913424
 30
0.0
 10
66.30451131605189
 20
5.653472248394783
 30
0.0
 10
70.55886957386234
 20
1.425824962450582
 30
0.0
 10
74.81306814816416
 20
-2.841634756282579
 30
0.0
 10
79.06706060128555
 20
-7.029474860442352
 30
0.0
 10
83.32081998690185
 20
-11.02047644701228
 30
0.0
 10
87.57434984315734
 20
-14.70308643315531
 30
0.0
 10
91.82795922913027
 20
-17.97415111623422
 30
0.0
 10
96.08180634365999
 20
-20.74229809281638
 30
0.0
 10
100.335880355185
 20
-22.92964607520865
 30
0.0
 10
104.5901427850155
 20
-24.47651616434598
 30
0.0
 10
108.8445494709159
 20
-25.33370132088048
 30
0.0
 10
113.099058248137
 20
-25.49915119323144
 30
0.0
 10
117.3536241760604
 20
-24.88625158974563
 30
0.0
 10
120.3559196319644
 20
-24.13247732279362
 30
0.0
 10
121.940013611727
 20
-23.40890073111174
 30
0.0
 10
122.1059142327795
 20
-23.33312125876185
 30
0.0
  0
SPLINE
  5
BB
330
1F
100
AcDbEntity
  8
외형선
  6
Continuous
 62
     1
370
    15
100
AcDbSpline
210
0.0
220
0.0
230
1.0
 70
     8
 71
     3
 72
    13
 73
     9
 74
     0
 42
0.000000001
 43
0.00000001
 40
0.0
 40
0.0
 40
0.0
 40
0.0
 40
0.0959689954853301
 40
0.2767862665886762
 40
0.4575992161443993
 40
0.6384066291782017
 40
0.8192072934405745
 40
0.9999999999999999
 40
0.9999999999999999
 40
0.9999999999999999
 40
0.9999999999999999
 10
191.6719584478665
 20
25.31239430356991
 30
0.0
 10
192.4246401865578
 20
25.32740160154806
 30
0.0
 10
194.5954659551125
 20
25.37068447595923
 30
0.0
 10
198.1843650893161
 20
24.66358727035377
 30
0.0
 10
202.4385975019208
 20
23.26910944990691
 30
0.0
 10
206.6926309921515
 20
21.17996685616889
 30
0.0
 10
210.9464344480365
 20
18.5382495301474
 30
0.0
 10
213.7821656182984
 20
16.35339608713777
 30
0.0
 10
215.2
 20
15.26099340702321
 30
0.0
  0
SPLINE
  5
BC
330
1F
100
AcDbEntity
  8
외형선
  6
Continuous
 62
     1
370
    15
100
AcDbSpline
210
0.0
220
0.0
230
1.0
 70
     8
 71
     3
 72
    11
 73
     7
 74
     0
 42
0.000000001
 43
0.00000001
 40
0.0
 40
0.0
 40
0.0
 40
0.0
 40
0.319814456348292
 40
0.6396429895279557
 40
0.9594834609915626
 40
1.0
 40
1.0
 40
1.0
 40
1.0
 10
215.2
 20
25.21571972169408
 30
0.0
 10
213.7821659255595
 20
25.32182803645146
 30
0.0
 10
210.9464353698334
 20
25.5340493363894
 30
0.0
 10
206.6926273047176
 20
24.88909349036664
 30
0.0
 10
203.677033706287
 20
24.14330658792141
 30
0.0
 10
202.079363589764
 20
23.41478313056713
 30
0.0
 10
201.8997304434185
 20
23.33287200293348
 30
0.0
  0
SPLINE
  5
BD
330
1F
100
AcDbEntity
  8
외형선
  6
Continuous
 62
     1
370
    15
100
AcDbSpline
210
0.0
220
0.0
230
1.0
 70
     8
 71
     3
 72
    29
 73
    25
 74
     0
 42
0.000000001
 43
0.00000001
 40
0.0
 40
0.0
 40
0.0
 40
0.0
 40
0.0246223100662825
 40
0.0718802082999631
 40
0.1191386288098
 40
0.1663972528751656
 40
0.2136557616750459
 40
0.2609138364452735
 40
0.3081711586357
 40
0.3554274100671284
 40
0.40268227308784
 40
0.4499354307295357
 40
0.4971865668625258
 40
0.5444369584611641
 40
0.5916894064261651
 40
0.6389436766068161
 40
0.6861994523264476
 40
0.7334564161675698
 40
0.7807142501275562
 40
0.8279726357749749
 40
0.8752312544063912
 40
0.9224897872034704
 40
0.9697479153902113
 40
1.0
 40
1.0
 40
1.0
 40
1.0
 10
132.3339219813583
 20
-25.31006677963783
 30
0.0
 10
131.5950378419553
 20
-25.32577659526581
 30
0.0
 10
129.4380044154875
 20
-25.371638450496
 30
0.0
 10
125.8627614494954
 20
-24.67190098181839
 30
0.0
 10
121.6082081040771
 20
-23.28264207630778
 30
0.0
 10
117.3536249760701
 20
-21.20581308550273
 30
0.0
 10
113.0990580337773
 20
-18.54506365471646
 30
0.0
 10
108.8445495283523
 20
-15.36268071823313
 30
0.0
 10
104.5901427696259
 20
-11.75101986298115
 30
0.0
 10
100.3358803593084
 20
-7.810309945230721
 30
0.0
 10
96.08180634255513
 20
-3.651096091537866
 30
0.0
 10
91.82795922942628
 20
0.6102586769116998
 30
0.0
 10
87.57434984307824
 20
4.854531244891233
 30
0.0
 10
83.3208199869222
 20
8.963016815646137
 30
0.0
 10
79.06706060128293
 20
12.82067072383061
 30
0.0
 10
74.81306814815377
 20
16.31963684399421
 30
0.0
 10
70.55886957390614
 20
19.36199700381728
 30
0.0
 10
66.30451131588691
 20
21.86240287763272
 30
0.0
 10
62.05003531314173
 20
23.75150124899729
 30
0.0
 10
57.79548497663728
 20
24.97395790364283
 30
0.0
 10
53.54090270995779
 20
25.50466037526328
 30
0.0
 10
49.28633371647319
 20
25.29473651915579
 30
0.0
 10
45.54212848778985
 20
24.57509677622106
 30
0.0
 10
43.21613719748404
 20
23.65337217533756
 30
0.0
 10
42.30830734155683
 20
23.29362486454061
 30
0.0
  0
SPLINE
  5
BE
330
1F
100
AcDbEntity
  8
외형선
  6
Continuous
 62
     1
370
    15
100
AcDbSpline
210
0.0
220
0.0
230
1.0
 70
     8
 71
     3
 72
    15
 73
    11
 74
     0
 42
0.000000001
 43
0.00000001
 40
0.0
 40
0.0
 40
0.0
 40
0.0
 40
0.134853320028169
 40
0.2697074240826178
 40
0.4045622651459683
 40
0.5394177961519306
 40
0.6742739699884059
 40
0.8091307395005978
 40
0.9494910072965592
 40
0.9999999999999999
 40
0.9999999999999999
 40
0.9999999999999999
 40
0.9999999999999999
 10
12.0
 20
-17.86789947761451
 30
0.0
 10
13.36236579889704
 20
-18.7915385066689
 30
0.0
 10
16.08710531737545
 20
-20.63882193474018
 30
0.0
 10
20.17424081626217
 20
-22.75255607793967
 30
0.0
 10
24.26141066429425
 20
-24.31232414986353
 30
0.0
 10
28.34860556339162
 20
-25.2320850632542
 30
0.0
 10
32.43585410267042
 20
-25.51317344829629
 30
0.0
 10
36.57863210828371
 20
-25.08793403229988
 30
0.0
 10
39.86957691361503
 20
-24.34254547213995
 30
0.0
 10
41.7979970059896
 20
-23.51141408505629
 30
0.0
 10
42.3083073415568
 20
-23.29147500709282
 30
0.0
  0
SPLINE
  5
BF
330
1F
100
AcDbEntity
  8
외형선
  6
Continuous
 62
     1
370
    15
100
AcDbSpline
210
0.0
220
0.0
230
1.0
 70
     8
 71
     3
 72
    29
 73
    25
 74
     0
 42
0.000000001
 43
0.00000001
 40
0.0
 40
0.0
 40
0.0
 40
0.0
 40
0.0135899720060825
 40
0.0608492183061796
 40
0.1081085798735613
 40
0.1553677378822373
 40
0.2026263736066072
 40
0.2498841685785844
 40
0.2971408047444381
 40
0.3443959646211741
 40
0.3916493314522909
 40
0.4389006097706573
 40
0.4861522807707188
 40
0.5334060024464636
 40
0.5806614587484766
 40
0.6279183327744389
 40
0.6751763069242406
 40
0.7224350630558636
 40
0.7696942826418608
 40
0.8169536469262647
 40
0.8642128370817469
 40
0.9114715343668527
 40
0.9587294202831487
 40
1.0
 40
1.0
 40
1.0
 40
1.0
 10
111.8755992022893
 20
25.32814905280566
 30
0.0
 10
112.283415334428
 20
25.34933848789419
 30
0.0
 10
114.1094156265685
 20
25.44421436850008
 30
0.0
 10
117.3536262738055
 20
24.89539904413974
 30
0.0
 10
121.6082074042313
 20
23.67839431756861
 30
0.0
 10
125.862762951132
 20
21.74525812797653
 30
0.0
 10
130.1172474965627
 20
19.21788134668457
 30
0.0
 10
134.3716184511682
 20
16.14886089374283
 30
0.0
 10
138.6258335755818
 20
12.62898282688526
 30
0.0
 10
142.8798467710428
 20
8.755478111803514
 30
0.0
 10
147.1336281461732
 20
4.637139066033883
 30
0.0
 10
151.387173837006
 20
0.3890172290636565
 30
0.0
 10
155.6407613091065
 20
-3.869935889132315
 30
0.0
 10
159.8945866206855
 20
-8.020574839516538
 30
0.0
 10
164.1486407409502
 20
-11.94680630726391
 30
0.0
 10
168.4028877516859
 20
-15.53870966956939
 30
0.0
 10
172.6572829409412
 20
-18.69576337635025
 30
0.0
 10
176.9117838325785
 20
-21.3294735118127
 30
0.0
 10
181.1663473188304
 20
-23.36652241002461
 30
0.0
 10
185.4209302393477
 20
-24.74833909936013
 30
0.0
 10
189.675490072266
 20
-25.44201043402037
 30
0.0
 10
193.9299817308438
 20
-25.40660930166555
 30
0.0
 10
198.0047343660735
 20
-24.75229030773931
 30
0.0
 10
200.6612872355087
 20
-23.78272040175197
 30
0.0
 10
201.8997304434185
 20
-23.33072214548569
 30
0.0
  0
SPLINE
  5
C0
330
1F
100
AcDbEntity
  8
외형선
  6
Continuous
370
    15
100
AcDbSpline
210
0.0
220
0.0
230
1.0
 70
    24
 71
     3
 72
    23
 73
    19
 74
     0
 42
0.000000001
 43
0.00000001
 40
0.0
 40
0.0
 40
0.0
 40
0.0
 40
0.0371002469728921
 40
0.1029072785981721
 40
0.1706227185986704
 40
0.2364297502239505
 40
0.3041451902244492
 40
0.3699522218497293
 40
0.4376676618502282
 40
0.5034746934755093
 40
0.571190133476008
 40
0.6369971651012885
 40
0.7047126051017867
 40
0.7705196367270674
 40
0.8382350767275658
 40
0.9040421083528464
 40
0.9717575483533453
 40
1.0
 40
1.0
 40
1.0
 40
1.0
 10
12.0
 20
0.7607347294191559
 30
0.0
 10
12.0
 20
0.7519472766798236
 30
0.0
 10
12.00000000000003
 20
0.7275729686630747
 30
0.0
 10
11.99999999999994
 20
0.3883429203763704
 30
0.0
 10
12.00000000000003
 20
-0.2397217112955725
 30
0.0
 10
12.00000000000003
 20
-1.145722037303359
 30
0.0
 10
11.99999999999998
 20
-2.272614815687151
 30
0.0
 10
11.99999999999996
 20
-3.612837115623817
 30
0.0
 10
12.00000000000007
 20
-5.103249426342419
 30
0.0
 10
11.99999999999991
 20
-6.728779963697804
 30
0.0
 10
12.00000000000003
 20
-8.414089017469982
 30
0.0
 10
11.99999999999999
 20
-10.14180805130369
 30
0.0
 10
12.00000000000001
 20
-11.83200509153209
 30
0.0
 10
11.99999999999992
 20
-13.46699055251059
 30
0.0
 10
12.00000000000003
 20
-14.97206755240255
 30
0.0
 10
11.99999999999998
 20
-16.32795244487689
 30
0.0
 10
12.00000000000003
 20
-17.26768895464704
 30
0.0
 10
12.0
 20
-17.73141501852874
 30
0.0
 10
12.0
 20
-17.86789947761451
 30
0.0
  0
SPLINE
  5
C1
330
1F
100
AcDbEntity
  8
외형선
  6
Continuous
 62
     1
370
    15
100
AcDbSpline
210
0.0
220
0.0
230
1.0
 70
     8
 71
     3
 72
    29
 73
    25
 74
     0
 42
0.000000001
 43
0.00000001
 40
0.0
 40
0.0
 40
0.0
 40
0.0
 40
0.0131365240208378
 40
0.0603903299239924
 40
0.107645899676503
 40
0.1549029164465515
 40
0.2021610626901744
 40
0.2494200203070776
 40
0.2966794707970721
 40
0.3439390954169478
 40
0.391198575337619
 40
0.4384575918013633
 40
0.4857158262789787
 40
0.5329729606266942
 40
0.5802286772426513
 40
0.6274826592227839
 40
0.6747345905159371
 40
0.7219861291252326
 40
0.7692397562587827
 40
0.8164951764478292
 40
0.8637520729341258
 40
0.9110101282329294
 40
0.958269024288757
 40
1.0
 40
1.0
 40
1.0
 40
1.0
 10
212.1290049659174
 20
-25.32748966227395
 30
0.0
 10
211.7348296442206
 20
-25.3484380003367
 30
0.0
 10
209.9227538098976
 20
-25.444740267585
 30
0.0
 10
206.6926276049441
 20
-24.9014601079483
 30
0.0
 10
202.43859818456
 20
-23.69178637364167
 30
0.0
 10
198.1843657461623
 20
-21.76469618145688
 30
0.0
 10
193.9299828239682
 20
-19.24297536569344
 30
0.0
 10
189.6754897793587
 20
-16.17873574581203
 30
0.0
 10
185.4209303178326
 20
-12.66268385159251
 30
0.0
 10
181.1663472978003
 20
-8.791909689821738
 30
0.0
 10
176.9117838382135
 20
-4.675117122333028
 30
0.0
 10
172.657282939431
 20
-0.4274479361542859
 30
0.0
 10
168.4028877520916
 20
3.832173909568805
 30
0.0
 10
164.1486407408375
 20
7.984525862603673
 30
0.0
 10
159.8945866207307
 20
11.91339150121459
 30
0.0
 10
155.6407613090379
 20
15.50880660830927
 30
0.0
 10
151.3871738372351
 20
18.6702564931552
 30
0.0
 10
147.1336281453255
 20
21.30918247031867
 30
0.0
 10
142.8798467742043
 20
23.35211498793573
 30
0.0
 10
138.6258335637833
 20
24.74041064406136
 30
0.0
 10
134.371618495203
 20
25.44081262391924
 30
0.0
 10
130.1172473322171
 20
25.41262668562781
 30
0.0
 10
126.0286633508103
 20
24.76164348546068
 30
0.0
 10
123.3582022290993
 20
23.79062243808872
 30
0.0
 10
122.1059142327795
 20
23.33527111620964
 30
0.0
  0
SPLINE
  5
C2
330
1F
100
AcDbEntity
  8
외형선
  6
Continuous
 62
     1
370
    15
100
AcDbSpline
210
0.0
220
0.0
230
1.0
 70
     8
 71
     3
 72
    17
 73
    13
 74
     0
 42
0.000000001
 43
0.00000001
 40
0.0
 40
0.0
 40
0.0
 40
0.0
 40
0.0801968962127613
 40
0.1851445020875212
 40
0.290090501958642
 40
0.3950341891449903
 40
0.4958630551544396
 40
0.5966914757927915
 40
0.6975194158036465
 40
0.7983468399625245
 40
0.8991737130791961
 40
0.9999999999999999
 40
0.9999999999999999
 40
0.9999999999999999
 40
0.9999999999999999
 10
52.53747908852519
 20
-25.33478369203618
 30
0.0
 10
51.45376007754346
 20
-25.32035770925269
 30
0.0
 10
48.95186005190294
 20
-25.28705353508006
 30
0.0
 10
45.0318133518586
 20
-24.39794093047606
 30
0.0
 10
40.77741315493377
 20
-22.83584235345827
 30
0.0
 10
36.57863200733664
 20
-20.64060140765942
 30
0.0
 10
32.43585412926019
 20
-17.92987537574776
 30
0.0
 10
28.34860555626697
 20
-14.79067768800305
 30
0.0
 10
24.26141066620258
 20
-11.26963809043658
 30
0.0
 10
20.17424081575317
 20
-7.45760161607032
 30
0.0
 10
16.08710531750265
 20
-3.451709170757221
 30
0.0
 10
13.36236579893944
 20
-0.7245766564332877
 30
0.0
 10
12.00000000000004
 20
0.6389856369082981
 30
0.0
  0
SPLINE
  5
C3
330
1F
100
AcDbEntity
  8
외형선
  6
Continuous
 62
     1
370
    15
100
AcDbSpline
210
0.0
220
0.0
230
1.0
 70
     8
 71
     3
 72
    29
 73
    25
 74
     0
 42
0.000000001
 43
0.00000001
 40
0.0
 40
0.0
 40
0.0
 40
0.0
 40
0.037467820859789
 40
0.0847242538863509
 40
0.1319798168198421
 40
0.1792341916670641
 40
0.2264870610199364
 40
0.2737381082111773
 40
0.3209870990970151
 40
0.3682368344951335
 40
0.4154885913420306
 40
0.4627420535173893
 40
0.5099969040623058
 40
0.5572528253344782
 40
0.6045094991641424
 40
0.6517666070105919
 40
0.6990238301191101
 40
0.7462808496781337
 40
0.793537346976484
 40
0.8407930035604854
 40
0.8880475013907985
 40
0.9353005229987952
 40
0.9825517516423069
 40
1.0
 40
1.0
 40
1.0
 40
1.0
 10
58.67681089925139
 20
25.34262932270461
 30
0.0
 10
59.80122426962866
 20
25.32293306104043
 30
0.0
 10
62.34380832386421
 20
25.27839481367097
 30
0.0
 10
66.30451103078758
 20
24.36490466813208
 30
0.0
 10
70.55886965029559
 20
22.78274270158217
 30
0.0
 10
74.81306812768639
 20
20.54132682751209
 30
0.0
 10
79.06706060676633
 20
17.73091941162017
 30
0.0
 10
83.3208199854556
 20
14.42285064863303
 30
0.0
 10
87.57434984346196
 20
10.71157800884063
 30
0.0
 10
91.82795922935807
 20
6.700495843301828
 30
0.0
 10
96.08180634244425
 20
2.501933161111515
 30
0.0
 10
100.3358803598201
 20
-1.766705593620197
 30
0.0
 10
104.5901427676899
 20
-5.985930678658034
 30
0.0
 10
108.8445495355851
 20
-10.03764358072833
 30
0.0
 10
113.0990580067817
 20
-13.80843155696326
 30
0.0
 10
117.3536250768208
 20
-17.19271964525072
 30
0.0
 10
121.6082077280698
 20
-20.09584739189946
 30
0.0
 10
125.8627628527601
 20
-22.43627400386731
 30
0.0
 10
130.1172475662144
 20
-24.14953386563634
 30
0.0
 10
134.3716182709366
 20
-25.18380601153715
 30
0.0
 10
138.6258342268328
 20
-25.52463868219694
 30
0.0
 10
142.8798443463844
 20
-25.10849801593112
 30
0.0
 10
146.2393600246204
 20
-24.35046022283045
 30
0.0
 10
148.1808300973273
 20
-23.51575258772548
 30
0.0
 10
148.7044085492364
 20
-23.29064742770846
 30
0.0
  0
SPLINE
  5
C4
330
1F
100
AcDbEntity
  8
외형선
  6
Continuous
 62
     1
370
    15
100
AcDbSpline
210
0.0
220
0.0
230
1.0
 70
     8
 71
     3
 72
    29
 73
    25
 74
     0
 42
0.000000001
 43
0.00000001
 40
0.0
 40
0.0
 40
0.0
 40
0.0
 40
0.0365625764750545
 40
0.0838125520117963
 40
0.1310621348809335
 40
0.1783138061878813
 40
0.2255672704761111
 40
0.2728222110004869
 40
0.3200783102894066
 40
0.3673352503005514
 40
0.4145927125772625
 40
0.461850378405375
 40
0.5091079289703393
 40
0.5563650455144515
 40
0.6036214094940223
 40
0.6508767027363062
 40
0.6981306075960253
 40
0.7453828071113076
 40
0.7926329851588731
 40
0.8398824186871835
 40
0.8871339085401607
 40
0.93438722057184
 40
0.9816420381119727
 40
1.0
 40
1.0
 40
1.0
 40
1.0
 10
158.9322370054331
 20
-25.33663563189095
 30
0.0
 10
157.8350591825286
 20
-25.32048598346689
 30
0.0
 10
155.3199937190456
 20
-25.28346607461453
 30
0.0
 10
151.3871755194489
 20
-24.38634711533787
 30
0.0
 10
147.1336276954539
 20
-22.8176616733732
 30
0.0
 10
142.8798468914092
 20
-20.58788361042946
 30
0.0
 10
138.6258335448615
 20
-17.78790616684044
 30
0.0
 10
134.3716184536775
 20
-14.48841812704797
 30
0.0
 10
130.1172475172478
 20
-10.78380339313735
 30
0.0
 10
125.8627628658809
 20
-6.777195766855215
 30
0.0
 10
121.6082077245549
 20
-2.580886537691062
 30
0.0
 10
117.3536250777594
 20
1.687704477991873
 30
0.0
 10
113.0990580065422
 20
5.909082642346814
 30
0.0
 10
108.8445495356041
 20
9.96508770342266
 30
0.0
 10
104.5901427678531
 20
13.74219578550995
 30
0.0
 10
100.335880359148
 20
17.13467301801112
 30
0.0
 10
96.08180634496958
 20
20.04765311108986
 30
0.0
 10
91.82795921992974
 20
22.39935769570803
 30
0.0
 10
87.57434987864823
 20
24.12503485331068
 30
0.0
 10
83.320819854138
 20
25.17265861658099
 30
0.0
 10
79.06706109688227
 20
25.52691597830931
 30
0.0
 10
74.81306629844778
 20
25.12556281877597
 30
0.0
 10
71.42607581090694
 20
24.36884212784349
 30
0.0
 10
69.45707633845579
 20
23.52684553664362
 30
0.0
 10
68.90616510457973
 20
23.29126122721772
 30
0.0
  0
LINE
  5
C5
330
1F
100
AcDbEntity
  8
외형선
  6
Continuous
 62
     1
370
    15
100
AcDbLine
 10
215.2
 20
-25.21356986424626
 30
0.0
 11
215.2
 21
-15.19718984449801
 31
0.0
  0
SPLINE
  5
C6
330
1F
100
AcDbEntity
  8
외형선
  6
Continuous
 62
     1
370
    15
100
AcDbSpline
210
0.0
220
0.0
230
1.0
 70
     8
 71
     3
 72
    21
 73
    17
 74
     0
 42
0.000000001
 43
0.00000001
 40
0.0
 40
0.0
 40
0.0
 40
0.0
 40
0.0718252828709335
 40
0.143650983328244
 40
0.2154770763296373
 40
0.2873035368067684
 40
0.3591303396668933
 40
0.4309574597945265
 40
0.5057158412431926
 40
0.5804758701713311
 40
0.6552370431628789
 40
0.7299988562378299
 40
0.8047608051005479
 40
0.879522385388428
 40
0.9542830929206341
 40
1.0
 40
1.0
 40
1.0
 40
1.0
 10
12.0
 20
6.69971969740295
 30
0.0
 10
13.36236579894404
 20
5.368826832761142
 30
0.0
 10
16.08710531751655
 20
2.707033365774212
 30
0.0
 10
20.17424081569774
 20
-1.401943959034673
 30
0.0
 10
24.26141066641082
 20
-5.462257292939087
 30
0.0
 10
28.34860555548968
 20
-9.38474641707223
 30
0.0
 10
32.43585413216168
 20
-13.06385651943672
 30
0.0
 10
36.57863199632158
 20
-16.45104448107528
 30
0.0
 10
40.77741319791497
 20
-19.43951121826989
 30
0.0
 10
45.03181319165911
 20
-21.92325255291349
 30
0.0
 10
49.2863337171425
 20
-23.79396097792813
 30
0.0
 10
53.54090262581038
 20
-24.99666718120379
 30
0.0
 10
57.7954853125576
 20
-25.5073002149899
 30
0.0
 10
62.05003405362112
 20
-25.2757632338405
 30
0.0
 10
65.75359940910816
 20
-24.55010813461162
 30
0.0
 10
68.03895509371385
 20
-23.63598725556391
 30
0.0
 10
68.90616510457991
 20
-23.28911136976994
 30
0.0
  0
SPLINE
  5
C7
330
1F
100
AcDbEntity
  8
외형선
  6
Continuous
 62
     1
370
    15
100
AcDbSpline
210
0.0
220
0.0
230
1.0
 70
     8
 71
     3
 72
    26
 73
    22
 74
     0
 42
0.000000001
 43
0.00000001
 40
0.0
 40
0.0
 40
0.0
 40
0.0
 40
0.0019653520916671
 40
0.0574108860768133
 40
0.1128543162415073
 40
0.1682952959075684
 40
0.2237367363158282
 40
0.2791805828276457
 40
0.3346264646151866
 40
0.3900740098498858
 40
0.4455228458844446
 40
0.5009725994357307
 40
0.5564228967683801
 40
0.6118733638789002
 40
0.6673236266800693
 40
0.7227733111854231
 40
0.7782220436936398
 40
0.8336694509725976
 40
0.8891151604429272
 40
0.9445588003608325
 40
1.0
 40
1.0
 40
1.0
 40
1.0
 10
138.4750736562541
 20
25.38892013767283
 30
0.0
 10
138.5253379052006
 20
25.39295238642819
 30
0.0
 10
139.9936321015651
 20
25.51074042802585
 30
0.0
 10
142.8798421955246
 20
25.08569002363393
 30
0.0
 10
147.1336293720986
 20
24.06528850996056
 30
0.0
 10
151.3871735085258
 20
22.28891087215862
 30
0.0
 10
155.6407613971202
 20
19.91093955979648
 30
0.0
 10
159.8945865971262
 20
16.96986464715924
 30
0.0
 10
164.1486407471687
 20
13.55543765990447
 30
0.0
 10
168.4028877503723
 20
9.761194444825339
 30
0.0
 10
172.6572829399769
 20
5.693862095282502
 30
0.0
 10
176.9117838377495
 20
1.467135698629569
 30
0.0
 10
181.1663472991107
 20
-2.80063059962056
 30
0.0
 10
185.4209303130557
 20
-6.990009743893057
 30
0.0
 10
189.6754897971568
 20
-10.98364307433735
 30
0.0
 10
193.929982757554
 20
-14.67007762559866
 30
0.0
 10
198.1843659940139
 20
-17.94489709598557
 30
0.0
 10
202.4385972596016
 20
-20.72106384600777
 30
0.0
 10
206.6926310567665
 20
-22.9036812695068
 30
0.0
 10
210.9464344318838
 20
-24.49593044886689
 30
0.0
 10
213.7821656129142
 20
-24.97436023543979
 30
0.0
 10
215.2
 20
-25.21356986424626
 30
0.0
  0
SPLINE
  5
C8
330
1F
100
AcDbEntity
  8
외형선
  6
Continuous
370
    15
100
AcDbSpline
210
0.0
220
0.0
230
1.0
 70
    24
 71
     3
 72
    18
 73
    14
 74
     0
 42
0.000000001
 43
0.00000001
 40
0.0
 40
0.0
 40
0.0
 40
0.0
 40
0.0857410157475206
 40
0.1735207891381503
 40
0.2677872197041843
 40
0.3647873831426945
 40
0.4590538137087284
 40
0.5560539771472396
 40
0.6503204077132733
 40
0.7473205711517847
 40
0.8415870017178201
 40
0.9385871651563312
 40
1.0
 40
1.0
 40
1.0
 40
1.0
 10
12.0
 20
22.31013720493673
 30
0.0
 10
12.00000000000006
 20
21.90398432433846
 30
0.0
 10
12.00000000000011
 20
21.0820210231376
 30
0.0
 10
11.99999999999999
 20
19.64389346598595
 30
0.0
 10
11.99999999999998
 20
18.05390965746447
 30
0.0
 10
12.00000000000003
 20
16.35835575819355
 30
0.0
 10
12.00000000000004
 20
14.63140122444194
 30
0.0
 10
11.99999999999996
 20
12.95167320056825
 30
0.0
 10
11.99999999999998
 20
11.33768326697861
 30
0.0
 10
12.00000000000007
 20
9.860713072303756
 30
0.0
 10
11.99999999999991
 20
8.548619108977531
 30
0.0
 10
12.0
 20
7.5455831095893
 30
0.0
 10
12.00000000000003
 20
7.088281981397444
 30
0.0
 10
12.0
 20
6.910997547897587
 30
0.0
  0
SPLINE
  5
C9
330
1F
100
AcDbEntity
  8
외형선
  6
Continuous
 62
     1
370
    15
100
AcDbSpline
210
0.0
220
0.0
230
1.0
 70
     8
 71
     3
 72
    23
 73
    19
 74
     0
 42
0.000000001
 43
0.00000001
 40
0.0
 40
0.0
 40
0.0
 40
0.0
 40
0.0639701963536841
 40
0.1279432083951804
 40
0.1919186083661552
 40
0.2558959673342648
 40
0.319874855403051
 40
0.3838548419228855
 40
0.4478354957027555
 40
0.5118163852226421
 40
0.5757970788462665
 40
0.6397771450339627
 40
0.7037561525554396
 40
0.7677336707022094
 40
0.8317092694994342
 40
0.8956825199169601
 40
0.9596529940793184
 40
1.0
 40
1.0
 40
1.0
 40
1.0
 10
215.2
 20
-15.2588435495753
 30
0.0
 10
213.7821656129142
 20
-14.08400320013871
 30
0.0
 10
210.9464344318839
 20
-11.73427078993992
 30
0.0
 10
206.6926310567663
 20
-7.766867627288071
 30
0.0
 10
202.4385972596024
 20
-3.612655869069204
 30
0.0
 10
198.1843659940106
 20
0.6509703349784298
 30
0.0
 10
193.9299827575663
 20
4.894258140324864
 30
0.0
 10
189.6754897971115
 20
9.001222818835572
 30
0.0
 10
185.4209303132242
 20
12.85615722124439
 30
0.0
 10
181.1663472984816
 20
16.35134052411667
 30
0.0
 10
176.911783840097
 20
19.38893103467537
 30
0.0
 10
172.6572829312162
 20
21.88374304152547
 30
0.0
 10
168.4028877830665
 20
23.76661689012911
 30
0.0
 10
164.1486406251568
 20
24.98238600547484
 30
0.0
 10
159.8945870524594
 20
25.50631684905932
 30
0.0
 10
155.6407596978923
 20
25.2891901713438
 30
0.0
 10
151.9107592731275
 20
24.56750219197212
 30
0.0
 10
149.598661556414
 20
23.64831319540597
 30
0.0
 10
148.7044085492365
 20
23.29279728515624
 30
0.0
  0
SPLINE
  5
CA
330
1F
100
AcDbEntity
  8
외형선
  6
Continuous
 62
     1
370
    15
100
AcDbSpline
210
0.0
220
0.0
230
1.0
 70
     8
 71
     3
 72
    24
 73
    20
 74
     0
 42
0.000000001
 43
0.00000001
 40
0.0
 40
0.0
 40
0.0
 40
0.0
 40
0.0010260357020897
 40
0.0643903859699173
 40
0.1277567550499908
 40
0.1911247173098131
 40
0.2544938463322639
 40
0.3178637151252277
 40
0.3812338963318543
 40
0.4446039624412216
 40
0.5079734859991728
 40
0.5713420398190857
 40
0.6347091971923532
 40
0.6955917408830805
 40
0.7564740156495763
 40
0.8173560002033015
 40
0.87823767327499
 40
0.9391190136160575
 40
1.0
 40
1.0
 40
1.0
 40
1.0
 10
79.13598552862477
 20
-25.39326245632992
 30
0.0
 10
79.11302481057409
 20
-25.39514653823911
 30
0.0
 10
77.67209103563944
 20
-25.51338488129539
 30
0.0
 10
74.81306115759048
 20
-25.09580573649907
 30
0.0
 10
70.55887144712855
 20
-24.09099162455845
 30
0.0
 10
66.30451081383023
 20
-22.32644799588594
 30
0.0
 10
62.05003544809104
 20
-19.95989088728911
 30
0.0
 10
57.79548493890654
 20
-17.02851705905244
 30
0.0
 10
53.54090272592995
 20
-13.62215253397723
 30
0.0
 10
49.28633369031563
 20
-9.834061931897065
 30
0.0
 10
45.0318131988478
 20
-5.770837904364749
 30
0.0
 10
40.77741319598627
 20
-1.546079713682661
 30
0.0
 10
36.57863199681583
 20
2.666211484905398
 30
0.0
 10
32.43585413203139
 20
6.749928466584509
 30
0.0
 10
28.34860555552446
 20
10.60373902950984
 30
0.0
 10
24.26141066640145
 20
14.18654100146507
 30
0.0
 10
20.17424081570011
 20
17.39173004821579
 30
0.0
 10
16.08710531751591
 20
20.1889605393831
 30
0.0
 10
13.36236579894385
 20
21.60307968667717
 30
0.0
 10
12.00000000000004
 20
22.31013720493662
 30
0.0
  0
LINE
  5
CB
330
1F
100
AcDbEntity
  8
외형선
  6
Continuous
 62
     1
370
    15
100
AcDbLine
 10
215.2
 20
-25.39892507127612
 30
0.0
 11
215.2
 21
-25.21356986424626
 31
0.0
  0
LINE
  5
CC
330
1F
100
AcDbEntity
  8
외형선
  6
Continuous
370
    15
100
AcDbLine
 10
12.0
 20
0.6389856369082719
 30
0.0
 11
12.00000000000003
 21
6.699719697402957
 31
0.0
  0
LINE
  5
CD
330
1F
100
AcDbEntity
  8
외형선
  6
Continuous
 62
     1
370
    15
100
AcDbLine
 10
215.2
 20
25.21571972169408
 30
0.0
 11
215.2
 21
25.4010749287239
 31
0.0
  0
LINE
  5
CE
330
1F
100
AcDbEntity
  8
외형선
  6
Continuous
 62
     1
370
    15
100
AcDbLine
 10
215.2
 20
-15.2588435495753
 30
0.0
 11
215.2
 21
-9.9536513859467
 31
0.0
  0
LINE
  5
CF
330
1F
100
AcDbEntity
  8
외형선
  6
Continuous
370
    15
100
AcDbLine
 10
12.0
 20
22.31013720493673
 30
0.0
 11
12.00000000000003
 21
24.56869410374122
 31
0.0
  0
LINE
  5
D0
330
1F
100
AcDbEntity
  8
외형선
  6
Continuous
 62
     1
370
    15
100
AcDbLine
 10
215.2
 20
9.95580124339497
 30
0.0
 11
215.2
 21
15.26099340702321
 31
0.0
  0
LINE
  5
D1
330
1F
100
AcDbEntity
  8
외형선
  6
Continuous
370
    15
100
AcDbLine
 10
12.0
 20
-21.6700766393044
 30
0.0
 11
12.0
 21
-17.86789947761451
 31
0.0
  0
LINE
  5
D2
330
1F
100
AcDbEntity
  8
외형선
  6
Continuous
370
    15
100
AcDbLine
 10
11.00033501722812
 20
24.80367392072217
 30
0.0
 11
11.00033501722812
 21
25.40107492872389
 31
0.0
  0
SPLINE
  5
D3
330
1F
100
AcDbEntity
  8
외형선
  6
Continuous
370
    15
100
AcDbSpline
210
0.0
220
0.0
230
1.0
 70
     8
 71
     3
 72
     8
 73
     4
 74
     0
 42
0.000000001
 43
0.00000001
 40
0.0
 40
0.0
 40
0.0
 40
0.0
 40
1.0
 40
1.0
 40
1.0
 40
1.0
 10
11.99999999999999
 20
24.5686941037412
 30
0.0
 10
11.66678397195592
 20
24.65340512379933
 30
0.0
 10
11.33405907465136
 20
24.73172203549066
 30
0.0
 10
11.00033501722812
 20
24.80369094540342
 30
0.0
  0
SPLINE
  5
D4
330
1F
100
AcDbEntity
  8
외형선
  6
Continuous
370
    15
100
AcDbSpline
210
0.0
220
0.0
230
1.0
 70
     8
 71
     3
 72
     8
 73
     4
 74
     0
 42
0.000000001
 43
0.00000001
 40
0.0
 40
0.0
 40
0.0
 40
0.0
 40
1.0
 40
1.0
 40
1.0
 40
1.0
 10
12.00000000000001
 20
22.31013720493659
 30
0.0
 10
11.66678397195591
 20
22.46964434090856
 30
0.0
 10
11.33405907465139
 20
22.62330468198154
 30
0.0
 10
11.0003350172281
 20
22.7712189001221
 30
0.0
  0
SPLINE
  5
D5
330
1F
100
AcDbEntity
  8
외형선
  6
Continuous
370
    15
100
AcDbSpline
210
0.0
220
0.0
230
1.0
 70
     8
 71
     3
 72
     8
 73
     4
 74
     0
 42
0.000000001
 43
0.00000001
 40
0.0
 40
0.0
 40
0.0
 40
0.0
 40
1.0
 40
1.0
 40
1.0
 40
1.0
 10
11.99999999999999
 20
6.699719697402977
 30
0.0
 10
11.66678397195592
 20
7.021540739993289
 30
0.0
 10
11.33405907465136
 20
7.341471816589118
 30
0.0
 10
11.00033501722812
 20
7.659738205812524
 30
0.0
  0
SPLINE
  5
D6
330
1F
100
AcDbEntity
  8
외형선
  6
Continuous
370
    15
100
AcDbSpline
210
0.0
220
0.0
230
1.0
 70
     8
 71
     3
 72
     8
 73
     4
 74
     0
 42
0.000000001
 43
0.00000001
 40
0.0
 40
0.0
 40
0.0
 40
0.0
 40
1.0
 40
1.0
 40
1.0
 40
1.0
 10
12.00000000000001
 20
0.6389856369082652
 30
0.0
 10
11.66678397195591
 20
0.9725128378030574
 30
0.0
 10
11.33405907465139
 20
1.305711479961116
 30
0.0
 10
11.0003350172281
 20
1.638818683499775
 30
0.0
  0
SPLINE
  5
D7
330
1F
100
AcDbEntity
  8
외형선
  6
Continuous
370
    15
100
AcDbSpline
210
0.0
220
0.0
230
1.0
 70
     8
 71
     3
 72
     8
 73
     4
 74
     0
 42
0.000000001
 43
0.00000001
 40
0.0
 40
0.0
 40
0.0
 40
0.0
 40
1.0
 40
1.0
 40
1.0
 40
1.0
 10
11.99999999999999
 20
-17.86789947761448
 30
0.0
 10
11.66678397195592
 20
-17.6307894550823
 30
0.0
 10
11.33405907465136
 20
-17.3891752901778
 30
0.0
 10
11.00033501722812
 20
-17.14287781086716
 30
0.0
  0
SPLINE
  5
D8
330
1F
100
AcDbEntity
  8
외형선
  6
Continuous
370
    15
100
AcDbSpline
210
0.0
220
0.0
230
1.0
 70
     8
 71
     3
 72
     8
 73
     4
 74
     0
 42
0.000000001
 43
0.00000001
 40
0.0
 40
0.0
 40
0.0
 40
0.0
 40
1.0
 40
1.0
 40
1.0
 40
1.0
 10
12.00000000000001
 20
-21.67007663930426
 30
0.0
 10
11.66678397195591
 20
-21.49605657438143
 30
0.0
 10
11.33405907465139
 20
-21.31651827329636
 30
0.0
 10
11.0003350172281
 20
-21.13132528789827
 30
0.0
  0
LINE
  5
D9
330
1F
100
AcDbEntity
  8
외형선
  6
Continuous
370
    15
100
AcDbLine
 10
11.00033501722812
 20
-25.3989250712761
 30
0.0
 11
11.00033501722812
 21
-21.13127236787204
 31
0.0
  0
SPLINE
  5
DA
330
1F
100
AcDbEntity
  8
외형선
  6
Continuous
370
    15
100
AcDbSpline
210
0.0
220
0.0
230
1.0
 70
     8
 71
     3
 72
     8
 73
     4
 74
     0
 42
0.000000001
 43
0.00000001
 40
0.0
 40
0.0
 40
0.0
 40
0.0
 40
1.0
 40
1.0
 40
1.0
 40
1.0
 10
11.99999999999999
 20
-24.56654424629337
 30
0.0
 10
11.66678397195592
 20
-24.65125526635151
 30
0.0
 10
11.33405907465136
 20
-24.72957217804284
 30
0.0
 10
11.00033501722812
 20
-24.8015410879556
 30
0.0
  0
LINE
  5
DD
330
1F
100
AcDbEntity
  8
외형선
  6
Continuous
370
    15
100
AcDbLine
 10
11.00033501722812
 20
-17.14293607353371
 30
0.0
 11
11.00033501722812
 21
1.638913870637299
 31
0.0
  0
LINE
  5
DE
330
1F
100
AcDbEntity
  8
외형선
  6
Continuous
370
    15
100
AcDbLine
 10
11.00033501722812
 20
7.659662918464724
 30
0.0
 11
11.00033501722812
 21
22.7712611672334
 31
0.0
  0
LINE
  5
DF
330
1F
100
AcDbEntity
  8
외형선
  6
Continuous
370
    15
100
AcDbLine
 10
-83.25
 20
0.0010749287238949
 30
0.0
 11
-83.25
 21
20.32107492872391
 31
0.0
  0
SPLINE
  5
E1
330
1F
100
AcDbEntity
  8
외형선
  6
Continuous
370
    15
100
AcDbSpline
210
0.0
220
0.0
230
1.0
 70
    24
 71
     3
 72
    21
 73
    17
 74
     0
 42
0.000000001
 43
0.00000001
 40
0.0
 40
0.0
 40
0.0
 40
0.0
 40
0.0940895667197621
 40
0.1635181914166937
 40
0.2349602509332658
 40
0.3043888756301968
 40
0.3758309351467684
 40
0.445259559843694
 40
0.5167016193602719
 40
0.5861302440572036
 40
0.6575723035737758
 40
0.7270009282707066
 40
0.798442987787278
 40
0.8678716124842095
 40
0.9393136720007813
 40
1.0
 40
1.0
 40
1.0
 40
1.0
 10
11.99999999999999
 20
-17.86789947761448
 30
0.0
 10
12.00000000000003
 20
-17.40885707814544
 30
0.0
 10
12.00000000000003
 20
-16.61108761696467
 30
0.0
 10
11.99999999999996
 20
-15.11118576042147
 30
0.0
 10
12.00000000000009
 20
-13.62486941123246
 30
0.0
 10
12.00000000000007
 20
-11.99825379311682
 30
0.0
 10
11.99999999999994
 20
-10.31324144707655
 30
0.0
 10
12.00000000000013
 20
-8.585434626502936
 30
0.0
 10
12.00000000000007
 20
-6.895296260490358
 30
0.0
 10
12.0
 20
-5.260166650668426
 30
0.0
 10
11.99999999999996
 20
-3.75561452592994
 30
0.0
 10
12.00000000000007
 20
-2.39779898294903
 30
0.0
 10
11.99999999999992
 20
-1.247130459041822
 30
0.0
 10
12.00000000000006
 20
-0.324679339458519
 30
0.0
 10
12.00000000000001
 20
0.3326437764967209
 30
0.0
 10
12.00000000000001
 20
0.5425678786932844
 30
0.0
 10
12.00000000000001
 20
0.6389856369083361
 30
0.0
  0
SPLINE
  5
E2
330
1F
100
AcDbEntity
  8
외형선
  6
Continuous
370
    15
100
AcDbSpline
210
0.0
220
0.0
230
1.0
 70
    24
 71
     3
 72
    18
 73
    14
 74
     0
 42
0.000000001
 43
0.00000001
 40
0.0
 40
0.0
 40
0.0
 40
0.0
 40
0.0536407378781137
 40
0.1492340009388289
 40
0.2448272639995446
 40
0.3404205270602603
 40
0.4360137901209747
 40
0.5316070531816891
 40
0.6272003162424044
 40
0.7227935793031196
 40
0.8183868423638345
 40
0.913980105424549
 40
1.0
 40
1.0
 40
1.0
 40
1.0
 10
12.00000000000003
 20
6.910997547897588
 30
0.0
 10
12.00000000000003
 20
7.062242739560696
 30
0.0
 10
12.00000000000001
 20
7.483022280773067
 30
0.0
 10
12.00000000000009
 20
8.439997464801182
 30
0.0
 10
12.0
 20
9.72891744632541
 30
0.0
 10
12.00000000000004
 20
11.19755939137332
 30
0.0
 10
11.99999999999994
 20
12.7953639233362
 30
0.0
 10
12.00000000000003
 20
14.47667802736458
 30
0.0
 10
11.99999999999999
 20
16.19488539666807
 30
0.0
 10
12.00000000000006
 20
17.90211503623837
 30
0.0
 10
11.99999999999995
 20
19.54415661759634
 30
0.0
 10
11.99999999999984
 20
21.04172225589908
 30
0.0
 10
11.99999999999999
 20
21.90245616817983
 30
0.0
 10
12.00000000000004
 20
22.31013720492626
 30
0.0
  0
SPLINE
  5
E3
330
1F
100
AcDbEntity
  8
외형선
  6
Continuous
370
    15
100
AcDbSpline
210
0.0
220
0.0
230
1.0
 70
    24
 71
     3
 72
    10
 73
     6
 74
     0
 42
0.000000001
 43
0.00000001
 40
0.0
 40
0.0
 40
0.0
 40
0.0
 40
0.413574711126941
 40
0.8324538858950912
 40
1.0
 40
1.0
 40
1.0
 40
1.0
 10
12.0
 20
-24.56654424629337
 30
0.0
 10
12.00000000000001
 20
-24.18915735867587
 30
0.0
 10
12.00000000000003
 20
-23.42954326083366
 30
0.0
 10
12.0
 20
-22.52362054584654
 30
0.0
 10
12.0
 20
-22.0240776507667
 30
0.0
 10
12.0
 20
-21.88135448979903
 30
0.0
  0
LINE
  5
E4
330
1F
100
AcDbEntity
  8
중심선
 62
     1
100
AcDbLine
 10
-86.25
 20
0.0010749287238888
 30
0.0
 11
218.2
 21
0.001074928723927
 31
0.0
  0
LINE
  5
E5
330
1F
100
AcDbEntity
  8
참조1
100
AcDbLine
 10
107.25
 20
0.0010749287238892
 30
0.0
 11
107.25
 21
-39.99892507127611
 31
0.0
  0
LINE
  5
E6
330
1F
100
AcDbEntity
  8
참조1
100
AcDbLine
 10
107.25
 20
-39.99892507127611
 30
0.0
 11
-9.508856814308633
 21
-39.9989250712761
 31
0.0
  0
CIRCLE
  5
E7
330
1F
100
AcDbEntity
  8
해칭선
100
AcDbCircle
 10
0.0
 20
0.0
 30
0.0
 40
3.000000000000004
  0
INSERT
  5
E8
330
1F
100
AcDbEntity
  8
0
  6
Continuous
 62
     7
100
AcDbBlockReference
 66
     1
  2
블럭10
 10
52.03472706787478
 20
-52.04609937292004
 30
0.0
  0
ATTRIB
  5
E9
330
E8
100
AcDbEntity
  8
FORMAT
 62
     2
100
AcDbText
 10
42.8534317791335
 20
-49.97073246008785
 30
0.0
 40
4.233333333333333
  1
E2100204 [ 6 FLUTE ]
 41
0.75
  7
SLDTEXTSTYLE0
 11
42.8534317791335
 21
-52.08739912675452
 31
0.0
100
AcDbAttribute
  2
AUTOATTR0
 70
     0
 74
     1
  0
SEQEND
  5
EA
330
E8
100
AcDbEntity
  8
0
  6
Continuous
 62
     7
  0
HATCH
  5
EB
330
1F
100
AcDbEntity
  8
중심선
100
AcDbHatch
 10
0.0
 20
0.0
 30
0.0
210
0.0
220
0.0
230
1.0
  2
SOLID
 70
     1
 71
     0
 91
        1
 92
        0
 93
        4
 72
     1
 10
57.74963637225564
 20
-35.7989250712761
 11
54.30336112841836
 21
-35.7989250712761
 72
     1
 10
54.30336112841836
 20
-35.7989250712761
 11
52.17513126921439
 21
-38.3352506518487
 72
     1
 10
52.17513126921439
 20
-38.3352506518487
 11
55.62143959816471
 21
-38.33521122254621
 72
     1
 10
55.62143959816471
 20
-38.33521122254621
 11
57.74963637225564
 21
-35.7989250712761
 97
        0
 75
     0
 76
     1
 98
        1
 10
-41.27500000000003
 20
0.0
  0
HATCH
  5
EC
330
1F
100
AcDbEntity
  8
중심선
100
AcDbHatch
 10
0.0
 20
0.0
 30
0.0
210
0.0
220
0.0
230
1.0
  2
SOLID
 70
     1
 71
     0
 91
        1
 92
        0
 93
        4
 72
     1
 10
62.76240036329159
 20
-35.7989250712761
 11
59.3161251194543
 21
-35.7989250712761
 72
     1
 10
59.3161251194543
 20
-35.7989250712761
 11
54.78498711109688
 21
-41.19892507127612
 72
     1
 10
54.78498711109688
 20
-41.19892507127612
 11
58.23126235493417
 21
-41.19892507127612
 72
     1
 10
58.23126235493417
 20
-41.19892507127612
 11
62.76240036329159
 21
-35.7989250712761
 97
        0
 75
     0
 76
     1
 98
        1
 10
-41.27500000000003
 20
0.0
  0
HATCH
  5
ED
330
1F
100
AcDbEntity
  8
중심선
100
AcDbHatch
 10
0.0
 20
0.0
 30
0.0
210
0.0
220
0.0
230
1.0
  2
SOLID
 70
     1
 71
     0
 91
        1
 92
        0
 93
        4
 72
     1
 10
67.7751643543276
 20
-35.79892507127608
 11
64.32888911049037
 21
-35.79892507127613
 72
     1
 10
64.32888911049037
 20
-35.79892507127613
 11
57.28045220860109
 21
-44.19892507127612
 72
     1
 10
57.28045220860109
 20
-44.19892507127612
 11
60.72672745243837
 21
-44.19892507127612
 72
     1
 10
60.72672745243837
 20
-44.19892507127612
 11
67.7751643543276
 21
-35.79892507127608
 97
        0
 75
     0
 76
     1
 98
        1
 10
-41.27500000000003
 20
0.0
  0
HATCH
  5
EE
330
1F
100
AcDbEntity
  8
중심선
100
AcDbHatch
 10
0.0
 20
0.0
 30
0.0
210
0.0
220
0.0
230
1.0
  2
SOLID
 70
     1
 71
     0
 91
        1
 92
        0
 93
        6
 72
     3
 10
72.57505478533969
 20
-39.99892507132738
 11
3.960054785062283
 21
1.540882976769353E-10
 40
0.3939339440162628
 50
17.09539180608451
 51
320.0019657685078
 73
     0
 72
     1
 10
74.2580544410403
 20
-38.58681907591438
 11
76.56335631474123
 21
-36.65249236586649
 72
     3
 10
72.57505478528684
 20
-39.99892507127625
 11
6.600054785286829
 21
-1.278976924368180E-13
 40
0.636358354079598
 50
39.99873849337483
 51
368.4976242363724
 73
     1
 72
     1
 10
79.00038727718741
 20
-39.03892507120613
 11
71.25512209212279
 21
-39.03892507120613
 72
     1
 10
71.25512209212279
 20
-39.03892507120613
 11
71.25509704767683
 21
-40.95892507120602
 72
     1
 10
71.25509704767683
 20
-40.95892507120602
 11
75.69647681714883
 21
-40.95892507120599
 97
        0
 75
     0
 76
     1
 98
        1
 10
-41.27500000000003
 20
0.0
  0
DIMENSION
  5
102
330
1F
100
AcDbEntity
  8
치수문자_일반주서
100
AcDbDimension
  2
_D_1
 10
12.0
 20
47.75570626228484
 30
0.0
 11
113.6
 21
47.75570626228484
 31
0.0
 70
   160
  1
<>
 71
     2
 42
203.2
  3
SLDDIMSTYLE0
100
AcDbAlignedDimension
 13
215.2
 23
25.4010749287239
 33
0.0
 14
11.99999999999999
 24
24.5686941037412
 34
0.0
 50
0.000000000000004
100
AcDbRotatedDimension
1001
ACAD
1000
DSTYLE
1002
{
1070
   171
1070
     6
1070
   273
1070
     7
1002
}
  0
DIMENSION
  5
115
330
1F
100
AcDbEntity
  8
치수문자_일반주서
100
AcDbDimension
  2
_D_2
 10
-83.25000000000001
 20
59.75570626228485
 30
0.0
 11
65.97500000000001
 21
59.75570626228485
 31
0.0
 70
   160
  1
<>
 71
     2
 42
298.45
  3
SLDDIMSTYLE0
100
AcDbAlignedDimension
 13
215.2
 23
25.4010749287239
 33
0.0
 14
-83.25
 24
20.32107492872391
 34
0.0
 50
0.0000000000000027
100
AcDbRotatedDimension
1001
ACAD
1000
DSTYLE
1002
{
1070
   171
1070
     6
1070
   273
1070
     7
1002
}
  0
DIMENSION
  5
129
330
1F
100
AcDbEntity
  8
치수문자_일반주서
100
AcDbDimension
  2
_D_3
 10
235.7043503638152
 20
-25.39892507127604
 30
0.0
 11
235.7043503638149
 21
64.9132808660535
 31
0.0
 70
   160
  1
%%c<>
 71
     2
 42
50.80000000000002
 52
-270.0
  3
SLDDIMSTYLE0
100
AcDbAlignedDimension
 13
215.2
 23
25.4010749287239
 33
0.0
 14
215.2
 24
-25.39892507127611
 34
0.0
 50
90.0000000000002
100
AcDbRotatedDimension
1001
ACAD
1000
DSTYLE
1002
{
1070
   171
1070
     6
1070
   273
1070
     7
1002
}
  0
LINE
  5
13C
330
1F
100
AcDbEntity
  8
참조1
100
AcDbLine
 10
88.46348381534564
 20
7.441074928723896
 30
0.0
 11
88.46348381534564
 21
-7.438925071276109
 31
0.0
  0
LINE
  5
13D
330
1F
100
AcDbEntity
  8
참조1
100
AcDbLine
 10
101.1634838153456
 20
5.441074928723896
 30
0.0
 11
88.46348381534564
 21
5.441074928723896
 31
0.0
  0
SOLID
  5
13E
330
1F
100
AcDbEntity
  8
참조1
100
AcDbTrace
 10
88.46348381534564
 20
5.441074928723896
 30
0.0
 11
94.81348381534563
 21
4.425074928723896
 31
0.0
 12
94.81348381534563
 22
6.457074928723896
 32
0.0
 13
94.81348381534563
 23
6.457074928723896
 33
0.0
  0
LINE
  5
13F
330
1F
100
AcDbEntity
  8
참조1
100
AcDbLine
 10
101.1634838153456
 20
-5.438925071276109
 30
0.0
 11
88.46348381534564
 21
-5.438925071276109
 31
0.0
  0
SOLID
  5
140
330
1F
100
AcDbEntity
  8
참조1
100
AcDbTrace
 10
88.46348381534564
 20
-5.438925071276109
 30
0.0
 11
94.81348381534563
 21
-6.454925071276109
 31
0.0
 12
94.81348381534563
 22
-4.422925071276109
 32
0.0
 13
94.81348381534563
 23
-4.422925071276109
 33
0.0
  0
MTEXT
  5
141
330
1F
100
AcDbEntity
  8
참조1
100
AcDbMText
 10
97.8609739078159
 20
10.98929157337383
 30
0.0
 40
3.5
 41
0.0
 71
     1
 72
     1
  1
A
  7
SLDTEXTSTYLE0
 73
     1
 44
1.0
  0
MTEXT
  5
142
330
1F
100
AcDbEntity
  8
참조1
100
AcDbMText
 10
97.8609739078159
 20
0.1092915733738251
 30
0.0
 40
3.5
 41
0.0
 71
     1
 72
     1
  1
A
  7
SLDTEXTSTYLE0
 73
     1
 44
1.0
  0
INSERT
  5
149
330
1F
100
AcDbEntity
  8
해칭선
100
AcDbBlockReference
  2
SW_DOWELSYMBOL_0
 10
0.0
 20
0.0
 30
0.0
  0
LINE
  5
29F
330
1F
100
AcDbEntity
  8
외형선
  6
Continuous
370
    15
100
AcDbLine
 10
-83.25
 20
-20.31892507127613
 30
0.0
 11
-83.25
 21
0.0010749287238951
 31
0.0
  0
LINE
  5
2A9
330
1F
100
AcDbEntity
  8
외형선
  6
Continuous
370
    15
100
AcDbLine
 10
10.99968921090579
 20
25.4010749287239
 30
0.0
 11
-28.18279999999999
 21
25.4010749287239
 31
0.0
  0
LINE
  5
2AA
330
1F
100
AcDbEntity
  8
외형선
  6
Continuous
370
    15
100
AcDbLine
 10
-83.25
 20
-20.3189250712761
 30
0.0
 11
-83.25
 21
0.0010749287238951
 31
0.0
  0
LINE
  5
2AB
330
1F
100
AcDbEntity
  8
외형선
  6
Continuous
370
    15
100
AcDbLine
 10
8.949890311373736
 20
25.40107492872392
 30
0.0
 11
-28.18279999999999
 21
25.40107492872392
 31
0.0
  0
LINE
  5
2AC
330
1F
100
AcDbEntity
  8
외형선
  6
Continuous
370
    15
100
AcDbLine
 10
-82.25
 20
-25.39892507127608
 30
0.0
 11
-73.72499999999997
 21
-25.39892507127608
 31
0.0
  0
LINE
  5
2AD
330
1F
100
AcDbEntity
  8
외형선
  6
Continuous
370
    15
100
AcDbLine
 10
-83.25
 20
-24.39892507127608
 30
0.0
 11
-82.25
 21
-25.39892507127608
 31
0.0
  0
LINE
  5
2AE
330
1F
100
AcDbEntity
  8
외형선
  6
Continuous
370
    15
100
AcDbLine
 10
-82.25
 20
19.86387492872393
 30
0.0
 11
-82.25
 21
-25.39892507127608
 31
0.0
  0
LINE
  5
2AF
330
1F
100
AcDbEntity
  8
외형선
  6
Continuous
370
    15
100
AcDbLine
 10
-83.25
 20
19.86387492872393
 30
0.0
 11
-83.25
 21
-24.39892507127608
 31
0.0
  0
DIMENSION
  5
2B0
330
1F
100
AcDbEntity
  8
치수문자_일반주서
100
AcDbDimension
  2
*D14
 10
-95.74999999999991
 20
-25.39892507127614
 30
0.0
 11
-95.75
 21
0.0010749287239236
 31
0.0
 70
   160
  1
%%c<>
 71
     2
 42
50.80000000000001
 52
-270.0
  3
SLDDIMSTYLE0
100
AcDbAlignedDimension
 13
-83.25
 23
25.40107492872393
 33
0.0
 14
-82.25
 24
-25.39892507127608
 34
0.0
 50
90.0000000000002
100
AcDbRotatedDimension
1001
ACAD
1000
DSTYLE
1002
{
1070
   171
1070
     6
1070
   273
1070
     7
1002
}
  0
LINE
  5
2B1
330
1F
100
AcDbEntity
  8
외형선
  6
Continuous
370
    15
100
AcDbLine
 10
-47.69
 20
-14.8238238891433
 30
0.0
 11
-47.69
 21
14.8259737465911
 31
0.0
  0
LINE
  5
2B2
330
1F
100
AcDbEntity
  8
외형선
  6
Continuous
370
    15
100
AcDbLine
 10
-47.69
 20
14.8259737465911
 30
0.0
 11
-29.90999999999997
 21
14.8259737465911
 31
0.0
  0
LINE
  5
2B3
330
1F
100
AcDbEntity
  8
외형선
  6
Continuous
370
    15
100
AcDbLine
 10
-47.69
 20
-14.8238238891433
 30
0.0
 11
-29.90999999999997
 21
-14.8238238891433
 31
0.0
  0
LINE
  5
2B4
330
1F
100
AcDbEntity
  8
외형선
  6
Continuous
370
    15
100
AcDbLine
 10
-29.90999999999997
 20
14.8259737465911
 30
0.0
 11
-29.90999999999997
 21
-14.8238238891433
 31
0.0
  0
SPLINE
  5
2B5
330
1F
100
AcDbEntity
  8
외형선
  6
Continuous
370
    15
100
AcDbSpline
210
0.0
220
0.0
230
1.0
 70
  1064
 71
     3
 72
     9
 73
     5
 74
     3
 42
0.000000001
 43
0.0000000001
 44
0.0
 40
0.0
 40
0.0
 40
0.0
 40
0.0
 40
15.44052883416385
 40
30.88105766832773
 40
30.88105766832773
 40
30.88105766832773
 40
30.88105766832773
 10
-47.69
 20
14.8259737465911
 30
0.0
 10
-49.84825773012895
 20
9.884340807302042
 30
0.0
 10
-54.16477319038685
 20
0.001074928723912
 30
0.0
 10
-49.84825773012895
 20
-9.882190949854227
 30
0.0
 10
-47.69
 20
-14.8238238891433
 30
0.0
 11
-47.69
 21
14.8259737465911
 31
0.0
 11
-52.0065154602579
 21
0.0010749287239236
 31
0.0
 11
-47.69
 21
-14.8238238891433
 31
0.0
  0
SPLINE
  5
2B6
330
1F
100
AcDbEntity
  8
외형선
  6
Continuous
370
    15
100
AcDbSpline
210
0.0
220
0.0
230
1.0
 70
  1064
 71
     3
 72
     9
 73
     5
 74
     3
 42
0.000000001
 43
0.0000000001
 44
0.0
 40
0.0
 40
0.0
 40
0.0
 40
0.0
 40
15.44052883416385
 40
30.88105766832774
 40
30.88105766832774
 40
30.88105766832774
 40
30.88105766832774
 10
-29.90999999999997
 20
14.8259737465911
 30
0.0
 10
-27.75174226987102
 20
9.884340807302042
 30
0.0
 10
-23.43522680961311
 20
0.0010749287239085
 30
0.0
 10
-27.75174226987101
 20
-9.882190949854225
 30
0.0
 10
-29.90999999999997
 20
-14.8238238891433
 30
0.0
 11
-29.90999999999997
 21
14.8259737465911
 31
0.0
 11
-25.59348453974206
 21
0.0010749287239236
 31
0.0
 11
-29.90999999999997
 21
-14.8238238891433
 31
0.0
  0
LINE
  5
2B7
330
1F
100
AcDbEntity
  8
외형선
  6
Continuous
370
    15
100
AcDbLine
 10
-61.02499999999998
 20
25.40107492872392
 30
0.0
 11
-61.02499999999998
 21
-25.39892507127608
 31
0.0
  0
LINE
  5
2B8
330
1F
100
AcDbEntity
  8
외형선
  6
Continuous
370
    15
100
AcDbLine
 10
-73.72499999999997
 20
19.86387492872393
 30
0.0
 11
-73.72499999999997
 21
-25.39892507127608
 31
0.0
  0
LINE
  5
2B9
330
1F
100
AcDbEntity
  8
외형선
  6
Continuous
370
    15
100
AcDbLine
 10
-61.02499999999998
 20
-25.39892507127608
 30
0.0
 11
8.949890311373736
 21
-25.39892507127605
 31
0.0
  0
LINE
  5
2BA
330
1F
100
AcDbEntity
  8
외형선
  6
Continuous
370
    15
100
AcDbLine
 10
-61.02499999999998
 20
25.0200749287239
 30
0.0
 11
-61.02499999999998
 21
-25.01792507127608
 31
0.0
  0
LINE
  5
2BB
330
1F
100
AcDbEntity
  8
외형선
  6
Continuous
370
    15
100
AcDbLine
 10
-61.02499999999998
 20
25.0200749287239
 30
0.0
 11
-61.5968037668174
 21
25.0200749287239
 31
0.0
  0
LINE
  5
2BC
330
1F
100
AcDbEntity
  8
외형선
  6
Continuous
370
    15
100
AcDbLine
 10
-61.02499999999998
 20
-25.01792507127608
 30
0.0
 11
-73.72499999999997
 21
-25.01792507127608
 31
0.0
  0
LINE
  5
2BD
330
1F
100
AcDbEntity
  8
외형선
  6
Continuous
370
    15
100
AcDbLine
 10
-48.45199999999994
 20
22.91187492872392
 30
0.0
 11
-30.67199999999997
 21
22.91187492872392
 31
0.0
  0
LINE
  5
2BE
330
1F
100
AcDbEntity
  8
외형선
  6
Continuous
370
    15
100
AcDbLine
 10
-48.45199999999994
 20
22.91187492872392
 30
0.0
 11
-50.94119999999998
 21
25.40107492872392
 31
0.0
  0
LINE
  5
2BF
330
1F
100
AcDbEntity
  8
외형선
  6
Continuous
370
    15
100
AcDbLine
 10
-30.67199999999997
 20
22.91187492872392
 30
0.0
 11
-28.18279999999999
 21
25.40107492872392
 31
0.0
  0
LINE
  5
2C0
330
1F
100
AcDbEntity
  8
외형선
  6
Continuous
370
    15
100
AcDbLine
 10
-62.09179999999998
 20
23.07312647568635
 30
0.0
 11
-62.09179999999998
 21
-6.940965043627486
 31
0.0
  0
LINE
  5
2C1
330
1F
100
AcDbEntity
  8
외형선
  6
Continuous
370
    15
100
AcDbLine
 10
-82.25
 20
19.86387492872393
 30
0.0
 11
-82.25
 21
-25.39892507127608
 31
0.0
  0
LINE
  5
2C2
330
1F
100
AcDbEntity
  8
외형선
  6
Continuous
370
    15
100
AcDbLine
 10
-67.92357134821702
 20
19.86387492872393
 30
0.0
 11
-83.25
 21
19.86387492872393
 31
0.0
  0
ARC
  5
2C3
330
1F
100
AcDbEntity
  8
외형선
  6
Continuous
370
    15
100
AcDbCircle
 10
-67.17179999999996
 20
25.40107492872392
 30
0.0
 40
5.588
100
AcDbArc
 50
262.2683738127856
 51
356.0904364753406
  0
LINE
  5
2C4
330
1F
100
AcDbEntity
  8
외형선
  6
Continuous
370
    15
100
AcDbLine
 10
-71.87515845852454
 20
19.86387492872393
 30
0.0
 11
-71.87515845852454
 21
-6.940965043627486
 31
0.0
  0
ARC
  5
2C5
330
1F
100
AcDbEntity
  8
외형선
  6
Continuous
370
    15
100
AcDbCircle
 10
-66.98347922926229
 20
-6.940965043627486
 30
0.0
 40
4.891679229262294
100
AcDbArc
 50
180.0
 51
0.0
  0
LINE
  5
2C6
330
1F
100
AcDbEntity
  8
외형선
  6
Continuous
370
    15
100
AcDbLine
 10
-50.94119999999998
 20
25.4010749287239
 30
0.0
 11
-61.02499999999998
 21
25.4010749287239
 31
0.0
  0
LINE
  5
2C7
330
1F
100
AcDbEntity
  8
외형선
  6
Continuous
370
    15
100
AcDbLine
 10
-61.02499999999998
 20
-25.39892507127608
 30
0.0
 11
12.00000000000006
 21
-25.39892507127608
 31
0.0
  0
LINE
  5
2C8
330
1F
100
AcDbEntity
  8
외형선
  6
Continuous
370
    15
100
AcDbLine
 10
12.00000000000006
 20
25.4010749287239
 30
0.0
 11
-28.18279999999999
 21
25.4010749287239
 31
0.0
  0
LINE
  5
2C9
330
1F
100
AcDbEntity
  8
외형선
  6
Continuous
370
    15
100
AcDbLine
 10
-78.17000000000002
 20
-25.39892507127608
 30
0.0
 11
-73.72499999999997
 21
-25.39892507127608
 31
0.0
  0
LINE
  5
2CA
330
1F
100
AcDbEntity
  8
외형선
  6
Continuous
370
    15
100
AcDbLine
 10
-50.94119999999998
 20
25.4010749287239
 30
0.0
 11
-61.02499999999998
 21
25.4010749287239
 31
0.0
  0
LINE
  5
2CB
330
1F
100
AcDbEntity
  8
외형선
  6
Continuous
370
    15
100
AcDbLine
 10
-61.02499999999998
 20
-25.39892507127608
 30
0.0
 11
10.99968921090579
 21
-25.39892507127608
 31
0.0
  0
LINE
  5
2CC
330
1F
100
AcDbEntity
  8
외형선
  6
Continuous
370
    15
100
AcDbLine
 10
-61.02499999999998
 20
-25.39892507127608
 30
0.0
 11
11.00022260296953
 21
-25.39892507127608
 31
0.0
  0
LINE
  5
2CD
330
1F
100
AcDbEntity
  8
외형선
  6
Continuous
370
    15
100
AcDbLine
 10
-78.17000000000002
 20
-25.39892507127608
 30
0.0
 11
-73.72499999999997
 21
-25.39892507127608
 31
0.0
  0
LINE
  5
2CE
330
1F
100
AcDbEntity
  8
외형선
  6
Continuous
370
    15
100
AcDbLine
 10
-50.94119999999998
 20
25.4010749287239
 30
0.0
 11
-61.02499999999998
 21
25.4010749287239
 31
0.0
  0
LINE
  5
2CF
330
1F
100
AcDbEntity
  8
외형선
  6
Continuous
370
    15
100
AcDbLine
 10
-78.17000000000002
 20
-25.39892507127608
 30
0.0
 11
-73.72499999999997
 21
-25.39892507127608
 31
0.0
  0
LINE
  5
2D0
330
1F
100
AcDbEntity
  8
외형선
  6
Continuous
370
    15
100
AcDbLine
 10
11.00022260296953
 20
25.4010749287239
 30
0.0
 11
-28.18279999999999
 21
25.4010749287239
 31
0.0
  0
LINE
  5
2D1
330
1F
100
AcDbEntity
  8
외형선
  6
Continuous
370
    15
100
AcDbLine
 10
-61.02499999999998
 20
-25.39892507127611
 30
0.0
 11
11.00009137382506
 21
-25.39892507127611
 31
0.0
  0
LINE
  5
2D2
330
1F
100
AcDbEntity
  8
외형선
  6
Continuous
370
    15
100
AcDbLine
 10
-78.17000000000002
 20
-25.39892507127611
 30
0.0
 11
-73.72499999999997
 21
-25.39892507127611
 31
0.0
  0
LINE
  5
2D3
330
1F
100
AcDbEntity
  8
외형선
  6
Continuous
370
    15
100
AcDbLine
 10
-50.94119999999995
 20
25.40107492872389
 30
0.0
 11
-61.02500000000001
 21
25.40107492872389
 31
0.0
  0
LINE
  5
2D4
330
1F
100
AcDbEntity
  8
외형선
  6
Continuous
370
    15
100
AcDbLine
 10
11.00009137382506
 20
25.40107492872389
 30
0.0
 11
-28.18280000000004
 21
25.40107492872389
 31
0.0
  0
LINE
  5
306
330
1F
100
AcDbEntity
  8
외형선
  6
Continuous
370
    15
100
AcDbLine
 10
-50.94119999999995
 20
25.40107492872389
 30
0.0
 11
-61.02499999999998
 21
25.40107492872389
 31
0.0
  0
LINE
  5
307
330
1F
100
AcDbEntity
  8
외형선
  6
Continuous
370
    15
100
AcDbLine
 10
-61.02499999999998
 20
-25.3989250712761
 30
0.0
 11
11.00033501722812
 21
-25.3989250712761
 31
0.0
  0
ENDSEC
  0
SECTION
  2
OBJECTS
  0
DICTIONARY
  5
C
330
0
100
AcDbDictionary
281
     1
  3
ACAD_GROUP
350
D
  3
ACAD_IMAGE_VARS
350
16D
  3
ACAD_LAYOUT
350
1A
  3
ACAD_MLINESTYLE
350
17
  3
ACAD_PLOTSETTINGS
350
19
  3
ACAD_PLOTSTYLENAME
350
E
  3
ACAD_SCALELIST
350
47
  3
APPDATA
350
16B
  3
DWGPROPS
350
32B
  0
DICTIONARY
  5
D
102
{ACAD_REACTORS
330
C
102
}
330
C
100
AcDbDictionary
281
     1
  0
RASTERVARIABLES
  5
16D
102
{ACAD_REACTORS
330
C
102
}
330
C
100
AcDbRasterVariables
 90
        0
 70
     1
 71
     1
 72
     1
  0
DICTIONARY
  5
1A
102
{ACAD_REACTORS
330
C
102
}
330
C
100
AcDbDictionary
281
     1
  3
Layout1
350
1E
  3
Layout2
350
26
  3
Model
350
22
  0
DICTIONARY
  5
17
102
{ACAD_REACTORS
330
C
102
}
330
C
100
AcDbDictionary
281
     1
  3
Standard
350
18
  0
DICTIONARY
  5
19
102
{ACAD_REACTORS
330
C
102
}
330
C
100
AcDbDictionary
281
     1
  0
ACDBDICTIONARYWDFLT
  5
E
102
{ACAD_REACTORS
330
C
102
}
330
C
100
AcDbDictionary
281
     1
  3
Normal
350
F
100
AcDbDictionaryWithDefault
340
F
  0
DICTIONARY
  5
47
102
{ACAD_REACTORS
330
C
102
}
330
C
100
AcDbDictionary
281
     1
  3
A0
350
48
  3
A1
350
49
  3
A2
350
4A
  3
A3
350
4B
  3
A4
350
4C
  3
A5
350
4D
  3
A6
350
4E
  3
A7
350
4F
  3
A8
350
50
  3
A9
350
51
  3
B0
350
52
  3
B1
350
53
  3
B2
350
54
  3
B3
350
55
  3
B4
350
56
  3
B5
350
57
  3
B6
350
58
  3
B7
350
59
  3
B8
350
5A
  3
B9
350
5B
  3
C0
350
5C
  3
C1
350
5D
  3
C2
350
5E
  3
C3
350
5F
  3
C4
350
60
  3
C5
350
61
  3
C6
350
62
  3
C7
350
63
  3
C8
350
64
  3
C9
350
65
  3
D0
350
66
  3
D1
350
67
  3
D2
350
68
  0
DICTIONARY
  5
16B
102
{ACAD_REACTORS
330
C
102
}
330
C
100
AcDbDictionary
281
     1
  0
XRECORD
  5
32B
102
{ACAD_REACTORS
330
C
102
}
330
C
100
AcDbXrecord
280
     1
  1
DWGPROPS COOKIE
  2

  3

  4

  6

  7

  8
12016016
  9

300
=
301
=
302
=
303
=
304
=
305
=
306
=
307
=
308
=
309
=
 40
0.0
 41
2458323.064626933
 42
2458323.362118785
  1

 90
        0
  0
LAYOUT
  5
1E
102
{ACAD_REACTORS
330
1A
102
}
330
1A
100
AcDbPlotSettings
  1

  2
none_device
  4

  6

 40
0.0
 41
0.0
 42
0.0
 43
0.0
 44
0.0
 45
0.0
 46
0.0
 47
0.0
 48
0.0
 49
0.0
140
0.0
141
0.0
142
1.0
143
1.0
 70
   688
 72
     1
 73
     0
 74
     5
  7

 75
    16
147
1.0
148
0.0
149
0.0
100
AcDbLayout
  1
Layout1
 70
     1
 71
     1
 10
0.0
 20
0.0
 11
420.0
 21
297.0
 12
0.0
 22
0.0
 32
0.0
 14
1.000000000000000E+20
 24
1.000000000000000E+20
 34
1.000000000000000E+20
 15
-1.000000000000000E+20
 25
-1.000000000000000E+20
 35
-1.000000000000000E+20
146
0.0
 13
0.0
 23
0.0
 33
0.0
 16
1.0
 26
0.0
 36
0.0
 17
0.0
 27
1.0
 37
0.0
 76
     0
330
1B
  0
LAYOUT
  5
26
102
{ACAD_REACTORS
330
1A
102
}
330
1A
100
AcDbPlotSettings
  1

  2
none_device
  4

  6

 40
0.0
 41
0.0
 42
0.0
 43
0.0
 44
0.0
 45
0.0
 46
0.0
 47
0.0
 48
0.0
 49
0.0
140
0.0
141
0.0
142
1.0
143
1.0
 70
   688
 72
     1
 73
     0
 74
     5
  7

 75
    16
147
1.0
148
0.0
149
0.0
100
AcDbLayout
  1
Layout2
 70
     1
 71
     2
 10
0.0
 20
0.0
 11
0.0
 21
0.0
 12
0.0
 22
0.0
 32
0.0
 14
0.0
 24
0.0
 34
0.0
 15
0.0
 25
0.0
 35
0.0
146
0.0
 13
0.0
 23
0.0
 33
0.0
 16
1.0
 26
0.0
 36
0.0
 17
0.0
 27
1.0
 37
0.0
 76
     0
330
23
  0
LAYOUT
  5
22
102
{ACAD_REACTORS
330
1A
102
}
330
1A
100
AcDbPlotSettings
  1

  2
none_device
  4
ANSI_A_(11.00_x_8.50_Inches)
  6

 40
6.35
 41
19.05
 42
6.35000508
 43
19.05000254
 44
279.4
 45
215.9
 46
48.58460056422915
 47
76.29520587895585
 48
0.0
 49
0.0
140
0.0
141
0.0
142
0.0338461136919826
143
1.0
 70
  1696
 72
     0
 73
     0
 74
     0
  7

 75
     0
147
0.0235690232323232
148
0.0
149
0.0
100
AcDbLayout
  1
Model
 70
     1
 71
     0
 10
0.0
 20
0.0
 11
420.0
 21
297.0
 12
0.0
 22
0.0
 32
0.0
 14
-100.125
 24
-49.97073246008785
 34
0.0
 15
236.2546836971485
 25
76.2882808660535
 35
0.0
146
0.0
 13
0.0
 23
0.0
 33
0.0
 16
1.0
 26
0.0
 36
0.0
 17
0.0
 27
1.0
 37
0.0
 76
     0
330
1F
331
29
  0
MLINESTYLE
  5
18
102
{ACAD_REACTORS
330
17
102
}
330
17
100
AcDbMlineStyle
  2
Standard
 70
     0
  3

 62
   256
 51
90.0
 52
90.0
 71
     2
 49
0.5
 62
   256
  6
BYLAYER
 49
-0.5
 62
   256
  6
BYLAYER
  0
ACDBPLACEHOLDER
  5
F
102
{ACAD_REACTORS
330
E
102
}
330
E
  0
SCALE
  5
48
102
{ACAD_REACTORS
330
47
102
}
330
47
100
AcDbScale
 70
     0
300
1:1
140
1.0
141
1.0
290
     1
  0
SCALE
  5
49
102
{ACAD_REACTORS
330
47
102
}
330
47
100
AcDbScale
 70
     0
300
1:2
140
1.0
141
2.0
290
     0
  0
SCALE
  5
4A
102
{ACAD_REACTORS
330
47
102
}
330
47
100
AcDbScale
 70
     0
300
1:4
140
1.0
141
4.0
290
     0
  0
SCALE
  5
4B
102
{ACAD_REACTORS
330
47
102
}
330
47
100
AcDbScale
 70
     0
300
1:5
140
1.0
141
5.0
290
     0
  0
SCALE
  5
4C
102
{ACAD_REACTORS
330
47
102
}
330
47
100
AcDbScale
 70
     0
300
1:8
140
1.0
141
8.0
290
     0
  0
SCALE
  5
4D
102
{ACAD_REACTORS
330
47
102
}
330
47
100
AcDbScale
 70
     0
300
1:10
140
1.0
141
10.0
290
     0
  0
SCALE
  5
4E
102
{ACAD_REACTORS
330
47
102
}
330
47
100
AcDbScale
 70
     0
300
1:16
140
1.0
141
16.0
290
     0
  0
SCALE
  5
4F
102
{ACAD_REACTORS
330
47
102
}
330
47
100
AcDbScale
 70
     0
300
1:20
140
1.0
141
20.0
290
     0
  0
SCALE
  5
50
102
{ACAD_REACTORS
330
47
102
}
330
47
100
AcDbScale
 70
     0
300
1:30
140
1.0
141
30.0
290
     0
  0
SCALE
  5
51
102
{ACAD_REACTORS
330
47
102
}
330
47
100
AcDbScale
 70
     0
300
1:40
140
1.0
141
40.0
290
     0
  0
SCALE
  5
52
102
{ACAD_REACTORS
330
47
102
}
330
47
100
AcDbScale
 70
     0
300
1:50
140
1.0
141
50.0
290
     0
  0
SCALE
  5
53
102
{ACAD_REACTORS
330
47
102
}
330
47
100
AcDbScale
 70
     0
300
1:100
140
1.0
141
100.0
290
     0
  0
SCALE
  5
54
102
{ACAD_REACTORS
330
47
102
}
330
47
100
AcDbScale
 70
     0
300
2:1
140
2.0
141
1.0
290
     0
  0
SCALE
  5
55
102
{ACAD_REACTORS
330
47
102
}
330
47
100
AcDbScale
 70
     0
300
4:1
140
4.0
141
1.0
290
     0
  0
SCALE
  5
56
102
{ACAD_REACTORS
330
47
102
}
330
47
100
AcDbScale
 70
     0
300
8:1
140
8.0
141
1.0
290
     0
  0
SCALE
  5
57
102
{ACAD_REACTORS
330
47
102
}
330
47
100
AcDbScale
 70
     0
300
10:1
140
10.0
141
1.0
290
     0
  0
SCALE
  5
58
102
{ACAD_REACTORS
330
47
102
}
330
47
100
AcDbScale
 70
     0
300
100:1
140
100.0
141
1.0
290
     0
  0
SCALE
  5
59
102
{ACAD_REACTORS
330
47
102
}
330
47
100
AcDbScale
 70
     0
300
1/128" = 1'-0"
140
0.0078125
141
12.0
290
     0
  0
SCALE
  5
5A
102
{ACAD_REACTORS
330
47
102
}
330
47
100
AcDbScale
 70
     0
300
1/64" = 1'-0"
140
0.015625
141
12.0
290
     0
  0
SCALE
  5
5B
102
{ACAD_REACTORS
330
47
102
}
330
47
100
AcDbScale
 70
     0
300
1/32" = 1'-0"
140
0.03125
141
12.0
290
     0
  0
SCALE
  5
5C
102
{ACAD_REACTORS
330
47
102
}
330
47
100
AcDbScale
 70
     0
300
1/16" = 1'-0"
140
0.0625
141
12.0
290
     0
  0
SCALE
  5
5D
102
{ACAD_REACTORS
330
47
102
}
330
47
100
AcDbScale
 70
     0
300
3/32" = 1'-0"
140
0.09375
141
12.0
290
     0
  0
SCALE
  5
5E
102
{ACAD_REACTORS
330
47
102
}
330
47
100
AcDbScale
 70
     0
300
1/8" = 1'-0"
140
0.125
141
12.0
290
     0
  0
SCALE
  5
5F
102
{ACAD_REACTORS
330
47
102
}
330
47
100
AcDbScale
 70
     0
300
3/16" = 1'-0"
140
0.1875
141
12.0
290
     0
  0
SCALE
  5
60
102
{ACAD_REACTORS
330
47
102
}
330
47
100
AcDbScale
 70
     0
300
1/4" = 1'-0"
140
0.25
141
12.0
290
     0
  0
SCALE
  5
61
102
{ACAD_REACTORS
330
47
102
}
330
47
100
AcDbScale
 70
     0
300
3/8" = 1'-0"
140
0.375
141
12.0
290
     0
  0
SCALE
  5
62
102
{ACAD_REACTORS
330
47
102
}
330
47
100
AcDbScale
 70
     0
300
1/2" = 1'-0"
140
0.5
141
12.0
290
     0
  0
SCALE
  5
63
102
{ACAD_REACTORS
330
47
102
}
330
47
100
AcDbScale
 70
     0
300
3/4" = 1'-0"
140
0.75
141
12.0
290
     0
  0
SCALE
  5
64
102
{ACAD_REACTORS
330
47
102
}
330
47
100
AcDbScale
 70
     0
300
1" = 1'-0"
140
1.0
141
12.0
290
     0
  0
SCALE
  5
65
102
{ACAD_REACTORS
330
47
102
}
330
47
100
AcDbScale
 70
     0
300
1-1/2" = 1'-0"
140
1.5
141
12.0
290
     0
  0
SCALE
  5
66
102
{ACAD_REACTORS
330
47
102
}
330
47
100
AcDbScale
 70
     0
300
3" = 1'-0"
140
3.0
141
12.0
290
     0
  0
SCALE
  5
67
102
{ACAD_REACTORS
330
47
102
}
330
47
100
AcDbScale
 70
     0
300
6" = 1'-0"
140
6.0
141
12.0
290
     0
  0
SCALE
  5
68
102
{ACAD_REACTORS
330
47
102
}
330
47
100
AcDbScale
 70
     0
300
1'-0" = 1'-0"
140
12.0
141
12.0
290
     0
  0
ENDSEC
  0
EOF
