  0
SECTION
  2
HEADER
  9
$ACADVER
  1
AC1015
  9
$ACADMAINTVER
 70
     6
  9
$DWGCODEPAGE
  3
ANSI_949
  9
$INSBASE
 10
0.0
 20
0.0
 30
0.0
  9
$EXTMIN
 10
-51.42823868596892
 20
-49.97073246008785
 30
0.0
  9
$EXTMAX
 10
90.51899512937676
 20
43.13857492872395
 30
0.0
  9
$LIMMIN
 10
0.0
 20
0.0
  9
$LIMMAX
 10
420.0
 20
297.0
  9
$ORTHOMODE
 70
     1
  9
$REGENMODE
 70
     1
  9
$FILLMODE
 70
     1
  9
$QTEXTMODE
 70
     0
  9
$MIRRTEXT
 70
     1
  9
$LTSCALE
 40
1.0
  9
$ATTMODE
 70
     1
  9
$TEXTSIZE
 40
3.5
  9
$TRACEWID
 40
1.0
  9
$TEXTSTYLE
  7
Standard
  9
$CLAYER
  8
0
  9
$CELTYPE
  6
ByLayer
  9
$CECOLOR
 62
   256
  9
$CELTSCALE
 40
1.0
  9
$DISPSILH
 70
     0
  9
$DIMSCALE
 40
1.0
  9
$DIMASZ
 40
3.302
  9
$DIMEXO
 40
1.0
  9
$DIMDLI
 40
3.75
  9
$DIMRND
 40
0.0
  9
$DIMDLE
 40
0.0
  9
$DIMEXE
 40
1.0
  9
$DIMTP
 40
0.0
  9
$DIMTM
 40
0.0
  9
$DIMTXT
 40
3.5
  9
$DIMCEN
 40
2.5
  9
$DIMTSZ
 40
0.0
  9
$DIMTOL
 70
     0
  9
$DIMLIM
 70
     0
  9
$DIMTIH
 70
     1
  9
$DIMTOH
 70
     1
  9
$DIMSE1
 70
     0
  9
$DIMSE2
 70
     0
  9
$DIMTAD
 70
     1
  9
$DIMZIN
 70
     0
  9
$DIMBLK
  1

  9
$DIMASO
 70
     1
  9
$DIMSHO
 70
     1
  9
$DIMPOST
  1

  9
$DIMAPOST
  1

  9
$DIMALT
 70
     0
  9
$DIMALTD
 70
     3
  9
$DIMALTF
 40
0.0393700787401575
  9
$DIMLFAC
 40
1.0
  9
$DIMTOFL
 70
     1
  9
$DIMTVP
 40
0.0
  9
$DIMTIX
 70
     0
  9
$DIMSOXD
 70
     0
  9
$DIMSAH
 70
     0
  9
$DIMBLK1
  1

  9
$DIMBLK2
  1

  9
$DIMSTYLE
  2
ISO-25
  9
$DIMCLRD
 70
     0
  9
$DIMCLRE
 70
     0
  9
$DIMCLRT
 70
     0
  9
$DIMTFAC
 40
1.0
  9
$DIMGAP
 40
1.524
  9
$DIMJUST
 70
     0
  9
$DIMSD1
 70
     0
  9
$DIMSD2
 70
     0
  9
$DIMTOLJ
 70
     0
  9
$DIMTZIN
 70
     0
  9
$DIMALTZ
 70
     0
  9
$DIMALTTZ
 70
     0
  9
$DIMUPT
 70
     0
  9
$DIMDEC
 70
     2
  9
$DIMTDEC
 70
     2
  9
$DIMALTU
 70
     2
  9
$DIMALTTD
 70
     3
  9
$DIMTXSTY
  7
Standard
  9
$DIMAUNIT
 70
     0
  9
$DIMADEC
 70
     2
  9
$DIMALTRND
 40
0.0
  9
$DIMAZIN
 70
     0
  9
$DIMDSEP
 70
    44
  9
$DIMATFIT
 70
     3
  9
$DIMFRAC
 70
     0
  9
$DIMLDRBLK
  1

  9
$DIMLUNIT
 70
     2
  9
$DIMLWD
 70
    -2
  9
$DIMLWE
 70
    -2
  9
$DIMTMOVE
 70
     0
  9
$LUNITS
 70
     2
  9
$LUPREC
 70
     2
  9
$SKETCHINC
 40
1.0
  9
$FILLETRAD
 40
10.0
  9
$AUNITS
 70
     0
  9
$AUPREC
 70
     2
  9
$MENU
  1
.
  9
$ELEVATION
 40
0.0
  9
$PELEVATION
 40
0.0
  9
$THICKNESS
 40
0.0
  9
$LIMCHECK
 70
     0
  9
$CHAMFERA
 40
0.0
  9
$CHAMFERB
 40
0.0
  9
$CHAMFERC
 40
0.0
  9
$CHAMFERD
 40
0.0
  9
$SKPOLY
 70
     0
  9
$TDCREATE
 40
2458316.579007095
  9
$TDUCREATE
 40
2458316.204007095
  9
$TDUPDATE
 40
2458320.739879028
  9
$TDUUPDATE
 40
2458320.364879028
  9
$TDINDWG
 40
0.0012630093
  9
$TDUSRTIMER
 40
2458320.364842176
  9
$USRTIMER
 70
     1
  9
$ANGBASE
 50
0.0
  9
$ANGDIR
 70
     0
  9
$PDMODE
 70
     0
  9
$PDSIZE
 40
-1.0
  9
$PLINEWID
 40
0.0
  9
$SPLFRAME
 70
     0
  9
$SPLINETYPE
 70
     6
  9
$SPLINESEGS
 70
     8
  9
$HANDSEED
  5
1D5
  9
$SURFTAB1
 70
     6
  9
$SURFTAB2
 70
     6
  9
$SURFTYPE
 70
     6
  9
$SURFU
 70
     6
  9
$SURFV
 70
     6
  9
$UCSBASE
  2

  9
$UCSNAME
  2

  9
$UCSORG
 10
0.0
 20
0.0
 30
0.0
  9
$UCSXDIR
 10
1.0
 20
0.0
 30
0.0
  9
$UCSYDIR
 10
0.0
 20
1.0
 30
0.0
  9
$UCSORTHOREF
  2

  9
$UCSORTHOVIEW
 70
     0
  9
$UCSORGTOP
 10
0.0
 20
0.0
 30
0.0
  9
$UCSORGBOTTOM
 10
0.0
 20
0.0
 30
0.0
  9
$UCSORGLEFT
 10
0.0
 20
0.0
 30
0.0
  9
$UCSORGRIGHT
 10
0.0
 20
0.0
 30
0.0
  9
$UCSORGFRONT
 10
0.0
 20
0.0
 30
0.0
  9
$UCSORGBACK
 10
0.0
 20
0.0
 30
0.0
  9
$PUCSBASE
  2

  9
$PUCSNAME
  2

  9
$PUCSORG
 10
0.0
 20
0.0
 30
0.0
  9
$PUCSXDIR
 10
1.0
 20
0.0
 30
0.0
  9
$PUCSYDIR
 10
0.0
 20
1.0
 30
0.0
  9
$PUCSORTHOREF
  2

  9
$PUCSORTHOVIEW
 70
     0
  9
$PUCSORGTOP
 10
0.0
 20
0.0
 30
0.0
  9
$PUCSORGBOTTOM
 10
0.0
 20
0.0
 30
0.0
  9
$PUCSORGLEFT
 10
0.0
 20
0.0
 30
0.0
  9
$PUCSORGRIGHT
 10
0.0
 20
0.0
 30
0.0
  9
$PUCSORGFRONT
 10
0.0
 20
0.0
 30
0.0
  9
$PUCSORGBACK
 10
0.0
 20
0.0
 30
0.0
  9
$USERI1
 70
     0
  9
$USERI2
 70
     0
  9
$USERI3
 70
     0
  9
$USERI4
 70
     0
  9
$USERI5
 70
     0
  9
$USERR1
 40
0.0
  9
$USERR2
 40
0.0
  9
$USERR3
 40
0.0
  9
$USERR4
 40
0.0
  9
$USERR5
 40
0.0
  9
$WORLDVIEW
 70
     1
  9
$SHADEDGE
 70
     3
  9
$SHADEDIF
 70
    70
  9
$TILEMODE
 70
     1
  9
$MAXACTVP
 70
    64
  9
$PINSBASE
 10
0.0
 20
0.0
 30
0.0
  9
$PLIMCHECK
 70
     0
  9
$PEXTMIN
 10
1.000000000000000E+20
 20
1.000000000000000E+20
 30
1.000000000000000E+20
  9
$PEXTMAX
 10
-1.000000000000000E+20
 20
-1.000000000000000E+20
 30
-1.000000000000000E+20
  9
$PLIMMIN
 10
0.0
 20
0.0
  9
$PLIMMAX
 10
0.0
 20
0.0
  9
$UNITMODE
 70
     0
  9
$VISRETAIN
 70
     1
  9
$PLINEGEN
 70
     0
  9
$PSLTSCALE
 70
     1
  9
$TREEDEPTH
 70
  3020
  9
$CMLSTYLE
  2
Standard
  9
$CMLJUST
 70
     0
  9
$CMLSCALE
 40
20.0
  9
$PROXYGRAPHICS
 70
     1
  9
$MEASUREMENT
 70
     1
  9
$CELWEIGHT
370
    -1
  9
$ENDCAPS
280
     0
  9
$JOINSTYLE
280
     0
  9
$LWDISPLAY
290
     1
  9
$INSUNITS
 70
     4
  9
$HYPERLINKBASE
  1

  9
$STYLESHEET
  1

  9
$XEDIT
290
     1
  9
$CEPSNTYPE
380
     0
  9
$PSTYLEMODE
290
     1
  9
$FINGERPRINTGUID
  2
{D1D24C2C-5169-4E35-A31C-45E0587CD2CD}
  9
$VERSIONGUID
  2
{FAEB1C32-E019-11D5-929B-00C0DF256EC4}
  9
$EXTNAMES
290
     1
  9
$PSVPSCALE
 40
0.0
  9
$OLESTARTUP
290
     0
  0
ENDSEC
  0
SECTION
  2
CLASSES
  0
CLASS
  1
ACDBDICTIONARYWDFLT
  2
AcDbDictionaryWithDefault
  3
ObjectDBX Classes
 90
        0
280
     0
281
     0
  0
CLASS
  1
VISUALSTYLE
  2
AcDbVisualStyle
  3
ObjectDBX Classes
 90
     4095
280
     0
281
     0
  0
CLASS
  1
MATERIAL
  2
AcDbMaterial
  3
ObjectDBX Classes
 90
     1153
280
     0
281
     0
  0
CLASS
  1
SCALE
  2
AcDbScale
  3
ObjectDBX Classes
 90
     1153
280
     0
281
     0
  0
CLASS
  1
SUN
  2
AcDbSun
  3
SCENEOE
 90
     1153
280
     0
281
     0
  0
CLASS
  1
ACDBPLACEHOLDER
  2
AcDbPlaceHolder
  3
ObjectDBX Classes
 90
        0
280
     0
281
     0
  0
CLASS
  1
LAYOUT
  2
AcDbLayout
  3
ObjectDBX Classes
 90
        0
280
     0
281
     0
  0
CLASS
  1
TABLESTYLE
  2
AcDbTableStyle
  3
ObjectDBX Classes
 90
     4095
280
     0
281
     0
  0
CLASS
  1
MLEADERSTYLE
  2
AcDbMLeaderStyle
  3
ACDB_MLEADERSTYLE_CLASS
 90
     4095
280
     0
281
     0
  0
CLASS
  1
RASTERVARIABLES
  2
AcDbRasterVariables
  3
ISM
 90
        0
280
     0
281
     0
  0
ENDSEC
  0
SECTION
  2
TABLES
  0
TABLE
  2
VPORT
  5
8
330
0
100
AcDbSymbolTable
 70
     1
  0
VPORT
  5
29
330
8
100
AcDbSymbolTableRecord
100
AcDbViewportTableRecord
  2
*Active
 70
     0
 10
0.0
 20
0.0
 11
1.0
 21
1.0
 12
0.8875664199160092
 22
-4.510332672914896
 13
0.0
 23
0.0
 14
10.0
 24
10.0
 15
10.0
 25
10.0
 16
0.0
 26
0.0
 36
1.0
 17
0.0
 27
0.0
 37
0.0
 40
103.6767328869516
 41
1.632093933463796
 42
50.0
 43
0.0
 44
0.0
 50
0.0
 51
0.0
 71
    16
 72
  2000
 73
     1
 74
     3
 75
     0
 76
     0
 77
     0
 78
     0
281
     0
 65
     1
110
0.0
120
0.0
130
0.0
111
1.0
121
0.0
131
0.0
112
0.0
122
1.0
132
0.0
 79
     0
146
0.0
  0
ENDTAB
  0
TABLE
  2
LTYPE
  5
5
330
0
100
AcDbSymbolTable
 70
     6
  0
LTYPE
  5
14
330
5
100
AcDbSymbolTableRecord
100
AcDbLinetypeTableRecord
  2
ByBlock
 70
     0
  3

 72
    65
 73
     0
 40
0.0
  0
LTYPE
  5
15
330
5
100
AcDbSymbolTableRecord
100
AcDbLinetypeTableRecord
  2
ByLayer
 70
     0
  3

 72
    65
 73
     0
 40
0.0
  0
LTYPE
  5
16
330
5
100
AcDbSymbolTableRecord
100
AcDbLinetypeTableRecord
  2
Continuous
 70
     0
  3
Solid line
 72
    65
 73
     0
 40
0.0
  0
LTYPE
  5
6A
330
5
100
AcDbSymbolTableRecord
100
AcDbLinetypeTableRecord
  2
HIDDEN
 70
     0
  3
Hidden __ __ __ __ __ __ __ __ __ __ __ __ __ __
 72
    65
 73
     2
 40
1.905
 49
1.27
 74
     0
 49
-0.635
 74
     0
  0
LTYPE
  5
6B
330
5
100
AcDbSymbolTableRecord
100
AcDbLinetypeTableRecord
  2
PHANTOM
 70
     0
  3
Phantom ______  __  __  ______  __  __  ______
 72
    65
 73
     6
 40
12.7
 49
6.35
 74
     0
 49
-1.27
 74
     0
 49
1.27
 74
     0
 49
-1.27
 74
     0
 49
1.27
 74
     0
 49
-1.27
 74
     0
  0
LTYPE
  5
6C
330
5
100
AcDbSymbolTableRecord
100
AcDbLinetypeTableRecord
  2
CENTER
 70
     0
  3
Center ____ _ ____ _ ____ _ ____ _ ____ _ ____
 72
    65
 73
     4
 40
10.16
 49
6.35
 74
     0
 49
-1.27
 74
     0
 49
1.27
 74
     0
 49
-1.27
 74
     0
  0
LTYPE
  5
6D
330
5
100
AcDbSymbolTableRecord
100
AcDbLinetypeTableRecord
  2
CENTERX2
 70
     0
  3
Center (2x) ________  __  ________  __  _____
 72
    65
 73
     4
 40
20.32
 49
12.7
 74
     0
 49
-2.54
 74
     0
 49
2.54
 74
     0
 49
-2.54
 74
     0
  0
LTYPE
  5
6E
330
5
100
AcDbSymbolTableRecord
100
AcDbLinetypeTableRecord
  2
DOT2
 70
     0
  3
Dot (.5x) ........................................
 72
    65
 73
     2
 40
0.635
 49
0.0
 74
     0
 49
-0.635
 74
     0
  0
ENDTAB
  0
TABLE
  2
LAYER
  5
2
102
{ACAD_XDICTIONARY
360
174
102
}
330
0
100
AcDbSymbolTable
 70
    18
  0
LAYER
  5
10
330
2
100
AcDbSymbolTableRecord
100
AcDbLayerTableRecord
  2
0
 70
     0
 62
     7
  6
Continuous
370
    -3
390
F
  0
LAYER
  5
6F
330
2
100
AcDbSymbolTableRecord
100
AcDbLayerTableRecord
  2
FORMAT
 70
     0
 62
     2
  6
Continuous
370
    -3
390
F
  0
LAYER
  5
70
330
2
100
AcDbSymbolTableRecord
100
AcDbLayerTableRecord
  2
외형선
 70
     0
 62
     4
  6
Continuous
370
    30
390
F
  0
LAYER
  5
71
330
2
100
AcDbSymbolTableRecord
100
AcDbLayerTableRecord
  2
숨은선
 70
     0
 62
     2
  6
HIDDEN
370
    15
390
F
  0
LAYER
  5
72
330
2
100
AcDbSymbolTableRecord
100
AcDbLayerTableRecord
  2
중심선
 70
     0
 62
     1
  6
CENTERX2
370
    -3
390
F
  0
LAYER
  5
73
330
2
100
AcDbSymbolTableRecord
100
AcDbLayerTableRecord
  2
파단선
 70
     0
 62
     4
  6
Continuous
370
    -3
390
F
  0
LAYER
  5
74
330
2
100
AcDbSymbolTableRecord
100
AcDbLayerTableRecord
  2
해칭선
 70
     0
 62
   100
  6
Continuous
370
    -3
390
F
  0
LAYER
  5
75
330
2
100
AcDbSymbolTableRecord
100
AcDbLayerTableRecord
  2
가는실선
 70
     0
 62
     4
  6
Continuous
370
    -3
390
F
  0
LAYER
  5
76
330
2
100
AcDbSymbolTableRecord
100
AcDbLayerTableRecord
  2
치수_보조선
 70
     0
 62
     4
  6
Continuous
370
    -3
390
F
  0
LAYER
  5
77
330
2
100
AcDbSymbolTableRecord
100
AcDbLayerTableRecord
  2
치수문자_일반주서
 70
     0
 62
     7
  6
Continuous
370
    15
390
F
  0
LAYER
  5
78
330
2
100
AcDbSymbolTableRecord
100
AcDbLayerTableRecord
  2
개별주서
 70
     0
 62
   100
  6
Continuous
370
    30
390
F
  0
LAYER
  5
79
330
2
100
AcDbSymbolTableRecord
100
AcDbLayerTableRecord
  2
중간선
 70
     0
 62
     2
  6
Continuous
370
    15
390
F
  0
LAYER
  5
7A
330
2
100
AcDbSymbolTableRecord
100
AcDbLayerTableRecord
  2
윤곽선
 70
     0
 62
     3
  6
Continuous
370
    40
390
F
  0
LAYER
  5
7B
330
2
100
AcDbSymbolTableRecord
100
AcDbLayerTableRecord
  2
중심마크
 70
     0
 62
   100
  6
Continuous
370
    30
390
F
  0
LAYER
  5
7C
330
2
100
AcDbSymbolTableRecord
100
AcDbLayerTableRecord
  2
가상선
 70
     0
 62
     4
  6
PHANTOM
370
    -3
390
F
  0
LAYER
  5
7D
330
2
100
AcDbSymbolTableRecord
100
AcDbLayerTableRecord
  2
특수지정선
 70
     0
 62
     5
  6
CENTERX2
370
    60
390
F
  0
LAYER
  5
7E
330
2
100
AcDbSymbolTableRecord
100
AcDbLayerTableRecord
  2
참조1
 70
     0
 62
    -4
  6
Continuous
370
    -3
390
F
  0
LAYER
  5
17B
330
2
100
AcDbSymbolTableRecord
100
AcDbLayerTableRecord
  2
Defpoints
 70
     0
 62
     7
  6
Continuous
290
     0
370
    -3
390
F
  0
ENDTAB
  0
TABLE
  2
STYLE
  5
3
330
0
100
AcDbSymbolTable
 70
     2
  0
STYLE
  5
11
330
3
100
AcDbSymbolTableRecord
100
AcDbTextStyleTableRecord
  2
Standard
 70
     0
 40
0.0
 41
1.0
 50
0.0
 71
     0
 42
3.5
  3
txt
  4

  0
STYLE
  5
94
330
3
100
AcDbSymbolTableRecord
100
AcDbTextStyleTableRecord
  2
SLDTEXTSTYLE0
 70
     0
 40
0.0
 41
0.75
 50
0.0
 71
     0
 42
3.5
  3
TXT
  4

  0
ENDTAB
  0
TABLE
  2
VIEW
  5
6
330
0
100
AcDbSymbolTable
 70
     0
  0
ENDTAB
  0
TABLE
  2
UCS
  5
7
330
0
100
AcDbSymbolTable
 70
     0
  0
ENDTAB
  0
TABLE
  2
APPID
  5
9
330
0
100
AcDbSymbolTable
 70
     2
  0
APPID
  5
12
330
9
100
AcDbSymbolTableRecord
100
AcDbRegAppTableRecord
  2
ACAD
 70
     0
  0
APPID
  5
1B0
330
9
100
AcDbSymbolTableRecord
100
AcDbRegAppTableRecord
  2
ACAD_DSTYLE_DIMRADIAL_EXTENSION
 70
     0
  0
ENDTAB
  0
TABLE
  2
DIMSTYLE
  5
A
330
0
100
AcDbSymbolTable
 70
     3
100
AcDbDimStyleTable
  0
DIMSTYLE
105
27
330
A
100
AcDbSymbolTableRecord
100
AcDbDimStyleTableRecord
  2
ISO-25
 70
     0
 41
2.5
 42
0.625
 43
3.75
 44
1.25
 73
     0
 74
     0
 77
     1
 78
     8
140
2.5
141
2.5
143
0.03937007874016
147
0.625
171
     3
172
     1
178
     0
271
     2
272
     2
274
     3
278
    44
283
     0
284
     8
340
11
  0
DIMSTYLE
105
CC
330
A
100
AcDbSymbolTableRecord
100
AcDbDimStyleTableRecord
  2
SLDDIMSTYLE0
 70
     0
 41
3.302
 44
0.0
 45
0.000000001
 73
     0
 74
     0
 77
     1
 78
    12
 79
     3
140
3.5
143
0.0393700787401575
147
0.875
148
0.000000001
170
     1
173
     1
178
     0
271
     2
272
     2
276
     2
284
    12
340
94
  0
DIMSTYLE
105
F4
102
{ACAD_REACTORS
330
F3
330
108
330
CB
330
E0
102
}
330
A
100
AcDbSymbolTableRecord
100
AcDbDimStyleTableRecord
  2
SLDDIMSTYLE1
 70
     0
 41
3.302
 44
0.0
 45
0.000000001
 73
     0
 74
     0
 77
     1
 78
    12
 79
     3
140
3.5
143
0.0393700787401575
147
0.875
148
0.000000001
170
     1
172
     1
173
     1
178
     0
271
     2
272
     2
276
     2
284
    12
289
     0
340
94
  0
ENDTAB
  0
TABLE
  2
BLOCK_RECORD
  5
1
330
0
100
AcDbSymbolTable
 70
     7
  0
BLOCK_RECORD
  5
1F
330
1
100
AcDbSymbolTableRecord
100
AcDbBlockTableRecord
  2
*Model_Space
340
22
  0
BLOCK_RECORD
  5
1B
330
1
100
AcDbSymbolTableRecord
100
AcDbBlockTableRecord
  2
*Paper_Space
340
1E
  0
BLOCK_RECORD
  5
23
330
1
100
AcDbSymbolTableRecord
100
AcDbBlockTableRecord
  2
*Paper_Space0
340
26
  0
BLOCK_RECORD
  5
7F
330
1
100
AcDbSymbolTableRecord
100
AcDbBlockTableRecord
  2
블럭10
340
0
102
{BLKREFS
331
C4
102
}
  0
BLOCK_RECORD
  5
CD
330
1
100
AcDbSymbolTableRecord
100
AcDbBlockTableRecord
  2
_D
340
0
  0
BLOCK_RECORD
  5
E1
330
1
100
AcDbSymbolTableRecord
100
AcDbBlockTableRecord
  2
_D_1
340
0
  0
BLOCK_RECORD
  5
F5
330
1
100
AcDbSymbolTableRecord
100
AcDbBlockTableRecord
  2
_D_2
340
0
  0
BLOCK_RECORD
  5
109
330
1
100
AcDbSymbolTableRecord
100
AcDbBlockTableRecord
  2
_D_3
340
0
  0
BLOCK_RECORD
  5
123
330
1
100
AcDbSymbolTableRecord
100
AcDbBlockTableRecord
  2
SW_DOWELSYMBOL_0
340
0
102
{BLKREFS
331
129
102
}
  0
ENDTAB
  0
ENDSEC
  0
SECTION
  2
BLOCKS
  0
BLOCK
  5
20
330
1F
100
AcDbEntity
  8
0
100
AcDbBlockBegin
  2
*Model_Space
 70
     0
 10
0.0
 20
0.0
 30
0.0
  3
*Model_Space
  1
*Model_Space
  0
ENDBLK
  5
21
330
1F
100
AcDbEntity
  8
0
100
AcDbBlockEnd
  0
BLOCK
  5
1C
330
1B
100
AcDbEntity
 67
     1
  8
0
100
AcDbBlockBegin
  2
*Paper_Space
 70
     0
 10
0.0
 20
0.0
 30
0.0
  3
*Paper_Space
  1
*Paper_Space
  0
ENDBLK
  5
1D
330
1B
100
AcDbEntity
 67
     1
  8
0
100
AcDbBlockEnd
  0
BLOCK
  5
24
330
23
100
AcDbEntity
  8
0
100
AcDbBlockBegin
  2
*Paper_Space0
 70
     0
 10
0.0
 20
0.0
 30
0.0
  3
*Paper_Space0
  1
*Paper_Space0
  0
ENDBLK
  5
25
330
23
100
AcDbEntity
  8
0
100
AcDbBlockEnd
  0
BLOCK
  5
80
330
7F
100
AcDbEntity
  8
0
100
AcDbBlockBegin
  2
블럭10
 70
     2
 10
0.0
 20
0.0
 30
0.0
  3
블럭10
  1
블럭10
  0
ELLIPSE
  5
82
330
7F
100
AcDbEntity
  8
중심선
100
AcDbEllipse
 10
20.54032771741204
 20
12.0471743016438
 30
0.0
 11
6.600054785286829
 21
-1.261213355974178E-13
 31
0.0
210
0.0
220
0.0
230
1.0
 40
0.636358354079598
 41
0.9219305317359503
 42
6.513795318482858
  0
ELLIPSE
  5
83
330
7F
100
AcDbEntity
  8
중심선
100
AcDbEllipse
 10
20.54032771746488
 20
12.04717430159265
 30
0.0
 11
3.960054785062283
 21
1.540847449632565E-10
 31
0.0
210
0.0
220
0.0
230
1.0
 40
0.3939339440162632
 41
1.131841032648279
 42
5.62031148352944
  0
LINE
  5
84
330
7F
100
AcDbEntity
  8
중심선
100
AcDbLine
 10
2.268634060543552
 20
16.24717430164393
 30
0.0
 11
5.714909304380834
 21
16.24717430164393
 31
0.0
  0
LINE
  5
85
330
7F
100
AcDbEntity
  8
중심선
100
AcDbLine
 10
5.245725140726316
 20
7.84717430164391
 30
0.0
 11
8.692000384563599
 21
7.84717430164391
 31
0.0
  0
LINE
  5
86
330
7F
100
AcDbEntity
  8
중심선
100
AcDbLine
 10
15.74043728645272
 20
16.24717430164393
 30
0.0
 11
8.692000384563599
 21
7.84717430164391
 31
0.0
  0
LINE
  5
87
330
7F
100
AcDbEntity
  8
중심선
100
AcDbLine
 10
0.1404042013395286
 20
13.71084872107135
 30
0.0
 11
3.58671253028996
 21
13.71088815037384
 31
0.0
  0
LINE
  5
88
330
7F
100
AcDbEntity
  8
중심선
100
AcDbLine
 10
2.750260043222114
 20
10.84717430164391
 30
0.0
 11
6.196535287059397
 21
10.84717430164391
 31
0.0
  0
LINE
  5
89
330
7F
100
AcDbEntity
  8
중심선
100
AcDbLine
 10
12.29416204261559
 20
16.24717430164393
 30
0.0
 11
5.245725140726316
 21
7.84717430164391
 31
0.0
  0
LINE
  5
8A
330
7F
100
AcDbEntity
  8
중심선
100
AcDbLine
 10
10.72767329541681
 20
16.24717430164393
 30
0.0
 11
6.196535287059397
 21
10.84717430164391
 31
0.0
  0
LINE
  5
8B
330
7F
100
AcDbEntity
  8
중심선
100
AcDbLine
 10
7.28139805157953
 20
16.24717430164393
 30
0.0
 11
2.750260043222114
 21
10.84717430164391
 31
0.0
  0
LINE
  5
8C
330
7F
100
AcDbEntity
  8
중심선
100
AcDbLine
 10
5.714909304380834
 20
16.24717430164393
 30
0.0
 11
3.58671253028996
 21
13.71088815037384
 31
0.0
  0
LINE
  5
8D
330
7F
100
AcDbEntity
  8
중심선
100
AcDbLine
 10
2.268634060543552
 20
16.24717430164393
 30
0.0
 11
0.1404042013395286
 21
13.71084872107135
 31
0.0
  0
LINE
  5
8E
330
7F
100
AcDbEntity
  8
중심선
100
AcDbLine
 10
7.28139805157953
 20
16.24717430164393
 30
0.0
 11
10.72767329541681
 21
16.24717430164393
 31
0.0
  0
LINE
  5
8F
330
7F
100
AcDbEntity
  8
중심선
100
AcDbLine
 10
12.29416204261559
 20
16.24717430164393
 30
0.0
 11
15.74043728645272
 21
16.24717430164393
 31
0.0
  0
LINE
  5
90
330
7F
100
AcDbEntity
  8
중심선
100
AcDbLine
 10
19.22036997980202
 20
11.08717430171403
 30
0.0
 11
23.66174974927406
 21
11.08717430171406
 31
0.0
  0
LINE
  5
91
330
7F
100
AcDbEntity
  8
중심선
100
AcDbLine
 10
19.22039502424796
 20
13.00717430171391
 30
0.0
 11
19.22036997980202
 21
11.08717430171403
 31
0.0
  0
LINE
  5
92
330
7F
100
AcDbEntity
  8
중심선
100
AcDbLine
 10
19.22039502424796
 20
13.00717430171391
 30
0.0
 11
26.96566020931264
 21
13.00717430171391
 31
0.0
  0
LINE
  5
93
330
7F
100
AcDbEntity
  8
중심선
100
AcDbLine
 10
22.22332737316547
 20
13.45928029700563
 30
0.0
 11
24.52862924686651
 21
15.39360700705356
 31
0.0
  0
ATTDEF
  5
95
330
7F
100
AcDbEntity
  8
FORMAT
 62
     2
100
AcDbText
 10
4.408487351596664
 20
2.075366912832191
 30
0.0
 40
4.233333333333333
  1
E1110008
 41
0.75
  7
SLDTEXTSTYLE0
 11
4.408487351596664
 21
-0.0412997538344756
 31
0.0
100
AcDbAttributeDefinition
  3

  2
AUTOATTR0
 70
     0
 74
     1
  0
ENDBLK
  5
81
330
7F
100
AcDbEntity
  8
0
100
AcDbBlockEnd
  0
BLOCK
  5
CE
330
CD
100
AcDbEntity
  8
0
100
AcDbBlockBegin
  2
_D
 70
     0
 10
0.0
 20
0.0
 30
0.0
  3
_D
  1
_D
  0
LINE
  5
D0
330
CD
100
AcDbEntity
  8
치수문자_일반주서
 62
     0
370
    -2
100
AcDbLine
 10
24.37426131403114
 20
1.651074928723893
 30
0.0
 11
24.37426131403114
 21
18.73219367268769
 31
0.0
  0
LINE
  5
D1
330
CD
100
AcDbEntity
  8
치수문자_일반주서
 62
     0
370
    -2
100
AcDbLine
 10
14.84926131402405
 20
1.543499938385158
 30
0.0
 11
14.84926131402405
 21
18.73219367268769
 31
0.0
  0
LINE
  5
D2
330
CD
100
AcDbEntity
  8
치수문자_일반주서
 62
     0
370
    -2
100
AcDbLine
 10
14.84926131402405
 20
18.73219367268769
 30
0.0
 11
-15.37973868597595
 21
18.73219367268769
 31
0.0
  0
LINE
  5
D3
330
CD
100
AcDbEntity
  8
치수문자_일반주서
 62
     0
370
    -2
100
AcDbLine
 10
24.37426131403114
 20
18.73219367268769
 30
0.0
 11
14.84926131402405
 21
18.73219367268769
 31
0.0
  0
LINE
  5
D4
330
CD
100
AcDbEntity
  8
치수문자_일반주서
 62
     0
370
    -2
100
AcDbLine
 10
27.67626131403114
 20
18.73219367268769
 30
0.0
 11
30.97826131403114
 21
18.73219367268769
 31
0.0
  0
LINE
  5
D5
330
CD
100
AcDbEntity
  8
치수문자_일반주서
 62
     0
370
    -2
100
AcDbLine
 10
11.54726131402405
 20
18.73219367268769
 30
0.0
 11
8.245261314024052
 21
18.73219367268769
 31
0.0
  0
SOLID
  5
D6
330
CD
100
AcDbEntity
  8
치수문자_일반주서
 62
     0
100
AcDbTrace
 10
27.67626131403114
 20
19.28252700602102
 30
0.0
 11
27.67626131403114
 21
18.18186033935435
 31
0.0
 12
24.37426131403114
 22
18.73219367268769
 32
0.0
 13
24.37426131403114
 23
18.73219367268769
 33
0.0
  0
SOLID
  5
D7
330
CD
100
AcDbEntity
  8
치수문자_일반주서
 62
     0
100
AcDbTrace
 10
11.54726131402405
 20
18.18186033935435
 30
0.0
 11
11.54726131402405
 21
19.28252700602102
 31
0.0
 12
14.84926131402405
 22
18.73219367268769
 32
0.0
 13
14.84926131402405
 23
18.73219367268769
 33
0.0
  0
MTEXT
  5
D8
330
CD
100
AcDbEntity
  8
치수문자_일반주서
 62
     0
100
AcDbMText
 10
-3.567238685975948
 20
23.10719367268769
 30
0.0
 40
3.5
 41
0.0
 71
     2
 72
     1
  1
\A1;9.53 [3/8]
  7
SLDTEXTSTYLE0
 73
     1
 44
1.0
  0
POINT
  5
D9
330
CD
100
AcDbEntity
  8
Defpoints
 62
     0
100
AcDbPoint
 10
24.37426131403114
 20
1.588574928723893
 30
0.0
  0
POINT
  5
1AB
330
CD
100
AcDbEntity
  8
Defpoints
 62
     0
100
AcDbPoint
 10
14.84926131402405
 20
1.480999938385158
 30
0.0
  0
POINT
  5
1AC
330
CD
100
AcDbEntity
  8
Defpoints
 62
     0
100
AcDbPoint
 10
14.84926131402405
 20
18.73219367268769
 30
0.0
  0
ENDBLK
  5
CF
330
CD
100
AcDbEntity
  8
0
100
AcDbBlockEnd
  0
BLOCK
  5
E2
330
E1
100
AcDbEntity
  8
0
100
AcDbBlockBegin
  2
_D_1
 70
     0
 10
0.0
 20
0.0
 30
0.0
  3
_D_1
  1
_D_1
  0
LINE
  5
E4
330
E1
100
AcDbEntity
  8
치수문자_일반주서
 62
     0
370
    -2
100
AcDbLine
 10
24.37426131403116
 20
4.337226723198786
 30
0.0
 11
24.37426131403116
 21
38.76357492872395
 31
0.0
  0
LINE
  5
E5
330
E1
100
AcDbEntity
  8
치수문자_일반주서
 62
     0
370
    -2
100
AcDbLine
 10
-34.36323868596884
 20
4.01607492872389
 30
0.0
 11
-34.36323868596884
 21
38.76357492872395
 31
0.0
  0
LINE
  5
E6
330
E1
100
AcDbEntity
  8
치수문자_일반주서
 62
     0
370
    -2
100
AcDbLine
 10
21.07226131403116
 20
38.76357492872395
 30
0.0
 11
-31.06123868596884
 21
38.76357492872395
 31
0.0
  0
SOLID
  5
E7
330
E1
100
AcDbEntity
  8
치수문자_일반주서
 62
     0
100
AcDbTrace
 10
21.07226131403116
 20
38.21324159539062
 30
0.0
 11
21.07226131403116
 21
39.31390826205729
 31
0.0
 12
24.37426131403116
 22
38.76357492872395
 32
0.0
 13
24.37426131403116
 23
38.76357492872395
 33
0.0
  0
SOLID
  5
E8
330
E1
100
AcDbEntity
  8
치수문자_일반주서
 62
     0
100
AcDbTrace
 10
-31.06123868596884
 20
39.31390826205729
 30
0.0
 11
-31.06123868596884
 21
38.21324159539062
 31
0.0
 12
-34.36323868596884
 22
38.76357492872395
 32
0.0
 13
-34.36323868596884
 23
38.76357492872395
 33
0.0
  0
MTEXT
  5
E9
330
E1
100
AcDbEntity
  8
치수문자_일반주서
 62
     0
100
AcDbMText
 10
-4.994488685968838
 20
43.13857492872395
 30
0.0
 40
3.5
 41
0.0
 71
     2
 72
     1
  1
\A1;58.74 [2 5/16]
  7
SLDTEXTSTYLE0
 73
     1
 44
1.0
  0
POINT
  5
EA
330
E1
100
AcDbEntity
  8
Defpoints
 62
     0
100
AcDbPoint
 10
24.37426131403116
 20
4.274726723198786
 30
0.0
  0
POINT
  5
EB
330
E1
100
AcDbEntity
  8
Defpoints
 62
     0
100
AcDbPoint
 10
-34.36323868596884
 20
3.953574928723891
 30
0.0
  0
POINT
  5
EC
330
E1
100
AcDbEntity
  8
Defpoints
 62
     0
100
AcDbPoint
 10
-34.36323868596884
 20
38.76357492872395
 30
0.0
  0
ENDBLK
  5
E3
330
E1
100
AcDbEntity
  8
0
100
AcDbBlockEnd
  0
BLOCK
  5
F6
330
F5
100
AcDbEntity
  8
0
100
AcDbBlockBegin
  2
_D_2
 70
     0
 10
0.0
 20
0.0
 30
0.0
  3
_D_2
  1
_D_2
  0
LINE
  5
F8
330
F5
100
AcDbEntity
  8
치수문자_일반주서
 62
     0
370
    -2
100
AcDbLine
 10
-33.61573868596886
 20
4.7635749287239
 30
0.0
 11
-47.05323868596889
 21
4.763574928723849
 31
0.0
  0
LINE
  5
F9
330
F5
100
AcDbEntity
  8
치수문자_일반주서
 62
     0
370
    -2
100
AcDbLine
 10
-33.61573868596886
 20
-4.761425071276106
 30
0.0
 11
-47.05323868596885
 21
-4.761425071276157
 31
0.0
  0
LINE
  5
FA
330
F5
100
AcDbEntity
  8
치수문자_일반주서
 62
     0
370
    -2
100
AcDbLine
 10
-47.05323868596887
 20
1.46157492872385
 30
0.0
 11
-47.05323868596886
 21
-1.459425071276157
 31
0.0
  0
SOLID
  5
FB
330
F5
100
AcDbEntity
  8
치수문자_일반주서
 62
     0
100
AcDbTrace
 10
-46.50290535263554
 20
1.461574928723852
 30
0.0
 11
-47.60357201930221
 21
1.461574928723848
 31
0.0
 12
-47.05323868596889
 22
4.763574928723849
 32
0.0
 13
-47.05323868596889
 23
4.763574928723849
 33
0.0
  0
SOLID
  5
FC
330
F5
100
AcDbEntity
  8
치수문자_일반주서
 62
     0
100
AcDbTrace
 10
-47.6035720193022
 20
-1.459425071276159
 30
0.0
 11
-46.50290535263553
 21
-1.459425071276155
 31
0.0
 12
-47.05323868596885
 22
-4.761425071276157
 32
0.0
 13
-47.05323868596885
 23
-4.761425071276157
 33
0.0
  0
MTEXT
  5
FD
330
F5
100
AcDbEntity
  8
치수문자_일반주서
 62
     0
100
AcDbMText
 10
-51.42823868596887
 20
0.0010749287238838
 30
0.0
 40
3.5
 41
0.0
 71
     2
 72
     1
  1
\A1;%%c9.53 [3/8]
  7
SLDTEXTSTYLE0
 11
-3.729883127349605E-15
 21
1.0
 31
0.0
 73
     1
 44
1.0
  0
POINT
  5
FE
330
F5
100
AcDbEntity
  8
Defpoints
 62
     0
100
AcDbPoint
 10
-33.55323868596886
 20
4.7635749287239
 30
0.0
  0
POINT
  5
FF
330
F5
100
AcDbEntity
  8
Defpoints
 62
     0
100
AcDbPoint
 10
-33.55323868596886
 20
-4.761425071276106
 30
0.0
  0
POINT
  5
100
330
F5
100
AcDbEntity
  8
Defpoints
 62
     0
100
AcDbPoint
 10
-47.05323868596885
 20
-4.761425071276157
 30
0.0
  0
ENDBLK
  5
F7
330
F5
100
AcDbEntity
  8
0
100
AcDbBlockEnd
  0
BLOCK
  5
10A
330
109
100
AcDbEntity
  8
0
100
AcDbBlockBegin
  2
_D_3
 70
     0
 10
0.0
 20
0.0
 30
0.0
  3
_D_3
  1
_D_3
  0
LINE
  5
10C
330
109
100
AcDbEntity
  8
치수문자_일반주서
 62
     0
370
    -2
100
AcDbLine
 10
24.43676131403114
 20
1.588574928723893
 30
0.0
 11
43.37426131403122
 21
1.588574928723965
 31
0.0
  0
LINE
  5
10D
330
109
100
AcDbEntity
  8
치수문자_일반주서
 62
     0
370
    -2
100
AcDbLine
 10
24.43676131403114
 20
-1.586425071276107
 30
0.0
 11
43.37426131403124
 21
-1.586425071276036
 31
0.0
  0
LINE
  5
10E
330
109
100
AcDbEntity
  8
치수문자_일반주서
 62
     0
370
    -2
100
AcDbLine
 10
43.37426131403122
 20
1.588574928723965
 30
0.0
 11
43.37426131403108
 21
33.56757492872397
 31
0.0
  0
LINE
  5
10F
330
109
100
AcDbEntity
  8
치수문자_일반주서
 62
     0
370
    -2
100
AcDbLine
 10
43.37426131403122
 20
1.588574928723965
 30
0.0
 11
43.37426131403124
 21
-1.586425071276036
 31
0.0
  0
LINE
  5
110
330
109
100
AcDbEntity
  8
치수문자_일반주서
 62
     0
370
    -2
100
AcDbLine
 10
43.37426131403121
 20
4.890574928723964
 30
0.0
 11
43.37426131403119
 21
8.192574928723964
 31
0.0
  0
LINE
  5
111
330
109
100
AcDbEntity
  8
치수문자_일반주서
 62
     0
370
    -2
100
AcDbLine
 10
43.37426131403125
 20
-4.888425071276036
 30
0.0
 11
43.37426131403127
 21
-8.190425071276035
 31
0.0
  0
SOLID
  5
112
330
109
100
AcDbEntity
  8
치수문자_일반주서
 62
     0
100
AcDbTrace
 10
42.82392798069787
 20
4.890574928723962
 30
0.0
 11
43.92459464736454
 21
4.890574928723967
 31
0.0
 12
43.37426131403122
 22
1.588574928723965
 32
0.0
 13
43.37426131403122
 23
1.588574928723965
 33
0.0
  0
SOLID
  5
113
330
109
100
AcDbEntity
  8
치수문자_일반주서
 62
     0
100
AcDbTrace
 10
43.92459464736459
 20
-4.888425071276033
 30
0.0
 11
42.82392798069792
 21
-4.888425071276038
 31
0.0
 12
43.37426131403124
 22
-1.586425071276036
 32
0.0
 13
43.37426131403124
 23
-1.586425071276036
 33
0.0
  0
MTEXT
  5
114
330
109
100
AcDbEntity
  8
치수문자_일반주서
 62
     0
100
AcDbMText
 10
38.99926131403114
 20
21.31757492872395
 30
0.0
 40
3.5
 41
0.0
 71
     2
 72
     1
  1
\A1;%%c3.18 [1/8]
  7
SLDTEXTSTYLE0
 11
-4.475859752819529E-15
 21
1.0
 31
0.0
 73
     1
 44
1.0
  0
POINT
  5
115
330
109
100
AcDbEntity
  8
Defpoints
 62
     0
100
AcDbPoint
 10
24.37426131403114
 20
1.588574928723893
 30
0.0
  0
POINT
  5
116
330
109
100
AcDbEntity
  8
Defpoints
 62
     0
100
AcDbPoint
 10
24.37426131403114
 20
-1.586425071276107
 30
0.0
  0
POINT
  5
117
330
109
100
AcDbEntity
  8
Defpoints
 62
     0
100
AcDbPoint
 10
43.37426131403124
 20
-1.586425071276036
 30
0.0
  0
ENDBLK
  5
10B
330
109
100
AcDbEntity
  8
0
100
AcDbBlockEnd
  0
BLOCK
  5
124
330
123
100
AcDbEntity
  8
0
100
AcDbBlockBegin
  2
SW_DOWELSYMBOL_0
 70
     0
 10
0.0
 20
0.0
 30
0.0
  3
SW_DOWELSYMBOL_0
  1
SW_DOWELSYMBOL_0
  0
CIRCLE
  5
126
330
123
100
AcDbEntity
  8
해칭선
 62
     0
100
AcDbCircle
 10
0.0
 20
0.0
 30
0.0
 40
3.000000000000001
  0
HATCH
  5
127
330
123
100
AcDbEntity
  8
0
  6
Continuous
 62
     0
370
     0
100
AcDbHatch
 10
0.0
 20
0.0
 30
0.0
210
0.0
220
0.0
230
1.0
  2
SOLID
 70
     1
 71
     0
 91
        1
 92
        0
 93
        3
 72
     2
 10
0.0000000000000069
 20
0.0
 40
3.000000000000001
 50
0.0
 51
90.0
 73
     1
 72
     1
 10
0.0000000000000069
 20
3.000000000000001
 11
0.0000000000000069
 21
0.0
 72
     1
 10
0.0000000000000069
 20
0.0
 11
3.000000000000008
 21
0.0
 97
        0
 75
     0
 76
     1
 98
        1
 10
0.0
 20
0.0
  0
HATCH
  5
128
330
123
100
AcDbEntity
  8
0
  6
Continuous
 62
     0
370
     0
100
AcDbHatch
 10
0.0
 20
0.0
 30
0.0
210
0.0
220
0.0
230
1.0
  2
SOLID
 70
     1
 71
     0
 91
        1
 92
        0
 93
        3
 72
     2
 10
0.0000000000000069
 20
0.0
 40
3.000000000000001
 50
180.0
 51
270.0000000000007
 73
     1
 72
     1
 10
0.0000000000000069
 20
-3.000000000000001
 11
0.0000000000000069
 21
0.0
 72
     1
 10
0.0000000000000069
 20
0.0
 11
-2.999999999999994
 21
0.0
 97
        0
 75
     0
 76
     1
 98
        1
 10
0.0
 20
0.0
  0
ENDBLK
  5
125
330
123
100
AcDbEntity
  8
0
100
AcDbBlockEnd
  0
ENDSEC
  0
SECTION
  2
ENTITIES
  0
LINE
  5
96
330
1F
100
AcDbEntity
  8
외형선
  6
Continuous
370
    15
100
AcDbLine
 10
2.000000000000004
 20
-4.761425071276105
 30
0.0
 11
13.84926131403116
 21
-1.586425071276104
 31
0.0
  0
LINE
  5
97
330
1F
100
AcDbEntity
  8
외형선
  6
Continuous
370
    15
100
AcDbLine
 10
13.84926131403116
 20
1.588574928723897
 30
0.0
 11
2.000000000000004
 21
4.763574928723895
 31
0.0
  0
LINE
  5
98
330
1F
100
AcDbEntity
  8
외형선
  6
Continuous
370
    15
100
AcDbLine
 10
2.000000000000004
 20
4.763574928723896
 30
0.0
 11
-8.870788685968739
 21
4.763574928723894
 31
0.0
  0
LINE
  5
99
330
1F
100
AcDbEntity
  8
외형선
  6
Continuous
370
    15
100
AcDbLine
 10
-33.55323868596884
 20
-4.76142507127611
 30
0.0
 11
2.000000000000004
 21
-4.761425071276106
 31
0.0
  0
LINE
  5
9A
330
1F
100
AcDbEntity
  8
외형선
  6
Continuous
370
    15
100
AcDbLine
 10
-33.55323868596884
 20
4.76357492872389
 30
0.0
 11
-34.36323868596884
 21
3.95357492872389
 31
0.0
  0
LINE
  5
9B
330
1F
100
AcDbEntity
  8
외형선
  6
Continuous
370
    15
100
AcDbLine
 10
-34.36323868596884
 20
-3.951425071276111
 30
0.0
 11
-33.55323868596884
 21
-4.76142507127611
 31
0.0
  0
LINE
  5
9C
330
1F
100
AcDbEntity
  8
외형선
  6
Continuous
370
    15
100
AcDbLine
 10
14.84926131403116
 20
1.588574928723897
 30
0.0
 11
13.84926131403116
 21
1.588574928723896
 31
0.0
  0
LINE
  5
9D
330
1F
100
AcDbEntity
  8
외형선
  6
Continuous
370
    15
100
AcDbLine
 10
13.84926131403116
 20
-1.586425071276103
 30
0.0
 11
14.84926131403116
 21
-1.586425071276103
 31
0.0
  0
LINE
  5
9E
330
1F
100
AcDbEntity
  8
0
  6
Continuous
 62
     1
370
    15
100
AcDbLine
 10
22.46875951864353
 20
-1.586425071276103
 30
0.0
 11
22.78676131403116
 21
-1.586425071276103
 31
0.0
  0
LINE
  5
9F
330
1F
100
AcDbEntity
  8
0
  6
Continuous
 62
     1
370
    15
100
AcDbLine
 10
17.28162695056745
 20
1.588574928723897
 30
0.0
 11
14.84926131403116
 21
1.588574928723897
 31
0.0
  0
ARC
  5
A0
330
1F
100
AcDbEntity
  8
0
  6
Continuous
 62
     1
370
    15
100
AcDbCircle
 10
22.78676131403116
 20
0.0010749287238966
 30
0.0
 40
1.5875
100
AcDbArc
 50
270.0000000000007
 51
0.0
  0
ARC
  5
A1
330
1F
100
AcDbEntity
  8
0
  6
Continuous
 62
     1
370
    15
100
AcDbCircle
 10
22.78676131403116
 20
0.0010749287238966
 30
0.0
 40
1.5875
100
AcDbArc
 50
0.0
 51
90.0
  0
LINE
  5
A2
330
1F
100
AcDbEntity
  8
0
  6
Continuous
 62
     1
370
    15
100
AcDbLine
 10
14.84926131403116
 20
-1.586425071276103
 30
0.0
 11
17.28162695056745
 21
-1.586425071276103
 31
0.0
  0
LINE
  5
A3
330
1F
100
AcDbEntity
  8
0
  6
Continuous
 62
     1
370
    15
100
AcDbLine
 10
22.78676131403116
 20
1.588574928723897
 30
0.0
 11
22.46875951864353
 21
1.588574928723897
 31
0.0
  0
LINE
  5
A4
330
1F
100
AcDbEntity
  8
외형선
  6
Continuous
370
    15
100
AcDbLine
 10
13.84926131403116
 20
1.588574928723897
 30
0.0
 11
13.84926131403116
 21
-1.586425071276104
 31
0.0
  0
LINE
  5
A5
330
1F
100
AcDbEntity
  8
외형선
  6
Continuous
370
    15
100
AcDbLine
 10
2.000000000000004
 20
4.763574928723896
 30
0.0
 11
2.000000000000004
 21
-4.761425071276105
 31
0.0
  0
LINE
  5
A6
330
1F
100
AcDbEntity
  8
외형선
  6
Continuous
370
    15
100
AcDbLine
 10
-33.55323868596884
 20
4.763574928723891
 30
0.0
 11
-33.55323868596884
 21
-4.76142507127611
 31
0.0
  0
LINE
  5
A7
330
1F
100
AcDbEntity
  8
외형선
  6
Continuous
370
    15
100
AcDbLine
 10
-34.36323868596884
 20
3.953574928723891
 30
0.0
 11
-34.36323868596884
 21
-3.951425071276111
 31
0.0
  0
LINE
  5
A8
330
1F
100
AcDbEntity
  8
외형선
  6
Continuous
370
    15
100
AcDbLine
 10
14.84926131403116
 20
1.588574928723897
 30
0.0
 11
14.84926131403116
 21
1.48099993838309
 31
0.0
  0
SPLINE
  5
A9
330
1F
100
AcDbEntity
  8
외형선
  6
Continuous
370
    15
100
AcDbSpline
210
0.0
220
0.0
230
1.0
 70
     8
 71
     3
 72
     8
 73
     4
 74
     0
 42
0.000000001
 43
0.00000001
 40
0.0
 40
0.0
 40
0.0
 40
0.0
 40
1.0
 40
1.0
 40
1.0
 40
1.0
 10
14.84926131403116
 20
1.48099993838309
 30
0.0
 10
14.5556116013792
 20
1.542777036523074
 30
0.0
 10
14.25356670131417
 20
1.578910543233009
 30
0.0
 10
13.95930706589752
 20
1.586856820872889
 30
0.0
  0
SPLINE
  5
AA
330
1F
100
AcDbEntity
  8
외형선
  6
Continuous
370
    15
100
AcDbSpline
210
0.0
220
0.0
230
1.0
 70
     8
 71
     3
 72
     8
 73
     4
 74
     0
 42
0.000000001
 43
0.00000001
 40
0.0
 40
0.0
 40
0.0
 40
0.0
 40
1.0
 40
1.0
 40
1.0
 40
1.0
 10
14.84926131403114
 20
-1.004669376813661
 30
0.0
 10
14.55564629762238
 20
-0.8725928651311865
 30
0.0
 10
14.25363388391864
 20
-0.7215016219775885
 30
0.0
 10
13.9594113704066
 20
-0.5617762363817953
 30
0.0
  0
LINE
  5
AB
330
1F
100
AcDbEntity
  8
외형선
  6
Continuous
370
    15
100
AcDbLine
 10
14.84926131403116
 20
-1.004669376813701
 30
0.0
 11
14.84926131403116
 21
-1.586425071276103
 31
0.0
  0
LINE
  5
AC
330
1F
100
AcDbEntity
  8
외형선
  6
Continuous
370
    15
100
AcDbLine
 10
13.95941137040695
 20
-0.5618692089207882
 30
0.0
 11
13.95941137040695
 21
1.586860381334031
 31
0.0
  0
SPLINE
  5
AD
330
1F
100
AcDbEntity
  8
외형선
  6
Continuous
370
    15
100
AcDbSpline
210
0.0
220
0.0
230
1.0
 70
    24
 71
     3
 72
    14
 73
    10
 74
     0
 42
0.000000001
 43
0.00000001
 40
0.0
 40
0.0
 40
0.0
 40
0.0
 40
0.25
 40
0.25
 40
0.5
 40
0.5
 40
0.75
 40
0.75
 40
1.0
 40
1.0
 40
1.0
 40
1.0
 10
14.84926131403116
 20
0.3437827866899189
 30
0.0
 10
14.84926131403116
 20
0.2647123635448793
 30
0.0
 10
14.84926131403116
 20
0.1707406844271998
 30
0.0
 10
14.84926131403116
 20
-0.045385675067224
 30
0.0
 10
14.84926131403116
 20
-0.1677541864840308
 30
0.0
 10
14.84926131403116
 20
-0.4239887273889037
 30
0.0
 10
14.84926131403116
 20
-0.5574845589818024
 30
0.0
 10
14.84926131403116
 20
-0.804045573241301
 30
0.0
 10
14.84926131403116
 20
-0.9162761705763893
 30
0.0
 10
14.84926131403116
 20
-1.004669376813128
 30
0.0
  0
SPLINE
  5
AE
330
1F
100
AcDbEntity
  8
외형선
  6
Continuous
370
    15
100
AcDbSpline
210
0.0
220
0.0
230
1.0
 70
     8
 71
     3
 72
     8
 73
     4
 74
     0
 42
0.000000001
 43
0.00000001
 40
0.0
 40
0.0
 40
0.0
 40
0.0
 40
1.0
 40
1.0
 40
1.0
 40
1.0
 10
14.8492613140207
 20
0.3437827866938454
 30
0.0
 10
14.55564629761528
 20
0.4540356381836947
 30
0.0
 10
14.25363388391539
 20
0.5592291089257392
 30
0.0
 10
13.95941137040695
 20
0.6520991153458797
 30
0.0
  0
SPLINE
  5
AF
330
1F
100
AcDbEntity
  8
외형선
  6
Continuous
370
    15
100
AcDbSpline
210
0.0
220
0.0
230
1.0
 70
    24
 71
     3
 72
    14
 73
    10
 74
     0
 42
0.000000001
 43
0.00000001
 40
0.0
 40
0.0
 40
0.0
 40
0.0
 40
0.2500000000000001
 40
0.2500000000000001
 40
0.5000000000000001
 40
0.5000000000000001
 40
0.7500000000000001
 40
0.7500000000000001
 40
1.0
 40
1.0
 40
1.0
 40
1.0
 10
14.84926131403116
 20
1.480999938388705
 30
0.0
 10
14.84926131403116
 20
1.364809906663607
 30
0.0
 10
14.84926131403116
 20
1.239143732492803
 30
0.0
 10
14.84926131403116
 20
0.9954022074589769
 30
0.0
 10
14.84926131403116
 20
0.8778797880317404
 30
0.0
 10
14.84926131403116
 20
0.6717732253344989
 30
0.0
 10
14.84926131403116
 20
0.5832162621098497
 30
0.0
 10
14.84926131403116
 20
0.4399644559282865
 30
0.0
 10
14.84926131403116
 20
0.3849881331568326
 30
0.0
 10
14.84926131403116
 20
0.343782786689919
 30
0.0
  0
SPLINE
  5
B0
330
1F
100
AcDbEntity
  8
0
  6
Continuous
 62
     1
370
    15
100
AcDbSpline
210
0.0
220
0.0
230
1.0
 70
     8
 71
     3
 72
    19
 73
    15
 74
     0
 42
0.000000001
 43
0.00000001
 40
0.0
 40
0.0
 40
0.0
 40
0.0
 40
0.107727475573746
 40
0.2167265423073476
 40
0.2999599255089624
 40
0.3837755018142827
 40
0.4668336004619337
 40
0.5504694841928051
 40
0.6335275658979092
 40
0.7171627502555525
 40
0.8002209384460383
 40
0.8838555485303945
 40
0.9669139673220002
 40
1.0
 40
1.0
 40
1.0
 40
1.0
 10
22.78676131403116
 20
-0.6629870983823035
 30
0.0
 10
22.58906293462232
 20
-0.5562919332300572
 30
0.0
 10
22.19133258810812
 20
-0.3416421969283077
 30
0.0
 10
21.6412828286708
 20
-0.0210303129967693
 30
0.0
 10
21.13387718706059
 20
0.2694740153621375
 30
0.0
 10
20.6758338397387
 20
0.5285222443560931
 30
0.0
 10
20.21521649258332
 20
0.7701887870310261
 30
0.0
 10
19.75778258207644
 20
0.9925117819269242
 30
0.0
 10
19.29764243071778
 20
1.185557882086244
 30
0.0
 10
18.84000001438384
 20
1.346821097429307
 30
0.0
 10
18.38014453635937
 20
1.470593437471408
 30
0.0
 10
17.92217819756912
 20
1.551221745126261
 30
0.0
 10
17.5554788090606
 20
1.589287994457585
 30
0.0
 10
17.34234290676627
 20
1.584595891494422
 30
0.0
 10
17.28162695056745
 20
1.583259253626633
 30
0.0
  0
SPLINE
  5
B1
330
1F
100
AcDbEntity
  8
0
  6
Continuous
 62
     1
370
    15
100
AcDbSpline
210
0.0
220
0.0
230
1.0
 70
     8
 71
     3
 72
    13
 73
     9
 74
     0
 42
0.000000001
 43
0.00000001
 40
0.0
 40
0.0
 40
0.0
 40
0.0
 40
0.1668062543423933
 40
0.333726820753158
 40
0.5008691645560694
 40
0.7003601525552348
 40
0.899851431654364
 40
0.9999999999999999
 40
0.9999999999999999
 40
0.9999999999999999
 40
0.9999999999999999
 10
23.94927657159521
 20
0.1675125524487606
 30
0.0
 10
23.70743911925483
 20
0.2604230034900203
 30
0.0
 10
23.22359848374164
 20
0.446307576961084
 30
0.0
 10
22.49739074370633
 20
0.6909298930807725
 30
0.0
 10
21.72366238632892
 20
0.9023192806815586
 30
0.0
 10
20.90266425265014
 20
1.045007263487585
 30
0.0
 10
20.17883073009998
 20
1.101782760238587
 30
0.0
 10
19.74429508091054
 20
1.066002656427918
 30
0.0
 10
19.59906031479858
 20
1.054043879241057
 30
0.0
  0
SPLINE
  5
B2
330
1F
100
AcDbEntity
  8
0
  6
Continuous
 62
     1
370
    15
100
AcDbSpline
210
0.0
220
0.0
230
1.0
 70
     8
 71
     3
 72
    22
 73
    18
 74
     0
 42
0.000000001
 43
0.00000001
 40
0.0
 40
0.0
 40
0.0
 40
0.0
 40
0.125
 40
0.125
 40
0.25
 40
0.25
 40
0.375
 40
0.375
 40
0.5
 40
0.5
 40
0.625
 40
0.625
 40
0.75
 40
0.75
 40
0.875
 40
0.875
 40
1.0
 40
1.0
 40
1.0
 40
1.0
 10
22.78676131403116
 20
-0.6629870983823043
 30
0.0
 10
22.8748905732171
 20
-0.7092723617799747
 30
0.0
 10
22.96172646050308
 20
-0.7505579862693723
 30
0.0
 10
23.13497011598865
 20
-0.8201140450511554
 30
0.0
 10
23.22229571492266
 20
-0.848643601108703
 30
0.0
 10
23.394634460675
 20
-0.88546773050784
 30
0.0
 10
23.47898777973572
 20
-0.8941541177828998
 30
0.0
 10
23.64823564162462
 20
-0.8818948468163317
 30
0.0
 10
23.73078288335037
 20
-0.8607652393455892
 30
0.0
 10
23.88642431201426
 20
-0.7764971242876013
 30
0.0
 10
23.95879215242079
 20
-0.7126591541850575
 30
0.0
 10
24.06882645500381
 20
-0.5431877029191244
 30
0.0
 10
24.10195265326232
 20
-0.4427640785458125
 30
0.0
 10
24.11866338951232
 20
-0.246437652478061
 30
0.0
 10
24.10358356002891
 20
-0.1539086173586438
 30
0.0
 10
24.04526622745913
 20
0.0155589558246648
 30
0.0
 10
24.00207816174572
 20
0.0933648576010006
 30
0.0
 10
23.94927657155811
 20
0.1675125524631175
 30
0.0
  0
SPLINE
  5
B3
330
1F
100
AcDbEntity
  8
0
  6
Continuous
 62
     1
370
    15
100
AcDbSpline
210
0.0
220
0.0
230
1.0
 70
     8
 71
     3
 72
    14
 73
    10
 74
     0
 42
0.000000001
 43
0.00000001
 40
0.0
 40
0.0
 40
0.0
 40
0.0
 40
0.03173288670807
 40
0.1937927435903321
 40
0.355852832425796
 40
0.5179131509476419
 40
0.6799736968865546
 40
0.8399865233970641
 40
1.0
 40
1.0
 40
1.0
 40
1.0
 10
20.20470832284633
 20
-1.069998622458786
 30
0.0
 10
20.14806036225886
 20
-1.073831460191234
 30
0.0
 10
19.80211125898205
 20
-1.09723860076249
 30
0.0
 10
19.16686049783407
 20
-1.035355271235147
 30
0.0
 10
18.29895551217921
 20
-0.8829634521193338
 30
0.0
 10
17.4310495258058
 20
-0.6337967369138235
 30
0.0
 10
16.56679676025909
 20
-0.3263092247337946
 30
0.0
 10
15.70620273073951
 20
0.0146108229284248
 30
0.0
 10
15.13490883976412
 20
0.2340586501785177
 30
0.0
 10
14.84926131402126
 20
0.3437827866936345
 30
0.0
  0
SPLINE
  5
B4
330
1F
100
AcDbEntity
  8
외형선
  6
Continuous
370
    15
100
AcDbSpline
210
0.0
220
0.0
230
1.0
 70
    24
 71
     3
 72
    14
 73
    10
 74
     0
 42
0.000000001
 43
0.00000001
 40
0.0
 40
0.0
 40
0.0
 40
0.0
 40
0.2500000000000002
 40
0.2500000000000002
 40
0.5000000000000003
 40
0.5000000000000003
 40
0.7500000000000002
 40
0.7500000000000002
 40
1.0
 40
1.0
 40
1.0
 40
1.0
 10
14.84926131403116
 20
1.4809999383887
 30
0.0
 10
14.84926131403116
 20
1.364809906663603
 30
0.0
 10
14.84926131403116
 20
1.239143732492798
 30
0.0
 10
14.84926131403116
 20
0.9954022074589737
 30
0.0
 10
14.84926131403116
 20
0.877879788031738
 30
0.0
 10
14.84926131403116
 20
0.6717732253344972
 30
0.0
 10
14.84926131403116
 20
0.583216262109848
 30
0.0
 10
14.84926131403116
 20
0.4399644559282858
 30
0.0
 10
14.84926131403116
 20
0.3849881331568319
 30
0.0
 10
14.84926131403116
 20
0.3437827866899183
 30
0.0
  0
SPLINE
  5
B5
330
1F
100
AcDbEntity
  8
0
  6
Continuous
 62
     1
370
    15
100
AcDbSpline
210
0.0
220
0.0
230
1.0
 70
     8
 71
     3
 72
    18
 73
    14
 74
     0
 42
0.000000001
 43
0.00000001
 40
0.0
 40
0.0
 40
0.0
 40
0.0
 40
0.0973178416901849
 40
0.1945419841110764
 40
0.2917124001416572
 40
0.3888695690923636
 40
0.4860540955017205
 40
0.5833063254474922
 40
0.6751554996864176
 40
0.7668858650494109
 40
0.8584943855324032
 40
0.9500792296233408
 40
1.0
 40
1.0
 40
1.0
 40
1.0
 10
14.84926131402334
 20
1.480999938384734
 30
0.0
 10
15.09649844678006
 20
1.418989839021988
 30
0.0
 10
15.5907346681869
 20
1.295029344672364
 30
0.0
 10
16.33163657562791
 20
0.9869723614412619
 30
0.0
 10
17.07206358064619
 20
0.6155052233886396
 30
0.0
 10
17.81236254648293
 20
0.1976570707280026
 30
0.0
 10
18.55292447166699
 20
-0.2338166841680965
 30
0.0
 10
19.28006189594432
 20
-0.6409797725418656
 30
0.0
 10
19.99365946205411
 20
-0.9954759160953544
 30
0.0
 10
20.69261825046909
 20
-1.280683358099655
 30
0.0
 10
21.39071885132877
 20
-1.478590299611573
 30
0.0
 10
21.98259616959459
 20
-1.581400945170674
 30
0.0
 10
22.34197632241296
 20
-1.575736400762271
 30
0.0
 10
22.46875951864353
 20
-1.573738045984871
 30
0.0
  0
SPLINE
  5
B6
330
1F
100
AcDbEntity
  8
0
  6
Continuous
 62
     1
370
    15
100
AcDbSpline
210
0.0
220
0.0
230
1.0
 70
     8
 71
     3
 72
    10
 73
     6
 74
     0
 42
0.000000001
 43
0.00000001
 40
0.0
 40
0.0
 40
0.0
 40
0.0
 40
0.5000000000000003
 40
0.5000000000000003
 40
1.0
 40
1.0
 40
1.0
 40
1.0
 10
23.94927657155811
 20
0.1675125524631183
 30
0.0
 10
23.98576963484633
 20
0.1895483071105969
 30
0.0
 10
24.01490781121791
 20
0.2230341234534403
 30
0.0
 10
24.05388887201957
 20
0.3079144514679688
 30
0.0
 10
24.06354937114309
 20
0.3590448481456711
 30
0.0
 10
24.06445314941385
 20
0.4122240166371498
 30
0.0
  0
ARC
  5
B7
330
1F
100
AcDbEntity
  8
0
  6
Continuous
 62
     1
370
    15
100
AcDbCircle
 10
23.61474340002291
 20
-0.2748873584702308
 30
0.0
 40
0.8211948005797682
100
AcDbArc
 50
23.84130656543856
 51
56.79552415731738
  0
ARC
  5
B8
330
1F
100
AcDbEntity
  8
0
  6
Continuous
 62
     1
370
    15
100
AcDbCircle
 10
22.94649991399661
 20
0.0305215154048887
 30
0.0
 40
1.419612273962427
100
AcDbArc
 50
1.070495324450632
 51
71.14225670173037
  0
SPLINE
  5
B9
330
1F
100
AcDbEntity
  8
0
  6
Continuous
 62
     1
370
    15
100
AcDbSpline
210
0.0
220
0.0
230
1.0
 70
     8
 71
     3
 72
    10
 73
     6
 74
     0
 42
0.000000001
 43
0.00000001
 40
0.0
 40
0.0
 40
0.0
 40
0.0
 40
0.5
 40
0.5
 40
1.0
 40
1.0
 40
1.0
 40
1.0
 10
23.40534638934016
 20
1.373934676144938
 30
0.0
 10
23.30716208656715
 20
1.433870660661985
 30
0.0
 10
23.20598852588089
 20
1.480926341681663
 30
0.0
 10
22.99950363444073
 20
1.549394663338264
 30
0.0
 10
22.89316342861866
 20
1.57085577997861
 30
0.0
 10
22.78676131402881
 20
1.577958943348525
 30
0.0
  0
SPLINE
  5
BA
330
1F
100
AcDbEntity
  8
0
  6
Continuous
 62
     1
370
    15
100
AcDbSpline
210
0.0
220
0.0
230
1.0
 70
     8
 71
     3
 72
    11
 73
     7
 74
     0
 42
0.000000001
 43
0.00000001
 40
0.0
 40
0.0
 40
0.0
 40
0.0
 40
0.1890321189579134
 40
0.4593276595475544
 40
0.7295533417533236
 40
1.0
 40
1.0
 40
1.0
 40
1.0
 10
20.20470832284619
 20
1.072148479906589
 30
0.0
 10
20.36744648707885
 20
1.140841943637432
 30
0.0
 10
20.76288267278174
 20
1.307759651038934
 30
0.0
 10
21.39071035201217
 20
1.480995138274261
 30
0.0
 10
22.08858289267246
 20
1.595398478263383
 30
0.0
 10
22.55397177116602
 20
1.583773705358266
 30
0.0
 10
22.78676131403116
 20
1.577958943348367
 30
0.0
  0
SPLINE
  5
BB
330
1F
100
AcDbEntity
  8
0
  6
Continuous
 62
     1
370
    15
100
AcDbSpline
210
0.0
220
0.0
230
1.0
 70
     8
 71
     3
 72
    17
 73
    13
 74
     0
 42
0.000000001
 43
0.00000001
 40
0.0
 40
0.0
 40
0.0
 40
0.0
 40
0.0631523544840513
 40
0.160091768239603
 40
0.256362400421789
 40
0.3533011485517883
 40
0.4495720480178635
 40
0.5465102800222695
 40
0.642781496119012
 40
0.7397194713019466
 40
0.8690454496141189
 40
1.0
 40
1.0
 40
1.0
 40
1.0
 10
19.59906031479858
 20
-1.051894021793262
 30
0.0
 10
19.49899160385061
 20
-1.094991162473291
 30
0.0
 10
19.2453165506875
 20
-1.204242789176762
 30
0.0
 10
18.83998989279403
 20
-1.344047254556389
 30
0.0
 10
18.38014899668456
 20
-1.468182870630987
 30
0.0
 10
17.92217049187911
 20
-1.550751982359789
 30
0.0
 10
17.46272270410888
 20
-1.590345573399059
 30
0.0
 10
17.00432870797489
 20
-1.585723076399046
 30
0.0
 10
16.54527595941813
 20
-1.536921357784302
 30
0.0
 10
16.03422224716526
 20
-1.434899440161287
 30
0.0
 10
15.46903398758637
 20
-1.266360741843433
 30
0.0
 10
15.05671216940159
 20
-1.092262941091162
 30
0.0
 10
14.84926131403116
 20
-1.004669376813702
 30
0.0
  0
SPLINE
  5
BC
330
1F
100
AcDbEntity
  8
외형선
  6
Continuous
370
    15
100
AcDbSpline
210
0.0
220
0.0
230
1.0
 70
    24
 71
     3
 72
    14
 73
    10
 74
     0
 42
0.000000001
 43
0.00000001
 40
0.0
 40
0.0
 40
0.0
 40
0.0
 40
0.25
 40
0.25
 40
0.5000000000000001
 40
0.5000000000000001
 40
0.7500000000000001
 40
0.7500000000000001
 40
1.0
 40
1.0
 40
1.0
 40
1.0
 10
14.84926131403116
 20
0.3437827866899182
 30
0.0
 10
14.84926131403116
 20
0.2647123635448786
 30
0.0
 10
14.84926131403116
 20
0.1707406844271991
 30
0.0
 10
14.84926131403116
 20
-0.0453856750672246
 30
0.0
 10
14.84926131403116
 20
-0.1677541864840318
 30
0.0
 10
14.84926131403116
 20
-0.4239887273889049
 30
0.0
 10
14.84926131403116
 20
-0.5574845589818038
 30
0.0
 10
14.84926131403116
 20
-0.8040455732413025
 30
0.0
 10
14.84926131403116
 20
-0.9162761705763908
 30
0.0
 10
14.84926131403116
 20
-1.004669376813129
 30
0.0
  0
SPLINE
  5
BD
330
1F
100
AcDbEntity
  8
0
  6
Continuous
 62
     1
370
    15
100
AcDbSpline
210
0.0
220
0.0
230
1.0
 70
     8
 71
     3
 72
     8
 73
     4
 74
     0
 42
0.000000001
 43
0.00000001
 40
0.0
 40
0.0
 40
0.0
 40
0.0
 40
1.0
 40
1.0
 40
1.0
 40
1.0
 10
23.08286299057919
 20
0.7117174016137754
 30
0.0
 10
23.4055953401475
 20
0.622009612477795
 30
0.0
 10
23.73463647250018
 20
0.5209605148163964
 30
0.0
 10
24.06445314941387
 20
0.4122240166371617
 30
0.0
  0
SPLINE
  5
BE
330
1F
100
AcDbEntity
  8
0
  6
Continuous
 62
     1
370
    15
100
AcDbSpline
210
0.0
220
0.0
230
1.0
 70
     8
 71
     3
 72
    14
 73
    10
 74
     0
 42
0.000000001
 43
0.00000001
 40
0.0
 40
0.0
 40
0.0
 40
0.0
 40
0.2500000000000002
 40
0.2500000000000002
 40
0.5000000000000003
 40
0.5000000000000003
 40
0.7500000000000001
 40
0.7500000000000001
 40
1.0
 40
1.0
 40
1.0
 40
1.0
 10
23.40534638934016
 20
1.37393467614494
 30
0.0
 10
23.4165838841229
 20
1.30726282961488
 30
0.0
 10
23.42161858477933
 20
1.239357379206173
 30
0.0
 10
23.41173042001388
 20
1.101991942246943
 30
0.0
 10
23.39641612406855
 20
1.034283196042459
 30
0.0
 10
23.34038858842225
 20
0.9111621261440428
 30
0.0
 10
23.29945448573298
 20
0.8563344210600219
 30
0.0
 10
23.20065929071005
 20
0.7688209269840872
 30
0.0
 10
23.14280257896451
 20
0.7355377715189229
 30
0.0
 10
23.08286299057969
 20
0.7117174016138389
 30
0.0
  0
LINE
  5
BF
330
1F
100
AcDbEntity
  8
중심선
 48
0.8
100
AcDbLine
 10
-37.36323868596884
 20
0.0010749287238888
 30
0.0
 11
27.37426131403116
 21
0.0010749287238931
 31
0.0
  0
LINE
  5
C0
330
1F
100
AcDbEntity
  8
참조1
100
AcDbLine
 10
-4.994488685968829
 20
0.0010749287238931
 30
0.0
 11
-4.994488685968824
 21
-39.9989250712761
 31
0.0
  0
LINE
  5
C1
330
1F
100
AcDbEntity
  8
참조1
100
AcDbLine
 10
24.37426131403116
 20
0.0010749287238931
 30
0.0
 11
24.37426131403116
 21
4.274726723198788
 31
0.0
  0
LINE
  5
C2
330
1F
100
AcDbEntity
  8
참조1
100
AcDbLine
 10
-4.994488685968824
 20
-39.9989250712761
 30
0.0
 11
-20.1533455002775
 21
-39.9989250712761
 31
0.0
  0
CIRCLE
  5
C3
330
1F
100
AcDbEntity
  8
해칭선
100
AcDbCircle
 10
0.0
 20
0.0
 30
0.0
 40
3.000000000000001
  0
INSERT
  5
C4
330
1F
100
AcDbEntity
  8
0
  6
Continuous
 62
     7
100
AcDbBlockReference
 66
     1
  2
블럭10
 10
-18.93476161809404
 20
-52.04609937292003
 30
0.0
  0
ATTRIB
  5
C5
330
C4
100
AcDbEntity
  8
FORMAT
 62
     2
100
AcDbText
 10
-28.11605690683531
 20
-49.97073246008785
 30
0.0
 40
4.233333333333333
  1
E2110008 [ 2 FLUTE ]
 41
0.75
  7
SLDTEXTSTYLE0
 11
-28.11605690683531
 21
-52.08739912675451
 31
0.0
100
AcDbAttribute
  2
AUTOATTR0
 70
     0
 74
     1
  0
SEQEND
  5
C6
330
C4
100
AcDbEntity
  8
0
  6
Continuous
 62
     7
  0
HATCH
  5
C7
330
1F
100
AcDbEntity
  8
중심선
100
AcDbHatch
 10
0.0
 20
0.0
 30
0.0
210
0.0
220
0.0
230
1.0
  2
SOLID
 70
     1
 71
     0
 91
        1
 92
        0
 93
        4
 72
     1
 10
-13.2198523137132
 20
-35.7989250712761
 11
-16.66612755755048
 21
-35.7989250712761
 72
     1
 10
-16.66612755755048
 20
-35.7989250712761
 11
-18.7943574167545
 21
-38.3352506518487
 72
     1
 10
-18.7943574167545
 20
-38.3352506518487
 11
-15.34804908780407
 21
-38.33521122254621
 72
     1
 10
-15.34804908780407
 20
-38.33521122254621
 11
-13.2198523137132
 21
-35.7989250712761
 97
        0
 75
     0
 76
     1
 98
        1
 10
0.0
 20
0.0
  0
HATCH
  5
C8
330
1F
100
AcDbEntity
  8
중심선
100
AcDbHatch
 10
0.0
 20
0.0
 30
0.0
210
0.0
220
0.0
230
1.0
  2
SOLID
 70
     1
 71
     0
 91
        1
 92
        0
 93
        4
 72
     1
 10
-8.207088322677219
 20
-35.7989250712761
 11
-11.6533635665145
 21
-35.7989250712761
 72
     1
 10
-11.6533635665145
 20
-35.7989250712761
 11
-16.18450157487192
 21
-41.19892507127612
 72
     1
 10
-16.18450157487192
 20
-41.19892507127612
 11
-12.73822633103464
 21
-41.19892507127612
 72
     1
 10
-12.73822633103464
 20
-41.19892507127612
 11
-8.207088322677219
 21
-35.7989250712761
 97
        0
 75
     0
 76
     1
 98
        1
 10
0.0
 20
0.0
  0
HATCH
  5
C9
330
1F
100
AcDbEntity
  8
중심선
100
AcDbHatch
 10
0.0
 20
0.0
 30
0.0
210
0.0
220
0.0
230
1.0
  2
SOLID
 70
     1
 71
     0
 91
        1
 92
        0
 93
        4
 72
     1
 10
-3.194324331641352
 20
-35.7989250712761
 11
-6.640599575478467
 21
-35.7989250712761
 72
     1
 10
-6.640599575478467
 20
-35.7989250712761
 11
-13.68903647736772
 21
-44.19892507127612
 72
     1
 10
-13.68903647736772
 20
-44.19892507127612
 11
-10.24276123353043
 21
-44.19892507127612
 72
     1
 10
-10.24276123353043
 20
-44.19892507127612
 11
-3.194324331641353
 21
-35.7989250712761
 97
        0
 75
     0
 76
     1
 98
        1
 10
0.0
 20
0.0
  0
HATCH
  5
CA
330
1F
100
AcDbEntity
  8
중심선
100
AcDbHatch
 10
0.0
 20
0.0
 30
0.0
210
0.0
220
0.0
230
1.0
  2
SOLID
 70
     1
 71
     0
 91
        1
 92
        0
 93
        6
 72
     3
 10
1.605566099370848
 20
-39.99892507132738
 11
3.960054785062284
 21
1.540850780301639E-10
 40
0.3939339440162633
 50
17.09539180608434
 51
320.0019657685073
 73
     0
 72
     1
 10
3.288565755071443
 20
-38.58681907591438
 11
5.593867628772481
 21
-36.65249236586649
 72
     3
 10
1.605566099318001
 20
-39.99892507127625
 11
6.600054785286829
 21
-1.249000902703301E-13
 40
0.6363583540795982
 50
39.99873849337408
 51
368.4976242363724
 73
     1
 72
     1
 10
8.03089859121861
 20
-39.03892507120613
 11
0.2856334061539236
 21
-39.0389250712061
 72
     1
 10
0.2856334061539234
 20
-39.0389250712061
 11
0.2856083617079896
 21
-40.95892507120602
 72
     1
 10
0.2856083617079896
 20
-40.95892507120602
 11
4.726988131180026
 21
-40.95892507120599
 97
        0
 75
     0
 76
     1
 98
        1
 10
0.0
 20
0.0
  0
DIMENSION
  5
CB
330
1F
100
AcDbEntity
  8
치수문자_일반주서
100
AcDbDimension
  2
_D
 10
14.84926131402405
 20
18.73219367268769
 30
0.0
 11
-3.567238685975948
 21
18.73219367268769
 31
0.0
 70
   160
  1
<>
 71
     2
 42
9.525000000007093
  3
SLDDIMSTYLE1
100
AcDbAlignedDimension
 13
24.37426131403114
 23
1.588574928723893
 33
0.0
 14
14.84926131402405
 24
1.480999938385158
 34
0.0
100
AcDbRotatedDimension
1001
ACAD
1000
DSTYLE
1002
{
1070
   171
1070
     6
1070
   273
1070
     7
1002
}
  0
DIMENSION
  5
E0
330
1F
100
AcDbEntity
  8
치수문자_일반주서
100
AcDbDimension
  2
_D_1
 10
-34.36323868596884
 20
38.76357492872395
 30
0.0
 11
-4.994488685968838
 21
38.76357492872395
 31
0.0
 70
   160
  1
<>
 71
     2
 42
58.7375
  3
SLDDIMSTYLE1
100
AcDbAlignedDimension
 13
24.37426131403116
 23
4.274726723198786
 33
0.0
 14
-34.36323868596884
 24
3.953574928723891
 34
0.0
100
AcDbRotatedDimension
1001
ACAD
1000
DSTYLE
1002
{
1070
   171
1070
     6
1070
   273
1070
     7
1002
}
  0
DIMENSION
  5
F3
330
1F
100
AcDbEntity
  8
치수문자_일반주서
100
AcDbDimension
  2
_D_2
 10
-47.05323868596885
 20
-4.761425071276157
 30
0.0
 11
-47.05323868596887
 21
0.0010749287239001
 31
0.0
 70
   160
  1
%%c<>
 71
     2
 42
9.525000000000006
 52
-270.0
  3
SLDDIMSTYLE1
100
AcDbAlignedDimension
 13
-33.55323868596886
 23
4.7635749287239
 33
0.0
 14
-33.55323868596886
 24
-4.761425071276106
 34
0.0
 50
90.0000000000002
100
AcDbRotatedDimension
1001
ACAD
1000
DSTYLE
1002
{
1070
   171
1070
     6
1070
   273
1070
     7
1002
}
  0
DIMENSION
  5
108
330
1F
100
AcDbEntity
  8
치수문자_일반주서
100
AcDbDimension
  2
_D_3
 10
43.37426131403124
 20
-1.586425071276036
 30
0.0
 11
43.37426131403114
 21
21.31757492872397
 31
0.0
 70
   160
  1
%%c<>
 71
     2
 42
3.175
 52
-270.0
  3
SLDDIMSTYLE1
100
AcDbAlignedDimension
 13
24.37426131403114
 23
1.588574928723893
 33
0.0
 14
24.37426131403114
 24
-1.586425071276107
 34
0.0
 50
90.0000000000002
100
AcDbRotatedDimension
1001
ACAD
1000
DSTYLE
1002
{
1070
   171
1070
     6
1070
   273
1070
     7
1002
}
  0
LINE
  5
11C
330
1F
100
AcDbEntity
  8
참조1
100
AcDbLine
 10
77.81899512937676
 20
7.441074928723896
 30
0.0
 11
77.81899512937676
 21
-7.438925071276109
 31
0.0
  0
LINE
  5
11D
330
1F
100
AcDbEntity
  8
참조1
100
AcDbLine
 10
90.51899512937676
 20
5.441074928723896
 30
0.0
 11
77.81899512937676
 21
5.441074928723896
 31
0.0
  0
SOLID
  5
11E
330
1F
100
AcDbEntity
  8
참조1
100
AcDbTrace
 10
77.81899512937676
 20
5.441074928723896
 30
0.0
 11
84.16899512937675
 21
4.425074928723896
 31
0.0
 12
84.16899512937675
 22
6.457074928723896
 32
0.0
 13
84.16899512937675
 23
6.457074928723896
 33
0.0
  0
LINE
  5
11F
330
1F
100
AcDbEntity
  8
참조1
100
AcDbLine
 10
90.51899512937676
 20
-5.438925071276109
 30
0.0
 11
77.81899512937676
 21
-5.438925071276109
 31
0.0
  0
SOLID
  5
120
330
1F
100
AcDbEntity
  8
참조1
100
AcDbTrace
 10
77.81899512937676
 20
-5.438925071276109
 30
0.0
 11
84.16899512937675
 21
-6.454925071276109
 31
0.0
 12
84.16899512937675
 22
-4.422925071276109
 32
0.0
 13
84.16899512937675
 23
-4.422925071276109
 33
0.0
  0
MTEXT
  5
121
330
1F
100
AcDbEntity
  8
참조1
100
AcDbMText
 10
87.20334526200276
 20
11.01136670591222
 30
0.0
 40
3.5
 41
0.0
 71
     1
 72
     1
  1
A
  7
SLDTEXTSTYLE0
 73
     1
 44
1.0
  0
MTEXT
  5
122
330
1F
100
AcDbEntity
  8
참조1
100
AcDbMText
 10
87.20334526200276
 20
0.1313667059122192
 30
0.0
 40
3.5
 41
0.0
 71
     1
 72
     1
  1
A
  7
SLDTEXTSTYLE0
 73
     1
 44
1.0
  0
INSERT
  5
129
330
1F
100
AcDbEntity
  8
해칭선
100
AcDbBlockReference
  2
SW_DOWELSYMBOL_0
 10
0.0
 20
0.0
 30
0.0
  0
LINE
  5
1A6
330
1F
100
AcDbEntity
  8
외형선
  6
Continuous
370
    15
100
AcDbLine
 10
-17.27818868596896
 20
3.493574928723909
 30
0.0
 11
-10.14078868596884
 21
3.493574928723909
 31
0.0
  0
LINE
  5
1A7
330
1F
100
AcDbEntity
  8
외형선
  6
Continuous
370
    15
100
AcDbLine
 10
-17.27818868596896
 20
3.493574928723909
 30
0.0
 11
-18.54818868596895
 21
4.763574928723891
 31
0.0
  0
LINE
  5
1A8
330
1F
100
AcDbEntity
  8
외형선
  6
Continuous
370
    15
100
AcDbLine
 10
-10.14078868596884
 20
3.493574928723909
 30
0.0
 11
-8.87078868596874
 21
4.763574928723891
 31
0.0
  0
LINE
  5
1AA
330
1F
100
AcDbEntity
  8
외형선
  6
Continuous
370
    15
100
AcDbLine
 10
-18.54818868596895
 20
4.763574928723894
 30
0.0
 11
-33.55323868596884
 21
4.763574928723892
 31
0.0
  0
ENDSEC
  0
SECTION
  2
OBJECTS
  0
DICTIONARY
  5
C
330
0
100
AcDbDictionary
281
     1
  3
ACAD_GROUP
350
D
  3
ACAD_IMAGE_VARS
350
14D
  3
ACAD_LAYOUT
350
1A
  3
ACAD_MLINESTYLE
350
17
  3
ACAD_PLOTSETTINGS
350
19
  3
ACAD_PLOTSTYLENAME
350
E
  3
ACAD_SCALELIST
350
47
  3
APPDATA
350
14B
  3
DWGPROPS
350
1D4
  0
DICTIONARY
  5
174
330
2
100
AcDbDictionary
280
     1
281
     1
  3
ACAD_LAYERSTATES
360
175
  0
DICTIONARY
  5
D
102
{ACAD_REACTORS
330
C
102
}
330
C
100
AcDbDictionary
281
     1
  0
RASTERVARIABLES
  5
14D
102
{ACAD_REACTORS
330
C
102
}
330
C
100
AcDbRasterVariables
 90
        0
 70
     1
 71
     1
 72
     1
  0
DICTIONARY
  5
1A
102
{ACAD_REACTORS
330
C
102
}
330
C
100
AcDbDictionary
281
     1
  3
Layout1
350
1E
  3
Layout2
350
26
  3
Model
350
22
  0
DICTIONARY
  5
17
102
{ACAD_REACTORS
330
C
102
}
330
C
100
AcDbDictionary
281
     1
  3
Standard
350
18
  0
DICTIONARY
  5
19
102
{ACAD_REACTORS
330
C
102
}
330
C
100
AcDbDictionary
281
     1
  0
ACDBDICTIONARYWDFLT
  5
E
102
{ACAD_REACTORS
330
C
102
}
330
C
100
AcDbDictionary
281
     1
  3
Normal
350
F
100
AcDbDictionaryWithDefault
340
F
  0
DICTIONARY
  5
47
102
{ACAD_REACTORS
330
C
102
}
330
C
100
AcDbDictionary
281
     1
  3
A0
350
48
  3
A1
350
49
  3
A2
350
4A
  3
A3
350
4B
  3
A4
350
4C
  3
A5
350
4D
  3
A6
350
4E
  3
A7
350
4F
  3
A8
350
50
  3
A9
350
51
  3
B0
350
52
  3
B1
350
53
  3
B2
350
54
  3
B3
350
55
  3
B4
350
56
  3
B5
350
57
  3
B6
350
58
  3
B7
350
59
  3
B8
350
5A
  3
B9
350
5B
  3
C0
350
5C
  3
C1
350
5D
  3
C2
350
5E
  3
C3
350
5F
  3
C4
350
60
  3
C5
350
61
  3
C6
350
62
  3
C7
350
63
  3
C8
350
64
  3
C9
350
65
  3
D0
350
66
  3
D1
350
67
  3
D2
350
68
  0
DICTIONARY
  5
14B
102
{ACAD_REACTORS
330
C
102
}
330
C
100
AcDbDictionary
281
     1
  0
XRECORD
  5
1D4
102
{ACAD_REACTORS
330
C
102
}
330
C
100
AcDbXrecord
280
     1
  1
DWGPROPS COOKIE
  2

  3

  4

  6

  7

  8
12016016
  9

300
=
301
=
302
=
303
=
304
=
305
=
306
=
307
=
308
=
309
=
 40
0.0
 41
2458316.204007095
 42
2458320.364879028
  1

 90
        0
  0
DICTIONARY
  5
175
102
{ACAD_REACTORS
330
174
102
}
330
174
100
AcDbDictionary
281
     1
  0
LAYOUT
  5
1E
102
{ACAD_REACTORS
330
1A
102
}
330
1A
100
AcDbPlotSettings
  1

  2
none_device
  4

  6

 40
0.0
 41
0.0
 42
0.0
 43
0.0
 44
0.0
 45
0.0
 46
0.0
 47
0.0
 48
0.0
 49
0.0
140
0.0
141
0.0
142
1.0
143
1.0
 70
   688
 72
     1
 73
     0
 74
     5
  7

 75
    16
147
1.0
148
0.0
149
0.0
100
AcDbLayout
  1
Layout1
 70
     1
 71
     1
 10
0.0
 20
0.0
 11
420.0
 21
297.0
 12
0.0
 22
0.0
 32
0.0
 14
1.000000000000000E+20
 24
1.000000000000000E+20
 34
1.000000000000000E+20
 15
-1.000000000000000E+20
 25
-1.000000000000000E+20
 35
-1.000000000000000E+20
146
0.0
 13
0.0
 23
0.0
 33
0.0
 16
1.0
 26
0.0
 36
0.0
 17
0.0
 27
1.0
 37
0.0
 76
     0
330
1B
  0
LAYOUT
  5
26
102
{ACAD_REACTORS
330
1A
102
}
330
1A
100
AcDbPlotSettings
  1

  2
none_device
  4

  6

 40
0.0
 41
0.0
 42
0.0
 43
0.0
 44
0.0
 45
0.0
 46
0.0
 47
0.0
 48
0.0
 49
0.0
140
0.0
141
0.0
142
1.0
143
1.0
 70
   688
 72
     1
 73
     0
 74
     5
  7

 75
    16
147
1.0
148
0.0
149
0.0
100
AcDbLayout
  1
Layout2
 70
     1
 71
     2
 10
0.0
 20
0.0
 11
0.0
 21
0.0
 12
0.0
 22
0.0
 32
0.0
 14
0.0
 24
0.0
 34
0.0
 15
0.0
 25
0.0
 35
0.0
146
0.0
 13
0.0
 23
0.0
 33
0.0
 16
1.0
 26
0.0
 36
0.0
 17
0.0
 27
1.0
 37
0.0
 76
     0
330
23
  0
LAYOUT
  5
22
102
{ACAD_REACTORS
330
1A
102
}
330
1A
100
AcDbPlotSettings
  1

  2
none_device
  4
ANSI_A_(11.00_x_8.50_Inches)
  6

 40
6.35
 41
19.05
 42
6.35000508
 43
19.05000254
 44
279.4
 45
215.9
 46
102.8929956423269
 47
89.97968839261259
 48
0.0
 49
0.0
140
0.0
141
0.0
142
0.0734000035048407
143
1.0
 70
  1696
 72
     0
 73
     0
 74
     0
  7

 75
     0
147
0.0235690232323232
148
0.0
149
0.0
100
AcDbLayout
  1
Model
 70
     1
 71
     0
 10
0.0
 20
0.0
 11
420.0
 21
297.0
 12
0.0
 22
0.0
 32
0.0
 14
-51.42823868596892
 24
-49.97073246008785
 34
0.0
 15
90.51899512937676
 25
43.13857492872395
 35
0.0
146
0.0
 13
0.0
 23
0.0
 33
0.0
 16
1.0
 26
0.0
 36
0.0
 17
0.0
 27
1.0
 37
0.0
 76
     0
330
1F
331
29
  0
MLINESTYLE
  5
18
102
{ACAD_REACTORS
330
17
102
}
330
17
100
AcDbMlineStyle
  2
Standard
 70
     0
  3

 62
   256
 51
90.0
 52
90.0
 71
     2
 49
0.5
 62
   256
  6
BYLAYER
 49
-0.5
 62
   256
  6
BYLAYER
  0
ACDBPLACEHOLDER
  5
F
102
{ACAD_REACTORS
330
E
102
}
330
E
  0
SCALE
  5
48
102
{ACAD_REACTORS
330
47
102
}
330
47
100
AcDbScale
 70
     0
300
1:1
140
1.0
141
1.0
290
     1
  0
SCALE
  5
49
102
{ACAD_REACTORS
330
47
102
}
330
47
100
AcDbScale
 70
     0
300
1:2
140
1.0
141
2.0
290
     0
  0
SCALE
  5
4A
102
{ACAD_REACTORS
330
47
102
}
330
47
100
AcDbScale
 70
     0
300
1:4
140
1.0
141
4.0
290
     0
  0
SCALE
  5
4B
102
{ACAD_REACTORS
330
47
102
}
330
47
100
AcDbScale
 70
     0
300
1:5
140
1.0
141
5.0
290
     0
  0
SCALE
  5
4C
102
{ACAD_REACTORS
330
47
102
}
330
47
100
AcDbScale
 70
     0
300
1:8
140
1.0
141
8.0
290
     0
  0
SCALE
  5
4D
102
{ACAD_REACTORS
330
47
102
}
330
47
100
AcDbScale
 70
     0
300
1:10
140
1.0
141
10.0
290
     0
  0
SCALE
  5
4E
102
{ACAD_REACTORS
330
47
102
}
330
47
100
AcDbScale
 70
     0
300
1:16
140
1.0
141
16.0
290
     0
  0
SCALE
  5
4F
102
{ACAD_REACTORS
330
47
102
}
330
47
100
AcDbScale
 70
     0
300
1:20
140
1.0
141
20.0
290
     0
  0
SCALE
  5
50
102
{ACAD_REACTORS
330
47
102
}
330
47
100
AcDbScale
 70
     0
300
1:30
140
1.0
141
30.0
290
     0
  0
SCALE
  5
51
102
{ACAD_REACTORS
330
47
102
}
330
47
100
AcDbScale
 70
     0
300
1:40
140
1.0
141
40.0
290
     0
  0
SCALE
  5
52
102
{ACAD_REACTORS
330
47
102
}
330
47
100
AcDbScale
 70
     0
300
1:50
140
1.0
141
50.0
290
     0
  0
SCALE
  5
53
102
{ACAD_REACTORS
330
47
102
}
330
47
100
AcDbScale
 70
     0
300
1:100
140
1.0
141
100.0
290
     0
  0
SCALE
  5
54
102
{ACAD_REACTORS
330
47
102
}
330
47
100
AcDbScale
 70
     0
300
2:1
140
2.0
141
1.0
290
     0
  0
SCALE
  5
55
102
{ACAD_REACTORS
330
47
102
}
330
47
100
AcDbScale
 70
     0
300
4:1
140
4.0
141
1.0
290
     0
  0
SCALE
  5
56
102
{ACAD_REACTORS
330
47
102
}
330
47
100
AcDbScale
 70
     0
300
8:1
140
8.0
141
1.0
290
     0
  0
SCALE
  5
57
102
{ACAD_REACTORS
330
47
102
}
330
47
100
AcDbScale
 70
     0
300
10:1
140
10.0
141
1.0
290
     0
  0
SCALE
  5
58
102
{ACAD_REACTORS
330
47
102
}
330
47
100
AcDbScale
 70
     0
300
100:1
140
100.0
141
1.0
290
     0
  0
SCALE
  5
59
102
{ACAD_REACTORS
330
47
102
}
330
47
100
AcDbScale
 70
     0
300
1/128" = 1'-0"
140
0.0078125
141
12.0
290
     0
  0
SCALE
  5
5A
102
{ACAD_REACTORS
330
47
102
}
330
47
100
AcDbScale
 70
     0
300
1/64" = 1'-0"
140
0.015625
141
12.0
290
     0
  0
SCALE
  5
5B
102
{ACAD_REACTORS
330
47
102
}
330
47
100
AcDbScale
 70
     0
300
1/32" = 1'-0"
140
0.03125
141
12.0
290
     0
  0
SCALE
  5
5C
102
{ACAD_REACTORS
330
47
102
}
330
47
100
AcDbScale
 70
     0
300
1/16" = 1'-0"
140
0.0625
141
12.0
290
     0
  0
SCALE
  5
5D
102
{ACAD_REACTORS
330
47
102
}
330
47
100
AcDbScale
 70
     0
300
3/32" = 1'-0"
140
0.09375
141
12.0
290
     0
  0
SCALE
  5
5E
102
{ACAD_REACTORS
330
47
102
}
330
47
100
AcDbScale
 70
     0
300
1/8" = 1'-0"
140
0.125
141
12.0
290
     0
  0
SCALE
  5
5F
102
{ACAD_REACTORS
330
47
102
}
330
47
100
AcDbScale
 70
     0
300
3/16" = 1'-0"
140
0.1875
141
12.0
290
     0
  0
SCALE
  5
60
102
{ACAD_REACTORS
330
47
102
}
330
47
100
AcDbScale
 70
     0
300
1/4" = 1'-0"
140
0.25
141
12.0
290
     0
  0
SCALE
  5
61
102
{ACAD_REACTORS
330
47
102
}
330
47
100
AcDbScale
 70
     0
300
3/8" = 1'-0"
140
0.375
141
12.0
290
     0
  0
SCALE
  5
62
102
{ACAD_REACTORS
330
47
102
}
330
47
100
AcDbScale
 70
     0
300
1/2" = 1'-0"
140
0.5
141
12.0
290
     0
  0
SCALE
  5
63
102
{ACAD_REACTORS
330
47
102
}
330
47
100
AcDbScale
 70
     0
300
3/4" = 1'-0"
140
0.75
141
12.0
290
     0
  0
SCALE
  5
64
102
{ACAD_REACTORS
330
47
102
}
330
47
100
AcDbScale
 70
     0
300
1" = 1'-0"
140
1.0
141
12.0
290
     0
  0
SCALE
  5
65
102
{ACAD_REACTORS
330
47
102
}
330
47
100
AcDbScale
 70
     0
300
1-1/2" = 1'-0"
140
1.5
141
12.0
290
     0
  0
SCALE
  5
66
102
{ACAD_REACTORS
330
47
102
}
330
47
100
AcDbScale
 70
     0
300
3" = 1'-0"
140
3.0
141
12.0
290
     0
  0
SCALE
  5
67
102
{ACAD_REACTORS
330
47
102
}
330
47
100
AcDbScale
 70
     0
300
6" = 1'-0"
140
6.0
141
12.0
290
     0
  0
SCALE
  5
68
102
{ACAD_REACTORS
330
47
102
}
330
47
100
AcDbScale
 70
     0
300
1'-0" = 1'-0"
140
12.0
141
12.0
290
     0
  0
ENDSEC
  0
EOF
