  0
SECTION
  2
HEADER
  9
$ACADVER
  1
AC1015
  9
$ACADMAINTVER
 70
     6
  9
$DWGCODEPAGE
  3
ANSI_949
  9
$INSBASE
 10
0.0
 20
0.0
 30
0.0
  9
$EXTMIN
 10
-52.80305401447669
 20
-49.97073246008785
 30
0.0
  9
$EXTMAX
 10
90.51899512937676
 20
43.13857492872395
 30
0.0
  9
$LIMMIN
 10
0.0
 20
0.0
  9
$LIMMAX
 10
420.0
 20
297.0
  9
$ORTHOMODE
 70
     1
  9
$REGENMODE
 70
     1
  9
$FILLMODE
 70
     1
  9
$QTEXTMODE
 70
     0
  9
$MIRRTEXT
 70
     1
  9
$LTSCALE
 40
1.0
  9
$ATTMODE
 70
     1
  9
$TEXTSIZE
 40
3.5
  9
$TRACEWID
 40
1.0
  9
$TEXTSTYLE
  7
Standard
  9
$CLAYER
  8
0
  9
$CELTYPE
  6
ByLayer
  9
$CECOLOR
 62
   256
  9
$CELTSCALE
 40
1.0
  9
$DISPSILH
 70
     0
  9
$DIMSCALE
 40
1.0
  9
$DIMASZ
 40
3.302
  9
$DIMEXO
 40
1.0
  9
$DIMDLI
 40
3.75
  9
$DIMRND
 40
0.0
  9
$DIMDLE
 40
0.0
  9
$DIMEXE
 40
1.0
  9
$DIMTP
 40
0.0
  9
$DIMTM
 40
0.0
  9
$DIMTXT
 40
3.5
  9
$DIMCEN
 40
2.5
  9
$DIMTSZ
 40
0.0
  9
$DIMTOL
 70
     0
  9
$DIMLIM
 70
     0
  9
$DIMTIH
 70
     1
  9
$DIMTOH
 70
     1
  9
$DIMSE1
 70
     0
  9
$DIMSE2
 70
     0
  9
$DIMTAD
 70
     1
  9
$DIMZIN
 70
     0
  9
$DIMBLK
  1

  9
$DIMASO
 70
     1
  9
$DIMSHO
 70
     1
  9
$DIMPOST
  1

  9
$DIMAPOST
  1

  9
$DIMALT
 70
     0
  9
$DIMALTD
 70
     3
  9
$DIMALTF
 40
0.0393700787401575
  9
$DIMLFAC
 40
1.0
  9
$DIMTOFL
 70
     1
  9
$DIMTVP
 40
0.0
  9
$DIMTIX
 70
     0
  9
$DIMSOXD
 70
     0
  9
$DIMSAH
 70
     0
  9
$DIMBLK1
  1

  9
$DIMBLK2
  1

  9
$DIMSTYLE
  2
ISO-25
  9
$DIMCLRD
 70
     0
  9
$DIMCLRE
 70
     0
  9
$DIMCLRT
 70
     0
  9
$DIMTFAC
 40
1.0
  9
$DIMGAP
 40
1.524
  9
$DIMJUST
 70
     0
  9
$DIMSD1
 70
     0
  9
$DIMSD2
 70
     0
  9
$DIMTOLJ
 70
     0
  9
$DIMTZIN
 70
     0
  9
$DIMALTZ
 70
     0
  9
$DIMALTTZ
 70
     0
  9
$DIMUPT
 70
     0
  9
$DIMDEC
 70
     2
  9
$DIMTDEC
 70
     2
  9
$DIMALTU
 70
     2
  9
$DIMALTTD
 70
     3
  9
$DIMTXSTY
  7
Standard
  9
$DIMAUNIT
 70
     0
  9
$DIMADEC
 70
     2
  9
$DIMALTRND
 40
0.0
  9
$DIMAZIN
 70
     0
  9
$DIMDSEP
 70
    44
  9
$DIMATFIT
 70
     3
  9
$DIMFRAC
 70
     0
  9
$DIMLDRBLK
  1

  9
$DIMLUNIT
 70
     2
  9
$DIMLWD
 70
    -2
  9
$DIMLWE
 70
    -2
  9
$DIMTMOVE
 70
     0
  9
$LUNITS
 70
     2
  9
$LUPREC
 70
     2
  9
$SKETCHINC
 40
1.0
  9
$FILLETRAD
 40
10.0
  9
$AUNITS
 70
     0
  9
$AUPREC
 70
     2
  9
$MENU
  1
.
  9
$ELEVATION
 40
0.0
  9
$PELEVATION
 40
0.0
  9
$THICKNESS
 40
0.0
  9
$LIMCHECK
 70
     0
  9
$CHAMFERA
 40
0.0
  9
$CHAMFERB
 40
0.0
  9
$CHAMFERC
 40
0.0
  9
$CHAMFERD
 40
0.0
  9
$SKPOLY
 70
     0
  9
$TDCREATE
 40
2458316.579430139
  9
$TDUCREATE
 40
2458316.204430139
  9
$TDUPDATE
 40
2458320.739833542
  9
$TDUUPDATE
 40
2458320.364833542
  9
$TDINDWG
 40
0.0014924653
  9
$TDUSRTIMER
 40
2458320.364789514
  9
$USRTIMER
 70
     1
  9
$ANGBASE
 50
0.0
  9
$ANGDIR
 70
     0
  9
$PDMODE
 70
     0
  9
$PDSIZE
 40
-1.0
  9
$PLINEWID
 40
0.0
  9
$SPLFRAME
 70
     0
  9
$SPLINETYPE
 70
     6
  9
$SPLINESEGS
 70
     8
  9
$HANDSEED
  5
27D
  9
$SURFTAB1
 70
     6
  9
$SURFTAB2
 70
     6
  9
$SURFTYPE
 70
     6
  9
$SURFU
 70
     6
  9
$SURFV
 70
     6
  9
$UCSBASE
  2

  9
$UCSNAME
  2

  9
$UCSORG
 10
0.0
 20
0.0
 30
0.0
  9
$UCSXDIR
 10
1.0
 20
0.0
 30
0.0
  9
$UCSYDIR
 10
0.0
 20
1.0
 30
0.0
  9
$UCSORTHOREF
  2

  9
$UCSORTHOVIEW
 70
     0
  9
$UCSORGTOP
 10
0.0
 20
0.0
 30
0.0
  9
$UCSORGBOTTOM
 10
0.0
 20
0.0
 30
0.0
  9
$UCSORGLEFT
 10
0.0
 20
0.0
 30
0.0
  9
$UCSORGRIGHT
 10
0.0
 20
0.0
 30
0.0
  9
$UCSORGFRONT
 10
0.0
 20
0.0
 30
0.0
  9
$UCSORGBACK
 10
0.0
 20
0.0
 30
0.0
  9
$PUCSBASE
  2

  9
$PUCSNAME
  2

  9
$PUCSORG
 10
0.0
 20
0.0
 30
0.0
  9
$PUCSXDIR
 10
1.0
 20
0.0
 30
0.0
  9
$PUCSYDIR
 10
0.0
 20
1.0
 30
0.0
  9
$PUCSORTHOREF
  2

  9
$PUCSORTHOVIEW
 70
     0
  9
$PUCSORGTOP
 10
0.0
 20
0.0
 30
0.0
  9
$PUCSORGBOTTOM
 10
0.0
 20
0.0
 30
0.0
  9
$PUCSORGLEFT
 10
0.0
 20
0.0
 30
0.0
  9
$PUCSORGRIGHT
 10
0.0
 20
0.0
 30
0.0
  9
$PUCSORGFRONT
 10
0.0
 20
0.0
 30
0.0
  9
$PUCSORGBACK
 10
0.0
 20
0.0
 30
0.0
  9
$USERI1
 70
     0
  9
$USERI2
 70
     0
  9
$USERI3
 70
     0
  9
$USERI4
 70
     0
  9
$USERI5
 70
     0
  9
$USERR1
 40
0.0
  9
$USERR2
 40
0.0
  9
$USERR3
 40
0.0
  9
$USERR4
 40
0.0
  9
$USERR5
 40
0.0
  9
$WORLDVIEW
 70
     1
  9
$SHADEDGE
 70
     3
  9
$SHADEDIF
 70
    70
  9
$TILEMODE
 70
     1
  9
$MAXACTVP
 70
    64
  9
$PINSBASE
 10
0.0
 20
0.0
 30
0.0
  9
$PLIMCHECK
 70
     0
  9
$PEXTMIN
 10
1.000000000000000E+20
 20
1.000000000000000E+20
 30
1.000000000000000E+20
  9
$PEXTMAX
 10
-1.000000000000000E+20
 20
-1.000000000000000E+20
 30
-1.000000000000000E+20
  9
$PLIMMIN
 10
0.0
 20
0.0
  9
$PLIMMAX
 10
0.0
 20
0.0
  9
$UNITMODE
 70
     0
  9
$VISRETAIN
 70
     1
  9
$PLINEGEN
 70
     0
  9
$PSLTSCALE
 70
     1
  9
$TREEDEPTH
 70
  3020
  9
$CMLSTYLE
  2
Standard
  9
$CMLJUST
 70
     0
  9
$CMLSCALE
 40
20.0
  9
$PROXYGRAPHICS
 70
     1
  9
$MEASUREMENT
 70
     1
  9
$CELWEIGHT
370
    -1
  9
$ENDCAPS
280
     0
  9
$JOINSTYLE
280
     0
  9
$LWDISPLAY
290
     1
  9
$INSUNITS
 70
     4
  9
$HYPERLINKBASE
  1

  9
$STYLESHEET
  1

  9
$XEDIT
290
     1
  9
$CEPSNTYPE
380
     0
  9
$PSTYLEMODE
290
     1
  9
$FINGERPRINTGUID
  2
{C0930BED-66BC-4C31-A67E-02CE20DB23ED}
  9
$VERSIONGUID
  2
{FAEB1C32-E019-11D5-929B-00C0DF256EC4}
  9
$EXTNAMES
290
     1
  9
$PSVPSCALE
 40
0.0
  9
$OLESTARTUP
290
     0
  0
ENDSEC
  0
SECTION
  2
CLASSES
  0
CLASS
  1
ACDBDICTIONARYWDFLT
  2
AcDbDictionaryWithDefault
  3
ObjectDBX Classes
 90
        0
280
     0
281
     0
  0
CLASS
  1
VISUALSTYLE
  2
AcDbVisualStyle
  3
ObjectDBX Classes
 90
     4095
280
     0
281
     0
  0
CLASS
  1
MATERIAL
  2
AcDbMaterial
  3
ObjectDBX Classes
 90
     1153
280
     0
281
     0
  0
CLASS
  1
SCALE
  2
AcDbScale
  3
ObjectDBX Classes
 90
     1153
280
     0
281
     0
  0
CLASS
  1
SUN
  2
AcDbSun
  3
SCENEOE
 90
     1153
280
     0
281
     0
  0
CLASS
  1
ACDBPLACEHOLDER
  2
AcDbPlaceHolder
  3
ObjectDBX Classes
 90
        0
280
     0
281
     0
  0
CLASS
  1
LAYOUT
  2
AcDbLayout
  3
ObjectDBX Classes
 90
        0
280
     0
281
     0
  0
CLASS
  1
TABLESTYLE
  2
AcDbTableStyle
  3
ObjectDBX Classes
 90
     4095
280
     0
281
     0
  0
CLASS
  1
MLEADERSTYLE
  2
AcDbMLeaderStyle
  3
ACDB_MLEADERSTYLE_CLASS
 90
     4095
280
     0
281
     0
  0
CLASS
  1
RASTERVARIABLES
  2
AcDbRasterVariables
  3
ISM
 90
        0
280
     0
281
     0
  0
ENDSEC
  0
SECTION
  2
TABLES
  0
TABLE
  2
VPORT
  5
8
330
0
100
AcDbSymbolTable
 70
     1
  0
VPORT
  5
29
330
8
100
AcDbSymbolTableRecord
100
AcDbViewportTableRecord
  2
*Active
 70
     0
 10
0.0
 20
0.0
 11
1.0
 21
1.0
 12
22.80139652038535
 22
-0.873213141338713
 13
0.0
 23
0.0
 14
10.0
 24
10.0
 15
10.0
 25
10.0
 16
0.0
 26
0.0
 36
1.0
 17
0.0
 27
0.0
 37
0.0
 40
129.5959161086895
 41
1.632093933463796
 42
50.0
 43
0.0
 44
0.0
 50
0.0
 51
0.0
 71
    16
 72
  2000
 73
     1
 74
     3
 75
     0
 76
     0
 77
     0
 78
     0
281
     0
 65
     1
110
0.0
120
0.0
130
0.0
111
1.0
121
0.0
131
0.0
112
0.0
122
1.0
132
0.0
 79
     0
146
0.0
  0
ENDTAB
  0
TABLE
  2
LTYPE
  5
5
330
0
100
AcDbSymbolTable
 70
     6
  0
LTYPE
  5
14
330
5
100
AcDbSymbolTableRecord
100
AcDbLinetypeTableRecord
  2
ByBlock
 70
     0
  3

 72
    65
 73
     0
 40
0.0
  0
LTYPE
  5
15
330
5
100
AcDbSymbolTableRecord
100
AcDbLinetypeTableRecord
  2
ByLayer
 70
     0
  3

 72
    65
 73
     0
 40
0.0
  0
LTYPE
  5
16
330
5
100
AcDbSymbolTableRecord
100
AcDbLinetypeTableRecord
  2
Continuous
 70
     0
  3
Solid line
 72
    65
 73
     0
 40
0.0
  0
LTYPE
  5
6A
330
5
100
AcDbSymbolTableRecord
100
AcDbLinetypeTableRecord
  2
HIDDEN
 70
     0
  3
Hidden __ __ __ __ __ __ __ __ __ __ __ __ __ __
 72
    65
 73
     2
 40
1.905
 49
1.27
 74
     0
 49
-0.635
 74
     0
  0
LTYPE
  5
6B
330
5
100
AcDbSymbolTableRecord
100
AcDbLinetypeTableRecord
  2
PHANTOM
 70
     0
  3
Phantom ______  __  __  ______  __  __  ______
 72
    65
 73
     6
 40
12.7
 49
6.35
 74
     0
 49
-1.27
 74
     0
 49
1.27
 74
     0
 49
-1.27
 74
     0
 49
1.27
 74
     0
 49
-1.27
 74
     0
  0
LTYPE
  5
6C
330
5
100
AcDbSymbolTableRecord
100
AcDbLinetypeTableRecord
  2
CENTER
 70
     0
  3
Center ____ _ ____ _ ____ _ ____ _ ____ _ ____
 72
    65
 73
     4
 40
10.16
 49
6.35
 74
     0
 49
-1.27
 74
     0
 49
1.27
 74
     0
 49
-1.27
 74
     0
  0
LTYPE
  5
6D
330
5
100
AcDbSymbolTableRecord
100
AcDbLinetypeTableRecord
  2
CENTERX2
 70
     0
  3
Center (2x) ________  __  ________  __  _____
 72
    65
 73
     4
 40
20.32
 49
12.7
 74
     0
 49
-2.54
 74
     0
 49
2.54
 74
     0
 49
-2.54
 74
     0
  0
LTYPE
  5
6E
330
5
100
AcDbSymbolTableRecord
100
AcDbLinetypeTableRecord
  2
DOT2
 70
     0
  3
Dot (.5x) ........................................
 72
    65
 73
     2
 40
0.635
 49
0.0
 74
     0
 49
-0.635
 74
     0
  0
ENDTAB
  0
TABLE
  2
LAYER
  5
2
102
{ACAD_XDICTIONARY
360
1E9
102
}
330
0
100
AcDbSymbolTable
 70
    18
  0
LAYER
  5
10
330
2
100
AcDbSymbolTableRecord
100
AcDbLayerTableRecord
  2
0
 70
     0
 62
     7
  6
Continuous
370
    -3
390
F
  0
LAYER
  5
6F
330
2
100
AcDbSymbolTableRecord
100
AcDbLayerTableRecord
  2
FORMAT
 70
     0
 62
     2
  6
Continuous
370
    -3
390
F
  0
LAYER
  5
70
330
2
100
AcDbSymbolTableRecord
100
AcDbLayerTableRecord
  2
외형선
 70
     0
 62
     4
  6
Continuous
370
    30
390
F
  0
LAYER
  5
71
330
2
100
AcDbSymbolTableRecord
100
AcDbLayerTableRecord
  2
숨은선
 70
     0
 62
     2
  6
HIDDEN
370
    15
390
F
  0
LAYER
  5
72
330
2
100
AcDbSymbolTableRecord
100
AcDbLayerTableRecord
  2
중심선
 70
     0
 62
     1
  6
CENTERX2
370
    -3
390
F
  0
LAYER
  5
73
330
2
100
AcDbSymbolTableRecord
100
AcDbLayerTableRecord
  2
파단선
 70
     0
 62
     4
  6
Continuous
370
    -3
390
F
  0
LAYER
  5
74
330
2
100
AcDbSymbolTableRecord
100
AcDbLayerTableRecord
  2
해칭선
 70
     0
 62
   100
  6
Continuous
370
    -3
390
F
  0
LAYER
  5
75
330
2
100
AcDbSymbolTableRecord
100
AcDbLayerTableRecord
  2
가는실선
 70
     0
 62
     4
  6
Continuous
370
    -3
390
F
  0
LAYER
  5
76
330
2
100
AcDbSymbolTableRecord
100
AcDbLayerTableRecord
  2
치수_보조선
 70
     0
 62
     4
  6
Continuous
370
    -3
390
F
  0
LAYER
  5
77
330
2
100
AcDbSymbolTableRecord
100
AcDbLayerTableRecord
  2
치수문자_일반주서
 70
     0
 62
     7
  6
Continuous
370
    15
390
F
  0
LAYER
  5
78
330
2
100
AcDbSymbolTableRecord
100
AcDbLayerTableRecord
  2
개별주서
 70
     0
 62
   100
  6
Continuous
370
    30
390
F
  0
LAYER
  5
79
330
2
100
AcDbSymbolTableRecord
100
AcDbLayerTableRecord
  2
중간선
 70
     0
 62
     2
  6
Continuous
370
    15
390
F
  0
LAYER
  5
7A
330
2
100
AcDbSymbolTableRecord
100
AcDbLayerTableRecord
  2
윤곽선
 70
     0
 62
     3
  6
Continuous
370
    40
390
F
  0
LAYER
  5
7B
330
2
100
AcDbSymbolTableRecord
100
AcDbLayerTableRecord
  2
중심마크
 70
     0
 62
   100
  6
Continuous
370
    30
390
F
  0
LAYER
  5
7C
330
2
100
AcDbSymbolTableRecord
100
AcDbLayerTableRecord
  2
가상선
 70
     0
 62
     4
  6
PHANTOM
370
    -3
390
F
  0
LAYER
  5
7D
330
2
100
AcDbSymbolTableRecord
100
AcDbLayerTableRecord
  2
특수지정선
 70
     0
 62
     5
  6
CENTERX2
370
    60
390
F
  0
LAYER
  5
7E
330
2
100
AcDbSymbolTableRecord
100
AcDbLayerTableRecord
  2
참조1
 70
     0
 62
    -4
  6
Continuous
370
    -3
390
F
  0
LAYER
  5
150
330
2
100
AcDbSymbolTableRecord
100
AcDbLayerTableRecord
  2
Defpoints
 70
     0
 62
     7
  6
Continuous
290
     0
370
    -3
390
F
  0
ENDTAB
  0
TABLE
  2
STYLE
  5
3
330
0
100
AcDbSymbolTable
 70
     2
  0
STYLE
  5
11
330
3
100
AcDbSymbolTableRecord
100
AcDbTextStyleTableRecord
  2
Standard
 70
     0
 40
0.0
 41
1.0
 50
0.0
 71
     0
 42
3.5
  3
txt
  4

  0
STYLE
  5
94
330
3
100
AcDbSymbolTableRecord
100
AcDbTextStyleTableRecord
  2
SLDTEXTSTYLE0
 70
     0
 40
0.0
 41
0.75
 50
0.0
 71
     0
 42
3.5
  3
TXT
  4

  0
ENDTAB
  0
TABLE
  2
VIEW
  5
6
330
0
100
AcDbSymbolTable
 70
     0
  0
ENDTAB
  0
TABLE
  2
UCS
  5
7
330
0
100
AcDbSymbolTable
 70
     0
  0
ENDTAB
  0
TABLE
  2
APPID
  5
9
330
0
100
AcDbSymbolTable
 70
     1
  0
APPID
  5
12
330
9
100
AcDbSymbolTableRecord
100
AcDbRegAppTableRecord
  2
ACAD
 70
     0
  0
ENDTAB
  0
TABLE
  2
DIMSTYLE
  5
A
330
0
100
AcDbSymbolTable
 70
     4
100
AcDbDimStyleTable
  0
DIMSTYLE
105
27
330
A
100
AcDbSymbolTableRecord
100
AcDbDimStyleTableRecord
  2
ISO-25
 70
     0
 41
2.5
 42
0.625
 43
3.75
 44
1.25
 73
     0
 74
     0
 77
     1
 78
     8
140
2.5
141
2.5
143
0.03937007874016
147
0.625
171
     3
172
     1
178
     0
271
     2
272
     2
274
     3
278
    44
283
     0
284
     8
340
11
  0
DIMSTYLE
105
CC
330
A
100
AcDbSymbolTableRecord
100
AcDbDimStyleTableRecord
  2
SLDDIMSTYLE0
 70
     0
 41
3.302
 44
0.0
 45
0.000000001
 73
     0
 74
     0
 77
     1
 78
     4
 79
     1
140
3.5
143
0.0393700787401575
147
0.875
148
0.000000001
170
     1
173
     1
178
     0
271
     2
272
     2
276
     2
284
    12
340
94
  0
DIMSTYLE
105
E1
102
{ACAD_REACTORS
330
E0
330
CB
330
109
330
F4
102
}
330
A
100
AcDbSymbolTableRecord
100
AcDbDimStyleTableRecord
  2
SLDDIMSTYLE1
 70
     0
 41
3.302
 44
0.0
 45
0.000000001
 73
     0
 74
     0
 77
     1
 78
    12
 79
     3
140
3.5
143
0.0393700787401575
147
0.875
148
0.000000001
170
     1
173
     1
178
     0
271
     2
272
     2
276
     2
284
    12
340
94
  0
DIMSTYLE
105
F5
330
A
100
AcDbSymbolTableRecord
100
AcDbDimStyleTableRecord
  2
SLDDIMSTYLE2
 70
     0
 41
3.302
 44
0.0
 45
0.000000001
 73
     0
 74
     0
 77
     1
 78
    12
 79
     3
140
3.5
143
0.0393700787401575
147
0.875
148
0.000000001
170
     1
172
     1
173
     1
178
     0
271
     2
272
     2
276
     2
284
    12
289
     0
340
94
  0
ENDTAB
  0
TABLE
  2
BLOCK_RECORD
  5
1
330
0
100
AcDbSymbolTable
 70
    15
  0
BLOCK_RECORD
  5
1F
330
1
100
AcDbSymbolTableRecord
100
AcDbBlockTableRecord
  2
*Model_Space
340
22
  0
BLOCK_RECORD
  5
1B
330
1
100
AcDbSymbolTableRecord
100
AcDbBlockTableRecord
  2
*Paper_Space
340
1E
  0
BLOCK_RECORD
  5
23
330
1
100
AcDbSymbolTableRecord
100
AcDbBlockTableRecord
  2
*Paper_Space0
340
26
  0
BLOCK_RECORD
  5
7F
330
1
100
AcDbSymbolTableRecord
100
AcDbBlockTableRecord
  2
블럭10
340
0
102
{BLKREFS
331
C4
102
}
  0
BLOCK_RECORD
  5
CD
330
1
100
AcDbSymbolTableRecord
100
AcDbBlockTableRecord
  2
_D
340
0
  0
BLOCK_RECORD
  5
E2
330
1
100
AcDbSymbolTableRecord
100
AcDbBlockTableRecord
  2
_D_1
340
0
  0
BLOCK_RECORD
  5
F6
330
1
100
AcDbSymbolTableRecord
100
AcDbBlockTableRecord
  2
_D_2
340
0
  0
BLOCK_RECORD
  5
10A
330
1
100
AcDbSymbolTableRecord
100
AcDbBlockTableRecord
  2
_D_3
340
0
  0
BLOCK_RECORD
  5
124
330
1
100
AcDbSymbolTableRecord
100
AcDbBlockTableRecord
  2
SW_DOWELSYMBOL_0
340
0
102
{BLKREFS
331
12A
102
}
  0
BLOCK_RECORD
  5
1A4
330
1
100
AcDbSymbolTableRecord
100
AcDbBlockTableRecord
  2
*D7
340
0
  0
BLOCK_RECORD
  5
1B4
330
1
100
AcDbSymbolTableRecord
100
AcDbBlockTableRecord
  2
*D8
340
0
  0
BLOCK_RECORD
  5
1C1
330
1
100
AcDbSymbolTableRecord
100
AcDbBlockTableRecord
  2
*D9
340
0
  0
BLOCK_RECORD
  5
1CE
330
1
100
AcDbSymbolTableRecord
100
AcDbBlockTableRecord
  2
*D10
340
0
  0
BLOCK_RECORD
  5
222
330
1
100
AcDbSymbolTableRecord
100
AcDbBlockTableRecord
  2
*D11
340
0
  0
BLOCK_RECORD
  5
22F
330
1
100
AcDbSymbolTableRecord
100
AcDbBlockTableRecord
  2
*D12
340
0
  0
BLOCK_RECORD
  5
23B
330
1
100
AcDbSymbolTableRecord
100
AcDbBlockTableRecord
  2
*D13
340
0
  0
BLOCK_RECORD
  5
247
330
1
100
AcDbSymbolTableRecord
100
AcDbBlockTableRecord
  2
*D14
340
0
  0
ENDTAB
  0
ENDSEC
  0
SECTION
  2
BLOCKS
  0
BLOCK
  5
20
330
1F
100
AcDbEntity
  8
0
100
AcDbBlockBegin
  2
*Model_Space
 70
     0
 10
0.0
 20
0.0
 30
0.0
  3
*Model_Space
  1
*Model_Space
  0
ENDBLK
  5
21
330
1F
100
AcDbEntity
  8
0
100
AcDbBlockEnd
  0
BLOCK
  5
1C
330
1B
100
AcDbEntity
 67
     1
  8
0
100
AcDbBlockBegin
  2
*Paper_Space
 70
     0
 10
0.0
 20
0.0
 30
0.0
  3
*Paper_Space
  1
*Paper_Space
  0
ENDBLK
  5
1D
330
1B
100
AcDbEntity
 67
     1
  8
0
100
AcDbBlockEnd
  0
BLOCK
  5
24
330
23
100
AcDbEntity
  8
0
100
AcDbBlockBegin
  2
*Paper_Space0
 70
     0
 10
0.0
 20
0.0
 30
0.0
  3
*Paper_Space0
  1
*Paper_Space0
  0
ENDBLK
  5
25
330
23
100
AcDbEntity
  8
0
100
AcDbBlockEnd
  0
BLOCK
  5
80
330
7F
100
AcDbEntity
  8
0
100
AcDbBlockBegin
  2
블럭10
 70
     2
 10
0.0
 20
0.0
 30
0.0
  3
블럭10
  1
블럭10
  0
ELLIPSE
  5
82
330
7F
100
AcDbEntity
  8
중심선
100
AcDbEllipse
 10
20.54032771741204
 20
12.0471743016438
 30
0.0
 11
6.600054785286829
 21
-1.261213355974178E-13
 31
0.0
210
0.0
220
0.0
230
1.0
 40
0.636358354079598
 41
0.9219305317359503
 42
6.513795318482858
  0
ELLIPSE
  5
83
330
7F
100
AcDbEntity
  8
중심선
100
AcDbEllipse
 10
20.54032771746488
 20
12.04717430159265
 30
0.0
 11
3.960054785062283
 21
1.540847449632565E-10
 31
0.0
210
0.0
220
0.0
230
1.0
 40
0.3939339440162632
 41
1.131841032648279
 42
5.62031148352944
  0
LINE
  5
84
330
7F
100
AcDbEntity
  8
중심선
100
AcDbLine
 10
2.268634060543552
 20
16.24717430164393
 30
0.0
 11
5.714909304380834
 21
16.24717430164393
 31
0.0
  0
LINE
  5
85
330
7F
100
AcDbEntity
  8
중심선
100
AcDbLine
 10
5.245725140726316
 20
7.84717430164391
 30
0.0
 11
8.692000384563599
 21
7.84717430164391
 31
0.0
  0
LINE
  5
86
330
7F
100
AcDbEntity
  8
중심선
100
AcDbLine
 10
15.74043728645272
 20
16.24717430164393
 30
0.0
 11
8.692000384563599
 21
7.84717430164391
 31
0.0
  0
LINE
  5
87
330
7F
100
AcDbEntity
  8
중심선
100
AcDbLine
 10
0.1404042013395286
 20
13.71084872107135
 30
0.0
 11
3.58671253028996
 21
13.71088815037384
 31
0.0
  0
LINE
  5
88
330
7F
100
AcDbEntity
  8
중심선
100
AcDbLine
 10
2.750260043222114
 20
10.84717430164391
 30
0.0
 11
6.196535287059397
 21
10.84717430164391
 31
0.0
  0
LINE
  5
89
330
7F
100
AcDbEntity
  8
중심선
100
AcDbLine
 10
12.29416204261559
 20
16.24717430164393
 30
0.0
 11
5.245725140726316
 21
7.84717430164391
 31
0.0
  0
LINE
  5
8A
330
7F
100
AcDbEntity
  8
중심선
100
AcDbLine
 10
10.72767329541681
 20
16.24717430164393
 30
0.0
 11
6.196535287059397
 21
10.84717430164391
 31
0.0
  0
LINE
  5
8B
330
7F
100
AcDbEntity
  8
중심선
100
AcDbLine
 10
7.28139805157953
 20
16.24717430164393
 30
0.0
 11
2.750260043222114
 21
10.84717430164391
 31
0.0
  0
LINE
  5
8C
330
7F
100
AcDbEntity
  8
중심선
100
AcDbLine
 10
5.714909304380834
 20
16.24717430164393
 30
0.0
 11
3.58671253028996
 21
13.71088815037384
 31
0.0
  0
LINE
  5
8D
330
7F
100
AcDbEntity
  8
중심선
100
AcDbLine
 10
2.268634060543552
 20
16.24717430164393
 30
0.0
 11
0.1404042013395286
 21
13.71084872107135
 31
0.0
  0
LINE
  5
8E
330
7F
100
AcDbEntity
  8
중심선
100
AcDbLine
 10
7.28139805157953
 20
16.24717430164393
 30
0.0
 11
10.72767329541681
 21
16.24717430164393
 31
0.0
  0
LINE
  5
8F
330
7F
100
AcDbEntity
  8
중심선
100
AcDbLine
 10
12.29416204261559
 20
16.24717430164393
 30
0.0
 11
15.74043728645272
 21
16.24717430164393
 31
0.0
  0
LINE
  5
90
330
7F
100
AcDbEntity
  8
중심선
100
AcDbLine
 10
19.22036997980202
 20
11.08717430171403
 30
0.0
 11
23.66174974927406
 21
11.08717430171406
 31
0.0
  0
LINE
  5
91
330
7F
100
AcDbEntity
  8
중심선
100
AcDbLine
 10
19.22039502424796
 20
13.00717430171391
 30
0.0
 11
19.22036997980202
 21
11.08717430171403
 31
0.0
  0
LINE
  5
92
330
7F
100
AcDbEntity
  8
중심선
100
AcDbLine
 10
19.22039502424796
 20
13.00717430171391
 30
0.0
 11
26.96566020931264
 21
13.00717430171391
 31
0.0
  0
LINE
  5
93
330
7F
100
AcDbEntity
  8
중심선
100
AcDbLine
 10
22.22332737316547
 20
13.45928029700563
 30
0.0
 11
24.52862924686651
 21
15.39360700705356
 31
0.0
  0
ATTDEF
  5
95
330
7F
100
AcDbEntity
  8
FORMAT
 62
     2
100
AcDbText
 10
4.408487351596664
 20
2.075366912832191
 30
0.0
 40
4.233333333333333
  1
E1110012
 41
0.75
  7
SLDTEXTSTYLE0
 11
4.408487351596664
 21
-0.0412997538344756
 31
0.0
100
AcDbAttributeDefinition
  3

  2
AUTOATTR0
 70
     0
 74
     1
  0
ENDBLK
  5
81
330
7F
100
AcDbEntity
  8
0
100
AcDbBlockEnd
  0
BLOCK
  5
CE
330
CD
100
AcDbEntity
  8
0
100
AcDbBlockBegin
  2
_D
 70
     0
 10
0.0
 20
0.0
 30
0.0
  3
_D
  1
_D
  0
LINE
  5
D0
330
CD
100
AcDbEntity
  8
치수문자_일반주서
 62
     0
370
    -2
100
AcDbLine
 10
24.58694598552334
 20
2.444824928723897
 30
0.0
 11
24.58694598552334
 21
15.98042001900794
 31
0.0
  0
LINE
  5
D1
330
CD
100
AcDbEntity
  8
치수문자_일반주서
 62
     0
370
    -2
100
AcDbLine
 10
11.88694598552337
 20
2.444824928723895
 30
0.0
 11
11.88694598552337
 21
15.98042001900794
 31
0.0
  0
LINE
  5
D2
330
CD
100
AcDbEntity
  8
치수문자_일반주서
 62
     0
370
    -2
100
AcDbLine
 10
11.88694598552337
 20
15.98042001900794
 30
0.0
 11
-19.79982577637185
 21
15.98042001900794
 31
0.0
  0
LINE
  5
D3
330
CD
100
AcDbEntity
  8
치수문자_일반주서
 62
     0
370
    -2
100
AcDbLine
 10
21.28494598552334
 20
15.98042001900794
 30
0.0
 11
15.18894598552337
 21
15.98042001900794
 31
0.0
  0
SOLID
  5
D4
330
CD
100
AcDbEntity
  8
치수문자_일반주서
 62
     0
100
AcDbTrace
 10
21.28494598552334
 20
15.43008668567461
 30
0.0
 11
21.28494598552334
 21
16.53075335234128
 31
0.0
 12
24.58694598552334
 22
15.98042001900794
 32
0.0
 13
24.58694598552334
 23
15.98042001900794
 33
0.0
  0
SOLID
  5
D5
330
CD
100
AcDbEntity
  8
치수문자_일반주서
 62
     0
100
AcDbTrace
 10
15.18894598552337
 20
16.53075335234128
 30
0.0
 11
15.18894598552337
 21
15.43008668567461
 31
0.0
 12
11.88694598552337
 22
15.98042001900794
 32
0.0
 13
11.88694598552337
 23
15.98042001900794
 33
0.0
  0
MTEXT
  5
D6
330
CD
100
AcDbEntity
  8
치수문자_일반주서
 62
     0
100
AcDbMText
 10
-8.862325776371845
 20
20.35542001900794
 30
0.0
 40
3.5
 41
0.0
 71
     2
 72
     1
  1
\A1;12.7 [1/2]
  7
SLDTEXTSTYLE0
 73
     1
 44
1.0
  0
POINT
  5
D7
330
CD
100
AcDbEntity
  8
Defpoints
 62
     0
100
AcDbPoint
 10
24.58694598552334
 20
2.382324928723897
 30
0.0
  0
POINT
  5
D8
330
CD
100
AcDbEntity
  8
Defpoints
 62
     0
100
AcDbPoint
 10
11.88694598552337
 20
2.382324928723895
 30
0.0
  0
POINT
  5
D9
330
CD
100
AcDbEntity
  8
Defpoints
 62
     0
100
AcDbPoint
 10
11.88694598552337
 20
15.98042001900794
 30
0.0
  0
ENDBLK
  5
CF
330
CD
100
AcDbEntity
  8
0
100
AcDbBlockEnd
  0
BLOCK
  5
E3
330
E2
100
AcDbEntity
  8
0
100
AcDbBlockBegin
  2
_D_1
 70
     0
 10
0.0
 20
0.0
 30
0.0
  3
_D_1
  1
_D_1
  0
LINE
  5
E5
330
E2
100
AcDbEntity
  8
치수문자_일반주서
 62
     0
370
    -2
100
AcDbLine
 10
24.58694598552336
 20
4.337226723198786
 30
0.0
 11
24.58694598552336
 21
38.76357492872395
 31
0.0
  0
LINE
  5
E6
330
E2
100
AcDbEntity
  8
치수문자_일반주서
 62
     0
370
    -2
100
AcDbLine
 10
-35.73805401447663
 20
4.01607492872389
 30
0.0
 11
-35.73805401447663
 21
38.76357492872395
 31
0.0
  0
LINE
  5
E7
330
E2
100
AcDbEntity
  8
치수문자_일반주서
 62
     0
370
    -2
100
AcDbLine
 10
21.28494598552336
 20
38.76357492872395
 30
0.0
 11
-32.43605401447663
 21
38.76357492872395
 31
0.0
  0
SOLID
  5
E8
330
E2
100
AcDbEntity
  8
치수문자_일반주서
 62
     0
100
AcDbTrace
 10
21.28494598552336
 20
38.21324159539062
 30
0.0
 11
21.28494598552336
 21
39.31390826205729
 31
0.0
 12
24.58694598552336
 22
38.76357492872395
 32
0.0
 13
24.58694598552336
 23
38.76357492872395
 33
0.0
  0
SOLID
  5
E9
330
E2
100
AcDbEntity
  8
치수문자_일반주서
 62
     0
100
AcDbTrace
 10
-32.43605401447663
 20
39.31390826205729
 30
0.0
 11
-32.43605401447663
 21
38.21324159539062
 31
0.0
 12
-35.73805401447663
 22
38.76357492872395
 32
0.0
 13
-35.73805401447663
 23
38.76357492872395
 33
0.0
  0
MTEXT
  5
EA
330
E2
100
AcDbEntity
  8
치수문자_일반주서
 62
     0
100
AcDbMText
 10
-5.575554014476641
 20
43.13857492872395
 30
0.0
 40
3.5
 41
0.0
 71
     2
 72
     1
  1
\A1;60.33 [2 3/8]
  7
SLDTEXTSTYLE0
 73
     1
 44
1.0
  0
POINT
  5
EB
330
E2
100
AcDbEntity
  8
Defpoints
 62
     0
100
AcDbPoint
 10
24.58694598552336
 20
4.274726723198786
 30
0.0
  0
POINT
  5
EC
330
E2
100
AcDbEntity
  8
Defpoints
 62
     0
100
AcDbPoint
 10
-35.73805401447663
 20
3.953574928723891
 30
0.0
  0
POINT
  5
ED
330
E2
100
AcDbEntity
  8
Defpoints
 62
     0
100
AcDbPoint
 10
-35.73805401447663
 20
38.76357492872395
 30
0.0
  0
ENDBLK
  5
E4
330
E2
100
AcDbEntity
  8
0
100
AcDbBlockEnd
  0
BLOCK
  5
F7
330
F6
100
AcDbEntity
  8
0
100
AcDbBlockBegin
  2
_D_2
 70
     0
 10
0.0
 20
0.0
 30
0.0
  3
_D_2
  1
_D_2
  0
LINE
  5
F9
330
F6
100
AcDbEntity
  8
치수문자_일반주서
 62
     0
370
    -2
100
AcDbLine
 10
-34.99055401447663
 20
4.7635749287239
 30
0.0
 11
-48.42805401447666
 21
4.763574928723849
 31
0.0
  0
LINE
  5
FA
330
F6
100
AcDbEntity
  8
치수문자_일반주서
 62
     0
370
    -2
100
AcDbLine
 10
-34.99055401447663
 20
-4.761425071276106
 30
0.0
 11
-48.42805401447662
 21
-4.761425071276157
 31
0.0
  0
LINE
  5
FB
330
F6
100
AcDbEntity
  8
치수문자_일반주서
 62
     0
370
    -2
100
AcDbLine
 10
-48.42805401447664
 20
1.46157492872385
 30
0.0
 11
-48.42805401447664
 21
-1.459425071276157
 31
0.0
  0
SOLID
  5
FC
330
F6
100
AcDbEntity
  8
치수문자_일반주서
 62
     0
100
AcDbTrace
 10
-47.87772068114331
 20
1.461574928723852
 30
0.0
 11
-48.97838734780998
 21
1.461574928723848
 31
0.0
 12
-48.42805401447666
 22
4.763574928723849
 32
0.0
 13
-48.42805401447666
 23
4.763574928723849
 33
0.0
  0
SOLID
  5
FD
330
F6
100
AcDbEntity
  8
치수문자_일반주서
 62
     0
100
AcDbTrace
 10
-48.97838734780997
 20
-1.459425071276159
 30
0.0
 11
-47.8777206811433
 21
-1.459425071276155
 31
0.0
 12
-48.42805401447662
 22
-4.761425071276157
 32
0.0
 13
-48.42805401447662
 23
-4.761425071276157
 33
0.0
  0
MTEXT
  5
FE
330
F6
100
AcDbEntity
  8
치수문자_일반주서
 62
     0
100
AcDbMText
 10
-52.80305401447664
 20
0.001074928723883
 30
0.0
 40
3.5
 41
0.0
 71
     2
 72
     1
  1
\A1;%%c9.53 [3/8]
  7
SLDTEXTSTYLE0
 11
-3.729883127349605E-15
 21
1.0
 31
0.0
 73
     1
 44
1.0
  0
POINT
  5
FF
330
F6
100
AcDbEntity
  8
Defpoints
 62
     0
100
AcDbPoint
 10
-34.92805401447663
 20
4.7635749287239
 30
0.0
  0
POINT
  5
100
330
F6
100
AcDbEntity
  8
Defpoints
 62
     0
100
AcDbPoint
 10
-34.92805401447663
 20
-4.761425071276106
 30
0.0
  0
POINT
  5
101
330
F6
100
AcDbEntity
  8
Defpoints
 62
     0
100
AcDbPoint
 10
-48.42805401447662
 20
-4.761425071276157
 30
0.0
  0
ENDBLK
  5
F8
330
F6
100
AcDbEntity
  8
0
100
AcDbBlockEnd
  0
BLOCK
  5
10B
330
10A
100
AcDbEntity
  8
0
100
AcDbBlockBegin
  2
_D_3
 70
     0
 10
0.0
 20
0.0
 30
0.0
  3
_D_3
  1
_D_3
  0
LINE
  5
10D
330
10A
100
AcDbEntity
  8
치수문자_일반주서
 62
     0
370
    -2
100
AcDbLine
 10
24.64944598552334
 20
2.382324928723897
 30
0.0
 11
42.79319598552344
 21
2.382324928723964
 31
0.0
  0
LINE
  5
10E
330
10A
100
AcDbEntity
  8
치수문자_일반주서
 62
     0
370
    -2
100
AcDbLine
 10
24.64944598552337
 20
-2.380175071276103
 30
0.0
 11
42.79319598552345
 21
-2.380175071276035
 31
0.0
  0
LINE
  5
10F
330
10A
100
AcDbEntity
  8
치수문자_일반주서
 62
     0
370
    -2
100
AcDbLine
 10
42.79319598552344
 20
2.382324928723964
 30
0.0
 11
42.79319598552333
 21
36.98632492872397
 31
0.0
  0
LINE
  5
110
330
10A
100
AcDbEntity
  8
치수문자_일반주서
 62
     0
370
    -2
100
AcDbLine
 10
42.79319598552343
 20
5.684324928723964
 30
0.0
 11
42.79319598552343
 21
8.986324928723963
 31
0.0
  0
LINE
  5
111
330
10A
100
AcDbEntity
  8
치수문자_일반주서
 62
     0
370
    -2
100
AcDbLine
 10
42.79319598552346
 20
-5.682175071276035
 30
0.0
 11
42.79319598552347
 21
-8.984175071276034
 31
0.0
  0
SOLID
  5
112
330
10A
100
AcDbEntity
  8
치수문자_일반주서
 62
     0
100
AcDbTrace
 10
42.2428626521901
 20
5.684324928723962
 30
0.0
 11
43.34352931885677
 21
5.684324928723965
 31
0.0
 12
42.79319598552344
 22
2.382324928723964
 32
0.0
 13
42.79319598552344
 23
2.382324928723964
 33
0.0
  0
SOLID
  5
113
330
10A
100
AcDbEntity
  8
치수문자_일반주서
 62
     0
100
AcDbTrace
 10
43.3435293188568
 20
-5.682175071276033
 30
0.0
 11
42.24286265219013
 21
-5.682175071276037
 31
0.0
 12
42.79319598552345
 22
-2.380175071276035
 32
0.0
 13
42.79319598552345
 23
-2.380175071276035
 33
0.0
  0
MTEXT
  5
114
330
10A
100
AcDbEntity
  8
치수문자_일반주서
 62
     0
100
AcDbMText
 10
38.41819598552338
 20
22.98632492872395
 30
0.0
 40
3.5
 41
0.0
 71
     2
 72
     1
  1
\A1;%%c4.76 [3/16]
  7
SLDTEXTSTYLE0
 11
-2.983906501879686E-15
 21
1.0
 31
0.0
 73
     1
 44
1.0
  0
POINT
  5
115
330
10A
100
AcDbEntity
  8
Defpoints
 62
     0
100
AcDbPoint
 10
24.58694598552334
 20
2.382324928723896
 30
0.0
  0
POINT
  5
116
330
10A
100
AcDbEntity
  8
Defpoints
 62
     0
100
AcDbPoint
 10
24.58694598552337
 20
-2.380175071276103
 30
0.0
  0
POINT
  5
117
330
10A
100
AcDbEntity
  8
Defpoints
 62
     0
100
AcDbPoint
 10
42.79319598552345
 20
-2.380175071276035
 30
0.0
  0
ENDBLK
  5
10C
330
10A
100
AcDbEntity
  8
0
100
AcDbBlockEnd
  0
BLOCK
  5
125
330
124
100
AcDbEntity
  8
0
100
AcDbBlockBegin
  2
SW_DOWELSYMBOL_0
 70
     0
 10
0.0
 20
0.0
 30
0.0
  3
SW_DOWELSYMBOL_0
  1
SW_DOWELSYMBOL_0
  0
CIRCLE
  5
127
330
124
100
AcDbEntity
  8
해칭선
 62
     0
100
AcDbCircle
 10
0.0
 20
0.0
 30
0.0
 40
3.000000000000001
  0
HATCH
  5
128
330
124
100
AcDbEntity
  8
0
  6
Continuous
 62
     0
370
     0
100
AcDbHatch
 10
0.0
 20
0.0
 30
0.0
210
0.0
220
0.0
230
1.0
  2
SOLID
 70
     1
 71
     0
 91
        1
 92
        0
 93
        3
 72
     2
 10
0.0
 20
0.0
 40
3.000000000000001
 50
0.0
 51
90.0
 73
     1
 72
     1
 10
0.0
 20
3.000000000000001
 11
0.0
 21
0.0
 72
     1
 10
0.0
 20
0.0
 11
3.000000000000001
 21
0.0
 97
        0
 75
     0
 76
     1
 98
        1
 10
0.0
 20
0.0
  0
HATCH
  5
129
330
124
100
AcDbEntity
  8
0
  6
Continuous
 62
     0
370
     0
100
AcDbHatch
 10
0.0
 20
0.0
 30
0.0
210
0.0
220
0.0
230
1.0
  2
SOLID
 70
     1
 71
     0
 91
        1
 92
        0
 93
        3
 72
     2
 10
0.0
 20
0.0
 40
3.000000000000001
 50
180.0
 51
270.0000000000007
 73
     1
 72
     1
 10
0.0
 20
-3.000000000000001
 11
0.0
 21
0.0
 72
     1
 10
0.0
 20
0.0
 11
-3.000000000000001
 21
0.0
 97
        0
 75
     0
 76
     1
 98
        1
 10
0.0
 20
0.0
  0
ENDBLK
  5
126
330
124
100
AcDbEntity
  8
0
100
AcDbBlockEnd
  0
BLOCK
  5
1A5
330
1A4
100
AcDbEntity
  8
0
100
AcDbBlockBegin
  2
*D7
 70
     1
 10
0.0
 20
0.0
 30
0.0
  3
*D7
  1
*D8
  0
LINE
  5
1A6
330
1A4
100
AcDbEntity
  8
치수문자_일반주서
 62
     0
370
    -2
100
AcDbLine
 10
75.80250000000005
 20
13.9
 30
0.0
 11
75.80250000000005
 21
30.98111874396379
 31
0.0
  0
LINE
  5
1A7
330
1A4
100
AcDbEntity
  8
치수문자_일반주서
 62
     0
370
    -2
100
AcDbLine
 10
66.27749999999297
 20
13.79242500966126
 30
0.0
 11
66.27749999999297
 21
30.98111874396379
 31
0.0
  0
LINE
  5
1A8
330
1A4
100
AcDbEntity
  8
치수문자_일반주서
 62
     0
370
    -2
100
AcDbLine
 10
66.27749999999297
 20
30.98111874396379
 30
0.0
 11
36.04849999999296
 21
30.98111874396379
 31
0.0
  0
LINE
  5
1A9
330
1A4
100
AcDbEntity
  8
치수문자_일반주서
 62
     0
370
    -2
100
AcDbLine
 10
72.50050000000005
 20
30.98111874396379
 30
0.0
 11
69.57949999999298
 21
30.98111874396379
 31
0.0
  0
SOLID
  5
1AA
330
1A4
100
AcDbEntity
  8
치수문자_일반주서
 62
     0
100
AcDbTrace
 10
72.50050000000005
 20
30.43078541063046
 30
0.0
 11
72.50050000000005
 21
31.53145207729712
 31
0.0
 12
75.80250000000005
 22
30.98111874396379
 32
0.0
 13
75.80250000000005
 23
30.98111874396379
 33
0.0
  0
SOLID
  5
1AB
330
1A4
100
AcDbEntity
  8
치수문자_일반주서
 62
     0
100
AcDbTrace
 10
69.57949999999298
 20
31.53145207729712
 30
0.0
 11
69.57949999999298
 21
30.43078541063046
 31
0.0
 12
66.27749999999297
 22
30.98111874396379
 32
0.0
 13
66.27749999999297
 23
30.98111874396379
 33
0.0
  0
MTEXT
  5
1AC
330
1A4
100
AcDbEntity
  8
치수문자_일반주서
 62
     0
100
AcDbMText
 10
47.86099999999296
 20
35.35611874396379
 30
0.0
 40
3.5
 41
0.0
 71
     2
 72
     1
  1
\A1;9.53 [3/8]
  7
SLDTEXTSTYLE0
 73
     1
 44
1.0
  0
POINT
  5
1AD
330
1A4
100
AcDbEntity
  8
Defpoints
 62
     0
100
AcDbPoint
 10
75.80250000000005
 20
13.8375
 30
0.0
  0
POINT
  5
1AE
330
1A4
100
AcDbEntity
  8
Defpoints
 62
     0
100
AcDbPoint
 10
66.27749999999297
 20
13.72992500966126
 30
0.0
  0
POINT
  5
1AF
330
1A4
100
AcDbEntity
  8
Defpoints
 62
     0
100
AcDbPoint
 10
66.27749999999297
 20
30.98111874396379
 30
0.0
  0
ENDBLK
  5
1B2
330
1A4
100
AcDbEntity
  8
0
100
AcDbBlockEnd
  0
BLOCK
  5
1B5
330
1B4
100
AcDbEntity
  8
0
100
AcDbBlockBegin
  2
*D8
 70
     1
 10
0.0
 20
0.0
 30
0.0
  3
*D8
  1
*D9
  0
LINE
  5
1B6
330
1B4
100
AcDbEntity
  8
치수문자_일반주서
 62
     0
370
    -2
100
AcDbLine
 10
75.80250000000008
 20
16.58615179447489
 30
0.0
 11
75.80250000000008
 21
51.01250000000006
 31
0.0
  0
LINE
  5
1B7
330
1B4
100
AcDbEntity
  8
치수문자_일반주서
 62
     0
370
    -2
100
AcDbLine
 10
17.06500000000007
 20
16.26499999999999
 30
0.0
 11
17.06500000000007
 21
51.01250000000006
 31
0.0
  0
LINE
  5
1B8
330
1B4
100
AcDbEntity
  8
치수문자_일반주서
 62
     0
370
    -2
100
AcDbLine
 10
72.50050000000007
 20
51.01250000000006
 30
0.0
 11
20.36700000000007
 21
51.01250000000006
 31
0.0
  0
SOLID
  5
1B9
330
1B4
100
AcDbEntity
  8
치수문자_일반주서
 62
     0
100
AcDbTrace
 10
72.50050000000007
 20
50.46216666666673
 30
0.0
 11
72.50050000000007
 21
51.56283333333339
 31
0.0
 12
75.80250000000008
 22
51.01250000000006
 32
0.0
 13
75.80250000000008
 23
51.01250000000006
 33
0.0
  0
SOLID
  5
1BA
330
1B4
100
AcDbEntity
  8
치수문자_일반주서
 62
     0
100
AcDbTrace
 10
20.36700000000007
 20
51.56283333333339
 30
0.0
 11
20.36700000000007
 21
50.46216666666673
 31
0.0
 12
17.06500000000007
 22
51.01250000000006
 32
0.0
 13
17.06500000000007
 23
51.01250000000006
 33
0.0
  0
MTEXT
  5
1BB
330
1B4
100
AcDbEntity
  8
치수문자_일반주서
 62
     0
100
AcDbMText
 10
46.43375000000007
 20
55.38750000000006
 30
0.0
 40
3.5
 41
0.0
 71
     2
 72
     1
  1
\A1;58.74 [2 5/16]
  7
SLDTEXTSTYLE0
 73
     1
 44
1.0
  0
POINT
  5
1BC
330
1B4
100
AcDbEntity
  8
Defpoints
 62
     0
100
AcDbPoint
 10
75.80250000000008
 20
16.52365179447489
 30
0.0
  0
POINT
  5
1BD
330
1B4
100
AcDbEntity
  8
Defpoints
 62
     0
100
AcDbPoint
 10
17.06500000000007
 20
16.20249999999999
 30
0.0
  0
POINT
  5
1BE
330
1B4
100
AcDbEntity
  8
Defpoints
 62
     0
100
AcDbPoint
 10
17.06500000000007
 20
51.01250000000006
 30
0.0
  0
ENDBLK
  5
1BF
330
1B4
100
AcDbEntity
  8
0
100
AcDbBlockEnd
  0
BLOCK
  5
1C2
330
1C1
100
AcDbEntity
  8
0
100
AcDbBlockBegin
  2
*D9
 70
     1
 10
0.0
 20
0.0
 30
0.0
  3
*D9
  1
*D10
  0
LINE
  5
1C3
330
1C1
100
AcDbEntity
  8
치수문자_일반주서
 62
     0
370
    -2
100
AcDbLine
 10
17.81250000000006
 20
17.0125
 30
0.0
 11
4.375000000000027
 21
17.01249999999995
 31
0.0
  0
LINE
  5
1C4
330
1C1
100
AcDbEntity
  8
치수문자_일반주서
 62
     0
370
    -2
100
AcDbLine
 10
17.81250000000006
 20
7.487499999999997
 30
0.0
 11
4.37500000000006
 21
7.487499999999947
 31
0.0
  0
LINE
  5
1C5
330
1C1
100
AcDbEntity
  8
치수문자_일반주서
 62
     0
370
    -2
100
AcDbLine
 10
4.375000000000038
 20
13.71049999999995
 30
0.0
 11
4.375000000000048
 21
10.78949999999995
 31
0.0
  0
SOLID
  5
1C6
330
1C1
100
AcDbEntity
  8
치수문자_일반주서
 62
     0
100
AcDbTrace
 10
4.925333333333372
 20
13.71049999999996
 30
0.0
 11
3.824666666666705
 21
13.71049999999995
 31
0.0
 12
4.375000000000027
 22
17.01249999999995
 32
0.0
 13
4.375000000000027
 23
17.01249999999995
 33
0.0
  0
SOLID
  5
1C7
330
1C1
100
AcDbEntity
  8
치수문자_일반주서
 62
     0
100
AcDbTrace
 10
3.824666666666715
 20
10.78949999999995
 30
0.0
 11
4.925333333333382
 21
10.78949999999995
 31
0.0
 12
4.37500000000006
 22
7.487499999999947
 32
0.0
 13
4.37500000000006
 23
7.487499999999947
 33
0.0
  0
MTEXT
  5
1C8
330
1C1
100
AcDbEntity
  8
치수문자_일반주서
 62
     0
100
AcDbMText
 10
0.0000000000000426
 20
12.24999999999999
 30
0.0
 40
3.5
 41
0.0
 71
     2
 72
     1
  1
\A1;%%c9.53 [3/8]
  7
SLDTEXTSTYLE0
 11
-3.450141892798385E-15
 21
1.0
 31
0.0
 73
     1
 44
1.0
  0
POINT
  5
1C9
330
1C1
100
AcDbEntity
  8
Defpoints
 62
     0
100
AcDbPoint
 10
17.87500000000006
 20
17.0125
 30
0.0
  0
POINT
  5
1CA
330
1C1
100
AcDbEntity
  8
Defpoints
 62
     0
100
AcDbPoint
 10
17.87500000000006
 20
7.487499999999997
 30
0.0
  0
POINT
  5
1CB
330
1C1
100
AcDbEntity
  8
Defpoints
 62
     0
100
AcDbPoint
 10
4.375000000000057
 20
7.487499999999947
 30
0.0
  0
ENDBLK
  5
1CC
330
1C1
100
AcDbEntity
  8
0
100
AcDbBlockEnd
  0
BLOCK
  5
1CF
330
1CE
100
AcDbEntity
  8
0
100
AcDbBlockBegin
  2
*D10
 70
     1
 10
0.0
 20
0.0
 30
0.0
  3
*D10
  1
*D11
  0
LINE
  5
1D0
330
1CE
100
AcDbEntity
  8
치수문자_일반주서
 62
     0
370
    -2
100
AcDbLine
 10
75.86500000000005
 20
13.8375
 30
0.0
 11
94.80250000000014
 21
13.83750000000007
 31
0.0
  0
LINE
  5
1D1
330
1CE
100
AcDbEntity
  8
치수문자_일반주서
 62
     0
370
    -2
100
AcDbLine
 10
75.86500000000005
 20
10.66249999999999
 30
0.0
 11
94.80250000000015
 21
10.66250000000007
 31
0.0
  0
LINE
  5
1D2
330
1CE
100
AcDbEntity
  8
치수문자_일반주서
 62
     0
370
    -2
100
AcDbLine
 10
94.80250000000014
 20
13.83750000000007
 30
0.0
 11
94.8025
 21
45.81650000000007
 31
0.0
  0
LINE
  5
1D3
330
1CE
100
AcDbEntity
  8
치수문자_일반주서
 62
     0
370
    -2
100
AcDbLine
 10
94.80250000000012
 20
17.13950000000007
 30
0.0
 11
94.80250000000011
 21
20.44150000000007
 31
0.0
  0
LINE
  5
1D4
330
1CE
100
AcDbEntity
  8
치수문자_일반주서
 62
     0
370
    -2
100
AcDbLine
 10
94.80250000000017
 20
7.360500000000066
 30
0.0
 11
94.80250000000018
 21
4.058500000000066
 31
0.0
  0
SOLID
  5
1D5
330
1CE
100
AcDbEntity
  8
치수문자_일반주서
 62
     0
100
AcDbTrace
 10
94.2521666666668
 20
17.13950000000006
 30
0.0
 11
95.35283333333345
 21
17.13950000000007
 31
0.0
 12
94.80250000000014
 22
13.83750000000007
 32
0.0
 13
94.80250000000014
 23
13.83750000000007
 33
0.0
  0
SOLID
  5
1D6
330
1CE
100
AcDbEntity
  8
치수문자_일반주서
 62
     0
100
AcDbTrace
 10
95.35283333333349
 20
7.360500000000068
 30
0.0
 11
94.25216666666684
 21
7.360500000000063
 31
0.0
 12
94.80250000000015
 22
10.66250000000007
 32
0.0
 13
94.80250000000015
 23
10.66250000000007
 33
0.0
  0
MTEXT
  5
1D7
330
1CE
100
AcDbEntity
  8
치수문자_일반주서
 62
     0
100
AcDbMText
 10
90.42750000000005
 20
33.56650000000005
 30
0.0
 40
3.5
 41
0.0
 71
     2
 72
     1
  1
\A1;%%c3.18 [1/8]
  7
SLDTEXTSTYLE0
 11
-4.475859752819528E-15
 21
1.0
 31
0.0
 73
     1
 44
1.0
  0
POINT
  5
1D8
330
1CE
100
AcDbEntity
  8
Defpoints
 62
     0
100
AcDbPoint
 10
75.80250000000005
 20
13.8375
 30
0.0
  0
POINT
  5
1D9
330
1CE
100
AcDbEntity
  8
Defpoints
 62
     0
100
AcDbPoint
 10
75.80250000000005
 20
10.66249999999999
 30
0.0
  0
POINT
  5
1DA
330
1CE
100
AcDbEntity
  8
Defpoints
 62
     0
100
AcDbPoint
 10
94.80250000000005
 20
10.66250000000007
 30
0.0
  0
ENDBLK
  5
1DC
330
1CE
100
AcDbEntity
  8
0
100
AcDbBlockEnd
  0
BLOCK
  5
223
330
222
100
AcDbEntity
  8
0
100
AcDbBlockBegin
  2
*D11
 70
     1
 10
0.0
 20
0.0
 30
0.0
  3
*D11
  1
*D12
  0
LINE
  5
225
330
222
100
AcDbEntity
  8
치수문자_일반주서
 62
     0
370
    -2
100
AcDbLine
 10
120.5764346353992
 20
-23.75884494274922
 30
0.0
 11
120.5764346353992
 21
-6.677726198785422
 31
0.0
  0
LINE
  5
226
330
222
100
AcDbEntity
  8
치수문자_일반주서
 62
     0
370
    -2
100
AcDbLine
 10
111.0514346353921
 20
-23.86641993308795
 30
0.0
 11
111.0514346353921
 21
-6.677726198785422
 31
0.0
  0
LINE
  5
227
330
222
100
AcDbEntity
  8
치수문자_일반주서
 62
     0
370
    -2
100
AcDbLine
 10
111.0514346353921
 20
-6.677726198785422
 30
0.0
 11
80.82243463539209
 21
-6.677726198785422
 31
0.0
  0
LINE
  5
228
330
222
100
AcDbEntity
  8
치수문자_일반주서
 62
     0
370
    -2
100
AcDbLine
 10
117.2744346353992
 20
-6.677726198785422
 30
0.0
 11
114.3534346353921
 21
-6.677726198785422
 31
0.0
  0
SOLID
  5
229
330
222
100
AcDbEntity
  8
치수문자_일반주서
 62
     0
100
AcDbTrace
 10
117.2744346353992
 20
-7.228059532118755
 30
0.0
 11
117.2744346353992
 21
-6.127392865452088
 31
0.0
 12
120.5764346353992
 22
-6.677726198785422
 32
0.0
 13
120.5764346353992
 23
-6.677726198785422
 33
0.0
  0
SOLID
  5
22A
330
222
100
AcDbEntity
  8
치수문자_일반주서
 62
     0
100
AcDbTrace
 10
114.3534346353921
 20
-6.127392865452088
 30
0.0
 11
114.3534346353921
 21
-7.228059532118755
 31
0.0
 12
111.0514346353921
 22
-6.677726198785422
 32
0.0
 13
111.0514346353921
 23
-6.677726198785422
 33
0.0
  0
MTEXT
  5
22B
330
222
100
AcDbEntity
  8
치수문자_일반주서
 62
     0
100
AcDbMText
 10
92.63493463539209
 20
-2.302726198785422
 30
0.0
 40
3.5
 41
0.0
 71
     2
 72
     1
  1
\A1;9.53 [3/8]
  7
SLDTEXTSTYLE0
 73
     1
 44
1.0
  0
POINT
  5
22C
330
222
100
AcDbEntity
  8
Defpoints
 62
     0
100
AcDbPoint
 10
120.5764346353992
 20
-23.82134494274922
 30
0.0
  0
POINT
  5
22D
330
222
100
AcDbEntity
  8
Defpoints
 62
     0
100
AcDbPoint
 10
111.0514346353921
 20
-23.92891993308795
 30
0.0
  0
POINT
  5
22E
330
222
100
AcDbEntity
  8
Defpoints
 62
     0
100
AcDbPoint
 10
111.0514346353921
 20
-6.677726198785422
 30
0.0
  0
ENDBLK
  5
224
330
222
100
AcDbEntity
  8
0
100
AcDbBlockEnd
  0
BLOCK
  5
230
330
22F
100
AcDbEntity
  8
0
100
AcDbBlockBegin
  2
*D12
 70
     1
 10
0.0
 20
0.0
 30
0.0
  3
*D12
  1
*D13
  0
LINE
  5
232
330
22F
100
AcDbEntity
  8
치수문자_일반주서
 62
     0
370
    -2
100
AcDbLine
 10
120.5764346353992
 20
-21.07269314827433
 30
0.0
 11
120.5764346353992
 21
13.35365505725085
 31
0.0
  0
LINE
  5
233
330
22F
100
AcDbEntity
  8
치수문자_일반주서
 62
     0
370
    -2
100
AcDbLine
 10
61.8389346353992
 20
-21.39384494274922
 30
0.0
 11
61.8389346353992
 21
13.35365505725085
 31
0.0
  0
LINE
  5
234
330
22F
100
AcDbEntity
  8
치수문자_일반주서
 62
     0
370
    -2
100
AcDbLine
 10
117.2744346353992
 20
13.35365505725085
 30
0.0
 11
65.14093463539919
 21
13.35365505725085
 31
0.0
  0
SOLID
  5
235
330
22F
100
AcDbEntity
  8
치수문자_일반주서
 62
     0
100
AcDbTrace
 10
117.2744346353992
 20
12.80332172391751
 30
0.0
 11
117.2744346353992
 21
13.90398839058418
 31
0.0
 12
120.5764346353992
 22
13.35365505725085
 32
0.0
 13
120.5764346353992
 23
13.35365505725085
 33
0.0
  0
SOLID
  5
236
330
22F
100
AcDbEntity
  8
치수문자_일반주서
 62
     0
100
AcDbTrace
 10
65.14093463539919
 20
13.90398839058418
 30
0.0
 11
65.14093463539919
 21
12.80332172391751
 31
0.0
 12
61.8389346353992
 22
13.35365505725085
 32
0.0
 13
61.8389346353992
 23
13.35365505725085
 33
0.0
  0
MTEXT
  5
237
330
22F
100
AcDbEntity
  8
치수문자_일반주서
 62
     0
100
AcDbMText
 10
91.2076846353992
 20
17.72865505725085
 30
0.0
 40
3.5
 41
0.0
 71
     2
 72
     1
  1
\A1;58.74 [2 5/16]
  7
SLDTEXTSTYLE0
 73
     1
 44
1.0
  0
POINT
  5
238
330
22F
100
AcDbEntity
  8
Defpoints
 62
     0
100
AcDbPoint
 10
120.5764346353992
 20
-21.13519314827433
 30
0.0
  0
POINT
  5
239
330
22F
100
AcDbEntity
  8
Defpoints
 62
     0
100
AcDbPoint
 10
61.8389346353992
 20
-21.45634494274922
 30
0.0
  0
POINT
  5
23A
330
22F
100
AcDbEntity
  8
Defpoints
 62
     0
100
AcDbPoint
 10
61.8389346353992
 20
13.35365505725085
 30
0.0
  0
ENDBLK
  5
231
330
22F
100
AcDbEntity
  8
0
100
AcDbBlockEnd
  0
BLOCK
  5
23C
330
23B
100
AcDbEntity
  8
0
100
AcDbBlockBegin
  2
*D13
 70
     1
 10
0.0
 20
0.0
 30
0.0
  3
*D13
  1
*D14
  0
LINE
  5
23E
330
23B
100
AcDbEntity
  8
치수문자_일반주서
 62
     0
370
    -2
100
AcDbLine
 10
62.58643463539919
 20
-20.64634494274921
 30
0.0
 11
49.14893463539916
 21
-20.64634494274926
 31
0.0
  0
LINE
  5
23F
330
23B
100
AcDbEntity
  8
치수문자_일반주서
 62
     0
370
    -2
100
AcDbLine
 10
62.58643463539919
 20
-30.17134494274922
 30
0.0
 11
49.14893463539919
 21
-30.17134494274926
 31
0.0
  0
LINE
  5
240
330
23B
100
AcDbEntity
  8
치수문자_일반주서
 62
     0
370
    -2
100
AcDbLine
 10
49.14893463539917
 20
-23.94834494274926
 30
0.0
 11
49.14893463539918
 21
-26.86934494274927
 31
0.0
  0
SOLID
  5
241
330
23B
100
AcDbEntity
  8
치수문자_일반주서
 62
     0
100
AcDbTrace
 10
49.69926796873251
 20
-23.94834494274926
 30
0.0
 11
48.59860130206584
 21
-23.94834494274926
 31
0.0
 12
49.14893463539916
 22
-20.64634494274926
 32
0.0
 13
49.14893463539916
 23
-20.64634494274926
 33
0.0
  0
SOLID
  5
242
330
23B
100
AcDbEntity
  8
치수문자_일반주서
 62
     0
100
AcDbTrace
 10
48.59860130206584
 20
-26.86934494274927
 30
0.0
 11
49.69926796873251
 21
-26.86934494274926
 31
0.0
 12
49.14893463539919
 22
-30.17134494274926
 32
0.0
 13
49.14893463539919
 23
-30.17134494274926
 33
0.0
  0
MTEXT
  5
243
330
23B
100
AcDbEntity
  8
치수문자_일반주서
 62
     0
100
AcDbMText
 10
44.77393463539917
 20
-25.40884494274923
 30
0.0
 40
3.5
 41
0.0
 71
     2
 72
     1
  1
\A1;%%c9.53 [3/8]
  7
SLDTEXTSTYLE0
 11
-3.729883127349605E-15
 21
1.0
 31
0.0
 73
     1
 44
1.0
  0
POINT
  5
244
330
23B
100
AcDbEntity
  8
Defpoints
 62
     0
100
AcDbPoint
 10
62.64893463539919
 20
-20.64634494274921
 30
0.0
  0
POINT
  5
245
330
23B
100
AcDbEntity
  8
Defpoints
 62
     0
100
AcDbPoint
 10
62.64893463539919
 20
-30.17134494274922
 30
0.0
  0
POINT
  5
246
330
23B
100
AcDbEntity
  8
Defpoints
 62
     0
100
AcDbPoint
 10
49.14893463539919
 20
-30.17134494274926
 30
0.0
  0
ENDBLK
  5
23D
330
23B
100
AcDbEntity
  8
0
100
AcDbBlockEnd
  0
BLOCK
  5
248
330
247
100
AcDbEntity
  8
0
100
AcDbBlockBegin
  2
*D14
 70
     1
 10
0.0
 20
0.0
 30
0.0
  3
*D14
  1
*D15
  0
LINE
  5
24A
330
247
100
AcDbEntity
  8
치수문자_일반주서
 62
     0
370
    -2
100
AcDbLine
 10
120.6389346353992
 20
-23.82134494274922
 30
0.0
 11
139.5764346353992
 21
-23.82134494274915
 31
0.0
  0
LINE
  5
24B
330
247
100
AcDbEntity
  8
치수문자_일반주서
 62
     0
370
    -2
100
AcDbLine
 10
120.6389346353992
 20
-26.99634494274922
 30
0.0
 11
139.5764346353992
 21
-26.99634494274915
 31
0.0
  0
LINE
  5
24C
330
247
100
AcDbEntity
  8
치수문자_일반주서
 62
     0
370
    -2
100
AcDbLine
 10
139.5764346353992
 20
-23.82134494274915
 30
0.0
 11
139.5764346353992
 21
8.157655057250857
 31
0.0
  0
LINE
  5
24D
330
247
100
AcDbEntity
  8
치수문자_일반주서
 62
     0
370
    -2
100
AcDbLine
 10
139.5764346353992
 20
-20.51934494274915
 30
0.0
 11
139.5764346353992
 21
-17.21734494274915
 31
0.0
  0
LINE
  5
24E
330
247
100
AcDbEntity
  8
치수문자_일반주서
 62
     0
370
    -2
100
AcDbLine
 10
139.5764346353992
 20
-30.29834494274915
 30
0.0
 11
139.5764346353992
 21
-33.60034494274915
 31
0.0
  0
SOLID
  5
24F
330
247
100
AcDbEntity
  8
치수문자_일반주서
 62
     0
100
AcDbTrace
 10
139.0261013020659
 20
-20.51934494274915
 30
0.0
 11
140.1267679687325
 21
-20.51934494274915
 31
0.0
 12
139.5764346353992
 22
-23.82134494274915
 32
0.0
 13
139.5764346353992
 23
-23.82134494274915
 33
0.0
  0
SOLID
  5
250
330
247
100
AcDbEntity
  8
치수문자_일반주서
 62
     0
100
AcDbTrace
 10
140.1267679687325
 20
-30.29834494274915
 30
0.0
 11
139.0261013020659
 21
-30.29834494274915
 31
0.0
 12
139.5764346353992
 22
-26.99634494274915
 32
0.0
 13
139.5764346353992
 23
-26.99634494274915
 33
0.0
  0
MTEXT
  5
251
330
247
100
AcDbEntity
  8
치수문자_일반주서
 62
     0
100
AcDbMText
 10
135.2014346353992
 20
-4.092344942749143
 30
0.0
 40
3.5
 41
0.0
 71
     2
 72
     1
  1
\A1;%%c3.18 [1/8]
  7
SLDTEXTSTYLE0
 11
0.0
 21
1.0
 31
0.0
 73
     1
 44
1.0
  0
POINT
  5
252
330
247
100
AcDbEntity
  8
Defpoints
 62
     0
100
AcDbPoint
 10
120.5764346353992
 20
-23.82134494274922
 30
0.0
  0
POINT
  5
253
330
247
100
AcDbEntity
  8
Defpoints
 62
     0
100
AcDbPoint
 10
120.5764346353992
 20
-26.99634494274922
 30
0.0
  0
POINT
  5
254
330
247
100
AcDbEntity
  8
Defpoints
 62
     0
100
AcDbPoint
 10
139.5764346353993
 20
-26.99634494274915
 30
0.0
  0
ENDBLK
  5
249
330
247
100
AcDbEntity
  8
0
100
AcDbBlockEnd
  0
ENDSEC
  0
SECTION
  2
ENTITIES
  0
LINE
  5
96
330
1F
100
AcDbEntity
  8
외형선
  6
Continuous
370
    15
100
AcDbLine
 10
2.000000000000005
 20
-4.761425071276103
 30
0.0
 11
10.88694598552337
 21
-2.380175071276104
 31
0.0
  0
LINE
  5
97
330
1F
100
AcDbEntity
  8
외형선
  6
Continuous
370
    15
100
AcDbLine
 10
10.88694598552337
 20
2.382324928723897
 30
0.0
 11
2.000000000000005
 21
4.763574928723896
 31
0.0
  0
LINE
  5
98
330
1F
100
AcDbEntity
  8
외형선
  6
Continuous
370
    15
100
AcDbLine
 10
2.000000000000005
 20
4.763574928723895
 30
0.0
 11
-10.1831040144765
 21
4.763574928723894
 31
0.0
  0
LINE
  5
99
330
1F
100
AcDbEntity
  8
외형선
  6
Continuous
370
    15
100
AcDbLine
 10
-34.92805401447663
 20
-4.761425071276109
 30
0.0
 11
2.000000000000005
 21
-4.761425071276103
 31
0.0
  0
LINE
  5
9A
330
1F
100
AcDbEntity
  8
외형선
  6
Continuous
370
    15
100
AcDbLine
 10
-34.92805401447663
 20
4.763574928723889
 30
0.0
 11
-35.73805401447663
 21
3.95357492872389
 31
0.0
  0
LINE
  5
9B
330
1F
100
AcDbEntity
  8
외형선
  6
Continuous
370
    15
100
AcDbLine
 10
-35.73805401447663
 20
-3.951425071276111
 30
0.0
 11
-34.92805401447663
 21
-4.761425071276109
 31
0.0
  0
LINE
  5
9C
330
1F
100
AcDbEntity
  8
외형선
  6
Continuous
370
    15
100
AcDbLine
 10
11.88694598552337
 20
2.382324928723897
 30
0.0
 11
10.88694598552337
 21
2.382324928723897
 31
0.0
  0
LINE
  5
9D
330
1F
100
AcDbEntity
  8
외형선
  6
Continuous
370
    15
100
AcDbLine
 10
10.88694598552337
 20
-2.380175071276104
 30
0.0
 11
11.88694598552337
 21
-2.380175071276104
 31
0.0
  0
LINE
  5
9E
330
1F
100
AcDbEntity
  8
0
  6
Continuous
 62
     1
370
    15
100
AcDbLine
 10
21.72903368938975
 20
-2.380175071276103
 30
0.0
 11
22.20569598552337
 21
-2.380175071276103
 31
0.0
  0
LINE
  5
9F
330
1F
100
AcDbEntity
  8
0
  6
Continuous
 62
     1
370
    15
100
AcDbLine
 10
13.94824194592936
 20
2.382324928723896
 30
0.0
 11
11.88694598552337
 21
2.382324928723896
 31
0.0
  0
ARC
  5
A0
330
1F
100
AcDbEntity
  8
0
  6
Continuous
 62
     1
370
    15
100
AcDbCircle
 10
22.20569598552337
 20
0.0010749287238966
 30
0.0
 40
2.381250000000001
100
AcDbArc
 50
270.0000000000007
 51
0.0
  0
ARC
  5
A1
330
1F
100
AcDbEntity
  8
0
  6
Continuous
 62
     1
370
    15
100
AcDbCircle
 10
22.20569598552337
 20
0.0010749287238966
 30
0.0
 40
2.381250000000001
100
AcDbArc
 50
0.0
 51
90.0
  0
LINE
  5
A2
330
1F
100
AcDbEntity
  8
0
  6
Continuous
 62
     1
370
    15
100
AcDbLine
 10
11.88694598552337
 20
-2.380175071276103
 30
0.0
 11
13.94824194592936
 21
-2.380175071276103
 31
0.0
  0
LINE
  5
A3
330
1F
100
AcDbEntity
  8
0
  6
Continuous
 62
     1
370
    15
100
AcDbLine
 10
22.20569598552337
 20
2.382324928723896
 30
0.0
 11
21.72903368938975
 21
2.382324928723896
 31
0.0
  0
LINE
  5
A4
330
1F
100
AcDbEntity
  8
외형선
  6
Continuous
370
    15
100
AcDbLine
 10
10.88694598552337
 20
2.382324928723897
 30
0.0
 11
10.88694598552337
 21
-2.380175071276104
 31
0.0
  0
LINE
  5
A5
330
1F
100
AcDbEntity
  8
외형선
  6
Continuous
370
    15
100
AcDbLine
 10
2.000000000000005
 20
4.763574928723896
 30
0.0
 11
2.000000000000005
 21
-4.761425071276104
 31
0.0
  0
LINE
  5
A6
330
1F
100
AcDbEntity
  8
외형선
  6
Continuous
370
    15
100
AcDbLine
 10
-34.92805401447663
 20
4.76357492872389
 30
0.0
 11
-34.92805401447663
 21
-4.761425071276109
 31
0.0
  0
LINE
  5
A7
330
1F
100
AcDbEntity
  8
외형선
  6
Continuous
370
    15
100
AcDbLine
 10
-35.73805401447663
 20
3.953574928723891
 30
0.0
 11
-35.73805401447663
 21
-3.951425071276111
 31
0.0
  0
LINE
  5
A8
330
1F
100
AcDbEntity
  8
외형선
  6
Continuous
370
    15
100
AcDbLine
 10
11.88694598552337
 20
2.382324928723897
 30
0.0
 11
11.88694598552337
 21
1.73461391357981
 31
0.0
  0
SPLINE
  5
A9
330
1F
100
AcDbEntity
  8
외형선
  6
Continuous
370
    15
100
AcDbSpline
210
0.0
220
0.0
230
1.0
 70
     8
 71
     3
 72
    10
 73
     6
 74
     0
 42
0.000000001
 43
0.00000001
 40
0.0
 40
0.0
 40
0.0
 40
0.0
 40
0.5
 40
0.5
 40
1.0
 40
1.0
 40
1.0
 40
1.0
 10
10.99692627725304
 20
2.044154072086971
 30
0.0
 10
11.1461658363574
 20
2.000042009150378
 30
0.0
 10
11.29553140978921
 20
1.951920668908674
 30
0.0
 10
11.59191011999082
 20
1.848554167320926
 30
0.0
 10
11.73841315676945
 20
1.793395756526971
 30
0.0
 10
11.8869459855227
 20
1.734613913580074
 30
0.0
  0
SPLINE
  5
AA
330
1F
100
AcDbEntity
  8
외형선
  6
Continuous
370
    15
100
AcDbSpline
210
0.0
220
0.0
230
1.0
 70
     8
 71
     3
 72
    10
 73
     6
 74
     0
 42
0.000000001
 43
0.00000001
 40
0.0
 40
0.0
 40
0.0
 40
0.0
 40
0.5000000000000001
 40
0.5000000000000001
 40
1.0
 40
1.0
 40
1.0
 40
1.0
 10
11.88694598552337
 20
-2.089209870351049
 30
0.0
 10
11.73840564481246
 20
-2.048137518764656
 30
0.0
 10
11.5918952494626
 20
-2.003205537130824
 30
0.0
 10
11.2955013127807
 20
-1.905412237493383
 30
0.0
 10
11.1461280719652
 20
-1.852578231147235
 30
0.0
 10
10.996880991057
 20
-1.796242685900781
 30
0.0
  0
LINE
  5
AB
330
1F
100
AcDbEntity
  8
외형선
  6
Continuous
370
    15
100
AcDbLine
 10
11.88694598552337
 20
-2.089209870351049
 30
0.0
 11
11.88694598552337
 21
-2.380175071276104
 31
0.0
  0
LINE
  5
AC
330
1F
100
AcDbEntity
  8
외형선
  6
Continuous
370
    15
100
AcDbLine
 10
10.996880991057
 20
-1.796335928855642
 30
0.0
 11
10.996880991057
 21
2.044215218963393
 31
0.0
  0
SPLINE
  5
AD
330
1F
100
AcDbEntity
  8
외형선
  6
Continuous
370
    15
100
AcDbSpline
210
0.0
220
0.0
230
1.0
 70
     8
 71
     3
 72
    10
 73
     6
 74
     0
 42
0.000000001
 43
0.00000001
 40
0.0
 40
0.0
 40
0.0
 40
0.0
 40
0.5
 40
0.5
 40
1.0
 40
1.0
 40
1.0
 40
1.0
 10
11.88694598552338
 20
-0.1003360715712028
 30
0.0
 10
11.73840564481247
 20
-0.0420593240952289
 30
0.0
 10
11.59189524946261
 20
0.0161483260452868
 30
0.0
 10
11.2955013127807
 20
0.1327210018925011
 30
0.0
 10
11.1461280719652
 20
0.1910183668328784
 30
0.0
 10
10.996880991057
 20
0.2488152826755683
 30
0.0
  0
SPLINE
  5
AE
330
1F
100
AcDbEntity
  8
외형선
  6
Continuous
370
    15
100
AcDbSpline
210
0.0
220
0.0
230
1.0
 70
    24
 71
     3
 72
    14
 73
    10
 74
     0
 42
0.000000001
 43
0.00000001
 40
0.0
 40
0.0
 40
0.0
 40
0.0
 40
0.25
 40
0.25
 40
0.4999999999999999
 40
0.4999999999999999
 40
0.75
 40
0.75
 40
1.0
 40
1.0
 40
1.0
 40
1.0
 10
11.88694598552337
 20
1.734613913568097
 30
0.0
 10
11.88694598552337
 20
1.594130211858864
 30
0.0
 10
11.88694598552337
 20
1.427954704892757
 30
0.0
 10
11.88694598552337
 20
1.079226168901073
 30
0.0
 10
11.88694598552337
 20
0.897584306387878
 30
0.0
 10
11.88694598552337
 20
0.5561439744024582
 30
0.0
 10
11.88694598552337
 20
0.3966648226883986
 30
0.0
 10
11.88694598552337
 20
0.1182024210476916
 30
0.0
 10
11.88694598552337
 20
-0.0010561285607704
 30
0.0
 10
11.88694598552337
 20
-0.1003360715711988
 30
0.0
  0
SPLINE
  5
AF
330
1F
100
AcDbEntity
  8
외형선
  6
Continuous
370
    15
100
AcDbSpline
210
0.0
220
0.0
230
1.0
 70
    24
 71
     3
 72
    14
 73
    10
 74
     0
 42
0.000000001
 43
0.00000001
 40
0.0
 40
0.0
 40
0.0
 40
0.0
 40
0.2500000000000001
 40
0.2500000000000001
 40
0.5000000000000001
 40
0.5000000000000001
 40
0.75
 40
0.75
 40
1.0
 40
1.0
 40
1.0
 40
1.0
 10
11.88694598552337
 20
-0.1003360715711994
 30
0.0
 10
11.88694598552337
 20
-0.1815375218652768
 30
0.0
 10
11.88694598552337
 20
-0.286684039092724
 30
0.0
 10
11.88694598552337
 20
-0.55307048125061
 30
0.0
 10
11.88694598552337
 20
-0.7148429695101777
 30
0.0
 10
11.88694598552337
 20
-1.082365913981989
 30
0.0
 10
11.88694598552337
 20
-1.287929189487697
 30
0.0
 10
11.88694598552337
 20
-1.700930541686274
 30
0.0
 10
11.88694598552337
 20
-1.907142011182235
 30
0.0
 10
11.88694598552337
 20
-2.089209870336877
 30
0.0
  0
SPLINE
  5
B0
330
1F
100
AcDbEntity
  8
0
  6
Continuous
 62
     1
370
    15
100
AcDbSpline
210
0.0
220
0.0
230
1.0
 70
     8
 71
     3
 72
    16
 73
    12
 74
     0
 42
0.000000001
 43
0.00000001
 40
0.0
 40
0.0
 40
0.0
 40
0.0
 40
0.1167481747379806
 40
0.2333354392445626
 40
0.3498463467245365
 40
0.466369836176011
 40
0.582994685912556
 40
0.6997696019205227
 40
0.8097564029566963
 40
0.9195916833359935
 40
1.0
 40
1.0
 40
1.0
 40
1.0
 10
22.20569598552337
 20
-0.9944176753662003
 30
0.0
 10
21.88424286931978
 20
-0.8207799364567907
 30
0.0
 10
21.24177968534079
 20
-0.4737437779147836
 30
0.0
 10
20.27888860717049
 20
0.0874281485870648
 30
0.0
 10
19.31671830806484
 20
0.6398394912614339
 30
0.0
 10
18.35442092751387
 20
1.158740582703904
 30
0.0
 10
17.39126410578067
 20
1.614354786164437
 30
0.0
 10
16.44565740027556
 20
1.97627418145006
 30
0.0
 10
15.51917041635596
 20
2.226889928553442
 30
0.0
 10
14.69307000734226
 20
2.366159950861274
 30
0.0
 10
14.16952384932315
 20
2.369583717313767
 30
0.0
 10
13.94824194592936
 20
2.371030805685594
 30
0.0
  0
SPLINE
  5
B1
330
1F
100
AcDbEntity
  8
0
  6
Continuous
 62
     1
370
    15
100
AcDbSpline
210
0.0
220
0.0
230
1.0
 70
     8
 71
     3
 72
    14
 73
    10
 74
     0
 42
0.000000001
 43
0.00000001
 40
0.0
 40
0.0
 40
0.0
 40
0.0
 40
0.1407348425340008
 40
0.2816418991810299
 40
0.4227963415277119
 40
0.5962190249750448
 40
0.7696313596818254
 40
0.9430344854570909
 40
1.0
 40
1.0
 40
1.0
 40
1.0
 10
23.94946887181733
 20
0.2506512415165214
 30
0.0
 10
23.64317640686628
 20
0.3685524494699595
 30
0.0
 10
23.03021667365159
 20
0.6044991384764253
 30
0.0
 10
22.10994341334794
 20
0.9253140257204663
 30
0.0
 10
21.11827202975115
 20
1.221512969327341
 30
0.0
 10
20.05594023414948
 20
1.464788229794996
 30
0.0
 10
18.92337880338918
 20
1.605912486939073
 30
0.0
 10
18.04435586087796
 20
1.646268346114775
 30
0.0
 10
17.54284994828951
 20
1.598693257990794
 30
0.0
 10
17.41883765947513
 20
1.586928899045655
 30
0.0
  0
SPLINE
  5
B2
330
1F
100
AcDbEntity
  8
0
  6
Continuous
 62
     1
370
    15
100
AcDbSpline
210
0.0
220
0.0
230
1.0
 70
     8
 71
     3
 72
    22
 73
    18
 74
     0
 42
0.000000001
 43
0.00000001
 40
0.0
 40
0.0
 40
0.0
 40
0.0
 40
0.125
 40
0.125
 40
0.25
 40
0.25
 40
0.375
 40
0.375
 40
0.5
 40
0.5
 40
0.625
 40
0.625
 40
0.75
 40
0.75
 40
0.875
 40
0.875
 40
1.0
 40
1.0
 40
1.0
 40
1.0
 10
22.20569598552337
 20
-0.9944176753654905
 30
0.0
 10
22.33775812831755
 20
-1.064095300975351
 30
0.0
 10
22.46784592160498
 20
-1.126337278868477
 30
0.0
 10
22.72761972493873
 20
-1.230924398438737
 30
0.0
 10
22.85864748066647
 20
-1.273745569773303
 30
0.0
 10
23.11727621428277
 20
-1.32881168854465
 30
0.0
 10
23.24399574759011
 20
-1.341440307841
 30
0.0
 10
23.49783701347384
 20
-1.323114325829862
 30
0.0
 10
23.62163885444335
 20
-1.291648161581069
 30
0.0
 10
23.85512147572602
 20
-1.165383544634397
 30
0.0
 10
23.96369256352185
 20
-1.06965187505711
 30
0.0
 10
24.12878056094909
 20
-0.8154419701704327
 30
0.0
 10
24.17847565543612
 20
-0.6648075519086001
 30
0.0
 10
24.20355224662012
 20
-0.3702915757258171
 30
0.0
 10
24.18093142095586
 20
-0.2315040009134856
 30
0.0
 10
24.09345545339493
 20
0.0226959123909681
 30
0.0
 10
24.02866714248047
 20
0.1394150013040678
 30
0.0
 10
23.94946887181379
 20
0.2506512415178933
 30
0.0
  0
SPLINE
  5
B3
330
1F
100
AcDbEntity
  8
0
  6
Continuous
 62
     1
370
    15
100
AcDbSpline
210
0.0
220
0.0
230
1.0
 70
     8
 71
     3
 72
    13
 73
     9
 74
     0
 42
0.000000001
 43
0.00000001
 40
0.0
 40
0.0
 40
0.0
 40
0.0
 40
0.0801621260563764
 40
0.2566034773302253
 40
0.433037793513444
 40
0.6094662490304058
 40
0.8047422227196601
 40
0.9999999999999999
 40
0.9999999999999999
 40
0.9999999999999999
 40
0.9999999999999999
 10
18.30537021753229
 20
-1.603559201626822
 30
0.0
 10
18.13387151597288
 20
-1.610136416117414
 30
0.0
 10
17.584894519694
 20
-1.631190449891988
 30
0.0
 10
16.6584634484287
 20
-1.536412323213256
 30
0.0
 10
15.52606849550057
 20
-1.330914111286406
 30
0.0
 10
14.35344783100229
 20
-1.007543690268771
 30
0.0
 10
13.14029786174641
 20
-0.5894870636556464
 30
0.0
 10
12.30471696666505
 20
-0.2633813374428713
 30
0.0
 10
11.88694598552338
 20
-0.1003360715712028
 30
0.0
  0
SPLINE
  5
B4
330
1F
100
AcDbEntity
  8
외형선
  6
Continuous
370
    15
100
AcDbSpline
210
0.0
220
0.0
230
1.0
 70
    24
 71
     3
 72
    14
 73
    10
 74
     0
 42
0.000000001
 43
0.00000001
 40
0.0
 40
0.0
 40
0.0
 40
0.0
 40
0.25
 40
0.25
 40
0.4999999999999999
 40
0.4999999999999999
 40
0.75
 40
0.75
 40
1.0
 40
1.0
 40
1.0
 40
1.0
 10
11.88694598552337
 20
1.734613913568096
 30
0.0
 10
11.88694598552337
 20
1.594130211858863
 30
0.0
 10
11.88694598552337
 20
1.427954704892756
 30
0.0
 10
11.88694598552337
 20
1.079226168901072
 30
0.0
 10
11.88694598552337
 20
0.8975843063878778
 30
0.0
 10
11.88694598552337
 20
0.556143974402458
 30
0.0
 10
11.88694598552337
 20
0.3966648226883985
 30
0.0
 10
11.88694598552337
 20
0.1182024210476917
 30
0.0
 10
11.88694598552337
 20
-0.0010561285607704
 30
0.0
 10
11.88694598552337
 20
-0.1003360715711988
 30
0.0
  0
SPLINE
  5
B5
330
1F
100
AcDbEntity
  8
0
  6
Continuous
 62
     1
370
    15
100
AcDbSpline
210
0.0
220
0.0
230
1.0
 70
     8
 71
     3
 72
    21
 73
    17
 74
     0
 42
0.000000001
 43
0.00000001
 40
0.0
 40
0.0
 40
0.0
 40
0.0
 40
0.0851312082467891
 40
0.1711478189924704
 40
0.2407589684917154
 40
0.3108515805931062
 40
0.3802880827264092
 40
0.4502045598072548
 40
0.5196118830246349
 40
0.5895010955296824
 40
0.6589077796636645
 40
0.7287943817785847
 40
0.798200777293723
 40
0.8680853769427994
 40
0.9577320081233837
 40
1.0
 40
1.0
 40
1.0
 40
1.0
 10
11.88694598552337
 20
1.734613913585476
 30
0.0
 10
12.16636144602414
 20
1.617296482025172
 30
0.0
 10
12.728098412318
 20
1.381441465341537
 30
0.0
 10
13.51827487688034
 20
0.9776594077524825
 30
0.0
 10
14.25790634371317
 20
0.5705185084020986
 30
0.0
 10
14.94495235772077
 20
0.1793337913620758
 30
0.0
 10
15.63126675283427
 20
-0.219963794096193
 30
0.0
 10
16.31648158507511
 20
-0.6100053472975653
 30
0.0
 10
17.00288981161626
 20
-0.9845480488318952
 30
0.0
 10
17.68693887995109
 20
-1.33199256016975
 30
0.0
 10
18.37407756535745
 20
-1.641473588994046
 30
0.0
 10
19.0577675103685
 20
-1.907051862145437
 30
0.0
 10
19.74480319665486
 20
-2.119768539495714
 30
0.0
 10
20.49531704173526
 20
-2.285392971688796
 30
0.0
 10
21.15733643823036
 20
-2.378652667608514
 30
0.0
 10
21.59030288220173
 20
-2.369322845237527
 30
0.0
 10
21.72903368938975
 20
-2.366333390035004
 30
0.0
  0
SPLINE
  5
B6
330
1F
100
AcDbEntity
  8
0
  6
Continuous
 62
     1
370
    15
100
AcDbSpline
210
0.0
220
0.0
230
1.0
 70
     8
 71
     3
 72
    10
 73
     6
 74
     0
 42
0.000000001
 43
0.00000001
 40
0.0
 40
0.0
 40
0.0
 40
0.0
 40
0.5
 40
0.5
 40
1.0
 40
1.0
 40
1.0
 40
1.0
 10
23.94946887181379
 20
0.2506512415178956
 30
0.0
 10
24.00422166689675
 20
0.2836995449198281
 30
0.0
 10
24.04793451241122
 20
0.3339407948784601
 30
0.0
 10
24.10640466886888
 20
0.4612949254338954
 30
0.0
 10
24.12088864805208
 20
0.5380109955537083
 30
0.0
 10
24.12223523059136
 20
0.6177974049443744
 30
0.0
  0
ARC
  5
B7
330
1F
100
AcDbEntity
  8
0
  6
Continuous
 62
     1
370
    15
100
AcDbCircle
 10
23.44767116903014
 20
-0.4128671051442358
 30
0.0
 40
1.23178975702277
100
AcDbArc
 50
23.84128576077714
 51
56.79548103001414
  0
ARC
  5
B8
330
1F
100
AcDbEntity
  8
0
  6
Continuous
 62
     1
370
    15
100
AcDbCircle
 10
22.44530959193058
 20
0.0452474035278108
 30
0.0
 40
2.129412657004809
100
AcDbArc
 50
1.070428387799885
 51
71.14416676675758
  0
SPLINE
  5
B9
330
1F
100
AcDbEntity
  8
0
  6
Continuous
 62
     1
370
    15
100
AcDbSpline
210
0.0
220
0.0
230
1.0
 70
     8
 71
     3
 72
    10
 73
     6
 74
     0
 42
0.000000001
 43
0.00000001
 40
0.0
 40
0.0
 40
0.0
 40
0.0
 40
0.5
 40
0.5
 40
1.0
 40
1.0
 40
1.0
 40
1.0
 10
23.13351026706637
 20
2.060384643160616
 30
0.0
 10
22.98609208932124
 20
2.150276875329519
 30
0.0
 10
22.83421883973369
 20
2.220870080739575
 30
0.0
 10
22.52450914226488
 20
2.323585909680053
 30
0.0
 10
22.36516537902513
 20
2.355809315818659
 30
0.0
 10
22.20569598552205
 20
2.366477176004374
 30
0.0
  0
SPLINE
  5
BA
330
1F
100
AcDbEntity
  8
0
  6
Continuous
 62
     1
370
    15
100
AcDbSpline
210
0.0
220
0.0
230
1.0
 70
     8
 71
     3
 72
    14
 73
    10
 74
     0
 42
0.000000001
 43
0.00000001
 40
0.0
 40
0.0
 40
0.0
 40
0.0
 40
0.0049233101937557
 40
0.1792406455939649
 40
0.3434249305521382
 40
0.5073830310002495
 40
0.6713776065576292
 40
0.8356705887402668
 40
1.0
 40
1.0
 40
1.0
 40
1.0
 10
17.41883765947513
 20
-1.58477904159786
 30
0.0
 10
17.40975920230595
 20
-1.589046863334656
 30
0.0
 10
17.07924406920206
 20
-1.744423448046572
 30
0.0
 10
16.44563155828109
 20
-1.967942746734308
 30
0.0
 10
15.51918375613334
 20
-2.228553899749878
 30
0.0
 10
14.61200456422877
 20
-2.368400951623451
 30
0.0
 10
13.70463390044726
 20
-2.394154249132275
 30
0.0
 10
12.79606444812618
 20
-2.310984133585634
 30
0.0
 10
12.19000786763799
 20
-2.163140087792709
 30
0.0
 10
11.8869459855232
 20
-2.089209870351003
 30
0.0
  0
SPLINE
  5
BB
330
1F
100
AcDbEntity
  8
외형선
  6
Continuous
370
    15
100
AcDbSpline
210
0.0
220
0.0
230
1.0
 70
    24
 71
     3
 72
    14
 73
    10
 74
     0
 42
0.000000001
 43
0.00000001
 40
0.0
 40
0.0
 40
0.0
 40
0.0
 40
0.2500000000000002
 40
0.2500000000000002
 40
0.5000000000000002
 40
0.5000000000000002
 40
0.7500000000000001
 40
0.7500000000000001
 40
1.0
 40
1.0
 40
1.0
 40
1.0
 10
11.88694598552337
 20
-0.1003360715712
 30
0.0
 10
11.88694598552337
 20
-0.1815375218652772
 30
0.0
 10
11.88694598552337
 20
-0.286684039092725
 30
0.0
 10
11.88694598552337
 20
-0.5530704812506111
 30
0.0
 10
11.88694598552337
 20
-0.714842969510179
 30
0.0
 10
11.88694598552337
 20
-1.08236591398199
 30
0.0
 10
11.88694598552337
 20
-1.287929189487696
 30
0.0
 10
11.88694598552337
 20
-1.700930541686275
 30
0.0
 10
11.88694598552337
 20
-1.907142011182236
 30
0.0
 10
11.88694598552337
 20
-2.089209870336879
 30
0.0
  0
SPLINE
  5
BC
330
1F
100
AcDbEntity
  8
0
  6
Continuous
 62
     1
370
    15
100
AcDbSpline
210
0.0
220
0.0
230
1.0
 70
     8
 71
     3
 72
     8
 73
     4
 74
     0
 42
0.000000001
 43
0.00000001
 40
0.0
 40
0.0
 40
0.0
 40
0.0
 40
1.0
 40
1.0
 40
1.0
 40
1.0
 10
22.64982810872307
 20
1.067049043239838
 30
0.0
 10
23.13392840508629
 20
0.9324899554383059
 30
0.0
 10
23.62749036964414
 20
0.7809094850048648
 30
0.0
 10
24.12223523059136
 20
0.6177974049443927
 30
0.0
  0
SPLINE
  5
BD
330
1F
100
AcDbEntity
  8
0
  6
Continuous
 62
     1
370
    15
100
AcDbSpline
210
0.0
220
0.0
230
1.0
 70
     8
 71
     3
 72
    13
 73
     9
 74
     0
 42
0.000000001
 43
0.00000001
 40
0.0
 40
0.0
 40
0.0
 40
0.0
 40
0.0171246844773395
 40
0.1934767202238578
 40
0.3686170013723887
 40
0.5449639840913254
 40
0.7711785291985082
 40
1.0
 40
1.0
 40
1.0
 40
1.0
 10
18.30537021753228
 20
1.605709059074617
 30
0.0
 10
18.32764577102962
 20
1.615779294522268
 30
0.0
 10
18.57931762154097
 20
1.729554011298613
 30
0.0
 10
19.05772462840801
 20
1.906646661737315
 30
0.0
 10
19.74481589751706
 20
2.122178941838286
 30
0.0
 10
20.49530734076784
 20
2.289202822861836
 30
0.0
 10
21.31618453467004
 20
2.393785016993877
 30
0.0
 10
21.90806186959314
 20
2.375614489642141
 30
0.0
 10
22.20569598552289
 20
2.366477176004318
 30
0.0
  0
SPLINE
  5
BE
330
1F
100
AcDbEntity
  8
0
  6
Continuous
 62
     1
370
    15
100
AcDbSpline
210
0.0
220
0.0
230
1.0
 70
     8
 71
     3
 72
    14
 73
    10
 74
     0
 42
0.000000001
 43
0.00000001
 40
0.0
 40
0.0
 40
0.0
 40
0.0
 40
0.25
 40
0.25
 40
0.5
 40
0.5
 40
0.75
 40
0.75
 40
1.0
 40
1.0
 40
1.0
 40
1.0
 10
23.13351026706637
 20
2.060384643160616
 30
0.0
 10
23.1504002538545
 20
1.960399727108232
 30
0.0
 10
23.15797203980816
 20
1.858582756658649
 30
0.0
 10
23.14312701351746
 20
1.652519988020254
 30
0.0
 10
23.12012716025973
 20
1.550987277143068
 30
0.0
 10
23.03603329864217
 20
1.366313245488075
 30
0.0
 10
22.97463717808737
 20
1.284091095185273
 30
0.0
 10
22.82648005430131
 20
1.152778845605483
 30
0.0
 10
22.73972303723039
 20
1.10280750132538
 30
0.0
 10
22.64982810872421
 20
1.067049043239611
 30
0.0
  0
LINE
  5
BF
330
1F
100
AcDbEntity
  8
중심선
 48
0.8
100
AcDbLine
 10
-38.73805401447662
 20
0.0010749287238888
 30
0.0
 11
27.58694598552337
 21
0.0010749287238969
 31
0.0
  0
LINE
  5
C0
330
1F
100
AcDbEntity
  8
참조1
100
AcDbLine
 10
-2.613238685968824
 20
0.0010749287238892
 30
0.0
 11
-2.613238685968821
 21
-39.99892507127611
 31
0.0
  0
LINE
  5
C1
330
1F
100
AcDbEntity
  8
참조1
100
AcDbLine
 10
27.54926131403117
 20
0.0010749287238892
 30
0.0
 11
27.54926131403117
 21
4.274726723198788
 31
0.0
  0
LINE
  5
C2
330
1F
100
AcDbEntity
  8
참조1
100
AcDbLine
 10
-2.613238685968821
 20
-39.99892507127611
 30
0.0
 11
-20.1533455002775
 21
-39.9989250712761
 31
0.0
  0
CIRCLE
  5
C3
330
1F
100
AcDbEntity
  8
해칭선
100
AcDbCircle
 10
0.0
 20
0.0
 30
0.0
 40
3.000000000000002
  0
INSERT
  5
C4
330
1F
100
AcDbEntity
  8
0
  6
Continuous
 62
     7
100
AcDbBlockReference
 66
     1
  2
블럭10
 10
-19.51582694660183
 20
-52.04609937292004
 30
0.0
  0
ATTRIB
  5
C5
330
C4
100
AcDbEntity
  8
FORMAT
 62
     2
100
AcDbText
 10
-28.69712223534311
 20
-49.97073246008785
 30
0.0
 40
4.233333333333333
  1
E2110012 [ 2 FLUTE ]
 41
0.75
  7
SLDTEXTSTYLE0
 11
-28.69712223534311
 21
-52.08739912675452
 31
0.0
100
AcDbAttribute
  2
AUTOATTR0
 70
     0
 74
     1
  0
SEQEND
  5
C6
330
C4
100
AcDbEntity
  8
0
  6
Continuous
 62
     7
  0
HATCH
  5
C7
330
1F
100
AcDbEntity
  8
중심선
100
AcDbHatch
 10
0.0
 20
0.0
 30
0.0
210
0.0
220
0.0
230
1.0
  2
SOLID
 70
     1
 71
     0
 91
        1
 92
        0
 93
        4
 72
     1
 10
-13.80091764222099
 20
-35.7989250712761
 11
-17.24719288605828
 21
-35.7989250712761
 72
     1
 10
-17.24719288605828
 20
-35.7989250712761
 11
-19.3754227452623
 21
-38.3352506518487
 72
     1
 10
-19.3754227452623
 20
-38.3352506518487
 11
-15.92911441631187
 21
-38.33521122254621
 72
     1
 10
-15.92911441631187
 20
-38.33521122254621
 11
-13.80091764222099
 21
-35.7989250712761
 97
        0
 75
     0
 76
     1
 98
        1
 10
-2.962315328507797
 20
0.0
  0
HATCH
  5
C8
330
1F
100
AcDbEntity
  8
중심선
100
AcDbHatch
 10
0.0
 20
0.0
 30
0.0
210
0.0
220
0.0
230
1.0
  2
SOLID
 70
     1
 71
     0
 91
        1
 92
        0
 93
        4
 72
     1
 10
-8.788153651185016
 20
-35.7989250712761
 11
-12.2344288950223
 21
-35.7989250712761
 72
     1
 10
-12.2344288950223
 20
-35.7989250712761
 11
-16.76556690337971
 21
-41.19892507127612
 72
     1
 10
-16.76556690337971
 20
-41.19892507127612
 11
-13.31929165954243
 21
-41.19892507127612
 72
     1
 10
-13.31929165954243
 20
-41.19892507127612
 11
-8.788153651185016
 21
-35.7989250712761
 97
        0
 75
     0
 76
     1
 98
        1
 10
-2.962315328507797
 20
0.0
  0
HATCH
  5
C9
330
1F
100
AcDbEntity
  8
중심선
100
AcDbHatch
 10
0.0
 20
0.0
 30
0.0
210
0.0
220
0.0
230
1.0
  2
SOLID
 70
     1
 71
     0
 91
        1
 92
        0
 93
        4
 72
     1
 10
-3.775389660149147
 20
-35.7989250712761
 11
-7.221664903986263
 21
-35.7989250712761
 72
     1
 10
-7.221664903986263
 20
-35.7989250712761
 11
-14.27010180587551
 21
-44.19892507127612
 72
     1
 10
-14.27010180587551
 20
-44.19892507127612
 11
-10.82382656203823
 21
-44.19892507127612
 72
     1
 10
-10.82382656203823
 20
-44.19892507127612
 11
-3.775389660149147
 21
-35.7989250712761
 97
        0
 75
     0
 76
     1
 98
        1
 10
-2.962315328507797
 20
0.0
  0
HATCH
  5
CA
330
1F
100
AcDbEntity
  8
중심선
100
AcDbHatch
 10
0.0
 20
0.0
 30
0.0
210
0.0
220
0.0
230
1.0
  2
SOLID
 70
     1
 71
     0
 91
        1
 92
        0
 93
        6
 72
     3
 10
1.024500770863052
 20
-39.99892507132738
 11
3.960054785062284
 21
1.540882976769353E-10
 40
0.3939339440162627
 50
17.09539180608438
 51
320.0019657685086
 73
     0
 72
     1
 10
2.707500426563647
 20
-38.58681907591443
 11
5.012802300264685
 21
-36.65249236586649
 72
     3
 10
1.024500770810205
 20
-39.99892507127625
 11
6.600054785286829
 21
-1.278976924368180E-13
 40
0.636358354079598
 50
39.99873849337411
 51
368.4976242363724
 73
     1
 72
     1
 10
7.449833262710815
 20
-39.03892507120613
 11
-0.2954319223538722
 21
-39.03892507120613
 72
     1
 10
-0.2954319223538722
 20
-39.03892507120613
 11
-0.2954569667998062
 21
-40.95892507120602
 72
     1
 10
-0.2954569667998062
 20
-40.95892507120602
 11
4.145922802672231
 21
-40.95892507120599
 97
        0
 75
     0
 76
     1
 98
        1
 10
-2.962315328507797
 20
0.0
  0
DIMENSION
  5
CB
330
1F
100
AcDbEntity
  8
치수문자_일반주서
100
AcDbDimension
  2
_D
 10
11.88694598552337
 20
15.98042001900794
 30
0.0
 11
-8.862325776371845
 21
15.98042001900794
 31
0.0
 70
   160
  1
<>
 71
     2
 42
12.69999999999997
  3
SLDDIMSTYLE1
100
AcDbAlignedDimension
 13
24.58694598552334
 23
2.382324928723897
 33
0.0
 14
11.88694598552337
 24
2.382324928723895
 34
0.0
100
AcDbRotatedDimension
1001
ACAD
1000
DSTYLE
1002
{
1070
   171
1070
     6
1070
   273
1070
     7
1002
}
  0
DIMENSION
  5
E0
330
1F
100
AcDbEntity
  8
치수문자_일반주서
100
AcDbDimension
  2
_D_1
 10
-35.73805401447663
 20
38.76357492872395
 30
0.0
 11
-5.575554014476641
 21
38.76357492872395
 31
0.0
 70
   160
  1
<>
 71
     2
 42
60.32499999999999
  3
SLDDIMSTYLE1
100
AcDbAlignedDimension
 13
24.58694598552336
 23
4.274726723198786
 33
0.0
 14
-35.73805401447663
 24
3.953574928723891
 34
0.0
100
AcDbRotatedDimension
1001
ACAD
1000
DSTYLE
1002
{
1070
   171
1070
     6
1070
   273
1070
     7
1002
}
  0
DIMENSION
  5
F4
330
1F
100
AcDbEntity
  8
치수문자_일반주서
100
AcDbDimension
  2
_D_2
 10
-48.42805401447662
 20
-4.761425071276157
 30
0.0
 11
-48.42805401447664
 21
0.0010749287238993
 31
0.0
 70
   160
  1
%%c<>
 71
     2
 42
9.525000000000006
 52
-270.0
  3
SLDDIMSTYLE1
100
AcDbAlignedDimension
 13
-34.92805401447663
 23
4.7635749287239
 33
0.0
 14
-34.92805401447663
 24
-4.761425071276106
 34
0.0
 50
90.0000000000002
100
AcDbRotatedDimension
1001
ACAD
1000
DSTYLE
1002
{
1070
   171
1070
     6
1070
   273
1070
     7
1002
}
  0
DIMENSION
  5
109
330
1F
100
AcDbEntity
  8
치수문자_일반주서
100
AcDbDimension
  2
_D_3
 10
42.79319598552345
 20
-2.380175071276035
 30
0.0
 11
42.79319598552338
 21
22.98632492872397
 31
0.0
 70
   160
  1
%%c<>
 71
     2
 42
4.762499999999999
 52
-270.0
  3
SLDDIMSTYLE1
100
AcDbAlignedDimension
 13
24.58694598552334
 23
2.382324928723896
 33
0.0
 14
24.58694598552337
 24
-2.380175071276103
 34
0.0
 50
90.0000000000002
100
AcDbRotatedDimension
1001
ACAD
1000
DSTYLE
1002
{
1070
   171
1070
     6
1070
   273
1070
     7
1002
}
  0
LINE
  5
11D
330
1F
100
AcDbEntity
  8
참조1
100
AcDbLine
 10
77.81899512937676
 20
7.441074928723896
 30
0.0
 11
77.81899512937676
 21
-7.438925071276109
 31
0.0
  0
LINE
  5
11E
330
1F
100
AcDbEntity
  8
참조1
100
AcDbLine
 10
90.51899512937676
 20
5.441074928723896
 30
0.0
 11
77.81899512937676
 21
5.441074928723896
 31
0.0
  0
SOLID
  5
11F
330
1F
100
AcDbEntity
  8
참조1
100
AcDbTrace
 10
77.81899512937676
 20
5.441074928723896
 30
0.0
 11
84.16899512937675
 21
4.425074928723896
 31
0.0
 12
84.16899512937675
 22
6.457074928723896
 32
0.0
 13
84.16899512937675
 23
6.457074928723896
 33
0.0
  0
LINE
  5
120
330
1F
100
AcDbEntity
  8
참조1
100
AcDbLine
 10
90.51899512937676
 20
-5.438925071276109
 30
0.0
 11
77.81899512937676
 21
-5.438925071276109
 31
0.0
  0
SOLID
  5
121
330
1F
100
AcDbEntity
  8
참조1
100
AcDbTrace
 10
77.81899512937676
 20
-5.438925071276109
 30
0.0
 11
84.16899512937675
 21
-6.454925071276109
 31
0.0
 12
84.16899512937675
 22
-4.422925071276109
 32
0.0
 13
84.16899512937675
 23
-4.422925071276109
 33
0.0
  0
MTEXT
  5
122
330
1F
100
AcDbEntity
  8
참조1
100
AcDbMText
 10
87.20334526200276
 20
11.01136670591222
 30
0.0
 40
3.5
 41
0.0
 71
     1
 72
     1
  1
A
  7
SLDTEXTSTYLE0
 73
     1
 44
1.0
  0
MTEXT
  5
123
330
1F
100
AcDbEntity
  8
참조1
100
AcDbMText
 10
87.20334526200276
 20
0.1313667059122192
 30
0.0
 40
3.5
 41
0.0
 71
     1
 72
     1
  1
A
  7
SLDTEXTSTYLE0
 73
     1
 44
1.0
  0
INSERT
  5
12A
330
1F
100
AcDbEntity
  8
해칭선
100
AcDbBlockReference
  2
SW_DOWELSYMBOL_0
 10
0.0
 20
0.0
 30
0.0
  0
LINE
  5
21D
330
1F
100
AcDbEntity
  8
외형선
  6
Continuous
370
    15
100
AcDbLine
 10
-18.59050401447674
 20
3.493574928723902
 30
0.0
 11
-11.45310401447661
 21
3.493574928723902
 31
0.0
  0
LINE
  5
21E
330
1F
100
AcDbEntity
  8
외형선
  6
Continuous
370
    15
100
AcDbLine
 10
-18.59050401447674
 20
3.493574928723902
 30
0.0
 11
-19.86050401447672
 21
4.763574928723884
 31
0.0
  0
LINE
  5
21F
330
1F
100
AcDbEntity
  8
외형선
  6
Continuous
370
    15
100
AcDbLine
 10
-11.45310401447661
 20
3.493574928723902
 30
0.0
 11
-10.18310401447651
 21
4.763574928723884
 31
0.0
  0
LINE
  5
220
330
1F
100
AcDbEntity
  8
외형선
  6
Continuous
370
    15
100
AcDbLine
 10
-19.86050401447672
 20
4.763574928723884
 30
0.0
 11
-34.86555401447661
 21
4.763574928723884
 31
0.0
  0
ENDSEC
  0
SECTION
  2
OBJECTS
  0
DICTIONARY
  5
C
330
0
100
AcDbDictionary
281
     1
  3
ACAD_GROUP
350
D
  3
ACAD_IMAGE_VARS
350
14E
  3
ACAD_LAYOUT
350
1A
  3
ACAD_MLINESTYLE
350
17
  3
ACAD_PLOTSETTINGS
350
19
  3
ACAD_PLOTSTYLENAME
350
E
  3
ACAD_SCALELIST
350
47
  3
APPDATA
350
14C
  3
DWGPROPS
350
27C
  0
DICTIONARY
  5
1E9
330
2
100
AcDbDictionary
280
     1
281
     1
  3
ACAD_LAYERSTATES
360
1EA
  0
DICTIONARY
  5
D
102
{ACAD_REACTORS
330
C
102
}
330
C
100
AcDbDictionary
281
     1
  0
RASTERVARIABLES
  5
14E
102
{ACAD_REACTORS
330
C
102
}
330
C
100
AcDbRasterVariables
 90
        0
 70
     1
 71
     1
 72
     1
  0
DICTIONARY
  5
1A
102
{ACAD_REACTORS
330
C
102
}
330
C
100
AcDbDictionary
281
     1
  3
Layout1
350
1E
  3
Layout2
350
26
  3
Model
350
22
  0
DICTIONARY
  5
17
102
{ACAD_REACTORS
330
C
102
}
330
C
100
AcDbDictionary
281
     1
  3
Standard
350
18
  0
DICTIONARY
  5
19
102
{ACAD_REACTORS
330
C
102
}
330
C
100
AcDbDictionary
281
     1
  0
ACDBDICTIONARYWDFLT
  5
E
102
{ACAD_REACTORS
330
C
102
}
330
C
100
AcDbDictionary
281
     1
  3
Normal
350
F
100
AcDbDictionaryWithDefault
340
F
  0
DICTIONARY
  5
47
102
{ACAD_REACTORS
330
C
102
}
330
C
100
AcDbDictionary
281
     1
  3
A0
350
48
  3
A1
350
49
  3
A2
350
4A
  3
A3
350
4B
  3
A4
350
4C
  3
A5
350
4D
  3
A6
350
4E
  3
A7
350
4F
  3
A8
350
50
  3
A9
350
51
  3
B0
350
52
  3
B1
350
53
  3
B2
350
54
  3
B3
350
55
  3
B4
350
56
  3
B5
350
57
  3
B6
350
58
  3
B7
350
59
  3
B8
350
5A
  3
B9
350
5B
  3
C0
350
5C
  3
C1
350
5D
  3
C2
350
5E
  3
C3
350
5F
  3
C4
350
60
  3
C5
350
61
  3
C6
350
62
  3
C7
350
63
  3
C8
350
64
  3
C9
350
65
  3
D0
350
66
  3
D1
350
67
  3
D2
350
68
  0
DICTIONARY
  5
14C
102
{ACAD_REACTORS
330
C
102
}
330
C
100
AcDbDictionary
281
     1
  0
XRECORD
  5
27C
102
{ACAD_REACTORS
330
C
102
}
330
C
100
AcDbXrecord
280
     1
  1
DWGPROPS COOKIE
  2

  3

  4

  6

  7

  8
12016016
  9

300
=
301
=
302
=
303
=
304
=
305
=
306
=
307
=
308
=
309
=
 40
0.0
 41
2458316.204430139
 42
2458320.364833542
  1

 90
        0
  0
DICTIONARY
  5
1EA
102
{ACAD_REACTORS
330
1E9
102
}
330
1E9
100
AcDbDictionary
281
     1
  0
LAYOUT
  5
1E
102
{ACAD_REACTORS
330
1A
102
}
330
1A
100
AcDbPlotSettings
  1

  2
none_device
  4

  6

 40
0.0
 41
0.0
 42
0.0
 43
0.0
 44
0.0
 45
0.0
 46
0.0
 47
0.0
 48
0.0
 49
0.0
140
0.0
141
0.0
142
1.0
143
1.0
 70
   688
 72
     1
 73
     0
 74
     5
  7

 75
    16
147
1.0
148
0.0
149
0.0
100
AcDbLayout
  1
Layout1
 70
     1
 71
     1
 10
0.0
 20
0.0
 11
420.0
 21
297.0
 12
0.0
 22
0.0
 32
0.0
 14
1.000000000000000E+20
 24
1.000000000000000E+20
 34
1.000000000000000E+20
 15
-1.000000000000000E+20
 25
-1.000000000000000E+20
 35
-1.000000000000000E+20
146
0.0
 13
0.0
 23
0.0
 33
0.0
 16
1.0
 26
0.0
 36
0.0
 17
0.0
 27
1.0
 37
0.0
 76
     0
330
1B
  0
LAYOUT
  5
26
102
{ACAD_REACTORS
330
1A
102
}
330
1A
100
AcDbPlotSettings
  1

  2
none_device
  4

  6

 40
0.0
 41
0.0
 42
0.0
 43
0.0
 44
0.0
 45
0.0
 46
0.0
 47
0.0
 48
0.0
 49
0.0
140
0.0
141
0.0
142
1.0
143
1.0
 70
   688
 72
     1
 73
     0
 74
     5
  7

 75
    16
147
1.0
148
0.0
149
0.0
100
AcDbLayout
  1
Layout2
 70
     1
 71
     2
 10
0.0
 20
0.0
 11
0.0
 21
0.0
 12
0.0
 22
0.0
 32
0.0
 14
0.0
 24
0.0
 34
0.0
 15
0.0
 25
0.0
 35
0.0
146
0.0
 13
0.0
 23
0.0
 33
0.0
 16
1.0
 26
0.0
 36
0.0
 17
0.0
 27
1.0
 37
0.0
 76
     0
330
23
  0
LAYOUT
  5
22
102
{ACAD_REACTORS
330
1A
102
}
330
1A
100
AcDbPlotSettings
  1

  2
none_device
  4
ANSI_A_(11.00_x_8.50_Inches)
  6

 40
6.35
 41
19.05
 42
6.35000508
 43
19.05000254
 44
279.4
 45
215.9
 46
101.0677411447958
 47
89.99136597255686
 48
0.0
 49
0.0
140
0.0
141
0.0
142
0.074193874594394
143
1.0
 70
  1696
 72
     0
 73
     0
 74
     0
  7

 75
     0
147
0.0235690232323232
148
0.0
149
0.0
100
AcDbLayout
  1
Model
 70
     1
 71
     0
 10
0.0
 20
0.0
 11
420.0
 21
297.0
 12
0.0
 22
0.0
 32
0.0
 14
-52.80305401447669
 24
-49.97073246008785
 34
0.0
 15
90.51899512937676
 25
43.13857492872395
 35
0.0
146
0.0
 13
0.0
 23
0.0
 33
0.0
 16
1.0
 26
0.0
 36
0.0
 17
0.0
 27
1.0
 37
0.0
 76
     0
330
1F
331
29
  0
MLINESTYLE
  5
18
102
{ACAD_REACTORS
330
17
102
}
330
17
100
AcDbMlineStyle
  2
Standard
 70
     0
  3

 62
   256
 51
90.0
 52
90.0
 71
     2
 49
0.5
 62
   256
  6
BYLAYER
 49
-0.5
 62
   256
  6
BYLAYER
  0
ACDBPLACEHOLDER
  5
F
102
{ACAD_REACTORS
330
E
102
}
330
E
  0
SCALE
  5
48
102
{ACAD_REACTORS
330
47
102
}
330
47
100
AcDbScale
 70
     0
300
1:1
140
1.0
141
1.0
290
     1
  0
SCALE
  5
49
102
{ACAD_REACTORS
330
47
102
}
330
47
100
AcDbScale
 70
     0
300
1:2
140
1.0
141
2.0
290
     0
  0
SCALE
  5
4A
102
{ACAD_REACTORS
330
47
102
}
330
47
100
AcDbScale
 70
     0
300
1:4
140
1.0
141
4.0
290
     0
  0
SCALE
  5
4B
102
{ACAD_REACTORS
330
47
102
}
330
47
100
AcDbScale
 70
     0
300
1:5
140
1.0
141
5.0
290
     0
  0
SCALE
  5
4C
102
{ACAD_REACTORS
330
47
102
}
330
47
100
AcDbScale
 70
     0
300
1:8
140
1.0
141
8.0
290
     0
  0
SCALE
  5
4D
102
{ACAD_REACTORS
330
47
102
}
330
47
100
AcDbScale
 70
     0
300
1:10
140
1.0
141
10.0
290
     0
  0
SCALE
  5
4E
102
{ACAD_REACTORS
330
47
102
}
330
47
100
AcDbScale
 70
     0
300
1:16
140
1.0
141
16.0
290
     0
  0
SCALE
  5
4F
102
{ACAD_REACTORS
330
47
102
}
330
47
100
AcDbScale
 70
     0
300
1:20
140
1.0
141
20.0
290
     0
  0
SCALE
  5
50
102
{ACAD_REACTORS
330
47
102
}
330
47
100
AcDbScale
 70
     0
300
1:30
140
1.0
141
30.0
290
     0
  0
SCALE
  5
51
102
{ACAD_REACTORS
330
47
102
}
330
47
100
AcDbScale
 70
     0
300
1:40
140
1.0
141
40.0
290
     0
  0
SCALE
  5
52
102
{ACAD_REACTORS
330
47
102
}
330
47
100
AcDbScale
 70
     0
300
1:50
140
1.0
141
50.0
290
     0
  0
SCALE
  5
53
102
{ACAD_REACTORS
330
47
102
}
330
47
100
AcDbScale
 70
     0
300
1:100
140
1.0
141
100.0
290
     0
  0
SCALE
  5
54
102
{ACAD_REACTORS
330
47
102
}
330
47
100
AcDbScale
 70
     0
300
2:1
140
2.0
141
1.0
290
     0
  0
SCALE
  5
55
102
{ACAD_REACTORS
330
47
102
}
330
47
100
AcDbScale
 70
     0
300
4:1
140
4.0
141
1.0
290
     0
  0
SCALE
  5
56
102
{ACAD_REACTORS
330
47
102
}
330
47
100
AcDbScale
 70
     0
300
8:1
140
8.0
141
1.0
290
     0
  0
SCALE
  5
57
102
{ACAD_REACTORS
330
47
102
}
330
47
100
AcDbScale
 70
     0
300
10:1
140
10.0
141
1.0
290
     0
  0
SCALE
  5
58
102
{ACAD_REACTORS
330
47
102
}
330
47
100
AcDbScale
 70
     0
300
100:1
140
100.0
141
1.0
290
     0
  0
SCALE
  5
59
102
{ACAD_REACTORS
330
47
102
}
330
47
100
AcDbScale
 70
     0
300
1/128" = 1'-0"
140
0.0078125
141
12.0
290
     0
  0
SCALE
  5
5A
102
{ACAD_REACTORS
330
47
102
}
330
47
100
AcDbScale
 70
     0
300
1/64" = 1'-0"
140
0.015625
141
12.0
290
     0
  0
SCALE
  5
5B
102
{ACAD_REACTORS
330
47
102
}
330
47
100
AcDbScale
 70
     0
300
1/32" = 1'-0"
140
0.03125
141
12.0
290
     0
  0
SCALE
  5
5C
102
{ACAD_REACTORS
330
47
102
}
330
47
100
AcDbScale
 70
     0
300
1/16" = 1'-0"
140
0.0625
141
12.0
290
     0
  0
SCALE
  5
5D
102
{ACAD_REACTORS
330
47
102
}
330
47
100
AcDbScale
 70
     0
300
3/32" = 1'-0"
140
0.09375
141
12.0
290
     0
  0
SCALE
  5
5E
102
{ACAD_REACTORS
330
47
102
}
330
47
100
AcDbScale
 70
     0
300
1/8" = 1'-0"
140
0.125
141
12.0
290
     0
  0
SCALE
  5
5F
102
{ACAD_REACTORS
330
47
102
}
330
47
100
AcDbScale
 70
     0
300
3/16" = 1'-0"
140
0.1875
141
12.0
290
     0
  0
SCALE
  5
60
102
{ACAD_REACTORS
330
47
102
}
330
47
100
AcDbScale
 70
     0
300
1/4" = 1'-0"
140
0.25
141
12.0
290
     0
  0
SCALE
  5
61
102
{ACAD_REACTORS
330
47
102
}
330
47
100
AcDbScale
 70
     0
300
3/8" = 1'-0"
140
0.375
141
12.0
290
     0
  0
SCALE
  5
62
102
{ACAD_REACTORS
330
47
102
}
330
47
100
AcDbScale
 70
     0
300
1/2" = 1'-0"
140
0.5
141
12.0
290
     0
  0
SCALE
  5
63
102
{ACAD_REACTORS
330
47
102
}
330
47
100
AcDbScale
 70
     0
300
3/4" = 1'-0"
140
0.75
141
12.0
290
     0
  0
SCALE
  5
64
102
{ACAD_REACTORS
330
47
102
}
330
47
100
AcDbScale
 70
     0
300
1" = 1'-0"
140
1.0
141
12.0
290
     0
  0
SCALE
  5
65
102
{ACAD_REACTORS
330
47
102
}
330
47
100
AcDbScale
 70
     0
300
1-1/2" = 1'-0"
140
1.5
141
12.0
290
     0
  0
SCALE
  5
66
102
{ACAD_REACTORS
330
47
102
}
330
47
100
AcDbScale
 70
     0
300
3" = 1'-0"
140
3.0
141
12.0
290
     0
  0
SCALE
  5
67
102
{ACAD_REACTORS
330
47
102
}
330
47
100
AcDbScale
 70
     0
300
6" = 1'-0"
140
6.0
141
12.0
290
     0
  0
SCALE
  5
68
102
{ACAD_REACTORS
330
47
102
}
330
47
100
AcDbScale
 70
     0
300
1'-0" = 1'-0"
140
12.0
141
12.0
290
     0
  0
ENDSEC
  0
EOF
