  0
SECTION
  2
HEADER
  9
$ACADVER
  1
AC1015
  9
$ACADMAINTVER
 70
     6
  9
$DWGCODEPAGE
  3
ANSI_949
  9
$INSBASE
 10
0.0
 20
0.0
 30
0.0
  9
$EXTMIN
 10
-57.67500000000008
 20
-49.97073246008785
 30
0.0
  9
$EXTMAX
 10
90.51899512937676
 20
43.13857492872395
 30
0.0
  9
$LIMMIN
 10
0.0
 20
0.0
  9
$LIMMAX
 10
420.0
 20
297.0
  9
$ORTHOMODE
 70
     1
  9
$REGENMODE
 70
     1
  9
$FILLMODE
 70
     1
  9
$QTEXTMODE
 70
     0
  9
$MIRRTEXT
 70
     1
  9
$LTSCALE
 40
1.0
  9
$ATTMODE
 70
     1
  9
$TEXTSIZE
 40
3.5
  9
$TRACEWID
 40
1.0
  9
$TEXTSTYLE
  7
Standard
  9
$CLAYER
  8
0
  9
$CELTYPE
  6
ByLayer
  9
$CECOLOR
 62
   256
  9
$CELTSCALE
 40
1.0
  9
$DISPSILH
 70
     0
  9
$DIMSCALE
 40
1.0
  9
$DIMASZ
 40
3.302
  9
$DIMEXO
 40
1.0
  9
$DIMDLI
 40
3.75
  9
$DIMRND
 40
0.0
  9
$DIMDLE
 40
0.0
  9
$DIMEXE
 40
1.0
  9
$DIMTP
 40
0.0
  9
$DIMTM
 40
0.0
  9
$DIMTXT
 40
3.5
  9
$DIMCEN
 40
2.5
  9
$DIMTSZ
 40
0.0
  9
$DIMTOL
 70
     0
  9
$DIMLIM
 70
     0
  9
$DIMTIH
 70
     1
  9
$DIMTOH
 70
     1
  9
$DIMSE1
 70
     0
  9
$DIMSE2
 70
     0
  9
$DIMTAD
 70
     1
  9
$DIMZIN
 70
     0
  9
$DIMBLK
  1

  9
$DIMASO
 70
     1
  9
$DIMSHO
 70
     1
  9
$DIMPOST
  1

  9
$DIMAPOST
  1

  9
$DIMALT
 70
     0
  9
$DIMALTD
 70
     3
  9
$DIMALTF
 40
0.0393700787401575
  9
$DIMLFAC
 40
1.0
  9
$DIMTOFL
 70
     1
  9
$DIMTVP
 40
0.0
  9
$DIMTIX
 70
     0
  9
$DIMSOXD
 70
     0
  9
$DIMSAH
 70
     0
  9
$DIMBLK1
  1

  9
$DIMBLK2
  1

  9
$DIMSTYLE
  2
ISO-25
  9
$DIMCLRD
 70
     0
  9
$DIMCLRE
 70
     0
  9
$DIMCLRT
 70
     0
  9
$DIMTFAC
 40
1.0
  9
$DIMGAP
 40
1.524
  9
$DIMJUST
 70
     0
  9
$DIMSD1
 70
     0
  9
$DIMSD2
 70
     0
  9
$DIMTOLJ
 70
     0
  9
$DIMTZIN
 70
     0
  9
$DIMALTZ
 70
     0
  9
$DIMALTTZ
 70
     0
  9
$DIMUPT
 70
     0
  9
$DIMDEC
 70
     2
  9
$DIMTDEC
 70
     2
  9
$DIMALTU
 70
     2
  9
$DIMALTTD
 70
     3
  9
$DIMTXSTY
  7
Standard
  9
$DIMAUNIT
 70
     0
  9
$DIMADEC
 70
     2
  9
$DIMALTRND
 40
0.0
  9
$DIMAZIN
 70
     0
  9
$DIMDSEP
 70
    44
  9
$DIMATFIT
 70
     3
  9
$DIMFRAC
 70
     0
  9
$DIMLDRBLK
  1

  9
$DIMLUNIT
 70
     2
  9
$DIMLWD
 70
    -2
  9
$DIMLWE
 70
    -2
  9
$DIMTMOVE
 70
     0
  9
$LUNITS
 70
     2
  9
$LUPREC
 70
     2
  9
$SKETCHINC
 40
1.0
  9
$FILLETRAD
 40
10.0
  9
$AUNITS
 70
     0
  9
$AUPREC
 70
     2
  9
$MENU
  1
.
  9
$ELEVATION
 40
0.0
  9
$PELEVATION
 40
0.0
  9
$THICKNESS
 40
0.0
  9
$LIMCHECK
 70
     0
  9
$CHAMFERA
 40
0.0
  9
$CHAMFERB
 40
0.0
  9
$CHAMFERC
 40
0.0
  9
$CHAMFERD
 40
0.0
  9
$SKPOLY
 70
     0
  9
$TDCREATE
 40
2458316.581124468
  9
$TDUCREATE
 40
2458316.206124468
  9
$TDUPDATE
 40
2458320.740904757
  9
$TDUUPDATE
 40
2458320.365904757
  9
$TDINDWG
 40
0.0015020255
  9
$TDUSRTIMER
 40
2458320.36586706
  9
$USRTIMER
 70
     1
  9
$ANGBASE
 50
0.0
  9
$ANGDIR
 70
     0
  9
$PDMODE
 70
     0
  9
$PDSIZE
 40
-1.0
  9
$PLINEWID
 40
0.0
  9
$SPLFRAME
 70
     0
  9
$SPLINETYPE
 70
     6
  9
$SPLINESEGS
 70
     8
  9
$HANDSEED
  5
402
  9
$SURFTAB1
 70
     6
  9
$SURFTAB2
 70
     6
  9
$SURFTYPE
 70
     6
  9
$SURFU
 70
     6
  9
$SURFV
 70
     6
  9
$UCSBASE
  2

  9
$UCSNAME
  2

  9
$UCSORG
 10
0.0
 20
0.0
 30
0.0
  9
$UCSXDIR
 10
1.0
 20
0.0
 30
0.0
  9
$UCSYDIR
 10
0.0
 20
1.0
 30
0.0
  9
$UCSORTHOREF
  2

  9
$UCSORTHOVIEW
 70
     0
  9
$UCSORGTOP
 10
0.0
 20
0.0
 30
0.0
  9
$UCSORGBOTTOM
 10
0.0
 20
0.0
 30
0.0
  9
$UCSORGLEFT
 10
0.0
 20
0.0
 30
0.0
  9
$UCSORGRIGHT
 10
0.0
 20
0.0
 30
0.0
  9
$UCSORGFRONT
 10
0.0
 20
0.0
 30
0.0
  9
$UCSORGBACK
 10
0.0
 20
0.0
 30
0.0
  9
$PUCSBASE
  2

  9
$PUCSNAME
  2

  9
$PUCSORG
 10
0.0
 20
0.0
 30
0.0
  9
$PUCSXDIR
 10
1.0
 20
0.0
 30
0.0
  9
$PUCSYDIR
 10
0.0
 20
1.0
 30
0.0
  9
$PUCSORTHOREF
  2

  9
$PUCSORTHOVIEW
 70
     0
  9
$PUCSORGTOP
 10
0.0
 20
0.0
 30
0.0
  9
$PUCSORGBOTTOM
 10
0.0
 20
0.0
 30
0.0
  9
$PUCSORGLEFT
 10
0.0
 20
0.0
 30
0.0
  9
$PUCSORGRIGHT
 10
0.0
 20
0.0
 30
0.0
  9
$PUCSORGFRONT
 10
0.0
 20
0.0
 30
0.0
  9
$PUCSORGBACK
 10
0.0
 20
0.0
 30
0.0
  9
$USERI1
 70
     0
  9
$USERI2
 70
     0
  9
$USERI3
 70
     0
  9
$USERI4
 70
     0
  9
$USERI5
 70
     0
  9
$USERR1
 40
0.0
  9
$USERR2
 40
0.0
  9
$USERR3
 40
0.0
  9
$USERR4
 40
0.0
  9
$USERR5
 40
0.0
  9
$WORLDVIEW
 70
     1
  9
$SHADEDGE
 70
     3
  9
$SHADEDIF
 70
    70
  9
$TILEMODE
 70
     1
  9
$MAXACTVP
 70
    64
  9
$PINSBASE
 10
0.0
 20
0.0
 30
0.0
  9
$PLIMCHECK
 70
     0
  9
$PEXTMIN
 10
1.000000000000000E+20
 20
1.000000000000000E+20
 30
1.000000000000000E+20
  9
$PEXTMAX
 10
-1.000000000000000E+20
 20
-1.000000000000000E+20
 30
-1.000000000000000E+20
  9
$PLIMMIN
 10
0.0
 20
0.0
  9
$PLIMMAX
 10
0.0
 20
0.0
  9
$UNITMODE
 70
     0
  9
$VISRETAIN
 70
     1
  9
$PLINEGEN
 70
     0
  9
$PSLTSCALE
 70
     1
  9
$TREEDEPTH
 70
  3020
  9
$CMLSTYLE
  2
Standard
  9
$CMLJUST
 70
     0
  9
$CMLSCALE
 40
20.0
  9
$PROXYGRAPHICS
 70
     1
  9
$MEASUREMENT
 70
     1
  9
$CELWEIGHT
370
    -1
  9
$ENDCAPS
280
     0
  9
$JOINSTYLE
280
     0
  9
$LWDISPLAY
290
     1
  9
$INSUNITS
 70
     4
  9
$HYPERLINKBASE
  1

  9
$STYLESHEET
  1

  9
$XEDIT
290
     1
  9
$CEPSNTYPE
380
     0
  9
$PSTYLEMODE
290
     1
  9
$FINGERPRINTGUID
  2
{D825A546-DD4E-4263-BCCB-CC0AAA667341}
  9
$VERSIONGUID
  2
{FAEB1C32-E019-11D5-929B-00C0DF256EC4}
  9
$EXTNAMES
290
     1
  9
$PSVPSCALE
 40
0.0
  9
$OLESTARTUP
290
     0
  0
ENDSEC
  0
SECTION
  2
CLASSES
  0
CLASS
  1
ACDBDICTIONARYWDFLT
  2
AcDbDictionaryWithDefault
  3
ObjectDBX Classes
 90
        0
280
     0
281
     0
  0
CLASS
  1
VISUALSTYLE
  2
AcDbVisualStyle
  3
ObjectDBX Classes
 90
     4095
280
     0
281
     0
  0
CLASS
  1
MATERIAL
  2
AcDbMaterial
  3
ObjectDBX Classes
 90
     1153
280
     0
281
     0
  0
CLASS
  1
SCALE
  2
AcDbScale
  3
ObjectDBX Classes
 90
     1153
280
     0
281
     0
  0
CLASS
  1
SUN
  2
AcDbSun
  3
SCENEOE
 90
     1153
280
     0
281
     0
  0
CLASS
  1
ACDBPLACEHOLDER
  2
AcDbPlaceHolder
  3
ObjectDBX Classes
 90
        0
280
     0
281
     0
  0
CLASS
  1
LAYOUT
  2
AcDbLayout
  3
ObjectDBX Classes
 90
        0
280
     0
281
     0
  0
CLASS
  1
TABLESTYLE
  2
AcDbTableStyle
  3
ObjectDBX Classes
 90
     4095
280
     0
281
     0
  0
CLASS
  1
MLEADERSTYLE
  2
AcDbMLeaderStyle
  3
ACDB_MLEADERSTYLE_CLASS
 90
     4095
280
     0
281
     0
  0
CLASS
  1
RASTERVARIABLES
  2
AcDbRasterVariables
  3
ISM
 90
        0
280
     0
281
     0
  0
ENDSEC
  0
SECTION
  2
TABLES
  0
TABLE
  2
VPORT
  5
8
330
0
100
AcDbSymbolTable
 70
     1
  0
VPORT
  5
29
330
8
100
AcDbSymbolTableRecord
100
AcDbViewportTableRecord
  2
*Active
 70
     0
 10
0.0
 20
0.0
 11
1.0
 21
1.0
 12
-10.79282123118512
 22
-7.279362597274716
 13
0.0
 23
0.0
 14
10.0
 24
10.0
 15
10.0
 25
10.0
 16
0.0
 26
0.0
 36
1.0
 17
0.0
 27
0.0
 37
0.0
 40
143.2974534401425
 41
1.632093933463796
 42
50.0
 43
0.0
 44
0.0
 50
0.0
 51
0.0
 71
    16
 72
  2000
 73
     1
 74
     3
 75
     0
 76
     0
 77
     0
 78
     0
281
     0
 65
     1
110
0.0
120
0.0
130
0.0
111
1.0
121
0.0
131
0.0
112
0.0
122
1.0
132
0.0
 79
     0
146
0.0
  0
ENDTAB
  0
TABLE
  2
LTYPE
  5
5
330
0
100
AcDbSymbolTable
 70
     6
  0
LTYPE
  5
14
330
5
100
AcDbSymbolTableRecord
100
AcDbLinetypeTableRecord
  2
ByBlock
 70
     0
  3

 72
    65
 73
     0
 40
0.0
  0
LTYPE
  5
15
330
5
100
AcDbSymbolTableRecord
100
AcDbLinetypeTableRecord
  2
ByLayer
 70
     0
  3

 72
    65
 73
     0
 40
0.0
  0
LTYPE
  5
16
330
5
100
AcDbSymbolTableRecord
100
AcDbLinetypeTableRecord
  2
Continuous
 70
     0
  3
Solid line
 72
    65
 73
     0
 40
0.0
  0
LTYPE
  5
6A
330
5
100
AcDbSymbolTableRecord
100
AcDbLinetypeTableRecord
  2
HIDDEN
 70
     0
  3
Hidden __ __ __ __ __ __ __ __ __ __ __ __ __ __
 72
    65
 73
     2
 40
1.905
 49
1.27
 74
     0
 49
-0.635
 74
     0
  0
LTYPE
  5
6B
330
5
100
AcDbSymbolTableRecord
100
AcDbLinetypeTableRecord
  2
PHANTOM
 70
     0
  3
Phantom ______  __  __  ______  __  __  ______
 72
    65
 73
     6
 40
12.7
 49
6.35
 74
     0
 49
-1.27
 74
     0
 49
1.27
 74
     0
 49
-1.27
 74
     0
 49
1.27
 74
     0
 49
-1.27
 74
     0
  0
LTYPE
  5
6C
330
5
100
AcDbSymbolTableRecord
100
AcDbLinetypeTableRecord
  2
CENTER
 70
     0
  3
Center ____ _ ____ _ ____ _ ____ _ ____ _ ____
 72
    65
 73
     4
 40
10.16
 49
6.35
 74
     0
 49
-1.27
 74
     0
 49
1.27
 74
     0
 49
-1.27
 74
     0
  0
LTYPE
  5
6D
330
5
100
AcDbSymbolTableRecord
100
AcDbLinetypeTableRecord
  2
CENTERX2
 70
     0
  3
Center (2x) ________  __  ________  __  _____
 72
    65
 73
     4
 40
20.32
 49
12.7
 74
     0
 49
-2.54
 74
     0
 49
2.54
 74
     0
 49
-2.54
 74
     0
  0
LTYPE
  5
6E
330
5
100
AcDbSymbolTableRecord
100
AcDbLinetypeTableRecord
  2
DOT2
 70
     0
  3
Dot (.5x) ........................................
 72
    65
 73
     2
 40
0.635
 49
0.0
 74
     0
 49
-0.635
 74
     0
  0
ENDTAB
  0
TABLE
  2
LAYER
  5
2
102
{ACAD_XDICTIONARY
360
30D
102
}
330
0
100
AcDbSymbolTable
 70
    18
  0
LAYER
  5
10
330
2
100
AcDbSymbolTableRecord
100
AcDbLayerTableRecord
  2
0
 70
     0
 62
     7
  6
Continuous
370
    -3
390
F
  0
LAYER
  5
6F
330
2
100
AcDbSymbolTableRecord
100
AcDbLayerTableRecord
  2
FORMAT
 70
     0
 62
     2
  6
Continuous
370
    -3
390
F
  0
LAYER
  5
70
330
2
100
AcDbSymbolTableRecord
100
AcDbLayerTableRecord
  2
외형선
 70
     0
 62
     4
  6
Continuous
370
    30
390
F
  0
LAYER
  5
71
330
2
100
AcDbSymbolTableRecord
100
AcDbLayerTableRecord
  2
숨은선
 70
     0
 62
     2
  6
HIDDEN
370
    15
390
F
  0
LAYER
  5
72
330
2
100
AcDbSymbolTableRecord
100
AcDbLayerTableRecord
  2
중심선
 70
     0
 62
     1
  6
CENTERX2
370
    -3
390
F
  0
LAYER
  5
73
330
2
100
AcDbSymbolTableRecord
100
AcDbLayerTableRecord
  2
파단선
 70
     0
 62
     4
  6
Continuous
370
    -3
390
F
  0
LAYER
  5
74
330
2
100
AcDbSymbolTableRecord
100
AcDbLayerTableRecord
  2
해칭선
 70
     0
 62
   100
  6
Continuous
370
    -3
390
F
  0
LAYER
  5
75
330
2
100
AcDbSymbolTableRecord
100
AcDbLayerTableRecord
  2
가는실선
 70
     0
 62
     4
  6
Continuous
370
    -3
390
F
  0
LAYER
  5
76
330
2
100
AcDbSymbolTableRecord
100
AcDbLayerTableRecord
  2
치수_보조선
 70
     0
 62
     4
  6
Continuous
370
    -3
390
F
  0
LAYER
  5
77
330
2
100
AcDbSymbolTableRecord
100
AcDbLayerTableRecord
  2
치수문자_일반주서
 70
     0
 62
     7
  6
Continuous
370
    15
390
F
  0
LAYER
  5
78
330
2
100
AcDbSymbolTableRecord
100
AcDbLayerTableRecord
  2
개별주서
 70
     0
 62
   100
  6
Continuous
370
    30
390
F
  0
LAYER
  5
79
330
2
100
AcDbSymbolTableRecord
100
AcDbLayerTableRecord
  2
중간선
 70
     0
 62
     2
  6
Continuous
370
    15
390
F
  0
LAYER
  5
7A
330
2
100
AcDbSymbolTableRecord
100
AcDbLayerTableRecord
  2
윤곽선
 70
     0
 62
     3
  6
Continuous
370
    40
390
F
  0
LAYER
  5
7B
330
2
100
AcDbSymbolTableRecord
100
AcDbLayerTableRecord
  2
중심마크
 70
     0
 62
   100
  6
Continuous
370
    30
390
F
  0
LAYER
  5
7C
330
2
100
AcDbSymbolTableRecord
100
AcDbLayerTableRecord
  2
가상선
 70
     0
 62
     4
  6
PHANTOM
370
    -3
390
F
  0
LAYER
  5
7D
330
2
100
AcDbSymbolTableRecord
100
AcDbLayerTableRecord
  2
특수지정선
 70
     0
 62
     5
  6
CENTERX2
370
    60
390
F
  0
LAYER
  5
7E
330
2
100
AcDbSymbolTableRecord
100
AcDbLayerTableRecord
  2
참조1
 70
     0
 62
    -4
  6
Continuous
370
    -3
390
F
  0
LAYER
  5
242
330
2
100
AcDbSymbolTableRecord
100
AcDbLayerTableRecord
  2
Defpoints
 70
     0
 62
     7
  6
Continuous
290
     0
370
    -3
390
F
  0
ENDTAB
  0
TABLE
  2
STYLE
  5
3
330
0
100
AcDbSymbolTable
 70
     2
  0
STYLE
  5
11
330
3
100
AcDbSymbolTableRecord
100
AcDbTextStyleTableRecord
  2
Standard
 70
     0
 40
0.0
 41
1.0
 50
0.0
 71
     0
 42
3.5
  3
txt
  4

  0
STYLE
  5
94
330
3
100
AcDbSymbolTableRecord
100
AcDbTextStyleTableRecord
  2
SLDTEXTSTYLE0
 70
     0
 40
0.0
 41
0.75
 50
0.0
 71
     0
 42
3.5
  3
TXT
  4

  0
ENDTAB
  0
TABLE
  2
VIEW
  5
6
330
0
100
AcDbSymbolTable
 70
     0
  0
ENDTAB
  0
TABLE
  2
UCS
  5
7
330
0
100
AcDbSymbolTable
 70
     0
  0
ENDTAB
  0
TABLE
  2
APPID
  5
9
330
0
100
AcDbSymbolTable
 70
     1
  0
APPID
  5
12
330
9
100
AcDbSymbolTableRecord
100
AcDbRegAppTableRecord
  2
ACAD
 70
     0
  0
ENDTAB
  0
TABLE
  2
DIMSTYLE
  5
A
330
0
100
AcDbSymbolTable
 70
     4
100
AcDbDimStyleTable
  0
DIMSTYLE
105
27
330
A
100
AcDbSymbolTableRecord
100
AcDbDimStyleTableRecord
  2
ISO-25
 70
     0
 41
2.5
 42
0.625
 43
3.75
 44
1.25
 73
     0
 74
     0
 77
     1
 78
     8
140
2.5
141
2.5
143
0.03937007874016
147
0.625
171
     3
172
     1
178
     0
271
     2
272
     2
274
     3
278
    44
283
     0
284
     8
340
11
  0
DIMSTYLE
105
C5
102
{ACAD_REACTORS
330
1E4
330
21F
102
}
330
A
100
AcDbSymbolTableRecord
100
AcDbDimStyleTableRecord
  2
SLDDIMSTYLE0
 70
     0
 41
3.302
 44
0.0
 45
0.000000001
 73
     0
 74
     0
 77
     1
 78
     4
 79
     1
140
3.5
143
0.0393700787401575
147
0.875
148
0.000000001
170
     1
173
     1
178
     0
271
     2
272
     2
276
     2
284
    12
340
94
  0
DIMSTYLE
105
ED
102
{ACAD_REACTORS
330
EC
330
1F8
330
C4
330
D9
330
101
102
}
330
A
100
AcDbSymbolTableRecord
100
AcDbDimStyleTableRecord
  2
SLDDIMSTYLE1
 70
     0
 41
3.302
 44
0.0
 45
0.000000001
 73
     0
 74
     0
 77
     1
 78
     4
 79
     1
140
3.5
143
0.0393700787401575
147
0.875
148
0.000000001
170
     1
172
     1
173
     1
178
     0
271
     2
272
     2
276
     2
284
    12
289
     0
340
94
  0
DIMSTYLE
105
162
102
{ACAD_REACTORS
330
20B
102
}
330
A
100
AcDbSymbolTableRecord
100
AcDbDimStyleTableRecord
  2
SLDDIMSTYLE2
 70
     0
 41
3.302
 44
0.0
 45
0.000000001
 73
     0
 74
     0
 77
     1
 78
    12
 79
     3
140
3.5
143
0.0393700787401575
147
0.875
148
0.000000001
170
     1
172
     1
173
     1
178
     0
271
     2
272
     2
276
     2
284
    12
289
     0
340
94
  0
ENDTAB
  0
TABLE
  2
BLOCK_RECORD
  5
1
330
0
100
AcDbSymbolTable
 70
    20
  0
BLOCK_RECORD
  5
1F
330
1
100
AcDbSymbolTableRecord
100
AcDbBlockTableRecord
  2
*Model_Space
340
22
  0
BLOCK_RECORD
  5
1B
330
1
100
AcDbSymbolTableRecord
100
AcDbBlockTableRecord
  2
*Paper_Space
340
1E
  0
BLOCK_RECORD
  5
23
330
1
100
AcDbSymbolTableRecord
100
AcDbBlockTableRecord
  2
*Paper_Space0
340
26
  0
BLOCK_RECORD
  5
7F
330
1
100
AcDbSymbolTableRecord
100
AcDbBlockTableRecord
  2
블럭10
340
0
102
{BLKREFS
331
1C7
331
BD
102
}
  0
BLOCK_RECORD
  5
C6
330
1
100
AcDbSymbolTableRecord
100
AcDbBlockTableRecord
  2
_D
340
0
  0
BLOCK_RECORD
  5
DA
330
1
100
AcDbSymbolTableRecord
100
AcDbBlockTableRecord
  2
_D_1
340
0
  0
BLOCK_RECORD
  5
EE
330
1
100
AcDbSymbolTableRecord
100
AcDbBlockTableRecord
  2
_D_2
340
0
  0
BLOCK_RECORD
  5
102
330
1
100
AcDbSymbolTableRecord
100
AcDbBlockTableRecord
  2
_D_3
340
0
  0
BLOCK_RECORD
  5
11B
330
1
100
AcDbSymbolTableRecord
100
AcDbBlockTableRecord
  2
SW_DOWELSYMBOL_0
340
0
102
{BLKREFS
331
239
331
121
102
}
  0
BLOCK_RECORD
  5
146
330
1
100
AcDbSymbolTableRecord
100
AcDbBlockTableRecord
  2
E1110040
340
0
  0
BLOCK_RECORD
  5
243
330
1
100
AcDbSymbolTableRecord
100
AcDbBlockTableRecord
  2
*D8
340
0
  0
BLOCK_RECORD
  5
250
330
1
100
AcDbSymbolTableRecord
100
AcDbBlockTableRecord
  2
*D9
340
0
  0
BLOCK_RECORD
  5
25C
330
1
100
AcDbSymbolTableRecord
100
AcDbBlockTableRecord
  2
*D10
340
0
  0
BLOCK_RECORD
  5
268
330
1
100
AcDbSymbolTableRecord
100
AcDbBlockTableRecord
  2
*D11
340
0
  0
BLOCK_RECORD
  5
311
330
1
100
AcDbSymbolTableRecord
100
AcDbBlockTableRecord
  2
*D12
340
0
  0
BLOCK_RECORD
  5
320
330
1
100
AcDbSymbolTableRecord
100
AcDbBlockTableRecord
  2
*D13
340
0
  0
BLOCK_RECORD
  5
32C
330
1
100
AcDbSymbolTableRecord
100
AcDbBlockTableRecord
  2
*D14
340
0
  0
BLOCK_RECORD
  5
338
330
1
100
AcDbSymbolTableRecord
100
AcDbBlockTableRecord
  2
*D15
340
0
  0
BLOCK_RECORD
  5
37B
330
1
100
AcDbSymbolTableRecord
100
AcDbBlockTableRecord
  2
*D16
340
0
  0
BLOCK_RECORD
  5
38A
330
1
100
AcDbSymbolTableRecord
100
AcDbBlockTableRecord
  2
*D17
340
0
  0
BLOCK_RECORD
  5
396
330
1
100
AcDbSymbolTableRecord
100
AcDbBlockTableRecord
  2
*D18
340
0
  0
BLOCK_RECORD
  5
3A2
330
1
100
AcDbSymbolTableRecord
100
AcDbBlockTableRecord
  2
*D19
340
0
  0
ENDTAB
  0
ENDSEC
  0
SECTION
  2
BLOCKS
  0
BLOCK
  5
20
330
1F
100
AcDbEntity
  8
0
100
AcDbBlockBegin
  2
*Model_Space
 70
     0
 10
0.0
 20
0.0
 30
0.0
  3
*Model_Space
  1
*Model_Space
  0
ENDBLK
  5
21
330
1F
100
AcDbEntity
  8
0
100
AcDbBlockEnd
  0
BLOCK
  5
1C
330
1B
100
AcDbEntity
 67
     1
  8
0
100
AcDbBlockBegin
  2
*Paper_Space
 70
     0
 10
0.0
 20
0.0
 30
0.0
  3
*Paper_Space
  1
*Paper_Space
  0
ENDBLK
  5
1D
330
1B
100
AcDbEntity
 67
     1
  8
0
100
AcDbBlockEnd
  0
BLOCK
  5
24
330
23
100
AcDbEntity
  8
0
100
AcDbBlockBegin
  2
*Paper_Space0
 70
     0
 10
0.0
 20
0.0
 30
0.0
  3
*Paper_Space0
  1
*Paper_Space0
  0
ENDBLK
  5
25
330
23
100
AcDbEntity
  8
0
100
AcDbBlockEnd
  0
BLOCK
  5
80
330
7F
100
AcDbEntity
  8
0
100
AcDbBlockBegin
  2
블럭10
 70
     2
 10
0.0
 20
0.0
 30
0.0
  3
블럭10
  1
블럭10
  0
ELLIPSE
  5
82
330
7F
100
AcDbEntity
  8
중심선
100
AcDbEllipse
 10
20.54032771741204
 20
12.0471743016438
 30
0.0
 11
6.600054785286829
 21
-1.261213355974178E-13
 31
0.0
210
0.0
220
0.0
230
1.0
 40
0.636358354079598
 41
0.9219305317359503
 42
6.513795318482858
  0
ELLIPSE
  5
83
330
7F
100
AcDbEntity
  8
중심선
100
AcDbEllipse
 10
20.54032771746488
 20
12.04717430159265
 30
0.0
 11
3.960054785062283
 21
1.540847449632565E-10
 31
0.0
210
0.0
220
0.0
230
1.0
 40
0.3939339440162632
 41
1.131841032648279
 42
5.62031148352944
  0
LINE
  5
84
330
7F
100
AcDbEntity
  8
중심선
100
AcDbLine
 10
2.268634060543552
 20
16.24717430164393
 30
0.0
 11
5.714909304380834
 21
16.24717430164393
 31
0.0
  0
LINE
  5
85
330
7F
100
AcDbEntity
  8
중심선
100
AcDbLine
 10
5.245725140726316
 20
7.84717430164391
 30
0.0
 11
8.692000384563599
 21
7.84717430164391
 31
0.0
  0
LINE
  5
86
330
7F
100
AcDbEntity
  8
중심선
100
AcDbLine
 10
15.74043728645272
 20
16.24717430164393
 30
0.0
 11
8.692000384563599
 21
7.84717430164391
 31
0.0
  0
LINE
  5
87
330
7F
100
AcDbEntity
  8
중심선
100
AcDbLine
 10
0.1404042013395286
 20
13.71084872107135
 30
0.0
 11
3.58671253028996
 21
13.71088815037384
 31
0.0
  0
LINE
  5
88
330
7F
100
AcDbEntity
  8
중심선
100
AcDbLine
 10
2.750260043222114
 20
10.84717430164391
 30
0.0
 11
6.196535287059397
 21
10.84717430164391
 31
0.0
  0
LINE
  5
89
330
7F
100
AcDbEntity
  8
중심선
100
AcDbLine
 10
12.29416204261559
 20
16.24717430164393
 30
0.0
 11
5.245725140726316
 21
7.84717430164391
 31
0.0
  0
LINE
  5
8A
330
7F
100
AcDbEntity
  8
중심선
100
AcDbLine
 10
10.72767329541681
 20
16.24717430164393
 30
0.0
 11
6.196535287059397
 21
10.84717430164391
 31
0.0
  0
LINE
  5
8B
330
7F
100
AcDbEntity
  8
중심선
100
AcDbLine
 10
7.28139805157953
 20
16.24717430164393
 30
0.0
 11
2.750260043222114
 21
10.84717430164391
 31
0.0
  0
LINE
  5
8C
330
7F
100
AcDbEntity
  8
중심선
100
AcDbLine
 10
5.714909304380834
 20
16.24717430164393
 30
0.0
 11
3.58671253028996
 21
13.71088815037384
 31
0.0
  0
LINE
  5
8D
330
7F
100
AcDbEntity
  8
중심선
100
AcDbLine
 10
2.268634060543552
 20
16.24717430164393
 30
0.0
 11
0.1404042013395286
 21
13.71084872107135
 31
0.0
  0
LINE
  5
8E
330
7F
100
AcDbEntity
  8
중심선
100
AcDbLine
 10
7.28139805157953
 20
16.24717430164393
 30
0.0
 11
10.72767329541681
 21
16.24717430164393
 31
0.0
  0
LINE
  5
8F
330
7F
100
AcDbEntity
  8
중심선
100
AcDbLine
 10
12.29416204261559
 20
16.24717430164393
 30
0.0
 11
15.74043728645272
 21
16.24717430164393
 31
0.0
  0
LINE
  5
90
330
7F
100
AcDbEntity
  8
중심선
100
AcDbLine
 10
19.22036997980202
 20
11.08717430171403
 30
0.0
 11
23.66174974927406
 21
11.08717430171406
 31
0.0
  0
LINE
  5
91
330
7F
100
AcDbEntity
  8
중심선
100
AcDbLine
 10
19.22039502424796
 20
13.00717430171391
 30
0.0
 11
19.22036997980202
 21
11.08717430171403
 31
0.0
  0
LINE
  5
92
330
7F
100
AcDbEntity
  8
중심선
100
AcDbLine
 10
19.22039502424796
 20
13.00717430171391
 30
0.0
 11
26.96566020931264
 21
13.00717430171391
 31
0.0
  0
LINE
  5
93
330
7F
100
AcDbEntity
  8
중심선
100
AcDbLine
 10
22.22332737316547
 20
13.45928029700563
 30
0.0
 11
24.52862924686651
 21
15.39360700705356
 31
0.0
  0
ATTDEF
  5
95
330
7F
100
AcDbEntity
  8
FORMAT
 62
     2
100
AcDbText
 10
4.408487351596664
 20
2.075366912832191
 30
0.0
 40
4.233333333333333
  1
E1110032
 41
0.75
  7
SLDTEXTSTYLE0
 11
4.408487351596664
 21
-0.0412997538344756
 31
0.0
100
AcDbAttributeDefinition
  3

  2
AUTOATTR0
 70
     0
 74
     1
  0
ENDBLK
  5
81
330
7F
100
AcDbEntity
  8
0
100
AcDbBlockEnd
  0
BLOCK
  5
C7
330
C6
100
AcDbEntity
  8
0
100
AcDbBlockBegin
  2
_D
 70
     0
 10
0.0
 20
0.0
 30
0.0
  3
_D
  1
_D
  0
LINE
  5
C9
330
C6
100
AcDbEntity
  8
치수문자_일반주서
 62
     0
370
    -2
100
AcDbLine
 10
35.39999999999996
 20
6.413574928723899
 30
0.0
 11
35.39999999999996
 21
19.82667470814031
 31
0.0
  0
LINE
  5
CA
330
C6
100
AcDbEntity
  8
치수문자_일반주서
 62
     0
370
    -2
100
AcDbLine
 10
10.0
 20
6.183403371544611
 30
0.0
 11
10.0
 21
19.82667470814031
 31
0.0
  0
LINE
  5
CB
330
C6
100
AcDbEntity
  8
치수문자_일반주서
 62
     0
370
    -2
100
AcDbLine
 10
10.0
 20
19.82667470814031
 30
0.0
 11
-16.2915
 21
19.82667470814031
 31
0.0
  0
LINE
  5
CC
330
C6
100
AcDbEntity
  8
치수문자_일반주서
 62
     0
370
    -2
100
AcDbLine
 10
35.39999999999996
 20
19.82667470814031
 30
0.0
 11
10.0
 21
19.82667470814031
 31
0.0
  0
LINE
  5
CD
330
C6
100
AcDbEntity
  8
치수문자_일반주서
 62
     0
370
    -2
100
AcDbLine
 10
38.70199999999996
 20
19.82667470814031
 30
0.0
 11
42.00399999999996
 21
19.82667470814031
 31
0.0
  0
LINE
  5
CE
330
C6
100
AcDbEntity
  8
치수문자_일반주서
 62
     0
370
    -2
100
AcDbLine
 10
6.698
 20
19.82667470814031
 30
0.0
 11
3.396000000000001
 21
19.82667470814031
 31
0.0
  0
SOLID
  5
CF
330
C6
100
AcDbEntity
  8
치수문자_일반주서
 62
     0
100
AcDbTrace
 10
38.70199999999996
 20
20.37700804147364
 30
0.0
 11
38.70199999999996
 21
19.27634137480698
 31
0.0
 12
35.39999999999996
 22
19.82667470814031
 32
0.0
 13
35.39999999999996
 23
19.82667470814031
 33
0.0
  0
SOLID
  5
D0
330
C6
100
AcDbEntity
  8
치수문자_일반주서
 62
     0
100
AcDbTrace
 10
6.698
 20
19.27634137480698
 30
0.0
 11
6.698
 21
20.37700804147364
 31
0.0
 12
10.0
 22
19.82667470814031
 32
0.0
 13
10.0
 23
19.82667470814031
 33
0.0
  0
MTEXT
  5
D1
330
C6
100
AcDbEntity
  8
치수문자_일반주서
 62
     0
100
AcDbMText
 10
-6.447749999999999
 20
24.20167470814031
 30
0.0
 40
3.5
 41
0.0
 71
     2
 72
     1
  1
\A1;25.40 [1]
  7
SLDTEXTSTYLE0
 73
     1
 44
1.0
  0
POINT
  5
D2
330
C6
100
AcDbEntity
  8
Defpoints
 62
     0
100
AcDbPoint
 10
35.39999999999996
 20
6.351074928723899
 30
0.0
  0
POINT
  5
3B1
330
C6
100
AcDbEntity
  8
Defpoints
 62
     0
100
AcDbPoint
 10
10.0
 20
6.120903371544611
 30
0.0
  0
POINT
  5
3B2
330
C6
100
AcDbEntity
  8
Defpoints
 62
     0
100
AcDbPoint
 10
10.0
 20
19.82667470814031
 30
0.0
  0
ENDBLK
  5
C8
330
C6
100
AcDbEntity
  8
0
100
AcDbBlockEnd
  0
BLOCK
  5
DB
330
DA
100
AcDbEntity
  8
0
100
AcDbBlockBegin
  2
_D_1
 70
     0
 10
0.0
 20
0.0
 30
0.0
  3
_D_1
  1
_D_1
  0
LINE
  5
DD
330
DA
100
AcDbEntity
  8
치수문자_일반주서
 62
     0
370
    -2
100
AcDbLine
 10
35.39999999999998
 20
6.413574928723899
 30
0.0
 11
35.39999999999998
 21
38.76357492872395
 31
0.0
  0
LINE
  5
DE
330
DA
100
AcDbEntity
  8
치수문자_일반주서
 62
     0
370
    -2
100
AcDbLine
 10
-40.80000000000001
 20
5.413574928723887
 30
0.0
 11
-40.80000000000001
 21
38.76357492872395
 31
0.0
  0
LINE
  5
DF
330
DA
100
AcDbEntity
  8
치수문자_일반주서
 62
     0
370
    -2
100
AcDbLine
 10
32.09799999999998
 20
38.76357492872395
 30
0.0
 11
-37.49800000000001
 21
38.76357492872395
 31
0.0
  0
SOLID
  5
E0
330
DA
100
AcDbEntity
  8
치수문자_일반주서
 62
     0
100
AcDbTrace
 10
32.09799999999998
 20
38.21324159539062
 30
0.0
 11
32.09799999999998
 21
39.31390826205729
 31
0.0
 12
35.39999999999998
 22
38.76357492872395
 32
0.0
 13
35.39999999999998
 23
38.76357492872395
 33
0.0
  0
SOLID
  5
E1
330
DA
100
AcDbEntity
  8
치수문자_일반주서
 62
     0
100
AcDbTrace
 10
-37.49800000000001
 20
39.31390826205729
 30
0.0
 11
-37.49800000000001
 21
38.21324159539062
 31
0.0
 12
-40.80000000000001
 22
38.76357492872395
 32
0.0
 13
-40.80000000000001
 23
38.76357492872395
 33
0.0
  0
MTEXT
  5
E2
330
DA
100
AcDbEntity
  8
치수문자_일반주서
 62
     0
100
AcDbMText
 10
-2.700000000000018
 20
43.13857492872395
 30
0.0
 40
3.5
 41
0.0
 71
     2
 72
     1
  1
\A1;76.20 [3]
  7
SLDTEXTSTYLE0
 73
     1
 44
1.0
  0
POINT
  5
E3
330
DA
100
AcDbEntity
  8
Defpoints
 62
     0
100
AcDbPoint
 10
35.39999999999998
 20
6.351074928723899
 30
0.0
  0
POINT
  5
E4
330
DA
100
AcDbEntity
  8
Defpoints
 62
     0
100
AcDbPoint
 10
-40.80000000000001
 20
5.351074928723887
 30
0.0
  0
POINT
  5
E5
330
DA
100
AcDbEntity
  8
Defpoints
 62
     0
100
AcDbPoint
 10
-40.80000000000001
 20
38.76357492872395
 30
0.0
  0
ENDBLK
  5
DC
330
DA
100
AcDbEntity
  8
0
100
AcDbBlockEnd
  0
BLOCK
  5
EF
330
EE
100
AcDbEntity
  8
0
100
AcDbBlockBegin
  2
_D_2
 70
     0
 10
0.0
 20
0.0
 30
0.0
  3
_D_2
  1
_D_2
  0
LINE
  5
F1
330
EE
100
AcDbEntity
  8
치수문자_일반주서
 62
     0
370
    -2
100
AcDbLine
 10
-39.86250000000001
 20
6.351074928723891
 30
0.0
 11
-53.30000000000005
 21
6.351074928723841
 31
0.0
  0
LINE
  5
F2
330
EE
100
AcDbEntity
  8
치수문자_일반주서
 62
     0
370
    -2
100
AcDbLine
 10
-39.86250000000001
 20
-6.348925071276098
 30
0.0
 11
-53.3
 21
-6.348925071276148
 31
0.0
  0
LINE
  5
F3
330
EE
100
AcDbEntity
  8
치수문자_일반주서
 62
     0
370
    -2
100
AcDbLine
 10
-53.30000000000003
 20
3.049074928723842
 30
0.0
 11
-53.30000000000002
 21
-3.046925071276148
 31
0.0
  0
SOLID
  5
F4
330
EE
100
AcDbEntity
  8
치수문자_일반주서
 62
     0
100
AcDbTrace
 10
-52.7496666666667
 20
3.049074928723844
 30
0.0
 11
-53.85033333333337
 21
3.04907492872384
 31
0.0
 12
-53.30000000000005
 22
6.351074928723841
 32
0.0
 13
-53.30000000000005
 23
6.351074928723841
 33
0.0
  0
SOLID
  5
F5
330
EE
100
AcDbEntity
  8
치수문자_일반주서
 62
     0
100
AcDbTrace
 10
-53.85033333333335
 20
-3.04692507127615
 30
0.0
 11
-52.74966666666668
 21
-3.046925071276147
 31
0.0
 12
-53.3
 22
-6.348925071276148
 32
0.0
 13
-53.3
 23
-6.348925071276148
 33
0.0
  0
MTEXT
  5
F6
330
EE
100
AcDbEntity
  8
치수문자_일반주서
 62
     0
100
AcDbMText
 10
-57.67500000000003
 20
0.0010749287238769
 30
0.0
 40
3.5
 41
0.0
 71
     2
 72
     1
  1
\A1;%%c12.70 [1/2]
  7
SLDTEXTSTYLE0
 11
-3.356894814614649E-15
 21
1.0
 31
0.0
 73
     1
 44
1.0
  0
POINT
  5
F7
330
EE
100
AcDbEntity
  8
Defpoints
 62
     0
100
AcDbPoint
 10
-39.80000000000001
 20
6.351074928723891
 30
0.0
  0
POINT
  5
F8
330
EE
100
AcDbEntity
  8
Defpoints
 62
     0
100
AcDbPoint
 10
-39.80000000000001
 20
-6.348925071276098
 30
0.0
  0
POINT
  5
F9
330
EE
100
AcDbEntity
  8
Defpoints
 62
     0
100
AcDbPoint
 10
-53.3
 20
-6.348925071276149
 30
0.0
  0
ENDBLK
  5
F0
330
EE
100
AcDbEntity
  8
0
100
AcDbBlockEnd
  0
BLOCK
  5
103
330
102
100
AcDbEntity
  8
0
100
AcDbBlockBegin
  2
_D_3
 70
     0
 10
0.0
 20
0.0
 30
0.0
  3
_D_3
  1
_D_3
  0
LINE
  5
105
330
102
100
AcDbEntity
  8
치수문자_일반주서
 62
     0
370
    -2
100
AcDbLine
 10
35.46249999999998
 20
6.351074928723899
 30
0.0
 11
49.63750000000014
 21
6.351074928723953
 31
0.0
  0
LINE
  5
106
330
102
100
AcDbEntity
  8
치수문자_일반주서
 62
     0
370
    -2
100
AcDbLine
 10
35.46249999999998
 20
-6.3489250712761
 30
0.0
 11
49.63750000000019
 21
-6.348925071276049
 31
0.0
  0
LINE
  5
107
330
102
100
AcDbEntity
  8
치수문자_일반주서
 62
     0
370
    -2
100
AcDbLine
 10
49.63750000000014
 20
6.351074928723953
 30
0.0
 11
49.63750000000004
 21
39.64257492872395
 31
0.0
  0
LINE
  5
108
330
102
100
AcDbEntity
  8
치수문자_일반주서
 62
     0
370
    -2
100
AcDbLine
 10
49.63750000000014
 20
6.351074928723953
 30
0.0
 11
49.63750000000019
 21
-6.348925071276049
 31
0.0
  0
LINE
  5
109
330
102
100
AcDbEntity
  8
치수문자_일반주서
 62
     0
370
    -2
100
AcDbLine
 10
49.63750000000013
 20
9.653074928723953
 30
0.0
 11
49.63750000000012
 21
12.95507492872395
 31
0.0
  0
LINE
  5
10A
330
102
100
AcDbEntity
  8
치수문자_일반주서
 62
     0
370
    -2
100
AcDbLine
 10
49.6375000000002
 20
-9.650925071276049
 30
0.0
 11
49.63750000000022
 21
-12.95292507127605
 31
0.0
  0
SOLID
  5
10B
330
102
100
AcDbEntity
  8
치수문자_일반주서
 62
     0
100
AcDbTrace
 10
49.0871666666668
 20
9.653074928723951
 30
0.0
 11
50.18783333333347
 21
9.653074928723955
 31
0.0
 12
49.63750000000014
 22
6.351074928723953
 32
0.0
 13
49.63750000000014
 23
6.351074928723953
 33
0.0
  0
SOLID
  5
10C
330
102
100
AcDbEntity
  8
치수문자_일반주서
 62
     0
100
AcDbTrace
 10
50.18783333333354
 20
-9.650925071276047
 30
0.0
 11
49.08716666666687
 21
-9.65092507127605
 31
0.0
 12
49.63750000000019
 22
-6.348925071276049
 32
0.0
 13
49.63750000000019
 23
-6.348925071276049
 33
0.0
  0
MTEXT
  5
10D
330
102
100
AcDbEntity
  8
치수문자_일반주서
 62
     0
100
AcDbMText
 10
45.26250000000008
 20
26.29882492872394
 30
0.0
 40
3.5
 41
0.0
 71
     2
 72
     1
  1
\A1;%%c12.70 [1/2]
  7
SLDTEXTSTYLE0
 11
-3.356894814614647E-15
 21
1.0
 31
0.0
 73
     1
 44
1.0
  0
POINT
  5
10E
330
102
100
AcDbEntity
  8
Defpoints
 62
     0
100
AcDbPoint
 10
35.39999999999998
 20
6.351074928723899
 30
0.0
  0
POINT
  5
3B3
330
102
100
AcDbEntity
  8
Defpoints
 62
     0
100
AcDbPoint
 10
35.39999999999998
 20
-6.3489250712761
 30
0.0
  0
POINT
  5
3B4
330
102
100
AcDbEntity
  8
Defpoints
 62
     0
100
AcDbPoint
 10
49.63750000000018
 20
-6.348925071276047
 30
0.0
  0
ENDBLK
  5
104
330
102
100
AcDbEntity
  8
0
100
AcDbBlockEnd
  0
BLOCK
  5
11C
330
11B
100
AcDbEntity
  8
0
100
AcDbBlockBegin
  2
SW_DOWELSYMBOL_0
 70
     0
 10
0.0
 20
0.0
 30
0.0
  3
SW_DOWELSYMBOL_0
  1
SW_DOWELSYMBOL_0
  0
CIRCLE
  5
11E
330
11B
100
AcDbEntity
  8
해칭선
 62
     0
100
AcDbCircle
 10
0.0
 20
0.0
 30
0.0
 40
3.000000000000003
  0
HATCH
  5
11F
330
11B
100
AcDbEntity
  8
0
  6
Continuous
 62
     0
370
     0
100
AcDbHatch
 10
0.0
 20
0.0
 30
0.0
210
0.0
220
0.0
230
1.0
  2
SOLID
 70
     1
 71
     0
 91
        1
 92
        0
 93
        3
 72
     2
 10
0.0
 20
0.0
 40
3.000000000000003
 50
0.0
 51
90.0
 73
     1
 72
     1
 10
0.0
 20
3.000000000000003
 11
0.0
 21
0.0
 72
     1
 10
0.0
 20
0.0
 11
3.000000000000003
 21
0.0
 97
        0
 75
     0
 76
     1
 98
        1
 10
0.0
 20
0.0
  0
HATCH
  5
120
330
11B
100
AcDbEntity
  8
0
  6
Continuous
 62
     0
370
     0
100
AcDbHatch
 10
0.0
 20
0.0
 30
0.0
210
0.0
220
0.0
230
1.0
  2
SOLID
 70
     1
 71
     0
 91
        1
 92
        0
 93
        3
 72
     2
 10
0.0
 20
0.0
 40
3.000000000000003
 50
180.0
 51
270.0000000000007
 73
     1
 72
     1
 10
0.0
 20
-3.000000000000003
 11
0.0
 21
0.0
 72
     1
 10
0.0
 20
0.0
 11
-3.000000000000003
 21
0.0
 97
        0
 75
     0
 76
     1
 98
        1
 10
0.0
 20
0.0
  0
ENDBLK
  5
11D
330
11B
100
AcDbEntity
  8
0
100
AcDbBlockEnd
  0
BLOCK
  5
240
330
146
100
AcDbEntity
  8
0
100
AcDbBlockBegin
  2
E1110040
 70
     0
 10
0.0
 20
0.0
 30
0.0
  3
E1110040
  1
E1110040
  0
LINE
  5
1A1
330
146
100
AcDbEntity
  8
외형선
  6
Continuous
370
    15
100
AcDbLine
 10
14.31149645072964
 20
7.938574928723897
 30
0.0
 11
-38.12573868596884
 21
7.93857492872389
 31
0.0
  0
LINE
  5
1A2
330
146
100
AcDbEntity
  8
외형선
  6
Continuous
370
    15
100
AcDbLine
 10
-38.12573868596884
 20
-7.93642507127611
 30
0.0
 11
14.31149645072963
 21
-7.936425071276103
 31
0.0
  0
LINE
  5
1A3
330
146
100
AcDbEntity
  8
외형선
  6
Continuous
370
    15
100
AcDbLine
 10
-38.12573868596884
 20
7.938574928723888
 30
0.0
 11
-39.12573868596884
 21
6.938574928723889
 31
0.0
  0
LINE
  5
1A4
330
146
100
AcDbEntity
  8
외형선
  6
Continuous
370
    15
100
AcDbLine
 10
-39.12573868596884
 20
-6.936425071276111
 30
0.0
 11
-38.12573868596884
 21
-7.936425071276112
 31
0.0
  0
LINE
  5
1A5
330
146
100
AcDbEntity
  8
외형선
  6
Continuous
370
    15
100
AcDbLine
 10
40.24806878007557
 20
-7.936425071276103
 30
0.0
 11
41.83676131403116
 21
-7.936425071276103
 31
0.0
  0
ARC
  5
1A6
330
146
100
AcDbEntity
  8
외형선
  6
Continuous
370
    15
100
AcDbCircle
 10
41.83676131403116
 20
0.0010749287238966
 30
0.0
 40
7.9375
100
AcDbArc
 50
270.0000000000007
 51
0.0
  0
ARC
  5
1A7
330
146
100
AcDbEntity
  8
외형선
  6
Continuous
370
    15
100
AcDbCircle
 10
41.83676131403116
 20
0.0010749287238966
 30
0.0
 40
7.9375
100
AcDbArc
 50
0.0
 51
90.0
  0
LINE
  5
1A8
330
146
100
AcDbEntity
  8
외형선
  6
Continuous
370
    15
100
AcDbLine
 10
41.83676131403116
 20
7.938574928723897
 30
0.0
 11
40.24806878007557
 21
7.938574928723897
 31
0.0
  0
LINE
  5
1A9
330
146
100
AcDbEntity
  8
외형선
  6
Continuous
370
    15
100
AcDbLine
 10
14.84926131403116
 20
7.932483411127285
 30
0.0
 11
14.31149645072964
 21
7.936049180926049
 31
0.0
  0
LINE
  5
1AA
330
146
100
AcDbEntity
  8
외형선
  6
Continuous
370
    15
100
AcDbLine
 10
14.84926131403116
 20
7.932483411127273
 30
0.0
 11
14.84926131403116
 21
2.16936963848871
 31
0.0
  0
SPLINE
  5
1AB
330
146
100
AcDbEntity
  8
외형선
  6
Continuous
370
    15
100
AcDbSpline
210
0.0
220
0.0
230
1.0
 70
     8
 71
     3
 72
     8
 73
     4
 74
     0
 42
0.000000001
 43
0.00000001
 40
0.0
 40
0.0
 40
0.0
 40
0.0
 40
1.0
 40
1.0
 40
1.0
 40
1.0
 10
14.84926131404397
 20
2.169369638481579
 30
0.0
 10
13.83533902548996
 20
2.73367141214033
 30
0.0
 10
12.81338912229286
 20
3.281526019289772
 30
0.0
 10
11.79932495698557
 20
3.796745425809745
 30
0.0
  0
SPLINE
  5
1AC
330
146
100
AcDbEntity
  8
외형선
  6
Continuous
370
    15
100
AcDbSpline
210
0.0
220
0.0
230
1.0
 70
     8
 71
     3
 72
     8
 73
     4
 74
     0
 42
0.000000001
 43
0.00000001
 40
0.0
 40
0.0
 40
0.0
 40
0.0
 40
1.0
 40
1.0
 40
1.0
 40
1.0
 10
14.84926131403117
 20
-7.930333553679493
 30
0.0
 10
13.83538753672018
 20
-7.953310043593417
 30
0.0
 10
12.81348478659968
 20
-7.910880952802852
 30
0.0
 10
11.79947051096736
 20
-7.804290805537515
 30
0.0
  0
LINE
  5
1AD
330
146
100
AcDbEntity
  8
외형선
  6
Continuous
370
    15
100
AcDbLine
 10
-38.12573868596884
 20
7.93857492872389
 30
0.0
 11
-38.12573868596884
 21
-7.936425071276097
 31
0.0
  0
LINE
  5
1AE
330
146
100
AcDbEntity
  8
외형선
  6
Continuous
370
    15
100
AcDbLine
 10
11.79947051096736
 20
-7.804370905400227
 30
0.0
 11
11.79947051096736
 21
3.797110673809291
 31
0.0
  0
LINE
  5
1AF
330
146
100
AcDbEntity
  8
외형선
  6
Continuous
370
    15
100
AcDbLine
 10
-39.12573868596884
 20
6.93857492872389
 30
0.0
 11
-39.12573868596884
 21
-6.93642507127611
 31
0.0
  0
SPLINE
  5
1B0
330
146
100
AcDbEntity
  8
외형선
  6
Continuous
370
    15
100
AcDbSpline
210
0.0
220
0.0
230
1.0
 70
     8
 71
     3
 72
     8
 73
     4
 74
     0
 42
0.000000001
 43
0.00000001
 40
0.0
 40
0.0
 40
0.0
 40
0.0
 40
1.0
 40
1.0
 40
1.0
 40
1.0
 10
14.84926131403201
 20
-3.056742743389498
 30
0.0
 10
13.83538753672073
 20
-2.72734527052078
 30
0.0
 10
12.81348478659997
 20
-2.371861655702403
 30
0.0
 10
11.79947051096736
 20
-2.000790418664768
 30
0.0
  0
SPLINE
  5
1B1
330
146
100
AcDbEntity
  8
외형선
  6
Continuous
370
    15
100
AcDbSpline
210
0.0
220
0.0
230
1.0
 70
    24
 71
     3
 72
    14
 73
    10
 74
     0
 42
0.000000001
 43
0.00000001
 40
0.0
 40
0.0
 40
0.0
 40
0.0
 40
0.25
 40
0.25
 40
0.5
 40
0.5
 40
0.75
 40
0.75
 40
1.0
 40
1.0
 40
1.0
 40
1.0
 10
14.84926131403116
 20
2.16936963848499
 30
0.0
 10
14.84926131403116
 20
1.968110938802619
 30
0.0
 10
14.84926131403116
 20
1.649665686328243
 30
0.0
 10
14.84926131403116
 20
0.8450028210900555
 30
0.0
 10
14.84926131403116
 20
0.3614606408160639
 30
0.0
 10
14.84926131403116
 20
-0.6485619640065905
 30
0.0
 10
14.84926131403116
 20
-1.172967343097401
 30
0.0
 10
14.84926131403116
 20
-2.166283401894558
 30
0.0
 10
14.84926131403116
 20
-2.63522124027927
 30
0.0
 10
14.84926131403116
 20
-3.056742743389226
 30
0.0
  0
SPLINE
  5
1B2
330
146
100
AcDbEntity
  8
외형선
  6
Continuous
370
    15
100
AcDbSpline
210
0.0
220
0.0
230
1.0
 70
    24
 71
     3
 72
    16
 73
    12
 74
     0
 42
0.000000001
 43
0.00000001
 40
0.0
 40
0.0
 40
0.0
 40
0.0
 40
0.2500000000000001
 40
0.2500000000000001
 40
0.5000000000000001
 40
0.5000000000000001
 40
0.7500000000000002
 40
0.7500000000000002
 40
0.8750000000000001
 40
0.8750000000000001
 40
1.0
 40
1.0
 40
1.0
 40
1.0
 10
14.84926131403116
 20
-3.056742743389222
 30
0.0
 10
14.84926131403116
 20
-3.091749043302424
 30
0.0
 10
14.84926131403116
 20
-3.194535252329976
 30
0.0
 10
14.84926131403116
 20
-3.604800211418733
 30
0.0
 10
14.84926131403116
 20
-3.914589305684447
 30
0.0
 10
14.84926131403117
 20
-4.767010352378064
 30
0.0
 10
14.84926131403116
 20
-5.310844719576961
 30
0.0
 10
14.84926131403116
 20
-6.24117016928483
 30
0.0
 10
14.84926131403117
 20
-6.569375096338794
 30
0.0
 10
14.84926131403116
 20
-7.242666535724616
 30
0.0
 10
14.84926131403116
 20
-7.587613094915465
 30
0.0
 10
14.84926131403117
 20
-7.93033355367503
 30
0.0
  0
SPLINE
  5
1B3
330
146
100
AcDbEntity
  8
외형선
  6
Continuous
370
    15
100
AcDbSpline
210
0.0
220
0.0
230
1.0
 70
     8
 71
     3
 72
    14
 73
    10
 74
     0
 42
0.000000001
 43
0.00000001
 40
0.0
 40
0.0
 40
0.0
 40
0.0
 40
0.0374546638612566
 40
0.2059202688998291
 40
0.3743428001020688
 40
0.5427399995523413
 40
0.6950729628011175
 40
0.8474708348491896
 40
1.0
 40
1.0
 40
1.0
 40
1.0
 10
28.93998417713518
 20
-5.382120929399756
 30
0.0
 10
28.76405205768209
 20
-5.390206480762331
 30
0.0
 10
27.79680297275917
 20
-5.434659660664112
 30
0.0
 10
26.03851321938918
 20
-5.357180472606489
 30
0.0
 10
23.66524034756528
 20
-5.143341436949927
 30
0.0
 10
21.36771667878635
 20
-4.775634541691752
 30
0.0
 10
19.1456874650386
 20
-4.295436207003373
 30
0.0
 10
16.99805508389717
 20
-3.731307004456251
 30
0.0
 10
15.565731476892
 20
-3.281662031952193
 30
0.0
 10
14.84926131403202
 20
-3.056742743389498
 30
0.0
  0
SPLINE
  5
1B4
330
146
100
AcDbEntity
  8
외형선
  6
Continuous
370
    15
100
AcDbSpline
210
0.0
220
0.0
230
1.0
 70
    24
 71
     3
 72
    14
 73
    10
 74
     0
 42
0.000000001
 43
0.00000001
 40
0.0
 40
0.0
 40
0.0
 40
0.0
 40
0.25
 40
0.25
 40
0.5
 40
0.5
 40
0.75
 40
0.75
 40
1.0
 40
1.0
 40
1.0
 40
1.0
 10
14.84926131403116
 20
2.16936963848499
 30
0.0
 10
14.84926131403116
 20
1.968110938802619
 30
0.0
 10
14.84926131403116
 20
1.649665686328243
 30
0.0
 10
14.84926131403116
 20
0.8450028210900555
 30
0.0
 10
14.84926131403116
 20
0.3614606408160639
 30
0.0
 10
14.84926131403116
 20
-0.6485619640065905
 30
0.0
 10
14.84926131403116
 20
-1.172967343097401
 30
0.0
 10
14.84926131403116
 20
-2.166283401894558
 30
0.0
 10
14.84926131403116
 20
-2.63522124027927
 30
0.0
 10
14.84926131403116
 20
-3.056742743389226
 30
0.0
  0
SPLINE
  5
1B5
330
146
100
AcDbEntity
  8
외형선
  6
Continuous
370
    15
100
AcDbSpline
210
0.0
220
0.0
230
1.0
 70
     8
 71
     3
 72
    19
 73
    15
 74
     0
 42
0.000000001
 43
0.00000001
 40
0.0
 40
0.0
 40
0.0
 40
0.0
 40
0.0850641768815141
 40
0.1700639780002661
 40
0.2550304403948847
 40
0.3400047756536058
 40
0.4250281383540698
 40
0.5100921539489782
 40
0.5950916780991121
 40
0.6885705816857155
 40
0.7820464592145504
 40
0.8755282432497623
 40
0.9690248507451661
 40
1.0
 40
1.0
 40
1.0
 40
1.0
 10
14.84926131404398
 20
2.169369638481573
 30
0.0
 10
15.5695478902223
 20
1.7644499462165
 30
0.0
 10
17.00957593652549
 20
0.9549170010713275
 30
0.0
 10
19.16861061819092
 20
-0.2976088385726098
 30
0.0
 10
21.32673582804491
 20
-1.538775029915218
 30
0.0
 10
23.48509175733797
 20
-2.743127483965857
 30
0.0
 10
25.64453770908538
 20
-3.879678762715779
 30
0.0
 10
27.80460343976397
 20
-4.920282399718415
 30
0.0
 10
30.0355953550594
 20
-5.871334976877844
 30
0.0
 10
32.33806976237237
 20
-6.690534304587108
 30
0.0
 10
34.71224533730662
 20
-7.340592517227891
 30
0.0
 10
37.08663612862623
 20
-7.755659367281897
 30
0.0
 10
38.93190603393033
 20
-7.946627162747955
 30
0.0
 10
39.98580342817355
 20
-7.917466259268225
 30
0.0
 10
40.24806878007558
 20
-7.910209485834049
 30
0.0
  0
SPLINE
  5
1B6
330
146
100
AcDbEntity
  8
외형선
  6
Continuous
370
    15
100
AcDbSpline
210
0.0
220
0.0
230
1.0
 70
     8
 71
     3
 72
    38
 73
    34
 74
     0
 42
0.000000001
 43
0.00000001
 40
0.0
 40
0.0
 40
0.0
 40
0.0
 40
0.0625
 40
0.0625
 40
0.1250000000000001
 40
0.1250000000000001
 40
0.1875000000000001
 40
0.1875000000000001
 40
0.2500000000000001
 40
0.2500000000000001
 40
0.3125000000000001
 40
0.3125000000000001
 40
0.3750000000000002
 40
0.3750000000000002
 40
0.4375000000000002
 40
0.4375000000000002
 40
0.5000000000000002
 40
0.5000000000000002
 40
0.5625000000000002
 40
0.5625000000000002
 40
0.6250000000000002
 40
0.6250000000000002
 40
0.6875000000000003
 40
0.6875000000000003
 40
0.7500000000000003
 40
0.7500000000000003
 40
0.8125000000000002
 40
0.8125000000000002
 40
0.8750000000000001
 40
0.8750000000000001
 40
0.9375000000000001
 40
0.9375000000000001
 40
1.0
 40
1.0
 40
1.0
 40
1.0
 10
41.83676131403117
 20
-3.31774328142322
 30
0.0
 10
41.2763180771782
 20
-3.023184944544649
 30
0.0
 10
40.713798490759
 20
-2.719940863906774
 30
0.0
 10
39.58674437715383
 20
-2.100938434695652
 30
0.0
 10
39.02724096105341
 20
-1.786124532856859
 30
0.0
 10
37.90318400894624
 20
-1.1481894311104
 30
0.0
 10
37.33799835875023
 20
-0.824931757827185
 30
0.0
 10
36.21403410904688
 20
-0.1771125727321185
 30
0.0
 10
35.65446026664225
 20
0.1475935260579717
 30
0.0
 10
34.52738747989902
 20
0.7961664571363098
 30
0.0
 10
33.96500889645658
 20
1.119042373633036
 30
0.0
 10
32.84399287903078
 20
1.756878964900053
 30
0.0
 10
32.27905716761053
 20
2.073023311042741
 30
0.0
 10
31.15303315128856
 20
2.692608755981768
 30
0.0
 10
30.5944591595242
 20
2.995620874407726
 30
0.0
 10
29.46839513738491
 20
3.586718761116074
 30
0.0
 10
28.90347287160091
 20
3.874301901107115
 30
0.0
 10
27.78254964291311
 20
4.427151658097061
 30
0.0
 10
27.220070175087
 20
4.693502946350779
 30
0.0
 10
26.09301064535404
 20
5.201630453216011
 30
0.0
 10
25.5334875813651
 20
5.442678989371915
 30
0.0
 10
24.40945669844644
 20
5.897048036930828
 30
0.0
 10
23.84427097881327
 20
6.110386383479515
 30
0.0
 10
22.72028038733784
 20
6.504569899338923
 30
0.0
 10
22.16072671381429
 20
6.685581277038398
 30
0.0
 10
21.03365906813555
 20
7.014007957918387
 30
0.0
 10
20.47124088473358
 20
7.160876491889915
 30
0.0
 10
19.35026135218287
 20
7.417769379666919
 30
0.0
 10
18.78533089748588
 20
7.528239130717093
 30
0.0
 10
17.65929103236405
 20
7.710571964815466
 30
0.0
 10
17.10071719867523
 20
7.782412077749116
 30
0.0
 10
15.97466885917333
 20
7.887115900512627
 30
0.0
 10
15.40974125264792
 20
7.919781769221937
 30
0.0
 10
14.84926131403119
 20
7.93248341112724
 30
0.0
  0
SPLINE
  5
1B7
330
146
100
AcDbEntity
  8
외형선
  6
Continuous
370
    15
100
AcDbSpline
210
0.0
220
0.0
230
1.0
 70
     8
 71
     3
 72
    17
 73
    13
 74
     0
 42
0.000000001
 43
0.00000001
 40
0.0
 40
0.0
 40
0.0
 40
0.0
 40
0.1123451670106045
 40
0.2246799623876728
 40
0.3370091198085732
 40
0.4455231437154002
 40
0.5540470414018998
 40
0.6625922751499469
 40
0.771170248907744
 40
0.8797678759464467
 40
0.98833012068752
 40
0.9999999999999999
 40
0.9999999999999999
 40
0.9999999999999999
 40
0.9999999999999999
 10
47.64933760171684
 20
0.8328833085327493
 30
0.0
 10
46.83048048423885
 20
1.148443696626119
 30
0.0
 10
45.19284184564511
 20
1.779535340480859
 30
0.0
 10
42.73649953988644
 20
2.66248472403478
 30
0.0
 10
40.30806753337886
 20
3.453517363501112
 30
0.0
 10
37.9074990759002
 20
4.129081688786044
 30
0.0
 10
35.53446611372151
 20
4.674554578799818
 30
0.0
 10
33.16092890205859
 20
5.079934836439654
 30
0.0
 10
30.78677595596489
 20
5.338614205166919
 30
0.0
 10
28.412430062957
 20
5.422514584159145
 30
0.0
 10
26.74453165018197
 20
5.410341872910327
 30
0.0
 10
25.86820508236811
 20
5.325346303289085
 30
0.0
 10
25.78314773712689
 20
5.317096527720505
 30
0.0
  0
SPLINE
  5
1B8
330
146
100
AcDbEntity
  8
외형선
  6
Continuous
370
    15
100
AcDbSpline
210
0.0
220
0.0
230
1.0
 70
     8
 71
     3
 72
    32
 73
    28
 74
     0
 42
0.000000001
 43
0.00000001
 40
0.0
 40
0.0
 40
0.0
 40
0.0
 40
0.1249999999999988
 40
0.1249999999999988
 40
0.1874999999999981
 40
0.1874999999999981
 40
0.2499999999999975
 40
0.2499999999999975
 40
0.3749999999999969
 40
0.3749999999999969
 40
0.4374999999999973
 40
0.4374999999999973
 40
0.4999999999999977
 40
0.4999999999999977
 40
0.562499999999998
 40
0.562499999999998
 40
0.6249999999999984
 40
0.6249999999999984
 40
0.6874999999999988
 40
0.6874999999999988
 40
0.7499999999999992
 40
0.7499999999999992
 40
0.8124999999999996
 40
0.8124999999999996
 40
0.8749999999999999
 40
0.8749999999999999
 40
1.0
 40
1.0
 40
1.0
 40
1.0
 10
41.83676131403116
 20
-3.317743281423263
 30
0.0
 10
42.27734943497453
 20
-3.549308042347634
 30
0.0
 10
42.7113704045006
 20
-3.756042645409358
 30
0.0
 10
43.36067063597401
 20
-4.0175754003896
 30
0.0
 10
43.57682798941657
 20
-4.096579283714661
 30
0.0
 10
44.0103317407296
 20
-4.234957783628793
 30
0.0
 10
44.2286019027875
 20
-4.294533956601999
 30
0.0
 10
44.87442555118834
 20
-4.433564578160955
 30
0.0
 10
45.29683754687124
 20
-4.475482936768426
 30
0.0
 10
45.93214966034438
 20
-4.427917417220963
 30
0.0
 10
46.13997131881285
 20
-4.393518768211563
 30
0.0
 10
46.54816872708288
 20
-4.280953395131619
 30
0.0
 10
46.75093224717876
 20
-4.201722887979741
 30
0.0
 10
47.14016964760817
 20
-3.991788573281949
 30
0.0
 10
47.32555812483816
 20
-3.862429078195413
 30
0.0
 10
47.67663660435506
 20
-3.541099105024719
 30
0.0
 10
47.83438932352514
 20
-3.356349509906514
 30
0.0
 10
48.10956914709099
 20
-2.932738142777719
 30
0.0
 10
48.22007737048413
 20
-2.703944149074741
 30
0.0
 10
48.38362139920797
 20
-2.220087140127734
 30
0.0
 10
48.43365232752189
 20
-1.973283340405158
 30
0.0
 10
48.47538966391499
 20
-1.482400108707629
 30
0.0
 10
48.46686443132897
 20
-1.245273513039463
 30
0.0
 10
48.40352784423702
 20
-0.7861990973786338
 30
0.0
 10
48.34788949361462
 20
-0.5626254043886114
 30
0.0
 10
48.12917751339772
 20
0.0728205382614568
 30
0.0
 10
47.91321695453439
 20
0.4619230355842944
 30
0.0
 10
47.64933760166594
 20
0.8328833085525233
 30
0.0
  0
SPLINE
  5
1B9
330
146
100
AcDbEntity
  8
외형선
  6
Continuous
370
    15
100
AcDbSpline
210
0.0
220
0.0
230
1.0
 70
     8
 71
     3
 72
    12
 73
     8
 74
     0
 42
0.000000001
 43
0.00000001
 40
0.0
 40
0.0
 40
0.0
 40
0.0
 40
0.2500000000000008
 40
0.2500000000000008
 40
0.5000000000000014
 40
0.5000000000000014
 40
1.0
 40
1.0
 40
1.0
 40
1.0
 10
47.64933760166588
 20
0.8328833085525377
 30
0.0
 10
47.74063974648735
 20
0.887877459159461
 30
0.0
 10
47.82196921819301
 20
0.9560689397685419
 30
0.0
 10
47.96461902701081
 20
1.119608019846548
 30
0.0
 10
48.02640679866589
 20
1.216509035748436
 30
0.0
 10
48.17256783952251
 20
1.53497532404921
 30
0.0
 10
48.22079786607262
 20
1.790787140071655
 30
0.0
 10
48.22523392607807
 20
2.056809961866598
 30
0.0
  0
ARC
  5
1BA
330
146
100
AcDbEntity
  8
외형선
  6
Continuous
370
    15
100
AcDbCircle
 10
45.97669024456938
 20
-1.378723928213866
 30
0.0
 40
4.105951996497864
100
AcDbArc
 50
23.8412503627043
 51
56.79540765092803
  0
ARC
  5
1BB
330
146
100
AcDbEntity
  8
외형선
  6
Continuous
370
    15
100
AcDbCircle
 10
42.63070565223542
 20
0.1447853792556864
 30
0.0
 40
7.102875841401828
100
AcDbArc
 50
1.098189045219192
 51
71.13486828401554
  0
SPLINE
  5
1BC
330
146
100
AcDbEntity
  8
외형선
  6
Continuous
370
    15
100
AcDbSpline
210
0.0
220
0.0
230
1.0
 70
     8
 71
     3
 72
    10
 73
     6
 74
     0
 42
0.000000001
 43
0.00000001
 40
0.0
 40
0.0
 40
0.0
 40
0.0
 40
0.5
 40
0.5
 40
1.0
 40
1.0
 40
1.0
 40
1.0
 10
44.92736090935284
 20
6.866111130052514
 30
0.0
 10
44.43628222448222
 20
7.165453749107281
 30
0.0
 10
43.93114602244086
 20
7.400841154575632
 30
0.0
 10
42.89977082462917
 20
7.742999318992824
 30
0.0
 10
42.36852390647474
 20
7.850225897018894
 30
0.0
 10
41.83676131403123
 20
7.885684462303951
 30
0.0
  0
SPLINE
  5
1BD
330
146
100
AcDbEntity
  8
외형선
  6
Continuous
370
    15
100
AcDbSpline
210
0.0
220
0.0
230
1.0
 70
     8
 71
     3
 72
     8
 73
     4
 74
     0
 42
0.000000001
 43
0.00000001
 40
0.0
 40
0.0
 40
0.0
 40
0.0
 40
1.0
 40
1.0
 40
1.0
 40
1.0
 10
43.31728276102624
 20
3.554280626909268
 30
0.0
 10
44.93088704648596
 20
3.105797106931485
 30
0.0
 10
46.57601986382598
 20
2.600546856129659
 30
0.0
 10
48.22523392607813
 20
2.056809961866665
 30
0.0
  0
SPLINE
  5
1BE
330
146
100
AcDbEntity
  8
외형선
  6
Continuous
370
    15
100
AcDbSpline
210
0.0
220
0.0
230
1.0
 70
     8
 71
     3
 72
    13
 73
     9
 74
     0
 42
0.000000001
 43
0.00000001
 40
0.0
 40
0.0
 40
0.0
 40
0.0
 40
0.0793929877039889
 40
0.2634911655196139
 40
0.44758338379036
 40
0.6316872343868986
 40
0.8158202784367785
 40
1.0
 40
1.0
 40
1.0
 40
1.0
 10
28.93998417713518
 20
5.384270786847552
 30
0.0
 10
29.28127302550018
 20
5.532084869212525
 30
0.0
 10
30.41394984035726
 20
6.022653444207748
 30
0.0
 10
32.33806194752103
 20
6.688080568457893
 30
0.0
 10
34.71224846195795
 20
7.342113154289546
 30
0.0
 10
37.08663144457229
 20
7.764930930949287
 30
0.0
 10
39.46145055800699
 20
7.975712765466705
 30
0.0
 10
41.04492416904745
 20
7.915696432048682
 30
0.0
 10
41.83676131403118
 20
7.885684462303956
 30
0.0
  0
SPLINE
  5
1BF
330
146
100
AcDbEntity
  8
외형선
  6
Continuous
370
    15
100
AcDbSpline
210
0.0
220
0.0
230
1.0
 70
     8
 71
     3
 72
    18
 73
    14
 74
     0
 42
0.000000001
 43
0.00000001
 40
0.0
 40
0.0
 40
0.0
 40
0.0
 40
0.2499999999999999
 40
0.2499999999999999
 40
0.3749999999999996
 40
0.3749999999999996
 40
0.4999999999999992
 40
0.4999999999999992
 40
0.6249999999999989
 40
0.6249999999999989
 40
0.7499999999999986
 40
0.7499999999999986
 40
1.0
 40
1.0
 40
1.0
 40
1.0
 10
44.92736090935286
 20
6.866111130052516
 30
0.0
 10
44.98372932576159
 20
6.532902205605084
 30
0.0
 10
45.00910311163191
 20
6.193822718067229
 30
0.0
 10
44.97224209086968
 20
5.678526060312205
 30
0.0
 10
44.94747666599672
 20
5.509620911436688
 30
0.0
 10
44.8686540890516
 20
5.178525099885678
 30
0.0
 10
44.81360384926662
 20
5.014443123032093
 30
0.0
 10
44.67371830235646
 20
4.706410425866434
 30
0.0
 10
44.58928133107631
 20
4.562086403690559
 30
0.0
 10
44.39092974576685
 20
4.293150173588838
 30
0.0
 10
44.27626242868506
 20
4.168501534576958
 30
0.0
 10
43.90615746874603
 20
3.839915083705655
 30
0.0
 10
43.61694532925776
 20
3.673376883638957
 30
0.0
 10
43.31728276102624
 20
3.554280626909262
 30
0.0
  0
SPLINE
  5
1C0
330
146
100
AcDbEntity
  8
외형선
  6
Continuous
370
    15
100
AcDbSpline
210
0.0
220
0.0
230
1.0
 70
     8
 71
     3
 72
    16
 73
    12
 74
     0
 42
0.000000001
 43
0.00000001
 40
0.0
 40
0.0
 40
0.0
 40
0.0
 40
0.0632566236194258
 40
0.1777457562904235
 40
0.2924736502210936
 40
0.4079234237981429
 40
0.5236181396813024
 40
0.6420465290176848
 40
0.7607395881699898
 40
0.8802338922391955
 40
0.9999999999999999
 40
0.9999999999999999
 40
0.9999999999999999
 40
0.9999999999999999
 10
25.80256954688058
 20
-5.316774044736708
 30
0.0
 10
25.57172528210068
 20
-5.416261829933046
 30
0.0
 10
24.92307244417069
 20
-5.695814082480901
 30
0.0
 10
23.85450327794728
 20
-6.106402558905665
 30
0.0
 10
22.59676070406534
 20
-6.547884146311318
 30
0.0
 10
21.333510017696
 20
-6.932806847249899
 30
0.0
 10
20.05737802923019
 20
-7.263658178047386
 30
0.0
 10
18.76922190414002
 20
-7.534183406135027
 30
0.0
 10
17.46699154351254
 20
-7.738891576416215
 30
0.0
 10
16.16035472315852
 20
-7.879905020104707
 30
0.0
 10
15.28662330807271
 20
-7.913511316722674
 30
0.0
 10
14.8492613140312
 20
-7.930333553679485
 30
0.0
  0
SPLINE
  5
1C1
330
146
100
AcDbEntity
  8
외형선
  6
Continuous
370
    15
100
AcDbSpline
210
0.0
220
0.0
230
1.0
 70
    24
 71
     3
 72
    16
 73
    12
 74
     0
 42
0.000000001
 43
0.00000001
 40
0.0
 40
0.0
 40
0.0
 40
0.0
 40
0.25
 40
0.25
 40
0.5
 40
0.5
 40
0.75
 40
0.75
 40
0.875
 40
0.875
 40
1.0
 40
1.0
 40
1.0
 40
1.0
 10
14.84926131403116
 20
-3.056742743389222
 30
0.0
 10
14.84926131403116
 20
-3.091749043302423
 30
0.0
 10
14.84926131403116
 20
-3.194535252329976
 30
0.0
 10
14.84926131403116
 20
-3.604800211418733
 30
0.0
 10
14.84926131403116
 20
-3.914589305684445
 30
0.0
 10
14.84926131403116
 20
-4.767010352378061
 30
0.0
 10
14.84926131403116
 20
-5.310844719576956
 30
0.0
 10
14.84926131403116
 20
-6.241170169284826
 30
0.0
 10
14.84926131403117
 20
-6.569375096338791
 30
0.0
 10
14.84926131403117
 20
-7.24266653572461
 30
0.0
 10
14.84926131403117
 20
-7.587613094915461
 30
0.0
 10
14.84926131403117
 20
-7.930333553675027
 30
0.0
  0
LINE
  5
1C2
330
146
100
AcDbEntity
  8
중심선
 62
     1
100
AcDbLine
 10
-42.12573868596886
 20
0.0010749287238888
 30
0.0
 11
52.77426131403116
 21
0.0010749287239004
 31
0.0
  0
LINE
  5
1C3
330
146
100
AcDbEntity
  8
참조1
100
AcDbLine
 10
5.324261314031152
 20
0.0010749287238892
 30
0.0
 11
5.324261314031157
 21
-39.99892507127611
 31
0.0
  0
LINE
  5
1C4
330
146
100
AcDbEntity
  8
참조1
100
AcDbLine
 10
49.77426131403116
 20
0.0010749287238892
 30
0.0
 11
49.77426131403116
 21
4.274726723198788
 31
0.0
  0
LINE
  5
1C5
330
146
100
AcDbEntity
  8
참조1
100
AcDbLine
 10
5.324261314031157
 20
-39.99892507127611
 30
0.0
 11
-20.1533455002775
 21
-39.9989250712761
 31
0.0
  0
CIRCLE
  5
1C6
330
146
100
AcDbEntity
  8
해칭선
100
AcDbCircle
 10
10.36810364977727
 20
0.0
 30
0.0
 40
3.000000000000003
  0
INSERT
  5
1C7
330
146
100
AcDbEntity
  8
0
  6
Continuous
 62
     7
100
AcDbBlockReference
 66
     1
  2
블럭10
 10
-8.616011618094053
 20
-52.04609937292004
 30
0.0
  0
ATTRIB
  5
1DE
330
1C7
100
AcDbEntity
  8
FORMAT
 62
     2
100
AcDbText
 10
-17.79730690683533
 20
-49.97073246008785
 30
0.0
 40
4.233333333333333
  1
E1110040 [ 2 FLUTE ]
 41
0.75
  7
SLDTEXTSTYLE0
 11
-17.79730690683533
 21
-52.08739912675452
 31
0.0
100
AcDbAttribute
  2
AUTOATTR0
 70
     0
 74
     1
  0
SEQEND
  5
1DF
330
1C7
100
AcDbEntity
  8
0
  6
Continuous
 62
     7
  0
HATCH
  5
1E0
330
146
100
AcDbEntity
  8
중심선
100
AcDbHatch
 10
0.0
 20
0.0
 30
0.0
210
0.0
220
0.0
230
1.0
  2
SOLID
 70
     1
 71
     0
 91
        1
 92
        0
 93
        4
 72
     1
 10
-2.901102313713211
 20
-35.7989250712761
 11
-6.347377557550493
 21
-35.7989250712761
 72
     1
 10
-6.347377557550493
 20
-35.7989250712761
 11
-8.475607416754544
 21
-38.3352506518487
 72
     1
 10
-8.475607416754544
 20
-38.3352506518487
 11
-5.029299087804084
 21
-38.33521122254621
 72
     1
 10
-5.029299087804084
 20
-38.33521122254621
 11
-2.901102313713211
 21
-35.7989250712761
 97
        0
 75
     0
 76
     1
 98
        1
 10
0.0
 20
0.0
  0
HATCH
  5
1E1
330
146
100
AcDbEntity
  8
중심선
100
AcDbHatch
 10
0.0
 20
0.0
 30
0.0
210
0.0
220
0.0
230
1.0
  2
SOLID
 70
     1
 71
     0
 91
        1
 92
        0
 93
        4
 72
     1
 10
2.11166167732274
 20
-35.7989250712761
 11
-1.334613566514542
 21
-35.7989250712761
 72
     1
 10
-1.334613566514542
 20
-35.7989250712761
 11
-5.86575157487193
 21
-41.19892507127612
 72
     1
 10
-5.86575157487193
 20
-41.19892507127612
 11
-2.419476331034648
 21
-41.19892507127612
 72
     1
 10
-2.419476331034648
 20
-41.19892507127612
 11
2.11166167732274
 21
-35.7989250712761
 97
        0
 75
     0
 76
     1
 98
        1
 10
0.0
 20
0.0
  0
HATCH
  5
1E2
330
146
100
AcDbEntity
  8
중심선
100
AcDbHatch
 10
0.0
 20
0.0
 30
0.0
210
0.0
220
0.0
230
1.0
  2
SOLID
 70
     1
 71
     0
 91
        1
 92
        0
 93
        4
 72
     1
 10
7.124425668358664
 20
-35.7989250712761
 11
3.678150424521492
 21
-35.7989250712761
 72
     1
 10
3.678150424521492
 20
-35.7989250712761
 11
-3.370286477367729
 21
-44.19892507127612
 72
     1
 10
-3.370286477367729
 20
-44.19892507127612
 11
0.0759887664695533
 21
-44.19892507127612
 72
     1
 10
0.0759887664695535
 20
-44.19892507127612
 11
7.124425668358664
 21
-35.7989250712761
 97
        0
 75
     0
 76
     1
 98
        1
 10
0.0
 20
0.0
  0
HATCH
  5
1E3
330
146
100
AcDbEntity
  8
중심선
100
AcDbHatch
 10
0.0
 20
0.0
 30
0.0
210
0.0
220
0.0
230
1.0
  2
SOLID
 70
     1
 71
     0
 91
        1
 92
        0
 93
        6
 72
     3
 10
11.92431609937083
 20
-39.99892507132738
 11
3.960054785062283
 21
1.540882976769353E-10
 40
0.3939339440162628
 50
17.09539180608436
 51
320.0019657685081
 73
     0
 72
     1
 10
13.60731575507143
 20
-38.58681907591441
 11
15.91261762877247
 21
-36.65249236586646
 72
     3
 10
11.92431609931799
 20
-39.99892507127625
 11
6.600054785286829
 21
-1.278976924368180E-13
 40
0.636358354079598
 50
39.9987384933743
 51
368.4976242363725
 73
     1
 72
     1
 10
18.3496485912186
 20
-39.03892507120613
 11
10.60438340615391
 21
-39.03892507120613
 72
     1
 10
10.60438340615391
 20
-39.03892507120613
 11
10.60435836170798
 21
-40.95892507120602
 72
     1
 10
10.60435836170798
 20
-40.95892507120602
 11
15.04573813118001
 21
-40.95892507120599
 97
        0
 75
     0
 76
     1
 98
        1
 10
0.0
 20
0.0
  0
DIMENSION
  5
1E4
330
146
100
AcDbEntity
  8
치수문자_일반주서
100
AcDbDimension
  2
*D8
 10
14.84926131403117
 20
19.82667470814031
 30
0.0
 11
66.20126131403114
 21
19.82667470814031
 31
0.0
 70
   160
  1
<>
 71
     2
 42
34.92499999999998
  3
SLDDIMSTYLE0
100
AcDbAlignedDimension
 13
49.77426131403115
 23
0.0010749287238931
 33
0.0
 14
14.84926131403116
 24
7.932483411127289
 34
0.0
 50
0.0000000000000058
100
AcDbRotatedDimension
  0
DIMENSION
  5
1F8
330
146
100
AcDbEntity
  8
치수문자_일반주서
100
AcDbDimension
  2
*D9
 10
-39.12573868596886
 20
38.76357492872395
 30
0.0
 11
5.324261314031143
 21
38.76357492872395
 31
0.0
 70
   160
  1
<>
 71
     2
 42
88.9
  3
SLDDIMSTYLE1
100
AcDbAlignedDimension
 13
49.77426131403115
 23
4.274726723198786
 33
0.0
 14
-39.12573868596886
 24
6.938574928723878
 34
0.0
100
AcDbRotatedDimension
  0
DIMENSION
  5
20B
330
146
100
AcDbEntity
  8
치수문자_일반주서
100
AcDbDimension
  2
*D10
 10
-51.62573868596881
 20
-7.936425071276168
 30
0.0
 11
-51.62573868596884
 21
0.0010749287238819
 31
0.0
 70
   160
  1
%%c<>
 71
     2
 42
15.875
 52
-270.0
  3
SLDDIMSTYLE2
100
AcDbAlignedDimension
 13
-38.12573868596883
 23
7.938574928723883
 33
0.0
 14
-38.12573868596883
 24
-7.936425071276117
 34
0.0
 50
90.0000000000002
100
AcDbRotatedDimension
  0
DIMENSION
  5
21F
330
146
100
AcDbEntity
  8
치수문자_일반주서
100
AcDbDimension
  2
*D11
 10
62.42426131403142
 20
-7.936425071276034
 30
0.0
 11
62.42426131403118
 21
56.70277275520935
 31
0.0
 70
   160
  1
%%c<>
 71
     2
 42
15.875
 52
-270.0
  3
SLDDIMSTYLE0
100
AcDbAlignedDimension
 13
41.83676131403116
 23
7.938574928723897
 33
0.0
 14
41.83676131403116
 24
-7.936425071276103
 34
0.0
 50
90.0000000000002
100
AcDbRotatedDimension
  0
LINE
  5
232
330
146
100
AcDbEntity
  8
참조1
100
AcDbLine
 10
77.81899512937676
 20
7.441074928723896
 30
0.0
 11
77.81899512937676
 21
-7.438925071276109
 31
0.0
  0
LINE
  5
233
330
146
100
AcDbEntity
  8
참조1
100
AcDbLine
 10
90.51899512937676
 20
5.441074928723896
 30
0.0
 11
77.81899512937676
 21
5.441074928723896
 31
0.0
  0
SOLID
  5
234
330
146
100
AcDbEntity
  8
참조1
100
AcDbTrace
 10
77.81899512937676
 20
5.441074928723896
 30
0.0
 11
84.16899512937675
 21
4.425074928723896
 31
0.0
 12
84.16899512937675
 22
6.457074928723896
 32
0.0
 13
84.16899512937675
 23
6.457074928723896
 33
0.0
  0
LINE
  5
235
330
146
100
AcDbEntity
  8
참조1
100
AcDbLine
 10
90.51899512937676
 20
-5.438925071276109
 30
0.0
 11
77.81899512937676
 21
-5.438925071276109
 31
0.0
  0
SOLID
  5
236
330
146
100
AcDbEntity
  8
참조1
100
AcDbTrace
 10
77.81899512937676
 20
-5.438925071276109
 30
0.0
 11
84.16899512937675
 21
-6.454925071276109
 31
0.0
 12
84.16899512937675
 22
-4.422925071276109
 32
0.0
 13
84.16899512937675
 23
-4.422925071276109
 33
0.0
  0
MTEXT
  5
237
330
146
100
AcDbEntity
  8
참조1
100
AcDbMText
 10
87.20334526200276
 20
11.01136670591222
 30
0.0
 40
3.5
 41
0.0
 71
     1
 72
     1
  1
A
  7
SLDTEXTSTYLE0
 73
     1
 44
1.0
  0
MTEXT
  5
238
330
146
100
AcDbEntity
  8
참조1
100
AcDbMText
 10
87.20334526200276
 20
0.1313667059122192
 30
0.0
 40
3.5
 41
0.0
 71
     1
 72
     1
  1
A
  7
SLDTEXTSTYLE0
 73
     1
 44
1.0
  0
INSERT
  5
239
330
146
100
AcDbEntity
  8
해칭선
100
AcDbBlockReference
  2
SW_DOWELSYMBOL_0
 10
10.36810364977727
 20
0.0
 30
0.0
  0
ENDBLK
  5
241
330
146
100
AcDbEntity
  8
0
100
AcDbBlockEnd
  0
BLOCK
  5
244
330
243
100
AcDbEntity
  8
0
100
AcDbBlockBegin
  2
*D8
 70
     1
 10
0.0
 20
0.0
 30
0.0
  3
*D8
  1
*D8
  0
LINE
  5
246
330
243
100
AcDbEntity
  8
치수문자_일반주서
 62
     0
370
    -2
100
AcDbLine
 10
49.77426131403115
 20
0.0635749287238931
 30
0.0
 11
49.77426131403115
 21
19.82667470814031
 31
0.0
  0
LINE
  5
247
330
243
100
AcDbEntity
  8
치수문자_일반주서
 62
     0
370
    -2
100
AcDbLine
 10
14.84926131403116
 20
7.994983411127289
 30
0.0
 11
14.84926131403117
 21
19.82667470814031
 31
0.0
  0
LINE
  5
248
330
243
100
AcDbEntity
  8
치수문자_일반주서
 62
     0
370
    -2
100
AcDbLine
 10
49.77426131403115
 20
19.82667470814031
 30
0.0
 11
79.32626131403114
 21
19.82667470814031
 31
0.0
  0
LINE
  5
249
330
243
100
AcDbEntity
  8
치수문자_일반주서
 62
     0
370
    -2
100
AcDbLine
 10
46.47226131403115
 20
19.82667470814031
 30
0.0
 11
18.15126131403117
 21
19.82667470814031
 31
0.0
  0
SOLID
  5
24A
330
243
100
AcDbEntity
  8
치수문자_일반주서
 62
     0
100
AcDbTrace
 10
46.47226131403115
 20
19.27634137480698
 30
0.0
 11
46.47226131403115
 21
20.37700804147364
 31
0.0
 12
49.77426131403115
 22
19.82667470814031
 32
0.0
 13
49.77426131403115
 23
19.82667470814031
 33
0.0
  0
SOLID
  5
24B
330
243
100
AcDbEntity
  8
치수문자_일반주서
 62
     0
100
AcDbTrace
 10
18.15126131403117
 20
20.37700804147364
 30
0.0
 11
18.15126131403117
 21
19.27634137480698
 31
0.0
 12
14.84926131403117
 22
19.82667470814031
 32
0.0
 13
14.84926131403117
 23
19.82667470814031
 33
0.0
  0
MTEXT
  5
24C
330
243
100
AcDbEntity
  8
치수문자_일반주서
 62
     0
100
AcDbMText
 10
66.20126131403114
 20
24.20167470814031
 30
0.0
 40
3.5
 41
0.0
 71
     2
 72
     1
  1
\A1;34.93 [1.38]
  7
SLDTEXTSTYLE0
 73
     1
 44
1.0
  0
POINT
  5
24D
330
243
100
AcDbEntity
  8
Defpoints
 62
     0
100
AcDbPoint
 10
49.77426131403115
 20
0.0010749287238931
 30
0.0
  0
POINT
  5
24E
330
243
100
AcDbEntity
  8
Defpoints
 62
     0
100
AcDbPoint
 10
14.84926131403116
 20
7.932483411127289
 30
0.0
  0
POINT
  5
24F
330
243
100
AcDbEntity
  8
Defpoints
 62
     0
100
AcDbPoint
 10
14.84926131403116
 20
19.82667470814031
 30
0.0
  0
ENDBLK
  5
245
330
243
100
AcDbEntity
  8
0
100
AcDbBlockEnd
  0
BLOCK
  5
251
330
250
100
AcDbEntity
  8
0
100
AcDbBlockBegin
  2
*D9
 70
     1
 10
0.0
 20
0.0
 30
0.0
  3
*D9
  1
*D9
  0
LINE
  5
253
330
250
100
AcDbEntity
  8
치수문자_일반주서
 62
     0
370
    -2
100
AcDbLine
 10
49.77426131403115
 20
4.337226723198786
 30
0.0
 11
49.77426131403115
 21
38.76357492872395
 31
0.0
  0
LINE
  5
254
330
250
100
AcDbEntity
  8
치수문자_일반주서
 62
     0
370
    -2
100
AcDbLine
 10
-39.12573868596886
 20
7.001074928723878
 30
0.0
 11
-39.12573868596886
 21
38.76357492872395
 31
0.0
  0
LINE
  5
255
330
250
100
AcDbEntity
  8
치수문자_일반주서
 62
     0
370
    -2
100
AcDbLine
 10
46.47226131403115
 20
38.76357492872395
 30
0.0
 11
-35.82373868596886
 21
38.76357492872395
 31
0.0
  0
SOLID
  5
256
330
250
100
AcDbEntity
  8
치수문자_일반주서
 62
     0
100
AcDbTrace
 10
46.47226131403115
 20
38.21324159539062
 30
0.0
 11
46.47226131403115
 21
39.31390826205729
 31
0.0
 12
49.77426131403115
 22
38.76357492872395
 32
0.0
 13
49.77426131403115
 23
38.76357492872395
 33
0.0
  0
SOLID
  5
257
330
250
100
AcDbEntity
  8
치수문자_일반주서
 62
     0
100
AcDbTrace
 10
-35.82373868596886
 20
39.31390826205729
 30
0.0
 11
-35.82373868596886
 21
38.21324159539062
 31
0.0
 12
-39.12573868596886
 22
38.76357492872395
 32
0.0
 13
-39.12573868596886
 23
38.76357492872395
 33
0.0
  0
MTEXT
  5
258
330
250
100
AcDbEntity
  8
치수문자_일반주서
 62
     0
100
AcDbMText
 10
5.324261314031143
 20
43.13857492872395
 30
0.0
 40
3.5
 41
0.0
 71
     2
 72
     1
  1
\A1;88.90 [3.50]
  7
SLDTEXTSTYLE0
 73
     1
 44
1.0
  0
POINT
  5
259
330
250
100
AcDbEntity
  8
Defpoints
 62
     0
100
AcDbPoint
 10
49.77426131403115
 20
4.274726723198786
 30
0.0
  0
POINT
  5
25A
330
250
100
AcDbEntity
  8
Defpoints
 62
     0
100
AcDbPoint
 10
-39.12573868596886
 20
6.938574928723878
 30
0.0
  0
POINT
  5
25B
330
250
100
AcDbEntity
  8
Defpoints
 62
     0
100
AcDbPoint
 10
-39.12573868596886
 20
38.76357492872395
 30
0.0
  0
ENDBLK
  5
252
330
250
100
AcDbEntity
  8
0
100
AcDbBlockEnd
  0
BLOCK
  5
25D
330
25C
100
AcDbEntity
  8
0
100
AcDbBlockBegin
  2
*D10
 70
     1
 10
0.0
 20
0.0
 30
0.0
  3
*D10
  1
*D10
  0
LINE
  5
25F
330
25C
100
AcDbEntity
  8
치수문자_일반주서
 62
     0
370
    -2
100
AcDbLine
 10
-38.18823868596883
 20
7.938574928723883
 30
0.0
 11
-51.62573868596887
 21
7.938574928723832
 31
0.0
  0
LINE
  5
260
330
25C
100
AcDbEntity
  8
치수문자_일반주서
 62
     0
370
    -2
100
AcDbLine
 10
-38.18823868596883
 20
-7.936425071276117
 30
0.0
 11
-51.62573868596881
 21
-7.936425071276168
 31
0.0
  0
LINE
  5
261
330
25C
100
AcDbEntity
  8
치수문자_일반주서
 62
     0
370
    -2
100
AcDbLine
 10
-51.62573868596886
 20
4.636574928723832
 30
0.0
 11
-51.62573868596883
 21
-4.634425071276168
 31
0.0
  0
SOLID
  5
262
330
25C
100
AcDbEntity
  8
치수문자_일반주서
 62
     0
100
AcDbTrace
 10
-51.07540535263552
 20
4.636574928723834
 30
0.0
 11
-52.17607201930219
 21
4.636574928723831
 31
0.0
 12
-51.62573868596887
 22
7.938574928723832
 32
0.0
 13
-51.62573868596887
 23
7.938574928723832
 33
0.0
  0
SOLID
  5
263
330
25C
100
AcDbEntity
  8
치수문자_일반주서
 62
     0
100
AcDbTrace
 10
-52.17607201930216
 20
-4.63442507127617
 30
0.0
 11
-51.07540535263549
 21
-4.634425071276167
 31
0.0
 12
-51.62573868596881
 22
-7.936425071276168
 32
0.0
 13
-51.62573868596881
 23
-7.936425071276168
 33
0.0
  0
MTEXT
  5
264
330
25C
100
AcDbEntity
  8
치수문자_일반주서
 62
     0
100
AcDbMText
 10
-56.00073868596884
 20
0.0010749287238664
 30
0.0
 40
3.5
 41
0.0
 71
     2
 72
     1
  1
\A1;%%c15.88 [0.63]
  7
SLDTEXTSTYLE0
 11
-3.580687802255623E-15
 21
1.0
 31
0.0
 73
     1
 44
1.0
  0
POINT
  5
265
330
25C
100
AcDbEntity
  8
Defpoints
 62
     0
100
AcDbPoint
 10
-38.12573868596883
 20
7.938574928723883
 30
0.0
  0
POINT
  5
266
330
25C
100
AcDbEntity
  8
Defpoints
 62
     0
100
AcDbPoint
 10
-38.12573868596883
 20
-7.936425071276117
 30
0.0
  0
POINT
  5
267
330
25C
100
AcDbEntity
  8
Defpoints
 62
     0
100
AcDbPoint
 10
-51.62573868596884
 20
-7.936425071276168
 30
0.0
  0
ENDBLK
  5
25E
330
25C
100
AcDbEntity
  8
0
100
AcDbBlockEnd
  0
BLOCK
  5
269
330
268
100
AcDbEntity
  8
0
100
AcDbBlockBegin
  2
*D11
 70
     1
 10
0.0
 20
0.0
 30
0.0
  3
*D11
  1
*D11
  0
LINE
  5
26B
330
268
100
AcDbEntity
  8
치수문자_일반주서
 62
     0
370
    -2
100
AcDbLine
 10
41.89926131403116
 20
7.938574928723897
 30
0.0
 11
62.42426131403136
 21
7.938574928723973
 31
0.0
  0
LINE
  5
26C
330
268
100
AcDbEntity
  8
치수문자_일반주서
 62
     0
370
    -2
100
AcDbLine
 10
41.89926131403116
 20
-7.936425071276103
 30
0.0
 11
62.42426131403142
 21
-7.936425071276034
 31
0.0
  0
LINE
  5
26D
330
268
100
AcDbEntity
  8
치수문자_일반주서
 62
     0
370
    -2
100
AcDbLine
 10
62.42426131403136
 20
7.938574928723973
 30
0.0
 11
62.42426131403113
 21
70.92152275520935
 31
0.0
  0
LINE
  5
26E
330
268
100
AcDbEntity
  8
치수문자_일반주서
 62
     0
370
    -2
100
AcDbLine
 10
62.42426131403138
 20
4.636574928723974
 30
0.0
 11
62.4242613140314
 21
-4.634425071276034
 31
0.0
  0
SOLID
  5
26F
330
268
100
AcDbEntity
  8
치수문자_일반주서
 62
     0
100
AcDbTrace
 10
62.97459464736471
 20
4.636574928723975
 30
0.0
 11
61.87392798069804
 21
4.636574928723972
 31
0.0
 12
62.42426131403136
 22
7.938574928723973
 32
0.0
 13
62.42426131403136
 23
7.938574928723973
 33
0.0
  0
SOLID
  5
270
330
268
100
AcDbEntity
  8
치수문자_일반주서
 62
     0
100
AcDbTrace
 10
61.87392798069807
 20
-4.634425071276036
 30
0.0
 11
62.97459464736474
 21
-4.634425071276032
 31
0.0
 12
62.42426131403142
 22
-7.936425071276034
 32
0.0
 13
62.42426131403142
 23
-7.936425071276034
 33
0.0
  0
MTEXT
  5
271
330
268
100
AcDbEntity
  8
치수문자_일반주서
 62
     0
100
AcDbMText
 10
58.04926131403118
 20
56.70277275520934
 30
0.0
 40
3.5
 41
0.0
 71
     2
 72
     1
  1
\A1;%%c15.88 [0.63]
  7
SLDTEXTSTYLE0
 11
-3.580687802255624E-15
 21
1.0
 31
0.0
 73
     1
 44
1.0
  0
POINT
  5
272
330
268
100
AcDbEntity
  8
Defpoints
 62
     0
100
AcDbPoint
 10
41.83676131403116
 20
7.938574928723897
 30
0.0
  0
POINT
  5
273
330
268
100
AcDbEntity
  8
Defpoints
 62
     0
100
AcDbPoint
 10
41.83676131403116
 20
-7.936425071276103
 30
0.0
  0
POINT
  5
274
330
268
100
AcDbEntity
  8
Defpoints
 62
     0
100
AcDbPoint
 10
62.42426131403118
 20
-7.936425071276026
 30
0.0
  0
ENDBLK
  5
26A
330
268
100
AcDbEntity
  8
0
100
AcDbBlockEnd
  0
BLOCK
  5
312
330
311
100
AcDbEntity
  8
0
100
AcDbBlockBegin
  2
*D12
 70
     1
 10
0.0
 20
0.0
 30
0.0
  3
*D12
  1
*D13
  0
LINE
  5
314
330
311
100
AcDbEntity
  8
치수문자_일반주서
 62
     0
370
    -2
100
AcDbLine
 10
93.07500000000006
 20
18.57274999999994
 30
0.0
 11
93.07500000000006
 21
30.09460713417075
 31
0.0
  0
LINE
  5
315
330
311
100
AcDbEntity
  8
치수문자_일반주서
 62
     0
370
    -2
100
AcDbLine
 10
67.67500000000007
 20
18.53260402348627
 30
0.0
 11
67.67500000000007
 21
30.09460713417075
 31
0.0
  0
LINE
  5
316
330
311
100
AcDbEntity
  8
치수문자_일반주서
 62
     0
370
    -2
100
AcDbLine
 10
67.67500000000007
 20
30.09460713417075
 30
0.0
 11
41.38350000000007
 21
30.09460713417075
 31
0.0
  0
LINE
  5
317
330
311
100
AcDbEntity
  8
치수문자_일반주서
 62
     0
370
    -2
100
AcDbLine
 10
93.07500000000006
 20
30.09460713417075
 30
0.0
 11
67.67500000000007
 21
30.09460713417075
 31
0.0
  0
LINE
  5
318
330
311
100
AcDbEntity
  8
치수문자_일반주서
 62
     0
370
    -2
100
AcDbLine
 10
96.37700000000007
 20
30.09460713417075
 30
0.0
 11
99.67900000000006
 21
30.09460713417075
 31
0.0
  0
LINE
  5
319
330
311
100
AcDbEntity
  8
치수문자_일반주서
 62
     0
370
    -2
100
AcDbLine
 10
64.37300000000008
 20
30.09460713417075
 30
0.0
 11
61.07100000000008
 21
30.09460713417075
 31
0.0
  0
SOLID
  5
31A
330
311
100
AcDbEntity
  8
치수문자_일반주서
 62
     0
100
AcDbTrace
 10
96.37700000000007
 20
30.64494046750408
 30
0.0
 11
96.37700000000007
 21
29.54427380083741
 31
0.0
 12
93.07500000000006
 22
30.09460713417075
 32
0.0
 13
93.07500000000006
 23
30.09460713417075
 33
0.0
  0
SOLID
  5
31B
330
311
100
AcDbEntity
  8
치수문자_일반주서
 62
     0
100
AcDbTrace
 10
64.37300000000008
 20
29.54427380083741
 30
0.0
 11
64.37300000000008
 21
30.64494046750408
 31
0.0
 12
67.67500000000007
 22
30.09460713417075
 32
0.0
 13
67.67500000000007
 23
30.09460713417075
 33
0.0
  0
MTEXT
  5
31C
330
311
100
AcDbEntity
  8
치수문자_일반주서
 62
     0
100
AcDbMText
 10
51.22725000000007
 20
34.46960713417074
 30
0.0
 40
3.5
 41
0.0
 71
     2
 72
     1
  1
\A1;25.40 [1]
  7
SLDTEXTSTYLE0
 73
     1
 44
1.0
  0
POINT
  5
31D
330
311
100
AcDbEntity
  8
Defpoints
 62
     0
100
AcDbPoint
 10
93.07500000000006
 20
18.51024999999994
 30
0.0
  0
POINT
  5
31E
330
311
100
AcDbEntity
  8
Defpoints
 62
     0
100
AcDbPoint
 10
67.67500000000007
 20
18.47010402348627
 30
0.0
  0
POINT
  5
31F
330
311
100
AcDbEntity
  8
Defpoints
 62
     0
100
AcDbPoint
 10
67.67500000000007
 20
30.09460713417075
 30
0.0
  0
ENDBLK
  5
313
330
311
100
AcDbEntity
  8
0
100
AcDbBlockEnd
  0
BLOCK
  5
321
330
320
100
AcDbEntity
  8
0
100
AcDbBlockBegin
  2
*D13
 70
     1
 10
0.0
 20
0.0
 30
0.0
  3
*D13
  1
*D14
  0
LINE
  5
323
330
320
100
AcDbEntity
  8
치수문자_일반주서
 62
     0
370
    -2
100
AcDbLine
 10
93.07500000000009
 20
18.57274999999994
 30
0.0
 11
93.07500000000009
 21
51.31962499999999
 31
0.0
  0
LINE
  5
324
330
320
100
AcDbEntity
  8
치수문자_일반주서
 62
     0
370
    -2
100
AcDbLine
 10
16.87500000000006
 20
17.96962499999993
 30
0.0
 11
16.87500000000006
 21
51.31962499999999
 31
0.0
  0
LINE
  5
325
330
320
100
AcDbEntity
  8
치수문자_일반주서
 62
     0
370
    -2
100
AcDbLine
 10
89.77300000000008
 20
51.31962499999999
 30
0.0
 11
20.17700000000006
 21
51.31962499999999
 31
0.0
  0
SOLID
  5
326
330
320
100
AcDbEntity
  8
치수문자_일반주서
 62
     0
100
AcDbTrace
 10
89.77300000000008
 20
50.76929166666666
 30
0.0
 11
89.77300000000008
 21
51.86995833333333
 31
0.0
 12
93.07500000000009
 22
51.31962499999999
 32
0.0
 13
93.07500000000009
 23
51.31962499999999
 33
0.0
  0
SOLID
  5
327
330
320
100
AcDbEntity
  8
치수문자_일반주서
 62
     0
100
AcDbTrace
 10
20.17700000000006
 20
51.86995833333333
 30
0.0
 11
20.17700000000006
 21
50.76929166666666
 31
0.0
 12
16.87500000000006
 22
51.31962499999999
 32
0.0
 13
16.87500000000006
 23
51.31962499999999
 33
0.0
  0
MTEXT
  5
328
330
320
100
AcDbEntity
  8
치수문자_일반주서
 62
     0
100
AcDbMText
 10
54.97500000000005
 20
55.69462499999999
 30
0.0
 40
3.5
 41
0.0
 71
     2
 72
     1
  1
\A1;76.20 [3]
  7
SLDTEXTSTYLE0
 73
     1
 44
1.0
  0
POINT
  5
329
330
320
100
AcDbEntity
  8
Defpoints
 62
     0
100
AcDbPoint
 10
93.07500000000009
 20
18.51024999999994
 30
0.0
  0
POINT
  5
32A
330
320
100
AcDbEntity
  8
Defpoints
 62
     0
100
AcDbPoint
 10
16.87500000000006
 20
17.90712499999993
 30
0.0
  0
POINT
  5
32B
330
320
100
AcDbEntity
  8
Defpoints
 62
     0
100
AcDbPoint
 10
16.87500000000006
 20
51.31962499999999
 30
0.0
  0
ENDBLK
  5
322
330
320
100
AcDbEntity
  8
0
100
AcDbBlockEnd
  0
BLOCK
  5
32D
330
32C
100
AcDbEntity
  8
0
100
AcDbBlockBegin
  2
*D14
 70
     1
 10
0.0
 20
0.0
 30
0.0
  3
*D14
  1
*D15
  0
LINE
  5
32F
330
32C
100
AcDbEntity
  8
치수문자_일반주서
 62
     0
370
    -2
100
AcDbLine
 10
17.81250000000006
 20
18.90712499999993
 30
0.0
 11
4.37500000000002
 21
18.90712499999988
 31
0.0
  0
LINE
  5
330
330
32C
100
AcDbEntity
  8
치수문자_일반주서
 62
     0
370
    -2
100
AcDbLine
 10
17.81250000000006
 20
6.207124999999942
 30
0.0
 11
4.375000000000065
 21
6.207124999999892
 31
0.0
  0
LINE
  5
331
330
32C
100
AcDbEntity
  8
치수문자_일반주서
 62
     0
370
    -2
100
AcDbLine
 10
4.375000000000032
 20
15.60512499999988
 30
0.0
 11
4.375000000000053
 21
9.50912499999989
 31
0.0
  0
SOLID
  5
332
330
32C
100
AcDbEntity
  8
치수문자_일반주서
 62
     0
100
AcDbTrace
 10
4.925333333333366
 20
15.60512499999988
 30
0.0
 11
3.824666666666699
 21
15.60512499999988
 31
0.0
 12
4.37500000000002
 22
18.90712499999988
 32
0.0
 13
4.37500000000002
 23
18.90712499999988
 33
0.0
  0
SOLID
  5
333
330
32C
100
AcDbEntity
  8
치수문자_일반주서
 62
     0
100
AcDbTrace
 10
3.82466666666672
 20
9.509124999999889
 30
0.0
 11
4.925333333333387
 21
9.509124999999893
 31
0.0
 12
4.375000000000065
 22
6.207124999999892
 32
0.0
 13
4.375000000000065
 23
6.207124999999892
 33
0.0
  0
MTEXT
  5
334
330
32C
100
AcDbEntity
  8
치수문자_일반주서
 62
     0
100
AcDbMText
 10
0.0000000000000426
 20
12.55712499999992
 30
0.0
 40
3.5
 41
0.0
 71
     2
 72
     1
  1
\A1;%%c12.70 [1/2]
  7
SLDTEXTSTYLE0
 11
-3.496765431890260E-15
 21
1.0
 31
0.0
 73
     1
 44
1.0
  0
POINT
  5
335
330
32C
100
AcDbEntity
  8
Defpoints
 62
     0
100
AcDbPoint
 10
17.87500000000006
 20
18.90712499999993
 30
0.0
  0
POINT
  5
336
330
32C
100
AcDbEntity
  8
Defpoints
 62
     0
100
AcDbPoint
 10
17.87500000000006
 20
6.207124999999942
 30
0.0
  0
POINT
  5
337
330
32C
100
AcDbEntity
  8
Defpoints
 62
     0
100
AcDbPoint
 10
4.375000000000064
 20
6.207124999999891
 30
0.0
  0
ENDBLK
  5
32E
330
32C
100
AcDbEntity
  8
0
100
AcDbBlockEnd
  0
BLOCK
  5
339
330
338
100
AcDbEntity
  8
0
100
AcDbBlockBegin
  2
*D15
 70
     1
 10
0.0
 20
0.0
 30
0.0
  3
*D15
  1
*D16
  0
LINE
  5
33B
330
338
100
AcDbEntity
  8
치수문자_일반주서
 62
     0
370
    -2
100
AcDbLine
 10
93.13750000000005
 20
18.51024999999994
 30
0.0
 11
107.7093750000002
 21
18.51024999999998
 31
0.0
  0
LINE
  5
33C
330
338
100
AcDbEntity
  8
치수문자_일반주서
 62
     0
370
    -2
100
AcDbLine
 10
93.13750000000006
 20
6.60399999999994
 30
0.0
 11
107.7093750000003
 21
6.603999999999992
 31
0.0
  0
LINE
  5
33D
330
338
100
AcDbEntity
  8
치수문자_일반주서
 62
     0
370
    -2
100
AcDbLine
 10
107.7093750000002
 20
18.51024999999998
 30
0.0
 11
107.709375
 21
70.39589836986403
 31
0.0
  0
LINE
  5
33E
330
338
100
AcDbEntity
  8
치수문자_일반주서
 62
     0
370
    -2
100
AcDbLine
 10
107.7093750000002
 20
18.51024999999998
 30
0.0
 11
107.7093750000003
 21
6.603999999999992
 31
0.0
  0
LINE
  5
33F
330
338
100
AcDbEntity
  8
치수문자_일반주서
 62
     0
370
    -2
100
AcDbLine
 10
107.7093750000002
 20
21.81224999999998
 30
0.0
 11
107.7093750000002
 21
25.11424999999998
 31
0.0
  0
LINE
  5
340
330
338
100
AcDbEntity
  8
치수문자_일반주서
 62
     0
370
    -2
100
AcDbLine
 10
107.7093750000003
 20
3.301999999999992
 30
0.0
 11
107.7093750000003
 21
-0.0000000000000071
 31
0.0
  0
SOLID
  5
341
330
338
100
AcDbEntity
  8
치수문자_일반주서
 62
     0
100
AcDbTrace
 10
107.1590416666669
 20
21.81224999999998
 30
0.0
 11
108.2597083333335
 21
21.81224999999999
 31
0.0
 12
107.7093750000002
 22
18.51024999999998
 32
0.0
 13
107.7093750000002
 23
18.51024999999998
 33
0.0
  0
SOLID
  5
342
330
338
100
AcDbEntity
  8
치수문자_일반주서
 62
     0
100
AcDbTrace
 10
108.2597083333336
 20
3.301999999999994
 30
0.0
 11
107.1590416666669
 21
3.301999999999991
 31
0.0
 12
107.7093750000003
 22
6.603999999999992
 32
0.0
 13
107.7093750000003
 23
6.603999999999992
 33
0.0
  0
MTEXT
  5
343
330
338
100
AcDbEntity
  8
치수문자_일반주서
 62
     0
100
AcDbMText
 10
103.3343750000001
 20
55.08339836986402
 30
0.0
 40
3.5
 41
0.0
 71
     2
 72
     1
  1
\A1;%%c11.91 [15/32]
  7
SLDTEXTSTYLE0
 11
-3.580687802255624E-15
 21
1.0
 31
0.0
 73
     1
 44
1.0
  0
POINT
  5
344
330
338
100
AcDbEntity
  8
Defpoints
 62
     0
100
AcDbPoint
 10
93.07500000000005
 20
18.51024999999994
 30
0.0
  0
POINT
  5
345
330
338
100
AcDbEntity
  8
Defpoints
 62
     0
100
AcDbPoint
 10
93.07500000000006
 20
6.60399999999994
 30
0.0
  0
POINT
  5
346
330
338
100
AcDbEntity
  8
Defpoints
 62
     0
100
AcDbPoint
 10
107.7093750000003
 20
6.603999999999995
 30
0.0
  0
ENDBLK
  5
33A
330
338
100
AcDbEntity
  8
0
100
AcDbBlockEnd
  0
BLOCK
  5
37C
330
37B
100
AcDbEntity
  8
0
100
AcDbBlockBegin
  2
*D16
 70
     1
 10
0.0
 20
0.0
 30
0.0
  3
*D16
  1
*D17
  0
LINE
  5
37E
330
37B
100
AcDbEntity
  8
치수문자_일반주서
 62
     0
370
    -2
100
AcDbLine
 10
159.8419884494802
 20
-27.19860291018252
 30
0.0
 11
159.8419884494802
 21
-15.6767457760117
 31
0.0
  0
LINE
  5
37F
330
37B
100
AcDbEntity
  8
치수문자_일반주서
 62
     0
370
    -2
100
AcDbLine
 10
134.4419884494802
 20
-27.23874888669618
 30
0.0
 11
134.4419884494802
 21
-15.6767457760117
 31
0.0
  0
LINE
  5
380
330
37B
100
AcDbEntity
  8
치수문자_일반주서
 62
     0
370
    -2
100
AcDbLine
 10
134.4419884494802
 20
-15.6767457760117
 30
0.0
 11
108.1504884494802
 21
-15.6767457760117
 31
0.0
  0
LINE
  5
381
330
37B
100
AcDbEntity
  8
치수문자_일반주서
 62
     0
370
    -2
100
AcDbLine
 10
159.8419884494802
 20
-15.6767457760117
 30
0.0
 11
134.4419884494802
 21
-15.6767457760117
 31
0.0
  0
LINE
  5
382
330
37B
100
AcDbEntity
  8
치수문자_일반주서
 62
     0
370
    -2
100
AcDbLine
 10
163.1439884494802
 20
-15.6767457760117
 30
0.0
 11
166.4459884494802
 21
-15.6767457760117
 31
0.0
  0
LINE
  5
383
330
37B
100
AcDbEntity
  8
치수문자_일반주서
 62
     0
370
    -2
100
AcDbLine
 10
131.1399884494802
 20
-15.6767457760117
 30
0.0
 11
127.8379884494802
 21
-15.6767457760117
 31
0.0
  0
SOLID
  5
384
330
37B
100
AcDbEntity
  8
치수문자_일반주서
 62
     0
100
AcDbTrace
 10
163.1439884494802
 20
-15.12641244267837
 30
0.0
 11
163.1439884494802
 21
-16.22707910934504
 31
0.0
 12
159.8419884494802
 22
-15.6767457760117
 32
0.0
 13
159.8419884494802
 23
-15.6767457760117
 33
0.0
  0
SOLID
  5
385
330
37B
100
AcDbEntity
  8
치수문자_일반주서
 62
     0
100
AcDbTrace
 10
131.1399884494802
 20
-16.22707910934504
 30
0.0
 11
131.1399884494802
 21
-15.12641244267837
 31
0.0
 12
134.4419884494802
 22
-15.6767457760117
 32
0.0
 13
134.4419884494802
 23
-15.6767457760117
 33
0.0
  0
MTEXT
  5
386
330
37B
100
AcDbEntity
  8
치수문자_일반주서
 62
     0
100
AcDbMText
 10
117.9942384494802
 20
-11.3017457760117
 30
0.0
 40
3.5
 41
0.0
 71
     2
 72
     1
  1
\A1;25.40 [1]
  7
SLDTEXTSTYLE0
 73
     1
 44
1.0
  0
POINT
  5
387
330
37B
100
AcDbEntity
  8
Defpoints
 62
     0
100
AcDbPoint
 10
159.8419884494802
 20
-27.26110291018252
 30
0.0
  0
POINT
  5
388
330
37B
100
AcDbEntity
  8
Defpoints
 62
     0
100
AcDbPoint
 10
134.4419884494802
 20
-27.30124888669618
 30
0.0
  0
POINT
  5
389
330
37B
100
AcDbEntity
  8
Defpoints
 62
     0
100
AcDbPoint
 10
134.4419884494802
 20
-15.6767457760117
 30
0.0
  0
ENDBLK
  5
37D
330
37B
100
AcDbEntity
  8
0
100
AcDbBlockEnd
  0
BLOCK
  5
38B
330
38A
100
AcDbEntity
  8
0
100
AcDbBlockBegin
  2
*D17
 70
     1
 10
0.0
 20
0.0
 30
0.0
  3
*D17
  1
*D18
  0
LINE
  5
38D
330
38A
100
AcDbEntity
  8
치수문자_일반주서
 62
     0
370
    -2
100
AcDbLine
 10
159.8419884494802
 20
-27.19860291018251
 30
0.0
 11
159.8419884494802
 21
5.548272089817544
 31
0.0
  0
LINE
  5
38E
330
38A
100
AcDbEntity
  8
치수문자_일반주서
 62
     0
370
    -2
100
AcDbLine
 10
83.6419884494802
 20
-27.80172791018252
 30
0.0
 11
83.6419884494802
 21
5.548272089817544
 31
0.0
  0
LINE
  5
38F
330
38A
100
AcDbEntity
  8
치수문자_일반주서
 62
     0
370
    -2
100
AcDbLine
 10
156.5399884494802
 20
5.548272089817544
 30
0.0
 11
86.9439884494802
 21
5.548272089817544
 31
0.0
  0
SOLID
  5
390
330
38A
100
AcDbEntity
  8
치수문자_일반주서
 62
     0
100
AcDbTrace
 10
156.5399884494802
 20
4.997938756484211
 30
0.0
 11
156.5399884494802
 21
6.098605423150878
 31
0.0
 12
159.8419884494802
 22
5.548272089817544
 32
0.0
 13
159.8419884494802
 23
5.548272089817544
 33
0.0
  0
SOLID
  5
391
330
38A
100
AcDbEntity
  8
치수문자_일반주서
 62
     0
100
AcDbTrace
 10
86.9439884494802
 20
6.098605423150878
 30
0.0
 11
86.9439884494802
 21
4.997938756484211
 31
0.0
 12
83.6419884494802
 22
5.548272089817544
 32
0.0
 13
83.6419884494802
 23
5.548272089817544
 33
0.0
  0
MTEXT
  5
392
330
38A
100
AcDbEntity
  8
치수문자_일반주서
 62
     0
100
AcDbMText
 10
121.7419884494802
 20
9.923272089817544
 30
0.0
 40
3.5
 41
0.0
 71
     2
 72
     1
  1
\A1;76.20 [3]
  7
SLDTEXTSTYLE0
 73
     1
 44
1.0
  0
POINT
  5
393
330
38A
100
AcDbEntity
  8
Defpoints
 62
     0
100
AcDbPoint
 10
159.8419884494802
 20
-27.26110291018251
 30
0.0
  0
POINT
  5
394
330
38A
100
AcDbEntity
  8
Defpoints
 62
     0
100
AcDbPoint
 10
83.6419884494802
 20
-27.86422791018252
 30
0.0
  0
POINT
  5
395
330
38A
100
AcDbEntity
  8
Defpoints
 62
     0
100
AcDbPoint
 10
83.6419884494802
 20
5.548272089817544
 30
0.0
  0
ENDBLK
  5
38C
330
38A
100
AcDbEntity
  8
0
100
AcDbBlockEnd
  0
BLOCK
  5
397
330
396
100
AcDbEntity
  8
0
100
AcDbBlockBegin
  2
*D18
 70
     1
 10
0.0
 20
0.0
 30
0.0
  3
*D18
  1
*D19
  0
LINE
  5
399
330
396
100
AcDbEntity
  8
치수문자_일반주서
 62
     0
370
    -2
100
AcDbLine
 10
84.5794884494802
 20
-26.86422791018252
 30
0.0
 11
71.14198844948017
 21
-26.86422791018257
 31
0.0
  0
LINE
  5
39A
330
396
100
AcDbEntity
  8
치수문자_일반주서
 62
     0
370
    -2
100
AcDbLine
 10
84.5794884494802
 20
-39.56422791018251
 30
0.0
 11
71.14198844948021
 21
-39.56422791018256
 31
0.0
  0
LINE
  5
39B
330
396
100
AcDbEntity
  8
치수문자_일반주서
 62
     0
370
    -2
100
AcDbLine
 10
71.14198844948018
 20
-30.16622791018257
 30
0.0
 11
71.1419884494802
 21
-36.26222791018256
 31
0.0
  0
SOLID
  5
39C
330
396
100
AcDbEntity
  8
치수문자_일반주서
 62
     0
100
AcDbTrace
 10
71.69232178281351
 20
-30.16622791018257
 30
0.0
 11
70.59165511614685
 21
-30.16622791018257
 31
0.0
 12
71.14198844948017
 22
-26.86422791018257
 32
0.0
 13
71.14198844948017
 23
-26.86422791018257
 33
0.0
  0
SOLID
  5
39D
330
396
100
AcDbEntity
  8
치수문자_일반주서
 62
     0
100
AcDbTrace
 10
70.59165511614687
 20
-36.26222791018256
 30
0.0
 11
71.69232178281352
 21
-36.26222791018256
 31
0.0
 12
71.14198844948021
 22
-39.56422791018256
 32
0.0
 13
71.14198844948021
 23
-39.56422791018256
 33
0.0
  0
MTEXT
  5
39E
330
396
100
AcDbEntity
  8
치수문자_일반주서
 62
     0
100
AcDbMText
 10
66.76698844948018
 20
-33.21422791018253
 30
0.0
 40
3.5
 41
0.0
 71
     2
 72
     1
  1
\A1;%%c12.70 [1/2]
  7
SLDTEXTSTYLE0
 11
-3.356894814614650E-15
 21
1.0
 31
0.0
 73
     1
 44
1.0
  0
POINT
  5
39F
330
396
100
AcDbEntity
  8
Defpoints
 62
     0
100
AcDbPoint
 10
84.6419884494802
 20
-26.86422791018252
 30
0.0
  0
POINT
  5
3A0
330
396
100
AcDbEntity
  8
Defpoints
 62
     0
100
AcDbPoint
 10
84.6419884494802
 20
-39.56422791018251
 30
0.0
  0
POINT
  5
3A1
330
396
100
AcDbEntity
  8
Defpoints
 62
     0
100
AcDbPoint
 10
71.14198844948021
 20
-39.56422791018256
 30
0.0
  0
ENDBLK
  5
398
330
396
100
AcDbEntity
  8
0
100
AcDbBlockEnd
  0
BLOCK
  5
3A3
330
3A2
100
AcDbEntity
  8
0
100
AcDbBlockBegin
  2
*D19
 70
     1
 10
0.0
 20
0.0
 30
0.0
  3
*D19
  1
*D20
  0
LINE
  5
3A5
330
3A2
100
AcDbEntity
  8
치수문자_일반주서
 62
     0
370
    -2
100
AcDbLine
 10
159.9044884494802
 20
-27.26110291018251
 30
0.0
 11
174.4763634494803
 21
-27.26110291018247
 31
0.0
  0
LINE
  5
3A6
330
3A2
100
AcDbEntity
  8
치수문자_일반주서
 62
     0
370
    -2
100
AcDbLine
 10
159.9044884494802
 20
-39.16735291018251
 30
0.0
 11
174.4763634494803
 21
-39.16735291018246
 31
0.0
  0
LINE
  5
3A7
330
3A2
100
AcDbEntity
  8
치수문자_일반주서
 62
     0
370
    -2
100
AcDbLine
 10
174.4763634494803
 20
-27.26110291018247
 30
0.0
 11
174.4763634494802
 21
24.62454545968158
 31
0.0
  0
LINE
  5
3A8
330
3A2
100
AcDbEntity
  8
치수문자_일반주서
 62
     0
370
    -2
100
AcDbLine
 10
174.4763634494803
 20
-27.26110291018247
 30
0.0
 11
174.4763634494803
 21
-39.16735291018246
 31
0.0
  0
LINE
  5
3A9
330
3A2
100
AcDbEntity
  8
치수문자_일반주서
 62
     0
370
    -2
100
AcDbLine
 10
174.4763634494803
 20
-23.95910291018247
 30
0.0
 11
174.4763634494803
 21
-20.65710291018247
 31
0.0
  0
LINE
  5
3AA
330
3A2
100
AcDbEntity
  8
치수문자_일반주서
 62
     0
370
    -2
100
AcDbLine
 10
174.4763634494803
 20
-42.46935291018246
 30
0.0
 11
174.4763634494803
 21
-45.77135291018246
 31
0.0
  0
SOLID
  5
3AB
330
3A2
100
AcDbEntity
  8
치수문자_일반주서
 62
     0
100
AcDbTrace
 10
173.926030116147
 20
-23.95910291018247
 30
0.0
 11
175.0266967828136
 21
-23.95910291018247
 31
0.0
 12
174.4763634494803
 22
-27.26110291018247
 32
0.0
 13
174.4763634494803
 23
-27.26110291018247
 33
0.0
  0
SOLID
  5
3AC
330
3A2
100
AcDbEntity
  8
치수문자_일반주서
 62
     0
100
AcDbTrace
 10
175.0266967828137
 20
-42.46935291018246
 30
0.0
 11
173.926030116147
 21
-42.46935291018246
 31
0.0
 12
174.4763634494803
 22
-39.16735291018246
 32
0.0
 13
174.4763634494803
 23
-39.16735291018246
 33
0.0
  0
MTEXT
  5
3AD
330
3A2
100
AcDbEntity
  8
치수문자_일반주서
 62
     0
100
AcDbMText
 10
170.1013634494802
 20
9.312045459681574
 30
0.0
 40
3.5
 41
0.0
 71
     2
 72
     1
  1
\A1;%%c11.91 [15/32]
  7
SLDTEXTSTYLE0
 11
-2.387125201503750E-15
 21
1.0
 31
0.0
 73
     1
 44
1.0
  0
POINT
  5
3AE
330
3A2
100
AcDbEntity
  8
Defpoints
 62
     0
100
AcDbPoint
 10
159.8419884494802
 20
-27.26110291018251
 30
0.0
  0
POINT
  5
3AF
330
3A2
100
AcDbEntity
  8
Defpoints
 62
     0
100
AcDbPoint
 10
159.8419884494802
 20
-39.16735291018251
 30
0.0
  0
POINT
  5
3B0
330
3A2
100
AcDbEntity
  8
Defpoints
 62
     0
100
AcDbPoint
 10
174.4763634494804
 20
-39.16735291018245
 30
0.0
  0
ENDBLK
  5
3A4
330
3A2
100
AcDbEntity
  8
0
100
AcDbBlockEnd
  0
ENDSEC
  0
SECTION
  2
ENTITIES
  0
LINE
  5
96
330
1F
100
AcDbEntity
  8
외형선
  6
Continuous
370
    15
100
AcDbLine
 10
7.969746038615591
 20
6.351074928723897
 30
0.0
 11
-10.00362499999997
 21
6.351074928723894
 31
0.0
  0
LINE
  5
97
330
1F
100
AcDbEntity
  8
외형선
  6
Continuous
370
    15
100
AcDbLine
 10
-39.8
 20
-6.348925071276109
 30
0.0
 11
7.969746038615595
 21
-6.348925071276103
 31
0.0
  0
LINE
  5
98
330
1F
100
AcDbEntity
  8
외형선
  6
Continuous
370
    15
100
AcDbLine
 10
-39.8
 20
6.35107492872389
 30
0.0
 11
-40.8
 21
5.351074928723889
 31
0.0
  0
LINE
  5
99
330
1F
100
AcDbEntity
  8
외형선
  6
Continuous
370
    15
100
AcDbLine
 10
-40.8
 20
-5.34892507127611
 30
0.0
 11
-39.8
 21
-6.348925071276111
 31
0.0
  0
LINE
  5
9A
330
1F
100
AcDbEntity
  8
0
  6
Continuous
 62
     1
370
    15
100
AcDbLine
 10
27.78065600850718
 20
-6.348925071276103
 30
0.0
 11
29.05
 21
-6.348925071276103
 31
0.0
  0
ARC
  5
9B
330
1F
100
AcDbEntity
  8
0
  6
Continuous
 62
     1
370
    15
100
AcDbCircle
 10
29.05
 20
0.0010749287238966
 30
0.0
 40
6.350000000000009
100
AcDbArc
 50
270.0000000000007
 51
0.0
  0
ARC
  5
9C
330
1F
100
AcDbEntity
  8
0
  6
Continuous
 62
     1
370
    15
100
AcDbCircle
 10
29.05
 20
0.0010749287238966
 30
0.0
 40
6.350000000000009
100
AcDbArc
 50
0.0
 51
90.0
  0
LINE
  5
9D
330
1F
100
AcDbEntity
  8
0
  6
Continuous
 62
     1
370
    15
100
AcDbLine
 10
29.05
 20
6.351074928723897
 30
0.0
 11
27.78065600850717
 21
6.351074928723897
 31
0.0
  0
SPLINE
  5
9E
330
1F
100
AcDbEntity
  8
외형선
  6
Continuous
370
    15
100
AcDbSpline
210
0.0
220
0.0
230
1.0
 70
     8
 71
     3
 72
     8
 73
     4
 74
     0
 42
0.000000001
 43
0.00000001
 40
0.0
 40
0.0
 40
0.0
 40
0.0
 40
1.0
 40
1.0
 40
1.0
 40
1.0
 10
10.0
 20
-3.196283235382977
 30
0.0
 10
9.326769133583651
 20
-3.017520424829325
 30
0.0
 10
8.644261658621351
 20
-2.819710672661474
 30
0.0
 10
7.969746038615591
 20
-2.60782795309721
 30
0.0
  0
SPLINE
  5
9F
330
1F
100
AcDbEntity
  8
외형선
  6
Continuous
370
    15
100
AcDbSpline
210
0.0
220
0.0
230
1.0
 70
     8
 71
     3
 72
     8
 73
     4
 74
     0
 42
0.000000001
 43
0.00000001
 40
0.0
 40
0.0
 40
0.0
 40
0.0
 40
1.0
 40
1.0
 40
1.0
 40
1.0
 10
7.969922746968692
 20
1.450617444054356
 30
0.0
 10
8.644380857107922
 20
1.070809524183873
 30
0.0
 10
9.326827924114856
 20
0.6812475355778459
 30
0.0
 10
10.0
 20
0.2917960818818564
 30
0.0
  0
SPLINE
  5
A0
330
1F
100
AcDbEntity
  8
외형선
  6
Continuous
370
    15
100
AcDbSpline
210
0.0
220
0.0
230
1.0
 70
    24
 71
     3
 72
    14
 73
    10
 74
     0
 42
0.000000001
 43
0.00000001
 40
0.0
 40
0.0
 40
0.0
 40
0.0
 40
0.25
 40
0.25
 40
0.5
 40
0.5
 40
0.75
 40
0.75
 40
1.0
 40
1.0
 40
1.0
 40
1.0
 10
10.0
 20
0.2917960818819843
 30
0.0
 10
10.0
 20
0.240520170032168
 30
0.0
 10
10.0
 20
0.0926476906650468
 30
0.0
 10
10.0
 20
-0.3656630797350566
 30
0.0
 10
10.0
 20
-0.6742821436265747
 30
0.0
 10
10.0
 20
-1.36409475552812
 30
0.0
 10
10.0
 20
-1.74341653723521
 30
0.0
 10
10.0
 20
-2.490013944577254
 30
0.0
 10
10.0
 20
-2.856991568294394
 30
0.0
 10
10.0
 20
-3.196283235382979
 30
0.0
  0
LINE
  5
A1
330
1F
100
AcDbEntity
  8
외형선
  6
Continuous
370
    15
100
AcDbLine
 10
7.969746038615591
 20
6.327823266559302
 30
0.0
 11
7.969746038615591
 21
6.351074928723897
 31
0.0
  0
SPLINE
  5
A2
330
1F
100
AcDbEntity
  8
외형선
  6
Continuous
370
    15
100
AcDbSpline
210
0.0
220
0.0
230
1.0
 70
     8
 71
     3
 72
     8
 73
     4
 74
     0
 42
0.000000001
 43
0.00000001
 40
0.0
 40
0.0
 40
0.0
 40
0.0
 40
1.0
 40
1.0
 40
1.0
 40
1.0
 10
10.0
 20
6.120903371544575
 30
0.0
 10
9.326769133583648
 20
6.224926337291141
 30
0.0
 10
8.644261658621351
 20
6.29451897936899
 30
0.0
 10
7.969746038615591
 20
6.327853655327774
 30
0.0
  0
SPLINE
  5
A3
330
1F
100
AcDbEntity
  8
외형선
  6
Continuous
370
    15
100
AcDbSpline
210
0.0
220
0.0
230
1.0
 70
     8
 71
     3
 72
     8
 73
     4
 74
     0
 42
0.000000001
 43
0.00000001
 40
0.0
 40
0.0
 40
0.0
 40
0.0
 40
1.0
 40
1.0
 40
1.0
 40
1.0
 10
10.0
 20
-6.118753514096782
 30
0.0
 10
9.326769133583651
 20
-6.222776479843348
 30
0.0
 10
8.644261658621351
 20
-6.292369121921197
 30
0.0
 10
7.969746038615595
 20
-6.325703797879981
 30
0.0
  0
LINE
  5
A4
330
1F
100
AcDbEntity
  8
외형선
  6
Continuous
370
    15
100
AcDbLine
 10
-39.8
 20
6.351074928723891
 30
0.0
 11
-39.8
 21
-6.348925071276102
 31
0.0
  0
LINE
  5
A5
330
1F
100
AcDbEntity
  8
외형선
  6
Continuous
370
    15
100
AcDbLine
 10
7.969746038615595
 20
-6.348925071276103
 30
0.0
 11
7.969746038615591
 21
1.450939789120828
 31
0.0
  0
LINE
  5
A6
330
1F
100
AcDbEntity
  8
외형선
  6
Continuous
370
    15
100
AcDbLine
 10
10.0
 20
6.120903371544573
 30
0.0
 11
10.0
 21
0.2917960818818586
 31
0.0
  0
LINE
  5
A7
330
1F
100
AcDbEntity
  8
외형선
  6
Continuous
370
    15
100
AcDbLine
 10
-40.8
 20
5.35107492872389
 30
0.0
 11
-40.8
 21
-5.348925071276115
 31
0.0
  0
SPLINE
  5
A8
330
1F
100
AcDbEntity
  8
외형선
  6
Continuous
370
    15
100
AcDbSpline
210
0.0
220
0.0
230
1.0
 70
    24
 71
     3
 72
    16
 73
    12
 74
     0
 42
0.000000001
 43
0.00000001
 40
0.0
 40
0.0
 40
0.0
 40
0.0
 40
0.1051994891827943
 40
0.2398116172529117
 40
0.3783275061563361
 40
0.5129396342264537
 40
0.651455523129878
 40
0.7860676511999958
 40
0.9245835401034195
 40
0.9622509418378205
 40
0.9999999999999999
 40
0.9999999999999999
 40
0.9999999999999999
 40
0.9999999999999999
 10
10.0
 20
-3.16267284986966
 30
0.0
 10
10.0
 20
-3.17422356198434
 30
0.0
 10
10.0
 20
-3.200554440338997
 30
0.0
 10
10.0
 20
-3.380112718517206
 30
0.0
 10
10.0
 20
-3.66946050389373
 30
0.0
 10
10.0
 20
-4.068106016642932
 30
0.0
 10
10.0
 20
-4.552762276340033
 30
0.0
 10
10.0
 20
-5.119484898241062
 30
0.0
 10
10.0
 20
-5.594497812491946
 30
0.0
 10
10.0
 20
-5.935037923093341
 30
0.0
 10
10.0
 20
-6.057470796100611
 30
0.0
 10
10.0
 20
-6.118753514096815
 30
0.0
  0
SPLINE
  5
A9
330
1F
100
AcDbEntity
  8
0
  6
Continuous
 62
     1
370
    15
100
AcDbSpline
210
0.0
220
0.0
230
1.0
 70
     8
 71
     3
 72
    12
 73
     8
 74
     0
 42
0.000000001
 43
0.00000001
 40
0.0
 40
0.0
 40
0.0
 40
0.0
 40
0.1815965966276838
 40
0.4445708171650422
 40
0.6297557089325804
 40
0.8147536353878051
 40
1.0
 40
1.0
 40
1.0
 40
1.0
 10
18.69158738379954
 20
-4.297504159881892
 30
0.0
 10
18.16542791606365
 20
-4.307532903946147
 30
0.0
 10
16.87732478597002
 20
-4.332084503626872
 30
0.0
 10
15.05258630677122
 20
-4.174970258612017
 30
0.0
 10
13.21826494415754
 20
-3.914183533103831
 30
0.0
 10
11.60941613177902
 20
-3.6021342683472
 30
0.0
 10
10.53671197618172
 20
-3.331627417435409
 30
0.0
 10
10.0
 20
-3.196283235382977
 30
0.0
  0
SPLINE
  5
AA
330
1F
100
AcDbEntity
  8
0
  6
Continuous
 62
     1
370
    15
100
AcDbSpline
210
0.0
220
0.0
230
1.0
 70
     8
 71
     3
 72
    20
 73
    16
 74
     0
 42
0.000000001
 43
0.00000001
 40
0.0
 40
0.0
 40
0.0
 40
0.0
 40
0.0630197638345601
 40
0.126039559618521
 40
0.1897214975193725
 40
0.2534034539364277
 40
0.3163413645518491
 40
0.3794427574948375
 40
0.4822168084931623
 40
0.5857060523971248
 40
0.6884051399889037
 40
0.7918157110717912
 40
0.861161916189555
 40
0.9307270315718995
 40
1.0
 40
1.0
 40
1.0
 40
1.0
 10
10.0
 20
0.2917960818817923
 30
0.0
 10
10.37346345328157
 20
0.0760771265336235
 30
0.0
 10
11.12039054918109
 20
-0.3553608935266808
 30
0.0
 10
12.24487528823837
 20
-1.00158388316986
 30
0.0
 10
13.37306566623999
 20
-1.639741335932036
 30
0.0
 10
14.50106007793326
 20
-2.259883920863557
 30
0.0
 10
15.62495798634374
 20
-2.855524379825765
 30
0.0
 10
16.98148653890891
 20
-3.536277091048342
 30
0.0
 10
18.57810997690123
 20
-4.272624582532856
 30
0.0
 10
20.40926628105466
 20
-4.998741349411914
 30
0.0
 10
22.24417668094654
 20
-5.587358070421227
 30
0.0
 10
23.87691912069369
 20
-5.973641309658389
 30
0.0
 10
25.31362915722575
 20
-6.201816239816321
 30
0.0
 10
26.54669672496088
 20
-6.326139472554857
 30
0.0
 10
27.36991365930852
 20
-6.340974619747975
 30
0.0
 10
27.78065600850718
 20
-6.34837658508004
 30
0.0
  0
SPLINE
  5
AB
330
1F
100
AcDbEntity
  8
외형선
  6
Continuous
370
    15
100
AcDbSpline
210
0.0
220
0.0
230
1.0
 70
    24
 71
     3
 72
    14
 73
    10
 74
     0
 42
0.000000001
 43
0.00000001
 40
0.0
 40
0.0
 40
0.0
 40
0.0
 40
0.25
 40
0.25
 40
0.5
 40
0.5
 40
0.75
 40
0.75
 40
1.0
 40
1.0
 40
1.0
 40
1.0
 10
10.0
 20
0.291796081881982
 30
0.0
 10
10.0
 20
0.2405201700321659
 30
0.0
 10
10.0
 20
0.0926476906650448
 30
0.0
 10
10.0
 20
-0.3656630797350583
 30
0.0
 10
10.0
 20
-0.6742821436265762
 30
0.0
 10
10.0
 20
-1.364094755528121
 30
0.0
 10
10.0
 20
-1.743416537235211
 30
0.0
 10
10.0
 20
-2.490013944577255
 30
0.0
 10
10.0
 20
-2.856991568294395
 30
0.0
 10
10.00000000000001
 20
-3.19628323538298
 30
0.0
  0
SPLINE
  5
AC
330
1F
100
AcDbEntity
  8
0
  6
Continuous
 62
     1
370
    15
100
AcDbSpline
210
0.0
220
0.0
230
1.0
 70
     8
 71
     3
 72
    34
 73
    30
 74
     0
 42
0.000000001
 43
0.00000001
 40
0.0
 40
0.0
 40
0.0
 40
0.0
 40
0.0625
 40
0.0625
 40
0.125
 40
0.125
 40
0.1875000000000001
 40
0.1875000000000001
 40
0.2500000000000001
 40
0.2500000000000001
 40
0.3125000000000001
 40
0.3125000000000001
 40
0.3750000000000001
 40
0.3750000000000001
 40
0.4375000000000001
 40
0.4375000000000001
 40
0.5000000000000001
 40
0.5000000000000001
 40
0.5625000000000001
 40
0.5625000000000001
 40
0.6250000000000001
 40
0.6250000000000001
 40
0.6875000000000001
 40
0.6875000000000001
 40
0.7500000000000002
 40
0.7500000000000002
 40
0.8750000000000001
 40
0.8750000000000001
 40
1.0
 40
1.0
 40
1.0
 40
1.0
 10
29.05000000000001
 20
-2.654217231177902
 30
0.0
 10
28.65286299600504
 20
-2.446019063445766
 30
0.0
 10
28.25893616652973
 20
-2.233206461866533
 30
0.0
 10
27.46429333472573
 20
-1.798479745147859
 30
0.0
 10
27.06543520759653
 20
-1.576883438246435
 30
0.0
 10
26.2716444379171
 20
-1.129120579420998
 30
0.0
 10
25.87758389522641
 20
-0.9031328510738174
 30
0.0
 10
25.08256888895763
 20
-0.4472010955912525
 30
0.0
 10
24.683754024398
 20
-0.217660802976629
 30
0.0
 10
23.89050596596293
 20
0.2405381545649562
 30
0.0
 10
23.49616813794815
 20
0.4691785418685047
 30
0.0
 10
22.70084073712088
 20
0.925014731617889
 30
0.0
 10
22.30209935308457
 20
1.151771524176582
 30
0.0
 10
21.50945334293013
 20
1.598998134732006
 30
0.0
 10
21.11469472686825
 20
1.819640874841349
 30
0.0
 10
20.31911478981311
 20
2.2540795140082
 30
0.0
 10
19.92047708564245
 20
2.467456920810972
 30
0.0
 10
19.12849231018198
 20
2.882827167881081
 30
0.0
 10
18.73316950862135
 20
3.085185155587013
 30
0.0
 10
17.93739695709382
 20
3.477920546405842
 30
0.0
 10
17.53889310587785
 20
3.667950495912586
 30
0.0
 10
16.74762858625553
 20
4.032082097630808
 30
0.0
 10
16.3515983428462
 20
4.206706164927009
 30
0.0
 10
15.55569314699372
 20
4.539380086560254
 30
0.0
 10
15.15735328794038
 20
4.697189003273904
 30
0.0
 10
13.97162515423696
 20
5.141067099392242
 30
0.0
 10
13.17068733399899
 20
5.40014294096343
 30
0.0
 10
11.59139197740907
 20
5.828008049201087
 30
0.0
 10
10.7901403230164
 20
5.99881636713607
 30
0.0
 10
10.0
 20
6.120903371544576
 30
0.0
  0
SPLINE
  5
AD
330
1F
100
AcDbEntity
  8
0
  6
Continuous
 62
     1
370
    15
100
AcDbSpline
210
0.0
220
0.0
230
1.0
 70
     8
 71
     3
 72
    16
 73
    12
 74
     0
 42
0.000000001
 43
0.00000001
 40
0.0
 40
0.0
 40
0.0
 40
0.0
 40
0.0984361233576152
 40
0.1968804351056734
 40
0.2954597699170787
 40
0.4263903168891774
 40
0.557320644497932
 40
0.6882507562890826
 40
0.8191806558111037
 40
0.9501103466151588
 40
1.0
 40
1.0
 40
1.0
 40
1.0
 10
33.70006103010925
 20
0.6664800019992647
 30
0.0
 10
33.12730394207658
 20
0.8875171161247148
 30
0.0
 10
31.98174212132039
 20
1.32960973130646
 30
0.0
 10
30.26266046069779
 20
1.956500376150157
 30
0.0
 10
28.35410873013611
 20
2.599564206267357
 30
0.0
 10
26.25651827387654
 20
3.219200172853511
 30
0.0
 10
23.97065689035919
 20
3.754873397737298
 30
0.0
 10
21.68480102522446
 20
4.132196608681423
 30
0.0
 10
19.39894887818634
 20
4.319987239499383
 30
0.0
 10
17.58471455061545
 20
4.356234224145719
 30
0.0
 10
16.53243100548545
 20
4.265645768600873
 30
0.0
 10
16.24209668553424
 20
4.24065161397614
 30
0.0
  0
SPLINE
  5
AE
330
1F
100
AcDbEntity
  8
0
  6
Continuous
 62
     1
370
    15
100
AcDbSpline
210
0.0
220
0.0
230
1.0
 70
     8
 71
     3
 72
    32
 73
    28
 74
     0
 42
0.000000001
 43
0.00000001
 40
0.0
 40
0.0
 40
0.0
 40
0.0
 40
0.1250000000000015
 40
0.1250000000000015
 40
0.1875000000000017
 40
0.1875000000000017
 40
0.2500000000000019
 40
0.2500000000000019
 40
0.3750000000000013
 40
0.3750000000000013
 40
0.4375000000000011
 40
0.4375000000000011
 40
0.5000000000000008
 40
0.5000000000000008
 40
0.5625000000000007
 40
0.5625000000000007
 40
0.6250000000000004
 40
0.6250000000000004
 40
0.6875000000000002
 40
0.6875000000000002
 40
0.75
 40
0.75
 40
0.8124999999999999
 40
0.8124999999999999
 40
0.8749999999999998
 40
0.8749999999999998
 40
1.0
 40
1.0
 40
1.0
 40
1.0
 10
29.05
 20
-2.654217231177896
 30
0.0
 10
29.4027287244264
 20
-2.839134459724553
 30
0.0
 10
29.75006010939723
 20
-3.004407343822858
 30
0.0
 10
30.26947605580347
 20
-3.213760135976802
 30
0.0
 10
30.44236099420737
 20
-3.277055501581426
 30
0.0
 10
30.78901638600562
 20
-3.388044414283058
 30
0.0
 10
30.96357030480504
 20
-3.435849240628598
 30
0.0
 10
31.48044506289548
 20
-3.54665468338905
 30
0.0
 10
31.81844084105476
 20
-3.580036874125318
 30
0.0
 10
32.32667409842084
 20
-3.541924374569609
 30
0.0
 10
32.49292507976953
 20
-3.514413445471233
 30
0.0
 10
32.8194592420226
 20
-3.424418371002453
 30
0.0
 10
32.98165608698832
 20
-3.36111761912013
 30
0.0
 10
33.29301053728148
 20
-3.193215570519044
 30
0.0
 10
33.44129725298053
 20
-3.089610363231504
 30
0.0
 10
33.72212233068196
 20
-2.832448957613143
 30
0.0
 10
33.8482711970107
 20
-2.68465329589476
 30
0.0
 10
34.06836529463811
 20
-2.345732374270798
 30
0.0
 10
34.15673384352053
 20
-2.162723082959988
 30
0.0
 10
34.28752669238625
 20
-1.775656583698672
 30
0.0
 10
34.32753455101685
 20
-1.578231896726654
 30
0.0
 10
34.36090185983477
 20
-1.18555932080718
 30
0.0
 10
34.35407539541185
 20
-0.9958725219373125
 30
0.0
 10
34.30340001068429
 20
-0.6286455317279991
 30
0.0
 10
34.25888927159943
 20
-0.4498009248958347
 30
0.0
 10
34.08392293689074
 20
0.0585127123568472
 30
0.0
 10
33.91116395998833
 20
0.3697610406411455
 30
0.0
 10
33.70006103010782
 20
0.6664800019998308
 30
0.0
  0
SPLINE
  5
AF
330
1F
100
AcDbEntity
  8
0
  6
Continuous
 62
     1
370
    15
100
AcDbSpline
210
0.0
220
0.0
230
1.0
 70
     8
 71
     3
 72
    12
 73
     8
 74
     0
 42
0.000000001
 43
0.00000001
 40
0.0
 40
0.0
 40
0.0
 40
0.0
 40
0.25
 40
0.25
 40
0.5
 40
0.5
 40
1.0
 40
1.0
 40
1.0
 40
1.0
 10
33.70006103010778
 20
0.6664800019998357
 30
0.0
 10
33.77309878065685
 20
0.7104899299502225
 30
0.0
 10
33.83816010359409
 20
0.765052586671238
 30
0.0
 10
33.95227706885495
 20
0.8958959117042476
 30
0.0
 10
34.00170672479582
 20
0.9734189938152976
 30
0.0
 10
34.11863748031809
 20
1.228196330319567
 30
0.0
 10
34.15722579939172
 20
1.432844266567562
 30
0.0
 10
34.16077762452554
 20
1.645663315499516
 30
0.0
  0
ARC
  5
B0
330
1F
100
AcDbEntity
  8
0
  6
Continuous
 62
     1
370
    15
100
AcDbCircle
 10
32.36194250395697
 20
-1.102764592300664
 30
0.0
 40
3.284762359040021
100
AcDbArc
 50
23.84125279481842
 51
56.79541269263059
  0
ARC
  5
B1
330
1F
100
AcDbEntity
  8
0
  6
Continuous
 62
     1
370
    15
100
AcDbCircle
 10
29.68912205584038
 20
0.1189375208194653
 30
0.0
 40
5.678280045143102
100
AcDbArc
 50
1.069757722394019
 51
71.16330189143383
  0
SPLINE
  5
B2
330
1F
100
AcDbEntity
  8
0
  6
Continuous
 62
     1
370
    15
100
AcDbSpline
210
0.0
220
0.0
230
1.0
 70
     8
 71
     3
 72
    10
 73
     6
 74
     0
 42
0.000000001
 43
0.00000001
 40
0.0
 40
0.0
 40
0.0
 40
0.0
 40
0.5
 40
0.5
 40
1.0
 40
1.0
 40
1.0
 40
1.0
 10
31.52247946690541
 20
5.493103956124862
 30
0.0
 10
31.12952925494986
 20
5.732547352129957
 30
0.0
 10
30.72550155348038
 20
5.920864095031833
 30
0.0
 10
29.90068665513413
 20
6.19463918998383
 30
0.0
 10
29.47565752971442
 20
6.28041046976654
 30
0.0
 10
29.05000000000034
 20
6.308732406352053
 30
0.0
  0
SPLINE
  5
B3
330
1F
100
AcDbEntity
  8
0
  6
Continuous
 62
     1
370
    15
100
AcDbSpline
210
0.0
220
0.0
230
1.0
 70
     8
 71
     3
 72
     8
 73
     4
 74
     0
 42
0.000000001
 43
0.00000001
 40
0.0
 40
0.0
 40
0.0
 40
0.0
 40
1.0
 40
1.0
 40
1.0
 40
1.0
 10
30.23443322515507
 20
2.843631288519842
 30
0.0
 10
31.52530031581827
 20
2.48486261101693
 30
0.0
 10
32.84139946349495
 20
2.080654052959011
 30
0.0
 10
34.16077762452556
 20
1.645663315499564
 30
0.0
  0
SPLINE
  5
B4
330
1F
100
AcDbEntity
  8
0
  6
Continuous
 62
     1
370
    15
100
AcDbSpline
210
0.0
220
0.0
230
1.0
 70
     8
 71
     3
 72
    14
 73
    10
 74
     0
 42
0.000000001
 43
0.00000001
 40
0.0
 40
0.0
 40
0.0
 40
0.0
 40
0.1662739878569197
 40
0.3425586834604509
 40
0.520064652335226
 40
0.6390985692580055
 40
0.7585082492986562
 40
0.879059116893855
 40
1.0
 40
1.0
 40
1.0
 40
1.0
 10
18.69158738379954
 20
4.299654017329688
 30
0.0
 10
19.26571020451313
 20
4.534907131768088
 30
0.0
 10
20.44852153984652
 20
5.019577032338079
 30
0.0
 10
22.24417666733477
 20
5.587947710368915
 30
0.0
 10
23.8769121999929
 20
5.975572243073021
 30
0.0
 10
25.31364659651025
 20
6.205134809464975
 30
0.0
 10
26.55229808855921
 20
6.32417416391915
 30
0.0
 10
27.79928146501083
 20
6.368395011500417
 30
0.0
 10
28.63264518691449
 20
6.328641342474225
 30
0.0
 10
29.05000000000001
 20
6.308732406352084
 30
0.0
  0
SPLINE
  5
B5
330
1F
100
AcDbEntity
  8
0
  6
Continuous
 62
     1
370
    15
100
AcDbSpline
210
0.0
220
0.0
230
1.0
 70
     8
 71
     3
 72
    18
 73
    14
 74
     0
 42
0.000000001
 43
0.00000001
 40
0.0
 40
0.0
 40
0.0
 40
0.0
 40
0.2499999999999995
 40
0.2499999999999995
 40
0.3749999999999996
 40
0.3749999999999996
 40
0.4999999999999998
 40
0.4999999999999998
 40
0.6249999999999999
 40
0.6249999999999999
 40
0.75
 40
0.75
 40
1.0
 40
1.0
 40
1.0
 40
1.0
 10
31.52247946690544
 20
5.493103956124868
 30
0.0
 10
31.56760212148894
 20
5.226555920380658
 30
0.0
 10
31.5879108843816
 20
4.955287098035962
 30
0.0
 10
31.55841050006037
 20
4.543080231260329
 30
0.0
 10
31.53859041154566
 20
4.407965616385834
 30
0.0
 10
31.47550754465751
 20
4.143106491364875
 30
0.0
 10
31.4314491349618
 20
4.011849821718738
 30
0.0
 10
31.31950931103193
 20
3.765462826591174
 30
0.0
 10
31.25194227622005
 20
3.650022303599975
 30
0.0
 10
31.09322785513656
 20
3.434905328386946
 30
0.0
 10
31.00148972919259
 20
3.335206753935324
 30
0.0
 10
30.70549412018719
 20
3.072221166948482
 30
0.0
 10
30.4741690285954
 20
2.938895624944496
 30
0.0
 10
30.23443322515507
 20
2.843631288519845
 30
0.0
  0
SPLINE
  5
B6
330
1F
100
AcDbEntity
  8
0
  6
Continuous
 62
     1
370
    15
100
AcDbSpline
210
0.0
220
0.0
230
1.0
 70
     8
 71
     3
 72
    11
 73
     7
 74
     0
 42
0.000000001
 43
0.00000001
 40
0.0
 40
0.0
 40
0.0
 40
0.0
 40
0.1944381771460832
 40
0.4629293765486159
 40
0.7313136919871599
 40
1.0
 40
1.0
 40
1.0
 40
1.0
 10
16.24209668553424
 20
-4.238501756528344
 30
0.0
 10
15.83742180038636
 20
-4.411064420768115
 30
0.0
 10
14.87394901414622
 20
-4.821911342625791
 30
0.0
 10
13.3525097806589
 20
-5.344818143426044
 30
0.0
 10
11.67676030965028
 20
-5.820073041965077
 30
0.0
 10
10.55912958291741
 20
-6.019156042205642
 30
0.0
 10
10.00000000000001
 20
-6.118753514096783
 30
0.0
  0
SPLINE
  5
B7
330
1F
100
AcDbEntity
  8
외형선
  6
Continuous
370
    15
100
AcDbSpline
210
0.0
220
0.0
230
1.0
 70
    24
 71
     3
 72
    15
 73
    11
 74
     0
 42
0.000000001
 43
0.00000001
 40
0.0
 40
0.0
 40
0.0
 40
0.0
 40
0.1013162897401792
 40
0.236515682332687
 40
0.3756358664694348
 40
0.5108352590619427
 40
0.6499554431986911
 40
0.7851548357911989
 40
0.9242750199279463
 40
0.9999999999999999
 40
0.9999999999999999
 40
0.9999999999999999
 40
0.9999999999999999
 10
10.00000000000001
 20
-3.164788790879623
 30
0.0
 10
10.00000000000001
 20
-3.175983377758632
 30
0.0
 10
10.00000000000001
 20
-3.202116345723718
 30
0.0
 10
10.00000000000001
 20
-3.380266165659666
 30
0.0
 10
10.00000000000001
 20
-3.669413621119537
 30
0.0
 10
10.00000000000001
 20
-4.068142852588498
 30
0.0
 10
10.00000000000001
 20
-4.552660528583686
 30
0.0
 10
10.00000000000001
 20
-5.119847244654806
 30
0.0
 10
10.00000000000001
 20
-5.651036349992105
 30
0.0
 10
10.00000000000001
 20
-5.996862557202936
 30
0.0
 10
10.00000000000001
 20
-6.118753514096818
 30
0.0
  0
LINE
  5
B8
330
1F
100
AcDbEntity
  8
중심선
 48
0.8
100
AcDbLine
 10
-43.8
 20
0.0010749287238888
 30
0.0
 11
38.39999999999999
 21
0.0010749287238989
 31
0.0
  0
LINE
  5
B9
330
1F
100
AcDbEntity
  8
참조1
100
AcDbLine
 10
2.149261314031158
 20
0.0010749287238892
 30
0.0
 11
2.149261314031167
 21
-39.99892507127611
 31
0.0
  0
LINE
  5
BA
330
1F
100
AcDbEntity
  8
참조1
100
AcDbLine
 10
40.24926131403117
 20
0.0010749287238892
 30
0.0
 11
40.24926131403117
 21
4.274726723198788
 31
0.0
  0
LINE
  5
BB
330
1F
100
AcDbEntity
  8
참조1
100
AcDbLine
 10
2.149261314031167
 20
-39.99892507127611
 30
0.0
 11
-20.1533455002775
 21
-39.9989250712761
 31
0.0
  0
CIRCLE
  5
BC
330
1F
100
AcDbEntity
  8
해칭선
100
AcDbCircle
 10
0.0
 20
0.0
 30
0.0
 40
3.000000000000003
  0
INSERT
  5
BD
330
1F
100
AcDbEntity
  8
0
  6
Continuous
 62
     7
100
AcDbBlockReference
 66
     1
  2
블럭10
 10
-16.64027293212521
 20
-52.04609937292004
 30
0.0
  0
ATTRIB
  5
BE
330
BD
100
AcDbEntity
  8
FORMAT
 62
     2
100
AcDbText
 10
-25.82156822086649
 20
-49.97073246008785
 30
0.0
 40
4.233333333333333
  1
E2110032 [ 2 FLUTE ]
 41
0.75
  7
SLDTEXTSTYLE0
 11
-25.82156822086649
 21
-52.08739912675452
 31
0.0
100
AcDbAttribute
  2
AUTOATTR0
 70
     0
 74
     1
  0
SEQEND
  5
BF
330
BD
100
AcDbEntity
  8
0
  6
Continuous
 62
     7
  0
HATCH
  5
C0
330
1F
100
AcDbEntity
  8
중심선
100
AcDbHatch
 10
0.0
 20
0.0
 30
0.0
210
0.0
220
0.0
230
1.0
  2
SOLID
 70
     1
 71
     0
 91
        1
 92
        0
 93
        4
 72
     1
 10
-10.92536362774436
 20
-35.7989250712761
 11
-14.37163887158164
 21
-35.7989250712761
 72
     1
 10
-14.37163887158164
 20
-35.7989250712761
 11
-16.49986873078566
 21
-38.3352506518487
 72
     1
 10
-16.49986873078566
 20
-38.3352506518487
 11
-13.05356040183523
 21
-38.33521122254621
 72
     1
 10
-13.05356040183523
 20
-38.33521122254621
 11
-10.92536362774436
 21
-35.7989250712761
 97
        0
 75
     0
 76
     1
 98
        1
 10
-4.849261314031164
 20
0.0
  0
HATCH
  5
C1
330
1F
100
AcDbEntity
  8
중심선
100
AcDbHatch
 10
0.0
 20
0.0
 30
0.0
210
0.0
220
0.0
230
1.0
  2
SOLID
 70
     1
 71
     0
 91
        1
 92
        0
 93
        4
 72
     1
 10
-5.91259963670838
 20
-35.7989250712761
 11
-9.35887488054569
 21
-35.7989250712761
 72
     1
 10
-9.35887488054569
 20
-35.7989250712761
 11
-13.89001288890308
 21
-41.19892507127612
 72
     1
 10
-13.89001288890308
 20
-41.19892507127612
 11
-10.4437376450658
 21
-41.19892507127612
 72
     1
 10
-10.4437376450658
 20
-41.19892507127612
 11
-5.91259963670838
 21
-35.7989250712761
 97
        0
 75
     0
 76
     1
 98
        1
 10
-4.849261314031164
 20
0.0
  0
HATCH
  5
C2
330
1F
100
AcDbEntity
  8
중심선
100
AcDbHatch
 10
0.0
 20
0.0
 30
0.0
210
0.0
220
0.0
230
1.0
  2
SOLID
 70
     1
 71
     0
 91
        1
 92
        0
 93
        4
 72
     1
 10
-0.8998356456725114
 20
-35.79892507127613
 11
-4.3461108895096
 21
-35.79892507127613
 72
     1
 10
-4.3461108895096
 20
-35.79892507127613
 11
-11.39454779139888
 21
-44.19892507127612
 72
     1
 10
-11.39454779139888
 20
-44.19892507127612
 11
-7.948272547561594
 21
-44.19892507127612
 72
     1
 10
-7.948272547561594
 20
-44.19892507127612
 11
-0.8998356456725114
 21
-35.79892507127613
 97
        0
 75
     0
 76
     1
 98
        1
 10
-4.849261314031164
 20
0.0
  0
HATCH
  5
C3
330
1F
100
AcDbEntity
  8
중심선
100
AcDbHatch
 10
0.0
 20
0.0
 30
0.0
210
0.0
220
0.0
230
1.0
  2
SOLID
 70
     1
 71
     0
 91
        1
 92
        0
 93
        6
 72
     3
 10
3.900054785339687
 20
-39.99892507132738
 11
3.960054785062283
 21
1.540882976769353E-10
 40
0.3939339440162628
 50
17.09539180608436
 51
320.0019657685087
 73
     0
 72
     1
 10
5.583054441040284
 20
-38.58681907591443
 11
7.888356314741321
 21
-36.65249236586649
 72
     3
 10
3.900054785286841
 20
-39.99892507127625
 11
6.600054785286829
 21
-1.278976924368180E-13
 40
0.636358354079598
 50
39.99873849337411
 51
368.4976242363724
 73
     1
 72
     1
 10
10.32538727718745
 20
-39.03892507120613
 11
2.580122092122764
 21
-39.03892507120613
 72
     1
 10
2.580122092122764
 20
-39.03892507120613
 11
2.58009704767683
 21
-40.95892507120602
 72
     1
 10
2.58009704767683
 20
-40.95892507120602
 11
7.021476817148868
 21
-40.95892507120599
 97
        0
 75
     0
 76
     1
 98
        1
 10
-4.849261314031164
 20
0.0
  0
DIMENSION
  5
C4
330
1F
100
AcDbEntity
  8
치수문자_일반주서
100
AcDbDimension
  2
_D
 10
10.0
 20
19.82667470814031
 30
0.0
 11
-6.447749999999999
 21
19.82667470814031
 31
0.0
 70
   160
  1
<>
 71
     2
 42
25.39999999999996
  3
SLDDIMSTYLE1
100
AcDbAlignedDimension
 13
35.39999999999996
 23
6.351074928723899
 33
0.0
 14
10.0
 24
6.120903371544611
 34
0.0
100
AcDbRotatedDimension
1001
ACAD
1000
DSTYLE
1002
{
1070
   171
1070
     6
1070
   273
1070
     7
1002
}
  0
DIMENSION
  5
D9
330
1F
100
AcDbEntity
  8
치수문자_일반주서
100
AcDbDimension
  2
_D_1
 10
-40.80000000000001
 20
38.76357492872395
 30
0.0
 11
-2.700000000000018
 21
38.76357492872395
 31
0.0
 70
   160
  1
<>
 71
     2
 42
76.19999999999999
  3
SLDDIMSTYLE1
100
AcDbAlignedDimension
 13
35.39999999999998
 23
6.351074928723899
 33
0.0
 14
-40.80000000000001
 24
5.351074928723887
 34
0.0
100
AcDbRotatedDimension
1001
ACAD
1000
DSTYLE
1002
{
1070
   171
1070
     6
1070
   273
1070
     7
1002
}
  0
DIMENSION
  5
EC
330
1F
100
AcDbEntity
  8
치수문자_일반주서
100
AcDbDimension
  2
_D_2
 10
-53.3
 20
-6.348925071276148
 30
0.0
 11
-53.30000000000003
 21
0.0010749287238914
 31
0.0
 70
   160
  1
%%c<>
 71
     2
 42
12.69999999999999
 52
-270.0
  3
SLDDIMSTYLE1
100
AcDbAlignedDimension
 13
-39.80000000000001
 23
6.351074928723891
 33
0.0
 14
-39.80000000000001
 24
-6.348925071276098
 34
0.0
 50
90.0000000000002
100
AcDbRotatedDimension
1001
ACAD
1000
DSTYLE
1002
{
1070
   171
1070
     6
1070
   273
1070
     7
1002
}
  0
DIMENSION
  5
101
330
1F
100
AcDbEntity
  8
치수문자_일반주서
100
AcDbDimension
  2
_D_3
 10
49.63750000000019
 20
-6.348925071276049
 30
0.0
 11
49.63750000000008
 21
26.29882492872395
 31
0.0
 70
   160
  1
%%c<>
 71
     2
 42
12.7
 52
-270.0
  3
SLDDIMSTYLE1
100
AcDbAlignedDimension
 13
35.39999999999998
 23
6.351074928723899
 33
0.0
 14
35.39999999999998
 24
-6.3489250712761
 34
0.0
 50
90.0000000000002
100
AcDbRotatedDimension
1001
ACAD
1000
DSTYLE
1002
{
1070
   171
1070
     6
1070
   273
1070
     7
1002
}
  0
LINE
  5
114
330
1F
100
AcDbEntity
  8
참조1
100
AcDbLine
 10
77.81899512937676
 20
7.441074928723896
 30
0.0
 11
77.81899512937676
 21
-7.438925071276109
 31
0.0
  0
LINE
  5
115
330
1F
100
AcDbEntity
  8
참조1
100
AcDbLine
 10
90.51899512937676
 20
5.441074928723896
 30
0.0
 11
77.81899512937676
 21
5.441074928723896
 31
0.0
  0
SOLID
  5
116
330
1F
100
AcDbEntity
  8
참조1
100
AcDbTrace
 10
77.81899512937676
 20
5.441074928723896
 30
0.0
 11
84.16899512937675
 21
4.425074928723896
 31
0.0
 12
84.16899512937675
 22
6.457074928723896
 32
0.0
 13
84.16899512937675
 23
6.457074928723896
 33
0.0
  0
LINE
  5
117
330
1F
100
AcDbEntity
  8
참조1
100
AcDbLine
 10
90.51899512937676
 20
-5.438925071276109
 30
0.0
 11
77.81899512937676
 21
-5.438925071276109
 31
0.0
  0
SOLID
  5
118
330
1F
100
AcDbEntity
  8
참조1
100
AcDbTrace
 10
77.81899512937676
 20
-5.438925071276109
 30
0.0
 11
84.16899512937675
 21
-6.454925071276109
 31
0.0
 12
84.16899512937675
 22
-4.422925071276109
 32
0.0
 13
84.16899512937675
 23
-4.422925071276109
 33
0.0
  0
MTEXT
  5
119
330
1F
100
AcDbEntity
  8
참조1
100
AcDbMText
 10
87.20334526200276
 20
11.01136670591222
 30
0.0
 40
3.5
 41
0.0
 71
     1
 72
     1
  1
A
  7
SLDTEXTSTYLE0
 73
     1
 44
1.0
  0
MTEXT
  5
11A
330
1F
100
AcDbEntity
  8
참조1
100
AcDbMText
 10
87.20334526200276
 20
0.1313667059122192
 30
0.0
 40
3.5
 41
0.0
 71
     1
 72
     1
  1
A
  7
SLDTEXTSTYLE0
 73
     1
 44
1.0
  0
INSERT
  5
121
330
1F
100
AcDbEntity
  8
해칭선
100
AcDbBlockReference
  2
SW_DOWELSYMBOL_0
 10
0.0
 20
0.0
 30
0.0
  0
LINE
  5
376
330
1F
100
AcDbEntity
  8
외형선
  6
Continuous
370
    15
100
AcDbLine
 10
-22.70362499999996
 20
4.827074928723889
 30
0.0
 11
-11.52762500000008
 21
4.827074928723889
 31
0.0
  0
LINE
  5
377
330
1F
100
AcDbEntity
  8
외형선
  6
Continuous
370
    15
100
AcDbLine
 10
-22.70362499999996
 20
4.827074928723889
 30
0.0
 11
-24.22762499999996
 21
6.351074928723889
 31
0.0
  0
LINE
  5
378
330
1F
100
AcDbEntity
  8
외형선
  6
Continuous
370
    15
100
AcDbLine
 10
-11.52762499999997
 20
4.827074928723889
 30
0.0
 11
-10.00362499999997
 21
6.351074928723889
 31
0.0
  0
LINE
  5
379
330
1F
100
AcDbEntity
  8
외형선
  6
Continuous
370
    15
100
AcDbLine
 10
-39.73749999999998
 20
6.351074928723889
 30
0.0
 11
-24.22762499999996
 21
6.351074928723889
 31
0.0
  0
ENDSEC
  0
SECTION
  2
OBJECTS
  0
DICTIONARY
  5
C
330
0
100
AcDbDictionary
281
     1
  3
ACAD_GROUP
350
D
  3
ACAD_IMAGE_VARS
350
145
  3
ACAD_LAYOUT
350
1A
  3
ACAD_MLINESTYLE
350
17
  3
ACAD_PLOTSETTINGS
350
19
  3
ACAD_PLOTSTYLENAME
350
E
  3
ACAD_SCALELIST
350
47
  3
APPDATA
350
143
  3
DWGPROPS
350
401
  0
DICTIONARY
  5
30D
330
2
100
AcDbDictionary
280
     1
281
     1
  3
ACAD_LAYERSTATES
360
30E
  0
DICTIONARY
  5
D
102
{ACAD_REACTORS
330
C
102
}
330
C
100
AcDbDictionary
281
     1
  0
RASTERVARIABLES
  5
145
102
{ACAD_REACTORS
330
C
102
}
330
C
100
AcDbRasterVariables
 90
        0
 70
     1
 71
     1
 72
     1
  0
DICTIONARY
  5
1A
102
{ACAD_REACTORS
330
C
102
}
330
C
100
AcDbDictionary
281
     1
  3
Layout1
350
1E
  3
Layout2
350
26
  3
Model
350
22
  0
DICTIONARY
  5
17
102
{ACAD_REACTORS
330
C
102
}
330
C
100
AcDbDictionary
281
     1
  3
Standard
350
18
  0
DICTIONARY
  5
19
102
{ACAD_REACTORS
330
C
102
}
330
C
100
AcDbDictionary
281
     1
  0
ACDBDICTIONARYWDFLT
  5
E
102
{ACAD_REACTORS
330
C
102
}
330
C
100
AcDbDictionary
281
     1
  3
Normal
350
F
100
AcDbDictionaryWithDefault
340
F
  0
DICTIONARY
  5
47
102
{ACAD_REACTORS
330
C
102
}
330
C
100
AcDbDictionary
281
     1
  3
A0
350
48
  3
A1
350
49
  3
A2
350
4A
  3
A3
350
4B
  3
A4
350
4C
  3
A5
350
4D
  3
A6
350
4E
  3
A7
350
4F
  3
A8
350
50
  3
A9
350
51
  3
B0
350
52
  3
B1
350
53
  3
B2
350
54
  3
B3
350
55
  3
B4
350
56
  3
B5
350
57
  3
B6
350
58
  3
B7
350
59
  3
B8
350
5A
  3
B9
350
5B
  3
C0
350
5C
  3
C1
350
5D
  3
C2
350
5E
  3
C3
350
5F
  3
C4
350
60
  3
C5
350
61
  3
C6
350
62
  3
C7
350
63
  3
C8
350
64
  3
C9
350
65
  3
D0
350
66
  3
D1
350
67
  3
D2
350
68
  0
DICTIONARY
  5
143
102
{ACAD_REACTORS
330
C
102
}
330
C
100
AcDbDictionary
281
     1
  0
XRECORD
  5
401
102
{ACAD_REACTORS
330
C
102
}
330
C
100
AcDbXrecord
280
     1
  1
DWGPROPS COOKIE
  2

  3

  4

  6

  7

  8
12016016
  9

300
=
301
=
302
=
303
=
304
=
305
=
306
=
307
=
308
=
309
=
 40
0.0
 41
2458316.206124468
 42
2458320.365904757
  1

 90
        0
  0
DICTIONARY
  5
30E
102
{ACAD_REACTORS
330
30D
102
}
330
30D
100
AcDbDictionary
281
     1
  0
LAYOUT
  5
1E
102
{ACAD_REACTORS
330
1A
102
}
330
1A
100
AcDbPlotSettings
  1

  2
none_device
  4

  6

 40
0.0
 41
0.0
 42
0.0
 43
0.0
 44
0.0
 45
0.0
 46
0.0
 47
0.0
 48
0.0
 49
0.0
140
0.0
141
0.0
142
1.0
143
1.0
 70
   688
 72
     1
 73
     0
 74
     5
  7

 75
    16
147
1.0
148
0.0
149
0.0
100
AcDbLayout
  1
Layout1
 70
     1
 71
     1
 10
0.0
 20
0.0
 11
420.0
 21
297.0
 12
0.0
 22
0.0
 32
0.0
 14
1.000000000000000E+20
 24
1.000000000000000E+20
 34
1.000000000000000E+20
 15
-1.000000000000000E+20
 25
-1.000000000000000E+20
 35
-1.000000000000000E+20
146
0.0
 13
0.0
 23
0.0
 33
0.0
 16
1.0
 26
0.0
 36
0.0
 17
0.0
 27
1.0
 37
0.0
 76
     0
330
1B
  0
LAYOUT
  5
26
102
{ACAD_REACTORS
330
1A
102
}
330
1A
100
AcDbPlotSettings
  1

  2
none_device
  4

  6

 40
0.0
 41
0.0
 42
0.0
 43
0.0
 44
0.0
 45
0.0
 46
0.0
 47
0.0
 48
0.0
 49
0.0
140
0.0
141
0.0
142
1.0
143
1.0
 70
   688
 72
     1
 73
     0
 74
     5
  7

 75
    16
147
1.0
148
0.0
149
0.0
100
AcDbLayout
  1
Layout2
 70
     1
 71
     2
 10
0.0
 20
0.0
 11
0.0
 21
0.0
 12
0.0
 22
0.0
 32
0.0
 14
0.0
 24
0.0
 34
0.0
 15
0.0
 25
0.0
 35
0.0
146
0.0
 13
0.0
 23
0.0
 33
0.0
 16
1.0
 26
0.0
 36
0.0
 17
0.0
 27
1.0
 37
0.0
 76
     0
330
23
  0
LAYOUT
  5
22
102
{ACAD_REACTORS
330
1A
102
}
330
1A
100
AcDbPlotSettings
  1

  2
none_device
  4
ANSI_A_(11.00_x_8.50_Inches)
  6

 40
6.35
 41
19.05
 42
6.35000508
 43
19.05000254
 44
279.4
 45
215.9
 46
104.4677685033869
 47
86.03193870202422
 48
0.0
 49
0.0
140
0.0
141
0.0
142
0.0727150761981557
143
1.0
 70
  1696
 72
     0
 73
     0
 74
     0
  7

 75
     0
147
0.0235690232323232
148
0.0
149
0.0
100
AcDbLayout
  1
Model
 70
     1
 71
     0
 10
0.0
 20
0.0
 11
420.0
 21
297.0
 12
0.0
 22
0.0
 32
0.0
 14
-57.67500000000008
 24
-49.97073246008785
 34
0.0
 15
90.51899512937676
 25
43.13857492872395
 35
0.0
146
0.0
 13
0.0
 23
0.0
 33
0.0
 16
1.0
 26
0.0
 36
0.0
 17
0.0
 27
1.0
 37
0.0
 76
     0
330
1F
331
29
  0
MLINESTYLE
  5
18
102
{ACAD_REACTORS
330
17
102
}
330
17
100
AcDbMlineStyle
  2
Standard
 70
     0
  3

 62
   256
 51
90.0
 52
90.0
 71
     2
 49
0.5
 62
   256
  6
BYLAYER
 49
-0.5
 62
   256
  6
BYLAYER
  0
ACDBPLACEHOLDER
  5
F
102
{ACAD_REACTORS
330
E
102
}
330
E
  0
SCALE
  5
48
102
{ACAD_REACTORS
330
47
102
}
330
47
100
AcDbScale
 70
     0
300
1:1
140
1.0
141
1.0
290
     1
  0
SCALE
  5
49
102
{ACAD_REACTORS
330
47
102
}
330
47
100
AcDbScale
 70
     0
300
1:2
140
1.0
141
2.0
290
     0
  0
SCALE
  5
4A
102
{ACAD_REACTORS
330
47
102
}
330
47
100
AcDbScale
 70
     0
300
1:4
140
1.0
141
4.0
290
     0
  0
SCALE
  5
4B
102
{ACAD_REACTORS
330
47
102
}
330
47
100
AcDbScale
 70
     0
300
1:5
140
1.0
141
5.0
290
     0
  0
SCALE
  5
4C
102
{ACAD_REACTORS
330
47
102
}
330
47
100
AcDbScale
 70
     0
300
1:8
140
1.0
141
8.0
290
     0
  0
SCALE
  5
4D
102
{ACAD_REACTORS
330
47
102
}
330
47
100
AcDbScale
 70
     0
300
1:10
140
1.0
141
10.0
290
     0
  0
SCALE
  5
4E
102
{ACAD_REACTORS
330
47
102
}
330
47
100
AcDbScale
 70
     0
300
1:16
140
1.0
141
16.0
290
     0
  0
SCALE
  5
4F
102
{ACAD_REACTORS
330
47
102
}
330
47
100
AcDbScale
 70
     0
300
1:20
140
1.0
141
20.0
290
     0
  0
SCALE
  5
50
102
{ACAD_REACTORS
330
47
102
}
330
47
100
AcDbScale
 70
     0
300
1:30
140
1.0
141
30.0
290
     0
  0
SCALE
  5
51
102
{ACAD_REACTORS
330
47
102
}
330
47
100
AcDbScale
 70
     0
300
1:40
140
1.0
141
40.0
290
     0
  0
SCALE
  5
52
102
{ACAD_REACTORS
330
47
102
}
330
47
100
AcDbScale
 70
     0
300
1:50
140
1.0
141
50.0
290
     0
  0
SCALE
  5
53
102
{ACAD_REACTORS
330
47
102
}
330
47
100
AcDbScale
 70
     0
300
1:100
140
1.0
141
100.0
290
     0
  0
SCALE
  5
54
102
{ACAD_REACTORS
330
47
102
}
330
47
100
AcDbScale
 70
     0
300
2:1
140
2.0
141
1.0
290
     0
  0
SCALE
  5
55
102
{ACAD_REACTORS
330
47
102
}
330
47
100
AcDbScale
 70
     0
300
4:1
140
4.0
141
1.0
290
     0
  0
SCALE
  5
56
102
{ACAD_REACTORS
330
47
102
}
330
47
100
AcDbScale
 70
     0
300
8:1
140
8.0
141
1.0
290
     0
  0
SCALE
  5
57
102
{ACAD_REACTORS
330
47
102
}
330
47
100
AcDbScale
 70
     0
300
10:1
140
10.0
141
1.0
290
     0
  0
SCALE
  5
58
102
{ACAD_REACTORS
330
47
102
}
330
47
100
AcDbScale
 70
     0
300
100:1
140
100.0
141
1.0
290
     0
  0
SCALE
  5
59
102
{ACAD_REACTORS
330
47
102
}
330
47
100
AcDbScale
 70
     0
300
1/128" = 1'-0"
140
0.0078125
141
12.0
290
     0
  0
SCALE
  5
5A
102
{ACAD_REACTORS
330
47
102
}
330
47
100
AcDbScale
 70
     0
300
1/64" = 1'-0"
140
0.015625
141
12.0
290
     0
  0
SCALE
  5
5B
102
{ACAD_REACTORS
330
47
102
}
330
47
100
AcDbScale
 70
     0
300
1/32" = 1'-0"
140
0.03125
141
12.0
290
     0
  0
SCALE
  5
5C
102
{ACAD_REACTORS
330
47
102
}
330
47
100
AcDbScale
 70
     0
300
1/16" = 1'-0"
140
0.0625
141
12.0
290
     0
  0
SCALE
  5
5D
102
{ACAD_REACTORS
330
47
102
}
330
47
100
AcDbScale
 70
     0
300
3/32" = 1'-0"
140
0.09375
141
12.0
290
     0
  0
SCALE
  5
5E
102
{ACAD_REACTORS
330
47
102
}
330
47
100
AcDbScale
 70
     0
300
1/8" = 1'-0"
140
0.125
141
12.0
290
     0
  0
SCALE
  5
5F
102
{ACAD_REACTORS
330
47
102
}
330
47
100
AcDbScale
 70
     0
300
3/16" = 1'-0"
140
0.1875
141
12.0
290
     0
  0
SCALE
  5
60
102
{ACAD_REACTORS
330
47
102
}
330
47
100
AcDbScale
 70
     0
300
1/4" = 1'-0"
140
0.25
141
12.0
290
     0
  0
SCALE
  5
61
102
{ACAD_REACTORS
330
47
102
}
330
47
100
AcDbScale
 70
     0
300
3/8" = 1'-0"
140
0.375
141
12.0
290
     0
  0
SCALE
  5
62
102
{ACAD_REACTORS
330
47
102
}
330
47
100
AcDbScale
 70
     0
300
1/2" = 1'-0"
140
0.5
141
12.0
290
     0
  0
SCALE
  5
63
102
{ACAD_REACTORS
330
47
102
}
330
47
100
AcDbScale
 70
     0
300
3/4" = 1'-0"
140
0.75
141
12.0
290
     0
  0
SCALE
  5
64
102
{ACAD_REACTORS
330
47
102
}
330
47
100
AcDbScale
 70
     0
300
1" = 1'-0"
140
1.0
141
12.0
290
     0
  0
SCALE
  5
65
102
{ACAD_REACTORS
330
47
102
}
330
47
100
AcDbScale
 70
     0
300
1-1/2" = 1'-0"
140
1.5
141
12.0
290
     0
  0
SCALE
  5
66
102
{ACAD_REACTORS
330
47
102
}
330
47
100
AcDbScale
 70
     0
300
3" = 1'-0"
140
3.0
141
12.0
290
     0
  0
SCALE
  5
67
102
{ACAD_REACTORS
330
47
102
}
330
47
100
AcDbScale
 70
     0
300
6" = 1'-0"
140
6.0
141
12.0
290
     0
  0
SCALE
  5
68
102
{ACAD_REACTORS
330
47
102
}
330
47
100
AcDbScale
 70
     0
300
1'-0" = 1'-0"
140
12.0
141
12.0
290
     0
  0
ENDSEC
  0
EOF
