  0
SECTION
  2
HEADER
  9
$ACADVER
  1
AC1015
  9
$ACADMAINTVER
 70
     6
  9
$DWGCODEPAGE
  3
ANSI_949
  9
$INSBASE
 10
0.0
 20
0.0
 30
0.0
  9
$EXTMIN
 10
-62.397902220259
 20
-49.97180738881175
 30
0.0
  9
$EXTMAX
 10
74.96274512937676
 20
44.59150000000005
 30
0.0
  9
$LIMMIN
 10
0.0
 20
0.0
  9
$LIMMAX
 10
420.0
 20
297.0
  9
$ORTHOMODE
 70
     1
  9
$REGENMODE
 70
     1
  9
$FILLMODE
 70
     1
  9
$QTEXTMODE
 70
     0
  9
$MIRRTEXT
 70
     1
  9
$LTSCALE
 40
1.0
  9
$ATTMODE
 70
     1
  9
$TEXTSIZE
 40
3.5
  9
$TRACEWID
 40
1.0
  9
$TEXTSTYLE
  7
Standard
  9
$CLAYER
  8
0
  9
$CELTYPE
  6
ByLayer
  9
$CECOLOR
 62
   256
  9
$CELTSCALE
 40
1.0
  9
$DISPSILH
 70
     0
  9
$DIMSCALE
 40
1.0
  9
$DIMASZ
 40
3.302
  9
$DIMEXO
 40
1.0
  9
$DIMDLI
 40
3.75
  9
$DIMRND
 40
0.0
  9
$DIMDLE
 40
0.0
  9
$DIMEXE
 40
1.0
  9
$DIMTP
 40
0.0
  9
$DIMTM
 40
0.0
  9
$DIMTXT
 40
3.5
  9
$DIMCEN
 40
2.5
  9
$DIMTSZ
 40
0.0
  9
$DIMTOL
 70
     0
  9
$DIMLIM
 70
     0
  9
$DIMTIH
 70
     1
  9
$DIMTOH
 70
     1
  9
$DIMSE1
 70
     0
  9
$DIMSE2
 70
     0
  9
$DIMTAD
 70
     1
  9
$DIMZIN
 70
     0
  9
$DIMBLK
  1

  9
$DIMASO
 70
     1
  9
$DIMSHO
 70
     1
  9
$DIMPOST
  1

  9
$DIMAPOST
  1

  9
$DIMALT
 70
     0
  9
$DIMALTD
 70
     3
  9
$DIMALTF
 40
0.0393700787401575
  9
$DIMLFAC
 40
1.0
  9
$DIMTOFL
 70
     1
  9
$DIMTVP
 40
0.0
  9
$DIMTIX
 70
     0
  9
$DIMSOXD
 70
     0
  9
$DIMSAH
 70
     0
  9
$DIMBLK1
  1

  9
$DIMBLK2
  1

  9
$DIMSTYLE
  2
ISO-25
  9
$DIMCLRD
 70
     0
  9
$DIMCLRE
 70
     0
  9
$DIMCLRT
 70
     0
  9
$DIMTFAC
 40
1.0
  9
$DIMGAP
 40
1.524
  9
$DIMJUST
 70
     0
  9
$DIMSD1
 70
     0
  9
$DIMSD2
 70
     0
  9
$DIMTOLJ
 70
     0
  9
$DIMTZIN
 70
     0
  9
$DIMALTZ
 70
     0
  9
$DIMALTTZ
 70
     0
  9
$DIMUPT
 70
     0
  9
$DIMDEC
 70
     2
  9
$DIMTDEC
 70
     2
  9
$DIMALTU
 70
     2
  9
$DIMALTTD
 70
     3
  9
$DIMTXSTY
  7
Standard
  9
$DIMAUNIT
 70
     0
  9
$DIMADEC
 70
     2
  9
$DIMALTRND
 40
0.0
  9
$DIMAZIN
 70
     0
  9
$DIMDSEP
 70
    44
  9
$DIMATFIT
 70
     3
  9
$DIMFRAC
 70
     0
  9
$DIMLDRBLK
  1

  9
$DIMLUNIT
 70
     2
  9
$DIMLWD
 70
    -2
  9
$DIMLWE
 70
    -2
  9
$DIMTMOVE
 70
     0
  9
$LUNITS
 70
     2
  9
$LUPREC
 70
     2
  9
$SKETCHINC
 40
1.0
  9
$FILLETRAD
 40
10.0
  9
$AUNITS
 70
     0
  9
$AUPREC
 70
     2
  9
$MENU
  1
.
  9
$ELEVATION
 40
0.0
  9
$PELEVATION
 40
0.0
  9
$THICKNESS
 40
0.0
  9
$LIMCHECK
 70
     0
  9
$CHAMFERA
 40
0.0
  9
$CHAMFERB
 40
0.0
  9
$CHAMFERC
 40
0.0
  9
$CHAMFERD
 40
0.0
  9
$SKPOLY
 70
     0
  9
$TDCREATE
 40
2458316.581336088
  9
$TDUCREATE
 40
2458316.206336088
  9
$TDUPDATE
 40
2458320.740858797
  9
$TDUUPDATE
 40
2458320.365858797
  9
$TDINDWG
 40
0.0049951389
  9
$TDUSRTIMER
 40
2458320.365791748
  9
$USRTIMER
 70
     1
  9
$ANGBASE
 50
0.0
  9
$ANGDIR
 70
     0
  9
$PDMODE
 70
     0
  9
$PDSIZE
 40
-1.0
  9
$PLINEWID
 40
0.0
  9
$SPLFRAME
 70
     0
  9
$SPLINETYPE
 70
     6
  9
$SPLINESEGS
 70
     8
  9
$HANDSEED
  5
434
  9
$SURFTAB1
 70
     6
  9
$SURFTAB2
 70
     6
  9
$SURFTYPE
 70
     6
  9
$SURFU
 70
     6
  9
$SURFV
 70
     6
  9
$UCSBASE
  2

  9
$UCSNAME
  2

  9
$UCSORG
 10
0.0
 20
0.0
 30
0.0
  9
$UCSXDIR
 10
1.0
 20
0.0
 30
0.0
  9
$UCSYDIR
 10
0.0
 20
1.0
 30
0.0
  9
$UCSORTHOREF
  2

  9
$UCSORTHOVIEW
 70
     0
  9
$UCSORGTOP
 10
0.0
 20
0.0
 30
0.0
  9
$UCSORGBOTTOM
 10
0.0
 20
0.0
 30
0.0
  9
$UCSORGLEFT
 10
0.0
 20
0.0
 30
0.0
  9
$UCSORGRIGHT
 10
0.0
 20
0.0
 30
0.0
  9
$UCSORGFRONT
 10
0.0
 20
0.0
 30
0.0
  9
$UCSORGBACK
 10
0.0
 20
0.0
 30
0.0
  9
$PUCSBASE
  2

  9
$PUCSNAME
  2

  9
$PUCSORG
 10
0.0
 20
0.0
 30
0.0
  9
$PUCSXDIR
 10
1.0
 20
0.0
 30
0.0
  9
$PUCSYDIR
 10
0.0
 20
1.0
 30
0.0
  9
$PUCSORTHOREF
  2

  9
$PUCSORTHOVIEW
 70
     0
  9
$PUCSORGTOP
 10
0.0
 20
0.0
 30
0.0
  9
$PUCSORGBOTTOM
 10
0.0
 20
0.0
 30
0.0
  9
$PUCSORGLEFT
 10
0.0
 20
0.0
 30
0.0
  9
$PUCSORGRIGHT
 10
0.0
 20
0.0
 30
0.0
  9
$PUCSORGFRONT
 10
0.0
 20
0.0
 30
0.0
  9
$PUCSORGBACK
 10
0.0
 20
0.0
 30
0.0
  9
$USERI1
 70
     0
  9
$USERI2
 70
     0
  9
$USERI3
 70
     0
  9
$USERI4
 70
     0
  9
$USERI5
 70
     0
  9
$USERR1
 40
0.0
  9
$USERR2
 40
0.0
  9
$USERR3
 40
0.0
  9
$USERR4
 40
0.0
  9
$USERR5
 40
0.0
  9
$WORLDVIEW
 70
     1
  9
$SHADEDGE
 70
     3
  9
$SHADEDIF
 70
    70
  9
$TILEMODE
 70
     1
  9
$MAXACTVP
 70
    64
  9
$PINSBASE
 10
0.0
 20
0.0
 30
0.0
  9
$PLIMCHECK
 70
     0
  9
$PEXTMIN
 10
1.000000000000000E+20
 20
1.000000000000000E+20
 30
1.000000000000000E+20
  9
$PEXTMAX
 10
-1.000000000000000E+20
 20
-1.000000000000000E+20
 30
-1.000000000000000E+20
  9
$PLIMMIN
 10
0.0
 20
0.0
  9
$PLIMMAX
 10
0.0
 20
0.0
  9
$UNITMODE
 70
     0
  9
$VISRETAIN
 70
     1
  9
$PLINEGEN
 70
     0
  9
$PSLTSCALE
 70
     1
  9
$TREEDEPTH
 70
  3020
  9
$CMLSTYLE
  2
Standard
  9
$CMLJUST
 70
     0
  9
$CMLSCALE
 40
20.0
  9
$PROXYGRAPHICS
 70
     1
  9
$MEASUREMENT
 70
     1
  9
$CELWEIGHT
370
    -1
  9
$ENDCAPS
280
     0
  9
$JOINSTYLE
280
     0
  9
$LWDISPLAY
290
     1
  9
$INSUNITS
 70
     4
  9
$HYPERLINKBASE
  1

  9
$STYLESHEET
  1

  9
$XEDIT
290
     1
  9
$CEPSNTYPE
380
     0
  9
$PSTYLEMODE
290
     1
  9
$FINGERPRINTGUID
  2
{B140F869-DA90-4D89-9B90-DD689CADB739}
  9
$VERSIONGUID
  2
{FAEB1C32-E019-11D5-929B-00C0DF256EC4}
  9
$EXTNAMES
290
     1
  9
$PSVPSCALE
 40
0.0
  9
$OLESTARTUP
290
     0
  0
ENDSEC
  0
SECTION
  2
CLASSES
  0
CLASS
  1
ACDBDICTIONARYWDFLT
  2
AcDbDictionaryWithDefault
  3
ObjectDBX Classes
 90
        0
280
     0
281
     0
  0
CLASS
  1
VISUALSTYLE
  2
AcDbVisualStyle
  3
ObjectDBX Classes
 90
     4095
280
     0
281
     0
  0
CLASS
  1
MATERIAL
  2
AcDbMaterial
  3
ObjectDBX Classes
 90
     1153
280
     0
281
     0
  0
CLASS
  1
SCALE
  2
AcDbScale
  3
ObjectDBX Classes
 90
     1153
280
     0
281
     0
  0
CLASS
  1
SUN
  2
AcDbSun
  3
SCENEOE
 90
     1153
280
     0
281
     0
  0
CLASS
  1
ACDBPLACEHOLDER
  2
AcDbPlaceHolder
  3
ObjectDBX Classes
 90
        0
280
     0
281
     0
  0
CLASS
  1
LAYOUT
  2
AcDbLayout
  3
ObjectDBX Classes
 90
        0
280
     0
281
     0
  0
CLASS
  1
TABLESTYLE
  2
AcDbTableStyle
  3
ObjectDBX Classes
 90
     4095
280
     0
281
     0
  0
CLASS
  1
MLEADERSTYLE
  2
AcDbMLeaderStyle
  3
ACDB_MLEADERSTYLE_CLASS
 90
     4095
280
     0
281
     0
  0
CLASS
  1
RASTERVARIABLES
  2
AcDbRasterVariables
  3
ISM
 90
        0
280
     0
281
     0
  0
ENDSEC
  0
SECTION
  2
TABLES
  0
TABLE
  2
VPORT
  5
8
330
0
100
AcDbSymbolTable
 70
     1
  0
VPORT
  5
29
330
8
100
AcDbSymbolTableRecord
100
AcDbViewportTableRecord
  2
*Active
 70
     0
 10
0.0
 20
0.0
 11
1.0
 21
1.0
 12
-138.3259258695852
 22
-64.14740954666168
 13
0.0
 23
0.0
 14
10.0
 24
10.0
 15
10.0
 25
10.0
 16
0.0
 26
0.0
 36
1.0
 17
0.0
 27
0.0
 37
0.0
 40
213.5710499269537
 41
1.67311411992263
 42
50.0
 43
0.0
 44
0.0
 50
0.0
 51
0.0
 71
    16
 72
  2000
 73
     1
 74
     3
 75
     0
 76
     0
 77
     0
 78
     0
281
     0
 65
     1
110
0.0
120
0.0
130
0.0
111
1.0
121
0.0
131
0.0
112
0.0
122
1.0
132
0.0
 79
     0
146
0.0
  0
ENDTAB
  0
TABLE
  2
LTYPE
  5
5
330
0
100
AcDbSymbolTable
 70
     6
  0
LTYPE
  5
14
330
5
100
AcDbSymbolTableRecord
100
AcDbLinetypeTableRecord
  2
ByBlock
 70
     0
  3

 72
    65
 73
     0
 40
0.0
  0
LTYPE
  5
15
330
5
100
AcDbSymbolTableRecord
100
AcDbLinetypeTableRecord
  2
ByLayer
 70
     0
  3

 72
    65
 73
     0
 40
0.0
  0
LTYPE
  5
16
330
5
100
AcDbSymbolTableRecord
100
AcDbLinetypeTableRecord
  2
Continuous
 70
     0
  3
Solid line
 72
    65
 73
     0
 40
0.0
  0
LTYPE
  5
6A
330
5
100
AcDbSymbolTableRecord
100
AcDbLinetypeTableRecord
  2
HIDDEN
 70
     0
  3
Hidden __ __ __ __ __ __ __ __ __ __ __ __ __ __
 72
    65
 73
     2
 40
1.905
 49
1.27
 74
     0
 49
-0.635
 74
     0
  0
LTYPE
  5
6B
330
5
100
AcDbSymbolTableRecord
100
AcDbLinetypeTableRecord
  2
PHANTOM
 70
     0
  3
Phantom ______  __  __  ______  __  __  ______
 72
    65
 73
     6
 40
12.7
 49
6.35
 74
     0
 49
-1.27
 74
     0
 49
1.27
 74
     0
 49
-1.27
 74
     0
 49
1.27
 74
     0
 49
-1.27
 74
     0
  0
LTYPE
  5
6C
330
5
100
AcDbSymbolTableRecord
100
AcDbLinetypeTableRecord
  2
CENTER
 70
     0
  3
Center ____ _ ____ _ ____ _ ____ _ ____ _ ____
 72
    65
 73
     4
 40
10.16
 49
6.35
 74
     0
 49
-1.27
 74
     0
 49
1.27
 74
     0
 49
-1.27
 74
     0
  0
LTYPE
  5
6D
330
5
100
AcDbSymbolTableRecord
100
AcDbLinetypeTableRecord
  2
CENTERX2
 70
     0
  3
Center (2x) ________  __  ________  __  _____
 72
    65
 73
     4
 40
20.32
 49
12.7
 74
     0
 49
-2.54
 74
     0
 49
2.54
 74
     0
 49
-2.54
 74
     0
  0
LTYPE
  5
6E
330
5
100
AcDbSymbolTableRecord
100
AcDbLinetypeTableRecord
  2
DOT2
 70
     0
  3
Dot (.5x) ........................................
 72
    65
 73
     2
 40
0.635
 49
0.0
 74
     0
 49
-0.635
 74
     0
  0
ENDTAB
  0
TABLE
  2
LAYER
  5
2
102
{ACAD_XDICTIONARY
360
1CC
102
}
330
0
100
AcDbSymbolTable
 70
    18
  0
LAYER
  5
10
330
2
100
AcDbSymbolTableRecord
100
AcDbLayerTableRecord
  2
0
 70
     0
 62
     7
  6
Continuous
370
    -3
390
F
  0
LAYER
  5
6F
330
2
100
AcDbSymbolTableRecord
100
AcDbLayerTableRecord
  2
FORMAT
 70
     0
 62
     2
  6
Continuous
370
    -3
390
F
  0
LAYER
  5
70
330
2
100
AcDbSymbolTableRecord
100
AcDbLayerTableRecord
  2
외형선
 70
     0
 62
     4
  6
Continuous
370
    30
390
F
  0
LAYER
  5
71
330
2
100
AcDbSymbolTableRecord
100
AcDbLayerTableRecord
  2
숨은선
 70
     0
 62
     2
  6
HIDDEN
370
    15
390
F
  0
LAYER
  5
72
330
2
100
AcDbSymbolTableRecord
100
AcDbLayerTableRecord
  2
중심선
 70
     0
 62
     1
  6
CENTERX2
370
    -3
390
F
  0
LAYER
  5
73
330
2
100
AcDbSymbolTableRecord
100
AcDbLayerTableRecord
  2
파단선
 70
     0
 62
     4
  6
Continuous
370
    -3
390
F
  0
LAYER
  5
74
330
2
100
AcDbSymbolTableRecord
100
AcDbLayerTableRecord
  2
해칭선
 70
     0
 62
   100
  6
Continuous
370
    -3
390
F
  0
LAYER
  5
75
330
2
100
AcDbSymbolTableRecord
100
AcDbLayerTableRecord
  2
가는실선
 70
     0
 62
     4
  6
Continuous
370
    -3
390
F
  0
LAYER
  5
76
330
2
100
AcDbSymbolTableRecord
100
AcDbLayerTableRecord
  2
치수_보조선
 70
     0
 62
     4
  6
Continuous
370
    -3
390
F
  0
LAYER
  5
77
330
2
100
AcDbSymbolTableRecord
100
AcDbLayerTableRecord
  2
치수문자_일반주서
 70
     0
 62
     7
  6
Continuous
370
    15
390
F
  0
LAYER
  5
78
330
2
100
AcDbSymbolTableRecord
100
AcDbLayerTableRecord
  2
개별주서
 70
     0
 62
   100
  6
Continuous
370
    30
390
F
  0
LAYER
  5
79
330
2
100
AcDbSymbolTableRecord
100
AcDbLayerTableRecord
  2
중간선
 70
     0
 62
     2
  6
Continuous
370
    15
390
F
  0
LAYER
  5
7A
330
2
100
AcDbSymbolTableRecord
100
AcDbLayerTableRecord
  2
윤곽선
 70
     0
 62
     3
  6
Continuous
370
    40
390
F
  0
LAYER
  5
7B
330
2
100
AcDbSymbolTableRecord
100
AcDbLayerTableRecord
  2
중심마크
 70
     0
 62
   100
  6
Continuous
370
    30
390
F
  0
LAYER
  5
7C
330
2
100
AcDbSymbolTableRecord
100
AcDbLayerTableRecord
  2
가상선
 70
     0
 62
     4
  6
PHANTOM
370
    -3
390
F
  0
LAYER
  5
7D
330
2
100
AcDbSymbolTableRecord
100
AcDbLayerTableRecord
  2
특수지정선
 70
     0
 62
     5
  6
CENTERX2
370
    60
390
F
  0
LAYER
  5
7E
330
2
100
AcDbSymbolTableRecord
100
AcDbLayerTableRecord
  2
참조1
 70
     0
 62
    -4
  6
Continuous
370
    -3
390
F
  0
LAYER
  5
134
330
2
100
AcDbSymbolTableRecord
100
AcDbLayerTableRecord
  2
Defpoints
 70
     0
 62
     7
  6
Continuous
290
     0
370
    -3
390
F
  0
ENDTAB
  0
TABLE
  2
STYLE
  5
3
330
0
100
AcDbSymbolTable
 70
     2
  0
STYLE
  5
11
330
3
100
AcDbSymbolTableRecord
100
AcDbTextStyleTableRecord
  2
Standard
 70
     0
 40
0.0
 41
1.0
 50
0.0
 71
     0
 42
3.5
  3
txt
  4

  0
STYLE
  5
94
330
3
100
AcDbSymbolTableRecord
100
AcDbTextStyleTableRecord
  2
SLDTEXTSTYLE0
 70
     0
 40
0.0
 41
0.75
 50
0.0
 71
     0
 42
3.5
  3
TXT
  4

  0
ENDTAB
  0
TABLE
  2
VIEW
  5
6
330
0
100
AcDbSymbolTable
 70
     0
  0
ENDTAB
  0
TABLE
  2
UCS
  5
7
330
0
100
AcDbSymbolTable
 70
     0
  0
ENDTAB
  0
TABLE
  2
APPID
  5
9
330
0
100
AcDbSymbolTable
 70
     1
  0
APPID
  5
12
330
9
100
AcDbSymbolTableRecord
100
AcDbRegAppTableRecord
  2
ACAD
 70
     0
  0
ENDTAB
  0
TABLE
  2
DIMSTYLE
  5
A
330
0
100
AcDbSymbolTable
 70
     3
100
AcDbDimStyleTable
  0
DIMSTYLE
105
27
330
A
100
AcDbSymbolTableRecord
100
AcDbDimStyleTableRecord
  2
ISO-25
 70
     0
 41
2.5
 42
0.625
 43
3.75
 44
1.25
 73
     0
 74
     0
 77
     1
 78
     8
140
2.5
141
2.5
143
0.03937007874016
147
0.625
171
     3
172
     1
178
     0
271
     2
272
     2
274
     3
278
    44
283
     0
284
     8
340
11
  0
DIMSTYLE
105
B2
330
A
100
AcDbSymbolTableRecord
100
AcDbDimStyleTableRecord
  2
SLDDIMSTYLE0
 70
     0
 41
3.302
 44
0.0
 45
0.000000001
 73
     0
 74
     0
 77
     1
 78
    12
 79
     3
140
3.5
143
0.0393700787401575
147
0.875
148
0.000000001
170
     1
173
     1
178
     0
271
     2
272
     2
276
     2
284
    12
340
94
  0
DIMSTYLE
105
DA
102
{ACAD_REACTORS
330
388
330
389
330
38A
330
38B
102
}
330
A
100
AcDbSymbolTableRecord
100
AcDbDimStyleTableRecord
  2
SLDDIMSTYLE1
 70
     0
 41
3.302
 44
0.0
 45
0.000000001
 73
     0
 74
     0
 77
     1
 78
     4
 79
     1
140
3.5
143
0.0393700787401575
147
0.875
148
0.000000001
170
     1
172
     1
173
     1
178
     0
271
     2
272
     2
276
     2
284
    12
289
     0
340
94
  0
ENDTAB
  0
TABLE
  2
BLOCK_RECORD
  5
1
330
0
100
AcDbSymbolTable
 70
    23
  0
BLOCK_RECORD
  5
1F
330
1
100
AcDbSymbolTableRecord
100
AcDbBlockTableRecord
  2
*Model_Space
340
22
  0
BLOCK_RECORD
  5
1B
330
1
100
AcDbSymbolTableRecord
100
AcDbBlockTableRecord
  2
*Paper_Space
340
1E
  0
BLOCK_RECORD
  5
23
330
1
100
AcDbSymbolTableRecord
100
AcDbBlockTableRecord
  2
*Paper_Space0
340
26
  0
BLOCK_RECORD
  5
7F
330
1
100
AcDbSymbolTableRecord
100
AcDbBlockTableRecord
  2
블럭10
340
0
102
{BLKREFS
331
AA
102
}
  0
BLOCK_RECORD
  5
B3
330
1
100
AcDbSymbolTableRecord
100
AcDbBlockTableRecord
  2
_D
340
0
  0
BLOCK_RECORD
  5
C7
330
1
100
AcDbSymbolTableRecord
100
AcDbBlockTableRecord
  2
_D_1
340
0
  0
BLOCK_RECORD
  5
DB
330
1
100
AcDbSymbolTableRecord
100
AcDbBlockTableRecord
  2
_D_2
340
0
  0
BLOCK_RECORD
  5
EF
330
1
100
AcDbSymbolTableRecord
100
AcDbBlockTableRecord
  2
_D_3
340
0
  0
BLOCK_RECORD
  5
108
330
1
100
AcDbSymbolTableRecord
100
AcDbBlockTableRecord
  2
SW_DOWELSYMBOL_0
340
0
102
{BLKREFS
331
38C
102
}
  0
BLOCK_RECORD
  5
1D0
330
1
100
AcDbSymbolTableRecord
100
AcDbBlockTableRecord
  2
*D7
340
0
  0
BLOCK_RECORD
  5
1DF
330
1
100
AcDbSymbolTableRecord
100
AcDbBlockTableRecord
  2
*D8
340
0
  0
BLOCK_RECORD
  5
1EB
330
1
100
AcDbSymbolTableRecord
100
AcDbBlockTableRecord
  2
*D9
340
0
  0
BLOCK_RECORD
  5
1F7
330
1
100
AcDbSymbolTableRecord
100
AcDbBlockTableRecord
  2
*D10
340
0
  0
BLOCK_RECORD
  5
23A
330
1
100
AcDbSymbolTableRecord
100
AcDbBlockTableRecord
  2
*D11
340
0
  0
BLOCK_RECORD
  5
249
330
1
100
AcDbSymbolTableRecord
100
AcDbBlockTableRecord
  2
*D12
340
0
  0
BLOCK_RECORD
  5
255
330
1
100
AcDbSymbolTableRecord
100
AcDbBlockTableRecord
  2
*D13
340
0
  0
BLOCK_RECORD
  5
261
330
1
100
AcDbSymbolTableRecord
100
AcDbBlockTableRecord
  2
*D14
340
0
  0
BLOCK_RECORD
  5
32E
330
1
100
AcDbSymbolTableRecord
100
AcDbBlockTableRecord
  2
*D15
340
0
  0
BLOCK_RECORD
  5
33D
330
1
100
AcDbSymbolTableRecord
100
AcDbBlockTableRecord
  2
*D16
340
0
  0
BLOCK_RECORD
  5
349
330
1
100
AcDbSymbolTableRecord
100
AcDbBlockTableRecord
  2
*D17
340
0
  0
BLOCK_RECORD
  5
355
330
1
100
AcDbSymbolTableRecord
100
AcDbBlockTableRecord
  2
*D18
340
0
  0
BLOCK_RECORD
  5
391
330
1
100
AcDbSymbolTableRecord
100
AcDbBlockTableRecord
  2
*D19
340
0
  0
BLOCK_RECORD
  5
3A0
330
1
100
AcDbSymbolTableRecord
100
AcDbBlockTableRecord
  2
*D20
340
0
  0
BLOCK_RECORD
  5
3AC
330
1
100
AcDbSymbolTableRecord
100
AcDbBlockTableRecord
  2
*D21
340
0
  0
BLOCK_RECORD
  5
3B8
330
1
100
AcDbSymbolTableRecord
100
AcDbBlockTableRecord
  2
*D22
340
0
  0
ENDTAB
  0
ENDSEC
  0
SECTION
  2
BLOCKS
  0
BLOCK
  5
20
330
1F
100
AcDbEntity
  8
0
100
AcDbBlockBegin
  2
*Model_Space
 70
     0
 10
0.0
 20
0.0
 30
0.0
  3
*Model_Space
  1
*Model_Space
  0
ENDBLK
  5
21
330
1F
100
AcDbEntity
  8
0
100
AcDbBlockEnd
  0
BLOCK
  5
1C
330
1B
100
AcDbEntity
 67
     1
  8
0
100
AcDbBlockBegin
  2
*Paper_Space
 70
     0
 10
0.0
 20
0.0
 30
0.0
  3
*Paper_Space
  1
*Paper_Space
  0
ENDBLK
  5
1D
330
1B
100
AcDbEntity
 67
     1
  8
0
100
AcDbBlockEnd
  0
BLOCK
  5
24
330
23
100
AcDbEntity
  8
0
100
AcDbBlockBegin
  2
*Paper_Space0
 70
     0
 10
0.0
 20
0.0
 30
0.0
  3
*Paper_Space0
  1
*Paper_Space0
  0
ENDBLK
  5
25
330
23
100
AcDbEntity
  8
0
100
AcDbBlockEnd
  0
BLOCK
  5
80
330
7F
100
AcDbEntity
  8
0
100
AcDbBlockBegin
  2
블럭10
 70
     2
 10
0.0
 20
0.0
 30
0.0
  3
블럭10
  1
블럭10
  0
ELLIPSE
  5
82
330
7F
100
AcDbEntity
  8
중심선
100
AcDbEllipse
 10
20.54032771741204
 20
12.0471743016438
 30
0.0
 11
6.600054785286829
 21
-1.261213355974178E-13
 31
0.0
210
0.0
220
0.0
230
1.0
 40
0.636358354079598
 41
0.9219305317359503
 42
6.513795318482858
  0
ELLIPSE
  5
83
330
7F
100
AcDbEntity
  8
중심선
100
AcDbEllipse
 10
20.54032771746488
 20
12.04717430159265
 30
0.0
 11
3.960054785062283
 21
1.540847449632565E-10
 31
0.0
210
0.0
220
0.0
230
1.0
 40
0.3939339440162632
 41
1.131841032648279
 42
5.62031148352944
  0
LINE
  5
84
330
7F
100
AcDbEntity
  8
중심선
100
AcDbLine
 10
2.268634060543552
 20
16.24717430164393
 30
0.0
 11
5.714909304380834
 21
16.24717430164393
 31
0.0
  0
LINE
  5
85
330
7F
100
AcDbEntity
  8
중심선
100
AcDbLine
 10
5.245725140726316
 20
7.84717430164391
 30
0.0
 11
8.692000384563599
 21
7.84717430164391
 31
0.0
  0
LINE
  5
86
330
7F
100
AcDbEntity
  8
중심선
100
AcDbLine
 10
15.74043728645272
 20
16.24717430164393
 30
0.0
 11
8.692000384563599
 21
7.84717430164391
 31
0.0
  0
LINE
  5
87
330
7F
100
AcDbEntity
  8
중심선
100
AcDbLine
 10
0.1404042013395286
 20
13.71084872107135
 30
0.0
 11
3.58671253028996
 21
13.71088815037384
 31
0.0
  0
LINE
  5
88
330
7F
100
AcDbEntity
  8
중심선
100
AcDbLine
 10
2.750260043222114
 20
10.84717430164391
 30
0.0
 11
6.196535287059397
 21
10.84717430164391
 31
0.0
  0
LINE
  5
89
330
7F
100
AcDbEntity
  8
중심선
100
AcDbLine
 10
12.29416204261559
 20
16.24717430164393
 30
0.0
 11
5.245725140726316
 21
7.84717430164391
 31
0.0
  0
LINE
  5
8A
330
7F
100
AcDbEntity
  8
중심선
100
AcDbLine
 10
10.72767329541681
 20
16.24717430164393
 30
0.0
 11
6.196535287059397
 21
10.84717430164391
 31
0.0
  0
LINE
  5
8B
330
7F
100
AcDbEntity
  8
중심선
100
AcDbLine
 10
7.28139805157953
 20
16.24717430164393
 30
0.0
 11
2.750260043222114
 21
10.84717430164391
 31
0.0
  0
LINE
  5
8C
330
7F
100
AcDbEntity
  8
중심선
100
AcDbLine
 10
5.714909304380834
 20
16.24717430164393
 30
0.0
 11
3.58671253028996
 21
13.71088815037384
 31
0.0
  0
LINE
  5
8D
330
7F
100
AcDbEntity
  8
중심선
100
AcDbLine
 10
2.268634060543552
 20
16.24717430164393
 30
0.0
 11
0.1404042013395286
 21
13.71084872107135
 31
0.0
  0
LINE
  5
8E
330
7F
100
AcDbEntity
  8
중심선
100
AcDbLine
 10
7.28139805157953
 20
16.24717430164393
 30
0.0
 11
10.72767329541681
 21
16.24717430164393
 31
0.0
  0
LINE
  5
8F
330
7F
100
AcDbEntity
  8
중심선
100
AcDbLine
 10
12.29416204261559
 20
16.24717430164393
 30
0.0
 11
15.74043728645272
 21
16.24717430164393
 31
0.0
  0
LINE
  5
90
330
7F
100
AcDbEntity
  8
중심선
100
AcDbLine
 10
19.22036997980202
 20
11.08717430171403
 30
0.0
 11
23.66174974927406
 21
11.08717430171406
 31
0.0
  0
LINE
  5
91
330
7F
100
AcDbEntity
  8
중심선
100
AcDbLine
 10
19.22039502424796
 20
13.00717430171391
 30
0.0
 11
19.22036997980202
 21
11.08717430171403
 31
0.0
  0
LINE
  5
92
330
7F
100
AcDbEntity
  8
중심선
100
AcDbLine
 10
19.22039502424796
 20
13.00717430171391
 30
0.0
 11
26.96566020931264
 21
13.00717430171391
 31
0.0
  0
LINE
  5
93
330
7F
100
AcDbEntity
  8
중심선
100
AcDbLine
 10
22.22332737316547
 20
13.45928029700563
 30
0.0
 11
24.52862924686651
 21
15.39360700705356
 31
0.0
  0
ATTDEF
  5
95
330
7F
100
AcDbEntity
  8
FORMAT
 62
     2
100
AcDbText
 10
4.408487351596664
 20
2.075366912832191
 30
0.0
 40
4.233333333333333
  1
E1110036
 41
0.75
  7
SLDTEXTSTYLE0
 11
4.408487351596664
 21
-0.0412997538344756
 31
0.0
100
AcDbAttributeDefinition
  3

  2
AUTOATTR0
 70
     0
 74
     1
  0
ENDBLK
  5
81
330
7F
100
AcDbEntity
  8
0
100
AcDbBlockEnd
  0
BLOCK
  5
B4
330
B3
100
AcDbEntity
  8
0
100
AcDbBlockBegin
  2
_D
 70
     0
 10
0.0
 20
0.0
 30
0.0
  3
_D
  1
_D
  0
LINE
  5
B6
330
B3
100
AcDbEntity
  8
치수문자_일반주서
 62
     0
370
    -2
100
AcDbLine
 10
-139.496178176196
 20
7.206249999999996
 30
0.0
 11
-139.496178176196
 21
19.82559977941641
 31
0.0
  0
LINE
  5
B7
330
B3
100
AcDbEntity
  8
치수문자_일반주서
 62
     0
370
    -2
100
AcDbLine
 10
-168.071178176196
 20
7.185117559297845
 30
0.0
 11
-168.071178176196
 21
19.82559977941641
 31
0.0
  0
LINE
  5
B8
330
B3
100
AcDbEntity
  8
치수문자_일반주서
 62
     0
370
    -2
100
AcDbLine
 10
-142.798178176196
 20
19.82559977941641
 30
0.0
 11
-164.769178176196
 21
19.82559977941641
 31
0.0
  0
SOLID
  5
B9
330
B3
100
AcDbEntity
  8
치수문자_일반주서
 62
     0
100
AcDbTrace
 10
-142.798178176196
 20
19.27526644608308
 30
0.0
 11
-142.798178176196
 21
20.37593311274975
 31
0.0
 12
-139.496178176196
 22
19.82559977941641
 32
0.0
 13
-139.496178176196
 23
19.82559977941641
 33
0.0
  0
SOLID
  5
BA
330
B3
100
AcDbEntity
  8
치수문자_일반주서
 62
     0
100
AcDbTrace
 10
-164.769178176196
 20
20.37593311274975
 30
0.0
 11
-164.769178176196
 21
19.27526644608308
 31
0.0
 12
-168.071178176196
 22
19.82559977941641
 32
0.0
 13
-168.071178176196
 23
19.82559977941641
 33
0.0
  0
MTEXT
  5
BB
330
B3
100
AcDbEntity
  8
치수문자_일반주서
 62
     0
100
AcDbMText
 10
-156.3576446437043
 20
24.20059977941641
 30
0.0
 40
3.5
 41
0.0
 71
     2
 72
     1
  1
\A1;28.58 [1 1/8]
  7
SLDTEXTSTYLE0
 73
     1
 44
1.0
  0
POINT
  5
BC
330
B3
100
AcDbEntity
  8
Defpoints
 62
     0
100
AcDbPoint
 10
-139.496178176196
 20
7.143749999999996
 30
0.0
  0
POINT
  5
BD
330
B3
100
AcDbEntity
  8
Defpoints
 62
     0
100
AcDbPoint
 10
-168.071178176196
 20
7.122617559297845
 30
0.0
  0
POINT
  5
BE
330
B3
100
AcDbEntity
  8
Defpoints
 62
     0
100
AcDbPoint
 10
-168.071178176196
 20
19.82559977941641
 30
0.0
  0
ENDBLK
  5
B5
330
B3
100
AcDbEntity
  8
0
100
AcDbBlockEnd
  0
BLOCK
  5
C8
330
C7
100
AcDbEntity
  8
0
100
AcDbBlockBegin
  2
_D_1
 70
     0
 10
0.0
 20
0.0
 30
0.0
  3
_D_1
  1
_D_1
  0
LINE
  5
CA
330
C7
100
AcDbEntity
  8
치수문자_일반주서
 62
     0
370
    -2
100
AcDbLine
 10
40.24926131403114
 20
4.337226723198786
 30
0.0
 11
40.24926131403114
 21
38.76357492872395
 31
0.0
  0
LINE
  5
CB
330
C7
100
AcDbEntity
  8
치수문자_일반주서
 62
     0
370
    -2
100
AcDbLine
 10
-35.95073868596884
 20
5.413574928723887
 30
0.0
 11
-35.95073868596884
 21
38.76357492872395
 31
0.0
  0
LINE
  5
CC
330
C7
100
AcDbEntity
  8
치수문자_일반주서
 62
     0
370
    -2
100
AcDbLine
 10
36.94726131403115
 20
38.76357492872395
 30
0.0
 11
-32.64873868596884
 21
38.76357492872395
 31
0.0
  0
SOLID
  5
CD
330
C7
100
AcDbEntity
  8
치수문자_일반주서
 62
     0
100
AcDbTrace
 10
36.94726131403115
 20
38.21324159539062
 30
0.0
 11
36.94726131403115
 21
39.31390826205729
 31
0.0
 12
40.24926131403114
 22
38.76357492872395
 32
0.0
 13
40.24926131403114
 23
38.76357492872395
 33
0.0
  0
SOLID
  5
CE
330
C7
100
AcDbEntity
  8
치수문자_일반주서
 62
     0
100
AcDbTrace
 10
-32.64873868596884
 20
39.31390826205729
 30
0.0
 11
-32.64873868596884
 21
38.21324159539062
 31
0.0
 12
-35.95073868596884
 22
38.76357492872395
 32
0.0
 13
-35.95073868596884
 23
38.76357492872395
 33
0.0
  0
MTEXT
  5
CF
330
C7
100
AcDbEntity
  8
치수문자_일반주서
 62
     0
100
AcDbMText
 10
2.149261314031146
 20
43.13857492872395
 30
0.0
 40
3.5
 41
0.0
 71
     2
 72
     1
  1
\A1;76.20 [3]
  7
SLDTEXTSTYLE0
 73
     1
 44
1.0
  0
POINT
  5
D0
330
C7
100
AcDbEntity
  8
Defpoints
 62
     0
100
AcDbPoint
 10
40.24926131403114
 20
4.274726723198786
 30
0.0
  0
POINT
  5
D1
330
C7
100
AcDbEntity
  8
Defpoints
 62
     0
100
AcDbPoint
 10
-35.95073868596884
 20
5.351074928723887
 30
0.0
  0
POINT
  5
D2
330
C7
100
AcDbEntity
  8
Defpoints
 62
     0
100
AcDbPoint
 10
-35.95073868596884
 20
38.76357492872395
 30
0.0
  0
ENDBLK
  5
C9
330
C7
100
AcDbEntity
  8
0
100
AcDbBlockEnd
  0
BLOCK
  5
DC
330
DB
100
AcDbEntity
  8
0
100
AcDbBlockBegin
  2
_D_2
 70
     0
 10
0.0
 20
0.0
 30
0.0
  3
_D_2
  1
_D_2
  0
LINE
  5
DE
330
DB
100
AcDbEntity
  8
치수문자_일반주서
 62
     0
370
    -2
100
AcDbLine
 10
-35.01323868596884
 20
6.351074928723891
 30
0.0
 11
-48.45073868596888
 21
6.351074928723843
 31
0.0
  0
LINE
  5
DF
330
DB
100
AcDbEntity
  8
치수문자_일반주서
 62
     0
370
    -2
100
AcDbLine
 10
-35.01323868596884
 20
-6.348925071276098
 30
0.0
 11
-48.45073868596884
 21
-6.348925071276146
 31
0.0
  0
LINE
  5
E0
330
DB
100
AcDbEntity
  8
치수문자_일반주서
 62
     0
370
    -2
100
AcDbLine
 10
-48.45073868596887
 20
3.049074928723844
 30
0.0
 11
-48.45073868596885
 21
-3.046925071276147
 31
0.0
  0
SOLID
  5
E1
330
DB
100
AcDbEntity
  8
치수문자_일반주서
 62
     0
100
AcDbTrace
 10
-47.90040535263553
 20
3.049074928723845
 30
0.0
 11
-49.0010720193022
 21
3.049074928723842
 31
0.0
 12
-48.45073868596888
 22
6.351074928723843
 32
0.0
 13
-48.45073868596888
 23
6.351074928723843
 33
0.0
  0
SOLID
  5
E2
330
DB
100
AcDbEntity
  8
치수문자_일반주서
 62
     0
100
AcDbTrace
 10
-49.00107201930219
 20
-3.046925071276148
 30
0.0
 11
-47.90040535263552
 21
-3.046925071276145
 31
0.0
 12
-48.45073868596884
 22
-6.348925071276146
 32
0.0
 13
-48.45073868596884
 23
-6.348925071276146
 33
0.0
  0
MTEXT
  5
E3
330
DB
100
AcDbEntity
  8
치수문자_일반주서
 62
     0
100
AcDbMText
 10
-52.82573868596886
 20
0.0010749287238769
 30
0.0
 40
3.5
 41
0.0
 71
     2
 72
     1
  1
\A1;%%c12.70 [1/2]
  7
SLDTEXTSTYLE0
 11
-3.356894814614650E-15
 21
1.0
 31
0.0
 73
     1
 44
1.0
  0
POINT
  5
E4
330
DB
100
AcDbEntity
  8
Defpoints
 62
     0
100
AcDbPoint
 10
-34.95073868596884
 20
6.351074928723891
 30
0.0
  0
POINT
  5
E5
330
DB
100
AcDbEntity
  8
Defpoints
 62
     0
100
AcDbPoint
 10
-34.95073868596884
 20
-6.348925071276098
 30
0.0
  0
POINT
  5
E6
330
DB
100
AcDbEntity
  8
Defpoints
 62
     0
100
AcDbPoint
 10
-48.45073868596886
 20
-6.348925071276145
 30
0.0
  0
ENDBLK
  5
DD
330
DB
100
AcDbEntity
  8
0
100
AcDbBlockEnd
  0
BLOCK
  5
F0
330
EF
100
AcDbEntity
  8
0
100
AcDbBlockBegin
  2
_D_3
 70
     0
 10
0.0
 20
0.0
 30
0.0
  3
_D_3
  1
_D_3
  0
LINE
  5
F2
330
EF
100
AcDbEntity
  8
치수문자_일반주서
 62
     0
370
    -2
100
AcDbLine
 10
-139.433678176196
 20
7.143749999999994
 30
0.0
 11
-126.0524281761959
 21
7.143750000000043
 31
0.0
  0
LINE
  5
F3
330
EF
100
AcDbEntity
  8
치수문자_일반주서
 62
     0
370
    -2
100
AcDbLine
 10
-139.433678176196
 20
-7.143750000000004
 30
0.0
 11
-126.0524281761958
 21
-7.143749999999951
 31
0.0
  0
LINE
  5
F4
330
EF
100
AcDbEntity
  8
치수문자_일반주서
 62
     0
370
    -2
100
AcDbLine
 10
-126.0524281761959
 20
7.143750000000043
 30
0.0
 11
-126.052428176196
 21
43.49775000000004
 31
0.0
  0
LINE
  5
F5
330
EF
100
AcDbEntity
  8
치수문자_일반주서
 62
     0
370
    -2
100
AcDbLine
 10
-126.0524281761959
 20
7.143750000000043
 30
0.0
 11
-126.0524281761958
 21
-7.143749999999951
 31
0.0
  0
LINE
  5
F6
330
EF
100
AcDbEntity
  8
치수문자_일반주서
 62
     0
370
    -2
100
AcDbLine
 10
-126.0524281761959
 20
10.44575000000004
 30
0.0
 11
-126.0524281761959
 21
13.74775000000004
 31
0.0
  0
LINE
  5
F7
330
EF
100
AcDbEntity
  8
치수문자_일반주서
 62
     0
370
    -2
100
AcDbLine
 10
-126.0524281761958
 20
-10.44574999999995
 30
0.0
 11
-126.0524281761958
 21
-13.74774999999995
 31
0.0
  0
SOLID
  5
F8
330
EF
100
AcDbEntity
  8
치수문자_일반주서
 62
     0
100
AcDbTrace
 10
-126.6027615095292
 20
10.44575000000004
 30
0.0
 11
-125.5020948428626
 21
10.44575000000004
 31
0.0
 12
-126.0524281761959
 22
7.143750000000043
 32
0.0
 13
-126.0524281761959
 23
7.143750000000043
 33
0.0
  0
SOLID
  5
F9
330
EF
100
AcDbEntity
  8
치수문자_일반주서
 62
     0
100
AcDbTrace
 10
-125.5020948428625
 20
-10.44574999999995
 30
0.0
 11
-126.6027615095292
 21
-10.44574999999995
 31
0.0
 12
-126.0524281761958
 22
-7.143749999999951
 32
0.0
 13
-126.0524281761958
 23
-7.143749999999951
 33
0.0
  0
MTEXT
  5
FA
330
EF
100
AcDbEntity
  8
치수문자_일반주서
 62
     0
100
AcDbMText
 10
-130.427428176196
 20
28.62275000000003
 30
0.0
 40
3.5
 41
0.0
 71
     2
 72
     1
  1
\A1;%%c14.29 [9/16]
  7
SLDTEXTSTYLE0
 11
-3.978542002506248E-15
 21
1.0
 31
0.0
 73
     1
 44
1.0
  0
POINT
  5
FB
330
EF
100
AcDbEntity
  8
Defpoints
 62
     0
100
AcDbPoint
 10
-139.496178176196
 20
7.143749999999994
 30
0.0
  0
POINT
  5
272
330
EF
100
AcDbEntity
  8
Defpoints
 62
     0
100
AcDbPoint
 10
-139.496178176196
 20
-7.143750000000004
 30
0.0
  0
POINT
  5
273
330
EF
100
AcDbEntity
  8
Defpoints
 62
     0
100
AcDbPoint
 10
-126.0524281761959
 20
-7.143749999999954
 30
0.0
  0
ENDBLK
  5
F1
330
EF
100
AcDbEntity
  8
0
100
AcDbBlockEnd
  0
BLOCK
  5
109
330
108
100
AcDbEntity
  8
0
100
AcDbBlockBegin
  2
SW_DOWELSYMBOL_0
 70
     0
 10
0.0
 20
0.0
 30
0.0
  3
SW_DOWELSYMBOL_0
  1
SW_DOWELSYMBOL_0
  0
CIRCLE
  5
10B
330
108
100
AcDbEntity
  8
해칭선
 62
     0
100
AcDbCircle
 10
0.0
 20
0.0
 30
0.0
 40
3.000000000000003
  0
HATCH
  5
10C
330
108
100
AcDbEntity
  8
0
  6
Continuous
 62
     0
370
     0
100
AcDbHatch
 10
0.0
 20
0.0
 30
0.0
210
0.0
220
0.0
230
1.0
  2
SOLID
 70
     1
 71
     0
 91
        1
 92
        0
 93
        3
 72
     2
 10
0.0
 20
0.0
 40
3.000000000000003
 50
0.0
 51
90.0
 73
     1
 72
     1
 10
0.0
 20
3.000000000000003
 11
0.0
 21
0.0
 72
     1
 10
0.0
 20
0.0
 11
3.000000000000003
 21
0.0
 97
        0
 75
     0
 76
     1
 98
        1
 10
0.0
 20
0.0
  0
HATCH
  5
10D
330
108
100
AcDbEntity
  8
0
  6
Continuous
 62
     0
370
     0
100
AcDbHatch
 10
0.0
 20
0.0
 30
0.0
210
0.0
220
0.0
230
1.0
  2
SOLID
 70
     1
 71
     0
 91
        1
 92
        0
 93
        3
 72
     2
 10
0.0
 20
0.0
 40
3.000000000000003
 50
180.0
 51
270.0000000000007
 73
     1
 72
     1
 10
0.0
 20
-3.000000000000003
 11
0.0
 21
0.0
 72
     1
 10
0.0
 20
0.0
 11
-3.000000000000003
 21
0.0
 97
        0
 75
     0
 76
     1
 98
        1
 10
0.0
 20
0.0
  0
ENDBLK
  5
10A
330
108
100
AcDbEntity
  8
0
100
AcDbBlockEnd
  0
BLOCK
  5
1D1
330
1D0
100
AcDbEntity
  8
0
100
AcDbBlockBegin
  2
*D7
 70
     1
 10
0.0
 20
0.0
 30
0.0
  3
*D7
  1
*D8
  0
LINE
  5
1D3
330
1D0
100
AcDbEntity
  8
치수문자_일반주서
 62
     0
370
    -2
100
AcDbLine
 10
93.07500000000006
 20
18.57274999999994
 30
0.0
 11
93.07500000000006
 21
30.09460713417075
 31
0.0
  0
LINE
  5
1D4
330
1D0
100
AcDbEntity
  8
치수문자_일반주서
 62
     0
370
    -2
100
AcDbLine
 10
67.67500000000007
 20
18.53260402348627
 30
0.0
 11
67.67500000000007
 21
30.09460713417075
 31
0.0
  0
LINE
  5
1D5
330
1D0
100
AcDbEntity
  8
치수문자_일반주서
 62
     0
370
    -2
100
AcDbLine
 10
67.67500000000007
 20
30.09460713417075
 30
0.0
 11
41.38350000000007
 21
30.09460713417075
 31
0.0
  0
LINE
  5
1D6
330
1D0
100
AcDbEntity
  8
치수문자_일반주서
 62
     0
370
    -2
100
AcDbLine
 10
93.07500000000006
 20
30.09460713417075
 30
0.0
 11
67.67500000000007
 21
30.09460713417075
 31
0.0
  0
LINE
  5
1D7
330
1D0
100
AcDbEntity
  8
치수문자_일반주서
 62
     0
370
    -2
100
AcDbLine
 10
96.37700000000007
 20
30.09460713417075
 30
0.0
 11
99.67900000000006
 21
30.09460713417075
 31
0.0
  0
LINE
  5
1D8
330
1D0
100
AcDbEntity
  8
치수문자_일반주서
 62
     0
370
    -2
100
AcDbLine
 10
64.37300000000008
 20
30.09460713417075
 30
0.0
 11
61.07100000000008
 21
30.09460713417075
 31
0.0
  0
SOLID
  5
1D9
330
1D0
100
AcDbEntity
  8
치수문자_일반주서
 62
     0
100
AcDbTrace
 10
96.37700000000007
 20
30.64494046750408
 30
0.0
 11
96.37700000000007
 21
29.54427380083741
 31
0.0
 12
93.07500000000006
 22
30.09460713417075
 32
0.0
 13
93.07500000000006
 23
30.09460713417075
 33
0.0
  0
SOLID
  5
1DA
330
1D0
100
AcDbEntity
  8
치수문자_일반주서
 62
     0
100
AcDbTrace
 10
64.37300000000008
 20
29.54427380083741
 30
0.0
 11
64.37300000000008
 21
30.64494046750408
 31
0.0
 12
67.67500000000007
 22
30.09460713417075
 32
0.0
 13
67.67500000000007
 23
30.09460713417075
 33
0.0
  0
MTEXT
  5
1DB
330
1D0
100
AcDbEntity
  8
치수문자_일반주서
 62
     0
100
AcDbMText
 10
51.22725000000007
 20
34.46960713417074
 30
0.0
 40
3.5
 41
0.0
 71
     2
 72
     1
  1
\A1;25.40 [1]
  7
SLDTEXTSTYLE0
 73
     1
 44
1.0
  0
POINT
  5
1DC
330
1D0
100
AcDbEntity
  8
Defpoints
 62
     0
100
AcDbPoint
 10
93.07500000000006
 20
18.51024999999994
 30
0.0
  0
POINT
  5
1DD
330
1D0
100
AcDbEntity
  8
Defpoints
 62
     0
100
AcDbPoint
 10
67.67500000000007
 20
18.47010402348627
 30
0.0
  0
POINT
  5
1DE
330
1D0
100
AcDbEntity
  8
Defpoints
 62
     0
100
AcDbPoint
 10
67.67500000000007
 20
30.09460713417075
 30
0.0
  0
ENDBLK
  5
1D2
330
1D0
100
AcDbEntity
  8
0
100
AcDbBlockEnd
  0
BLOCK
  5
1E0
330
1DF
100
AcDbEntity
  8
0
100
AcDbBlockBegin
  2
*D8
 70
     1
 10
0.0
 20
0.0
 30
0.0
  3
*D8
  1
*D9
  0
LINE
  5
1E2
330
1DF
100
AcDbEntity
  8
치수문자_일반주서
 62
     0
370
    -2
100
AcDbLine
 10
93.07500000000009
 20
18.57274999999994
 30
0.0
 11
93.07500000000009
 21
51.31962499999999
 31
0.0
  0
LINE
  5
1E3
330
1DF
100
AcDbEntity
  8
치수문자_일반주서
 62
     0
370
    -2
100
AcDbLine
 10
16.87500000000006
 20
17.96962499999993
 30
0.0
 11
16.87500000000006
 21
51.31962499999999
 31
0.0
  0
LINE
  5
1E4
330
1DF
100
AcDbEntity
  8
치수문자_일반주서
 62
     0
370
    -2
100
AcDbLine
 10
89.77300000000008
 20
51.31962499999999
 30
0.0
 11
20.17700000000006
 21
51.31962499999999
 31
0.0
  0
SOLID
  5
1E5
330
1DF
100
AcDbEntity
  8
치수문자_일반주서
 62
     0
100
AcDbTrace
 10
89.77300000000008
 20
50.76929166666666
 30
0.0
 11
89.77300000000008
 21
51.86995833333333
 31
0.0
 12
93.07500000000009
 22
51.31962499999999
 32
0.0
 13
93.07500000000009
 23
51.31962499999999
 33
0.0
  0
SOLID
  5
1E6
330
1DF
100
AcDbEntity
  8
치수문자_일반주서
 62
     0
100
AcDbTrace
 10
20.17700000000006
 20
51.86995833333333
 30
0.0
 11
20.17700000000006
 21
50.76929166666666
 31
0.0
 12
16.87500000000006
 22
51.31962499999999
 32
0.0
 13
16.87500000000006
 23
51.31962499999999
 33
0.0
  0
MTEXT
  5
1E7
330
1DF
100
AcDbEntity
  8
치수문자_일반주서
 62
     0
100
AcDbMText
 10
54.97500000000005
 20
55.69462499999999
 30
0.0
 40
3.5
 41
0.0
 71
     2
 72
     1
  1
\A1;76.20 [3]
  7
SLDTEXTSTYLE0
 73
     1
 44
1.0
  0
POINT
  5
1E8
330
1DF
100
AcDbEntity
  8
Defpoints
 62
     0
100
AcDbPoint
 10
93.07500000000009
 20
18.51024999999994
 30
0.0
  0
POINT
  5
1E9
330
1DF
100
AcDbEntity
  8
Defpoints
 62
     0
100
AcDbPoint
 10
16.87500000000006
 20
17.90712499999993
 30
0.0
  0
POINT
  5
1EA
330
1DF
100
AcDbEntity
  8
Defpoints
 62
     0
100
AcDbPoint
 10
16.87500000000006
 20
51.31962499999999
 30
0.0
  0
ENDBLK
  5
1E1
330
1DF
100
AcDbEntity
  8
0
100
AcDbBlockEnd
  0
BLOCK
  5
1EC
330
1EB
100
AcDbEntity
  8
0
100
AcDbBlockBegin
  2
*D9
 70
     1
 10
0.0
 20
0.0
 30
0.0
  3
*D9
  1
*D10
  0
LINE
  5
1EE
330
1EB
100
AcDbEntity
  8
치수문자_일반주서
 62
     0
370
    -2
100
AcDbLine
 10
17.81250000000006
 20
18.90712499999993
 30
0.0
 11
4.37500000000002
 21
18.90712499999988
 31
0.0
  0
LINE
  5
1EF
330
1EB
100
AcDbEntity
  8
치수문자_일반주서
 62
     0
370
    -2
100
AcDbLine
 10
17.81250000000006
 20
6.207124999999942
 30
0.0
 11
4.375000000000065
 21
6.207124999999892
 31
0.0
  0
LINE
  5
1F0
330
1EB
100
AcDbEntity
  8
치수문자_일반주서
 62
     0
370
    -2
100
AcDbLine
 10
4.375000000000032
 20
15.60512499999988
 30
0.0
 11
4.375000000000053
 21
9.50912499999989
 31
0.0
  0
SOLID
  5
1F1
330
1EB
100
AcDbEntity
  8
치수문자_일반주서
 62
     0
100
AcDbTrace
 10
4.925333333333366
 20
15.60512499999988
 30
0.0
 11
3.824666666666699
 21
15.60512499999988
 31
0.0
 12
4.37500000000002
 22
18.90712499999988
 32
0.0
 13
4.37500000000002
 23
18.90712499999988
 33
0.0
  0
SOLID
  5
1F2
330
1EB
100
AcDbEntity
  8
치수문자_일반주서
 62
     0
100
AcDbTrace
 10
3.82466666666672
 20
9.509124999999889
 30
0.0
 11
4.925333333333387
 21
9.509124999999893
 31
0.0
 12
4.375000000000065
 22
6.207124999999892
 32
0.0
 13
4.375000000000065
 23
6.207124999999892
 33
0.0
  0
MTEXT
  5
1F3
330
1EB
100
AcDbEntity
  8
치수문자_일반주서
 62
     0
100
AcDbMText
 10
0.0000000000000426
 20
12.55712499999992
 30
0.0
 40
3.5
 41
0.0
 71
     2
 72
     1
  1
\A1;%%c12.70 [1/2]
  7
SLDTEXTSTYLE0
 11
-3.496765431890260E-15
 21
1.0
 31
0.0
 73
     1
 44
1.0
  0
POINT
  5
1F4
330
1EB
100
AcDbEntity
  8
Defpoints
 62
     0
100
AcDbPoint
 10
17.87500000000006
 20
18.90712499999993
 30
0.0
  0
POINT
  5
1F5
330
1EB
100
AcDbEntity
  8
Defpoints
 62
     0
100
AcDbPoint
 10
17.87500000000006
 20
6.207124999999942
 30
0.0
  0
POINT
  5
1F6
330
1EB
100
AcDbEntity
  8
Defpoints
 62
     0
100
AcDbPoint
 10
4.375000000000064
 20
6.207124999999891
 30
0.0
  0
ENDBLK
  5
1ED
330
1EB
100
AcDbEntity
  8
0
100
AcDbBlockEnd
  0
BLOCK
  5
1F8
330
1F7
100
AcDbEntity
  8
0
100
AcDbBlockBegin
  2
*D10
 70
     1
 10
0.0
 20
0.0
 30
0.0
  3
*D10
  1
*D11
  0
LINE
  5
1FA
330
1F7
100
AcDbEntity
  8
치수문자_일반주서
 62
     0
370
    -2
100
AcDbLine
 10
93.13750000000005
 20
18.51024999999994
 30
0.0
 11
107.7093750000002
 21
18.51024999999998
 31
0.0
  0
LINE
  5
1FB
330
1F7
100
AcDbEntity
  8
치수문자_일반주서
 62
     0
370
    -2
100
AcDbLine
 10
93.13750000000006
 20
6.60399999999994
 30
0.0
 11
107.7093750000003
 21
6.603999999999992
 31
0.0
  0
LINE
  5
1FC
330
1F7
100
AcDbEntity
  8
치수문자_일반주서
 62
     0
370
    -2
100
AcDbLine
 10
107.7093750000002
 20
18.51024999999998
 30
0.0
 11
107.709375
 21
70.39589836986403
 31
0.0
  0
LINE
  5
1FD
330
1F7
100
AcDbEntity
  8
치수문자_일반주서
 62
     0
370
    -2
100
AcDbLine
 10
107.7093750000002
 20
18.51024999999998
 30
0.0
 11
107.7093750000003
 21
6.603999999999992
 31
0.0
  0
LINE
  5
1FE
330
1F7
100
AcDbEntity
  8
치수문자_일반주서
 62
     0
370
    -2
100
AcDbLine
 10
107.7093750000002
 20
21.81224999999998
 30
0.0
 11
107.7093750000002
 21
25.11424999999998
 31
0.0
  0
LINE
  5
1FF
330
1F7
100
AcDbEntity
  8
치수문자_일반주서
 62
     0
370
    -2
100
AcDbLine
 10
107.7093750000003
 20
3.301999999999992
 30
0.0
 11
107.7093750000003
 21
-0.0000000000000071
 31
0.0
  0
SOLID
  5
200
330
1F7
100
AcDbEntity
  8
치수문자_일반주서
 62
     0
100
AcDbTrace
 10
107.1590416666669
 20
21.81224999999998
 30
0.0
 11
108.2597083333335
 21
21.81224999999999
 31
0.0
 12
107.7093750000002
 22
18.51024999999998
 32
0.0
 13
107.7093750000002
 23
18.51024999999998
 33
0.0
  0
SOLID
  5
201
330
1F7
100
AcDbEntity
  8
치수문자_일반주서
 62
     0
100
AcDbTrace
 10
108.2597083333336
 20
3.301999999999994
 30
0.0
 11
107.1590416666669
 21
3.301999999999991
 31
0.0
 12
107.7093750000003
 22
6.603999999999992
 32
0.0
 13
107.7093750000003
 23
6.603999999999992
 33
0.0
  0
MTEXT
  5
202
330
1F7
100
AcDbEntity
  8
치수문자_일반주서
 62
     0
100
AcDbMText
 10
103.3343750000001
 20
55.08339836986402
 30
0.0
 40
3.5
 41
0.0
 71
     2
 72
     1
  1
\A1;%%c11.91 [15/32]
  7
SLDTEXTSTYLE0
 11
-3.580687802255624E-15
 21
1.0
 31
0.0
 73
     1
 44
1.0
  0
POINT
  5
203
330
1F7
100
AcDbEntity
  8
Defpoints
 62
     0
100
AcDbPoint
 10
93.07500000000005
 20
18.51024999999994
 30
0.0
  0
POINT
  5
204
330
1F7
100
AcDbEntity
  8
Defpoints
 62
     0
100
AcDbPoint
 10
93.07500000000006
 20
6.60399999999994
 30
0.0
  0
POINT
  5
205
330
1F7
100
AcDbEntity
  8
Defpoints
 62
     0
100
AcDbPoint
 10
107.7093750000003
 20
6.603999999999995
 30
0.0
  0
ENDBLK
  5
1F9
330
1F7
100
AcDbEntity
  8
0
100
AcDbBlockEnd
  0
BLOCK
  5
23B
330
23A
100
AcDbEntity
  8
0
100
AcDbBlockBegin
  2
*D11
 70
     1
 10
0.0
 20
0.0
 30
0.0
  3
*D11
  1
*D12
  0
LINE
  5
23D
330
23A
100
AcDbEntity
  8
치수문자_일반주서
 62
     0
370
    -2
100
AcDbLine
 10
151.9202194768293
 20
-17.48104753453526
 30
0.0
 11
151.9202194768293
 21
-5.959190400364452
 31
0.0
  0
LINE
  5
23E
330
23A
100
AcDbEntity
  8
치수문자_일반주서
 62
     0
370
    -2
100
AcDbLine
 10
126.5202194768293
 20
-17.52119351104893
 30
0.0
 11
126.5202194768293
 21
-5.959190400364452
 31
0.0
  0
LINE
  5
23F
330
23A
100
AcDbEntity
  8
치수문자_일반주서
 62
     0
370
    -2
100
AcDbLine
 10
126.5202194768293
 20
-5.959190400364452
 30
0.0
 11
100.2287194768293
 21
-5.959190400364452
 31
0.0
  0
LINE
  5
240
330
23A
100
AcDbEntity
  8
치수문자_일반주서
 62
     0
370
    -2
100
AcDbLine
 10
151.9202194768293
 20
-5.959190400364452
 30
0.0
 11
126.5202194768293
 21
-5.959190400364452
 31
0.0
  0
LINE
  5
241
330
23A
100
AcDbEntity
  8
치수문자_일반주서
 62
     0
370
    -2
100
AcDbLine
 10
155.2222194768293
 20
-5.959190400364452
 30
0.0
 11
158.5242194768293
 21
-5.959190400364452
 31
0.0
  0
LINE
  5
242
330
23A
100
AcDbEntity
  8
치수문자_일반주서
 62
     0
370
    -2
100
AcDbLine
 10
123.2182194768293
 20
-5.959190400364452
 30
0.0
 11
119.9162194768293
 21
-5.959190400364452
 31
0.0
  0
SOLID
  5
243
330
23A
100
AcDbEntity
  8
치수문자_일반주서
 62
     0
100
AcDbTrace
 10
155.2222194768293
 20
-5.408857067031119
 30
0.0
 11
155.2222194768293
 21
-6.509523733697786
 31
0.0
 12
151.9202194768293
 22
-5.959190400364452
 32
0.0
 13
151.9202194768293
 23
-5.959190400364452
 33
0.0
  0
SOLID
  5
244
330
23A
100
AcDbEntity
  8
치수문자_일반주서
 62
     0
100
AcDbTrace
 10
123.2182194768293
 20
-6.509523733697786
 30
0.0
 11
123.2182194768293
 21
-5.408857067031119
 31
0.0
 12
126.5202194768293
 22
-5.959190400364452
 32
0.0
 13
126.5202194768293
 23
-5.959190400364452
 33
0.0
  0
MTEXT
  5
245
330
23A
100
AcDbEntity
  8
치수문자_일반주서
 62
     0
100
AcDbMText
 10
110.0724694768293
 20
-1.584190400364452
 30
0.0
 40
3.5
 41
0.0
 71
     2
 72
     1
  1
\A1;25.40 [1]
  7
SLDTEXTSTYLE0
 73
     1
 44
1.0
  0
POINT
  5
246
330
23A
100
AcDbEntity
  8
Defpoints
 62
     0
100
AcDbPoint
 10
151.9202194768293
 20
-17.54354753453526
 30
0.0
  0
POINT
  5
247
330
23A
100
AcDbEntity
  8
Defpoints
 62
     0
100
AcDbPoint
 10
126.5202194768293
 20
-17.58369351104893
 30
0.0
  0
POINT
  5
248
330
23A
100
AcDbEntity
  8
Defpoints
 62
     0
100
AcDbPoint
 10
126.5202194768293
 20
-5.959190400364452
 30
0.0
  0
ENDBLK
  5
23C
330
23A
100
AcDbEntity
  8
0
100
AcDbBlockEnd
  0
BLOCK
  5
24A
330
249
100
AcDbEntity
  8
0
100
AcDbBlockBegin
  2
*D12
 70
     1
 10
0.0
 20
0.0
 30
0.0
  3
*D12
  1
*D13
  0
LINE
  5
24C
330
249
100
AcDbEntity
  8
치수문자_일반주서
 62
     0
370
    -2
100
AcDbLine
 10
-139.496178176196
 20
7.206249999999994
 30
0.0
 11
-139.496178176196
 21
38.76250000000005
 31
0.0
  0
LINE
  5
24D
330
249
100
AcDbEntity
  8
치수문자_일반주서
 62
     0
370
    -2
100
AcDbLine
 10
-218.871178176196
 20
5.412499999999983
 30
0.0
 11
-218.871178176196
 21
38.76250000000005
 31
0.0
  0
LINE
  5
24E
330
249
100
AcDbEntity
  8
치수문자_일반주서
 62
     0
370
    -2
100
AcDbLine
 10
-142.798178176196
 20
38.76250000000005
 30
0.0
 11
-215.569178176196
 21
38.76250000000005
 31
0.0
  0
SOLID
  5
24F
330
249
100
AcDbEntity
  8
치수문자_일반주서
 62
     0
100
AcDbTrace
 10
-142.798178176196
 20
38.21216666666672
 30
0.0
 11
-142.798178176196
 21
39.31283333333339
 31
0.0
 12
-139.496178176196
 22
38.76250000000005
 32
0.0
 13
-139.496178176196
 23
38.76250000000005
 33
0.0
  0
SOLID
  5
250
330
249
100
AcDbEntity
  8
치수문자_일반주서
 62
     0
100
AcDbTrace
 10
-215.569178176196
 20
39.31283333333339
 30
0.0
 11
-215.569178176196
 21
38.21216666666672
 31
0.0
 12
-218.871178176196
 22
38.76250000000005
 32
0.0
 13
-218.871178176196
 23
38.76250000000005
 33
0.0
  0
MTEXT
  5
251
330
249
100
AcDbEntity
  8
치수문자_일반주서
 62
     0
100
AcDbMText
 10
-180.771178176196
 20
43.13750000000005
 30
0.0
 40
3.5
 41
0.0
 71
     2
 72
     1
  1
\A1;79.38 [3 1/8]
  7
SLDTEXTSTYLE0
 73
     1
 44
1.0
  0
POINT
  5
252
330
249
100
AcDbEntity
  8
Defpoints
 62
     0
100
AcDbPoint
 10
-139.496178176196
 20
7.143749999999994
 30
0.0
  0
POINT
  5
253
330
249
100
AcDbEntity
  8
Defpoints
 62
     0
100
AcDbPoint
 10
-218.871178176196
 20
5.349999999999983
 30
0.0
  0
POINT
  5
254
330
249
100
AcDbEntity
  8
Defpoints
 62
     0
100
AcDbPoint
 10
-218.871178176196
 20
38.76250000000005
 30
0.0
  0
ENDBLK
  5
24B
330
249
100
AcDbEntity
  8
0
100
AcDbBlockEnd
  0
BLOCK
  5
256
330
255
100
AcDbEntity
  8
0
100
AcDbBlockBegin
  2
*D13
 70
     1
 10
0.0
 20
0.0
 30
0.0
  3
*D13
  1
*D14
  0
LINE
  5
258
330
255
100
AcDbEntity
  8
치수문자_일반주서
 62
     0
370
    -2
100
AcDbLine
 10
-217.933678176196
 20
6.349999999999986
 30
0.0
 11
-231.371178176196
 21
6.349999999999936
 31
0.0
  0
LINE
  5
259
330
255
100
AcDbEntity
  8
치수문자_일반주서
 62
     0
370
    -2
100
AcDbLine
 10
-217.933678176196
 20
-6.350000000000002
 30
0.0
 11
-231.371178176196
 21
-6.350000000000053
 31
0.0
  0
LINE
  5
25A
330
255
100
AcDbEntity
  8
치수문자_일반주서
 62
     0
370
    -2
100
AcDbLine
 10
-231.371178176196
 20
3.047999999999936
 30
0.0
 11
-231.371178176196
 21
-3.048000000000053
 31
0.0
  0
SOLID
  5
25B
330
255
100
AcDbEntity
  8
치수문자_일반주서
 62
     0
100
AcDbTrace
 10
-230.8208448428627
 20
3.047999999999938
 30
0.0
 11
-231.9215115095293
 21
3.047999999999933
 31
0.0
 12
-231.371178176196
 22
6.349999999999936
 32
0.0
 13
-231.371178176196
 23
6.349999999999936
 33
0.0
  0
SOLID
  5
25C
330
255
100
AcDbEntity
  8
치수문자_일반주서
 62
     0
100
AcDbTrace
 10
-231.9215115095293
 20
-3.048000000000056
 30
0.0
 11
-230.8208448428627
 21
-3.04800000000005
 31
0.0
 12
-231.371178176196
 22
-6.350000000000053
 32
0.0
 13
-231.371178176196
 23
-6.350000000000053
 33
0.0
  0
MTEXT
  5
25D
330
255
100
AcDbEntity
  8
치수문자_일반주서
 62
     0
100
AcDbMText
 10
-235.746178176196
 20
-0.0000000000000304
 30
0.0
 40
3.5
 41
0.0
 71
     2
 72
     1
  1
\A1;%%c12.70 [1/2]
  7
SLDTEXTSTYLE0
 11
-4.475859752819533E-15
 21
1.0
 31
0.0
 73
     1
 44
1.0
  0
POINT
  5
25E
330
255
100
AcDbEntity
  8
Defpoints
 62
     0
100
AcDbPoint
 10
-217.871178176196
 20
6.349999999999986
 30
0.0
  0
POINT
  5
25F
330
255
100
AcDbEntity
  8
Defpoints
 62
     0
100
AcDbPoint
 10
-217.871178176196
 20
-6.350000000000002
 30
0.0
  0
POINT
  5
260
330
255
100
AcDbEntity
  8
Defpoints
 62
     0
100
AcDbPoint
 10
-231.371178176196
 20
-6.350000000000053
 30
0.0
  0
ENDBLK
  5
257
330
255
100
AcDbEntity
  8
0
100
AcDbBlockEnd
  0
BLOCK
  5
262
330
261
100
AcDbEntity
  8
0
100
AcDbBlockBegin
  2
*D14
 70
     1
 10
0.0
 20
0.0
 30
0.0
  3
*D14
  1
*D15
  0
LINE
  5
264
330
261
100
AcDbEntity
  8
치수문자_일반주서
 62
     0
370
    -2
100
AcDbLine
 10
151.9827194768293
 20
-17.54354753453526
 30
0.0
 11
166.5545944768294
 21
-17.54354753453521
 31
0.0
  0
LINE
  5
265
330
261
100
AcDbEntity
  8
치수문자_일반주서
 62
     0
370
    -2
100
AcDbLine
 10
151.9827194768293
 20
-29.44979753453526
 30
0.0
 11
166.5545944768294
 21
-29.44979753453521
 31
0.0
  0
LINE
  5
266
330
261
100
AcDbEntity
  8
치수문자_일반주서
 62
     0
370
    -2
100
AcDbLine
 10
166.5545944768294
 20
-17.54354753453521
 30
0.0
 11
166.5545944768293
 21
34.34210083532884
 31
0.0
  0
LINE
  5
267
330
261
100
AcDbEntity
  8
치수문자_일반주서
 62
     0
370
    -2
100
AcDbLine
 10
166.5545944768294
 20
-17.54354753453521
 30
0.0
 11
166.5545944768294
 21
-29.44979753453521
 31
0.0
  0
LINE
  5
268
330
261
100
AcDbEntity
  8
치수문자_일반주서
 62
     0
370
    -2
100
AcDbLine
 10
166.5545944768294
 20
-14.24154753453521
 30
0.0
 11
166.5545944768294
 21
-10.93954753453522
 31
0.0
  0
LINE
  5
269
330
261
100
AcDbEntity
  8
치수문자_일반주서
 62
     0
370
    -2
100
AcDbLine
 10
166.5545944768294
 20
-32.75179753453521
 30
0.0
 11
166.5545944768294
 21
-36.05379753453521
 31
0.0
  0
SOLID
  5
26A
330
261
100
AcDbEntity
  8
치수문자_일반주서
 62
     0
100
AcDbTrace
 10
166.0042611434961
 20
-14.24154753453522
 30
0.0
 11
167.1049278101627
 21
-14.24154753453521
 31
0.0
 12
166.5545944768294
 22
-17.54354753453521
 32
0.0
 13
166.5545944768294
 23
-17.54354753453521
 33
0.0
  0
SOLID
  5
26B
330
261
100
AcDbEntity
  8
치수문자_일반주서
 62
     0
100
AcDbTrace
 10
167.1049278101628
 20
-32.75179753453521
 30
0.0
 11
166.0042611434961
 21
-32.75179753453521
 31
0.0
 12
166.5545944768294
 22
-29.44979753453521
 32
0.0
 13
166.5545944768294
 23
-29.44979753453521
 33
0.0
  0
MTEXT
  5
26C
330
261
100
AcDbEntity
  8
치수문자_일반주서
 62
     0
100
AcDbMText
 10
162.1795944768293
 20
19.02960083532883
 30
0.0
 40
3.5
 41
0.0
 71
     2
 72
     1
  1
\A1;%%c11.91 [15/32]
  7
SLDTEXTSTYLE0
 11
-2.387125201503749E-15
 21
1.0
 31
0.0
 73
     1
 44
1.0
  0
POINT
  5
26D
330
261
100
AcDbEntity
  8
Defpoints
 62
     0
100
AcDbPoint
 10
151.9202194768293
 20
-17.54354753453526
 30
0.0
  0
POINT
  5
26E
330
261
100
AcDbEntity
  8
Defpoints
 62
     0
100
AcDbPoint
 10
151.9202194768293
 20
-29.44979753453526
 30
0.0
  0
POINT
  5
26F
330
261
100
AcDbEntity
  8
Defpoints
 62
     0
100
AcDbPoint
 10
166.5545944768295
 20
-29.44979753453521
 30
0.0
  0
ENDBLK
  5
263
330
261
100
AcDbEntity
  8
0
100
AcDbBlockEnd
  0
BLOCK
  5
32F
330
32E
100
AcDbEntity
  8
0
100
AcDbBlockBegin
  2
*D15
 70
     1
 10
0.0
 20
0.0
 30
0.0
  3
*D15
  1
*D16
  0
LINE
  5
331
330
32E
100
AcDbEntity
  8
치수문자_일반주서
 62
     0
370
    -2
100
AcDbLine
 10
105.7750000000001
 20
21.12500000000003
 30
0.0
 11
105.7750000000001
 21
32.95059977941644
 31
0.0
  0
LINE
  5
332
330
32E
100
AcDbEntity
  8
치수문자_일반주서
 62
     0
370
    -2
100
AcDbLine
 10
70.85000000000005
 20
21.11890848240342
 30
0.0
 11
70.85000000000005
 21
32.95059977941644
 31
0.0
  0
LINE
  5
333
330
32E
100
AcDbEntity
  8
치수문자_일반주서
 62
     0
370
    -2
100
AcDbLine
 10
70.85000000000005
 20
32.95059977941644
 30
0.0
 11
33.62100000000005
 21
32.95059977941644
 31
0.0
  0
LINE
  5
334
330
32E
100
AcDbEntity
  8
치수문자_일반주서
 62
     0
370
    -2
100
AcDbLine
 10
105.7750000000001
 20
32.95059977941644
 30
0.0
 11
70.85000000000005
 21
32.95059977941644
 31
0.0
  0
LINE
  5
335
330
32E
100
AcDbEntity
  8
치수문자_일반주서
 62
     0
370
    -2
100
AcDbLine
 10
109.0770000000001
 20
32.95059977941644
 30
0.0
 11
112.3790000000001
 21
32.95059977941644
 31
0.0
  0
LINE
  5
336
330
32E
100
AcDbEntity
  8
치수문자_일반주서
 62
     0
370
    -2
100
AcDbLine
 10
67.54800000000004
 20
32.95059977941644
 30
0.0
 11
64.24600000000004
 21
32.95059977941644
 31
0.0
  0
SOLID
  5
337
330
32E
100
AcDbEntity
  8
치수문자_일반주서
 62
     0
100
AcDbTrace
 10
109.0770000000001
 20
33.50093311274977
 30
0.0
 11
109.0770000000001
 21
32.4002664460831
 31
0.0
 12
105.7750000000001
 22
32.95059977941644
 32
0.0
 13
105.7750000000001
 23
32.95059977941644
 33
0.0
  0
SOLID
  5
338
330
32E
100
AcDbEntity
  8
치수문자_일반주서
 62
     0
100
AcDbTrace
 10
67.54800000000004
 20
32.4002664460831
 30
0.0
 11
67.54800000000004
 21
33.50093311274977
 31
0.0
 12
70.85000000000005
 22
32.95059977941644
 32
0.0
 13
70.85000000000005
 23
32.95059977941644
 33
0.0
  0
MTEXT
  5
339
330
32E
100
AcDbEntity
  8
치수문자_일반주서
 62
     0
100
AcDbMText
 10
48.93350000000005
 20
37.32559977941644
 30
0.0
 40
3.5
 41
0.0
 71
     2
 72
     1
  1
\A1;34.93 [1 3/8]
  7
SLDTEXTSTYLE0
 73
     1
 44
1.0
  0
POINT
  5
33A
330
32E
100
AcDbEntity
  8
Defpoints
 62
     0
100
AcDbPoint
 10
105.7750000000001
 20
21.06250000000003
 30
0.0
  0
POINT
  5
33B
330
32E
100
AcDbEntity
  8
Defpoints
 62
     0
100
AcDbPoint
 10
70.85000000000005
 20
21.05640848240342
 30
0.0
  0
POINT
  5
33C
330
32E
100
AcDbEntity
  8
Defpoints
 62
     0
100
AcDbPoint
 10
70.85000000000005
 20
32.95059977941644
 30
0.0
  0
ENDBLK
  5
330
330
32E
100
AcDbEntity
  8
0
100
AcDbBlockEnd
  0
BLOCK
  5
33E
330
33D
100
AcDbEntity
  8
0
100
AcDbBlockBegin
  2
*D16
 70
     1
 10
0.0
 20
0.0
 30
0.0
  3
*D16
  1
*D17
  0
LINE
  5
340
330
33D
100
AcDbEntity
  8
치수문자_일반주서
 62
     0
370
    -2
100
AcDbLine
 10
105.7750000000001
 20
21.12500000000003
 30
0.0
 11
105.7750000000001
 21
51.88750000000009
 31
0.0
  0
LINE
  5
341
330
33D
100
AcDbEntity
  8
치수문자_일반주서
 62
     0
370
    -2
100
AcDbLine
 10
16.87500000000004
 20
20.12500000000001
 30
0.0
 11
16.87500000000004
 21
51.88750000000009
 31
0.0
  0
LINE
  5
342
330
33D
100
AcDbEntity
  8
치수문자_일반주서
 62
     0
370
    -2
100
AcDbLine
 10
102.4730000000001
 20
51.88750000000009
 30
0.0
 11
20.17700000000004
 21
51.88750000000009
 31
0.0
  0
SOLID
  5
343
330
33D
100
AcDbEntity
  8
치수문자_일반주서
 62
     0
100
AcDbTrace
 10
102.4730000000001
 20
51.33716666666675
 30
0.0
 11
102.4730000000001
 21
52.43783333333342
 31
0.0
 12
105.7750000000001
 22
51.88750000000009
 32
0.0
 13
105.7750000000001
 23
51.88750000000009
 33
0.0
  0
SOLID
  5
344
330
33D
100
AcDbEntity
  8
치수문자_일반주서
 62
     0
100
AcDbTrace
 10
20.17700000000004
 20
52.43783333333342
 30
0.0
 11
20.17700000000004
 21
51.33716666666675
 31
0.0
 12
16.87500000000004
 22
51.88750000000009
 32
0.0
 13
16.87500000000004
 23
51.88750000000009
 33
0.0
  0
MTEXT
  5
345
330
33D
100
AcDbEntity
  8
치수문자_일반주서
 62
     0
100
AcDbMText
 10
61.32500000000004
 20
56.26250000000009
 30
0.0
 40
3.5
 41
0.0
 71
     2
 72
     1
  1
\A1;88.90 [3 1/2]
  7
SLDTEXTSTYLE0
 73
     1
 44
1.0
  0
POINT
  5
346
330
33D
100
AcDbEntity
  8
Defpoints
 62
     0
100
AcDbPoint
 10
105.7750000000001
 20
21.06250000000003
 30
0.0
  0
POINT
  5
347
330
33D
100
AcDbEntity
  8
Defpoints
 62
     0
100
AcDbPoint
 10
16.87500000000004
 20
20.06250000000001
 30
0.0
  0
POINT
  5
348
330
33D
100
AcDbEntity
  8
Defpoints
 62
     0
100
AcDbPoint
 10
16.87500000000004
 20
51.88750000000009
 30
0.0
  0
ENDBLK
  5
33F
330
33D
100
AcDbEntity
  8
0
100
AcDbBlockEnd
  0
BLOCK
  5
34A
330
349
100
AcDbEntity
  8
0
100
AcDbBlockBegin
  2
*D17
 70
     1
 10
0.0
 20
0.0
 30
0.0
  3
*D17
  1
*D18
  0
LINE
  5
34C
330
349
100
AcDbEntity
  8
치수문자_일반주서
 62
     0
370
    -2
100
AcDbLine
 10
17.81250000000007
 20
21.06250000000001
 30
0.0
 11
4.375000000000022
 21
21.06249999999996
 31
0.0
  0
LINE
  5
34D
330
349
100
AcDbEntity
  8
치수문자_일반주서
 62
     0
370
    -2
100
AcDbLine
 10
17.81250000000007
 20
5.187500000000014
 30
0.0
 11
4.375000000000077
 21
5.187499999999964
 31
0.0
  0
LINE
  5
34E
330
349
100
AcDbEntity
  8
치수문자_일반주서
 62
     0
370
    -2
100
AcDbLine
 10
4.375000000000034
 20
17.76049999999996
 30
0.0
 11
4.375000000000066
 21
8.489499999999964
 31
0.0
  0
SOLID
  5
34F
330
349
100
AcDbEntity
  8
치수문자_일반주서
 62
     0
100
AcDbTrace
 10
4.925333333333367
 20
17.76049999999997
 30
0.0
 11
3.8246666666667
 21
17.76049999999996
 31
0.0
 12
4.375000000000022
 22
21.06249999999996
 32
0.0
 13
4.375000000000022
 23
21.06249999999996
 33
0.0
  0
SOLID
  5
350
330
349
100
AcDbEntity
  8
치수문자_일반주서
 62
     0
100
AcDbTrace
 10
3.824666666666732
 20
8.489499999999962
 30
0.0
 11
4.925333333333399
 21
8.489499999999966
 31
0.0
 12
4.375000000000077
 22
5.187499999999964
 32
0.0
 13
4.375000000000077
 23
5.187499999999964
 33
0.0
  0
MTEXT
  5
351
330
349
100
AcDbEntity
  8
치수문자_일반주서
 62
     0
100
AcDbMText
 10
0.0000000000000497
 20
13.125
 30
0.0
 40
3.5
 41
0.0
 71
     2
 72
     1
  1
\A1;%%c15.88 [5/8]
  7
SLDTEXTSTYLE0
 11
-3.468791308435135E-15
 21
1.0
 31
0.0
 73
     1
 44
1.0
  0
POINT
  5
352
330
349
100
AcDbEntity
  8
Defpoints
 62
     0
100
AcDbPoint
 10
17.87500000000007
 20
21.06250000000001
 30
0.0
  0
POINT
  5
353
330
349
100
AcDbEntity
  8
Defpoints
 62
     0
100
AcDbPoint
 10
17.87500000000007
 20
5.187500000000014
 30
0.0
  0
POINT
  5
354
330
349
100
AcDbEntity
  8
Defpoints
 62
     0
100
AcDbPoint
 10
4.375000000000078
 20
5.187499999999964
 30
0.0
  0
ENDBLK
  5
34B
330
349
100
AcDbEntity
  8
0
100
AcDbBlockEnd
  0
BLOCK
  5
356
330
355
100
AcDbEntity
  8
0
100
AcDbBlockBegin
  2
*D18
 70
     1
 10
0.0
 20
0.0
 30
0.0
  3
*D18
  1
*D19
  0
LINE
  5
358
330
355
100
AcDbEntity
  8
치수문자_일반주서
 62
     0
370
    -2
100
AcDbLine
 10
105.8375000000001
 20
21.06250000000003
 30
0.0
 11
118.4250000000001
 21
21.06250000000008
 31
0.0
  0
LINE
  5
359
330
355
100
AcDbEntity
  8
치수문자_일반주서
 62
     0
370
    -2
100
AcDbLine
 10
105.8375000000001
 20
5.187500000000033
 30
0.0
 11
118.4250000000002
 21
5.187500000000078
 31
0.0
  0
LINE
  5
35A
330
355
100
AcDbEntity
  8
치수문자_일반주서
 62
     0
370
    -2
100
AcDbLine
 10
118.4250000000001
 20
21.06250000000008
 30
0.0
 11
118.425
 21
55.66650000000008
 31
0.0
  0
LINE
  5
35B
330
355
100
AcDbEntity
  8
치수문자_일반주서
 62
     0
370
    -2
100
AcDbLine
 10
118.4250000000001
 20
21.06250000000008
 30
0.0
 11
118.4250000000002
 21
5.187500000000078
 31
0.0
  0
LINE
  5
35C
330
355
100
AcDbEntity
  8
치수문자_일반주서
 62
     0
370
    -2
100
AcDbLine
 10
118.4250000000001
 20
24.36450000000008
 30
0.0
 11
118.4250000000001
 21
27.66650000000008
 31
0.0
  0
LINE
  5
35D
330
355
100
AcDbEntity
  8
치수문자_일반주서
 62
     0
370
    -2
100
AcDbLine
 10
118.4250000000002
 20
1.885500000000078
 30
0.0
 11
118.4250000000002
 21
-1.416499999999922
 31
0.0
  0
SOLID
  5
35E
330
355
100
AcDbEntity
  8
치수문자_일반주서
 62
     0
100
AcDbTrace
 10
117.8746666666668
 20
24.36450000000007
 30
0.0
 11
118.9753333333334
 21
24.36450000000008
 31
0.0
 12
118.4250000000001
 22
21.06250000000008
 32
0.0
 13
118.4250000000001
 23
21.06250000000008
 33
0.0
  0
SOLID
  5
35F
330
355
100
AcDbEntity
  8
치수문자_일반주서
 62
     0
100
AcDbTrace
 10
118.9753333333335
 20
1.88550000000008
 30
0.0
 11
117.8746666666669
 21
1.885500000000076
 31
0.0
 12
118.4250000000002
 22
5.187500000000078
 32
0.0
 13
118.4250000000002
 23
5.187500000000078
 33
0.0
  0
MTEXT
  5
360
330
355
100
AcDbEntity
  8
치수문자_일반주서
 62
     0
100
AcDbMText
 10
114.0500000000001
 20
41.66650000000006
 30
0.0
 40
3.5
 41
0.0
 71
     2
 72
     1
  1
\A1;%%c15.88 [5/8]
  7
SLDTEXTSTYLE0
 11
-3.580687802255624E-15
 21
1.0
 31
0.0
 73
     1
 44
1.0
  0
POINT
  5
361
330
355
100
AcDbEntity
  8
Defpoints
 62
     0
100
AcDbPoint
 10
105.7750000000001
 20
21.06250000000003
 30
0.0
  0
POINT
  5
362
330
355
100
AcDbEntity
  8
Defpoints
 62
     0
100
AcDbPoint
 10
105.7750000000001
 20
5.187500000000033
 30
0.0
  0
POINT
  5
363
330
355
100
AcDbEntity
  8
Defpoints
 62
     0
100
AcDbPoint
 10
118.4250000000002
 20
5.18750000000008
 30
0.0
  0
ENDBLK
  5
357
330
355
100
AcDbEntity
  8
0
100
AcDbBlockEnd
  0
BLOCK
  5
392
330
391
100
AcDbEntity
  8
0
100
AcDbBlockBegin
  2
*D19
 70
     1
 10
0.0
 20
0.0
 30
0.0
  3
*D19
  1
*D20
  0
LINE
  5
394
330
391
100
AcDbEntity
  8
치수문자_일반주서
 62
     0
370
    -2
100
AcDbLine
 10
31.36875
 20
8.000000000000004
 30
0.0
 11
31.36875
 21
19.82559977941641
 31
0.0
  0
LINE
  5
395
330
391
100
AcDbEntity
  8
치수문자_일반주서
 62
     0
370
    -2
100
AcDbLine
 10
2.793750000000001
 20
7.206250000000001
 30
0.0
 11
2.793750000000001
 21
19.82559977941641
 31
0.0
  0
LINE
  5
396
330
391
100
AcDbEntity
  8
치수문자_일반주서
 62
     0
370
    -2
100
AcDbLine
 10
28.06675
 20
19.82559977941641
 30
0.0
 11
6.095750000000001
 21
19.82559977941641
 31
0.0
  0
SOLID
  5
397
330
391
100
AcDbEntity
  8
치수문자_일반주서
 62
     0
100
AcDbTrace
 10
28.06675
 20
19.27526644608307
 30
0.0
 11
28.06675
 21
20.37593311274974
 31
0.0
 12
31.36875
 22
19.82559977941641
 32
0.0
 13
31.36875
 23
19.82559977941641
 33
0.0
  0
SOLID
  5
398
330
391
100
AcDbEntity
  8
치수문자_일반주서
 62
     0
100
AcDbTrace
 10
6.095750000000001
 20
20.37593311274974
 30
0.0
 11
6.095750000000001
 21
19.27526644608307
 31
0.0
 12
2.793750000000001
 22
19.82559977941641
 32
0.0
 13
2.793750000000001
 23
19.82559977941641
 33
0.0
  0
MTEXT
  5
399
330
391
100
AcDbEntity
  8
치수문자_일반주서
 62
     0
100
AcDbMText
 10
17.08125
 20
24.20059977941641
 30
0.0
 40
3.5
 41
0.0
 71
     2
 72
     1
  1
\A1;28.58 [1 1/8]
  7
SLDTEXTSTYLE0
 73
     1
 44
1.0
  0
POINT
  5
39A
330
391
100
AcDbEntity
  8
Defpoints
 62
     0
100
AcDbPoint
 10
31.36875
 20
7.937500000000004
 30
0.0
  0
POINT
  5
39B
330
391
100
AcDbEntity
  8
Defpoints
 62
     0
100
AcDbPoint
 10
2.793750000000001
 20
7.143750000000001
 30
0.0
  0
POINT
  5
39C
330
391
100
AcDbEntity
  8
Defpoints
 62
     0
100
AcDbPoint
 10
2.793750000000001
 20
19.82559977941641
 30
0.0
  0
ENDBLK
  5
393
330
391
100
AcDbEntity
  8
0
100
AcDbBlockEnd
  0
BLOCK
  5
3A1
330
3A0
100
AcDbEntity
  8
0
100
AcDbBlockBegin
  2
*D20
 70
     1
 10
0.0
 20
0.0
 30
0.0
  3
*D20
  1
*D21
  0
LINE
  5
3A3
330
3A0
100
AcDbEntity
  8
치수문자_일반주서
 62
     0
370
    -2
100
AcDbLine
 10
31.36875
 20
8.000000000000004
 30
0.0
 11
31.36875
 21
38.76250000000006
 31
0.0
  0
LINE
  5
3A4
330
3A0
100
AcDbEntity
  8
치수문자_일반주서
 62
     0
370
    -2
100
AcDbLine
 10
-48.00624999999999
 20
5.412500000000003
 30
0.0
 11
-48.00624999999999
 21
38.76250000000006
 31
0.0
  0
LINE
  5
3A5
330
3A0
100
AcDbEntity
  8
치수문자_일반주서
 62
     0
370
    -2
100
AcDbLine
 10
28.06675
 20
38.76250000000006
 30
0.0
 11
-44.70424999999999
 21
38.76250000000006
 31
0.0
  0
SOLID
  5
3A6
330
3A0
100
AcDbEntity
  8
치수문자_일반주서
 62
     0
100
AcDbTrace
 10
28.06675
 20
38.21216666666673
 30
0.0
 11
28.06675
 21
39.31283333333339
 31
0.0
 12
31.36875
 22
38.76250000000006
 32
0.0
 13
31.36875
 23
38.76250000000006
 33
0.0
  0
SOLID
  5
3A7
330
3A0
100
AcDbEntity
  8
치수문자_일반주서
 62
     0
100
AcDbTrace
 10
-44.70424999999999
 20
39.31283333333339
 30
0.0
 11
-44.70424999999999
 21
38.21216666666673
 31
0.0
 12
-48.00624999999999
 22
38.76250000000006
 32
0.0
 13
-48.00624999999999
 23
38.76250000000006
 33
0.0
  0
MTEXT
  5
3A8
330
3A0
100
AcDbEntity
  8
치수문자_일반주서
 62
     0
100
AcDbMText
 10
-13.08125000000002
 20
43.13750000000006
 30
0.0
 40
3.5
 41
0.0
 71
     2
 72
     1
  1
\A1;79.38 [3 1/8]
  7
SLDTEXTSTYLE0
 73
     1
 44
1.0
  0
POINT
  5
3A9
330
3A0
100
AcDbEntity
  8
Defpoints
 62
     0
100
AcDbPoint
 10
31.36875
 20
7.937500000000004
 30
0.0
  0
POINT
  5
3AA
330
3A0
100
AcDbEntity
  8
Defpoints
 62
     0
100
AcDbPoint
 10
-48.00624999999999
 20
5.350000000000003
 30
0.0
  0
POINT
  5
3AB
330
3A0
100
AcDbEntity
  8
Defpoints
 62
     0
100
AcDbPoint
 10
-48.00624999999999
 20
38.76250000000006
 30
0.0
  0
ENDBLK
  5
3A2
330
3A0
100
AcDbEntity
  8
0
100
AcDbBlockEnd
  0
BLOCK
  5
3AD
330
3AC
100
AcDbEntity
  8
0
100
AcDbBlockBegin
  2
*D21
 70
     1
 10
0.0
 20
0.0
 30
0.0
  3
*D21
  1
*D22
  0
LINE
  5
3AF
330
3AC
100
AcDbEntity
  8
치수문자_일반주서
 62
     0
370
    -2
100
AcDbLine
 10
-47.06874999999999
 20
6.350000000000003
 30
0.0
 11
-58.02290222025897
 21
6.349999999999962
 31
0.0
  0
LINE
  5
3B0
330
3AC
100
AcDbEntity
  8
치수문자_일반주서
 62
     0
370
    -2
100
AcDbLine
 10
-47.06874999999999
 20
-6.349999999999996
 30
0.0
 11
-58.02290222025893
 21
-6.350000000000037
 31
0.0
  0
LINE
  5
3B1
330
3AC
100
AcDbEntity
  8
치수문자_일반주서
 62
     0
370
    -2
100
AcDbLine
 10
-58.02290222025896
 20
3.047999999999962
 30
0.0
 11
-58.02290222025894
 21
-3.048000000000037
 31
0.0
  0
SOLID
  5
3B2
330
3AC
100
AcDbEntity
  8
치수문자_일반주서
 62
     0
100
AcDbTrace
 10
-57.47256888692562
 20
3.047999999999964
 30
0.0
 11
-58.57323555359229
 21
3.047999999999961
 31
0.0
 12
-58.02290222025897
 22
6.349999999999962
 32
0.0
 13
-58.02290222025897
 23
6.349999999999962
 33
0.0
  0
SOLID
  5
3B3
330
3AC
100
AcDbEntity
  8
치수문자_일반주서
 62
     0
100
AcDbTrace
 10
-58.57323555359228
 20
-3.048000000000039
 30
0.0
 11
-57.47256888692561
 21
-3.048000000000035
 31
0.0
 12
-58.02290222025893
 22
-6.350000000000037
 32
0.0
 13
-58.02290222025893
 23
-6.350000000000037
 33
0.0
  0
MTEXT
  5
3B4
330
3AC
100
AcDbEntity
  8
치수문자_일반주서
 62
     0
100
AcDbMText
 10
-62.39790222025895
 20
-0.0000000000000287
 30
0.0
 40
3.5
 41
0.0
 71
     2
 72
     1
  1
\A1;%%c12.70 [1/2]
  7
SLDTEXTSTYLE0
 11
-3.356894814614647E-15
 21
1.0
 31
0.0
 73
     1
 44
1.0
  0
POINT
  5
3B5
330
3AC
100
AcDbEntity
  8
Defpoints
 62
     0
100
AcDbPoint
 10
-47.00624999999999
 20
6.350000000000003
 30
0.0
  0
POINT
  5
3B6
330
3AC
100
AcDbEntity
  8
Defpoints
 62
     0
100
AcDbPoint
 10
-47.00624999999999
 20
-6.349999999999996
 30
0.0
  0
POINT
  5
3B7
330
3AC
100
AcDbEntity
  8
Defpoints
 62
     0
100
AcDbPoint
 10
-58.02290222025893
 20
-6.350000000000037
 30
0.0
  0
ENDBLK
  5
3AE
330
3AC
100
AcDbEntity
  8
0
100
AcDbBlockEnd
  0
BLOCK
  5
3B9
330
3B8
100
AcDbEntity
  8
0
100
AcDbBlockBegin
  2
*D22
 70
     1
 10
0.0
 20
0.0
 30
0.0
  3
*D22
  1
*D23
  0
LINE
  5
3BB
330
3B8
100
AcDbEntity
  8
치수문자_일반주서
 62
     0
370
    -2
100
AcDbLine
 10
31.43125
 20
7.14375
 30
0.0
 11
44.01875000000006
 21
7.143750000000047
 31
0.0
  0
LINE
  5
3BC
330
3B8
100
AcDbEntity
  8
치수문자_일반주서
 62
     0
370
    -2
100
AcDbLine
 10
31.43125
 20
-7.143750000000001
 30
0.0
 11
44.01875000000011
 21
-7.143749999999955
 31
0.0
  0
LINE
  5
3BD
330
3B8
100
AcDbEntity
  8
치수문자_일반주서
 62
     0
370
    -2
100
AcDbLine
 10
44.01875000000006
 20
7.143750000000047
 30
0.0
 11
44.01874999999993
 21
44.59150000000005
 31
0.0
  0
LINE
  5
3BE
330
3B8
100
AcDbEntity
  8
치수문자_일반주서
 62
     0
370
    -2
100
AcDbLine
 10
44.01875000000006
 20
7.143750000000047
 30
0.0
 11
44.01875000000011
 21
-7.143749999999955
 31
0.0
  0
LINE
  5
3BF
330
3B8
100
AcDbEntity
  8
치수문자_일반주서
 62
     0
370
    -2
100
AcDbLine
 10
44.01875000000005
 20
10.44575000000005
 30
0.0
 11
44.01875000000003
 21
13.74775000000005
 31
0.0
  0
LINE
  5
3C0
330
3B8
100
AcDbEntity
  8
치수문자_일반주서
 62
     0
370
    -2
100
AcDbLine
 10
44.01875000000013
 20
-10.44574999999995
 30
0.0
 11
44.01875000000014
 21
-13.74774999999995
 31
0.0
  0
SOLID
  5
3C1
330
3B8
100
AcDbEntity
  8
치수문자_일반주서
 62
     0
100
AcDbTrace
 10
43.46841666666671
 20
10.44575000000004
 30
0.0
 11
44.56908333333338
 21
10.44575000000005
 31
0.0
 12
44.01875000000006
 22
7.143750000000047
 32
0.0
 13
44.01875000000006
 23
7.143750000000047
 33
0.0
  0
SOLID
  5
3C2
330
3B8
100
AcDbEntity
  8
치수문자_일반주서
 62
     0
100
AcDbTrace
 10
44.56908333333346
 20
-10.44574999999995
 30
0.0
 11
43.46841666666679
 21
-10.44574999999996
 31
0.0
 12
44.01875000000011
 22
-7.143749999999955
 32
0.0
 13
44.01875000000011
 23
-7.143749999999955
 33
0.0
  0
MTEXT
  5
3C3
330
3B8
100
AcDbEntity
  8
치수문자_일반주서
 62
     0
100
AcDbMText
 10
39.64374999999998
 20
29.71650000000003
 30
0.0
 40
3.5
 41
0.0
 71
     2
 72
     1
  1
\A1;%%c14.29 [9/16]
  7
SLDTEXTSTYLE0
 11
-3.481224252192966E-15
 21
1.0
 31
0.0
 73
     1
 44
1.0
  0
POINT
  5
3C4
330
3B8
100
AcDbEntity
  8
Defpoints
 62
     0
100
AcDbPoint
 10
31.36875
 20
7.14375
 30
0.0
  0
POINT
  5
3C5
330
3B8
100
AcDbEntity
  8
Defpoints
 62
     0
100
AcDbPoint
 10
31.36875
 20
-7.143750000000001
 30
0.0
  0
POINT
  5
3C6
330
3B8
100
AcDbEntity
  8
Defpoints
 62
     0
100
AcDbPoint
 10
44.01875000000011
 20
-7.143749999999954
 30
0.0
  0
ENDBLK
  5
3BA
330
3B8
100
AcDbEntity
  8
0
100
AcDbBlockEnd
  0
ENDSEC
  0
SECTION
  2
ENTITIES
  0
LINE
  5
A6
330
1F
100
AcDbEntity
  8
참조1
100
AcDbLine
 10
-11.81948868596884
 20
0.0010749287238874
 30
0.0
 11
-11.81948868596883
 21
-39.99892507127611
 31
0.0
  0
LINE
  5
A7
330
1F
100
AcDbEntity
  8
참조1
100
AcDbLine
 10
27.86801131403116
 20
0.0010749287238874
 30
0.0
 11
27.86801131403116
 21
4.274726723198786
 31
0.0
  0
LINE
  5
A8
330
1F
100
AcDbEntity
  8
참조1
100
AcDbLine
 10
-11.81948868596883
 20
-39.99892507127611
 30
0.0
 11
-35.7095955002775
 21
-39.9989250712761
 31
0.0
  0
INSERT
  5
AA
330
1F
100
AcDbEntity
  8
0
  6
Continuous
 62
     7
100
AcDbBlockReference
 66
     1
  2
블럭10
 10
-38.60902293212521
 20
-52.04717430164394
 30
0.0
  0
ATTRIB
  5
AB
330
AA
100
AcDbEntity
  8
FORMAT
 62
     2
100
AcDbText
 10
-47.7903182208665
 20
-49.97180738881175
 30
0.0
 40
4.233333333333333
  1
E2110036 [ 2 FLUTE ]
 41
0.75
  7
SLDTEXTSTYLE0
 11
-47.7903182208665
 21
-52.08847405547842
 31
0.0
100
AcDbAttribute
  2
AUTOATTR0
 70
     0
 74
     1
  0
SEQEND
  5
AC
330
AA
100
AcDbEntity
  8
0
  6
Continuous
 62
     7
  0
HATCH
  5
AD
330
1F
100
AcDbEntity
  8
중심선
100
AcDbHatch
 10
0.0
 20
0.0
 30
0.0
210
0.0
220
0.0
230
1.0
  2
SOLID
 70
     1
 71
     0
 91
        1
 92
        0
 93
        4
 72
     1
 10
-32.89411362774437
 20
-35.8
 11
-36.34038887158165
 21
-35.8
 72
     1
 10
-36.34038887158165
 20
-35.8
 11
-38.46861873078568
 21
-38.33632558057261
 72
     1
 10
-38.46861873078567
 20
-38.33632558057261
 11
-35.02231040183524
 21
-38.33628615127012
 72
     1
 10
-35.02231040183524
 20
-38.33628615127012
 11
-32.89411362774437
 21
-35.8
 97
        0
 75
     0
 76
     1
 98
        1
 10
-28.40551131403117
 20
-0.0010749287239055
  0
HATCH
  5
AE
330
1F
100
AcDbEntity
  8
중심선
100
AcDbHatch
 10
0.0
 20
0.0
 30
0.0
210
0.0
220
0.0
230
1.0
  2
SOLID
 70
     1
 71
     0
 91
        1
 92
        0
 93
        4
 72
     1
 10
-27.88134963670836
 20
-35.79999999999998
 11
-31.32762488054571
 21
-35.80000000000003
 72
     1
 10
-31.32762488054571
 20
-35.80000000000003
 11
-35.8587628889031
 21
-41.20000000000002
 72
     1
 10
-35.85876288890309
 20
-41.20000000000002
 11
-32.4124876450658
 21
-41.20000000000002
 72
     1
 10
-32.41248764506582
 20
-41.20000000000002
 11
-27.88134963670836
 21
-35.79999999999998
 97
        0
 75
     0
 76
     1
 98
        1
 10
-28.40551131403117
 20
-0.0010749287239055
  0
HATCH
  5
AF
330
1F
100
AcDbEntity
  8
중심선
100
AcDbHatch
 10
0.0
 20
0.0
 30
0.0
210
0.0
220
0.0
230
1.0
  2
SOLID
 70
     1
 71
     0
 91
        1
 92
        0
 93
        4
 72
     1
 10
-22.86858564567252
 20
-35.8
 11
-26.31486088950958
 21
-35.8
 72
     1
 10
-26.31486088950958
 20
-35.8
 11
-33.36329779139889
 21
-44.20000000000002
 72
     1
 10
-33.36329779139889
 20
-44.20000000000002
 11
-29.9170225475616
 21
-44.20000000000002
 72
     1
 10
-29.91702254756161
 20
-44.20000000000002
 11
-22.86858564567253
 21
-35.8
 97
        0
 75
     0
 76
     1
 98
        1
 10
-28.40551131403117
 20
-0.0010749287239055
  0
HATCH
  5
B0
330
1F
100
AcDbEntity
  8
중심선
100
AcDbHatch
 10
0.0
 20
0.0
 30
0.0
210
0.0
220
0.0
230
1.0
  2
SOLID
 70
     1
 71
     0
 91
        1
 92
        0
 93
        6
 72
     3
 10
-18.06869521466033
 20
-40.00000000005128
 11
3.960054785062285
 21
1.540882976769353E-10
 40
0.3939339440162626
 50
17.09539180608438
 51
320.0019657685082
 73
     0
 72
     1
 10
-16.38569555895973
 20
-38.58789400463831
 11
-14.08039368525867
 21
-36.65356729459039
 72
     3
 10
-18.06869521471317
 20
-40.00000000000016
 11
6.600054785286828
 21
-1.278976924368180E-13
 40
0.6363583540795982
 50
39.99873849337382
 51
368.4976242363724
 73
     1
 72
     1
 10
-11.64336272281257
 20
-39.03999999993003
 11
-19.38862790787722
 21
-39.03999999993003
 72
     1
 10
-19.38862790787723
 20
-39.03999999993003
 11
-19.38865295232319
 21
-40.95999999992992
 72
     1
 10
-19.38865295232318
 20
-40.95999999992992
 11
-14.94727318285115
 21
-40.95999999992989
 97
        0
 75
     0
 76
     1
 98
        1
 10
-28.40551131403117
 20
-0.0010749287239055
  0
LINE
  5
101
330
1F
100
AcDbEntity
  8
참조1
100
AcDbLine
 10
62.26274512937675
 20
7.441074928723895
 30
0.0
 11
62.26274512937675
 21
-7.438925071276111
 31
0.0
  0
LINE
  5
102
330
1F
100
AcDbEntity
  8
참조1
100
AcDbLine
 10
74.96274512937676
 20
5.441074928723895
 30
0.0
 11
62.26274512937675
 21
5.441074928723895
 31
0.0
  0
SOLID
  5
103
330
1F
100
AcDbEntity
  8
참조1
100
AcDbTrace
 10
62.26274512937675
 20
5.441074928723895
 30
0.0
 11
68.61274512937675
 21
4.425074928723895
 31
0.0
 12
68.61274512937675
 22
6.457074928723895
 32
0.0
 13
68.61274512937675
 23
6.457074928723895
 33
0.0
  0
LINE
  5
104
330
1F
100
AcDbEntity
  8
참조1
100
AcDbLine
 10
74.96274512937676
 20
-5.438925071276111
 30
0.0
 11
62.26274512937675
 21
-5.438925071276111
 31
0.0
  0
SOLID
  5
105
330
1F
100
AcDbEntity
  8
참조1
100
AcDbTrace
 10
62.26274512937675
 20
-5.438925071276111
 30
0.0
 11
68.61274512937675
 21
-6.454925071276111
 31
0.0
 12
68.61274512937675
 22
-4.422925071276111
 32
0.0
 13
68.61274512937675
 23
-4.422925071276111
 33
0.0
  0
MTEXT
  5
106
330
1F
100
AcDbEntity
  8
참조1
100
AcDbMText
 10
71.64709526200275
 20
11.01136670591222
 30
0.0
 40
3.5
 41
0.0
 71
     1
 72
     1
  1
A
  7
SLDTEXTSTYLE0
 73
     1
 44
1.0
  0
MTEXT
  5
107
330
1F
100
AcDbEntity
  8
참조1
100
AcDbMText
 10
71.64709526200275
 20
0.1313667059122174
 30
0.0
 40
3.5
 41
0.0
 71
     1
 72
     1
  1
A
  7
SLDTEXTSTYLE0
 73
     1
 44
1.0
  0
LINE
  5
366
330
1F
100
AcDbEntity
  8
외형선
  6
Continuous
370
    15
100
AcDbLine
 10
-47.00624999999999
 20
-6.349999999999996
 30
0.0
 11
1.99999999999998
 21
-6.349999999999989
 31
0.0
  0
LINE
  5
367
330
1F
100
AcDbEntity
  8
외형선
  6
Continuous
370
    15
100
AcDbLine
 10
-47.00624999999999
 20
6.350000000000003
 30
0.0
 11
-48.00624999999999
 21
5.350000000000003
 31
0.0
  0
LINE
  5
368
330
1F
100
AcDbEntity
  8
외형선
  6
Continuous
370
    15
100
AcDbLine
 10
-48.00624999999999
 20
-5.349999999999991
 30
0.0
 11
-47.00624999999999
 21
-6.349999999999992
 31
0.0
  0
LINE
  5
369
330
1F
100
AcDbEntity
  8
0
  6
Continuous
 62
     1
370
    15
100
AcDbLine
 10
22.79517671943997
 20
-7.143749999999999
 30
0.0
 11
24.22499999999999
 21
-7.143749999999999
 31
0.0
  0
ARC
  5
36A
330
1F
100
AcDbEntity
  8
0
  6
Continuous
 62
     1
370
    15
100
AcDbCircle
 10
24.22499999999999
 20
0.0
 30
0.0
 40
7.143749999999999
100
AcDbArc
 50
270.0000000000007
 51
0.0
  0
ARC
  5
36B
330
1F
100
AcDbEntity
  8
0
  6
Continuous
 62
     1
370
    15
100
AcDbCircle
 10
24.22499999999999
 20
0.0
 30
0.0
 40
7.143749999999999
100
AcDbArc
 50
0.0
 51
90.0
  0
LINE
  5
36C
330
1F
100
AcDbEntity
  8
0
  6
Continuous
 62
     1
370
    15
100
AcDbLine
 10
24.22499999999999
 20
7.143749999999999
 30
0.0
 11
22.79517671943997
 21
7.143749999999999
 31
0.0
  0
LINE
  5
373
330
1F
100
AcDbEntity
  8
외형선
  6
Continuous
370
    15
100
AcDbLine
 10
-48.00624999999999
 20
5.350000000000003
 30
0.0
 11
-48.00624999999999
 21
-5.349999999999996
 31
0.0
  0
SPLINE
  5
377
330
1F
100
AcDbEntity
  8
0
  6
Continuous
 62
     1
370
    15
100
AcDbSpline
210
0.0
220
0.0
230
1.0
 70
     8
 71
     3
 72
    13
 73
     9
 74
     0
 42
0.000000001
 43
0.00000001
 40
0.0
 40
0.0
 40
0.0
 40
0.0
 40
0.0374546638612566
 40
0.2059202688998291
 40
0.3743428001020688
 40
0.5427399995523413
 40
0.6950729628011175
 40
0.7746829665868862
 40
0.7746829665868862
 40
0.7746829665868862
 40
0.7746829665868862
 10
12.61790057679361
 20
-4.844876272311287
 30
0.0
 10
12.45956166928583
 20
-4.852153268537604
 30
0.0
 10
11.5890374928552
 20
-4.892161130449207
 30
0.0
 10
10.00657671482221
 20
-4.822429861197346
 30
0.0
 10
7.870631130180699
 20
-4.629974729106442
 30
0.0
 10
5.80285982827967
 20
-4.299038523374083
 30
0.0
 10
4.110694638243482
 20
-3.933348053939386
 30
0.0
 10
3.130269761035793
 20
-3.686719739423078
 30
0.0
 10
2.793750000000012
 20
-3.597759593597631
 30
0.0
  0
SPLINE
  5
379
330
1F
100
AcDbEntity
  8
0
  6
Continuous
 62
     1
370
    15
100
AcDbSpline
210
0.0
220
0.0
230
1.0
 70
     8
 71
     3
 72
    18
 73
    14
 74
     0
 42
0.000000001
 43
0.00000001
 40
0.1249956322922038
 40
0.1249956322922038
 40
0.1249956322922038
 40
0.1249956322922038
 40
0.1700639780002661
 40
0.2550304403948847
 40
0.3400047756536058
 40
0.4250281383540698
 40
0.5100921539489782
 40
0.5950916780991121
 40
0.6885705816857155
 40
0.7820464592145504
 40
0.8755282432497623
 40
0.9690248507451661
 40
1.0
 40
1.0
 40
1.0
 40
1.0
 10
2.79375000000004
 20
0.3279726596258018
 30
0.0
 10
3.137142818291816
 20
0.1298167061629961
 30
0.0
 10
4.127889643876243
 20
-0.4437793445192951
 30
0.0
 10
5.765977062612366
 20
-1.385864962775203
 30
0.0
 10
7.708497398976123
 20
-2.469782171420777
 30
0.0
 10
9.651998755548798
 20
-3.492678322295708
 30
0.0
 10
11.59605791315952
 20
-4.42922159559808
 30
0.0
 10
13.60395063692541
 20
-5.285168915041566
 30
0.0
 10
15.67617760350708
 20
-6.022448309979903
 30
0.0
 10
17.8129356209479
 20
-6.607500701356607
 30
0.0
 10
19.94988733313556
 20
-6.981060866405214
 30
0.0
 10
21.61063024790923
 20
-7.152931882324665
 30
0.0
 10
22.55913790272815
 20
-7.126687069192908
 30
0.0
 10
22.79517671943997
 20
-7.12015597310215
 30
0.0
  0
SPLINE
  5
37A
330
1F
100
AcDbEntity
  8
0
  6
Continuous
 62
     1
370
    15
100
AcDbSpline
210
0.0
220
0.0
230
1.0
 70
     8
 71
     3
 72
    26
 73
    22
 74
     0
 42
0.000000001
 43
0.00000001
 40
0.0
 40
0.0
 40
0.0
 40
0.0
 40
0.0625
 40
0.0625
 40
0.1250000000000001
 40
0.1250000000000001
 40
0.1875000000000001
 40
0.1875000000000001
 40
0.2500000000000001
 40
0.2500000000000001
 40
0.3125000000000001
 40
0.3125000000000001
 40
0.3750000000000002
 40
0.3750000000000002
 40
0.4375000000000002
 40
0.4375000000000002
 40
0.5000000000000002
 40
0.5000000000000002
 40
0.5625000000000002
 40
0.5625000000000002
 40
0.5938374033123675
 40
0.5938374033123675
 40
0.5938374033123675
 40
0.5938374033123675
 10
24.22499999999999
 20
-2.986936389132404
 30
0.0
 10
23.72060108683233
 20
-2.72183388594169
 30
0.0
 10
23.21433345905506
 20
-2.448914213367603
 30
0.0
 10
22.1999847568104
 20
-1.891812027077593
 30
0.0
 10
21.69643168232002
 20
-1.608479515422679
 30
0.0
 10
20.68478042542357
 20
-1.034337923850867
 30
0.0
 10
20.17611334024716
 20
-0.7434060178959723
 30
0.0
 10
19.16454551551413
 20
-0.1603687513104125
 30
0.0
 10
18.66092905734996
 20
0.1318667376006683
 30
0.0
 10
17.64656354928107
 20
0.7155823755711722
 30
0.0
 10
17.14042282418288
 20
1.006170700418227
 30
0.0
 10
16.13150840849966
 20
1.580223632558541
 30
0.0
 10
15.62306626822143
 20
1.86475354408696
 30
0.0
 10
14.60964465353166
 20
2.422380444532085
 30
0.0
 10
14.10692806094372
 20
2.695091351115448
 30
0.0
 10
13.09347044101838
 20
3.227079449152961
 30
0.0
 10
12.58504040181277
 20
3.485904275144896
 30
0.0
 10
11.57620949599374
 20
3.983469056435847
 30
0.0
 10
11.06997797495024
 20
4.223185215864192
 30
0.0
 10
10.30850352948034
 20
4.566491049594102
 30
0.0
 10
10.05511243000449
 20
4.678194677386605
 30
0.0
 10
9.801890589811608
 20
4.786857184414263
 30
0.0
  0
SPLINE
  5
37B
330
1F
100
AcDbEntity
  8
0
  6
Continuous
 62
     1
370
    15
100
AcDbSpline
210
0.0
220
0.0
230
1.0
 70
     8
 71
     3
 72
    17
 73
    13
 74
     0
 42
0.000000001
 43
0.00000001
 40
0.0
 40
0.0
 40
0.0
 40
0.0
 40
0.1123451670106045
 40
0.2246799623876728
 40
0.3370091198085732
 40
0.4455231437154002
 40
0.5540470414018998
 40
0.6625922751499469
 40
0.771170248907744
 40
0.8797678759464467
 40
0.98833012068752
 40
0.9999999999999999
 40
0.9999999999999999
 40
0.9999999999999999
 40
0.9999999999999999
 10
29.45631865891711
 20
0.748627541827968
 30
0.0
 10
28.7193472531869
 20
1.032631891112001
 30
0.0
 10
27.24547247845254
 20
1.600614370581267
 30
0.0
 10
25.03476440326973
 20
2.395268815779796
 30
0.0
 10
22.84917559741292
 20
3.107198191299493
 30
0.0
 10
20.68866398568213
 20
3.715206084055934
 30
0.0
 10
18.5529343197213
 20
4.206131685068329
 30
0.0
 10
16.41675082922468
 20
4.570973916944183
 30
0.0
 10
14.28001317774036
 20
4.803785348798721
 30
0.0
 10
12.14310187403325
 20
4.879295689891725
 30
0.0
 10
10.64199330253573
 20
4.868340249767787
 30
0.0
 10
9.853299391503247
 20
4.79184423710867
 30
0.0
 10
9.776747780786158
 20
4.784419439096948
 30
0.0
  0
SPLINE
  5
37C
330
1F
100
AcDbEntity
  8
0
  6
Continuous
 62
     1
370
    15
100
AcDbSpline
210
0.0
220
0.0
230
1.0
 70
     8
 71
     3
 72
    32
 73
    28
 74
     0
 42
0.000000001
 43
0.00000001
 40
0.0
 40
0.0
 40
0.0
 40
0.0
 40
0.1249999999999988
 40
0.1249999999999988
 40
0.1874999999999981
 40
0.1874999999999981
 40
0.2499999999999975
 40
0.2499999999999975
 40
0.3749999999999969
 40
0.3749999999999969
 40
0.4374999999999973
 40
0.4374999999999973
 40
0.4999999999999977
 40
0.4999999999999977
 40
0.562499999999998
 40
0.562499999999998
 40
0.6249999999999984
 40
0.6249999999999984
 40
0.6874999999999988
 40
0.6874999999999988
 40
0.7499999999999992
 40
0.7499999999999992
 40
0.8124999999999996
 40
0.8124999999999996
 40
0.8749999999999999
 40
0.8749999999999999
 40
1.0
 40
1.0
 40
1.0
 40
1.0
 10
24.22499999999999
 20
-2.986936389132443
 30
0.0
 10
24.62152930884903
 20
-3.195344673964377
 30
0.0
 10
25.01214818142248
 20
-3.381405816719928
 30
0.0
 10
25.59651838974857
 20
-3.616785296202147
 30
0.0
 10
25.79106000784685
 20
-3.6878887911947
 30
0.0
 10
26.18121338402859
 20
-3.81242944111742
 30
0.0
 10
26.3776565298807
 20
-3.866047996793304
 30
0.0
 10
26.95889781344145
 20
-3.991175556196366
 30
0.0
 10
27.33906860955606
 20
-4.028902078943089
 30
0.0
 10
27.91084951168187
 20
-3.986093111350373
 30
0.0
 10
28.0978890043035
 20
-3.955134327241913
 30
0.0
 10
28.46526667174653
 20
-3.853825491469962
 30
0.0
 10
28.64775383983284
 20
-3.782518035033273
 30
0.0
 10
28.99806750021931
 20
-3.59357715180526
 30
0.0
 10
29.1649171297263
 20
-3.477153606227379
 30
0.0
 10
29.48088776129151
 20
-3.187956630373754
 30
0.0
 10
29.62286520854458
 20
-3.021681994767369
 30
0.0
 10
29.87052704975385
 20
-2.640431764351453
 30
0.0
 10
29.96998445080767
 20
-2.434517170018773
 30
0.0
 10
30.11717407665912
 20
-1.999045861966467
 30
0.0
 10
30.16220191214165
 20
-1.776922442216148
 30
0.0
 10
30.19976551489543
 20
-1.335127533688372
 30
0.0
 10
30.19209280556801
 20
-1.121713597587023
 30
0.0
 10
30.13508987718527
 20
-0.7085466234922768
 30
0.0
 10
30.08501536162512
 20
-0.5073302998012564
 30
0.0
 10
29.8881745794299
 20
0.0645710485838055
 30
0.0
 10
29.69381007645289
 20
0.4147632961743584
 30
0.0
 10
29.4563186588713
 20
0.748627541845765
 30
0.0
  0
SPLINE
  5
37D
330
1F
100
AcDbEntity
  8
0
  6
Continuous
 62
     1
370
    15
100
AcDbSpline
210
0.0
220
0.0
230
1.0
 70
     8
 71
     3
 72
    12
 73
     8
 74
     0
 42
0.000000001
 43
0.00000001
 40
0.0
 40
0.0
 40
0.0
 40
0.0
 40
0.2500000000000008
 40
0.2500000000000008
 40
0.5000000000000014
 40
0.5000000000000014
 40
1.0
 40
1.0
 40
1.0
 40
1.0
 10
29.45631865887124
 20
0.7486275418457777
 30
0.0
 10
29.53849058921055
 20
0.7981222773920086
 30
0.0
 10
29.61168711374567
 20
0.8594946099401808
 30
0.0
 10
29.74007194168167
 20
1.006679782010387
 30
0.0
 10
29.79568093617125
 20
1.093890696322086
 30
0.0
 10
29.9272258729422
 20
1.380510355792783
 30
0.0
 10
29.97063289683729
 20
1.610740990212983
 30
0.0
 10
29.97462535084222
 20
1.850161529828433
 30
0.0
  0
ARC
  5
37E
330
1F
100
AcDbEntity
  8
0
  6
Continuous
 62
     1
370
    15
100
AcDbCircle
 10
27.9509360374844
 20
-1.241818971243986
 30
0.0
 40
3.695356796848077
100
AcDbArc
 50
23.84125036270438
 51
56.7954076509281
  0
ARC
  5
37F
330
1F
100
AcDbEntity
  8
0
  6
Continuous
 62
     1
370
    15
100
AcDbCircle
 10
24.93954990438382
 20
0.1293394054786111
 30
0.0
 40
6.392588257261645
100
AcDbArc
 50
1.098189045219189
 51
71.13486828401554
  0
SPLINE
  5
380
330
1F
100
AcDbEntity
  8
0
  6
Continuous
 62
     1
370
    15
100
AcDbSpline
210
0.0
220
0.0
230
1.0
 70
     8
 71
     3
 72
    10
 73
     6
 74
     0
 42
0.000000001
 43
0.00000001
 40
0.0
 40
0.0
 40
0.0
 40
0.0
 40
0.5
 40
0.5
 40
1.0
 40
1.0
 40
1.0
 40
1.0
 10
27.00653963578949
 20
6.178532581195755
 30
0.0
 10
26.56456881940594
 20
6.447940938345044
 30
0.0
 10
26.10994623756871
 20
6.659789603266561
 30
0.0
 10
25.18170855953819
 20
6.967731951242034
 30
0.0
 10
24.70358633319923
 20
7.064235871465499
 30
0.0
 10
24.22500000000005
 20
7.096148580222048
 30
0.0
  0
SPLINE
  5
381
330
1F
100
AcDbEntity
  8
0
  6
Continuous
 62
     1
370
    15
100
AcDbSpline
210
0.0
220
0.0
230
1.0
 70
     8
 71
     3
 72
     8
 73
     4
 74
     0
 42
0.000000001
 43
0.00000001
 40
0.0
 40
0.0
 40
0.0
 40
0.0
 40
1.0
 40
1.0
 40
1.0
 40
1.0
 10
25.55746930229557
 20
3.197885128366835
 30
0.0
 10
27.00971315920932
 20
2.794249960386829
 30
0.0
 10
28.49033269481533
 20
2.339524734665186
 30
0.0
 10
29.97462535084227
 20
1.850161529828492
 30
0.0
  0
SPLINE
  5
382
330
1F
100
AcDbEntity
  8
0
  6
Continuous
 62
     1
370
    15
100
AcDbSpline
210
0.0
220
0.0
230
1.0
 70
     8
 71
     3
 72
    13
 73
     9
 74
     0
 42
0.000000001
 43
0.00000001
 40
0.0
 40
0.0
 40
0.0
 40
0.0
 40
0.0793929877039889
 40
0.2634911655196139
 40
0.44758338379036
 40
0.6316872343868986
 40
0.8158202784367785
 40
1.0
 40
1.0
 40
1.0
 40
1.0
 10
12.61790057679361
 20
4.84487627231129
 30
0.0
 10
12.92506054032212
 20
4.977908946439767
 30
0.0
 10
13.94446967369347
 20
5.419420663935467
 30
0.0
 10
15.67617057014087
 20
6.018305075760596
 30
0.0
 10
17.81293843313409
 20
6.606934403009085
 30
0.0
 10
19.94988311748701
 20
6.987470402002852
 30
0.0
 10
22.08722031957824
 20
7.177174053068526
 30
0.0
 10
23.51234656951464
 20
7.123159352992309
 30
0.0
 10
24.22499999999999
 20
7.096148580222054
 30
0.0
  0
SPLINE
  5
383
330
1F
100
AcDbEntity
  8
0
  6
Continuous
 62
     1
370
    15
100
AcDbSpline
210
0.0
220
0.0
230
1.0
 70
     8
 71
     3
 72
    18
 73
    14
 74
     0
 42
0.000000001
 43
0.00000001
 40
0.0
 40
0.0
 40
0.0
 40
0.0
 40
0.2499999999999999
 40
0.2499999999999999
 40
0.3749999999999996
 40
0.3749999999999996
 40
0.4999999999999992
 40
0.4999999999999992
 40
0.6249999999999989
 40
0.6249999999999989
 40
0.7499999999999986
 40
0.7499999999999986
 40
1.0
 40
1.0
 40
1.0
 40
1.0
 10
27.00653963578952
 20
6.178532581195759
 30
0.0
 10
27.05727121055737
 20
5.878644549193068
 30
0.0
 10
27.08010761784067
 20
5.573473010408999
 30
0.0
 10
27.04693269915465
 20
5.109706018429475
 30
0.0
 10
27.02464381676899
 20
4.957691384441513
 30
0.0
 10
26.95370349751839
 20
4.659705154045602
 30
0.0
 10
26.9041582817119
 20
4.512031374877376
 30
0.0
 10
26.77826128949277
 20
4.234801947428284
 30
0.0
 10
26.70226801534063
 20
4.104910327469995
 30
0.0
 10
26.52375158856212
 20
3.862867720378448
 30
0.0
 10
26.4205510031885
 20
3.750683945267756
 30
0.0
 10
26.08745653924338
 20
3.454956139483583
 30
0.0
 10
25.82716561370392
 20
3.305071759423553
 30
0.0
 10
25.55746930229557
 20
3.197885128366829
 30
0.0
  0
LINE
  5
386
330
1F
100
AcDbEntity
  8
중심선
 48
0.8
100
AcDbLine
 10
-51.00624999999999
 20
-0.000000000000006
 30
0.0
 11
34.36875000000001
 21
0.0000000000000036
 31
0.0
  0
CIRCLE
  5
387
330
1F
100
AcDbEntity
  8
해칭선
100
AcDbCircle
 10
0.0
 20
0.0
 30
0.0
 40
3.000000000000003
  0
DIMENSION
  5
388
330
1F
100
AcDbEntity
  8
치수문자_일반주서
100
AcDbDimension
  2
*D19
 10
2.793750000000001
 20
19.82559977941641
 30
0.0
 11
17.08125
 21
19.82559977941641
 31
0.0
 70
   160
  1
<>
 71
     2
 42
28.575
  3
SLDDIMSTYLE1
100
AcDbAlignedDimension
 13
31.36875
 23
7.937500000000004
 33
0.0
 14
2.793750000000001
 24
7.143750000000001
 34
0.0
 50
0.0000000000000058
100
AcDbRotatedDimension
1001
ACAD
1000
DSTYLE
1002
{
1070
   171
1070
     6
1070
   273
1070
     7
1002
}
  0
DIMENSION
  5
389
330
1F
100
AcDbEntity
  8
치수문자_일반주서
100
AcDbDimension
  2
*D20
 10
-48.00624999999999
 20
38.76250000000006
 30
0.0
 11
-13.08125000000002
 21
38.76250000000006
 31
0.0
 70
   160
  1
<>
 71
     2
 42
79.37499999999999
  3
SLDDIMSTYLE1
100
AcDbAlignedDimension
 13
31.36875
 23
7.937500000000004
 33
0.0
 14
-48.00624999999999
 24
5.350000000000003
 34
0.0
100
AcDbRotatedDimension
1001
ACAD
1000
DSTYLE
1002
{
1070
   171
1070
     6
1070
   273
1070
     7
1002
}
  0
DIMENSION
  5
38A
330
1F
100
AcDbEntity
  8
치수문자_일반주서
100
AcDbDimension
  2
*D21
 10
-58.02290222025893
 20
-6.350000000000037
 30
0.0
 11
-58.02290222025895
 21
-0.0000000000000142
 31
0.0
 70
   160
  1
%%c<>
 71
     2
 42
12.7
 52
-270.0
  3
SLDDIMSTYLE1
100
AcDbAlignedDimension
 13
-47.00624999999999
 23
6.350000000000003
 33
0.0
 14
-47.00624999999999
 24
-6.349999999999996
 34
0.0
 50
90.0000000000002
100
AcDbRotatedDimension
1001
ACAD
1000
DSTYLE
1002
{
1070
   171
1070
     6
1070
   273
1070
     7
1002
}
  0
DIMENSION
  5
38B
330
1F
100
AcDbEntity
  8
치수문자_일반주서
100
AcDbDimension
  2
*D22
 10
44.01875000000011
 20
-7.143749999999955
 30
0.0
 11
44.01874999999998
 21
29.71650000000005
 31
0.0
 70
   160
  1
%%c<>
 71
     2
 42
14.2875
 52
-270.0
  3
SLDDIMSTYLE1
100
AcDbAlignedDimension
 13
31.36875
 23
7.14375
 33
0.0
 14
31.36875
 24
-7.143750000000001
 34
0.0
 50
90.0000000000002
100
AcDbRotatedDimension
1001
ACAD
1000
DSTYLE
1002
{
1070
   171
1070
     6
1070
   273
1070
     7
1002
}
  0
INSERT
  5
38C
330
1F
100
AcDbEntity
  8
해칭선
100
AcDbBlockReference
  2
SW_DOWELSYMBOL_0
 10
0.0
 20
0.0
 30
0.0
  0
LINE
  5
390
330
1F
100
AcDbEntity
  8
외형선
  6
Continuous
370
    15
100
AcDbLine
 10
-47.00624999999999
 20
6.349999999999996
 30
0.0
 11
-32.49637499999997
 21
6.349999999999996
 31
0.0
  0
LINE
  5
3C8
330
1F
100
AcDbEntity
  8
외형선
  6
Continuous
370
    15
100
AcDbLine
 10
2.793750000000001
 20
7.143750000000001
 30
0.0
 11
2.793750000000001
 21
-7.143750000000001
 31
0.0
  0
SPLINE
  5
3CA
330
1F
100
AcDbEntity
  8
0
  6
Continuous
 62
     1
370
    15
100
AcDbSpline
210
0.0
220
0.0
230
1.0
 70
     8
 71
     3
 72
     9
 73
     5
 74
     0
 42
0.000000001
 43
0.0000000001
 40
0.0
 40
0.0
 40
0.0
 40
0.0
 40
5.031376309065472
 40
6.997845249194309
 40
6.997845249194309
 40
6.997845249194309
 40
6.997845249194309
 10
2.793750000000001
 20
-7.143750000000001
 30
0.0
 10
4.421697679993459
 20
-6.703383565150034
 30
0.0
 10
6.685914315480046
 20
-6.090903803207548
 30
0.0
 10
8.772000894580623
 20
-5.066181686840697
 30
0.0
 10
9.34905267738385
 20
-4.757023398401873
 30
0.0
  0
SPLINE
  5
3CB
330
1F
100
AcDbEntity
  8
0
  6
Continuous
 62
     1
370
    15
100
AcDbSpline
210
0.0
220
0.0
230
1.0
 70
  1080
 71
     3
 72
     8
 73
     4
 74
     2
 42
0.000000001
 43
0.0000000001
 44
0.0
 40
0.0
 40
0.0
 40
0.0
 40
0.0
 40
7.370800411222346
 40
7.370800411222346
 40
7.370800411222346
 40
7.370800411222346
 10
2.793750000000001
 20
7.143750000000001
 30
0.0
 10
5.12141592692872
 20
6.357306479698984
 30
0.0
 10
7.449081853857439
 20
5.570862959397965
 30
0.0
 10
9.776747780786158
 20
4.784419439096948
 30
0.0
 11
2.793750000000001
 21
7.143750000000001
 31
0.0
 11
9.776747780786158
 21
4.784419439096948
 31
0.0
  0
LINE
  5
3CD
330
1F
100
AcDbEntity
  8
외형선
  6
Continuous
370
    15
100
AcDbLine
 10
-47.00624999999999
 20
6.350000000000003
 30
0.0
 11
-47.00624999999999
 21
-6.349999999999996
 31
0.0
  0
LINE
  5
3CE
330
1F
100
AcDbEntity
  8
외형선
  6
Continuous
370
    15
100
AcDbLine
 10
2.793750000000001
 20
7.143750000000001
 30
0.0
 11
1.999999999999998
 21
6.349999999999997
 31
0.0
  0
LINE
  5
3CF
330
1F
100
AcDbEntity
  8
외형선
  6
Continuous
370
    15
100
AcDbLine
 10
2.793750000000001
 20
-7.143750000000001
 30
0.0
 11
1.999999999999998
 21
-6.349999999999997
 31
0.0
  0
LINE
  5
3D0
330
1F
100
AcDbEntity
  8
외형선
  6
Continuous
370
    15
100
AcDbLine
 10
1.999999999999998
 20
-6.349999999999997
 30
0.0
 11
2.000000000000002
 21
6.349999999999996
 31
0.0
  0
LINE
  5
40C
330
1F
100
AcDbEntity
  8
외형선
  6
Continuous
370
    15
100
AcDbLine
 10
-30.97237499999997
 20
4.825999999999993
 30
0.0
 11
-19.7963750000001
 21
4.825999999999993
 31
0.0
  0
LINE
  5
40D
330
1F
100
AcDbEntity
  8
외형선
  6
Continuous
370
    15
100
AcDbLine
 10
-30.97237499999997
 20
4.825999999999993
 30
0.0
 11
-32.49637499999997
 21
6.349999999999994
 31
0.0
  0
LINE
  5
40E
330
1F
100
AcDbEntity
  8
외형선
  6
Continuous
370
    15
100
AcDbLine
 10
-19.79637499999998
 20
4.825999999999993
 30
0.0
 11
-18.27237499999998
 21
6.349999999999994
 31
0.0
  0
LINE
  5
40F
330
1F
100
AcDbEntity
  8
외형선
  6
Continuous
370
    15
100
AcDbLine
 10
-18.27237499999998
 20
6.349999999999996
 30
0.0
 11
2.0
 21
6.349999999999996
 31
0.0
  0
ENDSEC
  0
SECTION
  2
OBJECTS
  0
DICTIONARY
  5
C
330
0
100
AcDbDictionary
281
     1
  3
ACAD_GROUP
350
D
  3
ACAD_IMAGE_VARS
350
132
  3
ACAD_LAYOUT
350
1A
  3
ACAD_MLINESTYLE
350
17
  3
ACAD_PLOTSETTINGS
350
19
  3
ACAD_PLOTSTYLENAME
350
E
  3
ACAD_SCALELIST
350
47
  3
APPDATA
350
130
  3
DWGPROPS
350
433
  0
DICTIONARY
  5
1CC
330
2
100
AcDbDictionary
280
     1
281
     1
  3
ACAD_LAYERSTATES
360
1CD
  0
DICTIONARY
  5
D
102
{ACAD_REACTORS
330
C
102
}
330
C
100
AcDbDictionary
281
     1
  0
RASTERVARIABLES
  5
132
102
{ACAD_REACTORS
330
C
102
}
330
C
100
AcDbRasterVariables
 90
        0
 70
     1
 71
     1
 72
     1
  0
DICTIONARY
  5
1A
102
{ACAD_REACTORS
330
C
102
}
330
C
100
AcDbDictionary
281
     1
  3
Layout1
350
1E
  3
Layout2
350
26
  3
Model
350
22
  0
DICTIONARY
  5
17
102
{ACAD_REACTORS
330
C
102
}
330
C
100
AcDbDictionary
281
     1
  3
Standard
350
18
  0
DICTIONARY
  5
19
102
{ACAD_REACTORS
330
C
102
}
330
C
100
AcDbDictionary
281
     1
  0
ACDBDICTIONARYWDFLT
  5
E
102
{ACAD_REACTORS
330
C
102
}
330
C
100
AcDbDictionary
281
     1
  3
Normal
350
F
100
AcDbDictionaryWithDefault
340
F
  0
DICTIONARY
  5
47
102
{ACAD_REACTORS
330
C
102
}
330
C
100
AcDbDictionary
281
     1
  3
A0
350
48
  3
A1
350
49
  3
A2
350
4A
  3
A3
350
4B
  3
A4
350
4C
  3
A5
350
4D
  3
A6
350
4E
  3
A7
350
4F
  3
A8
350
50
  3
A9
350
51
  3
B0
350
52
  3
B1
350
53
  3
B2
350
54
  3
B3
350
55
  3
B4
350
56
  3
B5
350
57
  3
B6
350
58
  3
B7
350
59
  3
B8
350
5A
  3
B9
350
5B
  3
C0
350
5C
  3
C1
350
5D
  3
C2
350
5E
  3
C3
350
5F
  3
C4
350
60
  3
C5
350
61
  3
C6
350
62
  3
C7
350
63
  3
C8
350
64
  3
C9
350
65
  3
D0
350
66
  3
D1
350
67
  3
D2
350
68
  0
DICTIONARY
  5
130
102
{ACAD_REACTORS
330
C
102
}
330
C
100
AcDbDictionary
281
     1
  0
XRECORD
  5
433
102
{ACAD_REACTORS
330
C
102
}
330
C
100
AcDbXrecord
280
     1
  1
DWGPROPS COOKIE
  2

  3

  4

  6

  7

  8
12016016
  9

300
=
301
=
302
=
303
=
304
=
305
=
306
=
307
=
308
=
309
=
 40
0.0
 41
2458316.206336088
 42
2458320.365858797
  1

 90
        0
  0
DICTIONARY
  5
1CD
102
{ACAD_REACTORS
330
1CC
102
}
330
1CC
100
AcDbDictionary
281
     1
  0
LAYOUT
  5
1E
102
{ACAD_REACTORS
330
1A
102
}
330
1A
100
AcDbPlotSettings
  1

  2
none_device
  4

  6

 40
0.0
 41
0.0
 42
0.0
 43
0.0
 44
0.0
 45
0.0
 46
0.0
 47
0.0
 48
0.0
 49
0.0
140
0.0
141
0.0
142
1.0
143
1.0
 70
   688
 72
     1
 73
     0
 74
     5
  7

 75
    16
147
1.0
148
0.0
149
0.0
100
AcDbLayout
  1
Layout1
 70
     1
 71
     1
 10
0.0
 20
0.0
 11
420.0
 21
297.0
 12
0.0
 22
0.0
 32
0.0
 14
1.000000000000000E+20
 24
1.000000000000000E+20
 34
1.000000000000000E+20
 15
-1.000000000000000E+20
 25
-1.000000000000000E+20
 35
-1.000000000000000E+20
146
0.0
 13
0.0
 23
0.0
 33
0.0
 16
1.0
 26
0.0
 36
0.0
 17
0.0
 27
1.0
 37
0.0
 76
     0
330
1B
  0
LAYOUT
  5
26
102
{ACAD_REACTORS
330
1A
102
}
330
1A
100
AcDbPlotSettings
  1

  2
none_device
  4

  6

 40
0.0
 41
0.0
 42
0.0
 43
0.0
 44
0.0
 45
0.0
 46
0.0
 47
0.0
 48
0.0
 49
0.0
140
0.0
141
0.0
142
1.0
143
1.0
 70
   688
 72
     1
 73
     0
 74
     5
  7

 75
    16
147
1.0
148
0.0
149
0.0
100
AcDbLayout
  1
Layout2
 70
     1
 71
     2
 10
0.0
 20
0.0
 11
0.0
 21
0.0
 12
0.0
 22
0.0
 32
0.0
 14
0.0
 24
0.0
 34
0.0
 15
0.0
 25
0.0
 35
0.0
146
0.0
 13
0.0
 23
0.0
 33
0.0
 16
1.0
 26
0.0
 36
0.0
 17
0.0
 27
1.0
 37
0.0
 76
     0
330
23
  0
LAYOUT
  5
22
102
{ACAD_REACTORS
330
1A
102
}
330
1A
100
AcDbPlotSettings
  1

  2
none_device
  4
ANSI_A_(11.00_x_8.50_Inches)
  6

 40
6.35
 41
19.05
 42
6.35000508
 43
19.05000254
 44
279.4
 45
215.9
 46
104.4677685033869
 47
80.79564198894172
 48
0.0
 49
0.0
140
0.0
141
0.0
142
0.0727150761981557
143
1.0
 70
  1696
 72
     0
 73
     0
 74
     0
  7

 75
     0
147
0.0235690232323232
148
0.0
149
0.0
100
AcDbLayout
  1
Model
 70
     1
 71
     0
 10
0.0
 20
0.0
 11
420.0
 21
297.0
 12
0.0
 22
0.0
 32
0.0
 14
-62.397902220259
 24
-49.97180738881175
 34
0.0
 15
74.96274512937676
 25
44.59150000000005
 35
0.0
146
0.0
 13
0.0
 23
0.0
 33
0.0
 16
1.0
 26
0.0
 36
0.0
 17
0.0
 27
1.0
 37
0.0
 76
     0
330
1F
331
29
  0
MLINESTYLE
  5
18
102
{ACAD_REACTORS
330
17
102
}
330
17
100
AcDbMlineStyle
  2
Standard
 70
     0
  3

 62
   256
 51
90.0
 52
90.0
 71
     2
 49
0.5
 62
   256
  6
BYLAYER
 49
-0.5
 62
   256
  6
BYLAYER
  0
ACDBPLACEHOLDER
  5
F
102
{ACAD_REACTORS
330
E
102
}
330
E
  0
SCALE
  5
48
102
{ACAD_REACTORS
330
47
102
}
330
47
100
AcDbScale
 70
     0
300
1:1
140
1.0
141
1.0
290
     1
  0
SCALE
  5
49
102
{ACAD_REACTORS
330
47
102
}
330
47
100
AcDbScale
 70
     0
300
1:2
140
1.0
141
2.0
290
     0
  0
SCALE
  5
4A
102
{ACAD_REACTORS
330
47
102
}
330
47
100
AcDbScale
 70
     0
300
1:4
140
1.0
141
4.0
290
     0
  0
SCALE
  5
4B
102
{ACAD_REACTORS
330
47
102
}
330
47
100
AcDbScale
 70
     0
300
1:5
140
1.0
141
5.0
290
     0
  0
SCALE
  5
4C
102
{ACAD_REACTORS
330
47
102
}
330
47
100
AcDbScale
 70
     0
300
1:8
140
1.0
141
8.0
290
     0
  0
SCALE
  5
4D
102
{ACAD_REACTORS
330
47
102
}
330
47
100
AcDbScale
 70
     0
300
1:10
140
1.0
141
10.0
290
     0
  0
SCALE
  5
4E
102
{ACAD_REACTORS
330
47
102
}
330
47
100
AcDbScale
 70
     0
300
1:16
140
1.0
141
16.0
290
     0
  0
SCALE
  5
4F
102
{ACAD_REACTORS
330
47
102
}
330
47
100
AcDbScale
 70
     0
300
1:20
140
1.0
141
20.0
290
     0
  0
SCALE
  5
50
102
{ACAD_REACTORS
330
47
102
}
330
47
100
AcDbScale
 70
     0
300
1:30
140
1.0
141
30.0
290
     0
  0
SCALE
  5
51
102
{ACAD_REACTORS
330
47
102
}
330
47
100
AcDbScale
 70
     0
300
1:40
140
1.0
141
40.0
290
     0
  0
SCALE
  5
52
102
{ACAD_REACTORS
330
47
102
}
330
47
100
AcDbScale
 70
     0
300
1:50
140
1.0
141
50.0
290
     0
  0
SCALE
  5
53
102
{ACAD_REACTORS
330
47
102
}
330
47
100
AcDbScale
 70
     0
300
1:100
140
1.0
141
100.0
290
     0
  0
SCALE
  5
54
102
{ACAD_REACTORS
330
47
102
}
330
47
100
AcDbScale
 70
     0
300
2:1
140
2.0
141
1.0
290
     0
  0
SCALE
  5
55
102
{ACAD_REACTORS
330
47
102
}
330
47
100
AcDbScale
 70
     0
300
4:1
140
4.0
141
1.0
290
     0
  0
SCALE
  5
56
102
{ACAD_REACTORS
330
47
102
}
330
47
100
AcDbScale
 70
     0
300
8:1
140
8.0
141
1.0
290
     0
  0
SCALE
  5
57
102
{ACAD_REACTORS
330
47
102
}
330
47
100
AcDbScale
 70
     0
300
10:1
140
10.0
141
1.0
290
     0
  0
SCALE
  5
58
102
{ACAD_REACTORS
330
47
102
}
330
47
100
AcDbScale
 70
     0
300
100:1
140
100.0
141
1.0
290
     0
  0
SCALE
  5
59
102
{ACAD_REACTORS
330
47
102
}
330
47
100
AcDbScale
 70
     0
300
1/128" = 1'-0"
140
0.0078125
141
12.0
290
     0
  0
SCALE
  5
5A
102
{ACAD_REACTORS
330
47
102
}
330
47
100
AcDbScale
 70
     0
300
1/64" = 1'-0"
140
0.015625
141
12.0
290
     0
  0
SCALE
  5
5B
102
{ACAD_REACTORS
330
47
102
}
330
47
100
AcDbScale
 70
     0
300
1/32" = 1'-0"
140
0.03125
141
12.0
290
     0
  0
SCALE
  5
5C
102
{ACAD_REACTORS
330
47
102
}
330
47
100
AcDbScale
 70
     0
300
1/16" = 1'-0"
140
0.0625
141
12.0
290
     0
  0
SCALE
  5
5D
102
{ACAD_REACTORS
330
47
102
}
330
47
100
AcDbScale
 70
     0
300
3/32" = 1'-0"
140
0.09375
141
12.0
290
     0
  0
SCALE
  5
5E
102
{ACAD_REACTORS
330
47
102
}
330
47
100
AcDbScale
 70
     0
300
1/8" = 1'-0"
140
0.125
141
12.0
290
     0
  0
SCALE
  5
5F
102
{ACAD_REACTORS
330
47
102
}
330
47
100
AcDbScale
 70
     0
300
3/16" = 1'-0"
140
0.1875
141
12.0
290
     0
  0
SCALE
  5
60
102
{ACAD_REACTORS
330
47
102
}
330
47
100
AcDbScale
 70
     0
300
1/4" = 1'-0"
140
0.25
141
12.0
290
     0
  0
SCALE
  5
61
102
{ACAD_REACTORS
330
47
102
}
330
47
100
AcDbScale
 70
     0
300
3/8" = 1'-0"
140
0.375
141
12.0
290
     0
  0
SCALE
  5
62
102
{ACAD_REACTORS
330
47
102
}
330
47
100
AcDbScale
 70
     0
300
1/2" = 1'-0"
140
0.5
141
12.0
290
     0
  0
SCALE
  5
63
102
{ACAD_REACTORS
330
47
102
}
330
47
100
AcDbScale
 70
     0
300
3/4" = 1'-0"
140
0.75
141
12.0
290
     0
  0
SCALE
  5
64
102
{ACAD_REACTORS
330
47
102
}
330
47
100
AcDbScale
 70
     0
300
1" = 1'-0"
140
1.0
141
12.0
290
     0
  0
SCALE
  5
65
102
{ACAD_REACTORS
330
47
102
}
330
47
100
AcDbScale
 70
     0
300
1-1/2" = 1'-0"
140
1.5
141
12.0
290
     0
  0
SCALE
  5
66
102
{ACAD_REACTORS
330
47
102
}
330
47
100
AcDbScale
 70
     0
300
3" = 1'-0"
140
3.0
141
12.0
290
     0
  0
SCALE
  5
67
102
{ACAD_REACTORS
330
47
102
}
330
47
100
AcDbScale
 70
     0
300
6" = 1'-0"
140
6.0
141
12.0
290
     0
  0
SCALE
  5
68
102
{ACAD_REACTORS
330
47
102
}
330
47
100
AcDbScale
 70
     0
300
1'-0" = 1'-0"
140
12.0
141
12.0
290
     0
  0
ENDSEC
  0
EOF
