  0
SECTION
  2
HEADER
  9
$ACADVER
  1
AC1015
  9
$ACADMAINTVER
 70
     6
  9
$DWGCODEPAGE
  3
ANSI_949
  9
$INSBASE
 10
0.0
 20
0.0
 30
0.0
  9
$EXTMIN
 10
-76.78750000000005
 20
-49.97073246008785
 30
0.0
  9
$EXTMAX
 10
82.10649512937675
 20
54.14150000000006
 30
0.0
  9
$LIMMIN
 10
0.0
 20
0.0
  9
$LIMMAX
 10
420.0
 20
297.0
  9
$ORTHOMODE
 70
     1
  9
$REGENMODE
 70
     1
  9
$FILLMODE
 70
     1
  9
$QTEXTMODE
 70
     0
  9
$MIRRTEXT
 70
     1
  9
$LTSCALE
 40
1.0
  9
$ATTMODE
 70
     1
  9
$TEXTSIZE
 40
3.5
  9
$TRACEWID
 40
1.0
  9
$TEXTSTYLE
  7
Standard
  9
$CLAYER
  8
0
  9
$CELTYPE
  6
ByLayer
  9
$CECOLOR
 62
   256
  9
$CELTSCALE
 40
1.0
  9
$DISPSILH
 70
     0
  9
$DIMSCALE
 40
1.0
  9
$DIMASZ
 40
3.302
  9
$DIMEXO
 40
1.0
  9
$DIMDLI
 40
3.75
  9
$DIMRND
 40
0.0
  9
$DIMDLE
 40
0.0
  9
$DIMEXE
 40
1.0
  9
$DIMTP
 40
0.0
  9
$DIMTM
 40
0.0
  9
$DIMTXT
 40
3.5
  9
$DIMCEN
 40
2.5
  9
$DIMTSZ
 40
0.0
  9
$DIMTOL
 70
     0
  9
$DIMLIM
 70
     0
  9
$DIMTIH
 70
     1
  9
$DIMTOH
 70
     1
  9
$DIMSE1
 70
     0
  9
$DIMSE2
 70
     0
  9
$DIMTAD
 70
     1
  9
$DIMZIN
 70
     0
  9
$DIMBLK
  1

  9
$DIMASO
 70
     1
  9
$DIMSHO
 70
     1
  9
$DIMPOST
  1

  9
$DIMAPOST
  1

  9
$DIMALT
 70
     0
  9
$DIMALTD
 70
     3
  9
$DIMALTF
 40
0.0393700787401575
  9
$DIMLFAC
 40
1.0
  9
$DIMTOFL
 70
     1
  9
$DIMTVP
 40
0.0
  9
$DIMTIX
 70
     0
  9
$DIMSOXD
 70
     0
  9
$DIMSAH
 70
     0
  9
$DIMBLK1
  1

  9
$DIMBLK2
  1

  9
$DIMSTYLE
  2
ISO-25
  9
$DIMCLRD
 70
     0
  9
$DIMCLRE
 70
     0
  9
$DIMCLRT
 70
     0
  9
$DIMTFAC
 40
1.0
  9
$DIMGAP
 40
1.524
  9
$DIMJUST
 70
     0
  9
$DIMSD1
 70
     0
  9
$DIMSD2
 70
     0
  9
$DIMTOLJ
 70
     0
  9
$DIMTZIN
 70
     0
  9
$DIMALTZ
 70
     0
  9
$DIMALTTZ
 70
     0
  9
$DIMUPT
 70
     0
  9
$DIMDEC
 70
     2
  9
$DIMTDEC
 70
     2
  9
$DIMALTU
 70
     2
  9
$DIMALTTD
 70
     3
  9
$DIMTXSTY
  7
Standard
  9
$DIMAUNIT
 70
     0
  9
$DIMADEC
 70
     2
  9
$DIMALTRND
 40
0.0
  9
$DIMAZIN
 70
     0
  9
$DIMDSEP
 70
    44
  9
$DIMATFIT
 70
     3
  9
$DIMFRAC
 70
     0
  9
$DIMLDRBLK
  1

  9
$DIMLUNIT
 70
     2
  9
$DIMLWD
 70
    -2
  9
$DIMLWE
 70
    -2
  9
$DIMTMOVE
 70
     0
  9
$LUNITS
 70
     2
  9
$LUPREC
 70
     2
  9
$SKETCHINC
 40
1.0
  9
$FILLETRAD
 40
10.0
  9
$AUNITS
 70
     0
  9
$AUPREC
 70
     2
  9
$MENU
  1
.
  9
$ELEVATION
 40
0.0
  9
$PELEVATION
 40
0.0
  9
$THICKNESS
 40
0.0
  9
$LIMCHECK
 70
     0
  9
$CHAMFERA
 40
0.0
  9
$CHAMFERB
 40
0.0
  9
$CHAMFERC
 40
0.0
  9
$CHAMFERD
 40
0.0
  9
$SKPOLY
 70
     0
  9
$TDCREATE
 40
2458316.582818623
  9
$TDUCREATE
 40
2458316.207818623
  9
$TDUPDATE
 40
2458320.740581886
  9
$TDUUPDATE
 40
2458320.365581886
  9
$TDINDWG
 40
0.0037020949
  9
$TDUSRTIMER
 40
2458320.365544468
  9
$USRTIMER
 70
     1
  9
$ANGBASE
 50
0.0
  9
$ANGDIR
 70
     0
  9
$PDMODE
 70
     0
  9
$PDSIZE
 40
-1.0
  9
$PLINEWID
 40
0.0
  9
$SPLFRAME
 70
     0
  9
$SPLINETYPE
 70
     6
  9
$SPLINESEGS
 70
     8
  9
$HANDSEED
  5
50B
  9
$SURFTAB1
 70
     6
  9
$SURFTAB2
 70
     6
  9
$SURFTYPE
 70
     6
  9
$SURFU
 70
     6
  9
$SURFV
 70
     6
  9
$UCSBASE
  2

  9
$UCSNAME
  2

  9
$UCSORG
 10
0.0
 20
0.0
 30
0.0
  9
$UCSXDIR
 10
1.0
 20
0.0
 30
0.0
  9
$UCSYDIR
 10
0.0
 20
1.0
 30
0.0
  9
$UCSORTHOREF
  2

  9
$UCSORTHOVIEW
 70
     0
  9
$UCSORGTOP
 10
0.0
 20
0.0
 30
0.0
  9
$UCSORGBOTTOM
 10
0.0
 20
0.0
 30
0.0
  9
$UCSORGLEFT
 10
0.0
 20
0.0
 30
0.0
  9
$UCSORGRIGHT
 10
0.0
 20
0.0
 30
0.0
  9
$UCSORGFRONT
 10
0.0
 20
0.0
 30
0.0
  9
$UCSORGBACK
 10
0.0
 20
0.0
 30
0.0
  9
$PUCSBASE
  2

  9
$PUCSNAME
  2

  9
$PUCSORG
 10
0.0
 20
0.0
 30
0.0
  9
$PUCSXDIR
 10
1.0
 20
0.0
 30
0.0
  9
$PUCSYDIR
 10
0.0
 20
1.0
 30
0.0
  9
$PUCSORTHOREF
  2

  9
$PUCSORTHOVIEW
 70
     0
  9
$PUCSORGTOP
 10
0.0
 20
0.0
 30
0.0
  9
$PUCSORGBOTTOM
 10
0.0
 20
0.0
 30
0.0
  9
$PUCSORGLEFT
 10
0.0
 20
0.0
 30
0.0
  9
$PUCSORGRIGHT
 10
0.0
 20
0.0
 30
0.0
  9
$PUCSORGFRONT
 10
0.0
 20
0.0
 30
0.0
  9
$PUCSORGBACK
 10
0.0
 20
0.0
 30
0.0
  9
$USERI1
 70
     0
  9
$USERI2
 70
     0
  9
$USERI3
 70
     0
  9
$USERI4
 70
     0
  9
$USERI5
 70
     0
  9
$USERR1
 40
0.0
  9
$USERR2
 40
0.0
  9
$USERR3
 40
0.0
  9
$USERR4
 40
0.0
  9
$USERR5
 40
0.0
  9
$WORLDVIEW
 70
     1
  9
$SHADEDGE
 70
     3
  9
$SHADEDIF
 70
    70
  9
$TILEMODE
 70
     1
  9
$MAXACTVP
 70
    64
  9
$PINSBASE
 10
0.0
 20
0.0
 30
0.0
  9
$PLIMCHECK
 70
     0
  9
$PEXTMIN
 10
1.000000000000000E+20
 20
1.000000000000000E+20
 30
1.000000000000000E+20
  9
$PEXTMAX
 10
-1.000000000000000E+20
 20
-1.000000000000000E+20
 30
-1.000000000000000E+20
  9
$PLIMMIN
 10
0.0
 20
0.0
  9
$PLIMMAX
 10
0.0
 20
0.0
  9
$UNITMODE
 70
     0
  9
$VISRETAIN
 70
     1
  9
$PLINEGEN
 70
     0
  9
$PSLTSCALE
 70
     1
  9
$TREEDEPTH
 70
  3020
  9
$CMLSTYLE
  2
Standard
  9
$CMLJUST
 70
     0
  9
$CMLSCALE
 40
20.0
  9
$PROXYGRAPHICS
 70
     1
  9
$MEASUREMENT
 70
     1
  9
$CELWEIGHT
370
    -1
  9
$ENDCAPS
280
     0
  9
$JOINSTYLE
280
     0
  9
$LWDISPLAY
290
     1
  9
$INSUNITS
 70
     4
  9
$HYPERLINKBASE
  1

  9
$STYLESHEET
  1

  9
$XEDIT
290
     1
  9
$CEPSNTYPE
380
     0
  9
$PSTYLEMODE
290
     1
  9
$FINGERPRINTGUID
  2
{7E2BCC97-2515-400B-85AA-64B1F77BE7F7}
  9
$VERSIONGUID
  2
{FAEB1C32-E019-11D5-929B-00C0DF256EC4}
  9
$EXTNAMES
290
     1
  9
$PSVPSCALE
 40
0.0
  9
$OLESTARTUP
290
     0
  0
ENDSEC
  0
SECTION
  2
CLASSES
  0
CLASS
  1
ACDBDICTIONARYWDFLT
  2
AcDbDictionaryWithDefault
  3
ObjectDBX Classes
 90
        0
280
     0
281
     0
  0
CLASS
  1
VISUALSTYLE
  2
AcDbVisualStyle
  3
ObjectDBX Classes
 90
     4095
280
     0
281
     0
  0
CLASS
  1
MATERIAL
  2
AcDbMaterial
  3
ObjectDBX Classes
 90
     1153
280
     0
281
     0
  0
CLASS
  1
SCALE
  2
AcDbScale
  3
ObjectDBX Classes
 90
     1153
280
     0
281
     0
  0
CLASS
  1
SUN
  2
AcDbSun
  3
SCENEOE
 90
     1153
280
     0
281
     0
  0
CLASS
  1
ACDBPLACEHOLDER
  2
AcDbPlaceHolder
  3
ObjectDBX Classes
 90
        0
280
     0
281
     0
  0
CLASS
  1
LAYOUT
  2
AcDbLayout
  3
ObjectDBX Classes
 90
        0
280
     0
281
     0
  0
CLASS
  1
TABLESTYLE
  2
AcDbTableStyle
  3
ObjectDBX Classes
 90
     4095
280
     0
281
     0
  0
CLASS
  1
MLEADERSTYLE
  2
AcDbMLeaderStyle
  3
ACDB_MLEADERSTYLE_CLASS
 90
     4095
280
     0
281
     0
  0
CLASS
  1
RASTERVARIABLES
  2
AcDbRasterVariables
  3
ISM
 90
        0
280
     0
281
     0
  0
ENDSEC
  0
SECTION
  2
TABLES
  0
TABLE
  2
VPORT
  5
8
330
0
100
AcDbSymbolTable
 70
     1
  0
VPORT
  5
29
330
8
100
AcDbSymbolTableRecord
100
AcDbViewportTableRecord
  2
*Active
 70
     0
 10
0.0
 20
0.0
 11
1.0
 21
1.0
 12
-13.94579427185962
 22
4.724081999411304
 13
0.0
 23
0.0
 14
10.0
 24
10.0
 15
10.0
 25
10.0
 16
0.0
 26
0.0
 36
1.0
 17
0.0
 27
0.0
 37
0.0
 40
255.2585134347392
 41
1.358943577430972
 42
50.0
 43
0.0
 44
0.0
 50
0.0
 51
0.0
 71
    16
 72
  2000
 73
     1
 74
     3
 75
     0
 76
     0
 77
     0
 78
     0
281
     0
 65
     1
110
0.0
120
0.0
130
0.0
111
1.0
121
0.0
131
0.0
112
0.0
122
1.0
132
0.0
 79
     0
146
0.0
  0
ENDTAB
  0
TABLE
  2
LTYPE
  5
5
330
0
100
AcDbSymbolTable
 70
     6
  0
LTYPE
  5
14
330
5
100
AcDbSymbolTableRecord
100
AcDbLinetypeTableRecord
  2
ByBlock
 70
     0
  3

 72
    65
 73
     0
 40
0.0
  0
LTYPE
  5
15
330
5
100
AcDbSymbolTableRecord
100
AcDbLinetypeTableRecord
  2
ByLayer
 70
     0
  3

 72
    65
 73
     0
 40
0.0
  0
LTYPE
  5
16
330
5
100
AcDbSymbolTableRecord
100
AcDbLinetypeTableRecord
  2
Continuous
 70
     0
  3
Solid line
 72
    65
 73
     0
 40
0.0
  0
LTYPE
  5
6A
330
5
100
AcDbSymbolTableRecord
100
AcDbLinetypeTableRecord
  2
HIDDEN
 70
     0
  3
Hidden __ __ __ __ __ __ __ __ __ __ __ __ __ __
 72
    65
 73
     2
 40
1.905
 49
1.27
 74
     0
 49
-0.635
 74
     0
  0
LTYPE
  5
6B
330
5
100
AcDbSymbolTableRecord
100
AcDbLinetypeTableRecord
  2
PHANTOM
 70
     0
  3
Phantom ______  __  __  ______  __  __  ______
 72
    65
 73
     6
 40
12.7
 49
6.35
 74
     0
 49
-1.27
 74
     0
 49
1.27
 74
     0
 49
-1.27
 74
     0
 49
1.27
 74
     0
 49
-1.27
 74
     0
  0
LTYPE
  5
6C
330
5
100
AcDbSymbolTableRecord
100
AcDbLinetypeTableRecord
  2
CENTER
 70
     0
  3
Center ____ _ ____ _ ____ _ ____ _ ____ _ ____
 72
    65
 73
     4
 40
10.16
 49
6.35
 74
     0
 49
-1.27
 74
     0
 49
1.27
 74
     0
 49
-1.27
 74
     0
  0
LTYPE
  5
6D
330
5
100
AcDbSymbolTableRecord
100
AcDbLinetypeTableRecord
  2
CENTERX2
 70
     0
  3
Center (2x) ________  __  ________  __  _____
 72
    65
 73
     4
 40
20.32
 49
12.7
 74
     0
 49
-2.54
 74
     0
 49
2.54
 74
     0
 49
-2.54
 74
     0
  0
LTYPE
  5
6E
330
5
100
AcDbSymbolTableRecord
100
AcDbLinetypeTableRecord
  2
DOT2
 70
     0
  3
Dot (.5x) ........................................
 72
    65
 73
     2
 40
0.635
 49
0.0
 74
     0
 49
-0.635
 74
     0
  0
ENDTAB
  0
TABLE
  2
LAYER
  5
2
102
{ACAD_XDICTIONARY
360
1C7
102
}
330
0
100
AcDbSymbolTable
 70
    18
  0
LAYER
  5
10
330
2
100
AcDbSymbolTableRecord
100
AcDbLayerTableRecord
  2
0
 70
     0
 62
     7
  6
Continuous
370
    -3
390
F
  0
LAYER
  5
6F
330
2
100
AcDbSymbolTableRecord
100
AcDbLayerTableRecord
  2
FORMAT
 70
     0
 62
     2
  6
Continuous
370
    -3
390
F
  0
LAYER
  5
70
330
2
100
AcDbSymbolTableRecord
100
AcDbLayerTableRecord
  2
외형선
 70
     0
 62
     4
  6
Continuous
370
    30
390
F
  0
LAYER
  5
71
330
2
100
AcDbSymbolTableRecord
100
AcDbLayerTableRecord
  2
숨은선
 70
     0
 62
     2
  6
HIDDEN
370
    15
390
F
  0
LAYER
  5
72
330
2
100
AcDbSymbolTableRecord
100
AcDbLayerTableRecord
  2
중심선
 70
     0
 62
     1
  6
CENTERX2
370
    -3
390
F
  0
LAYER
  5
73
330
2
100
AcDbSymbolTableRecord
100
AcDbLayerTableRecord
  2
파단선
 70
     0
 62
     4
  6
Continuous
370
    -3
390
F
  0
LAYER
  5
74
330
2
100
AcDbSymbolTableRecord
100
AcDbLayerTableRecord
  2
해칭선
 70
     0
 62
   100
  6
Continuous
370
    -3
390
F
  0
LAYER
  5
75
330
2
100
AcDbSymbolTableRecord
100
AcDbLayerTableRecord
  2
가는실선
 70
     0
 62
     4
  6
Continuous
370
    -3
390
F
  0
LAYER
  5
76
330
2
100
AcDbSymbolTableRecord
100
AcDbLayerTableRecord
  2
치수_보조선
 70
     0
 62
     4
  6
Continuous
370
    -3
390
F
  0
LAYER
  5
77
330
2
100
AcDbSymbolTableRecord
100
AcDbLayerTableRecord
  2
치수문자_일반주서
 70
     0
 62
     7
  6
Continuous
370
    15
390
F
  0
LAYER
  5
78
330
2
100
AcDbSymbolTableRecord
100
AcDbLayerTableRecord
  2
개별주서
 70
     0
 62
   100
  6
Continuous
370
    30
390
F
  0
LAYER
  5
79
330
2
100
AcDbSymbolTableRecord
100
AcDbLayerTableRecord
  2
중간선
 70
     0
 62
     2
  6
Continuous
370
    15
390
F
  0
LAYER
  5
7A
330
2
100
AcDbSymbolTableRecord
100
AcDbLayerTableRecord
  2
윤곽선
 70
     0
 62
     3
  6
Continuous
370
    40
390
F
  0
LAYER
  5
7B
330
2
100
AcDbSymbolTableRecord
100
AcDbLayerTableRecord
  2
중심마크
 70
     0
 62
   100
  6
Continuous
370
    30
390
F
  0
LAYER
  5
7C
330
2
100
AcDbSymbolTableRecord
100
AcDbLayerTableRecord
  2
가상선
 70
     0
 62
     4
  6
PHANTOM
370
    -3
390
F
  0
LAYER
  5
7D
330
2
100
AcDbSymbolTableRecord
100
AcDbLayerTableRecord
  2
특수지정선
 70
     0
 62
     5
  6
CENTERX2
370
    60
390
F
  0
LAYER
  5
7E
330
2
100
AcDbSymbolTableRecord
100
AcDbLayerTableRecord
  2
참조1
 70
     0
 62
    -4
  6
Continuous
370
    -3
390
F
  0
LAYER
  5
136
330
2
100
AcDbSymbolTableRecord
100
AcDbLayerTableRecord
  2
Defpoints
 70
     0
 62
     7
  6
Continuous
290
     0
370
    -3
390
F
  0
ENDTAB
  0
TABLE
  2
STYLE
  5
3
330
0
100
AcDbSymbolTable
 70
     2
  0
STYLE
  5
11
330
3
100
AcDbSymbolTableRecord
100
AcDbTextStyleTableRecord
  2
Standard
 70
     0
 40
0.0
 41
1.0
 50
0.0
 71
     0
 42
3.5
  3
txt
  4

  0
STYLE
  5
94
330
3
100
AcDbSymbolTableRecord
100
AcDbTextStyleTableRecord
  2
SLDTEXTSTYLE0
 70
     0
 40
0.0
 41
0.75
 50
0.0
 71
     0
 42
3.5
  3
TXT
  4

  0
ENDTAB
  0
TABLE
  2
VIEW
  5
6
330
0
100
AcDbSymbolTable
 70
     0
  0
ENDTAB
  0
TABLE
  2
UCS
  5
7
330
0
100
AcDbSymbolTable
 70
     0
  0
ENDTAB
  0
TABLE
  2
APPID
  5
9
330
0
100
AcDbSymbolTable
 70
     1
  0
APPID
  5
12
330
9
100
AcDbSymbolTableRecord
100
AcDbRegAppTableRecord
  2
ACAD
 70
     0
  0
ENDTAB
  0
TABLE
  2
DIMSTYLE
  5
A
330
0
100
AcDbSymbolTable
 70
     3
100
AcDbDimStyleTable
  0
DIMSTYLE
105
27
330
A
100
AcDbSymbolTableRecord
100
AcDbDimStyleTableRecord
  2
ISO-25
 70
     0
 41
2.5
 42
0.625
 43
3.75
 44
1.25
 73
     0
 74
     0
 77
     1
 78
     8
140
2.5
141
2.5
143
0.03937007874016
147
0.625
171
     3
172
     1
178
     0
271
     2
272
     2
274
     3
278
    44
283
     0
284
     8
340
11
  0
DIMSTYLE
105
B4
330
A
100
AcDbSymbolTableRecord
100
AcDbDimStyleTableRecord
  2
SLDDIMSTYLE0
 70
     0
 41
3.302
 44
0.0
 45
0.000000001
 73
     0
 74
     0
 77
     1
 78
    12
 79
     3
140
3.5
143
0.0393700787401575
147
0.875
148
0.000000001
170
     1
173
     1
178
     0
271
     2
272
     2
276
     2
284
    12
340
94
  0
DIMSTYLE
105
DC
102
{ACAD_REACTORS
330
4A1
330
4A2
330
4A3
330
4A4
102
}
330
A
100
AcDbSymbolTableRecord
100
AcDbDimStyleTableRecord
  2
SLDDIMSTYLE1
 70
     0
 41
3.302
 44
0.0
 45
0.000000001
 73
     0
 74
     0
 77
     1
 78
     4
 79
     1
140
3.5
143
0.0393700787401575
147
0.875
148
0.000000001
170
     1
172
     1
173
     1
178
     0
271
     2
272
     2
276
     2
284
    12
289
     0
340
94
  0
ENDTAB
  0
TABLE
  2
BLOCK_RECORD
  5
1
330
0
100
AcDbSymbolTable
 70
    31
  0
BLOCK_RECORD
  5
1F
330
1
100
AcDbSymbolTableRecord
100
AcDbBlockTableRecord
  2
*Model_Space
340
22
  0
BLOCK_RECORD
  5
1B
330
1
100
AcDbSymbolTableRecord
100
AcDbBlockTableRecord
  2
*Paper_Space
340
1E
  0
BLOCK_RECORD
  5
23
330
1
100
AcDbSymbolTableRecord
100
AcDbBlockTableRecord
  2
*Paper_Space0
340
26
  0
BLOCK_RECORD
  5
7F
330
1
100
AcDbSymbolTableRecord
100
AcDbBlockTableRecord
  2
블럭10
340
0
102
{BLKREFS
331
AC
102
}
  0
BLOCK_RECORD
  5
B5
330
1
100
AcDbSymbolTableRecord
100
AcDbBlockTableRecord
  2
_D
340
0
  0
BLOCK_RECORD
  5
C9
330
1
100
AcDbSymbolTableRecord
100
AcDbBlockTableRecord
  2
_D_1
340
0
  0
BLOCK_RECORD
  5
DD
330
1
100
AcDbSymbolTableRecord
100
AcDbBlockTableRecord
  2
_D_2
340
0
  0
BLOCK_RECORD
  5
F1
330
1
100
AcDbSymbolTableRecord
100
AcDbBlockTableRecord
  2
_D_3
340
0
  0
BLOCK_RECORD
  5
10A
330
1
100
AcDbSymbolTableRecord
100
AcDbBlockTableRecord
  2
SW_DOWELSYMBOL_0
340
0
102
{BLKREFS
331
4A5
102
}
  0
BLOCK_RECORD
  5
1CB
330
1
100
AcDbSymbolTableRecord
100
AcDbBlockTableRecord
  2
*D7
340
0
  0
BLOCK_RECORD
  5
1D7
330
1
100
AcDbSymbolTableRecord
100
AcDbBlockTableRecord
  2
*D8
340
0
  0
BLOCK_RECORD
  5
1E3
330
1
100
AcDbSymbolTableRecord
100
AcDbBlockTableRecord
  2
*D9
340
0
  0
BLOCK_RECORD
  5
1EF
330
1
100
AcDbSymbolTableRecord
100
AcDbBlockTableRecord
  2
*D10
340
0
  0
BLOCK_RECORD
  5
22E
330
1
100
AcDbSymbolTableRecord
100
AcDbBlockTableRecord
  2
*D11
340
0
  0
BLOCK_RECORD
  5
23A
330
1
100
AcDbSymbolTableRecord
100
AcDbBlockTableRecord
  2
*D12
340
0
  0
BLOCK_RECORD
  5
246
330
1
100
AcDbSymbolTableRecord
100
AcDbBlockTableRecord
  2
*D13
340
0
  0
BLOCK_RECORD
  5
252
330
1
100
AcDbSymbolTableRecord
100
AcDbBlockTableRecord
  2
*D14
340
0
  0
BLOCK_RECORD
  5
31F
330
1
100
AcDbSymbolTableRecord
100
AcDbBlockTableRecord
  2
*D15
340
0
  0
BLOCK_RECORD
  5
32B
330
1
100
AcDbSymbolTableRecord
100
AcDbBlockTableRecord
  2
*D16
340
0
  0
BLOCK_RECORD
  5
337
330
1
100
AcDbSymbolTableRecord
100
AcDbBlockTableRecord
  2
*D17
340
0
  0
BLOCK_RECORD
  5
343
330
1
100
AcDbSymbolTableRecord
100
AcDbBlockTableRecord
  2
*D18
340
0
  0
BLOCK_RECORD
  5
381
330
1
100
AcDbSymbolTableRecord
100
AcDbBlockTableRecord
  2
*D19
340
0
  0
BLOCK_RECORD
  5
38D
330
1
100
AcDbSymbolTableRecord
100
AcDbBlockTableRecord
  2
*D20
340
0
  0
BLOCK_RECORD
  5
399
330
1
100
AcDbSymbolTableRecord
100
AcDbBlockTableRecord
  2
*D21
340
0
  0
BLOCK_RECORD
  5
3A5
330
1
100
AcDbSymbolTableRecord
100
AcDbBlockTableRecord
  2
*D22
340
0
  0
BLOCK_RECORD
  5
449
330
1
100
AcDbSymbolTableRecord
100
AcDbBlockTableRecord
  2
*D23
340
0
  0
BLOCK_RECORD
  5
455
330
1
100
AcDbSymbolTableRecord
100
AcDbBlockTableRecord
  2
*D24
340
0
  0
BLOCK_RECORD
  5
461
330
1
100
AcDbSymbolTableRecord
100
AcDbBlockTableRecord
  2
*D25
340
0
  0
BLOCK_RECORD
  5
46D
330
1
100
AcDbSymbolTableRecord
100
AcDbBlockTableRecord
  2
*D26
340
0
  0
BLOCK_RECORD
  5
4AC
330
1
100
AcDbSymbolTableRecord
100
AcDbBlockTableRecord
  2
*D27
340
0
  0
BLOCK_RECORD
  5
4B8
330
1
100
AcDbSymbolTableRecord
100
AcDbBlockTableRecord
  2
*D28
340
0
  0
BLOCK_RECORD
  5
4C4
330
1
100
AcDbSymbolTableRecord
100
AcDbBlockTableRecord
  2
*D29
340
0
  0
BLOCK_RECORD
  5
4D0
330
1
100
AcDbSymbolTableRecord
100
AcDbBlockTableRecord
  2
*D30
340
0
  0
ENDTAB
  0
ENDSEC
  0
SECTION
  2
BLOCKS
  0
BLOCK
  5
20
330
1F
100
AcDbEntity
  8
0
100
AcDbBlockBegin
  2
*Model_Space
 70
     0
 10
0.0
 20
0.0
 30
0.0
  3
*Model_Space
  1
*Model_Space
  0
ENDBLK
  5
21
330
1F
100
AcDbEntity
  8
0
100
AcDbBlockEnd
  0
BLOCK
  5
1C
330
1B
100
AcDbEntity
 67
     1
  8
0
100
AcDbBlockBegin
  2
*Paper_Space
 70
     0
 10
0.0
 20
0.0
 30
0.0
  3
*Paper_Space
  1
*Paper_Space
  0
ENDBLK
  5
1D
330
1B
100
AcDbEntity
 67
     1
  8
0
100
AcDbBlockEnd
  0
BLOCK
  5
24
330
23
100
AcDbEntity
  8
0
100
AcDbBlockBegin
  2
*Paper_Space0
 70
     0
 10
0.0
 20
0.0
 30
0.0
  3
*Paper_Space0
  1
*Paper_Space0
  0
ENDBLK
  5
25
330
23
100
AcDbEntity
  8
0
100
AcDbBlockEnd
  0
BLOCK
  5
80
330
7F
100
AcDbEntity
  8
0
100
AcDbBlockBegin
  2
블럭10
 70
     2
 10
0.0
 20
0.0
 30
0.0
  3
블럭10
  1
블럭10
  0
ELLIPSE
  5
82
330
7F
100
AcDbEntity
  8
중심선
100
AcDbEllipse
 10
20.54032771741204
 20
12.0471743016438
 30
0.0
 11
6.600054785286829
 21
-1.261213355974178E-13
 31
0.0
210
0.0
220
0.0
230
1.0
 40
0.636358354079598
 41
0.9219305317359503
 42
6.513795318482858
  0
ELLIPSE
  5
83
330
7F
100
AcDbEntity
  8
중심선
100
AcDbEllipse
 10
20.54032771746488
 20
12.04717430159265
 30
0.0
 11
3.960054785062283
 21
1.540847449632565E-10
 31
0.0
210
0.0
220
0.0
230
1.0
 40
0.3939339440162632
 41
1.131841032648279
 42
5.62031148352944
  0
LINE
  5
84
330
7F
100
AcDbEntity
  8
중심선
100
AcDbLine
 10
2.268634060543552
 20
16.24717430164393
 30
0.0
 11
5.714909304380834
 21
16.24717430164393
 31
0.0
  0
LINE
  5
85
330
7F
100
AcDbEntity
  8
중심선
100
AcDbLine
 10
5.245725140726316
 20
7.84717430164391
 30
0.0
 11
8.692000384563599
 21
7.84717430164391
 31
0.0
  0
LINE
  5
86
330
7F
100
AcDbEntity
  8
중심선
100
AcDbLine
 10
15.74043728645272
 20
16.24717430164393
 30
0.0
 11
8.692000384563599
 21
7.84717430164391
 31
0.0
  0
LINE
  5
87
330
7F
100
AcDbEntity
  8
중심선
100
AcDbLine
 10
0.1404042013395286
 20
13.71084872107135
 30
0.0
 11
3.58671253028996
 21
13.71088815037384
 31
0.0
  0
LINE
  5
88
330
7F
100
AcDbEntity
  8
중심선
100
AcDbLine
 10
2.750260043222114
 20
10.84717430164391
 30
0.0
 11
6.196535287059397
 21
10.84717430164391
 31
0.0
  0
LINE
  5
89
330
7F
100
AcDbEntity
  8
중심선
100
AcDbLine
 10
12.29416204261559
 20
16.24717430164393
 30
0.0
 11
5.245725140726316
 21
7.84717430164391
 31
0.0
  0
LINE
  5
8A
330
7F
100
AcDbEntity
  8
중심선
100
AcDbLine
 10
10.72767329541681
 20
16.24717430164393
 30
0.0
 11
6.196535287059397
 21
10.84717430164391
 31
0.0
  0
LINE
  5
8B
330
7F
100
AcDbEntity
  8
중심선
100
AcDbLine
 10
7.28139805157953
 20
16.24717430164393
 30
0.0
 11
2.750260043222114
 21
10.84717430164391
 31
0.0
  0
LINE
  5
8C
330
7F
100
AcDbEntity
  8
중심선
100
AcDbLine
 10
5.714909304380834
 20
16.24717430164393
 30
0.0
 11
3.58671253028996
 21
13.71088815037384
 31
0.0
  0
LINE
  5
8D
330
7F
100
AcDbEntity
  8
중심선
100
AcDbLine
 10
2.268634060543552
 20
16.24717430164393
 30
0.0
 11
0.1404042013395286
 21
13.71084872107135
 31
0.0
  0
LINE
  5
8E
330
7F
100
AcDbEntity
  8
중심선
100
AcDbLine
 10
7.28139805157953
 20
16.24717430164393
 30
0.0
 11
10.72767329541681
 21
16.24717430164393
 31
0.0
  0
LINE
  5
8F
330
7F
100
AcDbEntity
  8
중심선
100
AcDbLine
 10
12.29416204261559
 20
16.24717430164393
 30
0.0
 11
15.74043728645272
 21
16.24717430164393
 31
0.0
  0
LINE
  5
90
330
7F
100
AcDbEntity
  8
중심선
100
AcDbLine
 10
19.22036997980202
 20
11.08717430171403
 30
0.0
 11
23.66174974927406
 21
11.08717430171406
 31
0.0
  0
LINE
  5
91
330
7F
100
AcDbEntity
  8
중심선
100
AcDbLine
 10
19.22039502424796
 20
13.00717430171391
 30
0.0
 11
19.22036997980202
 21
11.08717430171403
 31
0.0
  0
LINE
  5
92
330
7F
100
AcDbEntity
  8
중심선
100
AcDbLine
 10
19.22039502424796
 20
13.00717430171391
 30
0.0
 11
26.96566020931264
 21
13.00717430171391
 31
0.0
  0
LINE
  5
93
330
7F
100
AcDbEntity
  8
중심선
100
AcDbLine
 10
22.22332737316547
 20
13.45928029700563
 30
0.0
 11
24.52862924686651
 21
15.39360700705356
 31
0.0
  0
ATTDEF
  5
95
330
7F
100
AcDbEntity
  8
FORMAT
 62
     2
100
AcDbText
 10
4.408487351596664
 20
2.075366912832191
 30
0.0
 40
4.233333333333333
  1
E1110108
 41
0.75
  7
SLDTEXTSTYLE0
 11
4.408487351596664
 21
-0.0412997538344756
 31
0.0
100
AcDbAttributeDefinition
  3

  2
AUTOATTR0
 70
     0
 74
     1
  0
ENDBLK
  5
81
330
7F
100
AcDbEntity
  8
0
100
AcDbBlockEnd
  0
BLOCK
  5
B6
330
B5
100
AcDbEntity
  8
0
100
AcDbBlockBegin
  2
_D
 70
     0
 10
0.0
 20
0.0
 30
0.0
  3
_D
  1
_D
  0
LINE
  5
B8
330
B5
100
AcDbEntity
  8
치수문자_일반주서
 62
     0
370
    -2
100
AcDbLine
 10
59.14999999999998
 20
14.35
 30
0.0
 11
59.14999999999998
 21
25.74867883441144
 31
0.0
  0
LINE
  5
B9
330
B5
100
AcDbEntity
  8
치수문자_일반주서
 62
     0
370
    -2
100
AcDbLine
 10
1.999999999999996
 20
13.67801692524482
 30
0.0
 11
1.999999999999996
 21
25.74867883441144
 31
0.0
  0
LINE
  5
BA
330
B5
100
AcDbEntity
  8
치수문자_일반주서
 62
     0
370
    -2
100
AcDbLine
 10
55.84799999999998
 20
25.74867883441144
 30
0.0
 11
5.301999999999996
 21
25.74867883441144
 31
0.0
  0
SOLID
  5
BB
330
B5
100
AcDbEntity
  8
치수문자_일반주서
 62
     0
100
AcDbTrace
 10
55.84799999999998
 20
25.19834550107811
 30
0.0
 11
55.84799999999998
 21
26.29901216774477
 31
0.0
 12
59.14999999999998
 22
25.74867883441144
 32
0.0
 13
59.14999999999998
 23
25.74867883441144
 33
0.0
  0
SOLID
  5
BC
330
B5
100
AcDbEntity
  8
치수문자_일반주서
 62
     0
100
AcDbTrace
 10
5.301999999999996
 20
26.29901216774477
 30
0.0
 11
5.301999999999996
 21
25.19834550107811
 31
0.0
 12
1.999999999999996
 22
25.74867883441144
 32
0.0
 13
1.999999999999996
 23
25.74867883441144
 33
0.0
  0
MTEXT
  5
BD
330
B5
100
AcDbEntity
  8
치수문자_일반주서
 62
     0
100
AcDbMText
 10
29.56033184765401
 20
30.12367883441144
 30
0.0
 40
3.5
 41
0.0
 71
     2
 72
     1
  1
\A1;57.15 [2 1/4]
  7
SLDTEXTSTYLE0
 73
     1
 44
1.0
  0
POINT
  5
BE
330
B5
100
AcDbEntity
  8
Defpoints
 62
     0
100
AcDbPoint
 10
59.14999999999998
 20
14.2875
 30
0.0
  0
POINT
  5
BF
330
B5
100
AcDbEntity
  8
Defpoints
 62
     0
100
AcDbPoint
 10
1.999999999999996
 20
13.61551692524482
 30
0.0
  0
POINT
  5
C0
330
B5
100
AcDbEntity
  8
Defpoints
 62
     0
100
AcDbPoint
 10
1.999999999999996
 20
25.74867883441144
 30
0.0
  0
ENDBLK
  5
B7
330
B5
100
AcDbEntity
  8
0
100
AcDbBlockEnd
  0
BLOCK
  5
CA
330
C9
100
AcDbEntity
  8
0
100
AcDbBlockBegin
  2
_D_1
 70
     0
 10
0.0
 20
0.0
 30
0.0
  3
_D_1
  1
_D_1
  0
LINE
  5
CC
330
C9
100
AcDbEntity
  8
치수문자_일반주서
 62
     0
370
    -2
100
AcDbLine
 10
71.99926131403114
 20
4.337226723198786
 30
0.0
 11
71.99926131403114
 21
38.76357492872395
 31
0.0
  0
LINE
  5
CD
330
C9
100
AcDbEntity
  8
치수문자_일반주서
 62
     0
370
    -2
100
AcDbLine
 10
-48.65073868596884
 20
11.76357492872388
 30
0.0
 11
-48.65073868596884
 21
38.76357492872395
 31
0.0
  0
LINE
  5
CE
330
C9
100
AcDbEntity
  8
치수문자_일반주서
 62
     0
370
    -2
100
AcDbLine
 10
68.69726131403115
 20
38.76357492872395
 30
0.0
 11
-45.34873868596884
 21
38.76357492872395
 31
0.0
  0
SOLID
  5
CF
330
C9
100
AcDbEntity
  8
치수문자_일반주서
 62
     0
100
AcDbTrace
 10
68.69726131403115
 20
38.21324159539062
 30
0.0
 11
68.69726131403115
 21
39.31390826205729
 31
0.0
 12
71.99926131403114
 22
38.76357492872395
 32
0.0
 13
71.99926131403114
 23
38.76357492872395
 33
0.0
  0
SOLID
  5
D0
330
C9
100
AcDbEntity
  8
치수문자_일반주서
 62
     0
100
AcDbTrace
 10
-45.34873868596884
 20
39.31390826205729
 30
0.0
 11
-45.34873868596884
 21
38.21324159539062
 31
0.0
 12
-48.65073868596884
 22
38.76357492872395
 32
0.0
 13
-48.65073868596884
 23
38.76357492872395
 33
0.0
  0
MTEXT
  5
D1
330
C9
100
AcDbEntity
  8
치수문자_일반주서
 62
     0
100
AcDbMText
 10
11.67426131403115
 20
43.13857492872395
 30
0.0
 40
3.5
 41
0.0
 71
     2
 72
     1
  1
\A1;120.65 [4 3/4]
  7
SLDTEXTSTYLE0
 73
     1
 44
1.0
  0
POINT
  5
D2
330
C9
100
AcDbEntity
  8
Defpoints
 62
     0
100
AcDbPoint
 10
71.99926131403114
 20
4.274726723198786
 30
0.0
  0
POINT
  5
D3
330
C9
100
AcDbEntity
  8
Defpoints
 62
     0
100
AcDbPoint
 10
-48.65073868596884
 20
11.70107492872388
 30
0.0
  0
POINT
  5
D4
330
C9
100
AcDbEntity
  8
Defpoints
 62
     0
100
AcDbPoint
 10
-48.65073868596884
 20
38.76357492872395
 30
0.0
  0
ENDBLK
  5
CB
330
C9
100
AcDbEntity
  8
0
100
AcDbBlockEnd
  0
BLOCK
  5
DE
330
DD
100
AcDbEntity
  8
0
100
AcDbBlockBegin
  2
_D_2
 70
     0
 10
0.0
 20
0.0
 30
0.0
  3
_D_2
  1
_D_2
  0
SOLID
  5
E0
330
DD
100
AcDbEntity
  8
치수문자_일반주서
100
AcDbTrace
 10
-61.15073868596883
 20
12.70107492872389
 30
0.0
 11
-60.64273868596883
 21
16.00307492872388
 31
0.0
 12
-61.65873868596884
 22
16.00307492872388
 32
0.0
 13
-61.65873868596884
 23
16.00307492872388
 33
0.0
  0
SOLID
  5
E1
330
DD
100
AcDbEntity
  8
치수문자_일반주서
100
AcDbTrace
 10
-61.15073868596883
 20
-12.69892507127612
 30
0.0
 11
-61.65873868596884
 21
-16.00092507127612
 31
0.0
 12
-60.64273868596883
 22
-16.00092507127612
 32
0.0
 13
-60.64273868596883
 23
-16.00092507127612
 33
0.0
  0
LINE
  5
E2
330
DD
100
AcDbEntity
  8
치수문자_일반주서
100
AcDbLine
 10
-71.94362040201153
 20
-5.413291502344814
 30
0.0
 11
-71.94362040201153
 21
-6.124228987909314
 31
0.0
  0
LINE
  5
E3
330
DD
100
AcDbEntity
  8
치수문자_일반주서
100
AcDbLine
 10
-71.94362040201153
 20
-6.124228987909314
 30
0.0
 11
-66.38737041095223
 21
-6.124228987909275
 31
0.0
  0
LINE
  5
E4
330
DD
100
AcDbEntity
  8
치수문자_일반주서
100
AcDbLine
 10
-66.38737041095223
 20
-6.124228987909275
 30
0.0
 11
-66.38737041095223
 21
-5.413291502344775
 31
0.0
  0
LINE
  5
E5
330
DD
100
AcDbEntity
  8
치수문자_일반주서
100
AcDbLine
 10
-71.94362040201162
 20
5.415441359792444
 30
0.0
 11
-71.94362040201162
 21
6.126378845356944
 31
0.0
  0
LINE
  5
E6
330
DD
100
AcDbEntity
  8
치수문자_일반주서
100
AcDbLine
 10
-71.94362040201162
 20
6.126378845356944
 30
0.0
 11
-66.38737041095231
 21
6.126378845356983
 31
0.0
  0
LINE
  5
E7
330
DD
100
AcDbEntity
  8
치수문자_일반주서
100
AcDbLine
 10
-66.38737041095231
 20
6.126378845356983
 30
0.0
 11
-66.38737041095231
 21
5.415441359792483
 31
0.0
  0
LINE
  5
E8
330
DD
100
AcDbEntity
  8
치수문자_일반주서
100
AcDbLine
 10
-48.65073868596884
 20
12.70107492872389
 30
0.0
 11
-62.15073868596883
 21
12.70107492872389
 31
0.0
  0
LINE
  5
E9
330
DD
100
AcDbEntity
  8
치수문자_일반주서
100
AcDbLine
 10
-48.65073868596884
 20
-12.69892507127612
 30
0.0
 11
-62.15073868596883
 21
-12.69892507127612
 31
0.0
  0
LINE
  5
EA
330
DD
100
AcDbEntity
  8
치수문자_일반주서
100
AcDbLine
 10
-61.15073868596883
 20
12.70107492872389
 30
0.0
 11
-61.15073868596883
 21
19.05107492872389
 31
0.0
  0
LINE
  5
EB
330
DD
100
AcDbEntity
  8
치수문자_일반주서
100
AcDbLine
 10
-61.15073868596883
 20
12.70107492872389
 30
0.0
 11
-61.15073868596883
 21
-12.69892507127612
 31
0.0
  0
LINE
  5
EC
330
DD
100
AcDbEntity
  8
치수문자_일반주서
100
AcDbLine
 10
-61.15073868596883
 20
-12.69892507127612
 30
0.0
 11
-61.15073868596883
 21
-19.04892507127612
 31
0.0
  0
MTEXT
  5
ED
330
DD
100
AcDbEntity
  8
치수문자_일반주서
100
AcDbMText
 10
-70.89910732553115
 20
-4.524619601733436
 30
0.0
 40
3.5
 41
0.0
 71
     1
 72
     1
  1
1.00
  7
SLDTEXTSTYLE0
 11
-7.044195017643634E-15
 21
1.0
 31
0.0
 73
     1
 44
1.0
  0
MTEXT
  5
EE
330
DD
100
AcDbEntity
  8
치수문자_일반주서
100
AcDbMText
 10
-65.66247577517065
 20
-8.456894014097168
 30
0.0
 40
3.5
 41
0.0
 71
     1
 72
     1
  1
%%c
  7
SLDTEXTSTYLE0
 11
-7.044195017643634E-15
 21
1.0
 31
0.0
 73
     1
 44
1.0
  0
MTEXT
  5
EF
330
DD
100
AcDbEntity
  8
치수문자_일반주서
100
AcDbMText
 10
-65.66247577517068
 20
-3.178456615723087
 30
0.0
 40
3.5
 41
0.0
 71
     1
 72
     1
  1
25.40
  7
SLDTEXTSTYLE0
 11
-7.044195017643634E-15
 21
1.0
 31
0.0
 73
     1
 44
1.0
  0
ENDBLK
  5
DF
330
DD
100
AcDbEntity
  8
0
100
AcDbBlockEnd
  0
BLOCK
  5
F2
330
F1
100
AcDbEntity
  8
0
100
AcDbBlockBegin
  2
_D_3
 70
     0
 10
0.0
 20
0.0
 30
0.0
  3
_D_3
  1
_D_3
  0
LINE
  5
F4
330
F1
100
AcDbEntity
  8
치수문자_일반주서
 62
     0
370
    -2
100
AcDbLine
 10
59.21249999999998
 20
14.2875
 30
0.0
 11
74.3457468477063
 21
14.28750000000006
 31
0.0
  0
LINE
  5
F5
330
F1
100
AcDbEntity
  8
치수문자_일반주서
 62
     0
370
    -2
100
AcDbLine
 10
59.21249999999998
 20
-14.2875
 30
0.0
 11
74.3457468477064
 21
-14.28749999999994
 31
0.0
  0
LINE
  5
F6
330
F1
100
AcDbEntity
  8
치수문자_일반주서
 62
     0
370
    -2
100
AcDbLine
 10
74.3457468477063
 20
14.28750000000006
 30
0.0
 11
74.34574684770612
 21
61.1367385578282
 31
0.0
  0
LINE
  5
F7
330
F1
100
AcDbEntity
  8
치수문자_일반주서
 62
     0
370
    -2
100
AcDbLine
 10
74.3457468477063
 20
14.28750000000006
 30
0.0
 11
74.3457468477064
 21
-14.28749999999994
 31
0.0
  0
LINE
  5
F8
330
F1
100
AcDbEntity
  8
치수문자_일반주서
 62
     0
370
    -2
100
AcDbLine
 10
74.34574684770628
 20
17.58950000000006
 30
0.0
 11
74.34574684770627
 21
20.89150000000006
 31
0.0
  0
LINE
  5
F9
330
F1
100
AcDbEntity
  8
치수문자_일반주서
 62
     0
370
    -2
100
AcDbLine
 10
74.34574684770641
 20
-17.58949999999994
 30
0.0
 11
74.34574684770642
 21
-20.89149999999994
 31
0.0
  0
SOLID
  5
FA
330
F1
100
AcDbEntity
  8
치수문자_일반주서
 62
     0
100
AcDbTrace
 10
73.79541351437295
 20
17.58950000000005
 30
0.0
 11
74.89608018103961
 21
17.58950000000006
 31
0.0
 12
74.3457468477063
 22
14.28750000000006
 32
0.0
 13
74.3457468477063
 23
14.28750000000006
 33
0.0
  0
SOLID
  5
FB
330
F1
100
AcDbEntity
  8
치수문자_일반주서
 62
     0
100
AcDbTrace
 10
74.89608018103974
 20
-17.58949999999994
 30
0.0
 11
73.79541351437308
 21
-17.58949999999995
 31
0.0
 12
74.3457468477064
 22
-14.28749999999994
 32
0.0
 13
74.3457468477064
 23
-14.28749999999994
 33
0.0
  0
MTEXT
  5
FC
330
F1
100
AcDbEntity
  8
치수문자_일반주서
 62
     0
100
AcDbMText
 10
69.97074684770618
 20
44.94923855782819
 30
0.0
 40
3.5
 41
0.0
 71
     2
 72
     1
  1
\A1;%%c28.58 [1 1/8]
  7
SLDTEXTSTYLE0
 11
-3.481224252192966E-15
 21
1.0
 31
0.0
 73
     1
 44
1.0
  0
POINT
  5
FD
330
F1
100
AcDbEntity
  8
Defpoints
 62
     0
100
AcDbPoint
 10
59.14999999999998
 20
14.2875
 30
0.0
  0
POINT
  5
263
330
F1
100
AcDbEntity
  8
Defpoints
 62
     0
100
AcDbPoint
 10
59.14999999999998
 20
-14.2875
 30
0.0
  0
POINT
  5
264
330
F1
100
AcDbEntity
  8
Defpoints
 62
     0
100
AcDbPoint
 10
74.3457468477064
 20
-14.28749999999994
 30
0.0
  0
ENDBLK
  5
F3
330
F1
100
AcDbEntity
  8
0
100
AcDbBlockEnd
  0
BLOCK
  5
10B
330
10A
100
AcDbEntity
  8
0
100
AcDbBlockBegin
  2
SW_DOWELSYMBOL_0
 70
     0
 10
0.0
 20
0.0
 30
0.0
  3
SW_DOWELSYMBOL_0
  1
SW_DOWELSYMBOL_0
  0
CIRCLE
  5
10D
330
10A
100
AcDbEntity
  8
해칭선
 62
     0
100
AcDbCircle
 10
0.0
 20
0.0
 30
0.0
 40
3.000000000000003
  0
HATCH
  5
10E
330
10A
100
AcDbEntity
  8
0
  6
Continuous
 62
     0
370
     0
100
AcDbHatch
 10
0.0
 20
0.0
 30
0.0
210
0.0
220
0.0
230
1.0
  2
SOLID
 70
     1
 71
     0
 91
        1
 92
        0
 93
        3
 72
     2
 10
0.0
 20
0.0
 40
3.000000000000003
 50
0.0
 51
90.0
 73
     1
 72
     1
 10
0.0
 20
3.000000000000003
 11
0.0
 21
0.0
 72
     1
 10
0.0
 20
0.0
 11
3.000000000000003
 21
0.0
 97
        0
 75
     0
 76
     1
 98
        1
 10
0.0
 20
0.0
  0
HATCH
  5
10F
330
10A
100
AcDbEntity
  8
0
  6
Continuous
 62
     0
370
     0
100
AcDbHatch
 10
0.0
 20
0.0
 30
0.0
210
0.0
220
0.0
230
1.0
  2
SOLID
 70
     1
 71
     0
 91
        1
 92
        0
 93
        3
 72
     2
 10
0.0
 20
0.0
 40
3.000000000000003
 50
180.0
 51
270.0000000000007
 73
     1
 72
     1
 10
0.0
 20
-3.000000000000003
 11
0.0
 21
0.0
 72
     1
 10
0.0
 20
0.0
 11
-3.000000000000003
 21
0.0
 97
        0
 75
     0
 76
     1
 98
        1
 10
0.0
 20
0.0
  0
ENDBLK
  5
10C
330
10A
100
AcDbEntity
  8
0
100
AcDbBlockEnd
  0
BLOCK
  5
1CC
330
1CB
100
AcDbEntity
  8
0
100
AcDbBlockBegin
  2
*D7
 70
     1
 10
0.0
 20
0.0
 30
0.0
  3
*D7
  1
*D8
  0
LINE
  5
1CE
330
1CB
100
AcDbEntity
  8
치수문자_일반주서
 62
     0
370
    -2
100
AcDbLine
 10
137.525
 20
32.06649999999993
 30
0.0
 11
137.525
 21
46.01893884240207
 31
0.0
  0
LINE
  5
1CF
330
1CB
100
AcDbEntity
  8
치수문자_일반주서
 62
     0
370
    -2
100
AcDbLine
 10
80.37500000000006
 20
32.06649999999992
 30
0.0
 11
80.37500000000006
 21
46.01893884240207
 31
0.0
  0
LINE
  5
1D0
330
1CB
100
AcDbEntity
  8
치수문자_일반주서
 62
     0
370
    -2
100
AcDbLine
 10
134.223
 20
46.01893884240207
 30
0.0
 11
83.67700000000005
 21
46.01893884240207
 31
0.0
  0
SOLID
  5
1D1
330
1CB
100
AcDbEntity
  8
치수문자_일반주서
 62
     0
100
AcDbTrace
 10
134.223
 20
45.46860550906874
 30
0.0
 11
134.223
 21
46.56927217573541
 31
0.0
 12
137.525
 22
46.01893884240207
 32
0.0
 13
137.525
 23
46.01893884240207
 33
0.0
  0
SOLID
  5
1D2
330
1CB
100
AcDbEntity
  8
치수문자_일반주서
 62
     0
100
AcDbTrace
 10
83.67700000000005
 20
46.56927217573541
 30
0.0
 11
83.67700000000005
 21
45.46860550906874
 31
0.0
 12
80.37500000000006
 22
46.01893884240207
 32
0.0
 13
80.37500000000006
 23
46.01893884240207
 33
0.0
  0
MTEXT
  5
1D3
330
1CB
100
AcDbEntity
  8
치수문자_일반주서
 62
     0
100
AcDbMText
 10
107.8993770998502
 20
50.39393884240207
 30
0.0
 40
3.5
 41
0.0
 71
     2
 72
     1
  1
\A1;57.15 [2 1/4]
  7
SLDTEXTSTYLE0
 73
     1
 44
1.0
  0
POINT
  5
1D4
330
1CB
100
AcDbEntity
  8
Defpoints
 62
     0
100
AcDbPoint
 10
137.525
 20
32.00399999999993
 30
0.0
  0
POINT
  5
1D5
330
1CB
100
AcDbEntity
  8
Defpoints
 62
     0
100
AcDbPoint
 10
80.37500000000006
 20
32.00399999999992
 30
0.0
  0
POINT
  5
1D6
330
1CB
100
AcDbEntity
  8
Defpoints
 62
     0
100
AcDbPoint
 10
80.37500000000006
 20
46.01893884240207
 30
0.0
  0
ENDBLK
  5
1CD
330
1CB
100
AcDbEntity
  8
0
100
AcDbBlockEnd
  0
BLOCK
  5
1D8
330
1D7
100
AcDbEntity
  8
0
100
AcDbBlockBegin
  2
*D8
 70
     1
 10
0.0
 20
0.0
 30
0.0
  3
*D8
  1
*D9
  0
LINE
  5
1DA
330
1D7
100
AcDbEntity
  8
치수문자_일반주서
 62
     0
370
    -2
100
AcDbLine
 10
137.525
 20
32.06649999999993
 30
0.0
 11
137.525
 21
58.06649999999999
 31
0.0
  0
LINE
  5
1DB
330
1D7
100
AcDbEntity
  8
치수문자_일반주서
 62
     0
370
    -2
100
AcDbLine
 10
16.87500000000006
 20
31.06649999999992
 30
0.0
 11
16.87500000000006
 21
58.06649999999999
 31
0.0
  0
LINE
  5
1DC
330
1D7
100
AcDbEntity
  8
치수문자_일반주서
 62
     0
370
    -2
100
AcDbLine
 10
134.223
 20
58.06649999999999
 30
0.0
 11
20.17700000000006
 21
58.06649999999999
 31
0.0
  0
SOLID
  5
1DD
330
1D7
100
AcDbEntity
  8
치수문자_일반주서
 62
     0
100
AcDbTrace
 10
134.223
 20
57.51616666666666
 30
0.0
 11
134.223
 21
58.61683333333333
 31
0.0
 12
137.525
 22
58.06649999999999
 32
0.0
 13
137.525
 23
58.06649999999999
 33
0.0
  0
SOLID
  5
1DE
330
1D7
100
AcDbEntity
  8
치수문자_일반주서
 62
     0
100
AcDbTrace
 10
20.17700000000006
 20
58.61683333333333
 30
0.0
 11
20.17700000000006
 21
57.51616666666666
 31
0.0
 12
16.87500000000006
 22
58.06649999999999
 32
0.0
 13
16.87500000000006
 23
58.06649999999999
 33
0.0
  0
MTEXT
  5
1DF
330
1D7
100
AcDbEntity
  8
치수문자_일반주서
 62
     0
100
AcDbMText
 10
77.20000000000005
 20
62.44149999999999
 30
0.0
 40
3.5
 41
0.0
 71
     2
 72
     1
  1
\A1;120.65 [4 3/4]
  7
SLDTEXTSTYLE0
 73
     1
 44
1.0
  0
POINT
  5
1E0
330
1D7
100
AcDbEntity
  8
Defpoints
 62
     0
100
AcDbPoint
 10
137.525
 20
32.00399999999993
 30
0.0
  0
POINT
  5
1E1
330
1D7
100
AcDbEntity
  8
Defpoints
 62
     0
100
AcDbPoint
 10
16.87500000000006
 20
31.00399999999992
 30
0.0
  0
POINT
  5
1E2
330
1D7
100
AcDbEntity
  8
Defpoints
 62
     0
100
AcDbPoint
 10
16.87500000000006
 20
58.06649999999999
 30
0.0
  0
ENDBLK
  5
1D9
330
1D7
100
AcDbEntity
  8
0
100
AcDbBlockEnd
  0
BLOCK
  5
1E4
330
1E3
100
AcDbEntity
  8
0
100
AcDbBlockBegin
  2
*D9
 70
     1
 10
0.0
 20
0.0
 30
0.0
  3
*D9
  1
*D10
  0
LINE
  5
1E6
330
1E3
100
AcDbEntity
  8
치수문자_일반주서
 62
     0
370
    -2
100
AcDbLine
 10
17.81250000000006
 20
32.00399999999992
 30
0.0
 11
4.37500000000001
 21
32.00399999999987
 31
0.0
  0
LINE
  5
1E7
330
1E3
100
AcDbEntity
  8
치수문자_일반주서
 62
     0
370
    -2
100
AcDbLine
 10
17.81250000000006
 20
6.603999999999916
 30
0.0
 11
4.375000000000099
 21
6.603999999999866
 31
0.0
  0
LINE
  5
1E8
330
1E3
100
AcDbEntity
  8
치수문자_일반주서
 62
     0
370
    -2
100
AcDbLine
 10
4.375000000000021
 20
28.70199999999987
 30
0.0
 11
4.375000000000087
 21
9.905999999999866
 31
0.0
  0
SOLID
  5
1E9
330
1E3
100
AcDbEntity
  8
치수문자_일반주서
 62
     0
100
AcDbTrace
 10
4.925333333333355
 20
28.70199999999987
 30
0.0
 11
3.824666666666688
 21
28.70199999999987
 31
0.0
 12
4.37500000000001
 22
32.00399999999987
 32
0.0
 13
4.37500000000001
 23
32.00399999999987
 33
0.0
  0
SOLID
  5
1EA
330
1E3
100
AcDbEntity
  8
치수문자_일반주서
 62
     0
100
AcDbTrace
 10
3.824666666666754
 20
9.905999999999864
 30
0.0
 11
4.925333333333421
 21
9.905999999999867
 31
0.0
 12
4.375000000000099
 22
6.603999999999866
 32
0.0
 13
4.375000000000099
 23
6.603999999999866
 33
0.0
  0
MTEXT
  5
1EB
330
1E3
100
AcDbEntity
  8
치수문자_일반주서
 62
     0
100
AcDbMText
 10
0.0000000000000497
 20
20.50062735735914
 30
0.0
 40
3.5
 41
0.0
 71
     2
 72
     1
  1
\A1;%%c25.40 [1]
  7
SLDTEXTSTYLE0
 11
-3.496765431890256E-15
 21
1.0
 31
0.0
 73
     1
 44
1.0
  0
POINT
  5
1EC
330
1E3
100
AcDbEntity
  8
Defpoints
 62
     0
100
AcDbPoint
 10
17.87500000000006
 20
32.00399999999992
 30
0.0
  0
POINT
  5
1ED
330
1E3
100
AcDbEntity
  8
Defpoints
 62
     0
100
AcDbPoint
 10
17.87500000000006
 20
6.603999999999916
 30
0.0
  0
POINT
  5
1EE
330
1E3
100
AcDbEntity
  8
Defpoints
 62
     0
100
AcDbPoint
 10
4.375000000000099
 20
6.603999999999865
 30
0.0
  0
ENDBLK
  5
1E5
330
1E3
100
AcDbEntity
  8
0
100
AcDbBlockEnd
  0
BLOCK
  5
1F0
330
1EF
100
AcDbEntity
  8
0
100
AcDbBlockBegin
  2
*D10
 70
     1
 10
0.0
 20
0.0
 30
0.0
  3
*D10
  1
*D11
  0
LINE
  5
1F2
330
1EF
100
AcDbEntity
  8
치수문자_일반주서
 62
     0
370
    -2
100
AcDbLine
 10
137.5875
 20
32.00399999999993
 30
0.0
 11
155.6709635613874
 21
32.004
 31
0.0
  0
LINE
  5
1F3
330
1EF
100
AcDbEntity
  8
치수문자_일반주서
 62
     0
370
    -2
100
AcDbLine
 10
137.5875000000001
 20
6.603999999999933
 30
0.0
 11
155.6709635613875
 21
6.604000000000006
 31
0.0
  0
LINE
  5
1F4
330
1EF
100
AcDbEntity
  8
치수문자_일반주서
 62
     0
370
    -2
100
AcDbLine
 10
155.6709635613874
 20
32.004
 30
0.0
 11
155.6709635613873
 21
66.3046732202385
 31
0.0
  0
LINE
  5
1F5
330
1EF
100
AcDbEntity
  8
치수문자_일반주서
 62
     0
370
    -2
100
AcDbLine
 10
155.6709635613874
 20
32.004
 30
0.0
 11
155.6709635613875
 21
6.604000000000006
 31
0.0
  0
LINE
  5
1F6
330
1EF
100
AcDbEntity
  8
치수문자_일반주서
 62
     0
370
    -2
100
AcDbLine
 10
155.6709635613874
 20
35.306
 30
0.0
 11
155.6709635613874
 21
38.608
 31
0.0
  0
LINE
  5
1F7
330
1EF
100
AcDbEntity
  8
치수문자_일반주서
 62
     0
370
    -2
100
AcDbLine
 10
155.6709635613875
 20
3.302000000000007
 30
0.0
 11
155.6709635613875
 21
0.0000000000000071
 31
0.0
  0
SOLID
  5
1F8
330
1EF
100
AcDbEntity
  8
치수문자_일반주서
 62
     0
100
AcDbTrace
 10
155.1206302280541
 20
35.306
 30
0.0
 11
156.2212968947208
 21
35.306
 31
0.0
 12
155.6709635613874
 22
32.004
 32
0.0
 13
155.6709635613874
 23
32.004
 33
0.0
  0
SOLID
  5
1F9
330
1EF
100
AcDbEntity
  8
치수문자_일반주서
 62
     0
100
AcDbTrace
 10
156.2212968947208
 20
3.302000000000008
 30
0.0
 11
155.1206302280542
 21
3.302000000000005
 31
0.0
 12
155.6709635613875
 22
6.604000000000006
 32
0.0
 13
155.6709635613875
 23
6.604000000000006
 33
0.0
  0
MTEXT
  5
1FA
330
1EF
100
AcDbEntity
  8
치수문자_일반주서
 62
     0
100
AcDbMText
 10
151.2959635613873
 20
55.14842322023848
 30
0.0
 40
3.5
 41
0.0
 71
     2
 72
     1
  1
\A1;%%c25.40 [1]
  7
SLDTEXTSTYLE0
 11
-3.356894814614646E-15
 21
1.0
 31
0.0
 73
     1
 44
1.0
  0
POINT
  5
1FB
330
1EF
100
AcDbEntity
  8
Defpoints
 62
     0
100
AcDbPoint
 10
137.525
 20
32.00399999999993
 30
0.0
  0
POINT
  5
1FC
330
1EF
100
AcDbEntity
  8
Defpoints
 62
     0
100
AcDbPoint
 10
137.5250000000001
 20
6.603999999999933
 30
0.0
  0
POINT
  5
1FD
330
1EF
100
AcDbEntity
  8
Defpoints
 62
     0
100
AcDbPoint
 10
155.6709635613875
 20
6.604000000000001
 30
0.0
  0
ENDBLK
  5
1F1
330
1EF
100
AcDbEntity
  8
0
100
AcDbBlockEnd
  0
BLOCK
  5
22F
330
22E
100
AcDbEntity
  8
0
100
AcDbBlockBegin
  2
*D11
 70
     1
 10
0.0
 20
0.0
 30
0.0
  3
*D11
  1
*D12
  0
LINE
  5
231
330
22E
100
AcDbEntity
  8
치수문자_일반주서
 62
     0
370
    -2
100
AcDbLine
 10
241.1444943799217
 20
-33.5551168527826
 30
0.0
 11
241.1444943799217
 21
-19.60267801038047
 31
0.0
  0
LINE
  5
232
330
22E
100
AcDbEntity
  8
치수문자_일반주서
 62
     0
370
    -2
100
AcDbLine
 10
183.9944943799218
 20
-33.55511685278262
 30
0.0
 11
183.9944943799218
 21
-19.60267801038047
 31
0.0
  0
LINE
  5
233
330
22E
100
AcDbEntity
  8
치수문자_일반주서
 62
     0
370
    -2
100
AcDbLine
 10
237.8424943799217
 20
-19.60267801038047
 30
0.0
 11
187.2964943799218
 21
-19.60267801038047
 31
0.0
  0
SOLID
  5
234
330
22E
100
AcDbEntity
  8
치수문자_일반주서
 62
     0
100
AcDbTrace
 10
237.8424943799217
 20
-20.1530113437138
 30
0.0
 11
237.8424943799217
 21
-19.05234467704713
 31
0.0
 12
241.1444943799217
 22
-19.60267801038047
 32
0.0
 13
241.1444943799217
 23
-19.60267801038047
 33
0.0
  0
SOLID
  5
235
330
22E
100
AcDbEntity
  8
치수문자_일반주서
 62
     0
100
AcDbTrace
 10
187.2964943799218
 20
-19.05234467704713
 30
0.0
 11
187.2964943799218
 21
-20.1530113437138
 31
0.0
 12
183.9944943799218
 22
-19.60267801038047
 32
0.0
 13
183.9944943799218
 23
-19.60267801038047
 33
0.0
  0
MTEXT
  5
236
330
22E
100
AcDbEntity
  8
치수문자_일반주서
 62
     0
100
AcDbMText
 10
211.5188714797719
 20
-15.22767801038047
 30
0.0
 40
3.5
 41
0.0
 71
     2
 72
     1
  1
\A1;57.15 [2 1/4]
  7
SLDTEXTSTYLE0
 73
     1
 44
1.0
  0
POINT
  5
237
330
22E
100
AcDbEntity
  8
Defpoints
 62
     0
100
AcDbPoint
 10
241.1444943799217
 20
-33.6176168527826
 30
0.0
  0
POINT
  5
238
330
22E
100
AcDbEntity
  8
Defpoints
 62
     0
100
AcDbPoint
 10
183.9944943799218
 20
-33.61761685278262
 30
0.0
  0
POINT
  5
239
330
22E
100
AcDbEntity
  8
Defpoints
 62
     0
100
AcDbPoint
 10
183.9944943799218
 20
-19.60267801038047
 30
0.0
  0
ENDBLK
  5
230
330
22E
100
AcDbEntity
  8
0
100
AcDbBlockEnd
  0
BLOCK
  5
23B
330
23A
100
AcDbEntity
  8
0
100
AcDbBlockBegin
  2
*D12
 70
     1
 10
0.0
 20
0.0
 30
0.0
  3
*D12
  1
*D13
  0
LINE
  5
23D
330
23A
100
AcDbEntity
  8
치수문자_일반주서
 62
     0
370
    -2
100
AcDbLine
 10
59.14999999999998
 20
14.35
 30
0.0
 11
59.14999999999998
 21
38.76250000000006
 31
0.0
  0
LINE
  5
23E
330
23A
100
AcDbEntity
  8
치수문자_일반주서
 62
     0
370
    -2
100
AcDbLine
 10
-61.50000000000001
 20
11.76249999999999
 30
0.0
 11
-61.50000000000001
 21
38.76250000000006
 31
0.0
  0
LINE
  5
23F
330
23A
100
AcDbEntity
  8
치수문자_일반주서
 62
     0
370
    -2
100
AcDbLine
 10
55.84799999999998
 20
38.76250000000006
 30
0.0
 11
-58.19800000000001
 21
38.76250000000006
 31
0.0
  0
SOLID
  5
240
330
23A
100
AcDbEntity
  8
치수문자_일반주서
 62
     0
100
AcDbTrace
 10
55.84799999999998
 20
38.21216666666673
 30
0.0
 11
55.84799999999998
 21
39.31283333333339
 31
0.0
 12
59.14999999999998
 22
38.76250000000006
 32
0.0
 13
59.14999999999998
 23
38.76250000000006
 33
0.0
  0
SOLID
  5
241
330
23A
100
AcDbEntity
  8
치수문자_일반주서
 62
     0
100
AcDbTrace
 10
-58.19800000000001
 20
39.31283333333339
 30
0.0
 11
-58.19800000000001
 21
38.21216666666673
 31
0.0
 12
-61.50000000000001
 22
38.76250000000006
 32
0.0
 13
-61.50000000000001
 23
38.76250000000006
 33
0.0
  0
MTEXT
  5
242
330
23A
100
AcDbEntity
  8
치수문자_일반주서
 62
     0
100
AcDbMText
 10
-1.175000000000011
 20
43.13750000000006
 30
0.0
 40
3.5
 41
0.0
 71
     2
 72
     1
  1
\A1;120.65 [4 3/4]
  7
SLDTEXTSTYLE0
 73
     1
 44
1.0
  0
POINT
  5
243
330
23A
100
AcDbEntity
  8
Defpoints
 62
     0
100
AcDbPoint
 10
59.14999999999998
 20
14.2875
 30
0.0
  0
POINT
  5
244
330
23A
100
AcDbEntity
  8
Defpoints
 62
     0
100
AcDbPoint
 10
-61.50000000000001
 20
11.69999999999999
 30
0.0
  0
POINT
  5
245
330
23A
100
AcDbEntity
  8
Defpoints
 62
     0
100
AcDbPoint
 10
-61.50000000000001
 20
38.76250000000006
 30
0.0
  0
ENDBLK
  5
23C
330
23A
100
AcDbEntity
  8
0
100
AcDbBlockEnd
  0
BLOCK
  5
247
330
246
100
AcDbEntity
  8
0
100
AcDbBlockBegin
  2
*D13
 70
     1
 10
0.0
 20
0.0
 30
0.0
  3
*D13
  1
*D14
  0
LINE
  5
249
330
246
100
AcDbEntity
  8
치수문자_일반주서
 62
     0
370
    -2
100
AcDbLine
 10
-60.5625
 20
12.69999999999999
 30
0.0
 11
-74.00000000000007
 21
12.69999999999994
 31
0.0
  0
LINE
  5
24A
330
246
100
AcDbEntity
  8
치수문자_일반주서
 62
     0
370
    -2
100
AcDbLine
 10
-60.5625
 20
-12.70000000000002
 30
0.0
 11
-73.99999999999999
 21
-12.70000000000007
 31
0.0
  0
LINE
  5
24B
330
246
100
AcDbEntity
  8
치수문자_일반주서
 62
     0
370
    -2
100
AcDbLine
 10
-74.00000000000006
 20
9.39799999999994
 30
0.0
 11
-74.0
 21
-9.398000000000067
 31
0.0
  0
SOLID
  5
24C
330
246
100
AcDbEntity
  8
치수문자_일반주서
 62
     0
100
AcDbTrace
 10
-73.44966666666673
 20
9.397999999999941
 30
0.0
 11
-74.55033333333338
 21
9.397999999999938
 31
0.0
 12
-74.00000000000007
 22
12.69999999999994
 32
0.0
 13
-74.00000000000007
 23
12.69999999999994
 33
0.0
  0
SOLID
  5
24D
330
246
100
AcDbEntity
  8
치수문자_일반주서
 62
     0
100
AcDbTrace
 10
-74.55033333333333
 20
-9.398000000000069
 30
0.0
 11
-73.44966666666667
 21
-9.398000000000065
 31
0.0
 12
-73.99999999999999
 22
-12.70000000000007
 32
0.0
 13
-73.99999999999999
 23
-12.70000000000007
 33
0.0
  0
MTEXT
  5
24E
330
246
100
AcDbEntity
  8
치수문자_일반주서
 62
     0
100
AcDbMText
 10
-78.37500000000003
 20
1.196627357359211
 30
0.0
 40
3.5
 41
0.0
 71
     2
 72
     1
  1
\A1;%%c25.40 [1]
  7
SLDTEXTSTYLE0
 11
-3.356894814614646E-15
 21
1.0
 31
0.0
 73
     1
 44
1.0
  0
POINT
  5
24F
330
246
100
AcDbEntity
  8
Defpoints
 62
     0
100
AcDbPoint
 10
-60.5
 20
12.69999999999999
 30
0.0
  0
POINT
  5
250
330
246
100
AcDbEntity
  8
Defpoints
 62
     0
100
AcDbPoint
 10
-60.5
 20
-12.70000000000002
 30
0.0
  0
POINT
  5
251
330
246
100
AcDbEntity
  8
Defpoints
 62
     0
100
AcDbPoint
 10
-73.99999999999997
 20
-12.70000000000007
 30
0.0
  0
ENDBLK
  5
248
330
246
100
AcDbEntity
  8
0
100
AcDbBlockEnd
  0
BLOCK
  5
253
330
252
100
AcDbEntity
  8
0
100
AcDbBlockBegin
  2
*D14
 70
     1
 10
0.0
 20
0.0
 30
0.0
  3
*D14
  1
*D15
  0
LINE
  5
255
330
252
100
AcDbEntity
  8
치수문자_일반주서
 62
     0
370
    -2
100
AcDbLine
 10
241.2069943799218
 20
-33.6176168527826
 30
0.0
 11
259.2904579413092
 21
-33.61761685278253
 31
0.0
  0
LINE
  5
256
330
252
100
AcDbEntity
  8
치수문자_일반주서
 62
     0
370
    -2
100
AcDbLine
 10
241.2069943799218
 20
-59.0176168527826
 30
0.0
 11
259.2904579413093
 21
-59.01761685278253
 31
0.0
  0
LINE
  5
257
330
252
100
AcDbEntity
  8
치수문자_일반주서
 62
     0
370
    -2
100
AcDbLine
 10
259.2904579413092
 20
-33.61761685278253
 30
0.0
 11
259.290457941309
 21
0.6830563674559613
 31
0.0
  0
LINE
  5
258
330
252
100
AcDbEntity
  8
치수문자_일반주서
 62
     0
370
    -2
100
AcDbLine
 10
259.2904579413092
 20
-33.61761685278253
 30
0.0
 11
259.2904579413093
 21
-59.01761685278253
 31
0.0
  0
LINE
  5
259
330
252
100
AcDbEntity
  8
치수문자_일반주서
 62
     0
370
    -2
100
AcDbLine
 10
259.2904579413092
 20
-30.31561685278253
 30
0.0
 11
259.2904579413092
 21
-27.01361685278253
 31
0.0
  0
LINE
  5
25A
330
252
100
AcDbEntity
  8
치수문자_일반주서
 62
     0
370
    -2
100
AcDbLine
 10
259.2904579413093
 20
-62.31961685278253
 30
0.0
 11
259.2904579413093
 21
-65.62161685278252
 31
0.0
  0
SOLID
  5
25B
330
252
100
AcDbEntity
  8
치수문자_일반주서
 62
     0
100
AcDbTrace
 10
258.7401246079758
 20
-30.31561685278254
 30
0.0
 11
259.8407912746425
 21
-30.31561685278253
 31
0.0
 12
259.2904579413092
 22
-33.61761685278253
 32
0.0
 13
259.2904579413092
 23
-33.61761685278253
 33
0.0
  0
SOLID
  5
25C
330
252
100
AcDbEntity
  8
치수문자_일반주서
 62
     0
100
AcDbTrace
 10
259.8407912746426
 20
-62.31961685278253
 30
0.0
 11
258.7401246079759
 21
-62.31961685278253
 31
0.0
 12
259.2904579413093
 22
-59.01761685278253
 32
0.0
 13
259.2904579413093
 23
-59.01761685278253
 33
0.0
  0
MTEXT
  5
25D
330
252
100
AcDbEntity
  8
치수문자_일반주서
 62
     0
100
AcDbMText
 10
254.9154579413091
 20
-10.47319363254406
 30
0.0
 40
3.5
 41
0.0
 71
     2
 72
     1
  1
\A1;%%c25.40 [1]
  7
SLDTEXTSTYLE0
 11
-4.475859752819529E-15
 21
1.0
 31
0.0
 73
     1
 44
1.0
  0
POINT
  5
25E
330
252
100
AcDbEntity
  8
Defpoints
 62
     0
100
AcDbPoint
 10
241.1444943799218
 20
-33.6176168527826
 30
0.0
  0
POINT
  5
25F
330
252
100
AcDbEntity
  8
Defpoints
 62
     0
100
AcDbPoint
 10
241.1444943799218
 20
-59.0176168527826
 30
0.0
  0
POINT
  5
260
330
252
100
AcDbEntity
  8
Defpoints
 62
     0
100
AcDbPoint
 10
259.2904579413092
 20
-59.01761685278253
 30
0.0
  0
ENDBLK
  5
254
330
252
100
AcDbEntity
  8
0
100
AcDbBlockEnd
  0
BLOCK
  5
320
330
31F
100
AcDbEntity
  8
0
100
AcDbBlockBegin
  2
*D15
 70
     1
 10
0.0
 20
0.0
 30
0.0
  3
*D15
  1
*D16
  0
LINE
  5
322
330
31F
100
AcDbEntity
  8
치수문자_일반주서
 62
     0
370
    -2
100
AcDbLine
 10
143.8750000000001
 20
31.84695802388574
 30
0.0
 11
143.8750000000001
 21
35.73505780330215
 31
0.0
  0
LINE
  5
323
330
31F
100
AcDbEntity
  8
치수문자_일반주서
 62
     0
370
    -2
100
AcDbLine
 10
80.37500000000006
 20
31.27133370777132
 30
0.0
 11
80.37500000000006
 21
35.73505780330215
 31
0.0
  0
LINE
  5
324
330
31F
100
AcDbEntity
  8
치수문자_일반주서
 62
     0
370
    -2
100
AcDbLine
 10
140.5730000000001
 20
35.73505780330215
 30
0.0
 11
83.67700000000006
 21
35.73505780330215
 31
0.0
  0
SOLID
  5
325
330
31F
100
AcDbEntity
  8
치수문자_일반주서
 62
     0
100
AcDbTrace
 10
140.5730000000001
 20
35.18472446996881
 30
0.0
 11
140.5730000000001
 21
36.28539113663548
 31
0.0
 12
143.8750000000001
 22
35.73505780330215
 32
0.0
 13
143.8750000000001
 23
35.73505780330215
 33
0.0
  0
SOLID
  5
326
330
31F
100
AcDbEntity
  8
치수문자_일반주서
 62
     0
100
AcDbTrace
 10
83.67700000000006
 20
36.28539113663548
 30
0.0
 11
83.67700000000006
 21
35.18472446996881
 31
0.0
 12
80.37500000000006
 22
35.73505780330215
 32
0.0
 13
80.37500000000006
 23
35.73505780330215
 33
0.0
  0
MTEXT
  5
327
330
31F
100
AcDbEntity
  8
치수문자_일반주서
 62
     0
100
AcDbMText
 10
114.7604069093419
 20
40.11005780330215
 30
0.0
 40
3.5
 41
0.0
 71
     2
 72
     1
  1
\A1;63.50 [2 1/2]
  7
SLDTEXTSTYLE0
 73
     1
 44
1.0
  0
POINT
  5
328
330
31F
100
AcDbEntity
  8
Defpoints
 62
     0
100
AcDbPoint
 10
143.8750000000001
 20
31.78445802388574
 30
0.0
  0
POINT
  5
329
330
31F
100
AcDbEntity
  8
Defpoints
 62
     0
100
AcDbPoint
 10
80.37500000000006
 20
31.20883370777132
 30
0.0
  0
POINT
  5
32A
330
31F
100
AcDbEntity
  8
Defpoints
 62
     0
100
AcDbPoint
 10
80.37500000000006
 20
35.73505780330215
 30
0.0
  0
ENDBLK
  5
321
330
31F
100
AcDbEntity
  8
0
100
AcDbBlockEnd
  0
BLOCK
  5
32C
330
32B
100
AcDbEntity
  8
0
100
AcDbBlockBegin
  2
*D16
 70
     1
 10
0.0
 20
0.0
 30
0.0
  3
*D16
  1
*D17
  0
LINE
  5
32E
330
32B
100
AcDbEntity
  8
치수문자_일반주서
 62
     0
370
    -2
100
AcDbLine
 10
143.8750000000001
 20
31.84695802388574
 30
0.0
 11
143.8750000000001
 21
54.67195802388579
 31
0.0
  0
LINE
  5
32F
330
32B
100
AcDbEntity
  8
치수문자_일반주서
 62
     0
370
    -2
100
AcDbLine
 10
16.87500000000006
 20
30.84695802388573
 30
0.0
 11
16.87500000000006
 21
54.67195802388579
 31
0.0
  0
LINE
  5
330
330
32B
100
AcDbEntity
  8
치수문자_일반주서
 62
     0
370
    -2
100
AcDbLine
 10
140.5730000000001
 20
54.67195802388579
 30
0.0
 11
20.17700000000006
 21
54.67195802388579
 31
0.0
  0
SOLID
  5
331
330
32B
100
AcDbEntity
  8
치수문자_일반주서
 62
     0
100
AcDbTrace
 10
140.5730000000001
 20
54.12162469055245
 30
0.0
 11
140.5730000000001
 21
55.22229135721912
 31
0.0
 12
143.8750000000001
 22
54.67195802388579
 32
0.0
 13
143.8750000000001
 23
54.67195802388579
 33
0.0
  0
SOLID
  5
332
330
32B
100
AcDbEntity
  8
치수문자_일반주서
 62
     0
100
AcDbTrace
 10
20.17700000000006
 20
55.22229135721912
 30
0.0
 11
20.17700000000006
 21
54.12162469055245
 31
0.0
 12
16.87500000000006
 22
54.67195802388579
 32
0.0
 13
16.87500000000006
 23
54.67195802388579
 33
0.0
  0
MTEXT
  5
333
330
32B
100
AcDbEntity
  8
치수문자_일반주서
 62
     0
100
AcDbMText
 10
80.37500000000006
 20
59.04695802388579
 30
0.0
 40
3.5
 41
0.0
 71
     2
 72
     1
  1
\A1;127.00 [5]
  7
SLDTEXTSTYLE0
 73
     1
 44
1.0
  0
POINT
  5
334
330
32B
100
AcDbEntity
  8
Defpoints
 62
     0
100
AcDbPoint
 10
143.8750000000001
 20
31.78445802388574
 30
0.0
  0
POINT
  5
335
330
32B
100
AcDbEntity
  8
Defpoints
 62
     0
100
AcDbPoint
 10
16.87500000000006
 20
30.78445802388573
 30
0.0
  0
POINT
  5
336
330
32B
100
AcDbEntity
  8
Defpoints
 62
     0
100
AcDbPoint
 10
16.87500000000006
 20
54.67195802388579
 30
0.0
  0
ENDBLK
  5
32D
330
32B
100
AcDbEntity
  8
0
100
AcDbBlockEnd
  0
BLOCK
  5
338
330
337
100
AcDbEntity
  8
0
100
AcDbBlockBegin
  2
*D17
 70
     1
 10
0.0
 20
0.0
 30
0.0
  3
*D17
  1
*D18
  0
LINE
  5
33A
330
337
100
AcDbEntity
  8
치수문자_일반주서
 62
     0
370
    -2
100
AcDbLine
 10
17.81250000000006
 20
31.78445802388574
 30
0.0
 11
4.374999999999988
 21
31.78445802388569
 31
0.0
  0
LINE
  5
33B
330
337
100
AcDbEntity
  8
치수문자_일반주서
 62
     0
370
    -2
100
AcDbLine
 10
17.81250000000006
 20
0.0344580238857401
 30
0.0
 11
4.375000000000099
 21
0.0344580238856906
 31
0.0
  0
LINE
  5
33C
330
337
100
AcDbEntity
  8
치수문자_일반주서
 62
     0
370
    -2
100
AcDbLine
 10
4.374999999999999
 20
28.48245802388569
 30
0.0
 11
4.375000000000087
 21
3.336458023885691
 31
0.0
  0
SOLID
  5
33D
330
337
100
AcDbEntity
  8
치수문자_일반주서
 62
     0
100
AcDbTrace
 10
4.925333333333333
 20
28.48245802388569
 30
0.0
 11
3.824666666666666
 21
28.48245802388569
 31
0.0
 12
4.374999999999988
 22
31.78445802388569
 32
0.0
 13
4.374999999999988
 23
31.78445802388569
 33
0.0
  0
SOLID
  5
33E
330
337
100
AcDbEntity
  8
치수문자_일반주서
 62
     0
100
AcDbTrace
 10
3.824666666666753
 20
3.336458023885689
 30
0.0
 11
4.925333333333421
 21
3.336458023885692
 31
0.0
 12
4.375000000000099
 22
0.0344580238856906
 32
0.0
 13
4.375000000000099
 23
0.0344580238856906
 33
0.0
  0
MTEXT
  5
33F
330
337
100
AcDbEntity
  8
치수문자_일반주서
 62
     0
100
AcDbMText
 10
0.0000000000000426
 20
15.90945802388572
 30
0.0
 40
3.5
 41
0.0
 71
     2
 72
     1
  1
\A1;%%c31.75 [1 1/4]
  7
SLDTEXTSTYLE0
 11
-3.496765431890257E-15
 21
1.0
 31
0.0
 73
     1
 44
1.0
  0
POINT
  5
340
330
337
100
AcDbEntity
  8
Defpoints
 62
     0
100
AcDbPoint
 10
17.87500000000006
 20
31.78445802388574
 30
0.0
  0
POINT
  5
341
330
337
100
AcDbEntity
  8
Defpoints
 62
     0
100
AcDbPoint
 10
17.87500000000006
 20
0.0344580238857404
 30
0.0
  0
POINT
  5
342
330
337
100
AcDbEntity
  8
Defpoints
 62
     0
100
AcDbPoint
 10
4.375000000000099
 20
0.0344580238856899
 30
0.0
  0
ENDBLK
  5
339
330
337
100
AcDbEntity
  8
0
100
AcDbBlockEnd
  0
BLOCK
  5
344
330
343
100
AcDbEntity
  8
0
100
AcDbBlockBegin
  2
*D18
 70
     1
 10
0.0
 20
0.0
 30
0.0
  3
*D18
  1
*D19
  0
LINE
  5
346
330
343
100
AcDbEntity
  8
치수문자_일반주서
 62
     0
370
    -2
100
AcDbLine
 10
143.9375000000001
 20
31.78445802388574
 30
0.0
 11
163.9484955240948
 21
31.78445802388581
 31
0.0
  0
LINE
  5
347
330
343
100
AcDbEntity
  8
치수문자_일반주서
 62
     0
370
    -2
100
AcDbLine
 10
143.9375000000001
 20
0.0449842400634497
 30
0.0
 11
163.9484955240949
 21
0.0449842400635205
 31
0.0
  0
LINE
  5
348
330
343
100
AcDbEntity
  8
치수문자_일반주서
 62
     0
370
    -2
100
AcDbLine
 10
163.9484955240948
 20
31.78445802388581
 30
0.0
 11
163.9484955240947
 21
69.88845802388582
 31
0.0
  0
LINE
  5
349
330
343
100
AcDbEntity
  8
치수문자_일반주서
 62
     0
370
    -2
100
AcDbLine
 10
163.9484955240948
 20
31.78445802388581
 30
0.0
 11
163.9484955240949
 21
0.0449842400635205
 31
0.0
  0
LINE
  5
34A
330
343
100
AcDbEntity
  8
치수문자_일반주서
 62
     0
370
    -2
100
AcDbLine
 10
163.9484955240948
 20
35.08645802388582
 30
0.0
 11
163.9484955240948
 21
38.38845802388582
 31
0.0
  0
LINE
  5
34B
330
343
100
AcDbEntity
  8
치수문자_일반주서
 62
     0
370
    -2
100
AcDbLine
 10
163.9484955240949
 20
-3.25701575993648
 30
0.0
 11
163.9484955240949
 21
-6.55901575993648
 31
0.0
  0
SOLID
  5
34C
330
343
100
AcDbEntity
  8
치수문자_일반주서
 62
     0
100
AcDbTrace
 10
163.3981621907615
 20
35.08645802388582
 30
0.0
 11
164.4988288574281
 21
35.08645802388582
 31
0.0
 12
163.9484955240948
 22
31.78445802388581
 32
0.0
 13
163.9484955240948
 23
31.78445802388581
 33
0.0
  0
SOLID
  5
34D
330
343
100
AcDbEntity
  8
치수문자_일반주서
 62
     0
100
AcDbTrace
 10
164.4988288574282
 20
-3.257015759936478
 30
0.0
 11
163.3981621907616
 21
-3.257015759936481
 31
0.0
 12
163.9484955240949
 22
0.0449842400635205
 32
0.0
 13
163.9484955240949
 23
0.0449842400635205
 33
0.0
  0
MTEXT
  5
34E
330
343
100
AcDbEntity
  8
치수문자_일반주서
 62
     0
100
AcDbMText
 10
159.5734955240947
 20
54.1384580238858
 30
0.0
 40
3.5
 41
0.0
 71
     2
 72
     1
  1
\A1;%%c31.74 [1 1/4]
  7
SLDTEXTSTYLE0
 11
-3.581875317024398E-15
 21
1.0
 31
0.0
 73
     1
 44
1.0
  0
POINT
  5
34F
330
343
100
AcDbEntity
  8
Defpoints
 62
     0
100
AcDbPoint
 10
143.8750000000001
 20
31.78445802388574
 30
0.0
  0
POINT
  5
350
330
343
100
AcDbEntity
  8
Defpoints
 62
     0
100
AcDbPoint
 10
143.8750000000001
 20
0.0449842400634495
 30
0.0
  0
POINT
  5
351
330
343
100
AcDbEntity
  8
Defpoints
 62
     0
100
AcDbPoint
 10
163.9484955240949
 20
0.0449842400635245
 30
0.0
  0
ENDBLK
  5
345
330
343
100
AcDbEntity
  8
0
100
AcDbBlockEnd
  0
BLOCK
  5
382
330
381
100
AcDbEntity
  8
0
100
AcDbBlockBegin
  2
*D19
 70
     1
 10
0.0
 20
0.0
 30
0.0
  3
*D19
  1
*D20
  0
LINE
  5
384
330
381
100
AcDbEntity
  8
치수문자_일반주서
 62
     0
370
    -2
100
AcDbLine
 10
75.5
 20
15.9385749287239
 30
0.0
 11
75.5
 21
19.82667470814032
 31
0.0
  0
LINE
  5
385
330
381
100
AcDbEntity
  8
치수문자_일반주서
 62
     0
370
    -2
100
AcDbLine
 10
12.0
 20
15.36295061260948
 30
0.0
 11
12.0
 21
19.82667470814032
 31
0.0
  0
LINE
  5
386
330
381
100
AcDbEntity
  8
치수문자_일반주서
 62
     0
370
    -2
100
AcDbLine
 10
72.198
 20
19.82667470814032
 30
0.0
 11
15.302
 21
19.82667470814032
 31
0.0
  0
SOLID
  5
387
330
381
100
AcDbEntity
  8
치수문자_일반주서
 62
     0
100
AcDbTrace
 10
72.198
 20
19.27634137480698
 30
0.0
 11
72.198
 21
20.37700804147365
 31
0.0
 12
75.5
 22
19.82667470814032
 32
0.0
 13
75.5
 23
19.82667470814032
 33
0.0
  0
SOLID
  5
388
330
381
100
AcDbEntity
  8
치수문자_일반주서
 62
     0
100
AcDbTrace
 10
15.302
 20
20.37700804147365
 30
0.0
 11
15.302
 21
19.27634137480698
 31
0.0
 12
12.0
 22
19.82667470814032
 32
0.0
 13
12.0
 23
19.82667470814032
 33
0.0
  0
MTEXT
  5
389
330
381
100
AcDbEntity
  8
치수문자_일반주서
 62
     0
100
AcDbMText
 10
46.38540690934184
 20
24.20167470814032
 30
0.0
 40
3.5
 41
0.0
 71
     2
 72
     1
  1
\A1;63.50 [2 1/2]
  7
SLDTEXTSTYLE0
 73
     1
 44
1.0
  0
POINT
  5
38A
330
381
100
AcDbEntity
  8
Defpoints
 62
     0
100
AcDbPoint
 10
75.5
 20
15.8760749287239
 30
0.0
  0
POINT
  5
38B
330
381
100
AcDbEntity
  8
Defpoints
 62
     0
100
AcDbPoint
 10
12.0
 20
15.30045061260948
 30
0.0
  0
POINT
  5
38C
330
381
100
AcDbEntity
  8
Defpoints
 62
     0
100
AcDbPoint
 10
12.0
 20
19.82667470814032
 30
0.0
  0
ENDBLK
  5
383
330
381
100
AcDbEntity
  8
0
100
AcDbBlockEnd
  0
BLOCK
  5
38E
330
38D
100
AcDbEntity
  8
0
100
AcDbBlockBegin
  2
*D20
 70
     1
 10
0.0
 20
0.0
 30
0.0
  3
*D20
  1
*D21
  0
LINE
  5
390
330
38D
100
AcDbEntity
  8
치수문자_일반주서
 62
     0
370
    -2
100
AcDbLine
 10
75.5
 20
15.9385749287239
 30
0.0
 11
75.5
 21
38.76357492872394
 31
0.0
  0
LINE
  5
391
330
38D
100
AcDbEntity
  8
치수문자_일반주서
 62
     0
370
    -2
100
AcDbLine
 10
-51.5
 20
14.9385749287239
 30
0.0
 11
-51.5
 21
38.76357492872394
 31
0.0
  0
LINE
  5
392
330
38D
100
AcDbEntity
  8
치수문자_일반주서
 62
     0
370
    -2
100
AcDbLine
 10
72.198
 20
38.76357492872394
 30
0.0
 11
-48.198
 21
38.76357492872394
 31
0.0
  0
SOLID
  5
393
330
38D
100
AcDbEntity
  8
치수문자_일반주서
 62
     0
100
AcDbTrace
 10
72.198
 20
38.21324159539061
 30
0.0
 11
72.198
 21
39.31390826205728
 31
0.0
 12
75.5
 22
38.76357492872394
 32
0.0
 13
75.5
 23
38.76357492872394
 33
0.0
  0
SOLID
  5
394
330
38D
100
AcDbEntity
  8
치수문자_일반주서
 62
     0
100
AcDbTrace
 10
-48.198
 20
39.31390826205728
 30
0.0
 11
-48.198
 21
38.21324159539061
 31
0.0
 12
-51.5
 22
38.76357492872394
 32
0.0
 13
-51.5
 23
38.76357492872394
 33
0.0
  0
MTEXT
  5
395
330
38D
100
AcDbEntity
  8
치수문자_일반주서
 62
     0
100
AcDbMText
 10
12.0
 20
43.13857492872394
 30
0.0
 40
3.5
 41
0.0
 71
     2
 72
     1
  1
\A1;127.00 [5]
  7
SLDTEXTSTYLE0
 73
     1
 44
1.0
  0
POINT
  5
396
330
38D
100
AcDbEntity
  8
Defpoints
 62
     0
100
AcDbPoint
 10
75.5
 20
15.8760749287239
 30
0.0
  0
POINT
  5
397
330
38D
100
AcDbEntity
  8
Defpoints
 62
     0
100
AcDbPoint
 10
-51.5
 20
14.8760749287239
 30
0.0
  0
POINT
  5
398
330
38D
100
AcDbEntity
  8
Defpoints
 62
     0
100
AcDbPoint
 10
-51.5
 20
38.76357492872394
 30
0.0
  0
ENDBLK
  5
38F
330
38D
100
AcDbEntity
  8
0
100
AcDbBlockEnd
  0
BLOCK
  5
39A
330
399
100
AcDbEntity
  8
0
100
AcDbBlockBegin
  2
*D21
 70
     1
 10
0.0
 20
0.0
 30
0.0
  3
*D21
  1
*D22
  0
LINE
  5
39C
330
399
100
AcDbEntity
  8
치수문자_일반주서
 62
     0
370
    -2
100
AcDbLine
 10
-50.5625
 20
15.8760749287239
 30
0.0
 11
-64.00000000000009
 21
15.87607492872385
 31
0.0
  0
LINE
  5
39D
330
399
100
AcDbEntity
  8
치수문자_일반주서
 62
     0
370
    -2
100
AcDbLine
 10
-50.5625
 20
-15.8739250712761
 30
0.0
 11
-63.99999999999997
 21
-15.87392507127615
 31
0.0
  0
LINE
  5
39E
330
399
100
AcDbEntity
  8
치수문자_일반주서
 62
     0
370
    -2
100
AcDbLine
 10
-64.00000000000007
 20
12.57407492872385
 30
0.0
 11
-63.99999999999999
 21
-12.57192507127615
 31
0.0
  0
SOLID
  5
39F
330
399
100
AcDbEntity
  8
치수문자_일반주서
 62
     0
100
AcDbTrace
 10
-63.44966666666674
 20
12.57407492872385
 30
0.0
 11
-64.5503333333334
 21
12.57407492872384
 31
0.0
 12
-64.00000000000009
 22
15.87607492872385
 32
0.0
 13
-64.00000000000009
 23
15.87607492872385
 33
0.0
  0
SOLID
  5
3A0
330
399
100
AcDbEntity
  8
치수문자_일반주서
 62
     0
100
AcDbTrace
 10
-64.55033333333331
 20
-12.57192507127616
 30
0.0
 11
-63.44966666666665
 21
-12.57192507127615
 31
0.0
 12
-63.99999999999997
 22
-15.87392507127615
 32
0.0
 13
-63.99999999999997
 23
-15.87392507127615
 33
0.0
  0
MTEXT
  5
3A1
330
399
100
AcDbEntity
  8
치수문자_일반주서
 62
     0
100
AcDbMText
 10
-68.37500000000003
 20
0.0010749287238796
 30
0.0
 40
3.5
 41
0.0
 71
     2
 72
     1
  1
\A1;%%c31.75 [1 1/4]
  7
SLDTEXTSTYLE0
 11
-3.580687802255623E-15
 21
1.0
 31
0.0
 73
     1
 44
1.0
  0
POINT
  5
3A2
330
399
100
AcDbEntity
  8
Defpoints
 62
     0
100
AcDbPoint
 10
-50.5
 20
15.8760749287239
 30
0.0
  0
POINT
  5
3A3
330
399
100
AcDbEntity
  8
Defpoints
 62
     0
100
AcDbPoint
 10
-50.5
 20
-15.8739250712761
 30
0.0
  0
POINT
  5
3A4
330
399
100
AcDbEntity
  8
Defpoints
 62
     0
100
AcDbPoint
 10
-63.99999999999997
 20
-15.87392507127615
 30
0.0
  0
ENDBLK
  5
39B
330
399
100
AcDbEntity
  8
0
100
AcDbBlockEnd
  0
BLOCK
  5
3A6
330
3A5
100
AcDbEntity
  8
0
100
AcDbBlockBegin
  2
*D22
 70
     1
 10
0.0
 20
0.0
 30
0.0
  3
*D22
  1
*D23
  0
LINE
  5
3A8
330
3A5
100
AcDbEntity
  8
치수문자_일반주서
 62
     0
370
    -2
100
AcDbLine
 10
75.5625
 20
15.8760749287239
 30
0.0
 11
95.57349552409474
 21
15.87607492872397
 31
0.0
  0
LINE
  5
3A9
330
3A5
100
AcDbEntity
  8
치수문자_일반주서
 62
     0
370
    -2
100
AcDbLine
 10
75.5625
 20
-15.8633988550984
 30
0.0
 11
95.57349552409485
 21
-15.86339885509832
 31
0.0
  0
LINE
  5
3AA
330
3A5
100
AcDbEntity
  8
치수문자_일반주서
 62
     0
370
    -2
100
AcDbLine
 10
95.57349552409474
 20
15.87607492872397
 30
0.0
 11
95.5734955240946
 21
53.98007492872398
 31
0.0
  0
LINE
  5
3AB
330
3A5
100
AcDbEntity
  8
치수문자_일반주서
 62
     0
370
    -2
100
AcDbLine
 10
95.57349552409474
 20
15.87607492872397
 30
0.0
 11
95.57349552409485
 21
-15.86339885509832
 31
0.0
  0
LINE
  5
3AC
330
3A5
100
AcDbEntity
  8
치수문자_일반주서
 62
     0
370
    -2
100
AcDbLine
 10
95.57349552409472
 20
19.17807492872397
 30
0.0
 11
95.57349552409471
 21
22.48007492872397
 31
0.0
  0
LINE
  5
3AD
330
3A5
100
AcDbEntity
  8
치수문자_일반주서
 62
     0
370
    -2
100
AcDbLine
 10
95.57349552409487
 20
-19.16539885509832
 30
0.0
 11
95.57349552409488
 21
-22.46739885509832
 31
0.0
  0
SOLID
  5
3AE
330
3A5
100
AcDbEntity
  8
치수문자_일반주서
 62
     0
100
AcDbTrace
 10
95.0231621907614
 20
19.17807492872397
 30
0.0
 11
96.12382885742805
 21
19.17807492872397
 31
0.0
 12
95.57349552409474
 22
15.87607492872397
 32
0.0
 13
95.57349552409474
 23
15.87607492872397
 33
0.0
  0
SOLID
  5
3AF
330
3A5
100
AcDbEntity
  8
치수문자_일반주서
 62
     0
100
AcDbTrace
 10
96.1238288574282
 20
-19.16539885509832
 30
0.0
 11
95.02316219076154
 21
-19.16539885509833
 31
0.0
 12
95.57349552409485
 22
-15.86339885509832
 32
0.0
 13
95.57349552409485
 23
-15.86339885509832
 33
0.0
  0
MTEXT
  5
3B0
330
3A5
100
AcDbEntity
  8
치수문자_일반주서
 62
     0
100
AcDbMText
 10
91.19849552409465
 20
38.23007492872397
 30
0.0
 40
3.5
 41
0.0
 71
     2
 72
     1
  1
\A1;%%c31.74 [1 1/4]
  7
SLDTEXTSTYLE0
 11
-3.581875317024398E-15
 21
1.0
 31
0.0
 73
     1
 44
1.0
  0
POINT
  5
3B1
330
3A5
100
AcDbEntity
  8
Defpoints
 62
     0
100
AcDbPoint
 10
75.5
 20
15.8760749287239
 30
0.0
  0
POINT
  5
3B2
330
3A5
100
AcDbEntity
  8
Defpoints
 62
     0
100
AcDbPoint
 10
75.5
 20
-15.8633988550984
 30
0.0
  0
POINT
  5
3B3
330
3A5
100
AcDbEntity
  8
Defpoints
 62
     0
100
AcDbPoint
 10
95.57349552409485
 20
-15.86339885509832
 30
0.0
  0
ENDBLK
  5
3A7
330
3A5
100
AcDbEntity
  8
0
100
AcDbBlockEnd
  0
BLOCK
  5
44A
330
449
100
AcDbEntity
  8
0
100
AcDbBlockBegin
  2
*D23
 70
     1
 10
0.0
 20
0.0
 30
0.0
  3
*D23
  1
*D25
  0
LINE
  5
44C
330
449
100
AcDbEntity
  8
치수문자_일반주서
 62
     0
370
    -2
100
AcDbLine
 10
137.525
 20
32.06649999999993
 30
0.0
 11
137.525
 21
46.01893884240208
 31
0.0
  0
LINE
  5
44D
330
449
100
AcDbEntity
  8
치수문자_일반주서
 62
     0
370
    -2
100
AcDbLine
 10
80.37500000000006
 20
32.06649999999993
 30
0.0
 11
80.37500000000006
 21
46.01893884240208
 31
0.0
  0
LINE
  5
44E
330
449
100
AcDbEntity
  8
치수문자_일반주서
 62
     0
370
    -2
100
AcDbLine
 10
134.223
 20
46.01893884240208
 30
0.0
 11
83.67700000000006
 21
46.01893884240208
 31
0.0
  0
SOLID
  5
44F
330
449
100
AcDbEntity
  8
치수문자_일반주서
 62
     0
100
AcDbTrace
 10
134.223
 20
45.46860550906874
 30
0.0
 11
134.223
 21
46.56927217573541
 31
0.0
 12
137.525
 22
46.01893884240208
 32
0.0
 13
137.525
 23
46.01893884240208
 33
0.0
  0
SOLID
  5
450
330
449
100
AcDbEntity
  8
치수문자_일반주서
 62
     0
100
AcDbTrace
 10
83.67700000000006
 20
46.56927217573541
 30
0.0
 11
83.67700000000006
 21
45.46860550906874
 31
0.0
 12
80.37500000000006
 22
46.01893884240208
 32
0.0
 13
80.37500000000006
 23
46.01893884240208
 33
0.0
  0
MTEXT
  5
451
330
449
100
AcDbEntity
  8
치수문자_일반주서
 62
     0
100
AcDbMText
 10
107.8993770998502
 20
50.39393884240208
 30
0.0
 40
3.5
 41
0.0
 71
     2
 72
     1
  1
\A1;57.15 [2 1/4]
  7
SLDTEXTSTYLE0
 73
     1
 44
1.0
  0
POINT
  5
452
330
449
100
AcDbEntity
  8
Defpoints
 62
     0
100
AcDbPoint
 10
137.525
 20
32.00399999999993
 30
0.0
  0
POINT
  5
453
330
449
100
AcDbEntity
  8
Defpoints
 62
     0
100
AcDbPoint
 10
80.37500000000006
 20
32.00399999999993
 30
0.0
  0
POINT
  5
454
330
449
100
AcDbEntity
  8
Defpoints
 62
     0
100
AcDbPoint
 10
80.37500000000006
 20
46.01893884240208
 30
0.0
  0
ENDBLK
  5
44B
330
449
100
AcDbEntity
  8
0
100
AcDbBlockEnd
  0
BLOCK
  5
456
330
455
100
AcDbEntity
  8
0
100
AcDbBlockBegin
  2
*D24
 70
     1
 10
0.0
 20
0.0
 30
0.0
  3
*D24
  1
*D26
  0
LINE
  5
458
330
455
100
AcDbEntity
  8
치수문자_일반주서
 62
     0
370
    -2
100
AcDbLine
 10
137.525
 20
32.06649999999993
 30
0.0
 11
137.525
 21
58.0665
 31
0.0
  0
LINE
  5
459
330
455
100
AcDbEntity
  8
치수문자_일반주서
 62
     0
370
    -2
100
AcDbLine
 10
16.87500000000005
 20
31.06649999999993
 30
0.0
 11
16.87500000000005
 21
58.0665
 31
0.0
  0
LINE
  5
45A
330
455
100
AcDbEntity
  8
치수문자_일반주서
 62
     0
370
    -2
100
AcDbLine
 10
134.223
 20
58.0665
 30
0.0
 11
20.17700000000005
 21
58.0665
 31
0.0
  0
SOLID
  5
45B
330
455
100
AcDbEntity
  8
치수문자_일반주서
 62
     0
100
AcDbTrace
 10
134.223
 20
57.51616666666666
 30
0.0
 11
134.223
 21
58.61683333333333
 31
0.0
 12
137.525
 22
58.0665
 32
0.0
 13
137.525
 23
58.0665
 33
0.0
  0
SOLID
  5
45C
330
455
100
AcDbEntity
  8
치수문자_일반주서
 62
     0
100
AcDbTrace
 10
20.17700000000005
 20
58.61683333333333
 30
0.0
 11
20.17700000000005
 21
57.51616666666666
 31
0.0
 12
16.87500000000005
 22
58.0665
 32
0.0
 13
16.87500000000005
 23
58.0665
 33
0.0
  0
MTEXT
  5
45D
330
455
100
AcDbEntity
  8
치수문자_일반주서
 62
     0
100
AcDbMText
 10
77.20000000000005
 20
62.4415
 30
0.0
 40
3.5
 41
0.0
 71
     2
 72
     1
  1
\A1;120.65 [4 3/4]
  7
SLDTEXTSTYLE0
 73
     1
 44
1.0
  0
POINT
  5
45E
330
455
100
AcDbEntity
  8
Defpoints
 62
     0
100
AcDbPoint
 10
137.525
 20
32.00399999999993
 30
0.0
  0
POINT
  5
45F
330
455
100
AcDbEntity
  8
Defpoints
 62
     0
100
AcDbPoint
 10
16.87500000000005
 20
31.00399999999993
 30
0.0
  0
POINT
  5
460
330
455
100
AcDbEntity
  8
Defpoints
 62
     0
100
AcDbPoint
 10
16.87500000000005
 20
58.0665
 30
0.0
  0
ENDBLK
  5
457
330
455
100
AcDbEntity
  8
0
100
AcDbBlockEnd
  0
BLOCK
  5
462
330
461
100
AcDbEntity
  8
0
100
AcDbBlockBegin
  2
*D25
 70
     1
 10
0.0
 20
0.0
 30
0.0
  3
*D25
  1
*D27
  0
LINE
  5
464
330
461
100
AcDbEntity
  8
치수문자_일반주서
 62
     0
370
    -2
100
AcDbLine
 10
17.81250000000006
 20
32.00399999999993
 30
0.0
 11
4.37500000000001
 21
32.00399999999988
 31
0.0
  0
LINE
  5
465
330
461
100
AcDbEntity
  8
치수문자_일반주서
 62
     0
370
    -2
100
AcDbLine
 10
17.81250000000006
 20
6.603999999999917
 30
0.0
 11
4.375000000000099
 21
6.603999999999868
 31
0.0
  0
LINE
  5
466
330
461
100
AcDbEntity
  8
치수문자_일반주서
 62
     0
370
    -2
100
AcDbLine
 10
4.375000000000021
 20
28.70199999999988
 30
0.0
 11
4.375000000000087
 21
9.905999999999867
 31
0.0
  0
SOLID
  5
467
330
461
100
AcDbEntity
  8
치수문자_일반주서
 62
     0
100
AcDbTrace
 10
4.925333333333355
 20
28.70199999999988
 30
0.0
 11
3.824666666666688
 21
28.70199999999987
 31
0.0
 12
4.37500000000001
 22
32.00399999999988
 32
0.0
 13
4.37500000000001
 23
32.00399999999988
 33
0.0
  0
SOLID
  5
468
330
461
100
AcDbEntity
  8
치수문자_일반주서
 62
     0
100
AcDbTrace
 10
3.824666666666753
 20
9.905999999999866
 30
0.0
 11
4.925333333333421
 21
9.90599999999987
 31
0.0
 12
4.375000000000099
 22
6.603999999999868
 32
0.0
 13
4.375000000000099
 23
6.603999999999868
 33
0.0
  0
MTEXT
  5
469
330
461
100
AcDbEntity
  8
치수문자_일반주서
 62
     0
100
AcDbMText
 10
0.0000000000000497
 20
20.50062735735915
 30
0.0
 40
3.5
 41
0.0
 71
     2
 72
     1
  1
\A1;%%c25.40 [1]
  7
SLDTEXTSTYLE0
 11
-3.496765431890256E-15
 21
1.0
 31
0.0
 73
     1
 44
1.0
  0
POINT
  5
46A
330
461
100
AcDbEntity
  8
Defpoints
 62
     0
100
AcDbPoint
 10
17.87500000000006
 20
32.00399999999993
 30
0.0
  0
POINT
  5
46B
330
461
100
AcDbEntity
  8
Defpoints
 62
     0
100
AcDbPoint
 10
17.87500000000006
 20
6.603999999999917
 30
0.0
  0
POINT
  5
46C
330
461
100
AcDbEntity
  8
Defpoints
 62
     0
100
AcDbPoint
 10
4.375000000000099
 20
6.603999999999867
 30
0.0
  0
ENDBLK
  5
463
330
461
100
AcDbEntity
  8
0
100
AcDbBlockEnd
  0
BLOCK
  5
46E
330
46D
100
AcDbEntity
  8
0
100
AcDbBlockBegin
  2
*D26
 70
     1
 10
0.0
 20
0.0
 30
0.0
  3
*D26
  1
*D28
  0
LINE
  5
470
330
46D
100
AcDbEntity
  8
치수문자_일반주서
 62
     0
370
    -2
100
AcDbLine
 10
137.5875
 20
32.00399999999993
 30
0.0
 11
155.6709635613874
 21
32.004
 31
0.0
  0
LINE
  5
471
330
46D
100
AcDbEntity
  8
치수문자_일반주서
 62
     0
370
    -2
100
AcDbLine
 10
137.5875000000001
 20
6.603999999999939
 30
0.0
 11
155.6709635613875
 21
6.604000000000006
 31
0.0
  0
LINE
  5
472
330
46D
100
AcDbEntity
  8
치수문자_일반주서
 62
     0
370
    -2
100
AcDbLine
 10
155.6709635613874
 20
32.004
 30
0.0
 11
155.6709635613873
 21
66.3046732202385
 31
0.0
  0
LINE
  5
473
330
46D
100
AcDbEntity
  8
치수문자_일반주서
 62
     0
370
    -2
100
AcDbLine
 10
155.6709635613874
 20
32.004
 30
0.0
 11
155.6709635613875
 21
6.604000000000006
 31
0.0
  0
LINE
  5
474
330
46D
100
AcDbEntity
  8
치수문자_일반주서
 62
     0
370
    -2
100
AcDbLine
 10
155.6709635613874
 20
35.306
 30
0.0
 11
155.6709635613874
 21
38.608
 31
0.0
  0
LINE
  5
475
330
46D
100
AcDbEntity
  8
치수문자_일반주서
 62
     0
370
    -2
100
AcDbLine
 10
155.6709635613875
 20
3.302000000000006
 30
0.0
 11
155.6709635613875
 21
0.0000000000000062
 31
0.0
  0
SOLID
  5
476
330
46D
100
AcDbEntity
  8
치수문자_일반주서
 62
     0
100
AcDbTrace
 10
155.1206302280541
 20
35.306
 30
0.0
 11
156.2212968947208
 21
35.306
 31
0.0
 12
155.6709635613874
 22
32.004
 32
0.0
 13
155.6709635613874
 23
32.004
 33
0.0
  0
SOLID
  5
477
330
46D
100
AcDbEntity
  8
치수문자_일반주서
 62
     0
100
AcDbTrace
 10
156.2212968947208
 20
3.302000000000008
 30
0.0
 11
155.1206302280542
 21
3.302000000000004
 31
0.0
 12
155.6709635613875
 22
6.604000000000006
 32
0.0
 13
155.6709635613875
 23
6.604000000000006
 33
0.0
  0
MTEXT
  5
478
330
46D
100
AcDbEntity
  8
치수문자_일반주서
 62
     0
100
AcDbMText
 10
151.2959635613873
 20
55.14842322023849
 30
0.0
 40
3.5
 41
0.0
 71
     2
 72
     1
  1
\A1;%%c25.40 [1]
  7
SLDTEXTSTYLE0
 11
-3.356894814614647E-15
 21
1.0
 31
0.0
 73
     1
 44
1.0
  0
POINT
  5
479
330
46D
100
AcDbEntity
  8
Defpoints
 62
     0
100
AcDbPoint
 10
137.525
 20
32.00399999999993
 30
0.0
  0
POINT
  5
47A
330
46D
100
AcDbEntity
  8
Defpoints
 62
     0
100
AcDbPoint
 10
137.5250000000001
 20
6.603999999999939
 30
0.0
  0
POINT
  5
47B
330
46D
100
AcDbEntity
  8
Defpoints
 62
     0
100
AcDbPoint
 10
155.6709635613875
 20
6.604000000000006
 30
0.0
  0
ENDBLK
  5
46F
330
46D
100
AcDbEntity
  8
0
100
AcDbBlockEnd
  0
BLOCK
  5
4AD
330
4AC
100
AcDbEntity
  8
0
100
AcDbBlockBegin
  2
*D27
 70
     1
 10
0.0
 20
0.0
 30
0.0
  3
*D27
  1
*D29
  0
LINE
  5
4AF
330
4AC
100
AcDbEntity
  8
치수문자_일반주서
 62
     0
370
    -2
100
AcDbLine
 10
60.73749999999992
 20
12.7625
 30
0.0
 11
60.73749999999992
 21
26.71493884240214
 31
0.0
  0
LINE
  5
4B0
330
4AC
100
AcDbEntity
  8
치수문자_일반주서
 62
     0
370
    -2
100
AcDbLine
 10
3.587499999999999
 20
12.76249999999999
 30
0.0
 11
3.587499999999999
 21
26.71493884240214
 31
0.0
  0
LINE
  5
4B1
330
4AC
100
AcDbEntity
  8
치수문자_일반주서
 62
     0
370
    -2
100
AcDbLine
 10
57.43549999999992
 20
26.71493884240214
 30
0.0
 11
6.889499999999998
 21
26.71493884240214
 31
0.0
  0
SOLID
  5
4B2
330
4AC
100
AcDbEntity
  8
치수문자_일반주서
 62
     0
100
AcDbTrace
 10
57.43549999999992
 20
26.16460550906881
 30
0.0
 11
57.43549999999992
 21
27.26527217573548
 31
0.0
 12
60.73749999999992
 22
26.71493884240214
 32
0.0
 13
60.73749999999992
 23
26.71493884240214
 33
0.0
  0
SOLID
  5
4B3
330
4AC
100
AcDbEntity
  8
치수문자_일반주서
 62
     0
100
AcDbTrace
 10
6.889499999999998
 20
27.26527217573548
 30
0.0
 11
6.889499999999998
 21
26.16460550906881
 31
0.0
 12
3.587499999999999
 22
26.71493884240214
 32
0.0
 13
3.587499999999999
 23
26.71493884240214
 33
0.0
  0
MTEXT
  5
4B4
330
4AC
100
AcDbEntity
  8
치수문자_일반주서
 62
     0
100
AcDbMText
 10
31.11187709985011
 20
31.08993884240214
 30
0.0
 40
3.5
 41
0.0
 71
     2
 72
     1
  1
\A1;57.15 [2 1/4]
  7
SLDTEXTSTYLE0
 73
     1
 44
1.0
  0
POINT
  5
4B5
330
4AC
100
AcDbEntity
  8
Defpoints
 62
     0
100
AcDbPoint
 10
60.73749999999992
 20
12.7
 30
0.0
  0
POINT
  5
4B6
330
4AC
100
AcDbEntity
  8
Defpoints
 62
     0
100
AcDbPoint
 10
3.587499999999999
 20
12.69999999999999
 30
0.0
  0
POINT
  5
4B7
330
4AC
100
AcDbEntity
  8
Defpoints
 62
     0
100
AcDbPoint
 10
3.587499999999999
 20
26.71493884240214
 30
0.0
  0
ENDBLK
  5
4AE
330
4AC
100
AcDbEntity
  8
0
100
AcDbBlockEnd
  0
BLOCK
  5
4B9
330
4B8
100
AcDbEntity
  8
0
100
AcDbBlockBegin
  2
*D28
 70
     1
 10
0.0
 20
0.0
 30
0.0
  3
*D28
  1
*D30
  0
LINE
  5
4BB
330
4B8
100
AcDbEntity
  8
치수문자_일반주서
 62
     0
370
    -2
100
AcDbLine
 10
60.73749999999998
 20
12.7625
 30
0.0
 11
60.73749999999997
 21
38.76250000000006
 31
0.0
  0
LINE
  5
4BC
330
4B8
100
AcDbEntity
  8
치수문자_일반주서
 62
     0
370
    -2
100
AcDbLine
 10
-59.91250000000001
 20
11.76249999999999
 30
0.0
 11
-59.91250000000002
 21
38.76250000000006
 31
0.0
  0
LINE
  5
4BD
330
4B8
100
AcDbEntity
  8
치수문자_일반주서
 62
     0
370
    -2
100
AcDbLine
 10
57.43549999999997
 20
38.76250000000006
 30
0.0
 11
-56.61050000000002
 21
38.76250000000006
 31
0.0
  0
SOLID
  5
4BE
330
4B8
100
AcDbEntity
  8
치수문자_일반주서
 62
     0
100
AcDbTrace
 10
57.43549999999997
 20
38.21216666666673
 30
0.0
 11
57.43549999999997
 21
39.31283333333339
 31
0.0
 12
60.73749999999997
 22
38.76250000000006
 32
0.0
 13
60.73749999999997
 23
38.76250000000006
 33
0.0
  0
SOLID
  5
4BF
330
4B8
100
AcDbEntity
  8
치수문자_일반주서
 62
     0
100
AcDbTrace
 10
-56.61050000000002
 20
39.31283333333339
 30
0.0
 11
-56.61050000000002
 21
38.21216666666673
 31
0.0
 12
-59.91250000000002
 22
38.76250000000006
 32
0.0
 13
-59.91250000000002
 23
38.76250000000006
 33
0.0
  0
MTEXT
  5
4C0
330
4B8
100
AcDbEntity
  8
치수문자_일반주서
 62
     0
100
AcDbMText
 10
0.4124999999999872
 20
43.13750000000006
 30
0.0
 40
3.5
 41
0.0
 71
     2
 72
     1
  1
\A1;120.65 [4 3/4]
  7
SLDTEXTSTYLE0
 73
     1
 44
1.0
  0
POINT
  5
4C1
330
4B8
100
AcDbEntity
  8
Defpoints
 62
     0
100
AcDbPoint
 10
60.73749999999998
 20
12.7
 30
0.0
  0
POINT
  5
4C2
330
4B8
100
AcDbEntity
  8
Defpoints
 62
     0
100
AcDbPoint
 10
-59.91250000000001
 20
11.69999999999999
 30
0.0
  0
POINT
  5
4C3
330
4B8
100
AcDbEntity
  8
Defpoints
 62
     0
100
AcDbPoint
 10
-59.91250000000001
 20
38.76250000000006
 30
0.0
  0
ENDBLK
  5
4BA
330
4B8
100
AcDbEntity
  8
0
100
AcDbBlockEnd
  0
BLOCK
  5
4C5
330
4C4
100
AcDbEntity
  8
0
100
AcDbBlockBegin
  2
*D29
 70
     1
 10
0.0
 20
0.0
 30
0.0
  3
*D29
  1
*D31
  0
LINE
  5
4C7
330
4C4
100
AcDbEntity
  8
치수문자_일반주서
 62
     0
370
    -2
100
AcDbLine
 10
-58.97499999999999
 20
12.69999999999999
 30
0.0
 11
-72.41250000000005
 21
12.69999999999994
 31
0.0
  0
LINE
  5
4C8
330
4C4
100
AcDbEntity
  8
치수문자_일반주서
 62
     0
370
    -2
100
AcDbLine
 10
-58.97499999999999
 20
-12.70000000000002
 30
0.0
 11
-72.41249999999997
 21
-12.70000000000007
 31
0.0
  0
LINE
  5
4C9
330
4C4
100
AcDbEntity
  8
치수문자_일반주서
 62
     0
370
    -2
100
AcDbLine
 10
-72.41250000000004
 20
9.397999999999941
 30
0.0
 11
-72.41249999999998
 21
-9.398000000000069
 31
0.0
  0
SOLID
  5
4CA
330
4C4
100
AcDbEntity
  8
치수문자_일반주서
 62
     0
100
AcDbTrace
 10
-71.86216666666671
 20
9.397999999999943
 30
0.0
 11
-72.96283333333336
 21
9.39799999999994
 31
0.0
 12
-72.41250000000005
 22
12.69999999999994
 32
0.0
 13
-72.41250000000005
 23
12.69999999999994
 33
0.0
  0
SOLID
  5
4CB
330
4C4
100
AcDbEntity
  8
치수문자_일반주서
 62
     0
100
AcDbTrace
 10
-72.96283333333331
 20
-9.39800000000007
 30
0.0
 11
-71.86216666666665
 21
-9.398000000000067
 31
0.0
 12
-72.41249999999997
 22
-12.70000000000007
 32
0.0
 13
-72.41249999999997
 23
-12.70000000000007
 33
0.0
  0
MTEXT
  5
4CC
330
4C4
100
AcDbEntity
  8
치수문자_일반주서
 62
     0
100
AcDbMText
 10
-76.78750000000001
 20
1.196627357359213
 30
0.0
 40
3.5
 41
0.0
 71
     2
 72
     1
  1
\A1;%%c25.40 [1]
  7
SLDTEXTSTYLE0
 11
-3.356894814614645E-15
 21
1.0
 31
0.0
 73
     1
 44
1.0
  0
POINT
  5
4CD
330
4C4
100
AcDbEntity
  8
Defpoints
 62
     0
100
AcDbPoint
 10
-58.91249999999999
 20
12.69999999999999
 30
0.0
  0
POINT
  5
4CE
330
4C4
100
AcDbEntity
  8
Defpoints
 62
     0
100
AcDbPoint
 10
-58.91249999999999
 20
-12.70000000000002
 30
0.0
  0
POINT
  5
4CF
330
4C4
100
AcDbEntity
  8
Defpoints
 62
     0
100
AcDbPoint
 10
-72.41249999999997
 20
-12.70000000000007
 30
0.0
  0
ENDBLK
  5
4C6
330
4C4
100
AcDbEntity
  8
0
100
AcDbBlockEnd
  0
BLOCK
  5
4D1
330
4D0
100
AcDbEntity
  8
0
100
AcDbBlockBegin
  2
*D30
 70
     1
 10
0.0
 20
0.0
 30
0.0
  3
*D30
  1
*D32
  0
LINE
  5
4D3
330
4D0
100
AcDbEntity
  8
치수문자_일반주서
 62
     0
370
    -2
100
AcDbLine
 10
60.8
 20
14.2875
 30
0.0
 11
78.88346356138734
 21
14.28750000000007
 31
0.0
  0
LINE
  5
4D4
330
4D0
100
AcDbEntity
  8
치수문자_일반주서
 62
     0
370
    -2
100
AcDbLine
 10
60.8
 20
-14.2875
 30
0.0
 11
78.88346356138744
 21
-14.28749999999993
 31
0.0
  0
LINE
  5
4D5
330
4D0
100
AcDbEntity
  8
치수문자_일반주서
 62
     0
370
    -2
100
AcDbLine
 10
78.88346356138734
 20
14.28750000000007
 30
0.0
 11
78.8834635613872
 21
54.14150000000006
 31
0.0
  0
LINE
  5
4D6
330
4D0
100
AcDbEntity
  8
치수문자_일반주서
 62
     0
370
    -2
100
AcDbLine
 10
78.88346356138734
 20
14.28750000000007
 30
0.0
 11
78.88346356138744
 21
-14.28749999999993
 31
0.0
  0
LINE
  5
4D7
330
4D0
100
AcDbEntity
  8
치수문자_일반주서
 62
     0
370
    -2
100
AcDbLine
 10
78.88346356138733
 20
17.58950000000007
 30
0.0
 11
78.88346356138732
 21
20.89150000000007
 31
0.0
  0
LINE
  5
4D8
330
4D0
100
AcDbEntity
  8
치수문자_일반주서
 62
     0
370
    -2
100
AcDbLine
 10
78.88346356138746
 20
-17.58949999999993
 30
0.0
 11
78.88346356138747
 21
-20.89149999999993
 31
0.0
  0
SOLID
  5
4D9
330
4D0
100
AcDbEntity
  8
치수문자_일반주서
 62
     0
100
AcDbTrace
 10
78.333130228054
 20
17.58950000000006
 30
0.0
 11
79.43379689472066
 21
17.58950000000007
 31
0.0
 12
78.88346356138734
 22
14.28750000000007
 32
0.0
 13
78.88346356138734
 23
14.28750000000007
 33
0.0
  0
SOLID
  5
4DA
330
4D0
100
AcDbEntity
  8
치수문자_일반주서
 62
     0
100
AcDbTrace
 10
79.43379689472079
 20
-17.58949999999993
 30
0.0
 11
78.33313022805413
 21
-17.58949999999993
 31
0.0
 12
78.88346356138744
 22
-14.28749999999993
 32
0.0
 13
78.88346356138744
 23
-14.28749999999993
 33
0.0
  0
MTEXT
  5
4DB
330
4D0
100
AcDbEntity
  8
치수문자_일반주서
 62
     0
100
AcDbMText
 10
74.50846356138726
 20
37.95400000000005
 30
0.0
 40
3.5
 41
0.0
 71
     2
 72
     1
  1
\A1;%%c28.58 [1 1/8]
  7
SLDTEXTSTYLE0
 11
-3.481224252192967E-15
 21
1.0
 31
0.0
 73
     1
 44
1.0
  0
POINT
  5
4DC
330
4D0
100
AcDbEntity
  8
Defpoints
 62
     0
100
AcDbPoint
 10
60.7375
 20
14.2875
 30
0.0
  0
POINT
  5
4DD
330
4D0
100
AcDbEntity
  8
Defpoints
 62
     0
100
AcDbPoint
 10
60.7375
 20
-14.2875
 30
0.0
  0
POINT
  5
4DE
330
4D0
100
AcDbEntity
  8
Defpoints
 62
     0
100
AcDbPoint
 10
78.88346356138746
 20
-14.28749999999993
 30
0.0
  0
ENDBLK
  5
4D2
330
4D0
100
AcDbEntity
  8
0
100
AcDbBlockEnd
  0
ENDSEC
  0
SECTION
  2
ENTITIES
  0
LINE
  5
A8
330
1F
100
AcDbEntity
  8
참조1
100
AcDbLine
 10
3.261761314031135
 20
0.001074928723891
 30
0.0
 11
3.261761314031144
 21
-39.99892507127611
 31
0.0
  0
LINE
  5
A9
330
1F
100
AcDbEntity
  8
참조1
100
AcDbLine
 10
63.58676131403114
 20
0.001074928723891
 30
0.0
 11
63.58676131403114
 21
4.27472672319879
 31
0.0
  0
LINE
  5
AA
330
1F
100
AcDbEntity
  8
참조1
100
AcDbLine
 10
3.261761314031144
 20
-39.99892507127611
 30
0.0
 11
-28.56584550027751
 21
-39.9989250712761
 31
0.0
  0
INSERT
  5
AC
330
1F
100
AcDbEntity
  8
0
  6
Continuous
 62
     7
100
AcDbBlockReference
 66
     1
  2
블럭10
 10
-10.67851161809407
 20
-52.04609937292004
 30
0.0
  0
ATTRIB
  5
AD
330
AC
100
AcDbEntity
  8
FORMAT
 62
     2
100
AcDbText
 10
-19.85980690683535
 20
-49.97073246008785
 30
0.0
 40
4.233333333333333
  1
E2110108 [ 2 FLUTE ]
 41
0.75
  7
SLDTEXTSTYLE0
 11
-19.85980690683535
 21
-52.08739912675452
 31
0.0
100
AcDbAttribute
  2
AUTOATTR0
 70
     0
 74
     1
  0
SEQEND
  5
AE
330
AC
100
AcDbEntity
  8
0
  6
Continuous
 62
     7
  0
HATCH
  5
AF
330
1F
100
AcDbEntity
  8
중심선
100
AcDbHatch
 10
0.0
 20
0.0
 30
0.0
210
0.0
220
0.0
230
1.0
  2
SOLID
 70
     1
 71
     0
 91
        1
 92
        0
 93
        4
 72
     1
 10
-4.963602313713231
 20
-35.7989250712761
 11
-8.409877557550514
 21
-35.7989250712761
 72
     1
 10
-8.409877557550514
 20
-35.7989250712761
 11
-10.53810741675454
 21
-38.3352506518487
 72
     1
 10
-10.53810741675454
 20
-38.3352506518487
 11
-7.091799087804105
 21
-38.33521122254621
 72
     1
 10
-7.091799087804105
 20
-38.33521122254621
 11
-4.963602313713231
 21
-35.7989250712761
 97
        0
 75
     0
 76
     1
 98
        1
 10
-8.412500000000016
 20
0.0000000000000018
  0
HATCH
  5
B0
330
1F
100
AcDbEntity
  8
중심선
100
AcDbHatch
 10
0.0
 20
0.0
 30
0.0
210
0.0
220
0.0
230
1.0
  2
SOLID
 70
     1
 71
     0
 91
        1
 92
        0
 93
        4
 72
     1
 10
0.0491616773227186
 20
-35.79892507127613
 11
-3.397113566514536
 21
-35.79892507127608
 72
     1
 10
-3.397113566514536
 20
-35.79892507127608
 11
-7.92825157487195
 21
-41.19892507127612
 72
     1
 10
-7.928251574871951
 20
-41.19892507127612
 11
-4.481976331034669
 21
-41.19892507127612
 72
     1
 10
-4.481976331034669
 20
-41.19892507127612
 11
0.0491616773227186
 21
-35.79892507127613
 97
        0
 75
     0
 76
     1
 98
        1
 10
-8.412500000000016
 20
0.0000000000000018
  0
HATCH
  5
B1
330
1F
100
AcDbEntity
  8
중심선
100
AcDbHatch
 10
0.0
 20
0.0
 30
0.0
210
0.0
220
0.0
230
1.0
  2
SOLID
 70
     1
 71
     0
 91
        1
 92
        0
 93
        4
 72
     1
 10
5.061925668358674
 20
-35.79892507127608
 11
1.615650424521554
 21
-35.79892507127608
 72
     1
 10
1.615650424521554
 20
-35.79892507127608
 11
-5.432786477367749
 21
-44.19892507127612
 72
     1
 10
-5.432786477367749
 20
-44.19892507127612
 11
-1.986511233530468
 21
-44.19892507127612
 72
     1
 10
-1.986511233530468
 20
-44.19892507127612
 11
5.061925668358674
 21
-35.79892507127608
 97
        0
 75
     0
 76
     1
 98
        1
 10
-8.412500000000016
 20
0.0000000000000018
  0
HATCH
  5
B2
330
1F
100
AcDbEntity
  8
중심선
100
AcDbHatch
 10
0.0
 20
0.0
 30
0.0
210
0.0
220
0.0
230
1.0
  2
SOLID
 70
     1
 71
     0
 91
        1
 92
        0
 93
        6
 72
     3
 10
9.861816099370813
 20
-39.99892507132738
 11
3.960054785062283
 21
1.540882976769353E-10
 40
0.3939339440162628
 50
17.09539180608436
 51
320.0019657685075
 73
     0
 72
     1
 10
11.54481575507141
 20
-38.58681907591438
 11
13.85011762877247
 21
-36.65249236586649
 72
     3
 10
9.861816099317963
 20
-39.99892507127625
 11
6.600054785286829
 21
-1.278976924368180E-13
 40
0.636358354079598
 50
39.99873849337385
 51
368.4976242363724
 73
     1
 72
     1
 10
16.28714859121857
 20
-39.03892507120613
 11
8.541883406153914
 21
-39.03892507120613
 72
     1
 10
8.541883406153914
 20
-39.03892507120613
 11
8.541858361707956
 21
-40.95892507120602
 72
     1
 10
8.541858361707956
 20
-40.95892507120602
 11
12.98323813117999
 21
-40.95892507120599
 97
        0
 75
     0
 76
     1
 98
        1
 10
-8.412500000000016
 20
0.0000000000000018
  0
LINE
  5
103
330
1F
100
AcDbEntity
  8
참조1
100
AcDbLine
 10
69.40649512937674
 20
7.441074928723898
 30
0.0
 11
69.40649512937674
 21
-7.438925071276107
 31
0.0
  0
LINE
  5
104
330
1F
100
AcDbEntity
  8
참조1
100
AcDbLine
 10
82.10649512937675
 20
5.441074928723898
 30
0.0
 11
69.40649512937674
 21
5.441074928723898
 31
0.0
  0
SOLID
  5
105
330
1F
100
AcDbEntity
  8
참조1
100
AcDbTrace
 10
69.40649512937674
 20
5.441074928723898
 30
0.0
 11
75.75649512937673
 21
4.425074928723898
 31
0.0
 12
75.75649512937673
 22
6.457074928723898
 32
0.0
 13
75.75649512937673
 23
6.457074928723898
 33
0.0
  0
LINE
  5
106
330
1F
100
AcDbEntity
  8
참조1
100
AcDbLine
 10
82.10649512937675
 20
-5.438925071276107
 30
0.0
 11
69.40649512937674
 21
-5.438925071276107
 31
0.0
  0
SOLID
  5
107
330
1F
100
AcDbEntity
  8
참조1
100
AcDbTrace
 10
69.40649512937674
 20
-5.438925071276107
 30
0.0
 11
75.75649512937673
 21
-6.454925071276107
 31
0.0
 12
75.75649512937673
 22
-4.422925071276107
 32
0.0
 13
75.75649512937673
 23
-4.422925071276107
 33
0.0
  0
MTEXT
  5
108
330
1F
100
AcDbEntity
  8
참조1
100
AcDbMText
 10
78.79084526200273
 20
11.01136670591222
 30
0.0
 40
3.5
 41
0.0
 71
     1
 72
     1
  1
A
  7
SLDTEXTSTYLE0
 73
     1
 44
1.0
  0
MTEXT
  5
109
330
1F
100
AcDbEntity
  8
참조1
100
AcDbMText
 10
78.79084526200273
 20
0.131366705912221
 30
0.0
 40
3.5
 41
0.0
 71
     1
 72
     1
  1
A
  7
SLDTEXTSTYLE0
 73
     1
 44
1.0
  0
LINE
  5
47D
330
1F
100
AcDbEntity
  8
외형선
  6
Continuous
370
    15
100
AcDbLine
 10
2.0
 20
12.7
 30
0.0
 11
-21.54492499999996
 21
12.7
 31
0.0
  0
LINE
  5
47E
330
1F
100
AcDbEntity
  8
외형선
  6
Continuous
370
    15
100
AcDbLine
 10
-58.91250000000001
 20
-12.7
 30
0.0
 11
2.0
 21
-12.7
 31
0.0
  0
LINE
  5
47F
330
1F
100
AcDbEntity
  8
외형선
  6
Continuous
370
    15
100
AcDbLine
 10
-59.91250000000001
 20
-11.7
 30
0.0
 11
-58.91250000000001
 21
-12.7
 31
0.0
  0
LINE
  5
480
330
1F
100
AcDbEntity
  8
0
  6
Continuous
 62
     1
370
    15
100
AcDbLine
 10
43.59211244211434
 20
-14.2875
 30
0.0
 11
46.45000000000001
 21
-14.2875
 31
0.0
  0
ARC
  5
482
330
1F
100
AcDbEntity
  8
0
  6
Continuous
 62
     1
370
    15
100
AcDbCircle
 10
46.45000000000001
 20
0.0000000000000018
 30
0.0
 40
14.2875
100
AcDbArc
 50
270.0000000000007
 51
0.0
  0
ARC
  5
483
330
1F
100
AcDbEntity
  8
0
  6
Continuous
 62
     1
370
    15
100
AcDbCircle
 10
46.45000000000001
 20
0.0000000000000018
 30
0.0
 40
14.2875
100
AcDbArc
 50
0.0
 51
90.0
  0
LINE
  5
485
330
1F
100
AcDbEntity
  8
0
  6
Continuous
 62
     1
370
    15
100
AcDbLine
 10
46.45000000000001
 20
14.2875
 30
0.0
 11
43.59280757105659
 21
14.2875
 31
0.0
  0
LINE
  5
48A
330
1F
100
AcDbEntity
  8
외형선
  6
Continuous
370
    15
100
AcDbLine
 10
-58.91250000000001
 20
10.79499999999998
 30
0.0
 11
-58.91250000000001
 21
-12.70000000000001
 31
0.0
  0
LINE
  5
48C
330
1F
100
AcDbEntity
  8
외형선
  6
Continuous
370
    15
100
AcDbLine
 10
-59.91250000000001
 20
10.79499999999998
 30
0.0
 11
-59.91250000000001
 21
-11.7
 31
0.0
  0
SPLINE
  5
490
330
1F
100
AcDbEntity
  8
0
  6
Continuous
 62
     1
370
    15
100
AcDbSpline
210
0.0
220
0.0
230
1.0
 70
     8
 71
     3
 72
    13
 73
     9
 74
     0
 42
0.000000001
 43
0.00000001
 40
0.0
 40
0.0
 40
0.0
 40
0.0
 40
0.0209754880787966
 40
0.1791538491371405
 40
0.3373332664960744
 40
0.4955135060660323
 40
0.6636783127000958
 40
0.7330573983059793
 40
0.7330573983059793
 40
0.7330573983059793
 40
0.7330573983059793
 10
23.20478257137778
 20
-9.699126269851998
 30
0.0
 10
23.01767701836814
 20
-9.708355152765789
 30
0.0
 10
21.41958881700261
 20
-9.787180012098299
 30
0.0
 10
18.41050803848226
 20
-9.664752697713435
 30
0.0
 10
14.17751576016513
 20
-9.313595418215249
 30
0.0
 10
9.855497563279595
 20
-8.65007998089852
 30
0.0
 10
6.325405969548978
 20
-7.894345036221666
 30
0.0
 10
4.206395156761737
 20
-7.35944179761271
 30
0.0
 10
3.587500000000018
 20
-7.196119386531653
 30
0.0
  0
SPLINE
  5
492
330
1F
100
AcDbEntity
  8
0
  6
Continuous
 62
     1
370
    15
100
AcDbSpline
210
0.0
220
0.0
230
1.0
 70
     8
 71
     3
 72
    26
 73
    22
 74
     0
 42
0.000000001
 43
0.00000001
 40
0.1515041154001096
 40
0.1515041154001096
 40
0.1515041154001096
 40
0.1515041154001096
 40
0.1611771667142562
 40
0.2152777680339721
 40
0.2687466577185522
 40
0.3223546143790177
 40
0.3659778319753439
 40
0.4096010515788745
 40
0.4535281744439534
 40
0.4974553018748833
 40
0.540996280926076
 40
0.5845372611765666
 40
0.6283803644593866
 40
0.6722234713504341
 40
0.7197580538560864
 40
0.7672926688483638
 40
0.8152208636580461
 40
0.8631490823260782
 40
0.912297563658432
 40
0.9614460629920947
 40
1.0
 40
1.0
 40
1.0
 40
1.0
 10
3.587500000000066
 20
0.6543569206088604
 30
0.0
 10
3.739538482827326
 20
0.5667200678560449
 30
0.0
 10
4.74190731616482
 20
-0.0113271056497727
 30
0.0
 10
6.584542568330267
 20
-1.076424618276757
 30
0.0
 10
9.117032244955077
 20
-2.530108665019557
 30
0.0
 10
11.48589152379791
 20
-3.863086849818933
 30
0.0
 10
13.69939388826594
 20
-5.076986142215349
 30
0.0
 10
15.76094687370564
 20
-6.172020134310527
 30
0.0
 10
17.82714861761809
 20
-7.226930759781986
 30
0.0
 10
19.89217184838328
 20
-8.230470943038956
 30
0.0
 10
21.95105298495401
 20
-9.174224582756255
 30
0.0
 10
24.00867542121389
 20
-10.0539374258024
 30
0.0
 10
26.07094013242938
 20
-10.86622578850067
 30
0.0
 10
28.19616835690329
 20
-11.62501956921306
 30
0.0
 10
30.37889075426413
 20
-12.31601317259443
 30
0.0
 10
32.626580178563
 20
-12.92552037964766
 30
0.0
 10
34.87974227311486
 20
-13.42985224226533
 30
0.0
 10
37.15897270035159
 20
-13.82787332179375
 30
0.0
 10
39.45681593542766
 20
-14.10656494053359
 30
0.0
 10
41.60784752565178
 20
-14.26670287207516
 30
0.0
 10
42.98619273630637
 20
-14.2734324395178
 30
0.0
 10
43.59211244211434
 20
-14.27639075322147
 30
0.0
  0
SPLINE
  5
493
330
1F
100
AcDbEntity
  8
0
  6
Continuous
 62
     1
370
    15
100
AcDbSpline
210
0.0
220
0.0
230
1.0
 70
     8
 71
     3
 72
    17
 73
    13
 74
     0
 42
0.000000001
 43
0.00000001
 40
0.0
 40
0.0
 40
0.0
 40
0.0
 40
0.0807346126101078
 40
0.161469268381676
 40
0.2422039988449459
 40
0.3229388355252745
 40
0.4036738099410709
 40
0.4844089536017383
 40
0.5651442980056124
 40
0.639151429716117
 40
0.7131667331665085
 40
0.7230706851959178
 40
0.7230706851959178
 40
0.7230706851959178
 40
0.7230706851959178
 10
46.45000000000001
 20
-5.973447384048034
 30
0.0
 10
45.11658590262937
 20
-5.259045309256617
 30
0.0
 10
42.44975699503275
 20
-3.830240777747915
 30
0.0
 10
38.44951172751357
 20
-1.545427928529771
 30
0.0
 10
34.44926145710412
 20
0.7684990706527612
 30
0.0
 10
30.44900700731229
 20
3.065386533879945
 30
0.0
 10
26.44873638609963
 20
5.281540005672609
 30
0.0
 10
22.44848549453616
 20
7.360211671267175
 30
0.0
 10
18.55924121640432
 20
9.194445278816593
 30
0.0
 10
14.78135806185534
 20
10.75830643388357
 30
0.0
 10
12.17310855191074
 20
11.66974071167557
 30
0.0
 10
10.78711072010955
 20
12.09796182523393
 30
0.0
 10
10.62353824396305
 20
12.14770516086351
 30
0.0
  0
SPLINE
  5
494
330
1F
100
AcDbEntity
  8
0
  6
Continuous
 62
     1
370
    15
100
AcDbSpline
210
0.0
220
0.0
230
1.0
 70
     8
 71
     3
 72
    17
 73
    13
 74
     0
 42
0.000000001
 43
0.00000001
 40
0.0
 40
0.0
 40
0.0
 40
0.0
 40
0.1110744515291922
 40
0.2221494651293663
 40
0.3332321376985408
 40
0.44085944526753
 40
0.5484882658127961
 40
0.6561184408731974
 40
0.7637498117718409
 40
0.8713822196412687
 40
0.9790155054487021
 40
0.9999999999999999
 40
0.9999999999999999
 40
0.9999999999999999
 40
0.9999999999999999
 10
56.91263731775148
 20
1.497646767262759
 30
0.0
 10
55.45655431305561
 20
2.058871937919569
 30
0.0
 10
52.54438093543485
 20
3.181325119205647
 30
0.0
 10
48.17602835178061
 20
4.753677797052644
 30
0.0
 10
43.85280586038816
 20
6.166784594839007
 30
0.0
 10
39.57480706833421
 20
7.378806489932344
 30
0.0
 10
35.34204755268487
 20
8.363368542238089
 30
0.0
 10
31.10923327263775
 20
9.102024846874912
 30
0.0
 10
26.876366418778
 20
9.581611824462753
 30
0.0
 10
22.6434548366129
 20
9.757083866597863
 30
0.0
 10
19.54640971857953
 20
9.743926939902485
 30
0.0
 10
17.86033530362568
 20
9.588015308068629
 30
0.0
 10
17.58524565991546
 20
9.562577714762506
 30
0.0
  0
SPLINE
  5
495
330
1F
100
AcDbEntity
  8
0
  6
Continuous
 62
     1
370
    15
100
AcDbSpline
210
0.0
220
0.0
230
1.0
 70
     8
 71
     3
 72
    38
 73
    34
 74
     0
 42
0.000000001
 43
0.00000001
 40
0.0
 40
0.0
 40
0.0
 40
0.0
 40
0.1250000000000012
 40
0.1250000000000012
 40
0.1875000000000018
 40
0.1875000000000018
 40
0.2500000000000023
 40
0.2500000000000023
 40
0.3750000000000026
 40
0.3750000000000026
 40
0.4375000000000028
 40
0.4375000000000028
 40
0.4687500000000029
 40
0.4687500000000029
 40
0.500000000000003
 40
0.500000000000003
 40
0.5625000000000023
 40
0.5625000000000023
 40
0.6250000000000016
 40
0.6250000000000016
 40
0.6875000000000009
 40
0.6875000000000009
 40
0.7187500000000008
 40
0.7187500000000008
 40
0.7500000000000006
 40
0.7500000000000006
 40
0.8125000000000004
 40
0.8125000000000004
 40
0.8750000000000003
 40
0.8750000000000003
 40
0.9375000000000001
 40
0.9375000000000001
 40
1.0
 40
1.0
 40
1.0
 40
1.0
 10
46.44999999999999
 20
-5.973447384048056
 30
0.0
 10
47.24366553868578
 20
-6.389226311683514
 30
0.0
 10
48.02435862817952
 20
-6.762209174162765
 30
0.0
 10
49.1922638155789
 20
-7.234262662889672
 30
0.0
 10
49.58123686313706
 20
-7.376617795771873
 30
0.0
 10
50.36165462833475
 20
-7.625439453444147
 30
0.0
 10
50.75486243356091
 20
-7.732143691411363
 30
0.0
 10
51.91829826408233
 20
-7.980808528829095
 30
0.0
 10
52.67811351118444
 20
-8.05768085962979
 30
0.0
 10
53.82140357949901
 20
-7.972782276694121
 30
0.0
 10
54.1956103618469
 20
-7.910907901763776
 30
0.0
 10
54.74673564064735
 20
-7.758814858485378
 30
0.0
 10
54.92888027932165
 20
-7.698169625662512
 30
0.0
 10
55.29046873711041
 20
-7.554332612003697
 30
0.0
 10
55.47065140816554
 20
-7.47064302785838
 30
0.0
 10
55.99617654068148
 20
-7.18676131370645
 30
0.0
 10
56.3298721314552
 20
-6.953679228753531
 30
0.0
 10
56.96176170004767
 20
-6.375660945064746
 30
0.0
 10
57.24585788138705
 20
-6.043046191746194
 30
0.0
 10
57.74115384054662
 20
-5.280680543468059
 30
0.0
 10
57.94012081138901
 20
-4.868735060115487
 30
0.0
 10
58.16086784116623
 20
-4.215530997435843
 30
0.0
 10
58.22059368721786
 20
-3.99378930998719
 30
0.0
 10
58.31149958569184
 20
-3.553170476074698
 30
0.0
 10
58.34323948668852
 20
-3.332642982266258
 30
0.0
 10
58.39953384552796
 20
-2.669960798997152
 30
0.0
 10
58.38415627328839
 20
-2.243153555763417
 30
0.0
 10
58.27010014871164
 20
-1.416847636408725
 30
0.0
 10
58.16993281760579
 20
-1.01442928155911
 30
0.0
 10
57.90746129652133
 20
-0.2519003357299257
 30
0.0
 10
57.74469176846359
 20
0.1125000186095892
 30
0.0
 10
57.36642322839014
 20
0.8198957141165413
 30
0.0
 10
57.15007966266584
 20
1.163707860934994
 30
0.0
 10
56.91263731774259
 20
1.49764676726624
 30
0.0
  0
SPLINE
  5
496
330
1F
100
AcDbEntity
  8
0
  6
Continuous
 62
     1
370
    15
100
AcDbSpline
210
0.0
220
0.0
230
1.0
 70
     8
 71
     3
 72
    14
 73
    10
 74
     0
 42
0.000000001
 43
0.00000001
 40
0.0
 40
0.0
 40
0.0
 40
0.0
 40
0.25
 40
0.25
 40
0.5
 40
0.5
 40
0.75
 40
0.75
 40
1.0
 40
1.0
 40
1.0
 40
1.0
 10
56.91263731774253
 20
1.497646767266256
 30
0.0
 10
57.07699736649089
 20
1.596544460616466
 30
0.0
 10
57.22339861689247
 20
1.71922474430772
 30
0.0
 10
57.48017838127586
 20
2.013502791615414
 30
0.0
 10
57.59139786978211
 20
2.187898184275308
 30
0.0
 10
57.7667837915543
 20
2.570013959429968
 30
0.0
 10
57.83239618079168
 20
2.778230530694941
 30
0.0
 10
57.9221649263004
 20
3.225527022901314
 30
0.0
 10
57.94526212846625
 20
3.460917534595253
 30
0.0
 10
57.94925156856822
 20
3.700322388195288
 30
0.0
  0
ARC
  5
497
330
1F
100
AcDbEntity
  8
0
  6
Continuous
 62
     1
370
    15
100
AcDbCircle
 10
53.90187326869457
 20
-2.483637130843542
 30
0.0
 40
7.390712173762473
100
AcDbArc
 50
23.84124834803085
 51
56.7954034745663
  0
ARC
  5
498
330
1F
100
AcDbEntity
  8
0
  6
Continuous
 62
     1
370
    15
100
AcDbCircle
 10
47.88941322541816
 20
0.2662393220616419
 30
0.0
 40
12.77472220973004
100
AcDbArc
 50
1.06517224549801
 51
71.16094673361447
  0
SPLINE
  5
499
330
1F
100
AcDbEntity
  8
0
  6
Continuous
 62
     1
370
    15
100
AcDbSpline
210
0.0
220
0.0
230
1.0
 70
     8
 71
     3
 72
    12
 73
     8
 74
     0
 42
0.000000001
 43
0.00000001
 40
0.0
 40
0.0
 40
0.0
 40
0.0
 40
0.2500000000000008
 40
0.2500000000000008
 40
0.5000000000000016
 40
0.5000000000000016
 40
1.0
 40
1.0
 40
1.0
 40
1.0
 10
52.01450981288259
 20
12.35661175966085
 30
0.0
 10
51.57248972368823
 20
12.62615579176173
 30
0.0
 10
51.12236068523166
 20
12.86721899795551
 30
0.0
 10
50.21462143372909
 20
13.29037086729624
 30
0.0
 10
49.75579080648543
 20
13.47319606279127
 30
0.0
 10
48.36352325169775
 20
13.93537332667204
 30
0.0
 10
47.40817339930707
 20
14.1286857195717
 30
0.0
 10
46.44999999999999
 20
14.19235112276831
 30
0.0
  0
SPLINE
  5
49A
330
1F
100
AcDbEntity
  8
0
  6
Continuous
 62
     1
370
    15
100
AcDbSpline
210
0.0
220
0.0
230
1.0
 70
     8
 71
     3
 72
    10
 73
     6
 74
     0
 42
0.000000001
 43
0.00000001
 40
0.0
 40
0.0
 40
0.0
 40
0.0
 40
0.5
 40
0.5
 40
1.0
 40
1.0
 40
1.0
 40
1.0
 10
49.11487806005638
 20
6.395801150638979
 30
0.0
 10
50.56711723831585
 20
5.992184941914379
 30
0.0
 10
52.03170243141933
 20
5.563279726598964
 30
0.0
 10
54.98232382726753
 20
4.661530038559592
 30
0.0
 10
56.46494301437496
 20
4.189693717827393
 30
0.0
 10
57.94925156856829
 20
3.700322388195416
 30
0.0
  0
SPLINE
  5
49B
330
1F
100
AcDbEntity
  8
0
  6
Continuous
 62
     1
370
    15
100
AcDbSpline
210
0.0
220
0.0
230
1.0
 70
     8
 71
     3
 72
    18
 73
    14
 74
     0
 42
0.000000001
 43
0.00000001
 40
0.0
 40
0.0
 40
0.0
 40
0.0
 40
0.0343737117991652
 40
0.1232233714814963
 40
0.2122282297946178
 40
0.3085441016925287
 40
0.4050577699804072
 40
0.5021696476310038
 40
0.5994841038288021
 40
0.6990632837679133
 40
0.7988607301519252
 40
0.8993184095919928
 40
0.9999999999999999
 40
0.9999999999999999
 40
0.9999999999999999
 40
0.9999999999999999
 10
23.20493093103638
 20
9.699119473252711
 30
0.0
 10
23.47125251384691
 20
9.813968032867598
 30
0.0
 10
24.42596591587748
 20
10.22567878462537
 30
0.0
 10
26.0705844733313
 20
10.86305063064935
 30
0.0
 10
28.1945665597733
 20
11.62555111828759
 30
0.0
 10
30.37886069054967
 20
12.31496801669274
 30
0.0
 10
32.6245943099109
 20
12.92542256064346
 30
0.0
 10
34.87996668873661
 20
13.42937334954207
 30
0.0
 10
37.15684483546928
 20
13.82704646951285
 30
0.0
 10
39.45695276051723
 20
14.10922629727215
 30
0.0
 10
41.77913892330488
 20
14.26877898083239
 30
0.0
 10
44.11165116036305
 20
14.31126686051113
 30
0.0
 10
45.66997213875936
 20
14.23201910857397
 30
0.0
 10
46.44999999999999
 20
14.19235112276831
 30
0.0
  0
SPLINE
  5
49C
330
1F
100
AcDbEntity
  8
0
  6
Continuous
 62
     1
370
    15
100
AcDbSpline
210
0.0
220
0.0
230
1.0
 70
     8
 71
     3
 72
    20
 73
    16
 74
     0
 42
0.000000001
 43
0.00000001
 40
0.0
 40
0.0
 40
0.0
 40
0.0
 40
0.2500000000000006
 40
0.2500000000000006
 40
0.3750000000000005
 40
0.3750000000000005
 40
0.5000000000000004
 40
0.5000000000000004
 40
0.6250000000000004
 40
0.6250000000000004
 40
0.7500000000000002
 40
0.7500000000000002
 40
0.8750000000000001
 40
0.8750000000000001
 40
1.0
 40
1.0
 40
1.0
 40
1.0
 10
52.01450981288266
 20
12.35661175966085
 30
0.0
 10
52.11586732786223
 20
11.75683038434096
 30
0.0
 10
52.16142511006627
 20
11.14656945420271
 30
0.0
 10
52.09497288470016
 20
10.21897417758213
 30
0.0
 10
52.05036699848943
 20
9.914933148965273
 30
0.0
 10
51.90840173396676
 20
9.318967277347841
 30
0.0
 10
51.80924976555999
 20
9.023632782254223
 30
0.0
 10
51.55725079517885
 20
8.469264885267712
 30
0.0
 10
51.40512418275949
 20
8.20956903913994
 30
0.0
 10
51.04775049287073
 20
7.725733346683313
 30
0.0
 10
50.84117607032052
 20
7.501549281221712
 30
0.0
 10
50.3968793518108
 20
7.107354395923322
 30
0.0
 10
50.15645978524662
 20
6.933698151060149
 30
0.0
 10
49.64751642111928
 20
6.630033205220716
 30
0.0
 10
49.38456654551855
 20
6.503044183073499
 30
0.0
 10
49.11487806005639
 20
6.395801150638992
 30
0.0
  0
LINE
  5
49F
330
1F
100
AcDbEntity
  8
중심선
100
AcDbLine
 10
-62.91250000000001
 20
-0.0000000000000053
 30
0.0
 11
63.73750000000003
 21
0.0000000000000089
 31
0.0
  0
CIRCLE
  5
4A0
330
1F
100
AcDbEntity
  8
해칭선
100
AcDbCircle
 10
0.0
 20
0.0
 30
0.0
 40
3.000000000000003
  0
DIMENSION
  5
4A1
330
1F
100
AcDbEntity
  8
치수문자_일반주서
100
AcDbDimension
  2
*D27
 10
3.587499999999999
 20
26.71493884240214
 30
0.0
 11
31.11187709985011
 21
26.71493884240214
 31
0.0
 70
   160
  1
<>
 71
     2
 42
57.14999999999992
  3
SLDDIMSTYLE1
100
AcDbAlignedDimension
 13
60.73749999999992
 23
12.7
 33
0.0
 14
3.587499999999999
 24
12.69999999999999
 34
0.0
 50
0.0000000000000036
100
AcDbRotatedDimension
1001
ACAD
1000
DSTYLE
1002
{
1070
   171
1070
     6
1070
   273
1070
     7
1002
}
  0
DIMENSION
  5
4A2
330
1F
100
AcDbEntity
  8
치수문자_일반주서
100
AcDbDimension
  2
*D28
 10
-59.91250000000002
 20
38.76250000000006
 30
0.0
 11
0.4124999999999872
 21
38.76250000000006
 31
0.0
 70
   160
  1
<>
 71
     2
 42
120.65
  3
SLDDIMSTYLE1
100
AcDbAlignedDimension
 13
60.73749999999998
 23
12.7
 33
0.0
 14
-59.91250000000001
 24
11.69999999999999
 34
0.0
 50
0.0000000000000101
100
AcDbRotatedDimension
1001
ACAD
1000
DSTYLE
1002
{
1070
   171
1070
     6
1070
   273
1070
     7
1002
}
  0
DIMENSION
  5
4A3
330
1F
100
AcDbEntity
  8
치수문자_일반주서
100
AcDbDimension
  2
*D29
 10
-72.41249999999997
 20
-12.70000000000007
 30
0.0
 11
-72.41250000000001
 21
1.196627357359228
 31
0.0
 70
   160
  1
%%c<>
 71
     2
 42
25.40000000000001
 52
-270.0
  3
SLDDIMSTYLE1
100
AcDbAlignedDimension
 13
-58.91249999999999
 23
12.69999999999999
 33
0.0
 14
-58.91249999999999
 24
-12.70000000000002
 34
0.0
 50
90.0000000000002
100
AcDbRotatedDimension
1001
ACAD
1000
DSTYLE
1002
{
1070
   171
1070
     6
1070
   273
1070
     7
1002
}
  0
DIMENSION
  5
4A4
330
1F
100
AcDbEntity
  8
치수문자_일반주서
100
AcDbDimension
  2
*D30
 10
78.88346356138744
 20
-14.28749999999993
 30
0.0
 11
78.88346356138726
 21
37.95400000000006
 31
0.0
 70
   160
  1
%%c<>
 71
     2
 42
28.575
 52
-270.0
  3
SLDDIMSTYLE1
100
AcDbAlignedDimension
 13
60.7375
 23
14.2875
 33
0.0
 14
60.7375
 24
-14.2875
 34
0.0
 50
90.0000000000002
100
AcDbRotatedDimension
1001
ACAD
1000
DSTYLE
1002
{
1070
   171
1070
     6
1070
   273
1070
     7
1002
}
  0
INSERT
  5
4A5
330
1F
100
AcDbEntity
  8
해칭선
100
AcDbBlockReference
  2
SW_DOWELSYMBOL_0
 10
0.0
 20
0.0
 30
0.0
  0
LINE
  5
4A6
330
1F
100
AcDbEntity
  8
외형선
  6
Continuous
370
    15
100
AcDbLine
 10
-36.55632499999991
 20
10.79499999999998
 30
0.0
 11
-23.44992500000001
 21
10.79499999999998
 31
0.0
  0
LINE
  5
4A7
330
1F
100
AcDbEntity
  8
외형선
  6
Continuous
370
    15
100
AcDbLine
 10
-36.55632499999991
 20
10.79499999999999
 30
0.0
 11
-38.46132499999987
 21
12.69999999999998
 31
0.0
  0
LINE
  5
4A8
330
1F
100
AcDbEntity
  8
외형선
  6
Continuous
370
    15
100
AcDbLine
 10
-23.44992500000001
 20
10.79499999999999
 30
0.0
 11
-21.54492499999998
 21
12.69999999999998
 31
0.0
  0
LINE
  5
4A9
330
1F
100
AcDbEntity
  8
외형선
  6
Continuous
370
    15
100
AcDbLine
 10
-59.91250000000001
 20
10.79499999999998
 30
0.0
 11
-46.27499999999998
 21
10.79499999999998
 31
0.0
  0
LINE
  5
4AA
330
1F
100
AcDbEntity
  8
외형선
  6
Continuous
370
    15
100
AcDbLine
 10
-46.27499999999998
 20
10.79499999999999
 30
0.0
 11
-44.37
 21
12.69999999999997
 31
0.0
  0
LINE
  5
4AB
330
1F
100
AcDbEntity
  8
외형선
  6
Continuous
370
    15
100
AcDbLine
 10
-38.46132499999991
 20
12.7
 30
0.0
 11
-44.36999999999998
 21
12.7
 31
0.0
  0
LINE
  5
4E0
330
1F
100
AcDbEntity
  8
외형선
  6
Continuous
370
    15
100
AcDbLine
 10
3.587500000000006
 20
14.2875
 30
0.0
 11
3.587500000000006
 21
-14.2875
 31
0.0
  0
SPLINE
  5
4E1
330
1F
100
AcDbEntity
  8
0
  6
Continuous
 62
     1
370
    15
100
AcDbSpline
210
0.0
220
0.0
230
1.0
 70
     8
 71
     3
 72
     9
 73
     5
 74
     0
 42
0.000000001
 43
0.0000000001
 40
0.0
 40
0.0
 40
0.0
 40
0.0
 40
10.70555217194891
 40
14.41679979071006
 40
14.41679979071006
 40
14.41679979071006
 40
14.41679979071006
 10
3.587500000000006
 20
-14.2875
 30
0.0
 10
7.044157855330646
 20
-13.34603765193349
 30
0.0
 10
11.69912038737676
 20
-12.07820261039956
 30
0.0
 10
16.06346320189478
 20
-10.09234339324622
 30
0.0
 10
17.17451362442504
 20
-9.550394604448742
 30
0.0
  0
SPLINE
  5
4E2
330
1F
100
AcDbEntity
  8
0
  6
Continuous
 62
     1
370
    15
100
AcDbSpline
210
0.0
220
0.0
230
1.0
 70
  1080
 71
     3
 72
     8
 73
     4
 74
     2
 42
0.000000001
 43
0.0000000001
 44
0.0
 40
0.0
 40
0.0
 40
0.0
 40
0.0
 40
7.354220293416953
 40
7.354220293416953
 40
7.354220293416953
 40
7.354220293416953
 10
3.587500000000006
 20
14.2875
 30
0.0
 10
5.932846081321021
 20
13.57423505362117
 30
0.0
 10
8.278192162642036
 20
12.86097010724234
 30
0.0
 10
10.62353824396305
 20
12.14770516086351
 30
0.0
 11
3.587500000000006
 21
14.2875
 31
0.0
 11
10.62353824396305
 21
12.14770516086351
 31
0.0
  0
LINE
  5
4E3
330
1F
100
AcDbEntity
  8
외형선
  6
Continuous
370
    15
100
AcDbLine
 10
3.587500000000006
 20
14.2875
 30
0.0
 11
2.0
 21
12.7
 31
0.0
  0
LINE
  5
4E4
330
1F
100
AcDbEntity
  8
외형선
  6
Continuous
370
    15
100
AcDbLine
 10
3.587500000000006
 20
-14.2875
 30
0.0
 11
2.0
 21
-12.69999999999999
 31
0.0
  0
LINE
  5
4E5
330
1F
100
AcDbEntity
  8
외형선
  6
Continuous
370
    15
100
AcDbLine
 10
2.0
 20
-12.7
 30
0.0
 11
2.0
 21
12.7
 31
0.0
  0
ENDSEC
  0
SECTION
  2
OBJECTS
  0
DICTIONARY
  5
C
330
0
100
AcDbDictionary
281
     1
  3
ACAD_GROUP
350
D
  3
ACAD_IMAGE_VARS
350
134
  3
ACAD_LAYOUT
350
1A
  3
ACAD_MLINESTYLE
350
17
  3
ACAD_PLOTSETTINGS
350
19
  3
ACAD_PLOTSTYLENAME
350
E
  3
ACAD_SCALELIST
350
47
  3
APPDATA
350
132
  3
DWGPROPS
350
50A
  0
DICTIONARY
  5
1C7
330
2
100
AcDbDictionary
280
     1
281
     1
  3
ACAD_LAYERSTATES
360
1C8
  0
DICTIONARY
  5
D
102
{ACAD_REACTORS
330
C
102
}
330
C
100
AcDbDictionary
281
     1
  0
RASTERVARIABLES
  5
134
102
{ACAD_REACTORS
330
C
102
}
330
C
100
AcDbRasterVariables
 90
        0
 70
     1
 71
     1
 72
     1
  0
DICTIONARY
  5
1A
102
{ACAD_REACTORS
330
C
102
}
330
C
100
AcDbDictionary
281
     1
  3
Layout1
350
1E
  3
Layout2
350
26
  3
Model
350
22
  0
DICTIONARY
  5
17
102
{ACAD_REACTORS
330
C
102
}
330
C
100
AcDbDictionary
281
     1
  3
Standard
350
18
  0
DICTIONARY
  5
19
102
{ACAD_REACTORS
330
C
102
}
330
C
100
AcDbDictionary
281
     1
  0
ACDBDICTIONARYWDFLT
  5
E
102
{ACAD_REACTORS
330
C
102
}
330
C
100
AcDbDictionary
281
     1
  3
Normal
350
F
100
AcDbDictionaryWithDefault
340
F
  0
DICTIONARY
  5
47
102
{ACAD_REACTORS
330
C
102
}
330
C
100
AcDbDictionary
281
     1
  3
A0
350
48
  3
A1
350
49
  3
A2
350
4A
  3
A3
350
4B
  3
A4
350
4C
  3
A5
350
4D
  3
A6
350
4E
  3
A7
350
4F
  3
A8
350
50
  3
A9
350
51
  3
B0
350
52
  3
B1
350
53
  3
B2
350
54
  3
B3
350
55
  3
B4
350
56
  3
B5
350
57
  3
B6
350
58
  3
B7
350
59
  3
B8
350
5A
  3
B9
350
5B
  3
C0
350
5C
  3
C1
350
5D
  3
C2
350
5E
  3
C3
350
5F
  3
C4
350
60
  3
C5
350
61
  3
C6
350
62
  3
C7
350
63
  3
C8
350
64
  3
C9
350
65
  3
D0
350
66
  3
D1
350
67
  3
D2
350
68
  0
DICTIONARY
  5
132
102
{ACAD_REACTORS
330
C
102
}
330
C
100
AcDbDictionary
281
     1
  0
XRECORD
  5
50A
102
{ACAD_REACTORS
330
C
102
}
330
C
100
AcDbXrecord
280
     1
  1
DWGPROPS COOKIE
  2

  3

  4

  6

  7

  8
12016016
  9

300
=
301
=
302
=
303
=
304
=
305
=
306
=
307
=
308
=
309
=
 40
0.0
 41
2458316.207818623
 42
2458320.365581886
  1

 90
        0
  0
DICTIONARY
  5
1C8
102
{ACAD_REACTORS
330
1C7
102
}
330
1C7
100
AcDbDictionary
281
     1
  0
LAYOUT
  5
1E
102
{ACAD_REACTORS
330
1A
102
}
330
1A
100
AcDbPlotSettings
  1

  2
none_device
  4

  6

 40
0.0
 41
0.0
 42
0.0
 43
0.0
 44
0.0
 45
0.0
 46
0.0
 47
0.0
 48
0.0
 49
0.0
140
0.0
141
0.0
142
1.0
143
1.0
 70
   688
 72
     1
 73
     0
 74
     5
  7

 75
    16
147
1.0
148
0.0
149
0.0
100
AcDbLayout
  1
Layout1
 70
     1
 71
     1
 10
0.0
 20
0.0
 11
420.0
 21
297.0
 12
0.0
 22
0.0
 32
0.0
 14
1.000000000000000E+20
 24
1.000000000000000E+20
 34
1.000000000000000E+20
 15
-1.000000000000000E+20
 25
-1.000000000000000E+20
 35
-1.000000000000000E+20
146
0.0
 13
0.0
 23
0.0
 33
0.0
 16
1.0
 26
0.0
 36
0.0
 17
0.0
 27
1.0
 37
0.0
 76
     0
330
1B
  0
LAYOUT
  5
26
102
{ACAD_REACTORS
330
1A
102
}
330
1A
100
AcDbPlotSettings
  1

  2
none_device
  4

  6

 40
0.0
 41
0.0
 42
0.0
 43
0.0
 44
0.0
 45
0.0
 46
0.0
 47
0.0
 48
0.0
 49
0.0
140
0.0
141
0.0
142
1.0
143
1.0
 70
   688
 72
     1
 73
     0
 74
     5
  7

 75
    16
147
1.0
148
0.0
149
0.0
100
AcDbLayout
  1
Layout2
 70
     1
 71
     2
 10
0.0
 20
0.0
 11
0.0
 21
0.0
 12
0.0
 22
0.0
 32
0.0
 14
0.0
 24
0.0
 34
0.0
 15
0.0
 25
0.0
 35
0.0
146
0.0
 13
0.0
 23
0.0
 33
0.0
 16
1.0
 26
0.0
 36
0.0
 17
0.0
 27
1.0
 37
0.0
 76
     0
330
23
  0
LAYOUT
  5
22
102
{ACAD_REACTORS
330
1A
102
}
330
1A
100
AcDbPlotSettings
  1

  2
none_device
  4
ANSI_A_(11.00_x_8.50_Inches)
  6

 40
6.35
 41
19.05
 42
6.35000508
 43
19.05000254
 44
279.4
 45
215.9
 46
121.037922254527
 47
49.25863272063818
 48
0.0
 49
0.0
140
0.0
141
0.0
142
0.0521903194318997
143
1.0
 70
  1696
 72
     0
 73
     0
 74
     0
  7

 75
     0
147
0.0235690232323232
148
0.0
149
0.0
100
AcDbLayout
  1
Model
 70
     1
 71
     0
 10
0.0
 20
0.0
 11
420.0
 21
297.0
 12
0.0
 22
0.0
 32
0.0
 14
-76.78750000000005
 24
-49.97073246008785
 34
0.0
 15
82.10649512937675
 25
54.14150000000006
 35
0.0
146
0.0
 13
0.0
 23
0.0
 33
0.0
 16
1.0
 26
0.0
 36
0.0
 17
0.0
 27
1.0
 37
0.0
 76
     0
330
1F
331
29
  0
MLINESTYLE
  5
18
102
{ACAD_REACTORS
330
17
102
}
330
17
100
AcDbMlineStyle
  2
Standard
 70
     0
  3

 62
   256
 51
90.0
 52
90.0
 71
     2
 49
0.5
 62
   256
  6
BYLAYER
 49
-0.5
 62
   256
  6
BYLAYER
  0
ACDBPLACEHOLDER
  5
F
102
{ACAD_REACTORS
330
E
102
}
330
E
  0
SCALE
  5
48
102
{ACAD_REACTORS
330
47
102
}
330
47
100
AcDbScale
 70
     0
300
1:1
140
1.0
141
1.0
290
     1
  0
SCALE
  5
49
102
{ACAD_REACTORS
330
47
102
}
330
47
100
AcDbScale
 70
     0
300
1:2
140
1.0
141
2.0
290
     0
  0
SCALE
  5
4A
102
{ACAD_REACTORS
330
47
102
}
330
47
100
AcDbScale
 70
     0
300
1:4
140
1.0
141
4.0
290
     0
  0
SCALE
  5
4B
102
{ACAD_REACTORS
330
47
102
}
330
47
100
AcDbScale
 70
     0
300
1:5
140
1.0
141
5.0
290
     0
  0
SCALE
  5
4C
102
{ACAD_REACTORS
330
47
102
}
330
47
100
AcDbScale
 70
     0
300
1:8
140
1.0
141
8.0
290
     0
  0
SCALE
  5
4D
102
{ACAD_REACTORS
330
47
102
}
330
47
100
AcDbScale
 70
     0
300
1:10
140
1.0
141
10.0
290
     0
  0
SCALE
  5
4E
102
{ACAD_REACTORS
330
47
102
}
330
47
100
AcDbScale
 70
     0
300
1:16
140
1.0
141
16.0
290
     0
  0
SCALE
  5
4F
102
{ACAD_REACTORS
330
47
102
}
330
47
100
AcDbScale
 70
     0
300
1:20
140
1.0
141
20.0
290
     0
  0
SCALE
  5
50
102
{ACAD_REACTORS
330
47
102
}
330
47
100
AcDbScale
 70
     0
300
1:30
140
1.0
141
30.0
290
     0
  0
SCALE
  5
51
102
{ACAD_REACTORS
330
47
102
}
330
47
100
AcDbScale
 70
     0
300
1:40
140
1.0
141
40.0
290
     0
  0
SCALE
  5
52
102
{ACAD_REACTORS
330
47
102
}
330
47
100
AcDbScale
 70
     0
300
1:50
140
1.0
141
50.0
290
     0
  0
SCALE
  5
53
102
{ACAD_REACTORS
330
47
102
}
330
47
100
AcDbScale
 70
     0
300
1:100
140
1.0
141
100.0
290
     0
  0
SCALE
  5
54
102
{ACAD_REACTORS
330
47
102
}
330
47
100
AcDbScale
 70
     0
300
2:1
140
2.0
141
1.0
290
     0
  0
SCALE
  5
55
102
{ACAD_REACTORS
330
47
102
}
330
47
100
AcDbScale
 70
     0
300
4:1
140
4.0
141
1.0
290
     0
  0
SCALE
  5
56
102
{ACAD_REACTORS
330
47
102
}
330
47
100
AcDbScale
 70
     0
300
8:1
140
8.0
141
1.0
290
     0
  0
SCALE
  5
57
102
{ACAD_REACTORS
330
47
102
}
330
47
100
AcDbScale
 70
     0
300
10:1
140
10.0
141
1.0
290
     0
  0
SCALE
  5
58
102
{ACAD_REACTORS
330
47
102
}
330
47
100
AcDbScale
 70
     0
300
100:1
140
100.0
141
1.0
290
     0
  0
SCALE
  5
59
102
{ACAD_REACTORS
330
47
102
}
330
47
100
AcDbScale
 70
     0
300
1/128" = 1'-0"
140
0.0078125
141
12.0
290
     0
  0
SCALE
  5
5A
102
{ACAD_REACTORS
330
47
102
}
330
47
100
AcDbScale
 70
     0
300
1/64" = 1'-0"
140
0.015625
141
12.0
290
     0
  0
SCALE
  5
5B
102
{ACAD_REACTORS
330
47
102
}
330
47
100
AcDbScale
 70
     0
300
1/32" = 1'-0"
140
0.03125
141
12.0
290
     0
  0
SCALE
  5
5C
102
{ACAD_REACTORS
330
47
102
}
330
47
100
AcDbScale
 70
     0
300
1/16" = 1'-0"
140
0.0625
141
12.0
290
     0
  0
SCALE
  5
5D
102
{ACAD_REACTORS
330
47
102
}
330
47
100
AcDbScale
 70
     0
300
3/32" = 1'-0"
140
0.09375
141
12.0
290
     0
  0
SCALE
  5
5E
102
{ACAD_REACTORS
330
47
102
}
330
47
100
AcDbScale
 70
     0
300
1/8" = 1'-0"
140
0.125
141
12.0
290
     0
  0
SCALE
  5
5F
102
{ACAD_REACTORS
330
47
102
}
330
47
100
AcDbScale
 70
     0
300
3/16" = 1'-0"
140
0.1875
141
12.0
290
     0
  0
SCALE
  5
60
102
{ACAD_REACTORS
330
47
102
}
330
47
100
AcDbScale
 70
     0
300
1/4" = 1'-0"
140
0.25
141
12.0
290
     0
  0
SCALE
  5
61
102
{ACAD_REACTORS
330
47
102
}
330
47
100
AcDbScale
 70
     0
300
3/8" = 1'-0"
140
0.375
141
12.0
290
     0
  0
SCALE
  5
62
102
{ACAD_REACTORS
330
47
102
}
330
47
100
AcDbScale
 70
     0
300
1/2" = 1'-0"
140
0.5
141
12.0
290
     0
  0
SCALE
  5
63
102
{ACAD_REACTORS
330
47
102
}
330
47
100
AcDbScale
 70
     0
300
3/4" = 1'-0"
140
0.75
141
12.0
290
     0
  0
SCALE
  5
64
102
{ACAD_REACTORS
330
47
102
}
330
47
100
AcDbScale
 70
     0
300
1" = 1'-0"
140
1.0
141
12.0
290
     0
  0
SCALE
  5
65
102
{ACAD_REACTORS
330
47
102
}
330
47
100
AcDbScale
 70
     0
300
1-1/2" = 1'-0"
140
1.5
141
12.0
290
     0
  0
SCALE
  5
66
102
{ACAD_REACTORS
330
47
102
}
330
47
100
AcDbScale
 70
     0
300
3" = 1'-0"
140
3.0
141
12.0
290
     0
  0
SCALE
  5
67
102
{ACAD_REACTORS
330
47
102
}
330
47
100
AcDbScale
 70
     0
300
6" = 1'-0"
140
6.0
141
12.0
290
     0
  0
SCALE
  5
68
102
{ACAD_REACTORS
330
47
102
}
330
47
100
AcDbScale
 70
     0
300
1'-0" = 1'-0"
140
12.0
141
12.0
290
     0
  0
ENDSEC
  0
EOF
