  0
SECTION
  2
HEADER
  9
$ACADVER
  1
AC1015
  9
$ACADMAINTVER
 70
     6
  9
$DWGCODEPAGE
  3
ANSI_949
  9
$INSBASE
 10
0.0
 20
0.0
 30
0.0
  9
$EXTMIN
 10
-68.37500000000004
 20
-49.97180738881173
 30
0.0
  9
$EXTMAX
 10
91.97387083050971
 20
52.89564968798612
 30
0.0
  9
$LIMMIN
 10
0.0
 20
0.0
  9
$LIMMAX
 10
420.0
 20
297.0
  9
$ORTHOMODE
 70
     0
  9
$REGENMODE
 70
     1
  9
$FILLMODE
 70
     1
  9
$QTEXTMODE
 70
     0
  9
$MIRRTEXT
 70
     1
  9
$LTSCALE
 40
1.0
  9
$ATTMODE
 70
     1
  9
$TEXTSIZE
 40
3.5
  9
$TRACEWID
 40
1.0
  9
$TEXTSTYLE
  7
Standard
  9
$CLAYER
  8
0
  9
$CELTYPE
  6
ByLayer
  9
$CECOLOR
 62
   256
  9
$CELTSCALE
 40
1.0
  9
$DISPSILH
 70
     0
  9
$DIMSCALE
 40
1.0
  9
$DIMASZ
 40
3.302
  9
$DIMEXO
 40
1.0
  9
$DIMDLI
 40
3.75
  9
$DIMRND
 40
0.0
  9
$DIMDLE
 40
0.0
  9
$DIMEXE
 40
1.0
  9
$DIMTP
 40
0.0
  9
$DIMTM
 40
0.0
  9
$DIMTXT
 40
3.5
  9
$DIMCEN
 40
2.5
  9
$DIMTSZ
 40
0.0
  9
$DIMTOL
 70
     0
  9
$DIMLIM
 70
     0
  9
$DIMTIH
 70
     1
  9
$DIMTOH
 70
     1
  9
$DIMSE1
 70
     0
  9
$DIMSE2
 70
     0
  9
$DIMTAD
 70
     1
  9
$DIMZIN
 70
     0
  9
$DIMBLK
  1

  9
$DIMASO
 70
     1
  9
$DIMSHO
 70
     1
  9
$DIMPOST
  1

  9
$DIMAPOST
  1

  9
$DIMALT
 70
     0
  9
$DIMALTD
 70
     3
  9
$DIMALTF
 40
0.0393700787401575
  9
$DIMLFAC
 40
1.0
  9
$DIMTOFL
 70
     1
  9
$DIMTVP
 40
0.0
  9
$DIMTIX
 70
     0
  9
$DIMSOXD
 70
     0
  9
$DIMSAH
 70
     0
  9
$DIMBLK1
  1

  9
$DIMBLK2
  1

  9
$DIMSTYLE
  2
ISO-25
  9
$DIMCLRD
 70
     0
  9
$DIMCLRE
 70
     0
  9
$DIMCLRT
 70
     0
  9
$DIMTFAC
 40
1.0
  9
$DIMGAP
 40
1.524
  9
$DIMJUST
 70
     0
  9
$DIMSD1
 70
     0
  9
$DIMSD2
 70
     0
  9
$DIMTOLJ
 70
     0
  9
$DIMTZIN
 70
     0
  9
$DIMALTZ
 70
     0
  9
$DIMALTTZ
 70
     0
  9
$DIMUPT
 70
     0
  9
$DIMDEC
 70
     2
  9
$DIMTDEC
 70
     2
  9
$DIMALTU
 70
     2
  9
$DIMALTTD
 70
     3
  9
$DIMTXSTY
  7
Standard
  9
$DIMAUNIT
 70
     0
  9
$DIMADEC
 70
     2
  9
$DIMALTRND
 40
0.0
  9
$DIMAZIN
 70
     0
  9
$DIMDSEP
 70
    44
  9
$DIMATFIT
 70
     3
  9
$DIMFRAC
 70
     0
  9
$DIMLDRBLK
  1

  9
$DIMLUNIT
 70
     2
  9
$DIMLWD
 70
    -2
  9
$DIMLWE
 70
    -2
  9
$DIMTMOVE
 70
     0
  9
$LUNITS
 70
     2
  9
$LUPREC
 70
     2
  9
$SKETCHINC
 40
1.0
  9
$FILLETRAD
 40
10.0
  9
$AUNITS
 70
     0
  9
$AUPREC
 70
     2
  9
$MENU
  1
.
  9
$ELEVATION
 40
0.0
  9
$PELEVATION
 40
0.0
  9
$THICKNESS
 40
0.0
  9
$LIMCHECK
 70
     0
  9
$CHAMFERA
 40
0.0
  9
$CHAMFERB
 40
0.0
  9
$CHAMFERC
 40
0.0
  9
$CHAMFERD
 40
0.0
  9
$SKPOLY
 70
     0
  9
$TDCREATE
 40
2458316.58345382
  9
$TDUCREATE
 40
2458316.20845382
  9
$TDUPDATE
 40
2458320.740450845
  9
$TDUUPDATE
 40
2458320.365450845
  9
$TDINDWG
 40
0.0038556481
  9
$TDUSRTIMER
 40
2458320.365414317
  9
$USRTIMER
 70
     1
  9
$ANGBASE
 50
0.0
  9
$ANGDIR
 70
     0
  9
$PDMODE
 70
     0
  9
$PDSIZE
 40
-1.0
  9
$PLINEWID
 40
0.0
  9
$SPLFRAME
 70
     0
  9
$SPLINETYPE
 70
     6
  9
$SPLINESEGS
 70
     8
  9
$HANDSEED
  5
4C7
  9
$SURFTAB1
 70
     6
  9
$SURFTAB2
 70
     6
  9
$SURFTYPE
 70
     6
  9
$SURFU
 70
     6
  9
$SURFV
 70
     6
  9
$UCSBASE
  2

  9
$UCSNAME
  2

  9
$UCSORG
 10
0.0
 20
0.0
 30
0.0
  9
$UCSXDIR
 10
1.0
 20
0.0
 30
0.0
  9
$UCSYDIR
 10
0.0
 20
1.0
 30
0.0
  9
$UCSORTHOREF
  2

  9
$UCSORTHOVIEW
 70
     0
  9
$UCSORGTOP
 10
0.0
 20
0.0
 30
0.0
  9
$UCSORGBOTTOM
 10
0.0
 20
0.0
 30
0.0
  9
$UCSORGLEFT
 10
0.0
 20
0.0
 30
0.0
  9
$UCSORGRIGHT
 10
0.0
 20
0.0
 30
0.0
  9
$UCSORGFRONT
 10
0.0
 20
0.0
 30
0.0
  9
$UCSORGBACK
 10
0.0
 20
0.0
 30
0.0
  9
$PUCSBASE
  2

  9
$PUCSNAME
  2

  9
$PUCSORG
 10
0.0
 20
0.0
 30
0.0
  9
$PUCSXDIR
 10
1.0
 20
0.0
 30
0.0
  9
$PUCSYDIR
 10
0.0
 20
1.0
 30
0.0
  9
$PUCSORTHOREF
  2

  9
$PUCSORTHOVIEW
 70
     0
  9
$PUCSORGTOP
 10
0.0
 20
0.0
 30
0.0
  9
$PUCSORGBOTTOM
 10
0.0
 20
0.0
 30
0.0
  9
$PUCSORGLEFT
 10
0.0
 20
0.0
 30
0.0
  9
$PUCSORGRIGHT
 10
0.0
 20
0.0
 30
0.0
  9
$PUCSORGFRONT
 10
0.0
 20
0.0
 30
0.0
  9
$PUCSORGBACK
 10
0.0
 20
0.0
 30
0.0
  9
$USERI1
 70
     0
  9
$USERI2
 70
     0
  9
$USERI3
 70
     0
  9
$USERI4
 70
     0
  9
$USERI5
 70
     0
  9
$USERR1
 40
0.0
  9
$USERR2
 40
0.0
  9
$USERR3
 40
0.0
  9
$USERR4
 40
0.0
  9
$USERR5
 40
0.0
  9
$WORLDVIEW
 70
     1
  9
$SHADEDGE
 70
     3
  9
$SHADEDIF
 70
    70
  9
$TILEMODE
 70
     1
  9
$MAXACTVP
 70
    64
  9
$PINSBASE
 10
0.0
 20
0.0
 30
0.0
  9
$PLIMCHECK
 70
     0
  9
$PEXTMIN
 10
1.000000000000000E+20
 20
1.000000000000000E+20
 30
1.000000000000000E+20
  9
$PEXTMAX
 10
-1.000000000000000E+20
 20
-1.000000000000000E+20
 30
-1.000000000000000E+20
  9
$PLIMMIN
 10
0.0
 20
0.0
  9
$PLIMMAX
 10
0.0
 20
0.0
  9
$UNITMODE
 70
     0
  9
$VISRETAIN
 70
     1
  9
$PLINEGEN
 70
     0
  9
$PSLTSCALE
 70
     1
  9
$TREEDEPTH
 70
  3020
  9
$CMLSTYLE
  2
Standard
  9
$CMLJUST
 70
     0
  9
$CMLSCALE
 40
20.0
  9
$PROXYGRAPHICS
 70
     1
  9
$MEASUREMENT
 70
     1
  9
$CELWEIGHT
370
    -1
  9
$ENDCAPS
280
     0
  9
$JOINSTYLE
280
     0
  9
$LWDISPLAY
290
     1
  9
$INSUNITS
 70
     4
  9
$HYPERLINKBASE
  1

  9
$STYLESHEET
  1

  9
$XEDIT
290
     1
  9
$CEPSNTYPE
380
     0
  9
$PSTYLEMODE
290
     1
  9
$FINGERPRINTGUID
  2
{150F8DCD-32F7-4300-96FA-3D4D7BB95591}
  9
$VERSIONGUID
  2
{FAEB1C32-E019-11D5-929B-00C0DF256EC4}
  9
$EXTNAMES
290
     1
  9
$PSVPSCALE
 40
0.0
  9
$OLESTARTUP
290
     0
  0
ENDSEC
  0
SECTION
  2
CLASSES
  0
CLASS
  1
ACDBDICTIONARYWDFLT
  2
AcDbDictionaryWithDefault
  3
ObjectDBX Classes
 90
        0
280
     0
281
     0
  0
CLASS
  1
VISUALSTYLE
  2
AcDbVisualStyle
  3
ObjectDBX Classes
 90
     4095
280
     0
281
     0
  0
CLASS
  1
MATERIAL
  2
AcDbMaterial
  3
ObjectDBX Classes
 90
     1153
280
     0
281
     0
  0
CLASS
  1
SCALE
  2
AcDbScale
  3
ObjectDBX Classes
 90
     1153
280
     0
281
     0
  0
CLASS
  1
SUN
  2
AcDbSun
  3
SCENEOE
 90
     1153
280
     0
281
     0
  0
CLASS
  1
ACDBPLACEHOLDER
  2
AcDbPlaceHolder
  3
ObjectDBX Classes
 90
        0
280
     0
281
     0
  0
CLASS
  1
LAYOUT
  2
AcDbLayout
  3
ObjectDBX Classes
 90
        0
280
     0
281
     0
  0
CLASS
  1
TABLESTYLE
  2
AcDbTableStyle
  3
ObjectDBX Classes
 90
     4095
280
     0
281
     0
  0
CLASS
  1
MLEADERSTYLE
  2
AcDbMLeaderStyle
  3
ACDB_MLEADERSTYLE_CLASS
 90
     4095
280
     0
281
     0
  0
CLASS
  1
RASTERVARIABLES
  2
AcDbRasterVariables
  3
ISM
 90
        0
280
     0
281
     0
  0
CLASS
  1
DIMASSOC
  2
AcDbDimAssoc
  3
"AcDbDimAssoc|Product Desc:     AcDim ARX App For Dimension|Company:          Autodesk, Inc.|WEB Address:      www.autodesk.com"
 90
        0
280
     0
281
     0
  0
ENDSEC
  0
SECTION
  2
TABLES
  0
TABLE
  2
VPORT
  5
8
330
0
100
AcDbSymbolTable
 70
     1
  0
VPORT
  5
29
330
8
100
AcDbSymbolTableRecord
100
AcDbViewportTableRecord
  2
*Active
 70
     0
 10
0.0
 20
0.0
 11
1.0
 21
1.0
 12
32.46541188116472
 22
0.4214330255200878
 13
0.0
 23
0.0
 14
10.0
 24
10.0
 15
10.0
 25
10.0
 16
0.0
 26
0.0
 36
1.0
 17
0.0
 27
0.0
 37
0.0
 40
200.5631281375014
 41
1.67311411992263
 42
50.0
 43
0.0
 44
0.0
 50
0.0
 51
0.0
 71
    16
 72
  2000
 73
     1
 74
     3
 75
     0
 76
     0
 77
     0
 78
     0
281
     0
 65
     1
110
0.0
120
0.0
130
0.0
111
1.0
121
0.0
131
0.0
112
0.0
122
1.0
132
0.0
 79
     0
146
0.0
  0
ENDTAB
  0
TABLE
  2
LTYPE
  5
5
330
0
100
AcDbSymbolTable
 70
     6
  0
LTYPE
  5
14
330
5
100
AcDbSymbolTableRecord
100
AcDbLinetypeTableRecord
  2
ByBlock
 70
     0
  3

 72
    65
 73
     0
 40
0.0
  0
LTYPE
  5
15
330
5
100
AcDbSymbolTableRecord
100
AcDbLinetypeTableRecord
  2
ByLayer
 70
     0
  3

 72
    65
 73
     0
 40
0.0
  0
LTYPE
  5
16
330
5
100
AcDbSymbolTableRecord
100
AcDbLinetypeTableRecord
  2
Continuous
 70
     0
  3
Solid line
 72
    65
 73
     0
 40
0.0
  0
LTYPE
  5
6A
330
5
100
AcDbSymbolTableRecord
100
AcDbLinetypeTableRecord
  2
HIDDEN
 70
     0
  3
Hidden __ __ __ __ __ __ __ __ __ __ __ __ __ __
 72
    65
 73
     2
 40
1.905
 49
1.27
 74
     0
 49
-0.635
 74
     0
  0
LTYPE
  5
6B
330
5
100
AcDbSymbolTableRecord
100
AcDbLinetypeTableRecord
  2
PHANTOM
 70
     0
  3
Phantom ______  __  __  ______  __  __  ______
 72
    65
 73
     6
 40
12.7
 49
6.35
 74
     0
 49
-1.27
 74
     0
 49
1.27
 74
     0
 49
-1.27
 74
     0
 49
1.27
 74
     0
 49
-1.27
 74
     0
  0
LTYPE
  5
6C
330
5
100
AcDbSymbolTableRecord
100
AcDbLinetypeTableRecord
  2
CENTER
 70
     0
  3
Center ____ _ ____ _ ____ _ ____ _ ____ _ ____
 72
    65
 73
     4
 40
10.16
 49
6.35
 74
     0
 49
-1.27
 74
     0
 49
1.27
 74
     0
 49
-1.27
 74
     0
  0
LTYPE
  5
6D
330
5
100
AcDbSymbolTableRecord
100
AcDbLinetypeTableRecord
  2
CENTERX2
 70
     0
  3
Center (2x) ________  __  ________  __  _____
 72
    65
 73
     4
 40
20.32
 49
12.7
 74
     0
 49
-2.54
 74
     0
 49
2.54
 74
     0
 49
-2.54
 74
     0
  0
LTYPE
  5
6E
330
5
100
AcDbSymbolTableRecord
100
AcDbLinetypeTableRecord
  2
DOT2
 70
     0
  3
Dot (.5x) ........................................
 72
    65
 73
     2
 40
0.635
 49
0.0
 74
     0
 49
-0.635
 74
     0
  0
ENDTAB
  0
TABLE
  2
LAYER
  5
2
102
{ACAD_XDICTIONARY
360
1BF
102
}
330
0
100
AcDbSymbolTable
 70
    18
  0
LAYER
  5
10
330
2
100
AcDbSymbolTableRecord
100
AcDbLayerTableRecord
  2
0
 70
     0
 62
     7
  6
Continuous
370
    -3
390
F
  0
LAYER
  5
6F
330
2
100
AcDbSymbolTableRecord
100
AcDbLayerTableRecord
  2
FORMAT
 70
     0
 62
     2
  6
Continuous
370
    -3
390
F
  0
LAYER
  5
70
330
2
100
AcDbSymbolTableRecord
100
AcDbLayerTableRecord
  2
외형선
 70
     0
 62
     4
  6
Continuous
370
    30
390
F
  0
LAYER
  5
71
330
2
100
AcDbSymbolTableRecord
100
AcDbLayerTableRecord
  2
숨은선
 70
     0
 62
     2
  6
HIDDEN
370
    15
390
F
  0
LAYER
  5
72
330
2
100
AcDbSymbolTableRecord
100
AcDbLayerTableRecord
  2
중심선
 70
     0
 62
     1
  6
CENTERX2
370
    -3
390
F
  0
LAYER
  5
73
330
2
100
AcDbSymbolTableRecord
100
AcDbLayerTableRecord
  2
파단선
 70
     0
 62
     4
  6
Continuous
370
    -3
390
F
  0
LAYER
  5
74
330
2
100
AcDbSymbolTableRecord
100
AcDbLayerTableRecord
  2
해칭선
 70
     0
 62
   100
  6
Continuous
370
    -3
390
F
  0
LAYER
  5
75
330
2
100
AcDbSymbolTableRecord
100
AcDbLayerTableRecord
  2
가는실선
 70
     0
 62
     4
  6
Continuous
370
    -3
390
F
  0
LAYER
  5
76
330
2
100
AcDbSymbolTableRecord
100
AcDbLayerTableRecord
  2
치수_보조선
 70
     0
 62
     4
  6
Continuous
370
    -3
390
F
  0
LAYER
  5
77
330
2
100
AcDbSymbolTableRecord
100
AcDbLayerTableRecord
  2
치수문자_일반주서
 70
     0
 62
     7
  6
Continuous
370
    15
390
F
  0
LAYER
  5
78
330
2
100
AcDbSymbolTableRecord
100
AcDbLayerTableRecord
  2
개별주서
 70
     0
 62
   100
  6
Continuous
370
    30
390
F
  0
LAYER
  5
79
330
2
100
AcDbSymbolTableRecord
100
AcDbLayerTableRecord
  2
중간선
 70
     0
 62
     2
  6
Continuous
370
    15
390
F
  0
LAYER
  5
7A
330
2
100
AcDbSymbolTableRecord
100
AcDbLayerTableRecord
  2
윤곽선
 70
     0
 62
     3
  6
Continuous
370
    40
390
F
  0
LAYER
  5
7B
330
2
100
AcDbSymbolTableRecord
100
AcDbLayerTableRecord
  2
중심마크
 70
     0
 62
   100
  6
Continuous
370
    30
390
F
  0
LAYER
  5
7C
330
2
100
AcDbSymbolTableRecord
100
AcDbLayerTableRecord
  2
가상선
 70
     0
 62
     4
  6
PHANTOM
370
    -3
390
F
  0
LAYER
  5
7D
330
2
100
AcDbSymbolTableRecord
100
AcDbLayerTableRecord
  2
특수지정선
 70
     0
 62
     5
  6
CENTERX2
370
    60
390
F
  0
LAYER
  5
7E
330
2
100
AcDbSymbolTableRecord
100
AcDbLayerTableRecord
  2
참조1
 70
     0
 62
    -4
  6
Continuous
370
    -3
390
F
  0
LAYER
  5
131
330
2
100
AcDbSymbolTableRecord
100
AcDbLayerTableRecord
  2
Defpoints
 70
     0
 62
     7
  6
Continuous
290
     0
370
    -3
390
F
  0
ENDTAB
  0
TABLE
  2
STYLE
  5
3
330
0
100
AcDbSymbolTable
 70
     2
  0
STYLE
  5
11
330
3
100
AcDbSymbolTableRecord
100
AcDbTextStyleTableRecord
  2
Standard
 70
     0
 40
0.0
 41
1.0
 50
0.0
 71
     0
 42
3.5
  3
txt
  4

  0
STYLE
  5
94
330
3
100
AcDbSymbolTableRecord
100
AcDbTextStyleTableRecord
  2
SLDTEXTSTYLE0
 70
     0
 40
0.0
 41
0.75
 50
0.0
 71
     0
 42
3.5
  3
TXT
  4

  0
ENDTAB
  0
TABLE
  2
VIEW
  5
6
330
0
100
AcDbSymbolTable
 70
     0
  0
ENDTAB
  0
TABLE
  2
UCS
  5
7
330
0
100
AcDbSymbolTable
 70
     0
  0
ENDTAB
  0
TABLE
  2
APPID
  5
9
330
0
100
AcDbSymbolTable
 70
     2
  0
APPID
  5
12
330
9
100
AcDbSymbolTableRecord
100
AcDbRegAppTableRecord
  2
ACAD
 70
     0
  0
APPID
  5
49A
330
9
100
AcDbSymbolTableRecord
100
AcDbRegAppTableRecord
  2
PE_DIMMEASUREMENT
 70
     0
  0
ENDTAB
  0
TABLE
  2
DIMSTYLE
  5
A
330
0
100
AcDbSymbolTable
 70
     3
100
AcDbDimStyleTable
  0
DIMSTYLE
105
27
330
A
100
AcDbSymbolTableRecord
100
AcDbDimStyleTableRecord
  2
ISO-25
 70
     0
 41
2.5
 42
0.625
 43
3.75
 44
1.25
 73
     0
 74
     0
 77
     1
 78
     8
140
2.5
141
2.5
143
0.03937007874016
147
0.625
171
     3
172
     1
178
     0
271
     2
272
     2
274
     3
278
    44
283
     0
284
     8
340
11
  0
DIMSTYLE
105
B1
330
A
100
AcDbSymbolTableRecord
100
AcDbDimStyleTableRecord
  2
SLDDIMSTYLE0
 70
     0
 41
3.302
 44
0.0
 45
0.000000001
 73
     0
 74
     0
 77
     1
 78
     4
 79
     1
140
3.5
143
0.0393700787401575
147
0.875
148
0.000000001
170
     1
173
     1
178
     0
271
     2
272
     2
276
     2
284
    12
340
94
  0
DIMSTYLE
105
C6
102
{ACAD_REACTORS
330
44B
330
44C
330
44D
330
489
102
}
330
A
100
AcDbSymbolTableRecord
100
AcDbDimStyleTableRecord
  2
SLDDIMSTYLE1
 70
     0
 41
3.302
 44
0.0
 45
0.000000001
 73
     0
 74
     0
 77
     1
 78
    12
 79
     3
140
3.5
143
0.0393700787401575
147
0.875
148
0.000000001
170
     1
173
     1
178
     0
271
     2
272
     2
276
     2
284
    12
340
94
  0
ENDTAB
  0
TABLE
  2
BLOCK_RECORD
  5
1
330
0
100
AcDbSymbolTable
 70
    32
  0
BLOCK_RECORD
  5
1F
330
1
100
AcDbSymbolTableRecord
100
AcDbBlockTableRecord
  2
*Model_Space
340
22
  0
BLOCK_RECORD
  5
1B
330
1
100
AcDbSymbolTableRecord
100
AcDbBlockTableRecord
  2
*Paper_Space
340
1E
  0
BLOCK_RECORD
  5
23
330
1
100
AcDbSymbolTableRecord
100
AcDbBlockTableRecord
  2
*Paper_Space0
340
26
  0
BLOCK_RECORD
  5
7F
330
1
100
AcDbSymbolTableRecord
100
AcDbBlockTableRecord
  2
블럭10
340
0
102
{BLKREFS
331
A9
102
}
  0
BLOCK_RECORD
  5
B2
330
1
100
AcDbSymbolTableRecord
100
AcDbBlockTableRecord
  2
_D
340
0
  0
BLOCK_RECORD
  5
C7
330
1
100
AcDbSymbolTableRecord
100
AcDbBlockTableRecord
  2
_D_1
340
0
  0
BLOCK_RECORD
  5
DA
330
1
100
AcDbSymbolTableRecord
100
AcDbBlockTableRecord
  2
_D_2
340
0
  0
BLOCK_RECORD
  5
EC
330
1
100
AcDbSymbolTableRecord
100
AcDbBlockTableRecord
  2
_D_3
340
0
  0
BLOCK_RECORD
  5
105
330
1
100
AcDbSymbolTableRecord
100
AcDbBlockTableRecord
  2
SW_DOWELSYMBOL_0
340
0
102
{BLKREFS
331
44F
102
}
  0
BLOCK_RECORD
  5
1C3
330
1
100
AcDbSymbolTableRecord
100
AcDbBlockTableRecord
  2
*D7
340
0
  0
BLOCK_RECORD
  5
1CF
330
1
100
AcDbSymbolTableRecord
100
AcDbBlockTableRecord
  2
*D8
340
0
  0
BLOCK_RECORD
  5
1DB
330
1
100
AcDbSymbolTableRecord
100
AcDbBlockTableRecord
  2
*D9
340
0
  0
BLOCK_RECORD
  5
1E7
330
1
100
AcDbSymbolTableRecord
100
AcDbBlockTableRecord
  2
*D10
340
0
  0
BLOCK_RECORD
  5
223
330
1
100
AcDbSymbolTableRecord
100
AcDbBlockTableRecord
  2
*D11
340
0
  0
BLOCK_RECORD
  5
22F
330
1
100
AcDbSymbolTableRecord
100
AcDbBlockTableRecord
  2
*D12
340
0
  0
BLOCK_RECORD
  5
23B
330
1
100
AcDbSymbolTableRecord
100
AcDbBlockTableRecord
  2
*D13
340
0
  0
BLOCK_RECORD
  5
247
330
1
100
AcDbSymbolTableRecord
100
AcDbBlockTableRecord
  2
*D14
340
0
  0
BLOCK_RECORD
  5
2AB
330
1
100
AcDbSymbolTableRecord
100
AcDbBlockTableRecord
  2
*D15
340
0
  0
BLOCK_RECORD
  5
2B8
330
1
100
AcDbSymbolTableRecord
100
AcDbBlockTableRecord
  2
*D16
340
0
  0
BLOCK_RECORD
  5
2D6
330
1
100
AcDbSymbolTableRecord
100
AcDbBlockTableRecord
  2
*D17
340
0
  0
BLOCK_RECORD
  5
2E2
330
1
100
AcDbSymbolTableRecord
100
AcDbBlockTableRecord
  2
*D18
340
0
  0
BLOCK_RECORD
  5
310
330
1
100
AcDbSymbolTableRecord
100
AcDbBlockTableRecord
  2
*D19
340
0
  0
BLOCK_RECORD
  5
31C
330
1
100
AcDbSymbolTableRecord
100
AcDbBlockTableRecord
  2
*D20
340
0
  0
BLOCK_RECORD
  5
329
330
1
100
AcDbSymbolTableRecord
100
AcDbBlockTableRecord
  2
*D21
340
0
  0
BLOCK_RECORD
  5
335
330
1
100
AcDbSymbolTableRecord
100
AcDbBlockTableRecord
  2
*D22
340
0
  0
BLOCK_RECORD
  5
3F7
330
1
100
AcDbSymbolTableRecord
100
AcDbBlockTableRecord
  2
*D23
340
0
  0
BLOCK_RECORD
  5
403
330
1
100
AcDbSymbolTableRecord
100
AcDbBlockTableRecord
  2
*D24
340
0
  0
BLOCK_RECORD
  5
40F
330
1
100
AcDbSymbolTableRecord
100
AcDbBlockTableRecord
  2
*D25
340
0
  0
BLOCK_RECORD
  5
41B
330
1
100
AcDbSymbolTableRecord
100
AcDbBlockTableRecord
  2
*D26
340
0
  0
BLOCK_RECORD
  5
457
330
1
100
AcDbSymbolTableRecord
100
AcDbBlockTableRecord
  2
*D27
340
0
  0
BLOCK_RECORD
  5
463
330
1
100
AcDbSymbolTableRecord
100
AcDbBlockTableRecord
  2
*D28
340
0
  0
BLOCK_RECORD
  5
46F
330
1
100
AcDbSymbolTableRecord
100
AcDbBlockTableRecord
  2
*D29
340
0
  0
BLOCK_RECORD
  5
47B
330
1
100
AcDbSymbolTableRecord
100
AcDbBlockTableRecord
  2
*D30
340
0
  0
BLOCK_RECORD
  5
48C
330
1
100
AcDbSymbolTableRecord
100
AcDbBlockTableRecord
  2
*D31
340
0
  0
ENDTAB
  0
ENDSEC
  0
SECTION
  2
BLOCKS
  0
BLOCK
  5
20
330
1F
100
AcDbEntity
  8
0
100
AcDbBlockBegin
  2
*Model_Space
 70
     0
 10
0.0
 20
0.0
 30
0.0
  3
*Model_Space
  1
*Model_Space
  0
ENDBLK
  5
21
330
1F
100
AcDbEntity
  8
0
100
AcDbBlockEnd
  0
BLOCK
  5
1C
330
1B
100
AcDbEntity
 67
     1
  8
0
100
AcDbBlockBegin
  2
*Paper_Space
 70
     0
 10
0.0
 20
0.0
 30
0.0
  3
*Paper_Space
  1
*Paper_Space
  0
ENDBLK
  5
1D
330
1B
100
AcDbEntity
 67
     1
  8
0
100
AcDbBlockEnd
  0
BLOCK
  5
24
330
23
100
AcDbEntity
  8
0
100
AcDbBlockBegin
  2
*Paper_Space0
 70
     0
 10
0.0
 20
0.0
 30
0.0
  3
*Paper_Space0
  1
*Paper_Space0
  0
ENDBLK
  5
25
330
23
100
AcDbEntity
  8
0
100
AcDbBlockEnd
  0
BLOCK
  5
80
330
7F
100
AcDbEntity
  8
0
100
AcDbBlockBegin
  2
블럭10
 70
     2
 10
0.0
 20
0.0
 30
0.0
  3
블럭10
  1
블럭10
  0
ELLIPSE
  5
82
330
7F
100
AcDbEntity
  8
중심선
100
AcDbEllipse
 10
20.54032771741204
 20
12.0471743016438
 30
0.0
 11
6.600054785286829
 21
-1.261213355974178E-13
 31
0.0
210
0.0
220
0.0
230
1.0
 40
0.636358354079598
 41
0.9219305317359503
 42
6.513795318482858
  0
ELLIPSE
  5
83
330
7F
100
AcDbEntity
  8
중심선
100
AcDbEllipse
 10
20.54032771746488
 20
12.04717430159265
 30
0.0
 11
3.960054785062283
 21
1.540847449632565E-10
 31
0.0
210
0.0
220
0.0
230
1.0
 40
0.3939339440162632
 41
1.131841032648279
 42
5.62031148352944
  0
LINE
  5
84
330
7F
100
AcDbEntity
  8
중심선
100
AcDbLine
 10
2.268634060543552
 20
16.24717430164393
 30
0.0
 11
5.714909304380834
 21
16.24717430164393
 31
0.0
  0
LINE
  5
85
330
7F
100
AcDbEntity
  8
중심선
100
AcDbLine
 10
5.245725140726316
 20
7.84717430164391
 30
0.0
 11
8.692000384563599
 21
7.84717430164391
 31
0.0
  0
LINE
  5
86
330
7F
100
AcDbEntity
  8
중심선
100
AcDbLine
 10
15.74043728645272
 20
16.24717430164393
 30
0.0
 11
8.692000384563599
 21
7.84717430164391
 31
0.0
  0
LINE
  5
87
330
7F
100
AcDbEntity
  8
중심선
100
AcDbLine
 10
0.1404042013395286
 20
13.71084872107135
 30
0.0
 11
3.58671253028996
 21
13.71088815037384
 31
0.0
  0
LINE
  5
88
330
7F
100
AcDbEntity
  8
중심선
100
AcDbLine
 10
2.750260043222114
 20
10.84717430164391
 30
0.0
 11
6.196535287059397
 21
10.84717430164391
 31
0.0
  0
LINE
  5
89
330
7F
100
AcDbEntity
  8
중심선
100
AcDbLine
 10
12.29416204261559
 20
16.24717430164393
 30
0.0
 11
5.245725140726316
 21
7.84717430164391
 31
0.0
  0
LINE
  5
8A
330
7F
100
AcDbEntity
  8
중심선
100
AcDbLine
 10
10.72767329541681
 20
16.24717430164393
 30
0.0
 11
6.196535287059397
 21
10.84717430164391
 31
0.0
  0
LINE
  5
8B
330
7F
100
AcDbEntity
  8
중심선
100
AcDbLine
 10
7.28139805157953
 20
16.24717430164393
 30
0.0
 11
2.750260043222114
 21
10.84717430164391
 31
0.0
  0
LINE
  5
8C
330
7F
100
AcDbEntity
  8
중심선
100
AcDbLine
 10
5.714909304380834
 20
16.24717430164393
 30
0.0
 11
3.58671253028996
 21
13.71088815037384
 31
0.0
  0
LINE
  5
8D
330
7F
100
AcDbEntity
  8
중심선
100
AcDbLine
 10
2.268634060543552
 20
16.24717430164393
 30
0.0
 11
0.1404042013395286
 21
13.71084872107135
 31
0.0
  0
LINE
  5
8E
330
7F
100
AcDbEntity
  8
중심선
100
AcDbLine
 10
7.28139805157953
 20
16.24717430164393
 30
0.0
 11
10.72767329541681
 21
16.24717430164393
 31
0.0
  0
LINE
  5
8F
330
7F
100
AcDbEntity
  8
중심선
100
AcDbLine
 10
12.29416204261559
 20
16.24717430164393
 30
0.0
 11
15.74043728645272
 21
16.24717430164393
 31
0.0
  0
LINE
  5
90
330
7F
100
AcDbEntity
  8
중심선
100
AcDbLine
 10
19.22036997980202
 20
11.08717430171403
 30
0.0
 11
23.66174974927406
 21
11.08717430171406
 31
0.0
  0
LINE
  5
91
330
7F
100
AcDbEntity
  8
중심선
100
AcDbLine
 10
19.22039502424796
 20
13.00717430171391
 30
0.0
 11
19.22036997980202
 21
11.08717430171403
 31
0.0
  0
LINE
  5
92
330
7F
100
AcDbEntity
  8
중심선
100
AcDbLine
 10
19.22039502424796
 20
13.00717430171391
 30
0.0
 11
26.96566020931264
 21
13.00717430171391
 31
0.0
  0
LINE
  5
93
330
7F
100
AcDbEntity
  8
중심선
100
AcDbLine
 10
22.22332737316547
 20
13.45928029700563
 30
0.0
 11
24.52862924686651
 21
15.39360700705356
 31
0.0
  0
ATTDEF
  5
95
330
7F
100
AcDbEntity
  8
FORMAT
 62
     2
100
AcDbText
 10
4.408487351596664
 20
2.075366912832191
 30
0.0
 40
4.233333333333333
  1
E1110132
 41
0.75
  7
SLDTEXTSTYLE0
 11
4.408487351596664
 21
-0.0412997538344756
 31
0.0
100
AcDbAttributeDefinition
  3

  2
AUTOATTR0
 70
     0
 74
     1
  0
ENDBLK
  5
81
330
7F
100
AcDbEntity
  8
0
100
AcDbBlockEnd
  0
BLOCK
  5
B3
330
B2
100
AcDbEntity
  8
0
100
AcDbBlockBegin
  2
_D
 70
     0
 10
0.0
 20
0.0
 30
0.0
  3
_D
  1
_D
  0
LINE
  5
B5
330
B2
100
AcDbEntity
  8
치수문자_일반주서
 62
     0
370
    -2
100
AcDbLine
 10
65.49999999999997
 20
19.11250000000001
 30
0.0
 11
65.49999999999997
 21
37.84816203464862
 31
0.0
  0
LINE
  5
B6
330
B2
100
AcDbEntity
  8
치수문자_일반주서
 62
     0
370
    -2
100
AcDbLine
 10
1.999999999999996
 20
18.3696124587937
 30
0.0
 11
1.999999999999996
 21
37.84816203464862
 31
0.0
  0
LINE
  5
B7
330
B2
100
AcDbEntity
  8
치수문자_일반주서
 62
     0
370
    -2
100
AcDbLine
 10
62.19799999999997
 20
37.84816203464862
 30
0.0
 11
5.301999999999996
 21
37.84816203464862
 31
0.0
  0
SOLID
  5
B8
330
B2
100
AcDbEntity
  8
치수문자_일반주서
 62
     0
100
AcDbTrace
 10
62.19799999999997
 20
37.29782870131529
 30
0.0
 11
62.19799999999997
 21
38.39849536798196
 31
0.0
 12
65.49999999999997
 22
37.84816203464862
 32
0.0
 13
65.49999999999997
 23
37.84816203464862
 33
0.0
  0
SOLID
  5
B9
330
B2
100
AcDbEntity
  8
치수문자_일반주서
 62
     0
100
AcDbTrace
 10
5.301999999999996
 20
38.39849536798196
 30
0.0
 11
5.301999999999996
 21
37.29782870131529
 31
0.0
 12
1.999999999999996
 22
37.84816203464862
 32
0.0
 13
1.999999999999996
 23
37.84816203464862
 33
0.0
  0
MTEXT
  5
BA
330
B2
100
AcDbEntity
  8
치수문자_일반주서
 62
     0
100
AcDbMText
 10
31.80571924176257
 20
42.22316203464862
 30
0.0
 40
3.5
 41
0.0
 71
     2
 72
     1
  1
\A1;63.5 [2 1/2]
  7
SLDTEXTSTYLE0
 73
     1
 44
1.0
  0
POINT
  5
BB
330
B2
100
AcDbEntity
  8
Defpoints
 62
     0
100
AcDbPoint
 10
65.49999999999997
 20
19.05000000000001
 30
0.0
  0
POINT
  5
BC
330
B2
100
AcDbEntity
  8
Defpoints
 62
     0
100
AcDbPoint
 10
1.999999999999996
 20
18.3071124587937
 30
0.0
  0
POINT
  5
BD
330
B2
100
AcDbEntity
  8
Defpoints
 62
     0
100
AcDbPoint
 10
1.999999999999996
 20
37.84816203464862
 30
0.0
  0
ENDBLK
  5
B4
330
B2
100
AcDbEntity
  8
0
100
AcDbBlockEnd
  0
BLOCK
  5
C8
330
C7
100
AcDbEntity
  8
0
100
AcDbBlockBegin
  2
_D_1
 70
     0
 10
0.0
 20
0.0
 30
0.0
  3
_D_1
  1
_D_1
  0
LINE
  5
CA
330
C7
100
AcDbEntity
  8
치수문자_일반주서
 62
     0
370
    -2
100
AcDbLine
 10
78.34926131403117
 20
4.337226723198786
 30
0.0
 11
78.34926131403117
 21
38.76357492872395
 31
0.0
  0
LINE
  5
CB
330
C7
100
AcDbEntity
  8
치수문자_일반주서
 62
     0
370
    -2
100
AcDbLine
 10
-48.65073868596884
 20
14.93857492872389
 30
0.0
 11
-48.65073868596884
 21
38.76357492872395
 31
0.0
  0
LINE
  5
CC
330
C7
100
AcDbEntity
  8
치수문자_일반주서
 62
     0
370
    -2
100
AcDbLine
 10
75.04726131403118
 20
38.76357492872395
 30
0.0
 11
-45.34873868596884
 21
38.76357492872395
 31
0.0
  0
SOLID
  5
CD
330
C7
100
AcDbEntity
  8
치수문자_일반주서
 62
     0
100
AcDbTrace
 10
75.04726131403118
 20
38.21324159539062
 30
0.0
 11
75.04726131403118
 21
39.31390826205729
 31
0.0
 12
78.34926131403117
 22
38.76357492872395
 32
0.0
 13
78.34926131403117
 23
38.76357492872395
 33
0.0
  0
SOLID
  5
CE
330
C7
100
AcDbEntity
  8
치수문자_일반주서
 62
     0
100
AcDbTrace
 10
-45.34873868596884
 20
39.31390826205729
 30
0.0
 11
-45.34873868596884
 21
38.21324159539062
 31
0.0
 12
-48.65073868596884
 22
38.76357492872395
 32
0.0
 13
-48.65073868596884
 23
38.76357492872395
 33
0.0
  0
MTEXT
  5
CF
330
C7
100
AcDbEntity
  8
치수문자_일반주서
 62
     0
100
AcDbMText
 10
14.84926131403116
 20
43.13857492872395
 30
0.0
 40
3.5
 41
0.0
 71
     2
 72
     1
  1
\A1;127 [5]
  7
SLDTEXTSTYLE0
 73
     1
 44
1.0
  0
POINT
  5
D0
330
C7
100
AcDbEntity
  8
Defpoints
 62
     0
100
AcDbPoint
 10
78.34926131403117
 20
4.274726723198786
 30
0.0
  0
POINT
  5
D1
330
C7
100
AcDbEntity
  8
Defpoints
 62
     0
100
AcDbPoint
 10
-48.65073868596884
 20
14.87607492872389
 30
0.0
  0
POINT
  5
D2
330
C7
100
AcDbEntity
  8
Defpoints
 62
     0
100
AcDbPoint
 10
-48.65073868596884
 20
38.76357492872395
 30
0.0
  0
ENDBLK
  5
C9
330
C7
100
AcDbEntity
  8
0
100
AcDbBlockEnd
  0
BLOCK
  5
DB
330
DA
100
AcDbEntity
  8
0
100
AcDbBlockBegin
  2
_D_2
 70
     0
 10
0.0
 20
0.0
 30
0.0
  3
_D_2
  1
_D_2
  0
SOLID
  5
DD
330
DA
100
AcDbEntity
  8
치수문자_일반주서
100
AcDbTrace
 10
-61.15073868596883
 20
15.8760749287239
 30
0.0
 11
-61.65873868596884
 21
12.5740749287239
 31
0.0
 12
-60.64273868596883
 22
12.5740749287239
 32
0.0
 13
-60.64273868596883
 23
12.5740749287239
 33
0.0
  0
SOLID
  5
DE
330
DA
100
AcDbEntity
  8
치수문자_일반주서
100
AcDbTrace
 10
-61.15073868596883
 20
-15.8739250712761
 30
0.0
 11
-60.64273868596883
 21
-12.5719250712761
 31
0.0
 12
-61.65873868596884
 22
-12.5719250712761
 32
0.0
 13
-61.65873868596884
 23
-12.5719250712761
 33
0.0
  0
LINE
  5
DF
330
DA
100
AcDbEntity
  8
치수문자_일반주서
100
AcDbLine
 10
-71.94362040201153
 20
-5.413291502344814
 30
0.0
 11
-71.94362040201153
 21
-6.124228987909314
 31
0.0
  0
LINE
  5
E0
330
DA
100
AcDbEntity
  8
치수문자_일반주서
100
AcDbLine
 10
-71.94362040201153
 20
-6.124228987909314
 30
0.0
 11
-66.38737041095223
 21
-6.124228987909275
 31
0.0
  0
LINE
  5
E1
330
DA
100
AcDbEntity
  8
치수문자_일반주서
100
AcDbLine
 10
-66.38737041095223
 20
-6.124228987909275
 30
0.0
 11
-66.38737041095223
 21
-5.413291502344775
 31
0.0
  0
LINE
  5
E2
330
DA
100
AcDbEntity
  8
치수문자_일반주서
100
AcDbLine
 10
-71.94362040201162
 20
5.415441359792444
 30
0.0
 11
-71.94362040201162
 21
6.126378845356944
 31
0.0
  0
LINE
  5
E3
330
DA
100
AcDbEntity
  8
치수문자_일반주서
100
AcDbLine
 10
-71.94362040201162
 20
6.126378845356944
 30
0.0
 11
-66.38737041095231
 21
6.126378845356983
 31
0.0
  0
LINE
  5
E4
330
DA
100
AcDbEntity
  8
치수문자_일반주서
100
AcDbLine
 10
-66.38737041095231
 20
6.126378845356983
 30
0.0
 11
-66.38737041095231
 21
5.415441359792483
 31
0.0
  0
LINE
  5
E5
330
DA
100
AcDbEntity
  8
치수문자_일반주서
100
AcDbLine
 10
-48.65073868596884
 20
15.8760749287239
 30
0.0
 11
-62.15073868596883
 21
15.8760749287239
 31
0.0
  0
LINE
  5
E6
330
DA
100
AcDbEntity
  8
치수문자_일반주서
100
AcDbLine
 10
-48.65073868596884
 20
-15.8739250712761
 30
0.0
 11
-62.15073868596883
 21
-15.8739250712761
 31
0.0
  0
LINE
  5
E7
330
DA
100
AcDbEntity
  8
치수문자_일반주서
100
AcDbLine
 10
-61.15073868596883
 20
15.8760749287239
 30
0.0
 11
-61.15073868596883
 21
-15.8739250712761
 31
0.0
  0
MTEXT
  5
E8
330
DA
100
AcDbEntity
  8
치수문자_일반주서
100
AcDbMText
 10
-70.89910732553115
 20
-4.524619601733436
 30
0.0
 40
3.5
 41
0.0
 71
     1
 72
     1
  1
1.25
  7
SLDTEXTSTYLE0
 11
-7.044195017643634E-15
 21
1.0
 31
0.0
 73
     1
 44
1.0
  0
MTEXT
  5
E9
330
DA
100
AcDbEntity
  8
치수문자_일반주서
100
AcDbMText
 10
-65.66247577517065
 20
-8.456894014097168
 30
0.0
 40
3.5
 41
0.0
 71
     1
 72
     1
  1
%%c
  7
SLDTEXTSTYLE0
 11
-7.044195017643634E-15
 21
1.0
 31
0.0
 73
     1
 44
1.0
  0
MTEXT
  5
EA
330
DA
100
AcDbEntity
  8
치수문자_일반주서
100
AcDbMText
 10
-65.66247577517068
 20
-3.178456615723087
 30
0.0
 40
3.5
 41
0.0
 71
     1
 72
     1
  1
31.75
  7
SLDTEXTSTYLE0
 11
-7.044195017643634E-15
 21
1.0
 31
0.0
 73
     1
 44
1.0
  0
ENDBLK
  5
DC
330
DA
100
AcDbEntity
  8
0
100
AcDbBlockEnd
  0
BLOCK
  5
ED
330
EC
100
AcDbEntity
  8
0
100
AcDbBlockBegin
  2
_D_3
 70
     0
 10
0.0
 20
0.0
 30
0.0
  3
_D_3
  1
_D_3
  0
LINE
  5
EF
330
EC
100
AcDbEntity
  8
치수문자_일반주서
 62
     0
370
    -2
100
AcDbLine
 10
65.56249999999997
 20
19.05000000000001
 30
0.0
 11
80.86714980377387
 21
19.05000000000007
 31
0.0
  0
LINE
  5
F0
330
EC
100
AcDbEntity
  8
치수문자_일반주서
 62
     0
370
    -2
100
AcDbLine
 10
65.5625
 20
-19.04999999999998
 30
0.0
 11
80.867149803774
 21
-19.04999999999993
 31
0.0
  0
LINE
  5
F1
330
EC
100
AcDbEntity
  8
치수문자_일반주서
 62
     0
370
    -2
100
AcDbLine
 10
80.86714980377387
 20
19.05000000000007
 30
0.0
 11
80.86714980377376
 21
56.6030679241056
 31
0.0
  0
LINE
  5
F2
330
EC
100
AcDbEntity
  8
치수문자_일반주서
 62
     0
370
    -2
100
AcDbLine
 10
80.86714980377388
 20
15.74800000000007
 30
0.0
 11
80.86714980377398
 21
-15.74799999999993
 31
0.0
  0
SOLID
  5
F3
330
EC
100
AcDbEntity
  8
치수문자_일반주서
 62
     0
100
AcDbTrace
 10
81.41748313710721
 20
15.74800000000007
 30
0.0
 11
80.31681647044056
 21
15.74800000000007
 31
0.0
 12
80.86714980377387
 22
19.05000000000007
 32
0.0
 13
80.86714980377387
 23
19.05000000000007
 33
0.0
  0
SOLID
  5
F4
330
EC
100
AcDbEntity
  8
치수문자_일반주서
 62
     0
100
AcDbTrace
 10
80.31681647044066
 20
-15.74799999999993
 30
0.0
 11
81.41748313710731
 21
-15.74799999999992
 31
0.0
 12
80.867149803774
 22
-19.04999999999993
 32
0.0
 13
80.867149803774
 23
-19.04999999999993
 33
0.0
  0
MTEXT
  5
F5
330
EC
100
AcDbEntity
  8
치수문자_일반주서
 62
     0
100
AcDbMText
 10
76.4921498037738
 20
42.16556792410559
 30
0.0
 40
3.5
 41
0.0
 71
     2
 72
     1
  1
\A1;%%c38.1 [1 1/2]
  7
SLDTEXTSTYLE0
 11
-3.356894814614647E-15
 21
1.0
 31
0.0
 73
     1
 44
1.0
  0
POINT
  5
F6
330
EC
100
AcDbEntity
  8
Defpoints
 62
     0
100
AcDbPoint
 10
65.49999999999997
 20
19.05000000000001
 30
0.0
  0
POINT
  5
F7
330
EC
100
AcDbEntity
  8
Defpoints
 62
     0
100
AcDbPoint
 10
65.5
 20
-19.04999999999998
 30
0.0
  0
POINT
  5
F8
330
EC
100
AcDbEntity
  8
Defpoints
 62
     0
100
AcDbPoint
 10
80.867149803774
 20
-19.04999999999992
 30
0.0
  0
ENDBLK
  5
EE
330
EC
100
AcDbEntity
  8
0
100
AcDbBlockEnd
  0
BLOCK
  5
106
330
105
100
AcDbEntity
  8
0
100
AcDbBlockBegin
  2
SW_DOWELSYMBOL_0
 70
     0
 10
0.0
 20
0.0
 30
0.0
  3
SW_DOWELSYMBOL_0
  1
SW_DOWELSYMBOL_0
  0
CIRCLE
  5
108
330
105
100
AcDbEntity
  8
해칭선
 62
     0
100
AcDbCircle
 10
0.0
 20
0.0
 30
0.0
 40
3.000000000000003
  0
HATCH
  5
109
330
105
100
AcDbEntity
  8
0
  6
Continuous
 62
     0
370
     0
100
AcDbHatch
 10
0.0
 20
0.0
 30
0.0
210
0.0
220
0.0
230
1.0
  2
SOLID
 70
     1
 71
     0
 91
        1
 92
        0
 93
        3
 72
     2
 10
0.0
 20
0.0
 40
3.000000000000003
 50
0.0
 51
90.0
 73
     1
 72
     1
 10
0.0
 20
3.000000000000003
 11
0.0
 21
0.0
 72
     1
 10
0.0
 20
0.0
 11
3.000000000000003
 21
0.0
 97
        0
 75
     0
 76
     1
 98
        1
 10
0.0
 20
0.0
  0
HATCH
  5
10A
330
105
100
AcDbEntity
  8
0
  6
Continuous
 62
     0
370
     0
100
AcDbHatch
 10
0.0
 20
0.0
 30
0.0
210
0.0
220
0.0
230
1.0
  2
SOLID
 70
     1
 71
     0
 91
        1
 92
        0
 93
        3
 72
     2
 10
0.0
 20
0.0
 40
3.000000000000003
 50
180.0
 51
270.0000000000007
 73
     1
 72
     1
 10
0.0
 20
-3.000000000000003
 11
0.0
 21
0.0
 72
     1
 10
0.0
 20
0.0
 11
-3.000000000000003
 21
0.0
 97
        0
 75
     0
 76
     1
 98
        1
 10
0.0
 20
0.0
  0
ENDBLK
  5
107
330
105
100
AcDbEntity
  8
0
100
AcDbBlockEnd
  0
BLOCK
  5
1C4
330
1C3
100
AcDbEntity
  8
0
100
AcDbBlockBegin
  2
*D7
 70
     1
 10
0.0
 20
0.0
 30
0.0
  3
*D7
  1
*D8
  0
LINE
  5
1C6
330
1C3
100
AcDbEntity
  8
치수문자_일반주서
 62
     0
370
    -2
100
AcDbLine
 10
143.8750000000001
 20
31.84695802388574
 30
0.0
 11
143.8750000000001
 21
35.73505780330215
 31
0.0
  0
LINE
  5
1C7
330
1C3
100
AcDbEntity
  8
치수문자_일반주서
 62
     0
370
    -2
100
AcDbLine
 10
80.37500000000006
 20
31.27133370777133
 30
0.0
 11
80.37500000000006
 21
35.73505780330215
 31
0.0
  0
LINE
  5
1C8
330
1C3
100
AcDbEntity
  8
치수문자_일반주서
 62
     0
370
    -2
100
AcDbLine
 10
140.5730000000001
 20
35.73505780330215
 30
0.0
 11
83.67700000000005
 21
35.73505780330215
 31
0.0
  0
SOLID
  5
1C9
330
1C3
100
AcDbEntity
  8
치수문자_일반주서
 62
     0
100
AcDbTrace
 10
140.5730000000001
 20
35.18472446996882
 30
0.0
 11
140.5730000000001
 21
36.28539113663549
 31
0.0
 12
143.8750000000001
 22
35.73505780330215
 32
0.0
 13
143.8750000000001
 23
35.73505780330215
 33
0.0
  0
SOLID
  5
1CA
330
1C3
100
AcDbEntity
  8
치수문자_일반주서
 62
     0
100
AcDbTrace
 10
83.67700000000005
 20
36.28539113663549
 30
0.0
 11
83.67700000000005
 21
35.18472446996882
 31
0.0
 12
80.37500000000006
 22
35.73505780330215
 32
0.0
 13
80.37500000000006
 23
35.73505780330215
 33
0.0
  0
MTEXT
  5
1CB
330
1C3
100
AcDbEntity
  8
치수문자_일반주서
 62
     0
100
AcDbMText
 10
114.7604069093419
 20
40.11005780330215
 30
0.0
 40
3.5
 41
0.0
 71
     2
 72
     1
  1
\A1;63.5 [2 1/2]
  7
SLDTEXTSTYLE0
 73
     1
 44
1.0
  0
POINT
  5
1CC
330
1C3
100
AcDbEntity
  8
Defpoints
 62
     0
100
AcDbPoint
 10
143.8750000000001
 20
31.78445802388574
 30
0.0
  0
POINT
  5
1CD
330
1C3
100
AcDbEntity
  8
Defpoints
 62
     0
100
AcDbPoint
 10
80.37500000000006
 20
31.20883370777133
 30
0.0
  0
POINT
  5
1CE
330
1C3
100
AcDbEntity
  8
Defpoints
 62
     0
100
AcDbPoint
 10
80.37500000000006
 20
35.73505780330215
 30
0.0
  0
ENDBLK
  5
1C5
330
1C3
100
AcDbEntity
  8
0
100
AcDbBlockEnd
  0
BLOCK
  5
1D0
330
1CF
100
AcDbEntity
  8
0
100
AcDbBlockBegin
  2
*D8
 70
     1
 10
0.0
 20
0.0
 30
0.0
  3
*D8
  1
*D9
  0
LINE
  5
1D2
330
1CF
100
AcDbEntity
  8
치수문자_일반주서
 62
     0
370
    -2
100
AcDbLine
 10
143.8750000000001
 20
31.84695802388574
 30
0.0
 11
143.8750000000001
 21
54.6719580238858
 31
0.0
  0
LINE
  5
1D3
330
1CF
100
AcDbEntity
  8
치수문자_일반주서
 62
     0
370
    -2
100
AcDbLine
 10
16.87500000000006
 20
30.84695802388573
 30
0.0
 11
16.87500000000006
 21
54.6719580238858
 31
0.0
  0
LINE
  5
1D4
330
1CF
100
AcDbEntity
  8
치수문자_일반주서
 62
     0
370
    -2
100
AcDbLine
 10
140.5730000000001
 20
54.6719580238858
 30
0.0
 11
20.17700000000006
 21
54.6719580238858
 31
0.0
  0
SOLID
  5
1D5
330
1CF
100
AcDbEntity
  8
치수문자_일반주서
 62
     0
100
AcDbTrace
 10
140.5730000000001
 20
54.12162469055247
 30
0.0
 11
140.5730000000001
 21
55.22229135721913
 31
0.0
 12
143.8750000000001
 22
54.6719580238858
 32
0.0
 13
143.8750000000001
 23
54.6719580238858
 33
0.0
  0
SOLID
  5
1D6
330
1CF
100
AcDbEntity
  8
치수문자_일반주서
 62
     0
100
AcDbTrace
 10
20.17700000000006
 20
55.22229135721913
 30
0.0
 11
20.17700000000006
 21
54.12162469055247
 31
0.0
 12
16.87500000000006
 22
54.6719580238858
 32
0.0
 13
16.87500000000006
 23
54.6719580238858
 33
0.0
  0
MTEXT
  5
1D7
330
1CF
100
AcDbEntity
  8
치수문자_일반주서
 62
     0
100
AcDbMText
 10
80.37500000000006
 20
59.0469580238858
 30
0.0
 40
3.5
 41
0.0
 71
     2
 72
     1
  1
\A1;127 [5]
  7
SLDTEXTSTYLE0
 73
     1
 44
1.0
  0
POINT
  5
1D8
330
1CF
100
AcDbEntity
  8
Defpoints
 62
     0
100
AcDbPoint
 10
143.8750000000001
 20
31.78445802388574
 30
0.0
  0
POINT
  5
1D9
330
1CF
100
AcDbEntity
  8
Defpoints
 62
     0
100
AcDbPoint
 10
16.87500000000006
 20
30.78445802388573
 30
0.0
  0
POINT
  5
1DA
330
1CF
100
AcDbEntity
  8
Defpoints
 62
     0
100
AcDbPoint
 10
16.87500000000006
 20
54.6719580238858
 30
0.0
  0
ENDBLK
  5
1D1
330
1CF
100
AcDbEntity
  8
0
100
AcDbBlockEnd
  0
BLOCK
  5
1DC
330
1DB
100
AcDbEntity
  8
0
100
AcDbBlockBegin
  2
*D9
 70
     1
 10
0.0
 20
0.0
 30
0.0
  3
*D9
  1
*D10
  0
LINE
  5
1DE
330
1DB
100
AcDbEntity
  8
치수문자_일반주서
 62
     0
370
    -2
100
AcDbLine
 10
17.81250000000006
 20
31.78445802388574
 30
0.0
 11
4.374999999999988
 21
31.78445802388569
 31
0.0
  0
LINE
  5
1DF
330
1DB
100
AcDbEntity
  8
치수문자_일반주서
 62
     0
370
    -2
100
AcDbLine
 10
17.81250000000006
 20
0.0344580238857384
 30
0.0
 11
4.375000000000099
 21
0.0344580238856889
 31
0.0
  0
LINE
  5
1E0
330
1DB
100
AcDbEntity
  8
치수문자_일반주서
 62
     0
370
    -2
100
AcDbLine
 10
4.374999999999999
 20
28.48245802388569
 30
0.0
 11
4.375000000000087
 21
3.336458023885688
 31
0.0
  0
SOLID
  5
1E1
330
1DB
100
AcDbEntity
  8
치수문자_일반주서
 62
     0
100
AcDbTrace
 10
4.925333333333333
 20
28.48245802388569
 30
0.0
 11
3.824666666666666
 21
28.48245802388569
 31
0.0
 12
4.374999999999988
 22
31.78445802388569
 32
0.0
 13
4.374999999999988
 23
31.78445802388569
 33
0.0
  0
SOLID
  5
1E2
330
1DB
100
AcDbEntity
  8
치수문자_일반주서
 62
     0
100
AcDbTrace
 10
3.824666666666754
 20
3.336458023885687
 30
0.0
 11
4.925333333333421
 21
3.33645802388569
 31
0.0
 12
4.375000000000099
 22
0.0344580238856889
 32
0.0
 13
4.375000000000099
 23
0.0344580238856889
 33
0.0
  0
MTEXT
  5
1E3
330
1DB
100
AcDbEntity
  8
치수문자_일반주서
 62
     0
100
AcDbMText
 10
0.0000000000000426
 20
15.90945802388572
 30
0.0
 40
3.5
 41
0.0
 71
     2
 72
     1
  1
\A1;%%c31.75 [1 1/4]
  7
SLDTEXTSTYLE0
 11
-3.496765431890257E-15
 21
1.0
 31
0.0
 73
     1
 44
1.0
  0
POINT
  5
1E4
330
1DB
100
AcDbEntity
  8
Defpoints
 62
     0
100
AcDbPoint
 10
17.87500000000006
 20
31.78445802388574
 30
0.0
  0
POINT
  5
1E5
330
1DB
100
AcDbEntity
  8
Defpoints
 62
     0
100
AcDbPoint
 10
17.87500000000006
 20
0.0344580238857386
 30
0.0
  0
POINT
  5
1E6
330
1DB
100
AcDbEntity
  8
Defpoints
 62
     0
100
AcDbPoint
 10
4.375000000000099
 20
0.0344580238856882
 30
0.0
  0
ENDBLK
  5
1DD
330
1DB
100
AcDbEntity
  8
0
100
AcDbBlockEnd
  0
BLOCK
  5
1E8
330
1E7
100
AcDbEntity
  8
0
100
AcDbBlockBegin
  2
*D10
 70
     1
 10
0.0
 20
0.0
 30
0.0
  3
*D10
  1
*D11
  0
LINE
  5
1EA
330
1E7
100
AcDbEntity
  8
치수문자_일반주서
 62
     0
370
    -2
100
AcDbLine
 10
143.9375000000001
 20
31.78445802388574
 30
0.0
 11
163.9484955240948
 21
31.78445802388581
 31
0.0
  0
LINE
  5
1EB
330
1E7
100
AcDbEntity
  8
치수문자_일반주서
 62
     0
370
    -2
100
AcDbLine
 10
143.9375000000001
 20
0.0449842400634497
 30
0.0
 11
163.9484955240949
 21
0.0449842400635205
 31
0.0
  0
LINE
  5
1EC
330
1E7
100
AcDbEntity
  8
치수문자_일반주서
 62
     0
370
    -2
100
AcDbLine
 10
163.9484955240948
 20
31.78445802388581
 30
0.0
 11
163.9484955240947
 21
67.68020802388581
 31
0.0
  0
LINE
  5
1ED
330
1E7
100
AcDbEntity
  8
치수문자_일반주서
 62
     0
370
    -2
100
AcDbLine
 10
163.9484955240948
 20
28.48245802388582
 30
0.0
 11
163.9484955240949
 21
3.34698424006352
 31
0.0
  0
SOLID
  5
1EE
330
1E7
100
AcDbEntity
  8
치수문자_일반주서
 62
     0
100
AcDbTrace
 10
164.4988288574281
 20
28.48245802388582
 30
0.0
 11
163.3981621907615
 21
28.48245802388581
 31
0.0
 12
163.9484955240948
 22
31.78445802388581
 32
0.0
 13
163.9484955240948
 23
31.78445802388581
 33
0.0
  0
SOLID
  5
1EF
330
1E7
100
AcDbEntity
  8
치수문자_일반주서
 62
     0
100
AcDbTrace
 10
163.3981621907616
 20
3.346984240063518
 30
0.0
 11
164.4988288574282
 21
3.346984240063522
 31
0.0
 12
163.9484955240949
 22
0.0449842400635205
 32
0.0
 13
163.9484955240949
 23
0.0449842400635205
 33
0.0
  0
MTEXT
  5
1F0
330
1E7
100
AcDbEntity
  8
치수문자_일반주서
 62
     0
100
AcDbMText
 10
159.5734955240947
 20
51.9302080238858
 30
0.0
 40
3.5
 41
0.0
 71
     2
 72
     1
  1
\A1;%%c31.74 [1 1/4]
  7
SLDTEXTSTYLE0
 11
-3.581875317024398E-15
 21
1.0
 31
0.0
 73
     1
 44
1.0
  0
POINT
  5
1F1
330
1E7
100
AcDbEntity
  8
Defpoints
 62
     0
100
AcDbPoint
 10
143.8750000000001
 20
31.78445802388574
 30
0.0
  0
POINT
  5
1F2
330
1E7
100
AcDbEntity
  8
Defpoints
 62
     0
100
AcDbPoint
 10
143.8750000000001
 20
0.0449842400634495
 30
0.0
  0
POINT
  5
1F3
330
1E7
100
AcDbEntity
  8
Defpoints
 62
     0
100
AcDbPoint
 10
163.9484955240949
 20
0.0449842400635245
 30
0.0
  0
ENDBLK
  5
1E9
330
1E7
100
AcDbEntity
  8
0
100
AcDbBlockEnd
  0
BLOCK
  5
224
330
223
100
AcDbEntity
  8
0
100
AcDbBlockBegin
  2
*D11
 70
     1
 10
0.0
 20
0.0
 30
0.0
  3
*D11
  1
*D12
  0
LINE
  5
226
330
223
100
AcDbEntity
  8
치수문자_일반주서
 62
     0
370
    -2
100
AcDbLine
 10
256.8853779866241
 20
-55.74514021287828
 30
0.0
 11
256.8853779866241
 21
-51.85704043346186
 31
0.0
  0
LINE
  5
227
330
223
100
AcDbEntity
  8
치수문자_일반주서
 62
     0
370
    -2
100
AcDbLine
 10
193.3853779866241
 20
-56.32076452899269
 30
0.0
 11
193.3853779866241
 21
-51.85704043346186
 31
0.0
  0
LINE
  5
228
330
223
100
AcDbEntity
  8
치수문자_일반주서
 62
     0
370
    -2
100
AcDbLine
 10
253.5833779866241
 20
-51.85704043346186
 30
0.0
 11
196.6873779866241
 21
-51.85704043346186
 31
0.0
  0
SOLID
  5
229
330
223
100
AcDbEntity
  8
치수문자_일반주서
 62
     0
100
AcDbTrace
 10
253.5833779866241
 20
-52.4073737667952
 30
0.0
 11
253.5833779866241
 21
-51.30670710012853
 31
0.0
 12
256.8853779866241
 22
-51.85704043346186
 32
0.0
 13
256.8853779866241
 23
-51.85704043346186
 33
0.0
  0
SOLID
  5
22A
330
223
100
AcDbEntity
  8
치수문자_일반주서
 62
     0
100
AcDbTrace
 10
196.6873779866241
 20
-51.30670710012853
 30
0.0
 11
196.6873779866241
 21
-52.4073737667952
 31
0.0
 12
193.3853779866241
 22
-51.85704043346186
 32
0.0
 13
193.3853779866241
 23
-51.85704043346186
 33
0.0
  0
MTEXT
  5
22B
330
223
100
AcDbEntity
  8
치수문자_일반주서
 62
     0
100
AcDbMText
 10
227.770784895966
 20
-47.48204043346186
 30
0.0
 40
3.5
 41
0.0
 71
     2
 72
     1
  1
\A1;63.5 [2 1/2]
  7
SLDTEXTSTYLE0
 73
     1
 44
1.0
  0
POINT
  5
22C
330
223
100
AcDbEntity
  8
Defpoints
 62
     0
100
AcDbPoint
 10
256.8853779866241
 20
-55.80764021287828
 30
0.0
  0
POINT
  5
22D
330
223
100
AcDbEntity
  8
Defpoints
 62
     0
100
AcDbPoint
 10
193.3853779866241
 20
-56.38326452899269
 30
0.0
  0
POINT
  5
22E
330
223
100
AcDbEntity
  8
Defpoints
 62
     0
100
AcDbPoint
 10
193.3853779866241
 20
-51.85704043346186
 30
0.0
  0
ENDBLK
  5
225
330
223
100
AcDbEntity
  8
0
100
AcDbBlockEnd
  0
BLOCK
  5
230
330
22F
100
AcDbEntity
  8
0
100
AcDbBlockBegin
  2
*D12
 70
     1
 10
0.0
 20
0.0
 30
0.0
  3
*D12
  1
*D13
  0
LINE
  5
232
330
22F
100
AcDbEntity
  8
치수문자_일반주서
 62
     0
370
    -2
100
AcDbLine
 10
256.8853779866241
 20
-55.74514021287828
 30
0.0
 11
256.8853779866241
 21
-32.92014021287822
 31
0.0
  0
LINE
  5
233
330
22F
100
AcDbEntity
  8
치수문자_일반주서
 62
     0
370
    -2
100
AcDbLine
 10
129.8853779866241
 20
-56.74514021287828
 30
0.0
 11
129.8853779866241
 21
-32.92014021287822
 31
0.0
  0
LINE
  5
234
330
22F
100
AcDbEntity
  8
치수문자_일반주서
 62
     0
370
    -2
100
AcDbLine
 10
253.5833779866241
 20
-32.92014021287822
 30
0.0
 11
133.1873779866241
 21
-32.92014021287822
 31
0.0
  0
SOLID
  5
235
330
22F
100
AcDbEntity
  8
치수문자_일반주서
 62
     0
100
AcDbTrace
 10
253.5833779866241
 20
-33.47047354621155
 30
0.0
 11
253.5833779866241
 21
-32.36980687954488
 31
0.0
 12
256.8853779866241
 22
-32.92014021287822
 32
0.0
 13
256.8853779866241
 23
-32.92014021287822
 33
0.0
  0
SOLID
  5
236
330
22F
100
AcDbEntity
  8
치수문자_일반주서
 62
     0
100
AcDbTrace
 10
133.1873779866241
 20
-32.36980687954488
 30
0.0
 11
133.1873779866241
 21
-33.47047354621155
 31
0.0
 12
129.8853779866241
 22
-32.92014021287822
 32
0.0
 13
129.8853779866241
 23
-32.92014021287822
 33
0.0
  0
MTEXT
  5
237
330
22F
100
AcDbEntity
  8
치수문자_일반주서
 62
     0
100
AcDbMText
 10
193.3853779866241
 20
-28.54514021287822
 30
0.0
 40
3.5
 41
0.0
 71
     2
 72
     1
  1
\A1;127 [5]
  7
SLDTEXTSTYLE0
 73
     1
 44
1.0
  0
POINT
  5
238
330
22F
100
AcDbEntity
  8
Defpoints
 62
     0
100
AcDbPoint
 10
256.8853779866241
 20
-55.80764021287828
 30
0.0
  0
POINT
  5
239
330
22F
100
AcDbEntity
  8
Defpoints
 62
     0
100
AcDbPoint
 10
129.8853779866241
 20
-56.80764021287828
 30
0.0
  0
POINT
  5
23A
330
22F
100
AcDbEntity
  8
Defpoints
 62
     0
100
AcDbPoint
 10
129.8853779866241
 20
-32.92014021287822
 30
0.0
  0
ENDBLK
  5
231
330
22F
100
AcDbEntity
  8
0
100
AcDbBlockEnd
  0
BLOCK
  5
23C
330
23B
100
AcDbEntity
  8
0
100
AcDbBlockBegin
  2
*D13
 70
     1
 10
0.0
 20
0.0
 30
0.0
  3
*D13
  1
*D14
  0
LINE
  5
23E
330
23B
100
AcDbEntity
  8
치수문자_일반주서
 62
     0
370
    -2
100
AcDbLine
 10
130.8228779866241
 20
-55.80764021287828
 30
0.0
 11
117.3853779866241
 21
-55.80764021287833
 31
0.0
  0
LINE
  5
23F
330
23B
100
AcDbEntity
  8
치수문자_일반주서
 62
     0
370
    -2
100
AcDbLine
 10
130.8228779866241
 20
-87.55764021287828
 30
0.0
 11
117.3853779866242
 21
-87.55764021287834
 31
0.0
  0
LINE
  5
240
330
23B
100
AcDbEntity
  8
치수문자_일반주서
 62
     0
370
    -2
100
AcDbLine
 10
117.3853779866241
 20
-59.10964021287833
 30
0.0
 11
117.3853779866241
 21
-84.25564021287835
 31
0.0
  0
SOLID
  5
241
330
23B
100
AcDbEntity
  8
치수문자_일반주서
 62
     0
100
AcDbTrace
 10
117.9357113199574
 20
-59.10964021287833
 30
0.0
 11
116.8350446532907
 21
-59.10964021287833
 31
0.0
 12
117.3853779866241
 22
-55.80764021287833
 32
0.0
 13
117.3853779866241
 23
-55.80764021287833
 33
0.0
  0
SOLID
  5
242
330
23B
100
AcDbEntity
  8
치수문자_일반주서
 62
     0
100
AcDbTrace
 10
116.8350446532908
 20
-84.25564021287835
 30
0.0
 11
117.9357113199575
 21
-84.25564021287835
 31
0.0
 12
117.3853779866242
 22
-87.55764021287834
 32
0.0
 13
117.3853779866242
 23
-87.55764021287834
 33
0.0
  0
MTEXT
  5
243
330
23B
100
AcDbEntity
  8
치수문자_일반주서
 62
     0
100
AcDbMText
 10
113.0103779866241
 20
-71.6826402128783
 30
0.0
 40
3.5
 41
0.0
 71
     2
 72
     1
  1
\A1;%%c31.75 [1 1/4]
  7
SLDTEXTSTYLE0
 11
-3.580687802255621E-15
 21
1.0
 31
0.0
 73
     1
 44
1.0
  0
POINT
  5
244
330
23B
100
AcDbEntity
  8
Defpoints
 62
     0
100
AcDbPoint
 10
130.8853779866241
 20
-55.80764021287828
 30
0.0
  0
POINT
  5
245
330
23B
100
AcDbEntity
  8
Defpoints
 62
     0
100
AcDbPoint
 10
130.8853779866241
 20
-87.55764021287828
 30
0.0
  0
POINT
  5
246
330
23B
100
AcDbEntity
  8
Defpoints
 62
     0
100
AcDbPoint
 10
117.3853779866242
 20
-87.55764021287834
 30
0.0
  0
ENDBLK
  5
23D
330
23B
100
AcDbEntity
  8
0
100
AcDbBlockEnd
  0
BLOCK
  5
248
330
247
100
AcDbEntity
  8
0
100
AcDbBlockBegin
  2
*D14
 70
     1
 10
0.0
 20
0.0
 30
0.0
  3
*D14
  1
*D15
  0
LINE
  5
24A
330
247
100
AcDbEntity
  8
치수문자_일반주서
 62
     0
370
    -2
100
AcDbLine
 10
256.9478779866241
 20
-55.80764021287828
 30
0.0
 11
276.9588735107188
 21
-55.8076402128782
 31
0.0
  0
LINE
  5
24B
330
247
100
AcDbEntity
  8
치수문자_일반주서
 62
     0
370
    -2
100
AcDbLine
 10
256.9478779866241
 20
-87.54711399670057
 30
0.0
 11
276.9588735107189
 21
-87.54711399670049
 31
0.0
  0
LINE
  5
24C
330
247
100
AcDbEntity
  8
치수문자_일반주서
 62
     0
370
    -2
100
AcDbLine
 10
276.9588735107188
 20
-55.8076402128782
 30
0.0
 11
276.9588735107187
 21
-19.91189021287821
 31
0.0
  0
LINE
  5
24D
330
247
100
AcDbEntity
  8
치수문자_일반주서
 62
     0
370
    -2
100
AcDbLine
 10
276.9588735107188
 20
-59.1096402128782
 30
0.0
 11
276.9588735107189
 21
-84.2451139967005
 31
0.0
  0
SOLID
  5
24E
330
247
100
AcDbEntity
  8
치수문자_일반주서
 62
     0
100
AcDbTrace
 10
277.5092068440522
 20
-59.1096402128782
 30
0.0
 11
276.4085401773855
 21
-59.1096402128782
 31
0.0
 12
276.9588735107188
 22
-55.8076402128782
 32
0.0
 13
276.9588735107188
 23
-55.8076402128782
 33
0.0
  0
SOLID
  5
24F
330
247
100
AcDbEntity
  8
치수문자_일반주서
 62
     0
100
AcDbTrace
 10
276.4085401773856
 20
-84.2451139967005
 30
0.0
 11
277.5092068440523
 21
-84.2451139967005
 31
0.0
 12
276.9588735107189
 22
-87.54711399670049
 32
0.0
 13
276.9588735107189
 23
-87.54711399670049
 33
0.0
  0
MTEXT
  5
250
330
247
100
AcDbEntity
  8
치수문자_일반주서
 62
     0
100
AcDbMText
 10
272.5838735107188
 20
-35.66189021287822
 30
0.0
 40
3.5
 41
0.0
 71
     2
 72
     1
  1
\A1;%%c31.74 [1 1/4]
  7
SLDTEXTSTYLE0
 11
-3.581875317024396E-15
 21
1.0
 31
0.0
 73
     1
 44
1.0
  0
POINT
  5
251
330
247
100
AcDbEntity
  8
Defpoints
 62
     0
100
AcDbPoint
 10
256.8853779866241
 20
-55.80764021287828
 30
0.0
  0
POINT
  5
252
330
247
100
AcDbEntity
  8
Defpoints
 62
     0
100
AcDbPoint
 10
256.8853779866241
 20
-87.54711399670057
 30
0.0
  0
POINT
  5
253
330
247
100
AcDbEntity
  8
Defpoints
 62
     0
100
AcDbPoint
 10
276.9588735107189
 20
-87.5471139967005
 30
0.0
  0
ENDBLK
  5
249
330
247
100
AcDbEntity
  8
0
100
AcDbBlockEnd
  0
BLOCK
  5
2AC
330
2AB
100
AcDbEntity
  8
0
100
AcDbBlockBegin
  2
*D15
 70
     1
 10
0.0
 20
0.0
 30
0.0
  3
*D15
  1
*D13
  0
LINE
  5
2AD
330
2AB
100
AcDbEntity
  8
치수문자_일반주서
 62
     0
370
    -2
100
AcDbLine
 10
143.8750000000001
 20
34.9875
 30
0.0
 11
143.8750000000001
 21
56.22500000000007
 31
0.0
  0
LINE
  5
2AE
330
2AB
100
AcDbEntity
  8
치수문자_일반주서
 62
     0
370
    -2
100
AcDbLine
 10
16.87500000000008
 20
31.0124
 30
0.0
 11
16.87500000000007
 21
56.22500000000007
 31
0.0
  0
LINE
  5
2AF
330
2AB
100
AcDbEntity
  8
치수문자_일반주서
 62
     0
370
    -2
100
AcDbLine
 10
140.5730000000001
 20
56.22500000000007
 30
0.0
 11
20.17700000000007
 21
56.22500000000007
 31
0.0
  0
SOLID
  5
2B0
330
2AB
100
AcDbEntity
  8
치수문자_일반주서
 62
     0
100
AcDbTrace
 10
140.5730000000001
 20
55.67466666666673
 30
0.0
 11
140.5730000000001
 21
56.7753333333334
 31
0.0
 12
143.8750000000001
 22
56.22500000000007
 32
0.0
 13
143.8750000000001
 23
56.22500000000007
 33
0.0
  0
SOLID
  5
2B1
330
2AB
100
AcDbEntity
  8
치수문자_일반주서
 62
     0
100
AcDbTrace
 10
20.17700000000007
 20
56.7753333333334
 30
0.0
 11
20.17700000000007
 21
55.67466666666673
 31
0.0
 12
16.87500000000007
 22
56.22500000000007
 32
0.0
 13
16.87500000000007
 23
56.22500000000007
 33
0.0
  0
MTEXT
  5
2B2
330
2AB
100
AcDbEntity
  8
치수문자_일반주서
 62
     0
100
AcDbMText
 10
83.42482661754109
 20
60.60000000000007
 30
0.0
 40
3.5
 41
0.0
 71
     2
 72
     1
  1
\A1;127 [5]
  7
SLDTEXTSTYLE0
 73
     1
 44
1.0
  0
POINT
  5
2B3
330
2AB
100
AcDbEntity
  8
Defpoints
 62
     0
100
AcDbPoint
 10
143.8750000000001
 20
34.925
 30
0.0
  0
POINT
  5
2B4
330
2AB
100
AcDbEntity
  8
Defpoints
 62
     0
100
AcDbPoint
 10
16.87500000000008
 20
30.9499
 30
0.0
  0
POINT
  5
2B5
330
2AB
100
AcDbEntity
  8
Defpoints
 62
     0
100
AcDbPoint
 10
16.87500000000008
 20
56.22500000000007
 30
0.0
  0
ENDBLK
  5
2B6
330
2AB
100
AcDbEntity
  8
0
100
AcDbBlockEnd
  0
BLOCK
  5
2B9
330
2B8
100
AcDbEntity
  8
0
100
AcDbBlockBegin
  2
*D16
 70
     1
 10
0.0
 20
0.0
 30
0.0
  3
*D16
  1
*D14
  0
LINE
  5
2BA
330
2B8
100
AcDbEntity
  8
치수문자_일반주서
 62
     0
370
    -2
100
AcDbLine
 10
17.81250000000008
 20
33.33750000000001
 30
0.0
 11
4.374999999999988
 21
33.33749999999996
 31
0.0
  0
LINE
  5
2BB
330
2B8
100
AcDbEntity
  8
치수문자_일반주서
 62
     0
370
    -2
100
AcDbLine
 10
17.81250000000008
 20
1.587499999999998
 30
0.0
 11
4.375000000000099
 21
1.587499999999949
 31
0.0
  0
LINE
  5
2BC
330
2B8
100
AcDbEntity
  8
치수문자_일반주서
 62
     0
370
    -2
100
AcDbLine
 10
4.374999999999999
 20
30.03549999999996
 30
0.0
 11
4.375000000000087
 21
4.889499999999948
 31
0.0
  0
SOLID
  5
2BD
330
2B8
100
AcDbEntity
  8
치수문자_일반주서
 62
     0
100
AcDbTrace
 10
4.925333333333333
 20
30.03549999999996
 30
0.0
 11
3.824666666666666
 21
30.03549999999995
 31
0.0
 12
4.374999999999988
 22
33.33749999999996
 32
0.0
 13
4.374999999999988
 23
33.33749999999996
 33
0.0
  0
SOLID
  5
2BE
330
2B8
100
AcDbEntity
  8
치수문자_일반주서
 62
     0
100
AcDbTrace
 10
3.824666666666754
 20
4.889499999999947
 30
0.0
 11
4.925333333333421
 21
4.88949999999995
 31
0.0
 12
4.375000000000099
 22
1.587499999999949
 32
0.0
 13
4.375000000000099
 23
1.587499999999949
 33
0.0
  0
MTEXT
  5
2BF
330
2B8
100
AcDbEntity
  8
치수문자_일반주서
 62
     0
100
AcDbMText
 10
0.0000000000000426
 20
17.46249999999998
 30
0.0
 40
3.5
 41
0.0
 71
     2
 72
     1
  1
\A1;%%c31.75 [1 1/4]
  7
SLDTEXTSTYLE0
 11
-3.496765431890256E-15
 21
1.0
 31
0.0
 73
     1
 44
1.0
  0
POINT
  5
2C0
330
2B8
100
AcDbEntity
  8
Defpoints
 62
     0
100
AcDbPoint
 10
17.87500000000008
 20
33.33750000000001
 30
0.0
  0
POINT
  5
2C1
330
2B8
100
AcDbEntity
  8
Defpoints
 62
     0
100
AcDbPoint
 10
17.87500000000008
 20
1.587499999999999
 30
0.0
  0
POINT
  5
2C2
330
2B8
100
AcDbEntity
  8
Defpoints
 62
     0
100
AcDbPoint
 10
4.375000000000099
 20
1.587499999999948
 30
0.0
  0
ENDBLK
  5
2C3
330
2B8
100
AcDbEntity
  8
0
100
AcDbBlockEnd
  0
BLOCK
  5
2D7
330
2D6
100
AcDbEntity
  8
0
100
AcDbBlockBegin
  2
*D17
 70
     1
 10
0.0
 20
0.0
 30
0.0
  3
*D17
  1
*D19
  0
LINE
  5
2D9
330
2D6
100
AcDbEntity
  8
치수문자_일반주서
 62
     0
370
    -2
100
AcDbLine
 10
143.8750000000001
 20
34.9875
 30
0.0
 11
143.8750000000001
 21
45.4959500734852
 31
0.0
  0
LINE
  5
2DA
330
2D6
100
AcDbEntity
  8
치수문자_일반주서
 62
     0
370
    -2
100
AcDbLine
 10
80.37500000000007
 20
34.22067956769682
 30
0.0
 11
80.37500000000007
 21
45.4959500734852
 31
0.0
  0
LINE
  5
2DB
330
2D6
100
AcDbEntity
  8
치수문자_일반주서
 62
     0
370
    -2
100
AcDbLine
 10
140.5730000000001
 20
45.4959500734852
 30
0.0
 11
83.67700000000008
 21
45.4959500734852
 31
0.0
  0
SOLID
  5
2DC
330
2D6
100
AcDbEntity
  8
치수문자_일반주서
 62
     0
100
AcDbTrace
 10
140.5730000000001
 20
44.94561674015187
 30
0.0
 11
140.5730000000001
 21
46.04628340681854
 31
0.0
 12
143.8750000000001
 22
45.4959500734852
 32
0.0
 13
143.8750000000001
 23
45.4959500734852
 33
0.0
  0
SOLID
  5
2DD
330
2D6
100
AcDbEntity
  8
치수문자_일반주서
 62
     0
100
AcDbTrace
 10
83.67700000000008
 20
46.04628340681854
 30
0.0
 11
83.67700000000008
 21
44.94561674015187
 31
0.0
 12
80.37500000000007
 22
45.4959500734852
 32
0.0
 13
80.37500000000007
 23
45.4959500734852
 33
0.0
  0
MTEXT
  5
2DE
330
2D6
100
AcDbEntity
  8
치수문자_일반주서
 62
     0
100
AcDbMText
 10
112.3073920494523
 20
49.8709500734852
 30
0.0
 40
3.5
 41
0.0
 71
     2
 72
     1
  1
\A1;63.5 [2 1/2]
  7
SLDTEXTSTYLE0
 73
     1
 44
1.0
  0
POINT
  5
2DF
330
2D6
100
AcDbEntity
  8
Defpoints
 62
     0
100
AcDbPoint
 10
143.8750000000001
 20
34.925
 30
0.0
  0
POINT
  5
2E0
330
2D6
100
AcDbEntity
  8
Defpoints
 62
     0
100
AcDbPoint
 10
80.37500000000007
 20
34.15817956769682
 30
0.0
  0
POINT
  5
2E1
330
2D6
100
AcDbEntity
  8
Defpoints
 62
     0
100
AcDbPoint
 10
80.37500000000007
 20
45.4959500734852
 30
0.0
  0
ENDBLK
  5
2D8
330
2D6
100
AcDbEntity
  8
0
100
AcDbBlockEnd
  0
BLOCK
  5
2E3
330
2E2
100
AcDbEntity
  8
0
100
AcDbBlockBegin
  2
*D18
 70
     1
 10
0.0
 20
0.0
 30
0.0
  3
*D18
  1
*D20
  0
LINE
  5
2E5
330
2E2
100
AcDbEntity
  8
치수문자_일반주서
 62
     0
370
    -2
100
AcDbLine
 10
143.9375000000001
 20
34.92500000000005
 30
0.0
 11
160.850788056786
 21
34.92500000000012
 31
0.0
  0
LINE
  5
2E6
330
2E2
100
AcDbEntity
  8
치수문자_일반주서
 62
     0
370
    -2
100
AcDbLine
 10
143.9375000000001
 20
0.0000000000000002
 30
0.0
 11
160.8507880567861
 21
0.0000000000000639
 31
0.0
  0
LINE
  5
2E7
330
2E2
100
AcDbEntity
  8
치수문자_일반주서
 62
     0
370
    -2
100
AcDbLine
 10
160.850788056786
 20
34.92500000000012
 30
0.0
 11
160.8507880567859
 21
72.20828697778418
 31
0.0
  0
LINE
  5
2E8
330
2E2
100
AcDbEntity
  8
치수문자_일반주서
 62
     0
370
    -2
100
AcDbLine
 10
160.850788056786
 20
31.62300000000012
 30
0.0
 11
160.8507880567861
 21
3.302000000000064
 31
0.0
  0
SOLID
  5
2E9
330
2E2
100
AcDbEntity
  8
치수문자_일반주서
 62
     0
100
AcDbTrace
 10
161.4011213901193
 20
31.62300000000012
 30
0.0
 11
160.3004547234526
 21
31.62300000000011
 31
0.0
 12
160.850788056786
 22
34.92500000000012
 32
0.0
 13
160.850788056786
 23
34.92500000000012
 33
0.0
  0
SOLID
  5
2EA
330
2E2
100
AcDbEntity
  8
치수문자_일반주서
 62
     0
100
AcDbTrace
 10
160.3004547234528
 20
3.302000000000062
 30
0.0
 11
161.4011213901194
 21
3.302000000000065
 31
0.0
 12
160.8507880567861
 22
0.0000000000000639
 32
0.0
 13
160.8507880567861
 23
0.0000000000000639
 33
0.0
  0
MTEXT
  5
2EB
330
2E2
100
AcDbEntity
  8
치수문자_일반주서
 62
     0
100
AcDbMText
 10
156.4757880567859
 20
55.58328697778417
 30
0.0
 40
3.5
 41
0.0
 71
     2
 72
     1
  1
\A1;%%c34.93 [1 3/8]
  7
SLDTEXTSTYLE0
 11
-3.255170729323289E-15
 21
1.0
 31
0.0
 73
     1
 44
1.0
  0
POINT
  5
2EC
330
2E2
100
AcDbEntity
  8
Defpoints
 62
     0
100
AcDbPoint
 10
143.8750000000001
 20
34.92500000000005
 30
0.0
  0
POINT
  5
2ED
330
2E2
100
AcDbEntity
  8
Defpoints
 62
     0
100
AcDbPoint
 10
143.8750000000001
 20
0.0
 30
0.0
  0
POINT
  5
2EE
330
2E2
100
AcDbEntity
  8
Defpoints
 62
     0
100
AcDbPoint
 10
160.8507880567861
 20
0.0000000000000634
 30
0.0
  0
ENDBLK
  5
2E4
330
2E2
100
AcDbEntity
  8
0
100
AcDbBlockEnd
  0
BLOCK
  5
311
330
310
100
AcDbEntity
  8
0
100
AcDbBlockBegin
  2
*D19
 70
     1
 10
0.0
 20
0.0
 30
0.0
  3
*D19
  1
*D21
  0
LINE
  5
313
330
310
100
AcDbEntity
  8
치수문자_일반주서
 62
     0
370
    -2
100
AcDbLine
 10
210.0439771575439
 20
-57.98295756212448
 30
0.0
 11
210.0439771575439
 21
-47.47450748863928
 31
0.0
  0
LINE
  5
314
330
310
100
AcDbEntity
  8
치수문자_일반주서
 62
     0
370
    -2
100
AcDbLine
 10
146.543977157544
 20
-58.74977799442766
 30
0.0
 11
146.543977157544
 21
-47.47450748863928
 31
0.0
  0
LINE
  5
315
330
310
100
AcDbEntity
  8
치수문자_일반주서
 62
     0
370
    -2
100
AcDbLine
 10
206.7419771575439
 20
-47.47450748863928
 30
0.0
 11
149.845977157544
 21
-47.47450748863928
 31
0.0
  0
SOLID
  5
316
330
310
100
AcDbEntity
  8
치수문자_일반주서
 62
     0
100
AcDbTrace
 10
206.7419771575439
 20
-48.02484082197261
 30
0.0
 11
206.7419771575439
 21
-46.92417415530594
 31
0.0
 12
210.0439771575439
 22
-47.47450748863928
 32
0.0
 13
210.0439771575439
 23
-47.47450748863928
 33
0.0
  0
SOLID
  5
317
330
310
100
AcDbEntity
  8
치수문자_일반주서
 62
     0
100
AcDbTrace
 10
149.845977157544
 20
-46.92417415530594
 30
0.0
 11
149.845977157544
 21
-48.02484082197261
 31
0.0
 12
146.543977157544
 22
-47.47450748863928
 32
0.0
 13
146.543977157544
 23
-47.47450748863928
 33
0.0
  0
MTEXT
  5
318
330
310
100
AcDbEntity
  8
치수문자_일반주서
 62
     0
100
AcDbMText
 10
178.4763692069962
 20
-43.09950748863928
 30
0.0
 40
3.5
 41
0.0
 71
     2
 72
     1
  1
\A1;63.5 [2 1/2]
  7
SLDTEXTSTYLE0
 73
     1
 44
1.0
  0
POINT
  5
319
330
310
100
AcDbEntity
  8
Defpoints
 62
     0
100
AcDbPoint
 10
210.0439771575439
 20
-58.04545756212448
 30
0.0
  0
POINT
  5
31A
330
310
100
AcDbEntity
  8
Defpoints
 62
     0
100
AcDbPoint
 10
146.543977157544
 20
-58.81227799442766
 30
0.0
  0
POINT
  5
31B
330
310
100
AcDbEntity
  8
Defpoints
 62
     0
100
AcDbPoint
 10
146.543977157544
 20
-47.47450748863928
 30
0.0
  0
ENDBLK
  5
312
330
310
100
AcDbEntity
  8
0
100
AcDbBlockEnd
  0
BLOCK
  5
31D
330
31C
100
AcDbEntity
  8
0
100
AcDbBlockBegin
  2
*D20
 70
     1
 10
0.0
 20
0.0
 30
0.0
  3
*D20
  1
*D22
  0
LINE
  5
31F
330
31C
100
AcDbEntity
  8
치수문자_일반주서
 62
     0
370
    -2
100
AcDbLine
 10
210.1064771575439
 20
-58.04545756212443
 30
0.0
 11
227.0197652143299
 21
-58.04545756212436
 31
0.0
  0
LINE
  5
320
330
31C
100
AcDbEntity
  8
치수문자_일반주서
 62
     0
370
    -2
100
AcDbLine
 10
210.1064771575439
 20
-92.97045756212448
 30
0.0
 11
227.01976521433
 21
-92.97045756212441
 31
0.0
  0
LINE
  5
321
330
31C
100
AcDbEntity
  8
치수문자_일반주서
 62
     0
370
    -2
100
AcDbLine
 10
227.0197652143299
 20
-58.04545756212436
 30
0.0
 11
227.0197652143297
 21
-20.7621705843403
 31
0.0
  0
LINE
  5
322
330
31C
100
AcDbEntity
  8
치수문자_일반주서
 62
     0
370
    -2
100
AcDbLine
 10
227.0197652143299
 20
-61.34745756212436
 30
0.0
 11
227.01976521433
 21
-89.66845756212442
 31
0.0
  0
SOLID
  5
323
330
31C
100
AcDbEntity
  8
치수문자_일반주서
 62
     0
100
AcDbTrace
 10
227.5700985476632
 20
-61.34745756212436
 30
0.0
 11
226.4694318809965
 21
-61.34745756212436
 31
0.0
 12
227.0197652143299
 22
-58.04545756212436
 32
0.0
 13
227.0197652143299
 23
-58.04545756212436
 33
0.0
  0
SOLID
  5
324
330
31C
100
AcDbEntity
  8
치수문자_일반주서
 62
     0
100
AcDbTrace
 10
226.4694318809966
 20
-89.66845756212442
 30
0.0
 11
227.5700985476633
 21
-89.66845756212442
 31
0.0
 12
227.01976521433
 22
-92.97045756212441
 32
0.0
 13
227.01976521433
 23
-92.97045756212441
 33
0.0
  0
MTEXT
  5
325
330
31C
100
AcDbEntity
  8
치수문자_일반주서
 62
     0
100
AcDbMText
 10
222.6447652143298
 20
-37.38717058434031
 30
0.0
 40
3.5
 41
0.0
 71
     2
 72
     1
  1
\A1;%%c34.93 [1 3/8]
  7
SLDTEXTSTYLE0
 11
-3.255170729323288E-15
 21
1.0
 31
0.0
 73
     1
 44
1.0
  0
POINT
  5
326
330
31C
100
AcDbEntity
  8
Defpoints
 62
     0
100
AcDbPoint
 10
210.0439771575439
 20
-58.04545756212443
 30
0.0
  0
POINT
  5
327
330
31C
100
AcDbEntity
  8
Defpoints
 62
     0
100
AcDbPoint
 10
210.0439771575439
 20
-92.97045756212448
 30
0.0
  0
POINT
  5
328
330
31C
100
AcDbEntity
  8
Defpoints
 62
     0
100
AcDbPoint
 10
227.01976521433
 20
-92.97045756212442
 30
0.0
  0
ENDBLK
  5
31E
330
31C
100
AcDbEntity
  8
0
100
AcDbBlockEnd
  0
BLOCK
  5
32A
330
329
100
AcDbEntity
  8
0
100
AcDbBlockBegin
  2
*D21
 70
     1
 10
0.0
 20
0.0
 30
0.0
  3
*D21
  1
*D23
  0
LINE
  5
32C
330
329
100
AcDbEntity
  8
치수문자_일반주서
 62
     0
370
    -2
100
AcDbLine
 10
65.49999999999997
 20
19.11250000000001
 30
0.0
 11
65.49999999999997
 21
52.26590498915468
 31
0.0
  0
LINE
  5
32D
330
329
100
AcDbEntity
  8
치수문자_일반주서
 62
     0
370
    -2
100
AcDbLine
 10
-61.5
 20
13.54989999999999
 30
0.0
 11
-61.5
 21
52.26590498915468
 31
0.0
  0
LINE
  5
32E
330
329
100
AcDbEntity
  8
치수문자_일반주서
 62
     0
370
    -2
100
AcDbLine
 10
62.19799999999997
 20
52.26590498915468
 30
0.0
 11
-58.198
 21
52.26590498915468
 31
0.0
  0
SOLID
  5
32F
330
329
100
AcDbEntity
  8
치수문자_일반주서
 62
     0
100
AcDbTrace
 10
62.19799999999997
 20
51.71557165582134
 30
0.0
 11
62.19799999999997
 21
52.81623832248801
 31
0.0
 12
65.49999999999997
 22
52.26590498915468
 32
0.0
 13
65.49999999999997
 23
52.26590498915468
 33
0.0
  0
SOLID
  5
330
330
329
100
AcDbEntity
  8
치수문자_일반주서
 62
     0
100
AcDbTrace
 10
-58.198
 20
52.81623832248801
 30
0.0
 11
-58.198
 21
51.71557165582134
 31
0.0
 12
-61.5
 22
52.26590498915468
 32
0.0
 13
-61.5
 23
52.26590498915468
 33
0.0
  0
MTEXT
  5
331
330
329
100
AcDbEntity
  8
치수문자_일반주서
 62
     0
100
AcDbMText
 10
5.049826617540987
 20
56.64090498915468
 30
0.0
 40
3.5
 41
0.0
 71
     2
 72
     1
  1
\A1;127 [5]
  7
SLDTEXTSTYLE0
 73
     1
 44
1.0
  0
POINT
  5
332
330
329
100
AcDbEntity
  8
Defpoints
 62
     0
100
AcDbPoint
 10
65.49999999999997
 20
19.05000000000001
 30
0.0
  0
POINT
  5
333
330
329
100
AcDbEntity
  8
Defpoints
 62
     0
100
AcDbPoint
 10
-61.5
 20
13.48739999999999
 30
0.0
  0
POINT
  5
334
330
329
100
AcDbEntity
  8
Defpoints
 62
     0
100
AcDbPoint
 10
-61.5
 20
52.26590498915468
 30
0.0
  0
ENDBLK
  5
32B
330
329
100
AcDbEntity
  8
0
100
AcDbBlockEnd
  0
BLOCK
  5
336
330
335
100
AcDbEntity
  8
0
100
AcDbBlockBegin
  2
*D22
 70
     1
 10
0.0
 20
0.0
 30
0.0
  3
*D22
  1
*D24
  0
LINE
  5
338
330
335
100
AcDbEntity
  8
치수문자_일반주서
 62
     0
370
    -2
100
AcDbLine
 10
-60.5625
 20
15.875
 30
0.0
 11
-74.0000000000001
 21
15.87499999999995
 31
0.0
  0
LINE
  5
339
330
335
100
AcDbEntity
  8
치수문자_일반주서
 62
     0
370
    -2
100
AcDbLine
 10
-60.5625
 20
-15.87500000000001
 30
0.0
 11
-73.99999999999999
 21
-15.87500000000006
 31
0.0
  0
LINE
  5
33A
330
335
100
AcDbEntity
  8
치수문자_일반주서
 62
     0
370
    -2
100
AcDbLine
 10
-74.00000000000009
 20
12.57299999999995
 30
0.0
 11
-74.0
 21
-12.57300000000006
 31
0.0
  0
SOLID
  5
33B
330
335
100
AcDbEntity
  8
치수문자_일반주서
 62
     0
100
AcDbTrace
 10
-73.44966666666676
 20
12.57299999999995
 30
0.0
 11
-74.55033333333341
 21
12.57299999999995
 31
0.0
 12
-74.0000000000001
 22
15.87499999999995
 32
0.0
 13
-74.0000000000001
 23
15.87499999999995
 33
0.0
  0
SOLID
  5
33C
330
335
100
AcDbEntity
  8
치수문자_일반주서
 62
     0
100
AcDbTrace
 10
-74.55033333333333
 20
-12.57300000000007
 30
0.0
 11
-73.44966666666667
 21
-12.57300000000006
 31
0.0
 12
-73.99999999999999
 22
-15.87500000000006
 32
0.0
 13
-73.99999999999999
 23
-15.87500000000006
 33
0.0
  0
MTEXT
  5
33D
330
335
100
AcDbEntity
  8
치수문자_일반주서
 62
     0
100
AcDbMText
 10
-78.37500000000004
 20
-0.0000000000000155
 30
0.0
 40
3.5
 41
0.0
 71
     2
 72
     1
  1
\A1;%%c31.75 [1 1/4]
  7
SLDTEXTSTYLE0
 11
-3.580687802255621E-15
 21
1.0
 31
0.0
 73
     1
 44
1.0
  0
POINT
  5
33E
330
335
100
AcDbEntity
  8
Defpoints
 62
     0
100
AcDbPoint
 10
-60.5
 20
15.875
 30
0.0
  0
POINT
  5
33F
330
335
100
AcDbEntity
  8
Defpoints
 62
     0
100
AcDbPoint
 10
-60.5
 20
-15.87500000000001
 30
0.0
  0
POINT
  5
340
330
335
100
AcDbEntity
  8
Defpoints
 62
     0
100
AcDbPoint
 10
-73.99999999999999
 20
-15.87500000000006
 30
0.0
  0
ENDBLK
  5
337
330
335
100
AcDbEntity
  8
0
100
AcDbBlockEnd
  0
BLOCK
  5
3F8
330
3F7
100
AcDbEntity
  8
0
100
AcDbBlockBegin
  2
*D23
 70
     1
 10
0.0
 20
0.0
 30
0.0
  3
*D23
  1
*D24
  0
LINE
  5
3FA
330
3F7
100
AcDbEntity
  8
치수문자_일반주서
 62
     0
370
    -2
100
AcDbLine
 10
143.8750000000001
 20
31.84695802388574
 30
0.0
 11
143.8750000000001
 21
35.73505780330215
 31
0.0
  0
LINE
  5
3FB
330
3F7
100
AcDbEntity
  8
치수문자_일반주서
 62
     0
370
    -2
100
AcDbLine
 10
80.37500000000006
 20
31.27133370777132
 30
0.0
 11
80.37500000000006
 21
35.73505780330215
 31
0.0
  0
LINE
  5
3FC
330
3F7
100
AcDbEntity
  8
치수문자_일반주서
 62
     0
370
    -2
100
AcDbLine
 10
140.5730000000001
 20
35.73505780330215
 30
0.0
 11
83.67700000000006
 21
35.73505780330215
 31
0.0
  0
SOLID
  5
3FD
330
3F7
100
AcDbEntity
  8
치수문자_일반주서
 62
     0
100
AcDbTrace
 10
140.5730000000001
 20
35.18472446996881
 30
0.0
 11
140.5730000000001
 21
36.28539113663548
 31
0.0
 12
143.8750000000001
 22
35.73505780330215
 32
0.0
 13
143.8750000000001
 23
35.73505780330215
 33
0.0
  0
SOLID
  5
3FE
330
3F7
100
AcDbEntity
  8
치수문자_일반주서
 62
     0
100
AcDbTrace
 10
83.67700000000006
 20
36.28539113663548
 30
0.0
 11
83.67700000000006
 21
35.18472446996881
 31
0.0
 12
80.37500000000006
 22
35.73505780330215
 32
0.0
 13
80.37500000000006
 23
35.73505780330215
 33
0.0
  0
MTEXT
  5
3FF
330
3F7
100
AcDbEntity
  8
치수문자_일반주서
 62
     0
100
AcDbMText
 10
114.7604069093419
 20
40.11005780330215
 30
0.0
 40
3.5
 41
0.0
 71
     2
 72
     1
  1
\A1;63.5 [2 1/2]
  7
SLDTEXTSTYLE0
 73
     1
 44
1.0
  0
POINT
  5
400
330
3F7
100
AcDbEntity
  8
Defpoints
 62
     0
100
AcDbPoint
 10
143.8750000000001
 20
31.78445802388574
 30
0.0
  0
POINT
  5
401
330
3F7
100
AcDbEntity
  8
Defpoints
 62
     0
100
AcDbPoint
 10
80.37500000000006
 20
31.20883370777132
 30
0.0
  0
POINT
  5
402
330
3F7
100
AcDbEntity
  8
Defpoints
 62
     0
100
AcDbPoint
 10
80.37500000000006
 20
35.73505780330215
 30
0.0
  0
ENDBLK
  5
3F9
330
3F7
100
AcDbEntity
  8
0
100
AcDbBlockEnd
  0
BLOCK
  5
404
330
403
100
AcDbEntity
  8
0
100
AcDbBlockBegin
  2
*D24
 70
     1
 10
0.0
 20
0.0
 30
0.0
  3
*D24
  1
*D25
  0
LINE
  5
406
330
403
100
AcDbEntity
  8
치수문자_일반주서
 62
     0
370
    -2
100
AcDbLine
 10
143.8750000000001
 20
31.84695802388574
 30
0.0
 11
143.8750000000001
 21
54.67195802388579
 31
0.0
  0
LINE
  5
407
330
403
100
AcDbEntity
  8
치수문자_일반주서
 62
     0
370
    -2
100
AcDbLine
 10
16.87500000000006
 20
30.84695802388573
 30
0.0
 11
16.87500000000006
 21
54.67195802388579
 31
0.0
  0
LINE
  5
408
330
403
100
AcDbEntity
  8
치수문자_일반주서
 62
     0
370
    -2
100
AcDbLine
 10
140.5730000000001
 20
54.67195802388579
 30
0.0
 11
20.17700000000006
 21
54.67195802388579
 31
0.0
  0
SOLID
  5
409
330
403
100
AcDbEntity
  8
치수문자_일반주서
 62
     0
100
AcDbTrace
 10
140.5730000000001
 20
54.12162469055245
 30
0.0
 11
140.5730000000001
 21
55.22229135721912
 31
0.0
 12
143.8750000000001
 22
54.67195802388579
 32
0.0
 13
143.8750000000001
 23
54.67195802388579
 33
0.0
  0
SOLID
  5
40A
330
403
100
AcDbEntity
  8
치수문자_일반주서
 62
     0
100
AcDbTrace
 10
20.17700000000006
 20
55.22229135721912
 30
0.0
 11
20.17700000000006
 21
54.12162469055245
 31
0.0
 12
16.87500000000006
 22
54.67195802388579
 32
0.0
 13
16.87500000000006
 23
54.67195802388579
 33
0.0
  0
MTEXT
  5
40B
330
403
100
AcDbEntity
  8
치수문자_일반주서
 62
     0
100
AcDbMText
 10
80.37500000000006
 20
59.04695802388579
 30
0.0
 40
3.5
 41
0.0
 71
     2
 72
     1
  1
\A1;127 [5]
  7
SLDTEXTSTYLE0
 73
     1
 44
1.0
  0
POINT
  5
40C
330
403
100
AcDbEntity
  8
Defpoints
 62
     0
100
AcDbPoint
 10
143.8750000000001
 20
31.78445802388574
 30
0.0
  0
POINT
  5
40D
330
403
100
AcDbEntity
  8
Defpoints
 62
     0
100
AcDbPoint
 10
16.87500000000006
 20
30.78445802388573
 30
0.0
  0
POINT
  5
40E
330
403
100
AcDbEntity
  8
Defpoints
 62
     0
100
AcDbPoint
 10
16.87500000000006
 20
54.67195802388579
 30
0.0
  0
ENDBLK
  5
405
330
403
100
AcDbEntity
  8
0
100
AcDbBlockEnd
  0
BLOCK
  5
410
330
40F
100
AcDbEntity
  8
0
100
AcDbBlockBegin
  2
*D25
 70
     1
 10
0.0
 20
0.0
 30
0.0
  3
*D25
  1
*D26
  0
LINE
  5
412
330
40F
100
AcDbEntity
  8
치수문자_일반주서
 62
     0
370
    -2
100
AcDbLine
 10
17.81250000000006
 20
31.78445802388574
 30
0.0
 11
4.374999999999988
 21
31.78445802388569
 31
0.0
  0
LINE
  5
413
330
40F
100
AcDbEntity
  8
치수문자_일반주서
 62
     0
370
    -2
100
AcDbLine
 10
17.81250000000006
 20
0.0344580238857401
 30
0.0
 11
4.375000000000099
 21
0.0344580238856906
 31
0.0
  0
LINE
  5
414
330
40F
100
AcDbEntity
  8
치수문자_일반주서
 62
     0
370
    -2
100
AcDbLine
 10
4.374999999999999
 20
28.48245802388569
 30
0.0
 11
4.375000000000087
 21
3.336458023885691
 31
0.0
  0
SOLID
  5
415
330
40F
100
AcDbEntity
  8
치수문자_일반주서
 62
     0
100
AcDbTrace
 10
4.925333333333333
 20
28.48245802388569
 30
0.0
 11
3.824666666666666
 21
28.48245802388569
 31
0.0
 12
4.374999999999988
 22
31.78445802388569
 32
0.0
 13
4.374999999999988
 23
31.78445802388569
 33
0.0
  0
SOLID
  5
416
330
40F
100
AcDbEntity
  8
치수문자_일반주서
 62
     0
100
AcDbTrace
 10
3.824666666666753
 20
3.336458023885689
 30
0.0
 11
4.925333333333421
 21
3.336458023885692
 31
0.0
 12
4.375000000000099
 22
0.0344580238856906
 32
0.0
 13
4.375000000000099
 23
0.0344580238856906
 33
0.0
  0
MTEXT
  5
417
330
40F
100
AcDbEntity
  8
치수문자_일반주서
 62
     0
100
AcDbMText
 10
0.0000000000000426
 20
15.90945802388572
 30
0.0
 40
3.5
 41
0.0
 71
     2
 72
     1
  1
\A1;%%c31.75 [1 1/4]
  7
SLDTEXTSTYLE0
 11
-3.496765431890257E-15
 21
1.0
 31
0.0
 73
     1
 44
1.0
  0
POINT
  5
418
330
40F
100
AcDbEntity
  8
Defpoints
 62
     0
100
AcDbPoint
 10
17.87500000000006
 20
31.78445802388574
 30
0.0
  0
POINT
  5
419
330
40F
100
AcDbEntity
  8
Defpoints
 62
     0
100
AcDbPoint
 10
17.87500000000006
 20
0.0344580238857404
 30
0.0
  0
POINT
  5
41A
330
40F
100
AcDbEntity
  8
Defpoints
 62
     0
100
AcDbPoint
 10
4.375000000000099
 20
0.0344580238856899
 30
0.0
  0
ENDBLK
  5
411
330
40F
100
AcDbEntity
  8
0
100
AcDbBlockEnd
  0
BLOCK
  5
41C
330
41B
100
AcDbEntity
  8
0
100
AcDbBlockBegin
  2
*D26
 70
     1
 10
0.0
 20
0.0
 30
0.0
  3
*D26
  1
*D27
  0
LINE
  5
41E
330
41B
100
AcDbEntity
  8
치수문자_일반주서
 62
     0
370
    -2
100
AcDbLine
 10
143.9375000000001
 20
31.78445802388574
 30
0.0
 11
163.9484955240948
 21
31.78445802388581
 31
0.0
  0
LINE
  5
41F
330
41B
100
AcDbEntity
  8
치수문자_일반주서
 62
     0
370
    -2
100
AcDbLine
 10
143.9375000000001
 20
0.0449842400634497
 30
0.0
 11
163.9484955240949
 21
0.0449842400635205
 31
0.0
  0
LINE
  5
420
330
41B
100
AcDbEntity
  8
치수문자_일반주서
 62
     0
370
    -2
100
AcDbLine
 10
163.9484955240948
 20
31.78445802388581
 30
0.0
 11
163.9484955240947
 21
67.68020802388581
 31
0.0
  0
LINE
  5
421
330
41B
100
AcDbEntity
  8
치수문자_일반주서
 62
     0
370
    -2
100
AcDbLine
 10
163.9484955240948
 20
28.48245802388582
 30
0.0
 11
163.9484955240949
 21
3.346984240063521
 31
0.0
  0
SOLID
  5
422
330
41B
100
AcDbEntity
  8
치수문자_일반주서
 62
     0
100
AcDbTrace
 10
164.4988288574281
 20
28.48245802388582
 30
0.0
 11
163.3981621907615
 21
28.48245802388581
 31
0.0
 12
163.9484955240948
 22
31.78445802388581
 32
0.0
 13
163.9484955240948
 23
31.78445802388581
 33
0.0
  0
SOLID
  5
423
330
41B
100
AcDbEntity
  8
치수문자_일반주서
 62
     0
100
AcDbTrace
 10
163.3981621907616
 20
3.346984240063519
 30
0.0
 11
164.4988288574282
 21
3.346984240063522
 31
0.0
 12
163.9484955240949
 22
0.0449842400635205
 32
0.0
 13
163.9484955240949
 23
0.0449842400635205
 33
0.0
  0
MTEXT
  5
424
330
41B
100
AcDbEntity
  8
치수문자_일반주서
 62
     0
100
AcDbMText
 10
159.5734955240947
 20
51.9302080238858
 30
0.0
 40
3.5
 41
0.0
 71
     2
 72
     1
  1
\A1;%%c31.74 [1 1/4]
  7
SLDTEXTSTYLE0
 11
-3.581875317024398E-15
 21
1.0
 31
0.0
 73
     1
 44
1.0
  0
POINT
  5
425
330
41B
100
AcDbEntity
  8
Defpoints
 62
     0
100
AcDbPoint
 10
143.8750000000001
 20
31.78445802388574
 30
0.0
  0
POINT
  5
426
330
41B
100
AcDbEntity
  8
Defpoints
 62
     0
100
AcDbPoint
 10
143.8750000000001
 20
0.0449842400634495
 30
0.0
  0
POINT
  5
427
330
41B
100
AcDbEntity
  8
Defpoints
 62
     0
100
AcDbPoint
 10
163.9484955240949
 20
0.0449842400635245
 30
0.0
  0
ENDBLK
  5
41D
330
41B
100
AcDbEntity
  8
0
100
AcDbBlockEnd
  0
BLOCK
  5
458
330
457
100
AcDbEntity
  8
0
100
AcDbBlockBegin
  2
*D27
 70
     1
 10
0.0
 20
0.0
 30
0.0
  3
*D27
  1
*D28
  0
LINE
  5
45A
330
457
100
AcDbEntity
  8
치수문자_일반주서
 62
     0
370
    -2
100
AcDbLine
 10
75.5
 20
15.93857492872391
 30
0.0
 11
75.5
 21
34.85535659993897
 31
0.0
  0
LINE
  5
45B
330
457
100
AcDbEntity
  8
치수문자_일반주서
 62
     0
370
    -2
100
AcDbLine
 10
12.0
 20
15.36295061260948
 30
0.0
 11
12.0
 21
34.85535659993897
 31
0.0
  0
LINE
  5
45C
330
457
100
AcDbEntity
  8
치수문자_일반주서
 62
     0
370
    -2
100
AcDbLine
 10
72.198
 20
34.85535659993897
 30
0.0
 11
15.302
 21
34.85535659993897
 31
0.0
  0
SOLID
  5
45D
330
457
100
AcDbEntity
  8
치수문자_일반주서
 62
     0
100
AcDbTrace
 10
72.198
 20
34.30502326660564
 30
0.0
 11
72.198
 21
35.40568993327231
 31
0.0
 12
75.5
 22
34.85535659993897
 32
0.0
 13
75.5
 23
34.85535659993897
 33
0.0
  0
SOLID
  5
45E
330
457
100
AcDbEntity
  8
치수문자_일반주서
 62
     0
100
AcDbTrace
 10
15.302
 20
35.40568993327231
 30
0.0
 11
15.302
 21
34.30502326660564
 31
0.0
 12
12.0
 22
34.85535659993897
 32
0.0
 13
12.0
 23
34.85535659993897
 33
0.0
  0
MTEXT
  5
45F
330
457
100
AcDbEntity
  8
치수문자_일반주서
 62
     0
100
AcDbMText
 10
46.38540690934184
 20
39.23035659993897
 30
0.0
 40
3.5
 41
0.0
 71
     2
 72
     1
  1
\A1;63.5 [2 1/2]
  7
SLDTEXTSTYLE0
 73
     1
 44
1.0
  0
POINT
  5
460
330
457
100
AcDbEntity
  8
Defpoints
 62
     0
100
AcDbPoint
 10
75.5
 20
15.87607492872391
 30
0.0
  0
POINT
  5
461
330
457
100
AcDbEntity
  8
Defpoints
 62
     0
100
AcDbPoint
 10
12.0
 20
15.30045061260948
 30
0.0
  0
POINT
  5
462
330
457
100
AcDbEntity
  8
Defpoints
 62
     0
100
AcDbPoint
 10
12.0
 20
34.85535659993897
 30
0.0
  0
ENDBLK
  5
459
330
457
100
AcDbEntity
  8
0
100
AcDbBlockEnd
  0
BLOCK
  5
464
330
463
100
AcDbEntity
  8
0
100
AcDbBlockBegin
  2
*D28
 70
     1
 10
0.0
 20
0.0
 30
0.0
  3
*D28
  1
*D29
  0
LINE
  5
466
330
463
100
AcDbEntity
  8
치수문자_일반주서
 62
     0
370
    -2
100
AcDbLine
 10
75.5
 20
15.93857492872391
 30
0.0
 11
75.5
 21
48.52064968798612
 31
0.0
  0
LINE
  5
467
330
463
100
AcDbEntity
  8
치수문자_일반주서
 62
     0
370
    -2
100
AcDbLine
 10
-51.5
 20
14.9385749287239
 30
0.0
 11
-51.5
 21
48.52064968798612
 31
0.0
  0
LINE
  5
468
330
463
100
AcDbEntity
  8
치수문자_일반주서
 62
     0
370
    -2
100
AcDbLine
 10
72.198
 20
48.52064968798612
 30
0.0
 11
-48.198
 21
48.52064968798612
 31
0.0
  0
SOLID
  5
469
330
463
100
AcDbEntity
  8
치수문자_일반주서
 62
     0
100
AcDbTrace
 10
72.198
 20
47.97031635465279
 30
0.0
 11
72.198
 21
49.07098302131946
 31
0.0
 12
75.5
 22
48.52064968798612
 32
0.0
 13
75.5
 23
48.52064968798612
 33
0.0
  0
SOLID
  5
46A
330
463
100
AcDbEntity
  8
치수문자_일반주서
 62
     0
100
AcDbTrace
 10
-48.198
 20
49.07098302131946
 30
0.0
 11
-48.198
 21
47.97031635465279
 31
0.0
 12
-51.5
 22
48.52064968798612
 32
0.0
 13
-51.5
 23
48.52064968798612
 33
0.0
  0
MTEXT
  5
46B
330
463
100
AcDbEntity
  8
치수문자_일반주서
 62
     0
100
AcDbMText
 10
12.0
 20
52.89564968798612
 30
0.0
 40
3.5
 41
0.0
 71
     2
 72
     1
  1
\A1;127 [5]
  7
SLDTEXTSTYLE0
 73
     1
 44
1.0
  0
POINT
  5
46C
330
463
100
AcDbEntity
  8
Defpoints
 62
     0
100
AcDbPoint
 10
75.5
 20
15.87607492872391
 30
0.0
  0
POINT
  5
46D
330
463
100
AcDbEntity
  8
Defpoints
 62
     0
100
AcDbPoint
 10
-51.5
 20
14.8760749287239
 30
0.0
  0
POINT
  5
46E
330
463
100
AcDbEntity
  8
Defpoints
 62
     0
100
AcDbPoint
 10
-51.5
 20
48.52064968798612
 30
0.0
  0
ENDBLK
  5
465
330
463
100
AcDbEntity
  8
0
100
AcDbBlockEnd
  0
BLOCK
  5
470
330
46F
100
AcDbEntity
  8
0
100
AcDbBlockBegin
  2
*D29
 70
     1
 10
0.0
 20
0.0
 30
0.0
  3
*D29
  1
*D30
  0
LINE
  5
472
330
46F
100
AcDbEntity
  8
치수문자_일반주서
 62
     0
370
    -2
100
AcDbLine
 10
-50.5625
 20
15.87607492872391
 30
0.0
 11
-64.00000000000006
 21
15.87607492872386
 31
0.0
  0
LINE
  5
473
330
46F
100
AcDbEntity
  8
치수문자_일반주서
 62
     0
370
    -2
100
AcDbLine
 10
-50.5625
 20
-15.87392507127609
 30
0.0
 11
-63.99999999999994
 21
-15.87392507127614
 31
0.0
  0
LINE
  5
474
330
46F
100
AcDbEntity
  8
치수문자_일반주서
 62
     0
370
    -2
100
AcDbLine
 10
-64.00000000000004
 20
12.57407492872386
 30
0.0
 11
-63.99999999999996
 21
-12.57192507127614
 31
0.0
  0
SOLID
  5
475
330
46F
100
AcDbEntity
  8
치수문자_일반주서
 62
     0
100
AcDbTrace
 10
-63.44966666666671
 20
12.57407492872386
 30
0.0
 11
-64.55033333333337
 21
12.57407492872386
 31
0.0
 12
-64.00000000000006
 22
15.87607492872386
 32
0.0
 13
-64.00000000000006
 23
15.87607492872386
 33
0.0
  0
SOLID
  5
476
330
46F
100
AcDbEntity
  8
치수문자_일반주서
 62
     0
100
AcDbTrace
 10
-64.55033333333328
 20
-12.57192507127614
 30
0.0
 11
-63.44966666666662
 21
-12.57192507127614
 31
0.0
 12
-63.99999999999994
 22
-15.87392507127614
 32
0.0
 13
-63.99999999999994
 23
-15.87392507127614
 33
0.0
  0
MTEXT
  5
477
330
46F
100
AcDbEntity
  8
치수문자_일반주서
 62
     0
100
AcDbMText
 10
-68.375
 20
0.0010749287238796
 30
0.0
 40
3.5
 41
0.0
 71
     2
 72
     1
  1
\A1;%%c31.75 [1 1/4]
  7
SLDTEXTSTYLE0
 11
-3.580687802255623E-15
 21
1.0
 31
0.0
 73
     1
 44
1.0
  0
POINT
  5
478
330
46F
100
AcDbEntity
  8
Defpoints
 62
     0
100
AcDbPoint
 10
-50.5
 20
15.87607492872391
 30
0.0
  0
POINT
  5
479
330
46F
100
AcDbEntity
  8
Defpoints
 62
     0
100
AcDbPoint
 10
-50.5
 20
-15.87392507127609
 30
0.0
  0
POINT
  5
47A
330
46F
100
AcDbEntity
  8
Defpoints
 62
     0
100
AcDbPoint
 10
-63.99999999999994
 20
-15.87392507127614
 30
0.0
  0
ENDBLK
  5
471
330
46F
100
AcDbEntity
  8
0
100
AcDbBlockEnd
  0
BLOCK
  5
47C
330
47B
100
AcDbEntity
  8
0
100
AcDbBlockBegin
  2
*D30
 70
     1
 10
0.0
 20
0.0
 30
0.0
  3
*D30
  1
*D31
  0
LINE
  5
47E
330
47B
100
AcDbEntity
  8
치수문자_일반주서
 62
     0
370
    -2
100
AcDbLine
 10
75.5625
 20
15.87607492872391
 30
0.0
 11
95.57349552409472
 21
15.87607492872398
 31
0.0
  0
LINE
  5
47F
330
47B
100
AcDbEntity
  8
치수문자_일반주서
 62
     0
370
    -2
100
AcDbLine
 10
75.5625
 20
-15.86339885509838
 30
0.0
 11
95.57349552409484
 21
-15.86339885509831
 31
0.0
  0
LINE
  5
480
330
47B
100
AcDbEntity
  8
치수문자_일반주서
 62
     0
370
    -2
100
AcDbLine
 10
95.57349552409472
 20
15.87607492872398
 30
0.0
 11
95.5734955240946
 21
51.77182492872397
 31
0.0
  0
LINE
  5
481
330
47B
100
AcDbEntity
  8
치수문자_일반주서
 62
     0
370
    -2
100
AcDbLine
 10
95.57349552409474
 20
12.57407492872398
 30
0.0
 11
95.57349552409482
 21
-12.56139885509831
 31
0.0
  0
SOLID
  5
482
330
47B
100
AcDbEntity
  8
치수문자_일반주서
 62
     0
100
AcDbTrace
 10
96.12382885742807
 20
12.57407492872399
 30
0.0
 11
95.02316219076141
 21
12.57407492872398
 31
0.0
 12
95.57349552409472
 22
15.87607492872398
 32
0.0
 13
95.57349552409472
 23
15.87607492872398
 33
0.0
  0
SOLID
  5
483
330
47B
100
AcDbEntity
  8
치수문자_일반주서
 62
     0
100
AcDbTrace
 10
95.0231621907615
 20
-12.56139885509831
 30
0.0
 11
96.12382885742815
 21
-12.56139885509831
 31
0.0
 12
95.57349552409484
 22
-15.86339885509831
 32
0.0
 13
95.57349552409484
 23
-15.86339885509831
 33
0.0
  0
MTEXT
  5
484
330
47B
100
AcDbEntity
  8
치수문자_일반주서
 62
     0
100
AcDbMText
 10
91.19849552409465
 20
36.02182492872396
 30
0.0
 40
3.5
 41
0.0
 71
     2
 72
     1
  1
\A1;%%c31.74 [1 1/4]
  7
SLDTEXTSTYLE0
 11
-3.581875317024398E-15
 21
1.0
 31
0.0
 73
     1
 44
1.0
  0
POINT
  5
485
330
47B
100
AcDbEntity
  8
Defpoints
 62
     0
100
AcDbPoint
 10
75.5
 20
15.87607492872391
 30
0.0
  0
POINT
  5
486
330
47B
100
AcDbEntity
  8
Defpoints
 62
     0
100
AcDbPoint
 10
75.5
 20
-15.86339885509838
 30
0.0
  0
POINT
  5
487
330
47B
100
AcDbEntity
  8
Defpoints
 62
     0
100
AcDbPoint
 10
95.57349552409484
 20
-15.86339885509831
 30
0.0
  0
ENDBLK
  5
47D
330
47B
100
AcDbEntity
  8
0
100
AcDbBlockEnd
  0
BLOCK
  5
48D
330
48C
100
AcDbEntity
  8
0
100
AcDbBlockBegin
  2
*D31
 70
     1
 10
0.0
 20
0.0
 30
0.0
  3
*D31
  1
*D32
  0
LINE
  5
48F
330
48C
100
AcDbEntity
  8
치수문자_일반주서
 62
     0
370
    -2
100
AcDbLine
 10
75.5625
 20
19.05107492872389
 30
0.0
 11
91.42353749717638
 21
19.05107492872389
 31
0.0
  0
LINE
  5
490
330
48C
100
AcDbEntity
  8
치수문자_일반주서
 62
     0
370
    -2
100
AcDbLine
 10
75.5625
 20
-19.04892507127611
 30
0.0
 11
91.42353749717638
 21
-19.04892507127611
 31
0.0
  0
LINE
  5
491
330
48C
100
AcDbEntity
  8
치수문자_일반주서
 62
     0
370
    -2
100
AcDbLine
 10
91.42353749717638
 20
15.74907492872389
 30
0.0
 11
91.42353749717638
 21
-15.74692507127611
 31
0.0
  0
SOLID
  5
492
330
48C
100
AcDbEntity
  8
치수문자_일반주서
 62
     0
100
AcDbTrace
 10
91.97387083050971
 20
15.74907492872389
 30
0.0
 11
90.87320416384306
 21
15.74907492872389
 31
0.0
 12
91.42353749717638
 22
19.05107492872389
 32
0.0
 13
91.42353749717638
 23
19.05107492872389
 33
0.0
  0
SOLID
  5
493
330
48C
100
AcDbEntity
  8
치수문자_일반주서
 62
     0
100
AcDbTrace
 10
90.87320416384306
 20
-15.74692507127611
 30
0.0
 11
91.97387083050971
 21
-15.74692507127611
 31
0.0
 12
91.42353749717638
 22
-19.04892507127611
 32
0.0
 13
91.42353749717638
 23
-19.04892507127611
 33
0.0
  0
MTEXT
  5
494
330
48C
100
AcDbEntity
  8
치수문자_일반주서
 62
     0
100
AcDbMText
 10
88.79853749717638
 20
0.0010749287238916
 30
0.0
 40
3.5
 41
0.0
 71
     5
 72
     1
  1
\A1;{%%c38.1 [1 1/2]}
  7
SLDTEXTSTYLE0
 11
0.0
 21
1.0
 31
0.0
 73
     1
 44
1.0
  0
POINT
  5
495
330
48C
100
AcDbEntity
  8
Defpoints
 62
     0
100
AcDbPoint
 10
75.5
 20
19.05107492872389
 30
0.0
  0
POINT
  5
496
330
48C
100
AcDbEntity
  8
Defpoints
 62
     0
100
AcDbPoint
 10
75.5
 20
-19.04892507127611
 30
0.0
  0
POINT
  5
497
330
48C
100
AcDbEntity
  8
Defpoints
 62
     0
100
AcDbPoint
 10
91.42353749717638
 20
-19.04892507127611
 30
0.0
  0
ENDBLK
  5
48E
330
48C
100
AcDbEntity
  8
0
100
AcDbBlockEnd
  0
ENDSEC
  0
SECTION
  2
ENTITIES
  0
LINE
  5
A5
330
1F
100
AcDbEntity
  8
참조1
100
AcDbLine
 10
14.84926131403116
 20
0.0010749287238892
 30
0.0
 11
14.84926131403117
 21
-39.99892507127611
 31
0.0
  0
LINE
  5
A6
330
1F
100
AcDbEntity
  8
참조1
100
AcDbLine
 10
78.34926131403117
 20
0.0010749287238892
 30
0.0
 11
78.34926131403117
 21
4.274726723198788
 31
0.0
  0
LINE
  5
A7
330
1F
100
AcDbEntity
  8
참조1
100
AcDbLine
 10
14.84926131403117
 20
-39.99892507127611
 30
0.0
 11
-20.1533455002775
 21
-39.9989250712761
 31
0.0
  0
INSERT
  5
A9
330
1F
100
AcDbEntity
  8
0
  6
Continuous
 62
     7
100
AcDbBlockReference
 66
     1
  2
블럭10
 10
-11.94027293212521
 20
-52.04717430164392
 30
0.0
  0
ATTRIB
  5
AA
330
A9
100
AcDbEntity
  8
FORMAT
 62
     2
100
AcDbText
 10
-21.12156822086649
 20
-49.97180738881173
 30
0.0
 40
4.233333333333333
  1
E2110132 [ 2 FLUTE ]
 41
0.75
  7
SLDTEXTSTYLE0
 11
-21.12156822086649
 21
-52.0884740554784
 31
0.0
100
AcDbAttribute
  2
AUTOATTR0
 70
     0
 74
     1
  0
SEQEND
  5
AB
330
A9
100
AcDbEntity
  8
0
  6
Continuous
 62
     7
  0
HATCH
  5
AC
330
1F
100
AcDbEntity
  8
중심선
100
AcDbHatch
 10
0.0
 20
0.0
 30
0.0
210
0.0
220
0.0
230
1.0
  2
SOLID
 70
     1
 71
     0
 91
        1
 92
        0
 93
        4
 72
     1
 10
-6.225363627744373
 20
-35.79999999999998
 11
-9.671638871581655
 21
-35.79999999999998
 72
     1
 10
-9.671638871581655
 20
-35.79999999999998
 11
-11.79986873078568
 21
-38.33632558057258
 72
     1
 10
-11.79986873078568
 20
-38.33632558057258
 11
-8.353560401835246
 21
-38.33628615127009
 72
     1
 10
-8.353560401835246
 20
-38.33628615127009
 11
-6.225363627744373
 21
-35.79999999999998
 97
        0
 75
     0
 76
     1
 98
        1
 10
-12.84926131403117
 20
-0.0010749287238809
  0
HATCH
  5
AD
330
1F
100
AcDbEntity
  8
중심선
100
AcDbHatch
 10
0.0
 20
0.0
 30
0.0
210
0.0
220
0.0
230
1.0
  2
SOLID
 70
     1
 71
     0
 91
        1
 92
        0
 93
        4
 72
     1
 10
-1.212599636708394
 20
-35.79999999999996
 11
-4.658874880545676
 21
-35.79999999999998
 72
     1
 10
-4.658874880545676
 20
-35.79999999999998
 11
-9.190012888903091
 21
-41.2
 72
     1
 10
-9.190012888903091
 20
-41.2
 11
-5.743737645065809
 21
-41.2
 72
     1
 10
-5.74373764506581
 20
-41.2
 11
-1.212599636708394
 21
-35.79999999999996
 97
        0
 75
     0
 76
     1
 98
        1
 10
-12.84926131403117
 20
-0.0010749287238809
  0
HATCH
  5
AE
330
1F
100
AcDbEntity
  8
중심선
100
AcDbHatch
 10
0.0
 20
0.0
 30
0.0
210
0.0
220
0.0
230
1.0
  2
SOLID
 70
     1
 71
     0
 91
        1
 92
        0
 93
        4
 72
     1
 10
3.800164354327446
 20
-35.79999999999998
 11
0.3538891104903854
 21
-35.79999999999996
 72
     1
 10
0.3538891104903854
 20
-35.79999999999996
 11
-6.69454779139889
 21
-44.2
 72
     1
 10
-6.69454779139889
 20
-44.2
 11
-3.248272547561609
 21
-44.2
 72
     1
 10
-3.248272547561609
 20
-44.2
 11
3.800164354327446
 21
-35.79999999999998
 97
        0
 75
     0
 76
     1
 98
        1
 10
-12.84926131403117
 20
-0.0010749287238809
  0
HATCH
  5
AF
330
1F
100
AcDbEntity
  8
중심선
100
AcDbHatch
 10
0.0
 20
0.0
 30
0.0
210
0.0
220
0.0
230
1.0
  2
SOLID
 70
     1
 71
     0
 91
        1
 92
        0
 93
        6
 72
     3
 10
8.600054785339672
 20
-40.00000000005126
 11
3.960054785062283
 21
1.540882976769353E-10
 40
0.3939339440162628
 50
17.09539180608436
 51
320.001965768507
 73
     0
 72
     1
 10
10.28305444104027
 20
-38.58789400463824
 11
12.58835631474131
 21
-36.65356729459034
 72
     3
 10
8.600054785286826
 20
-40.00000000000014
 11
6.600054785286829
 21
-1.278976924368180E-13
 40
0.636358354079598
 50
39.99873849337429
 51
368.4976242363724
 73
     1
 72
     1
 10
15.02538727718744
 20
-39.03999999993001
 11
7.280122092122749
 21
-39.03999999993001
 72
     1
 10
7.280122092122749
 20
-39.03999999993001
 11
7.280097047676815
 21
-40.9599999999299
 72
     1
 10
7.280097047676815
 20
-40.9599999999299
 11
11.72147681714885
 21
-40.95999999992987
 97
        0
 75
     0
 76
     1
 98
        1
 10
-12.84926131403117
 20
-0.0010749287238809
  0
LINE
  5
FE
330
1F
100
AcDbEntity
  8
참조1
100
AcDbLine
 10
77.81899512937676
 20
7.441074928723896
 30
0.0
 11
77.81899512937676
 21
-7.438925071276109
 31
0.0
  0
LINE
  5
FF
330
1F
100
AcDbEntity
  8
참조1
100
AcDbLine
 10
90.51899512937676
 20
5.441074928723896
 30
0.0
 11
77.81899512937676
 21
5.441074928723896
 31
0.0
  0
SOLID
  5
100
330
1F
100
AcDbEntity
  8
참조1
100
AcDbTrace
 10
77.81899512937676
 20
5.441074928723896
 30
0.0
 11
84.16899512937675
 21
4.425074928723896
 31
0.0
 12
84.16899512937675
 22
6.457074928723896
 32
0.0
 13
84.16899512937675
 23
6.457074928723896
 33
0.0
  0
LINE
  5
101
330
1F
100
AcDbEntity
  8
참조1
100
AcDbLine
 10
90.51899512937676
 20
-5.438925071276109
 30
0.0
 11
77.81899512937676
 21
-5.438925071276109
 31
0.0
  0
SOLID
  5
102
330
1F
100
AcDbEntity
  8
참조1
100
AcDbTrace
 10
77.81899512937676
 20
-5.438925071276109
 30
0.0
 11
84.16899512937675
 21
-6.454925071276109
 31
0.0
 12
84.16899512937675
 22
-4.422925071276109
 32
0.0
 13
84.16899512937675
 23
-4.422925071276109
 33
0.0
  0
MTEXT
  5
103
330
1F
100
AcDbEntity
  8
참조1
100
AcDbMText
 10
87.20334526200276
 20
11.01136670591222
 30
0.0
 40
3.5
 41
0.0
 71
     1
 72
     1
  1
A
  7
SLDTEXTSTYLE0
 73
     1
 44
1.0
  0
MTEXT
  5
104
330
1F
100
AcDbEntity
  8
참조1
100
AcDbMText
 10
87.20334526200276
 20
0.1313667059122192
 30
0.0
 40
3.5
 41
0.0
 71
     1
 72
     1
  1
A
  7
SLDTEXTSTYLE0
 73
     1
 44
1.0
  0
LINE
  5
429
330
1F
100
AcDbEntity
  8
외형선
  6
Continuous
370
    15
100
AcDbLine
 10
12.0
 20
15.87607492872391
 30
0.0
 11
-12.58732499999996
 21
15.8760749287239
 31
0.0
  0
LINE
  5
42A
330
1F
100
AcDbEntity
  8
외형선
  6
Continuous
370
    15
100
AcDbLine
 10
-50.5
 20
-15.8739250712761
 30
0.0
 11
11.99999999999999
 21
-15.87392507127609
 31
0.0
  0
LINE
  5
42B
330
1F
100
AcDbEntity
  8
외형선
  6
Continuous
370
    15
100
AcDbLine
 10
-51.5
 20
-14.8739250712761
 30
0.0
 11
-50.5
 21
-15.87392507127612
 31
0.0
  0
LINE
  5
42C
330
1F
100
AcDbEntity
  8
0
  6
Continuous
 62
     1
370
    15
100
AcDbLine
 10
52.63947904054992
 20
-19.04892507127609
 30
0.0
 11
56.45
 21
-19.04892507127609
 31
0.0
  0
ARC
  5
42D
330
1F
100
AcDbEntity
  8
0
  6
Continuous
 62
     1
370
    15
100
AcDbCircle
 10
56.45
 20
0.0010749287238951
 30
0.0
 40
19.05
100
AcDbArc
 50
270.0000000000007
 51
0.0
  0
ARC
  5
42E
330
1F
100
AcDbEntity
  8
0
  6
Continuous
 62
     1
370
    15
100
AcDbCircle
 10
56.45
 20
0.0010749287238951
 30
0.0
 40
19.05
100
AcDbArc
 50
0.0
 51
90.0
  0
LINE
  5
42F
330
1F
100
AcDbEntity
  8
0
  6
Continuous
 62
     1
370
    15
100
AcDbLine
 10
56.45
 20
19.05107492872391
 30
0.0
 11
52.63947904054996
 21
19.05107492872391
 31
0.0
  0
LINE
  5
436
330
1F
100
AcDbEntity
  8
외형선
  6
Continuous
370
    15
100
AcDbLine
 10
-51.5
 20
13.48847492872389
 30
0.0
 11
-51.5
 21
-14.8739250712761
 31
0.0
  0
SPLINE
  5
43A
330
1F
100
AcDbEntity
  8
0
  6
Continuous
 62
     1
370
    15
100
AcDbSpline
210
0.0
220
0.0
230
1.0
 70
     8
 71
     3
 72
    22
 73
    18
 74
     0
 42
0.000000001
 43
0.00000001
 40
0.0
 40
0.0
 40
0.0
 40
0.0
 40
0.0624999999999997
 40
0.0624999999999997
 40
0.1249999999999994
 40
0.1249999999999994
 40
0.1874999999999991
 40
0.1874999999999991
 40
0.2499999999999987
 40
0.2499999999999987
 40
0.2812499999999987
 40
0.2812499999999987
 40
0.3124999999999987
 40
0.3124999999999987
 40
0.3749999999999987
 40
0.3749999999999987
 40
0.3889063353347692
 40
0.3889063353347692
 40
0.3889063353347692
 40
0.3889063353347692
 10
56.45000000000003
 20
-7.963978547996171
 30
0.0
 10
55.25821807258129
 20
-7.339339515986583
 30
0.0
 10
54.07242182799422
 20
-6.700199416282024
 30
0.0
 10
51.6883125485311
 20
-5.39601915855832
 30
0.0
 10
50.49628669393117
 20
-4.732094184187164
 30
0.0
 10
48.12015126054278
 20
-3.389860651226959
 30
0.0
 10
46.92530308321567
 20
-2.709525367632053
 30
0.0
 10
44.54298438541775
 20
-1.342312207039814
 30
0.0
 10
43.35665288643278
 20
-0.6556722014924702
 30
0.0
 10
41.56811575200567
 20
0.3759365791044246
 30
0.0
 10
40.97167798161522
 20
0.7198405588970131
 30
0.0
 10
39.7809051084455
 20
1.40620684443177
 30
0.0
 10
39.18782908503056
 20
1.74842805507071
 30
0.0
 10
37.40388871118744
 20
2.772938770476375
 30
0.0
 10
36.2088361379322
 20
3.452955496442578
 30
0.0
 10
34.75364833323611
 20
4.27332744895837
 30
0.0
 10
34.48925009165276
 20
4.422156051031213
 30
0.0
 10
34.22492393325727
 20
4.570529720156207
 30
0.0
  0
SPLINE
  5
43B
330
1F
100
AcDbEntity
  8
0
  6
Continuous
 62
     1
370
    15
100
AcDbSpline
210
0.0
220
0.0
230
1.0
 70
     8
 71
     3
 72
    17
 73
    13
 74
     0
 42
0.000000001
 43
0.00000001
 40
0.0
 40
0.0
 40
0.0
 40
0.0
 40
0.094590181554264
 40
0.189177533994808
 40
0.2837623379927635
 40
0.3790335293044731
 40
0.4743032830472499
 40
0.5695717673529712
 40
0.6648391505628932
 40
0.7601056011999651
 40
0.855371287941076
 40
0.9359385040191771
 40
0.9359385040191771
 40
0.9359385040191771
 40
0.9359385040191771
 10
70.40018309040721
 20
1.998130453039332
 30
0.0
 10
68.74827105940875
 20
2.635475500373329
 30
0.0
 10
65.4444964047278
 20
3.91014653258064
 30
0.0
 10
60.48892153761162
 20
5.722127282010169
 30
0.0
 10
55.52146910306672
 20
7.41260856395817
 30
0.0
 10
50.54209817537969
 20
8.938159383339668
 30
0.0
 10
45.55079751736072
 20
10.26341583758156
 30
0.0
 10
40.55956919827089
 20
11.35450510089028
 30
0.0
 10
35.56840440301412
 20
12.18523925480585
 30
0.0
 10
30.57729317794728
 20
12.74166589520244
 30
0.0
 10
25.84290477650549
 20
12.97939544145688
 30
0.0
 10
22.77221933783501
 20
12.99654420446169
 30
0.0
 10
21.3652215364016
 20
12.94920865222414
 30
0.0
  0
SPLINE
  5
43C
330
1F
100
AcDbEntity
  8
0
  6
Continuous
 62
     1
370
    15
100
AcDbSpline
210
0.0
220
0.0
230
1.0
 70
     8
 71
     3
 72
    42
 73
    38
 74
     0
 42
0.000000001
 43
0.00000001
 40
0.0
 40
0.0
 40
0.0
 40
0.0
 40
0.1249999999999986
 40
0.1249999999999986
 40
0.1874999999999984
 40
0.1874999999999984
 40
0.2499999999999981
 40
0.2499999999999981
 40
0.3124999999999978
 40
0.3124999999999978
 40
0.3749999999999976
 40
0.3749999999999976
 40
0.4374999999999973
 40
0.4374999999999973
 40
0.4687499999999972
 40
0.4687499999999972
 40
0.499999999999997
 40
0.499999999999997
 40
0.5624999999999973
 40
0.5624999999999973
 40
0.6249999999999977
 40
0.6249999999999977
 40
0.6562499999999979
 40
0.6562499999999979
 40
0.6874999999999981
 40
0.6874999999999981
 40
0.7187499999999983
 40
0.7187499999999983
 40
0.7499999999999984
 40
0.7499999999999984
 40
0.8124999999999989
 40
0.8124999999999989
 40
0.8749999999999992
 40
0.8749999999999992
 40
0.9374999999999996
 40
0.9374999999999996
 40
1.0
 40
1.0
 40
1.0
 40
1.0
 10
56.45
 20
-7.963978547996171
 30
0.0
 10
57.50813716925005
 20
-8.518571432757582
 30
0.0
 10
58.54975880713444
 20
-9.014770526520525
 30
0.0
 10
60.1069865670019
 20
-9.644178132587175
 30
0.0
 10
60.62532941630585
 20
-9.8344700915191
 30
0.0
 10
61.66570572682031
 20
-10.16653195480338
 30
0.0
 10
62.18997185638266
 20
-10.30885660213347
 30
0.0
 10
63.22421414653442
 20
-10.52978670068984
 30
0.0
 10
63.73637205329521
 20
-10.6093846012746
 30
0.0
 10
64.75571783642674
 20
-10.69652650358227
 30
0.0
 10
65.26276134009412
 20
-10.70447381634544
 30
0.0
 10
66.2788582370217
 20
-10.62928102128527
 30
0.0
 10
66.77777953912431
 20
-10.54685070946416
 30
0.0
 10
67.51257095925101
 20
-10.34408865099798
 30
0.0
 10
67.75541986755248
 20
-10.26322502815885
 30
0.0
 10
68.23752307063783
 20
-10.07141190440012
 30
0.0
 10
68.47775763588656
 20
-9.959799998184744
 30
0.0
 10
69.17840705721726
 20
-9.581205941178169
 30
0.0
 10
69.62329486081211
 20
-9.270349582403796
 30
0.0
 10
70.46572031467474
 20
-8.49951096394632
 30
0.0
 10
70.84456227620194
 20
-8.056119177201735
 30
0.0
 10
71.33984299141518
 20
-7.293791189647155
 30
0.0
 10
71.48939030545299
 20
-7.027901825170122
 30
0.0
 10
71.75319902395047
 20
-6.481716976938733
 30
0.0
 10
71.86833477729677
 20
-6.200085795398965
 30
0.0
 10
72.06453214720398
 20
-5.61949534253807
 30
0.0
 10
72.14417007791306
 20
-5.323808112364011
 30
0.0
 10
72.26536514728586
 20
-4.736308998969596
 30
0.0
 10
72.3076760741381
 20
-4.442277485701904
 30
0.0
 10
72.38271090054705
 20
-3.55874095100697
 30
0.0
 10
72.36219329902261
 20
-2.989617645882887
 30
0.0
 10
72.21009794131861
 20
-1.887908945321547
 30
0.0
 10
72.07653264557196
 20
-1.351348598901328
 30
0.0
 10
71.72655399168589
 20
-0.3346266542135168
 30
0.0
 10
71.50952626727427
 20
0.1512406025736169
 30
0.0
 10
71.00518965352413
 20
1.094432393762818
 30
0.0
 10
70.71675367311279
 20
1.552849902868687
 30
0.0
 10
70.40018309032345
 20
1.998130453071954
 30
0.0
  0
SPLINE
  5
43D
330
1F
100
AcDbEntity
  8
0
  6
Continuous
 62
     1
370
    15
100
AcDbSpline
210
0.0
220
0.0
230
1.0
 70
     8
 71
     3
 72
    10
 73
     6
 74
     0
 42
0.000000001
 43
0.00000001
 40
0.0
 40
0.0
 40
0.0
 40
0.0
 40
0.1881908910499689
 40
0.3784614964227077
 40
0.5158582577091219
 40
0.5158582577091219
 40
0.5158582577091219
 40
0.5158582577091219
 10
25.53164052640403
 20
-12.94953092958957
 30
0.0
 10
23.88615154958629
 20
-12.9586459995819
 30
0.0
 10
20.57698915049779
 20
-12.97697687101804
 30
0.0
 10
16.06653503998395
 20
-12.66351977094493
 30
0.0
 10
13.20140415693555
 20
-12.32997726530504
 30
0.0
 10
11.99999999999998
 20
-12.16701357312242
 30
0.0
  0
SPLINE
  5
440
330
1F
100
AcDbEntity
  8
0
  6
Continuous
 62
     1
370
    15
100
AcDbSpline
210
0.0
220
0.0
230
1.0
 70
     8
 71
     3
 72
    14
 73
    10
 74
     0
 42
0.000000001
 43
0.00000001
 40
0.0
 40
0.0
 40
0.0
 40
0.0
 40
0.25
 40
0.25
 40
0.5
 40
0.5
 40
0.75
 40
0.75
 40
1.0
 40
1.0
 40
1.0
 40
1.0
 10
70.40018309032335
 20
1.998130453071988
 30
0.0
 10
70.61933401316526
 20
2.129956978794732
 30
0.0
 10
70.81453738930244
 20
2.293503380239949
 30
0.0
 10
71.15691234108495
 20
2.685832393450798
 30
0.0
 10
71.30520505320001
 20
2.918345632929928
 30
0.0
 10
71.53905018563276
 20
3.42780873671671
 30
0.0
 10
71.6265315171637
 20
3.705421188291311
 30
0.0
 10
71.74622053800361
 20
4.301799612343737
 30
0.0
 10
71.77701548277328
 20
4.615641680947047
 30
0.0
 10
71.78233522295481
 20
4.934838269294781
 30
0.0
  0
ARC
  5
441
330
1F
100
AcDbEntity
  8
0
  6
Continuous
 62
     1
370
    15
100
AcDbCircle
 10
66.3858307470371
 20
-3.310441434677889
 30
0.0
 40
9.854283228898169
100
AcDbArc
 50
23.84124869977957
 51
56.79540420373066
  0
ARC
  5
442
330
1F
100
AcDbEntity
  8
0
  6
Continuous
 62
     1
370
    15
100
AcDbCircle
 10
58.3356153725756
 20
0.3315450771599757
 30
0.0
 40
17.06703185448895
100
AcDbArc
 50
1.145362452544735
 51
71.08085203482841
  0
SPLINE
  5
443
330
1F
100
AcDbEntity
  8
0
  6
Continuous
 62
     1
370
    15
100
AcDbSpline
210
0.0
220
0.0
230
1.0
 70
     8
 71
     3
 72
    14
 73
    10
 74
     0
 42
0.000000001
 43
0.00000001
 40
0.0
 40
0.0
 40
0.0
 40
0.0
 40
0.25
 40
0.25
 40
0.5
 40
0.5
 40
0.75
 40
0.75
 40
1.0
 40
1.0
 40
1.0
 40
1.0
 10
63.86932016184163
 20
16.47656559828023
 30
0.0
 10
63.27983828077008
 20
16.83593020985995
 30
0.0
 10
62.6796632418105
 20
17.15730581859659
 30
0.0
 10
61.4694410715321
 20
17.72150264149231
 30
0.0
 10
60.85779092619417
 20
17.96529028234473
 30
0.0
 10
59.62063944063731
 20
18.37620229226067
 30
0.0
 10
58.99485656803287
 20
18.54327004817389
 30
0.0
 10
57.72474309222901
 20
18.79681831729435
 30
0.0
 10
57.08868114934224
 20
18.88168446000729
 30
0.0
 10
56.45
 20
18.92415179364441
 30
0.0
  0
SPLINE
  5
444
330
1F
100
AcDbEntity
  8
0
  6
Continuous
 62
     1
370
    15
100
AcDbSpline
210
0.0
220
0.0
230
1.0
 70
     8
 71
     3
 72
    10
 73
     6
 74
     0
 42
0.000000001
 43
0.00000001
 40
0.0
 40
0.0
 40
0.0
 40
0.0
 40
0.5
 40
0.5
 40
1.0
 40
1.0
 40
1.0
 40
1.0
 10
60.00320850583148
 20
8.528790529008207
 30
0.0
 10
61.93949803077453
 20
7.990671345997836
 30
0.0
 10
63.89227460519955
 20
7.418776867425302
 30
0.0
 10
67.82639696601623
 20
6.216461150885417
 30
0.0
 10
69.80323024870756
 20
5.587343293933666
 30
0.0
 10
71.78233522295486
 20
4.934838269294763
 30
0.0
  0
SPLINE
  5
445
330
1F
100
AcDbEntity
  8
0
  6
Continuous
 62
     1
370
    15
100
AcDbSpline
210
0.0
220
0.0
230
1.0
 70
     8
 71
     3
 72
    15
 73
    11
 74
     0
 42
0.000000001
 43
0.00000001
 40
0.0
 40
0.0
 40
0.0
 40
0.0
 40
0.0388875904959528
 40
0.1867303062865885
 40
0.3222475154889616
 40
0.4578061273122163
 40
0.5934158755861854
 40
0.7289711647791702
 40
0.864487109881902
 40
0.9999999999999999
 40
0.9999999999999999
 40
0.9999999999999999
 40
0.9999999999999999
 10
25.53164052640403
 20
12.95168078703737
 30
0.0
 10
25.93242547485523
 20
13.12810023541286
 30
0.0
 10
27.85691334424727
 20
13.97523057210723
 30
0.0
 10
31.17811197689068
 20
15.19524634520348
 30
0.0
 10
35.49523011962994
 20
16.5845075340209
 30
0.0
 10
39.68662816801344
 20
17.64849888993162
 30
0.0
 10
43.87895144445625
 20
18.43400075603593
 30
0.0
 10
48.07025387570898
 20
18.91568882280725
 30
0.0
 10
52.26033123992285
 20
19.11475662557377
 30
0.0
 10
55.05345424115511
 20
18.98768626018333
 30
0.0
 10
56.45
 20
18.92415179364441
 30
0.0
  0
SPLINE
  5
446
330
1F
100
AcDbEntity
  8
0
  6
Continuous
 62
     1
370
    15
100
AcDbSpline
210
0.0
220
0.0
230
1.0
 70
     8
 71
     3
 72
    24
 73
    20
 74
     0
 42
0.000000001
 43
0.00000001
 40
0.0
 40
0.0
 40
0.0
 40
0.0
 40
0.125
 40
0.125
 40
0.25
 40
0.25
 40
0.375
 40
0.375
 40
0.4375
 40
0.4375
 40
0.5
 40
0.5
 40
0.625
 40
0.625
 40
0.75
 40
0.75
 40
0.875
 40
0.875
 40
1.0
 40
1.0
 40
1.0
 40
1.0
 10
63.86932016184163
 20
16.47656559828025
 30
0.0
 10
63.9369262396613
 20
16.07673237640781
 30
0.0
 10
63.98529665186634
 20
15.6741071494817
 30
0.0
 10
64.03471381495056
 20
14.86198779365188
 30
0.0
 10
64.03576783752668
 20
14.45101409033611
 30
0.0
 10
63.97667480641908
 20
13.62647542470885
 30
0.0
 10
63.91717306875903
 20
13.22109373777211
 30
0.0
 10
63.77516327897312
 20
12.62515173989043
 30
0.0
 10
63.71900250508395
 20
12.42853336261993
 30
0.0
 10
63.58723866728435
 20
12.03976700086149
 30
0.0
 10
63.51158033089561
 20
11.84796271066293
 30
0.0
 10
63.25954095474381
 20
11.29360174244494
 30
0.0
 10
63.05669143254842
 20
10.94734818815147
 30
0.0
 10
62.58021458789653
 20
10.30223950828517
 30
0.0
 10
62.30480409880947
 20
10.0033064567213
 30
0.0
 10
61.71246124278336
 20
9.477651306544034
 30
0.0
 10
61.39196195832483
 20
9.246087336621391
 30
0.0
 10
60.71338574046109
 20
8.841115230090875
 30
0.0
 10
60.36279295235248
 20
8.671772072286963
 30
0.0
 10
60.00320850583148
 20
8.528790529008207
 30
0.0
  0
LINE
  5
449
330
1F
100
AcDbEntity
  8
중심선
100
AcDbLine
 10
-54.5
 20
0.0010749287238951
 30
0.0
 11
78.5
 21
0.0010749287239094
 31
0.0
  0
CIRCLE
  5
44A
330
1F
100
AcDbEntity
  8
해칭선
100
AcDbCircle
 10
0.0
 20
0.0
 30
0.0
 40
3.000000000000003
  0
DIMENSION
  5
44B
330
1F
100
AcDbEntity
  8
치수문자_일반주서
100
AcDbDimension
  2
*D27
 10
12.0
 20
34.85535659993897
 30
0.0
 11
46.38540690934184
 21
34.85535659993897
 31
0.0
 70
   160
  1
<>
 71
     2
 42
63.5
  3
SLDDIMSTYLE1
100
AcDbAlignedDimension
 13
75.5
 23
15.87607492872391
 33
0.0
 14
12.0
 24
15.30045061260948
 34
0.0
 50
0.0000000000000032
100
AcDbRotatedDimension
1001
ACAD
1000
DSTYLE
1002
{
1070
   171
1070
     6
1070
   273
1070
     7
1002
}
  0
DIMENSION
  5
44C
330
1F
100
AcDbEntity
  8
치수문자_일반주서
100
AcDbDimension
  2
*D28
 10
-51.5
 20
48.52064968798612
 30
0.0
 11
12.0
 21
48.52064968798612
 31
0.0
 70
   160
  1
<>
 71
     2
 42
127.0
  3
SLDDIMSTYLE1
100
AcDbAlignedDimension
 13
75.5
 23
15.87607492872391
 33
0.0
 14
-51.5
 24
14.8760749287239
 34
0.0
 50
0.0000000000000064
100
AcDbRotatedDimension
1001
ACAD
1000
DSTYLE
1002
{
1070
   171
1070
     6
1070
   273
1070
     7
1002
}
  0
DIMENSION
  5
44D
330
1F
100
AcDbEntity
  8
치수문자_일반주서
100
AcDbDimension
  2
*D29
 10
-63.99999999999994
 20
-15.87392507127614
 30
0.0
 11
-64.0
 21
0.0010749287238951
 31
0.0
 70
   160
  1
%%c<>
 71
     2
 42
31.75
 52
-270.0
  3
SLDDIMSTYLE1
100
AcDbAlignedDimension
 13
-50.5
 23
15.87607492872391
 33
0.0
 14
-50.5
 24
-15.87392507127609
 34
0.0
 50
90.0000000000002
100
AcDbRotatedDimension
1001
ACAD
1000
DSTYLE
1002
{
1070
   171
1070
     6
1070
   273
1070
     7
1002
}
  0
INSERT
  5
44F
330
1F
100
AcDbEntity
  8
해칭선
100
AcDbBlockReference
  2
SW_DOWELSYMBOL_0
 10
0.0
 20
0.0
 30
0.0
  0
LINE
  5
450
330
1F
100
AcDbEntity
  8
외형선
  6
Continuous
370
    15
100
AcDbLine
 10
-28.08132499999999
 20
13.48847492872387
 30
0.0
 11
-14.97492499999998
 21
13.48847492872389
 31
0.0
  0
LINE
  5
451
330
1F
100
AcDbEntity
  8
외형선
  6
Continuous
370
    15
100
AcDbLine
 10
-14.97492499999998
 20
13.48847492872387
 30
0.0
 11
-12.58732499999996
 21
15.87607492872391
 31
0.0
  0
LINE
  5
452
330
1F
100
AcDbEntity
  8
외형선
  6
Continuous
370
    15
100
AcDbLine
 10
-28.08132499999999
 20
13.48847492872387
 30
0.0
 11
-30.46892500000001
 21
15.87607492872391
 31
0.0
  0
LINE
  5
453
330
1F
100
AcDbEntity
  8
외형선
  6
Continuous
370
    15
100
AcDbLine
 10
-51.5
 20
13.48847492872389
 30
0.0
 11
-37.80000000000001
 21
13.48847492872389
 31
0.0
  0
LINE
  5
454
330
1F
100
AcDbEntity
  8
외형선
  6
Continuous
370
    15
100
AcDbLine
 10
-37.80000000000001
 20
13.48847492872387
 30
0.0
 11
-35.4124000000001
 21
15.87607492872388
 31
0.0
  0
LINE
  5
455
330
1F
100
AcDbEntity
  8
외형선
  6
Continuous
370
    15
100
AcDbLine
 10
-50.5
 20
13.48847492872389
 30
0.0
 11
-50.5
 21
-15.8739250712761
 31
0.0
  0
LINE
  5
456
330
1F
100
AcDbEntity
  8
외형선
  6
Continuous
370
    15
100
AcDbLine
 10
-30.46892500000001
 20
15.8760749287239
 30
0.0
 11
-35.41240000000008
 21
15.8760749287239
 31
0.0
  0
DIMENSION
  5
489
330
1F
100
AcDbEntity
  8
치수문자_일반주서
100
AcDbDimension
  2
*D31
 10
91.42353749717638
 20
-19.04892507127611
 30
0.0
 11
88.79853749717638
 21
0.0010749287238916
 31
0.0
 70
    32
  1
{%%c<>[]}
 71
     5
 42
38.09999999999999
  3
SLDDIMSTYLE1
100
AcDbAlignedDimension
 13
75.5
 23
19.05107492872389
 33
0.0
 14
75.5
 24
-19.04892507127611
 34
0.0
 50
90.0
100
AcDbRotatedDimension
1001
ACAD
1000
DSTYLE
1002
{
1070
   283
1070
     1
1070
   170
1070
     1
1070
   171
1070
     6
1070
   273
1070
     7
1002
}
  0
LINE
  5
49B
330
1F
100
AcDbEntity
  8
외형선
  6
Continuous
370
    15
100
AcDbLine
 10
12.0
 20
19.05107492872389
 30
0.0
 11
12.0
 21
-19.0489250712761
 31
0.0
  0
SPLINE
  5
49C
330
1F
100
AcDbEntity
  8
0
  6
Continuous
 62
     1
370
    15
100
AcDbSpline
210
0.0
220
0.0
230
1.0
 70
     8
 71
     3
 72
    18
 73
    14
 74
     0
 42
0.000000001
 43
0.00000001
 40
0.2380900086089766
 40
0.2380900086089766
 40
0.2380900086089766
 40
0.2380900086089766
 40
0.2571753752749784
 40
0.3429013432111631
 40
0.42861370471933
 40
0.5143173590691058
 40
0.6000172196759419
 40
0.6785723644212363
 40
0.7571515089883641
 40
0.8357602957781382
 40
0.9143375143190193
 40
0.9928919263047559
 40
0.9999999999999999
 40
0.9999999999999999
 40
0.9999999999999999
 40
0.9999999999999999
 10
11.99999999999998
 20
-6.335922748509474
 30
0.0
 10
12.33935689802883
 20
-6.520641733674691
 30
0.0
 10
14.20300149842052
 20
-7.529553872506325
 30
0.0
 10
17.59058903951378
 20
-9.30386152067081
 30
0.0
 10
22.16254817921772
 20
-11.52030284168001
 30
0.0
 10
26.73391489067578
 20
-13.5158940805002
 30
0.0
 10
31.17811206796824
 20
-15.20387060749268
 30
0.0
 10
35.49523007479588
 20
-16.57986983704949
 30
0.0
 10
39.68662826029055
 20
-17.64591286810852
 30
0.0
 10
43.87895112012912
 20
-18.43608593739837
 30
0.0
 10
48.07025508001906
 20
-18.89704509451868
 30
0.0
 10
50.99016198214228
 20
-19.09027469993898
 30
0.0
 10
52.5131084842354
 20
-19.04042963901171
 30
0.0
 10
52.63947904054996
 20
-19.03629361186284
 30
0.0
  0
SPLINE
  5
49D
330
1F
100
AcDbEntity
  8
0
  6
Continuous
 62
     1
370
    15
100
AcDbSpline
210
0.0
220
0.0
230
1.0
 70
  1080
 71
     3
 72
     8
 73
     4
 74
     2
 42
0.000000001
 43
0.0000000001
 44
0.0
 40
0.0
 40
0.0
 40
0.0
 40
0.0
 40
26.52608967368625
 40
26.52608967368625
 40
26.52608967368625
 40
26.52608967368625
 10
12.0
 20
19.05107492872389
 30
0.0
 10
19.40830797775242
 20
14.22422652586799
 30
0.0
 10
26.81661595550485
 20
9.397378123012102
 30
0.0
 10
34.22492393325727
 20
4.570529720156207
 30
0.0
 11
12.0
 21
19.05107492872389
 31
0.0
 11
34.22492393325727
 21
4.570529720156207
 31
0.0
  0
SPLINE
  5
49F
330
1F
100
AcDbEntity
  8
0
  6
Continuous
 62
     1
370
    15
100
AcDbSpline
210
0.0
220
0.0
230
1.0
 70
     8
 71
     3
 72
     8
 73
     4
 74
     0
 42
0.000000001
 43
0.00000001
 40
0.999594763272755
 40
0.999594763272755
 40
0.999594763272755
 40
0.999594763272755
 40
1.0
 40
1.0
 40
1.0
 40
1.0
 10
18.03020992309085
 20
12.74852010583692
 30
0.0
 10
18.02313301202025
 20
12.74799137183852
 30
0.0
 10
18.01605610094975
 20
12.74746262537634
 30
0.0
 10
18.00897918987924
 20
12.74693387891416
 30
0.0
  0
SPLINE
  5
4A0
330
1F
100
AcDbEntity
  8
0
  6
Continuous
 62
     1
370
    15
100
AcDbSpline
210
0.0
220
0.0
230
1.0
 70
     8
 71
     3
 72
     9
 73
     5
 74
     0
 42
0.000000001
 43
0.0000000001
 40
0.0
 40
0.0
 40
0.0
 40
0.0
 40
15.92235878166636
 40
18.70974914543295
 40
18.70974914543295
 40
18.70974914543295
 40
18.70974914543295
 10
12.0
 20
-19.0489250712761
 30
0.0
 10
17.30193403403152
 20
-18.28805049011318
 30
0.0
 10
23.53203204416954
 20
-17.39397614221653
 30
0.0
 10
29.32077105413493
 20
-15.1576438630174
 30
0.0
 10
30.17571437061051
 20
-14.80176593386634
 30
0.0
  0
ENDSEC
  0
SECTION
  2
OBJECTS
  0
DICTIONARY
  5
C
330
0
100
AcDbDictionary
281
     1
  3
ACAD_GROUP
350
D
  3
ACAD_IMAGE_VARS
350
12F
  3
ACAD_LAYOUT
350
1A
  3
ACAD_MLINESTYLE
350
17
  3
ACAD_PLOTSETTINGS
350
19
  3
ACAD_PLOTSTYLENAME
350
E
  3
ACAD_SCALELIST
350
47
  3
APPDATA
350
12D
  3
DWGPROPS
350
4C6
  0
DICTIONARY
  5
1BF
330
2
100
AcDbDictionary
280
     1
281
     1
  3
ACAD_LAYERSTATES
360
1C0
  0
DICTIONARY
  5
D
102
{ACAD_REACTORS
330
C
102
}
330
C
100
AcDbDictionary
281
     1
  0
RASTERVARIABLES
  5
12F
102
{ACAD_REACTORS
330
C
102
}
330
C
100
AcDbRasterVariables
 90
        0
 70
     1
 71
     1
 72
     1
  0
DICTIONARY
  5
1A
102
{ACAD_REACTORS
330
C
102
}
330
C
100
AcDbDictionary
281
     1
  3
Layout1
350
1E
  3
Layout2
350
26
  3
Model
350
22
  0
DICTIONARY
  5
17
102
{ACAD_REACTORS
330
C
102
}
330
C
100
AcDbDictionary
281
     1
  3
Standard
350
18
  0
DICTIONARY
  5
19
102
{ACAD_REACTORS
330
C
102
}
330
C
100
AcDbDictionary
281
     1
  0
ACDBDICTIONARYWDFLT
  5
E
102
{ACAD_REACTORS
330
C
102
}
330
C
100
AcDbDictionary
281
     1
  3
Normal
350
F
100
AcDbDictionaryWithDefault
340
F
  0
DICTIONARY
  5
47
102
{ACAD_REACTORS
330
C
102
}
330
C
100
AcDbDictionary
281
     1
  3
A0
350
48
  3
A1
350
49
  3
A2
350
4A
  3
A3
350
4B
  3
A4
350
4C
  3
A5
350
4D
  3
A6
350
4E
  3
A7
350
4F
  3
A8
350
50
  3
A9
350
51
  3
B0
350
52
  3
B1
350
53
  3
B2
350
54
  3
B3
350
55
  3
B4
350
56
  3
B5
350
57
  3
B6
350
58
  3
B7
350
59
  3
B8
350
5A
  3
B9
350
5B
  3
C0
350
5C
  3
C1
350
5D
  3
C2
350
5E
  3
C3
350
5F
  3
C4
350
60
  3
C5
350
61
  3
C6
350
62
  3
C7
350
63
  3
C8
350
64
  3
C9
350
65
  3
D0
350
66
  3
D1
350
67
  3
D2
350
68
  0
DICTIONARY
  5
12D
102
{ACAD_REACTORS
330
C
102
}
330
C
100
AcDbDictionary
281
     1
  0
XRECORD
  5
4C6
102
{ACAD_REACTORS
330
C
102
}
330
C
100
AcDbXrecord
280
     1
  1
DWGPROPS COOKIE
  2

  3

  4

  6

  7

  8
12016016
  9

300
=
301
=
302
=
303
=
304
=
305
=
306
=
307
=
308
=
309
=
 40
0.0
 41
2458316.20845382
 42
2458320.365450845
  1

 90
        0
  0
DICTIONARY
  5
1C0
102
{ACAD_REACTORS
330
1BF
102
}
330
1BF
100
AcDbDictionary
281
     1
  0
LAYOUT
  5
1E
102
{ACAD_REACTORS
330
1A
102
}
330
1A
100
AcDbPlotSettings
  1

  2
none_device
  4

  6

 40
0.0
 41
0.0
 42
0.0
 43
0.0
 44
0.0
 45
0.0
 46
0.0
 47
0.0
 48
0.0
 49
0.0
140
0.0
141
0.0
142
1.0
143
1.0
 70
   688
 72
     1
 73
     0
 74
     5
  7

 75
    16
147
1.0
148
0.0
149
0.0
100
AcDbLayout
  1
Layout1
 70
     1
 71
     1
 10
0.0
 20
0.0
 11
420.0
 21
297.0
 12
0.0
 22
0.0
 32
0.0
 14
1.000000000000000E+20
 24
1.000000000000000E+20
 34
1.000000000000000E+20
 15
-1.000000000000000E+20
 25
-1.000000000000000E+20
 35
-1.000000000000000E+20
146
0.0
 13
0.0
 23
0.0
 33
0.0
 16
1.0
 26
0.0
 36
0.0
 17
0.0
 27
1.0
 37
0.0
 76
     0
330
1B
  0
LAYOUT
  5
26
102
{ACAD_REACTORS
330
1A
102
}
330
1A
100
AcDbPlotSettings
  1

  2
none_device
  4

  6

 40
0.0
 41
0.0
 42
0.0
 43
0.0
 44
0.0
 45
0.0
 46
0.0
 47
0.0
 48
0.0
 49
0.0
140
0.0
141
0.0
142
1.0
143
1.0
 70
   688
 72
     1
 73
     0
 74
     5
  7

 75
    16
147
1.0
148
0.0
149
0.0
100
AcDbLayout
  1
Layout2
 70
     1
 71
     2
 10
0.0
 20
0.0
 11
0.0
 21
0.0
 12
0.0
 22
0.0
 32
0.0
 14
0.0
 24
0.0
 34
0.0
 15
0.0
 25
0.0
 35
0.0
146
0.0
 13
0.0
 23
0.0
 33
0.0
 16
1.0
 26
0.0
 36
0.0
 17
0.0
 27
1.0
 37
0.0
 76
     0
330
23
  0
LAYOUT
  5
22
102
{ACAD_REACTORS
330
1A
102
}
330
1A
100
AcDbPlotSettings
  1

  2
none_device
  4
ANSI_A_(11.00_x_8.50_Inches)
  6

 40
6.35
 41
19.05
 42
6.35000508
 43
19.05000254
 44
279.4
 45
215.9
 46
121.5000464014632
 47
37.54487057136063
 48
0.0
 49
0.0
140
0.0
141
0.0
142
0.0430968661619941
143
1.0
 70
  1696
 72
     0
 73
     0
 74
     0
  7

 75
     0
147
0.0235690232323232
148
0.0
149
0.0
100
AcDbLayout
  1
Model
 70
     1
 71
     0
 10
0.0
 20
0.0
 11
420.0
 21
297.0
 12
0.0
 22
0.0
 32
0.0
 14
-68.37500000000004
 24
-49.97180738881173
 34
0.0
 15
91.97387083050971
 25
52.89564968798612
 35
0.0
146
0.0
 13
0.0
 23
0.0
 33
0.0
 16
1.0
 26
0.0
 36
0.0
 17
0.0
 27
1.0
 37
0.0
 76
     0
330
1F
331
29
  0
MLINESTYLE
  5
18
102
{ACAD_REACTORS
330
17
102
}
330
17
100
AcDbMlineStyle
  2
Standard
 70
     0
  3

 62
   256
 51
90.0
 52
90.0
 71
     2
 49
0.5
 62
   256
  6
BYLAYER
 49
-0.5
 62
   256
  6
BYLAYER
  0
ACDBPLACEHOLDER
  5
F
102
{ACAD_REACTORS
330
E
102
}
330
E
  0
SCALE
  5
48
102
{ACAD_REACTORS
330
47
102
}
330
47
100
AcDbScale
 70
     0
300
1:1
140
1.0
141
1.0
290
     1
  0
SCALE
  5
49
102
{ACAD_REACTORS
330
47
102
}
330
47
100
AcDbScale
 70
     0
300
1:2
140
1.0
141
2.0
290
     0
  0
SCALE
  5
4A
102
{ACAD_REACTORS
330
47
102
}
330
47
100
AcDbScale
 70
     0
300
1:4
140
1.0
141
4.0
290
     0
  0
SCALE
  5
4B
102
{ACAD_REACTORS
330
47
102
}
330
47
100
AcDbScale
 70
     0
300
1:5
140
1.0
141
5.0
290
     0
  0
SCALE
  5
4C
102
{ACAD_REACTORS
330
47
102
}
330
47
100
AcDbScale
 70
     0
300
1:8
140
1.0
141
8.0
290
     0
  0
SCALE
  5
4D
102
{ACAD_REACTORS
330
47
102
}
330
47
100
AcDbScale
 70
     0
300
1:10
140
1.0
141
10.0
290
     0
  0
SCALE
  5
4E
102
{ACAD_REACTORS
330
47
102
}
330
47
100
AcDbScale
 70
     0
300
1:16
140
1.0
141
16.0
290
     0
  0
SCALE
  5
4F
102
{ACAD_REACTORS
330
47
102
}
330
47
100
AcDbScale
 70
     0
300
1:20
140
1.0
141
20.0
290
     0
  0
SCALE
  5
50
102
{ACAD_REACTORS
330
47
102
}
330
47
100
AcDbScale
 70
     0
300
1:30
140
1.0
141
30.0
290
     0
  0
SCALE
  5
51
102
{ACAD_REACTORS
330
47
102
}
330
47
100
AcDbScale
 70
     0
300
1:40
140
1.0
141
40.0
290
     0
  0
SCALE
  5
52
102
{ACAD_REACTORS
330
47
102
}
330
47
100
AcDbScale
 70
     0
300
1:50
140
1.0
141
50.0
290
     0
  0
SCALE
  5
53
102
{ACAD_REACTORS
330
47
102
}
330
47
100
AcDbScale
 70
     0
300
1:100
140
1.0
141
100.0
290
     0
  0
SCALE
  5
54
102
{ACAD_REACTORS
330
47
102
}
330
47
100
AcDbScale
 70
     0
300
2:1
140
2.0
141
1.0
290
     0
  0
SCALE
  5
55
102
{ACAD_REACTORS
330
47
102
}
330
47
100
AcDbScale
 70
     0
300
4:1
140
4.0
141
1.0
290
     0
  0
SCALE
  5
56
102
{ACAD_REACTORS
330
47
102
}
330
47
100
AcDbScale
 70
     0
300
8:1
140
8.0
141
1.0
290
     0
  0
SCALE
  5
57
102
{ACAD_REACTORS
330
47
102
}
330
47
100
AcDbScale
 70
     0
300
10:1
140
10.0
141
1.0
290
     0
  0
SCALE
  5
58
102
{ACAD_REACTORS
330
47
102
}
330
47
100
AcDbScale
 70
     0
300
100:1
140
100.0
141
1.0
290
     0
  0
SCALE
  5
59
102
{ACAD_REACTORS
330
47
102
}
330
47
100
AcDbScale
 70
     0
300
1/128" = 1'-0"
140
0.0078125
141
12.0
290
     0
  0
SCALE
  5
5A
102
{ACAD_REACTORS
330
47
102
}
330
47
100
AcDbScale
 70
     0
300
1/64" = 1'-0"
140
0.015625
141
12.0
290
     0
  0
SCALE
  5
5B
102
{ACAD_REACTORS
330
47
102
}
330
47
100
AcDbScale
 70
     0
300
1/32" = 1'-0"
140
0.03125
141
12.0
290
     0
  0
SCALE
  5
5C
102
{ACAD_REACTORS
330
47
102
}
330
47
100
AcDbScale
 70
     0
300
1/16" = 1'-0"
140
0.0625
141
12.0
290
     0
  0
SCALE
  5
5D
102
{ACAD_REACTORS
330
47
102
}
330
47
100
AcDbScale
 70
     0
300
3/32" = 1'-0"
140
0.09375
141
12.0
290
     0
  0
SCALE
  5
5E
102
{ACAD_REACTORS
330
47
102
}
330
47
100
AcDbScale
 70
     0
300
1/8" = 1'-0"
140
0.125
141
12.0
290
     0
  0
SCALE
  5
5F
102
{ACAD_REACTORS
330
47
102
}
330
47
100
AcDbScale
 70
     0
300
3/16" = 1'-0"
140
0.1875
141
12.0
290
     0
  0
SCALE
  5
60
102
{ACAD_REACTORS
330
47
102
}
330
47
100
AcDbScale
 70
     0
300
1/4" = 1'-0"
140
0.25
141
12.0
290
     0
  0
SCALE
  5
61
102
{ACAD_REACTORS
330
47
102
}
330
47
100
AcDbScale
 70
     0
300
3/8" = 1'-0"
140
0.375
141
12.0
290
     0
  0
SCALE
  5
62
102
{ACAD_REACTORS
330
47
102
}
330
47
100
AcDbScale
 70
     0
300
1/2" = 1'-0"
140
0.5
141
12.0
290
     0
  0
SCALE
  5
63
102
{ACAD_REACTORS
330
47
102
}
330
47
100
AcDbScale
 70
     0
300
3/4" = 1'-0"
140
0.75
141
12.0
290
     0
  0
SCALE
  5
64
102
{ACAD_REACTORS
330
47
102
}
330
47
100
AcDbScale
 70
     0
300
1" = 1'-0"
140
1.0
141
12.0
290
     0
  0
SCALE
  5
65
102
{ACAD_REACTORS
330
47
102
}
330
47
100
AcDbScale
 70
     0
300
1-1/2" = 1'-0"
140
1.5
141
12.0
290
     0
  0
SCALE
  5
66
102
{ACAD_REACTORS
330
47
102
}
330
47
100
AcDbScale
 70
     0
300
3" = 1'-0"
140
3.0
141
12.0
290
     0
  0
SCALE
  5
67
102
{ACAD_REACTORS
330
47
102
}
330
47
100
AcDbScale
 70
     0
300
6" = 1'-0"
140
6.0
141
12.0
290
     0
  0
SCALE
  5
68
102
{ACAD_REACTORS
330
47
102
}
330
47
100
AcDbScale
 70
     0
300
1'-0" = 1'-0"
140
12.0
141
12.0
290
     0
  0
ENDSEC
  0
EOF
