  0
SECTION
  2
HEADER
  9
$ACADVER
  1
AC1015
  9
$ACADMAINTVER
 70
     6
  9
$DWGCODEPAGE
  3
ANSI_949
  9
$INSBASE
 10
0.0
 20
0.0
 30
0.0
  9
$EXTMIN
 10
-237.1161345692418
 20
-49.97073246008785
 30
0.0
  9
$EXTMAX
 10
75.75649512866845
 20
43.13750000000006
 30
0.0
  9
$LIMMIN
 10
0.0
 20
0.0
  9
$LIMMAX
 10
420.0
 20
297.0
  9
$ORTHOMODE
 70
     1
  9
$REGENMODE
 70
     1
  9
$FILLMODE
 70
     1
  9
$QTEXTMODE
 70
     0
  9
$MIRRTEXT
 70
     1
  9
$LTSCALE
 40
1.0
  9
$ATTMODE
 70
     1
  9
$TEXTSIZE
 40
3.5
  9
$TRACEWID
 40
1.0
  9
$TEXTSTYLE
  7
Standard
  9
$CLAYER
  8
0
  9
$CELTYPE
  6
ByLayer
  9
$CECOLOR
 62
   256
  9
$CELTSCALE
 40
1.0
  9
$DISPSILH
 70
     0
  9
$DIMSCALE
 40
1.0
  9
$DIMASZ
 40
3.302
  9
$DIMEXO
 40
1.0
  9
$DIMDLI
 40
3.75
  9
$DIMRND
 40
0.0
  9
$DIMDLE
 40
0.0
  9
$DIMEXE
 40
1.0
  9
$DIMTP
 40
0.0
  9
$DIMTM
 40
0.0
  9
$DIMTXT
 40
3.5
  9
$DIMCEN
 40
2.5
  9
$DIMTSZ
 40
0.0
  9
$DIMTOL
 70
     0
  9
$DIMLIM
 70
     0
  9
$DIMTIH
 70
     1
  9
$DIMTOH
 70
     1
  9
$DIMSE1
 70
     0
  9
$DIMSE2
 70
     0
  9
$DIMTAD
 70
     1
  9
$DIMZIN
 70
     0
  9
$DIMBLK
  1

  9
$DIMASO
 70
     1
  9
$DIMSHO
 70
     1
  9
$DIMPOST
  1

  9
$DIMAPOST
  1

  9
$DIMALT
 70
     0
  9
$DIMALTD
 70
     3
  9
$DIMALTF
 40
0.0393700787401575
  9
$DIMLFAC
 40
1.0
  9
$DIMTOFL
 70
     1
  9
$DIMTVP
 40
0.0
  9
$DIMTIX
 70
     0
  9
$DIMSOXD
 70
     0
  9
$DIMSAH
 70
     0
  9
$DIMBLK1
  1

  9
$DIMBLK2
  1

  9
$DIMSTYLE
  2
ISO-25
  9
$DIMCLRD
 70
     0
  9
$DIMCLRE
 70
     0
  9
$DIMCLRT
 70
     0
  9
$DIMTFAC
 40
1.0
  9
$DIMGAP
 40
1.524
  9
$DIMJUST
 70
     0
  9
$DIMSD1
 70
     0
  9
$DIMSD2
 70
     0
  9
$DIMTOLJ
 70
     0
  9
$DIMTZIN
 70
     0
  9
$DIMALTZ
 70
     0
  9
$DIMALTTZ
 70
     0
  9
$DIMUPT
 70
     0
  9
$DIMDEC
 70
     2
  9
$DIMTDEC
 70
     2
  9
$DIMALTU
 70
     2
  9
$DIMALTTD
 70
     3
  9
$DIMTXSTY
  7
Standard
  9
$DIMAUNIT
 70
     0
  9
$DIMADEC
 70
     2
  9
$DIMALTRND
 40
0.0
  9
$DIMAZIN
 70
     0
  9
$DIMDSEP
 70
    44
  9
$DIMATFIT
 70
     3
  9
$DIMFRAC
 70
     0
  9
$DIMLDRBLK
  1

  9
$DIMLUNIT
 70
     2
  9
$DIMLWD
 70
    -2
  9
$DIMLWE
 70
    -2
  9
$DIMTMOVE
 70
     0
  9
$LUNITS
 70
     2
  9
$LUPREC
 70
     2
  9
$SKETCHINC
 40
1.0
  9
$FILLETRAD
 40
10.0
  9
$AUNITS
 70
     0
  9
$AUPREC
 70
     2
  9
$MENU
  1
.
  9
$ELEVATION
 40
0.0
  9
$PELEVATION
 40
0.0
  9
$THICKNESS
 40
0.0
  9
$LIMCHECK
 70
     0
  9
$CHAMFERA
 40
0.0
  9
$CHAMFERB
 40
0.0
  9
$CHAMFERC
 40
0.0
  9
$CHAMFERD
 40
0.0
  9
$SKPOLY
 70
     0
  9
$TDCREATE
 40
2458316.583877743
  9
$TDUCREATE
 40
2458316.208877743
  9
$TDUPDATE
 40
2458320.740357396
  9
$TDUUPDATE
 40
2458320.365357396
  9
$TDINDWG
 40
0.0043063657
  9
$TDUSRTIMER
 40
2458320.365314132
  9
$USRTIMER
 70
     1
  9
$ANGBASE
 50
0.0
  9
$ANGDIR
 70
     0
  9
$PDMODE
 70
     0
  9
$PDSIZE
 40
-1.0
  9
$PLINEWID
 40
0.0
  9
$SPLFRAME
 70
     0
  9
$SPLINETYPE
 70
     6
  9
$SPLINESEGS
 70
     8
  9
$HANDSEED
  5
3B8
  9
$SURFTAB1
 70
     6
  9
$SURFTAB2
 70
     6
  9
$SURFTYPE
 70
     6
  9
$SURFU
 70
     6
  9
$SURFV
 70
     6
  9
$UCSBASE
  2

  9
$UCSNAME
  2

  9
$UCSORG
 10
0.0
 20
0.0
 30
0.0
  9
$UCSXDIR
 10
1.0
 20
0.0
 30
0.0
  9
$UCSYDIR
 10
0.0
 20
1.0
 30
0.0
  9
$UCSORTHOREF
  2

  9
$UCSORTHOVIEW
 70
     0
  9
$UCSORGTOP
 10
0.0
 20
0.0
 30
0.0
  9
$UCSORGBOTTOM
 10
0.0
 20
0.0
 30
0.0
  9
$UCSORGLEFT
 10
0.0
 20
0.0
 30
0.0
  9
$UCSORGRIGHT
 10
0.0
 20
0.0
 30
0.0
  9
$UCSORGFRONT
 10
0.0
 20
0.0
 30
0.0
  9
$UCSORGBACK
 10
0.0
 20
0.0
 30
0.0
  9
$PUCSBASE
  2

  9
$PUCSNAME
  2

  9
$PUCSORG
 10
0.0
 20
0.0
 30
0.0
  9
$PUCSXDIR
 10
1.0
 20
0.0
 30
0.0
  9
$PUCSYDIR
 10
0.0
 20
1.0
 30
0.0
  9
$PUCSORTHOREF
  2

  9
$PUCSORTHOVIEW
 70
     0
  9
$PUCSORGTOP
 10
0.0
 20
0.0
 30
0.0
  9
$PUCSORGBOTTOM
 10
0.0
 20
0.0
 30
0.0
  9
$PUCSORGLEFT
 10
0.0
 20
0.0
 30
0.0
  9
$PUCSORGRIGHT
 10
0.0
 20
0.0
 30
0.0
  9
$PUCSORGFRONT
 10
0.0
 20
0.0
 30
0.0
  9
$PUCSORGBACK
 10
0.0
 20
0.0
 30
0.0
  9
$USERI1
 70
     0
  9
$USERI2
 70
     0
  9
$USERI3
 70
     0
  9
$USERI4
 70
     0
  9
$USERI5
 70
     0
  9
$USERR1
 40
0.0
  9
$USERR2
 40
0.0
  9
$USERR3
 40
0.0
  9
$USERR4
 40
0.0
  9
$USERR5
 40
0.0
  9
$WORLDVIEW
 70
     1
  9
$SHADEDGE
 70
     3
  9
$SHADEDIF
 70
    70
  9
$TILEMODE
 70
     1
  9
$MAXACTVP
 70
    64
  9
$PINSBASE
 10
0.0
 20
0.0
 30
0.0
  9
$PLIMCHECK
 70
     0
  9
$PEXTMIN
 10
1.000000000000000E+20
 20
1.000000000000000E+20
 30
1.000000000000000E+20
  9
$PEXTMAX
 10
-1.000000000000000E+20
 20
-1.000000000000000E+20
 30
-1.000000000000000E+20
  9
$PLIMMIN
 10
0.0
 20
0.0
  9
$PLIMMAX
 10
0.0
 20
0.0
  9
$UNITMODE
 70
     0
  9
$VISRETAIN
 70
     1
  9
$PLINEGEN
 70
     0
  9
$PSLTSCALE
 70
     1
  9
$TREEDEPTH
 70
  3020
  9
$CMLSTYLE
  2
Standard
  9
$CMLJUST
 70
     0
  9
$CMLSCALE
 40
20.0
  9
$PROXYGRAPHICS
 70
     1
  9
$MEASUREMENT
 70
     1
  9
$CELWEIGHT
370
    -1
  9
$ENDCAPS
280
     0
  9
$JOINSTYLE
280
     0
  9
$LWDISPLAY
290
     1
  9
$INSUNITS
 70
     4
  9
$HYPERLINKBASE
  1

  9
$STYLESHEET
  1

  9
$XEDIT
290
     1
  9
$CEPSNTYPE
380
     0
  9
$PSTYLEMODE
290
     1
  9
$FINGERPRINTGUID
  2
{1DC0302C-29B3-418B-A2BD-3456DFDE0CA3}
  9
$VERSIONGUID
  2
{FAEB1C32-E019-11D5-929B-00C0DF256EC4}
  9
$EXTNAMES
290
     1
  9
$PSVPSCALE
 40
0.0
  9
$OLESTARTUP
290
     0
  0
ENDSEC
  0
SECTION
  2
CLASSES
  0
CLASS
  1
ACDBDICTIONARYWDFLT
  2
AcDbDictionaryWithDefault
  3
ObjectDBX Classes
 90
        0
280
     0
281
     0
  0
CLASS
  1
VISUALSTYLE
  2
AcDbVisualStyle
  3
ObjectDBX Classes
 90
     4095
280
     0
281
     0
  0
CLASS
  1
MATERIAL
  2
AcDbMaterial
  3
ObjectDBX Classes
 90
     1153
280
     0
281
     0
  0
CLASS
  1
SCALE
  2
AcDbScale
  3
ObjectDBX Classes
 90
     1153
280
     0
281
     0
  0
CLASS
  1
SUN
  2
AcDbSun
  3
SCENEOE
 90
     1153
280
     0
281
     0
  0
CLASS
  1
ACDBPLACEHOLDER
  2
AcDbPlaceHolder
  3
ObjectDBX Classes
 90
        0
280
     0
281
     0
  0
CLASS
  1
LAYOUT
  2
AcDbLayout
  3
ObjectDBX Classes
 90
        0
280
     0
281
     0
  0
CLASS
  1
TABLESTYLE
  2
AcDbTableStyle
  3
ObjectDBX Classes
 90
     4095
280
     0
281
     0
  0
CLASS
  1
MLEADERSTYLE
  2
AcDbMLeaderStyle
  3
ACDB_MLEADERSTYLE_CLASS
 90
     4095
280
     0
281
     0
  0
CLASS
  1
RASTERVARIABLES
  2
AcDbRasterVariables
  3
ISM
 90
        0
280
     0
281
     0
  0
ENDSEC
  0
SECTION
  2
TABLES
  0
TABLE
  2
VPORT
  5
8
330
0
100
AcDbSymbolTable
 70
     1
  0
VPORT
  5
29
330
8
100
AcDbSymbolTableRecord
100
AcDbViewportTableRecord
  2
*Active
 70
     0
 10
0.0
 20
0.0
 11
1.0
 21
1.0
 12
13.92201068061679
 22
11.89987124297777
 13
0.0
 23
0.0
 14
10.0
 24
10.0
 15
10.0
 25
10.0
 16
0.0
 26
0.0
 36
1.0
 17
0.0
 27
0.0
 37
0.0
 40
179.5394435231394
 41
1.358943577430972
 42
50.0
 43
0.0
 44
0.0
 50
0.0
 51
0.0
 71
    16
 72
  2000
 73
     1
 74
     3
 75
     0
 76
     0
 77
     0
 78
     0
281
     0
 65
     1
110
0.0
120
0.0
130
0.0
111
1.0
121
0.0
131
0.0
112
0.0
122
1.0
132
0.0
 79
     0
146
0.0
  0
ENDTAB
  0
TABLE
  2
LTYPE
  5
5
330
0
100
AcDbSymbolTable
 70
     6
  0
LTYPE
  5
14
330
5
100
AcDbSymbolTableRecord
100
AcDbLinetypeTableRecord
  2
ByBlock
 70
     0
  3

 72
    65
 73
     0
 40
0.0
  0
LTYPE
  5
15
330
5
100
AcDbSymbolTableRecord
100
AcDbLinetypeTableRecord
  2
ByLayer
 70
     0
  3

 72
    65
 73
     0
 40
0.0
  0
LTYPE
  5
16
330
5
100
AcDbSymbolTableRecord
100
AcDbLinetypeTableRecord
  2
Continuous
 70
     0
  3
Solid line
 72
    65
 73
     0
 40
0.0
  0
LTYPE
  5
6A
330
5
100
AcDbSymbolTableRecord
100
AcDbLinetypeTableRecord
  2
HIDDEN
 70
     0
  3
Hidden __ __ __ __ __ __ __ __ __ __ __ __ __ __
 72
    65
 73
     2
 40
1.905
 49
1.27
 74
     0
 49
-0.635
 74
     0
  0
LTYPE
  5
6B
330
5
100
AcDbSymbolTableRecord
100
AcDbLinetypeTableRecord
  2
PHANTOM
 70
     0
  3
Phantom ______  __  __  ______  __  __  ______
 72
    65
 73
     6
 40
12.7
 49
6.35
 74
     0
 49
-1.27
 74
     0
 49
1.27
 74
     0
 49
-1.27
 74
     0
 49
1.27
 74
     0
 49
-1.27
 74
     0
  0
LTYPE
  5
6C
330
5
100
AcDbSymbolTableRecord
100
AcDbLinetypeTableRecord
  2
CENTER
 70
     0
  3
Center ____ _ ____ _ ____ _ ____ _ ____ _ ____
 72
    65
 73
     4
 40
10.16
 49
6.35
 74
     0
 49
-1.27
 74
     0
 49
1.27
 74
     0
 49
-1.27
 74
     0
  0
LTYPE
  5
6D
330
5
100
AcDbSymbolTableRecord
100
AcDbLinetypeTableRecord
  2
CENTERX2
 70
     0
  3
Center (2x) ________  __  ________  __  _____
 72
    65
 73
     4
 40
20.32
 49
12.7
 74
     0
 49
-2.54
 74
     0
 49
2.54
 74
     0
 49
-2.54
 74
     0
  0
LTYPE
  5
6E
330
5
100
AcDbSymbolTableRecord
100
AcDbLinetypeTableRecord
  2
DOT2
 70
     0
  3
Dot (.5x) ........................................
 72
    65
 73
     2
 40
0.635
 49
0.0
 74
     0
 49
-0.635
 74
     0
  0
ENDTAB
  0
TABLE
  2
LAYER
  5
2
102
{ACAD_XDICTIONARY
360
1B2
102
}
330
0
100
AcDbSymbolTable
 70
    18
  0
LAYER
  5
10
330
2
100
AcDbSymbolTableRecord
100
AcDbLayerTableRecord
  2
0
 70
     0
 62
     7
  6
Continuous
370
    -3
390
F
  0
LAYER
  5
6F
330
2
100
AcDbSymbolTableRecord
100
AcDbLayerTableRecord
  2
FORMAT
 70
     0
 62
     2
  6
Continuous
370
    -3
390
F
  0
LAYER
  5
70
330
2
100
AcDbSymbolTableRecord
100
AcDbLayerTableRecord
  2
외형선
 70
     0
 62
     4
  6
Continuous
370
    30
390
F
  0
LAYER
  5
71
330
2
100
AcDbSymbolTableRecord
100
AcDbLayerTableRecord
  2
숨은선
 70
     0
 62
     2
  6
HIDDEN
370
    15
390
F
  0
LAYER
  5
72
330
2
100
AcDbSymbolTableRecord
100
AcDbLayerTableRecord
  2
중심선
 70
     0
 62
     1
  6
CENTERX2
370
    -3
390
F
  0
LAYER
  5
73
330
2
100
AcDbSymbolTableRecord
100
AcDbLayerTableRecord
  2
파단선
 70
     0
 62
     4
  6
Continuous
370
    -3
390
F
  0
LAYER
  5
74
330
2
100
AcDbSymbolTableRecord
100
AcDbLayerTableRecord
  2
해칭선
 70
     0
 62
   100
  6
Continuous
370
    -3
390
F
  0
LAYER
  5
75
330
2
100
AcDbSymbolTableRecord
100
AcDbLayerTableRecord
  2
가는실선
 70
     0
 62
     4
  6
Continuous
370
    -3
390
F
  0
LAYER
  5
76
330
2
100
AcDbSymbolTableRecord
100
AcDbLayerTableRecord
  2
치수_보조선
 70
     0
 62
     4
  6
Continuous
370
    -3
390
F
  0
LAYER
  5
77
330
2
100
AcDbSymbolTableRecord
100
AcDbLayerTableRecord
  2
치수문자_일반주서
 70
     0
 62
     7
  6
Continuous
370
    15
390
F
  0
LAYER
  5
78
330
2
100
AcDbSymbolTableRecord
100
AcDbLayerTableRecord
  2
개별주서
 70
     0
 62
   100
  6
Continuous
370
    30
390
F
  0
LAYER
  5
79
330
2
100
AcDbSymbolTableRecord
100
AcDbLayerTableRecord
  2
중간선
 70
     0
 62
     2
  6
Continuous
370
    15
390
F
  0
LAYER
  5
7A
330
2
100
AcDbSymbolTableRecord
100
AcDbLayerTableRecord
  2
윤곽선
 70
     0
 62
     3
  6
Continuous
370
    40
390
F
  0
LAYER
  5
7B
330
2
100
AcDbSymbolTableRecord
100
AcDbLayerTableRecord
  2
중심마크
 70
     0
 62
   100
  6
Continuous
370
    30
390
F
  0
LAYER
  5
7C
330
2
100
AcDbSymbolTableRecord
100
AcDbLayerTableRecord
  2
가상선
 70
     0
 62
     4
  6
PHANTOM
370
    -3
390
F
  0
LAYER
  5
7D
330
2
100
AcDbSymbolTableRecord
100
AcDbLayerTableRecord
  2
특수지정선
 70
     0
 62
     5
  6
CENTERX2
370
    60
390
F
  0
LAYER
  5
7E
330
2
100
AcDbSymbolTableRecord
100
AcDbLayerTableRecord
  2
참조1
 70
     0
 62
    -4
  6
Continuous
370
    -3
390
F
  0
LAYER
  5
130
330
2
100
AcDbSymbolTableRecord
100
AcDbLayerTableRecord
  2
Defpoints
 70
     0
 62
     7
  6
Continuous
290
     0
370
    -3
390
F
  0
ENDTAB
  0
TABLE
  2
STYLE
  5
3
330
0
100
AcDbSymbolTable
 70
     2
  0
STYLE
  5
11
330
3
100
AcDbSymbolTableRecord
100
AcDbTextStyleTableRecord
  2
Standard
 70
     0
 40
0.0
 41
1.0
 50
0.0
 71
     0
 42
3.5
  3
txt
  4

  0
STYLE
  5
94
330
3
100
AcDbSymbolTableRecord
100
AcDbTextStyleTableRecord
  2
SLDTEXTSTYLE0
 70
     0
 40
0.0
 41
0.75
 50
0.0
 71
     0
 42
3.5
  3
TXT
  4

  0
ENDTAB
  0
TABLE
  2
VIEW
  5
6
330
0
100
AcDbSymbolTable
 70
     0
  0
ENDTAB
  0
TABLE
  2
UCS
  5
7
330
0
100
AcDbSymbolTable
 70
     0
  0
ENDTAB
  0
TABLE
  2
APPID
  5
9
330
0
100
AcDbSymbolTable
 70
     1
  0
APPID
  5
12
330
9
100
AcDbSymbolTableRecord
100
AcDbRegAppTableRecord
  2
ACAD
 70
     0
  0
ENDTAB
  0
TABLE
  2
DIMSTYLE
  5
A
330
0
100
AcDbSymbolTable
 70
     3
100
AcDbDimStyleTable
  0
DIMSTYLE
105
27
330
A
100
AcDbSymbolTableRecord
100
AcDbDimStyleTableRecord
  2
ISO-25
 70
     0
 41
2.5
 42
0.625
 43
3.75
 44
1.25
 73
     0
 74
     0
 77
     1
 78
     8
140
2.5
141
2.5
143
0.03937007874016
147
0.625
171
     3
172
     1
178
     0
271
     2
272
     2
274
     3
278
    44
283
     0
284
     8
340
11
  0
DIMSTYLE
105
B1
330
A
100
AcDbSymbolTableRecord
100
AcDbDimStyleTableRecord
  2
SLDDIMSTYLE0
 70
     0
 41
3.302
 44
0.0
 45
0.000000001
 73
     0
 74
     0
 77
     1
 78
    12
 79
     3
140
3.5
143
0.0393700787401575
147
0.875
148
0.000000001
170
     1
173
     1
178
     0
271
     2
272
     2
276
     2
284
    12
340
94
  0
DIMSTYLE
105
139
102
{ACAD_REACTORS
330
1EA
330
1EB
330
B0
330
EA
330
33C
330
33D
330
33F
102
}
330
A
100
AcDbSymbolTableRecord
100
AcDbDimStyleTableRecord
  2
SLDDIMSTYLE1
 70
     0
 41
3.302
 44
0.0
 45
0.000000001
 73
     0
 74
     0
 77
     1
 78
     4
 79
     1
140
3.5
143
0.0393700787401575
147
0.875
148
0.000000001
170
     1
172
     1
173
     1
178
     0
271
     2
272
     2
276
     2
284
    12
289
     0
340
94
  0
ENDTAB
  0
TABLE
  2
BLOCK_RECORD
  5
1
330
0
100
AcDbSymbolTable
 70
    23
  0
BLOCK_RECORD
  5
1F
330
1
100
AcDbSymbolTableRecord
100
AcDbBlockTableRecord
  2
*Model_Space
340
22
  0
BLOCK_RECORD
  5
1B
330
1
100
AcDbSymbolTableRecord
100
AcDbBlockTableRecord
  2
*Paper_Space
340
1E
  0
BLOCK_RECORD
  5
23
330
1
100
AcDbSymbolTableRecord
100
AcDbBlockTableRecord
  2
*Paper_Space0
340
26
  0
BLOCK_RECORD
  5
7F
330
1
100
AcDbSymbolTableRecord
100
AcDbBlockTableRecord
  2
블럭10
340
0
102
{BLKREFS
331
A9
102
}
  0
BLOCK_RECORD
  5
B2
330
1
100
AcDbSymbolTableRecord
100
AcDbBlockTableRecord
  2
_D
340
0
  0
BLOCK_RECORD
  5
C6
330
1
100
AcDbSymbolTableRecord
100
AcDbBlockTableRecord
  2
_D_1
340
0
  0
BLOCK_RECORD
  5
D9
330
1
100
AcDbSymbolTableRecord
100
AcDbBlockTableRecord
  2
_D_2
340
0
  0
BLOCK_RECORD
  5
EB
330
1
100
AcDbSymbolTableRecord
100
AcDbBlockTableRecord
  2
_D_3
340
0
  0
BLOCK_RECORD
  5
104
330
1
100
AcDbSymbolTableRecord
100
AcDbBlockTableRecord
  2
SW_DOWELSYMBOL_0
340
0
102
{BLKREFS
331
1EC
331
340
102
}
  0
BLOCK_RECORD
  5
18D
330
1
100
AcDbSymbolTableRecord
100
AcDbBlockTableRecord
  2
*D7
340
0
  0
BLOCK_RECORD
  5
19A
330
1
100
AcDbSymbolTableRecord
100
AcDbBlockTableRecord
  2
*D8
340
0
  0
BLOCK_RECORD
  5
1B6
330
1
100
AcDbSymbolTableRecord
100
AcDbBlockTableRecord
  2
*D9
340
0
  0
BLOCK_RECORD
  5
1C2
330
1
100
AcDbSymbolTableRecord
100
AcDbBlockTableRecord
  2
*D10
340
0
  0
BLOCK_RECORD
  5
1F2
330
1
100
AcDbSymbolTableRecord
100
AcDbBlockTableRecord
  2
*D11
340
0
  0
BLOCK_RECORD
  5
1FE
330
1
100
AcDbSymbolTableRecord
100
AcDbBlockTableRecord
  2
*D12
340
0
  0
BLOCK_RECORD
  5
20D
330
1
100
AcDbSymbolTableRecord
100
AcDbBlockTableRecord
  2
*D13
340
0
  0
BLOCK_RECORD
  5
219
330
1
100
AcDbSymbolTableRecord
100
AcDbBlockTableRecord
  2
*D14
340
0
  0
BLOCK_RECORD
  5
2E2
330
1
100
AcDbSymbolTableRecord
100
AcDbBlockTableRecord
  2
*D15
340
0
  0
BLOCK_RECORD
  5
2F1
330
1
100
AcDbSymbolTableRecord
100
AcDbBlockTableRecord
  2
*D16
340
0
  0
BLOCK_RECORD
  5
2FD
330
1
100
AcDbSymbolTableRecord
100
AcDbBlockTableRecord
  2
*D17
340
0
  0
BLOCK_RECORD
  5
309
330
1
100
AcDbSymbolTableRecord
100
AcDbBlockTableRecord
  2
*D18
340
0
  0
BLOCK_RECORD
  5
345
330
1
100
AcDbSymbolTableRecord
100
AcDbBlockTableRecord
  2
*D19
340
0
  0
BLOCK_RECORD
  5
354
330
1
100
AcDbSymbolTableRecord
100
AcDbBlockTableRecord
  2
*D20
340
0
  0
BLOCK_RECORD
  5
360
330
1
100
AcDbSymbolTableRecord
100
AcDbBlockTableRecord
  2
*D21
340
0
  0
BLOCK_RECORD
  5
36C
330
1
100
AcDbSymbolTableRecord
100
AcDbBlockTableRecord
  2
*D22
340
0
  0
ENDTAB
  0
ENDSEC
  0
SECTION
  2
BLOCKS
  0
BLOCK
  5
20
330
1F
100
AcDbEntity
  8
0
100
AcDbBlockBegin
  2
*Model_Space
 70
     0
 10
0.0
 20
0.0
 30
0.0
  3
*Model_Space
  1
*Model_Space
  0
ENDBLK
  5
21
330
1F
100
AcDbEntity
  8
0
100
AcDbBlockEnd
  0
BLOCK
  5
1C
330
1B
100
AcDbEntity
 67
     1
  8
0
100
AcDbBlockBegin
  2
*Paper_Space
 70
     0
 10
0.0
 20
0.0
 30
0.0
  3
*Paper_Space
  1
*Paper_Space
  0
ENDBLK
  5
1D
330
1B
100
AcDbEntity
 67
     1
  8
0
100
AcDbBlockEnd
  0
BLOCK
  5
24
330
23
100
AcDbEntity
  8
0
100
AcDbBlockBegin
  2
*Paper_Space0
 70
     0
 10
0.0
 20
0.0
 30
0.0
  3
*Paper_Space0
  1
*Paper_Space0
  0
ENDBLK
  5
25
330
23
100
AcDbEntity
  8
0
100
AcDbBlockEnd
  0
BLOCK
  5
80
330
7F
100
AcDbEntity
  8
0
100
AcDbBlockBegin
  2
블럭10
 70
     2
 10
0.0
 20
0.0
 30
0.0
  3
블럭10
  1
블럭10
  0
ELLIPSE
  5
82
330
7F
100
AcDbEntity
  8
중심선
100
AcDbEllipse
 10
20.54032771741204
 20
12.0471743016438
 30
0.0
 11
6.600054785286829
 21
-1.261213355974178E-13
 31
0.0
210
0.0
220
0.0
230
1.0
 40
0.636358354079598
 41
0.9219305317359503
 42
6.513795318482858
  0
ELLIPSE
  5
83
330
7F
100
AcDbEntity
  8
중심선
100
AcDbEllipse
 10
20.54032771746488
 20
12.04717430159265
 30
0.0
 11
3.960054785062283
 21
1.540847449632565E-10
 31
0.0
210
0.0
220
0.0
230
1.0
 40
0.3939339440162632
 41
1.131841032648279
 42
5.62031148352944
  0
LINE
  5
84
330
7F
100
AcDbEntity
  8
중심선
100
AcDbLine
 10
2.268634060543552
 20
16.24717430164393
 30
0.0
 11
5.714909304380834
 21
16.24717430164393
 31
0.0
  0
LINE
  5
85
330
7F
100
AcDbEntity
  8
중심선
100
AcDbLine
 10
5.245725140726316
 20
7.84717430164391
 30
0.0
 11
8.692000384563599
 21
7.84717430164391
 31
0.0
  0
LINE
  5
86
330
7F
100
AcDbEntity
  8
중심선
100
AcDbLine
 10
15.74043728645272
 20
16.24717430164393
 30
0.0
 11
8.692000384563599
 21
7.84717430164391
 31
0.0
  0
LINE
  5
87
330
7F
100
AcDbEntity
  8
중심선
100
AcDbLine
 10
0.1404042013395286
 20
13.71084872107135
 30
0.0
 11
3.58671253028996
 21
13.71088815037384
 31
0.0
  0
LINE
  5
88
330
7F
100
AcDbEntity
  8
중심선
100
AcDbLine
 10
2.750260043222114
 20
10.84717430164391
 30
0.0
 11
6.196535287059397
 21
10.84717430164391
 31
0.0
  0
LINE
  5
89
330
7F
100
AcDbEntity
  8
중심선
100
AcDbLine
 10
12.29416204261559
 20
16.24717430164393
 30
0.0
 11
5.245725140726316
 21
7.84717430164391
 31
0.0
  0
LINE
  5
8A
330
7F
100
AcDbEntity
  8
중심선
100
AcDbLine
 10
10.72767329541681
 20
16.24717430164393
 30
0.0
 11
6.196535287059397
 21
10.84717430164391
 31
0.0
  0
LINE
  5
8B
330
7F
100
AcDbEntity
  8
중심선
100
AcDbLine
 10
7.28139805157953
 20
16.24717430164393
 30
0.0
 11
2.750260043222114
 21
10.84717430164391
 31
0.0
  0
LINE
  5
8C
330
7F
100
AcDbEntity
  8
중심선
100
AcDbLine
 10
5.714909304380834
 20
16.24717430164393
 30
0.0
 11
3.58671253028996
 21
13.71088815037384
 31
0.0
  0
LINE
  5
8D
330
7F
100
AcDbEntity
  8
중심선
100
AcDbLine
 10
2.268634060543552
 20
16.24717430164393
 30
0.0
 11
0.1404042013395286
 21
13.71084872107135
 31
0.0
  0
LINE
  5
8E
330
7F
100
AcDbEntity
  8
중심선
100
AcDbLine
 10
7.28139805157953
 20
16.24717430164393
 30
0.0
 11
10.72767329541681
 21
16.24717430164393
 31
0.0
  0
LINE
  5
8F
330
7F
100
AcDbEntity
  8
중심선
100
AcDbLine
 10
12.29416204261559
 20
16.24717430164393
 30
0.0
 11
15.74043728645272
 21
16.24717430164393
 31
0.0
  0
LINE
  5
90
330
7F
100
AcDbEntity
  8
중심선
100
AcDbLine
 10
19.22036997980202
 20
11.08717430171403
 30
0.0
 11
23.66174974927406
 21
11.08717430171406
 31
0.0
  0
LINE
  5
91
330
7F
100
AcDbEntity
  8
중심선
100
AcDbLine
 10
19.22039502424796
 20
13.00717430171391
 30
0.0
 11
19.22036997980202
 21
11.08717430171403
 31
0.0
  0
LINE
  5
92
330
7F
100
AcDbEntity
  8
중심선
100
AcDbLine
 10
19.22039502424796
 20
13.00717430171391
 30
0.0
 11
26.96566020931264
 21
13.00717430171391
 31
0.0
  0
LINE
  5
93
330
7F
100
AcDbEntity
  8
중심선
100
AcDbLine
 10
22.22332737316547
 20
13.45928029700563
 30
0.0
 11
24.52862924686651
 21
15.39360700705356
 31
0.0
  0
ATTDEF
  5
95
330
7F
100
AcDbEntity
  8
FORMAT
 62
     2
100
AcDbText
 10
4.408487351596664
 20
2.075366912832191
 30
0.0
 40
4.233333333333333
  1
E1110901
 41
0.75
  7
SLDTEXTSTYLE0
 11
4.408487351596664
 21
-0.0412997538344756
 31
0.0
100
AcDbAttributeDefinition
  3

  2
AUTOATTR0
 70
     0
 74
     1
  0
ENDBLK
  5
81
330
7F
100
AcDbEntity
  8
0
100
AcDbBlockEnd
  0
BLOCK
  5
B3
330
B2
100
AcDbEntity
  8
0
100
AcDbBlockBegin
  2
_D
 70
     0
 10
0.0
 20
0.0
 30
0.0
  3
_D
  1
_D
  0
LINE
  5
B5
330
B2
100
AcDbEntity
  8
치수문자_일반주서
 62
     0
370
    -2
100
AcDbLine
 10
-154.7411345692418
 20
7.999999999999991
 30
0.0
 11
-154.7411345692418
 21
19.8255997794164
 31
0.0
  0
LINE
  5
B6
330
B2
100
AcDbEntity
  8
치수문자_일반주서
 62
     0
370
    -2
100
AcDbLine
 10
-183.3161345692418
 20
7.999999999293367
 30
0.0
 11
-183.3161345692418
 21
19.8255997794164
 31
0.0
  0
LINE
  5
B7
330
B2
100
AcDbEntity
  8
치수문자_일반주서
 62
     0
370
    -2
100
AcDbLine
 10
-183.3161345692418
 20
19.8255997794164
 30
0.0
 11
-219.6701345692418
 21
19.8255997794164
 31
0.0
  0
LINE
  5
B8
330
B2
100
AcDbEntity
  8
치수문자_일반주서
 62
     0
370
    -2
100
AcDbLine
 10
-154.7411345692418
 20
19.8255997794164
 30
0.0
 11
-183.3161345692418
 21
19.8255997794164
 31
0.0
  0
LINE
  5
B9
330
B2
100
AcDbEntity
  8
치수문자_일반주서
 62
     0
370
    -2
100
AcDbLine
 10
-151.4391345692418
 20
19.8255997794164
 30
0.0
 11
-148.1371345692418
 21
19.8255997794164
 31
0.0
  0
LINE
  5
BA
330
B2
100
AcDbEntity
  8
치수문자_일반주서
 62
     0
370
    -2
100
AcDbLine
 10
-186.6181345692418
 20
19.8255997794164
 30
0.0
 11
-189.9201345692418
 21
19.8255997794164
 31
0.0
  0
SOLID
  5
BB
330
B2
100
AcDbEntity
  8
치수문자_일반주서
 62
     0
100
AcDbTrace
 10
-151.4391345692418
 20
20.37593311274973
 30
0.0
 11
-151.4391345692418
 21
19.27526644608307
 31
0.0
 12
-154.7411345692418
 22
19.8255997794164
 32
0.0
 13
-154.7411345692418
 23
19.8255997794164
 33
0.0
  0
SOLID
  5
BC
330
B2
100
AcDbEntity
  8
치수문자_일반주서
 62
     0
100
AcDbTrace
 10
-186.6181345692418
 20
19.27526644608307
 30
0.0
 11
-186.6181345692418
 21
20.37593311274973
 31
0.0
 12
-183.3161345692418
 22
19.8255997794164
 32
0.0
 13
-183.3161345692418
 23
19.8255997794164
 33
0.0
  0
MTEXT
  5
BD
330
B2
100
AcDbEntity
  8
치수문자_일반주서
 62
     0
100
AcDbMText
 10
-204.7951345692418
 20
24.2005997794164
 30
0.0
 40
3.5
 41
0.0
 71
     2
 72
     1
  1
\A1;28.58 [1 1/8]
  7
SLDTEXTSTYLE0
 73
     1
 44
1.0
  0
POINT
  5
BE
330
B2
100
AcDbEntity
  8
Defpoints
 62
     0
100
AcDbPoint
 10
-154.7411345692418
 20
7.937499999999991
 30
0.0
  0
POINT
  5
225
330
B2
100
AcDbEntity
  8
Defpoints
 62
     0
100
AcDbPoint
 10
-183.3161345692418
 20
7.937499999293367
 30
0.0
  0
POINT
  5
226
330
B2
100
AcDbEntity
  8
Defpoints
 62
     0
100
AcDbPoint
 10
-183.3161345692418
 20
19.8255997794164
 30
0.0
  0
ENDBLK
  5
B4
330
B2
100
AcDbEntity
  8
0
100
AcDbBlockEnd
  0
BLOCK
  5
C7
330
C6
100
AcDbEntity
  8
0
100
AcDbBlockBegin
  2
_D_1
 70
     0
 10
0.0
 20
0.0
 30
0.0
  3
_D_1
  1
_D_1
  0
LINE
  5
C9
330
C6
100
AcDbEntity
  8
치수문자_일반주서
 62
     0
370
    -2
100
AcDbLine
 10
78.34926131403117
 20
4.337226723198786
 30
0.0
 11
78.34926131403117
 21
38.76357492872395
 31
0.0
  0
LINE
  5
CA
330
C6
100
AcDbEntity
  8
치수문자_일반주서
 62
     0
370
    -2
100
AcDbLine
 10
-48.65073868596884
 20
14.93857492872389
 30
0.0
 11
-48.65073868596884
 21
38.76357492872395
 31
0.0
  0
LINE
  5
CB
330
C6
100
AcDbEntity
  8
치수문자_일반주서
 62
     0
370
    -2
100
AcDbLine
 10
75.04726131403116
 20
38.76357492872395
 30
0.0
 11
-45.34873868596884
 21
38.76357492872395
 31
0.0
  0
SOLID
  5
CC
330
C6
100
AcDbEntity
  8
치수문자_일반주서
 62
     0
100
AcDbTrace
 10
75.04726131403116
 20
38.21324159539062
 30
0.0
 11
75.04726131403116
 21
39.31390826205729
 31
0.0
 12
78.34926131403117
 22
38.76357492872395
 32
0.0
 13
78.34926131403117
 23
38.76357492872395
 33
0.0
  0
SOLID
  5
CD
330
C6
100
AcDbEntity
  8
치수문자_일반주서
 62
     0
100
AcDbTrace
 10
-45.34873868596884
 20
39.31390826205729
 30
0.0
 11
-45.34873868596884
 21
38.21324159539062
 31
0.0
 12
-48.65073868596884
 22
38.76357492872395
 32
0.0
 13
-48.65073868596884
 23
38.76357492872395
 33
0.0
  0
MTEXT
  5
CE
330
C6
100
AcDbEntity
  8
치수문자_일반주서
 62
     0
100
AcDbMText
 10
14.84926131403116
 20
43.13857492872395
 30
0.0
 40
3.5
 41
0.0
 71
     2
 72
     1
  1
\A1;127.00 [5]
  7
SLDTEXTSTYLE0
 73
     1
 44
1.0
  0
POINT
  5
CF
330
C6
100
AcDbEntity
  8
Defpoints
 62
     0
100
AcDbPoint
 10
78.34926131403117
 20
4.274726723198786
 30
0.0
  0
POINT
  5
D0
330
C6
100
AcDbEntity
  8
Defpoints
 62
     0
100
AcDbPoint
 10
-48.65073868596884
 20
14.87607492872389
 30
0.0
  0
POINT
  5
D1
330
C6
100
AcDbEntity
  8
Defpoints
 62
     0
100
AcDbPoint
 10
-48.65073868596884
 20
38.76357492872395
 30
0.0
  0
ENDBLK
  5
C8
330
C6
100
AcDbEntity
  8
0
100
AcDbBlockEnd
  0
BLOCK
  5
DA
330
D9
100
AcDbEntity
  8
0
100
AcDbBlockBegin
  2
_D_2
 70
     0
 10
0.0
 20
0.0
 30
0.0
  3
_D_2
  1
_D_2
  0
LINE
  5
DC
330
D9
100
AcDbEntity
  8
치수문자_일반주서
 62
     0
370
    -2
100
AcDbLine
 10
-47.71323868596883
 20
15.8760749287239
 30
0.0
 11
-61.1507386859689
 21
15.87607492872385
 31
0.0
  0
LINE
  5
DD
330
D9
100
AcDbEntity
  8
치수문자_일반주서
 62
     0
370
    -2
100
AcDbLine
 10
-47.71323868596883
 20
-15.8739250712761
 30
0.0
 11
-61.15073868596879
 21
-15.87392507127615
 31
0.0
  0
LINE
  5
DE
330
D9
100
AcDbEntity
  8
치수문자_일반주서
 62
     0
370
    -2
100
AcDbLine
 10
-61.15073868596889
 20
12.57407492872385
 30
0.0
 11
-61.1507386859688
 21
-12.57192507127615
 31
0.0
  0
SOLID
  5
DF
330
D9
100
AcDbEntity
  8
치수문자_일반주서
 62
     0
100
AcDbTrace
 10
-60.60040535263555
 20
12.57407492872385
 30
0.0
 11
-61.70107201930222
 21
12.57407492872385
 31
0.0
 12
-61.1507386859689
 22
15.87607492872385
 32
0.0
 13
-61.1507386859689
 23
15.87607492872385
 33
0.0
  0
SOLID
  5
E0
330
D9
100
AcDbEntity
  8
치수문자_일반주서
 62
     0
100
AcDbTrace
 10
-61.70107201930214
 20
-12.57192507127615
 30
0.0
 11
-60.60040535263547
 21
-12.57192507127615
 31
0.0
 12
-61.15073868596879
 22
-15.87392507127615
 32
0.0
 13
-61.15073868596879
 23
-15.87392507127615
 33
0.0
  0
MTEXT
  5
E1
330
D9
100
AcDbEntity
  8
치수문자_일반주서
 62
     0
100
AcDbMText
 10
-65.52573868596885
 20
0.0010749287238803
 30
0.0
 40
3.5
 41
0.0
 71
     2
 72
     1
  1
\A1;%%c31.75 [1 1/4]
  7
SLDTEXTSTYLE0
 11
-3.580687802255623E-15
 21
1.0
 31
0.0
 73
     1
 44
1.0
  0
POINT
  5
E2
330
D9
100
AcDbEntity
  8
Defpoints
 62
     0
100
AcDbPoint
 10
-47.65073868596883
 20
15.8760749287239
 30
0.0
  0
POINT
  5
E3
330
D9
100
AcDbEntity
  8
Defpoints
 62
     0
100
AcDbPoint
 10
-47.65073868596883
 20
-15.8739250712761
 30
0.0
  0
POINT
  5
E4
330
D9
100
AcDbEntity
  8
Defpoints
 62
     0
100
AcDbPoint
 10
-61.15073868596879
 20
-15.87392507127615
 30
0.0
  0
ENDBLK
  5
DB
330
D9
100
AcDbEntity
  8
0
100
AcDbBlockEnd
  0
BLOCK
  5
EC
330
EB
100
AcDbEntity
  8
0
100
AcDbBlockBegin
  2
_D_3
 70
     0
 10
0.0
 20
0.0
 30
0.0
  3
_D_3
  1
_D_3
  0
LINE
  5
EE
330
EB
100
AcDbEntity
  8
치수문자_일반주서
 62
     0
370
    -2
100
AcDbLine
 10
-154.6786345692418
 20
7.937499999999991
 30
0.0
 11
-142.0911345692417
 21
7.937500000000043
 31
0.0
  0
LINE
  5
EF
330
EB
100
AcDbEntity
  8
치수문자_일반주서
 62
     0
370
    -2
100
AcDbLine
 10
-154.6786345692418
 20
-7.937500000000009
 30
0.0
 11
-142.0911345692417
 21
-7.937499999999957
 31
0.0
  0
LINE
  5
F0
330
EB
100
AcDbEntity
  8
치수문자_일반주서
 62
     0
370
    -2
100
AcDbLine
 10
-142.0911345692417
 20
7.937500000000043
 30
0.0
 11
-142.0911345692419
 21
42.54150000000005
 31
0.0
  0
LINE
  5
F1
330
EB
100
AcDbEntity
  8
치수문자_일반주서
 62
     0
370
    -2
100
AcDbLine
 10
-142.0911345692417
 20
7.937500000000043
 30
0.0
 11
-142.0911345692417
 21
-7.937499999999957
 31
0.0
  0
LINE
  5
F2
330
EB
100
AcDbEntity
  8
치수문자_일반주서
 62
     0
370
    -2
100
AcDbLine
 10
-142.0911345692417
 20
11.23950000000004
 30
0.0
 11
-142.0911345692417
 21
14.54150000000004
 31
0.0
  0
LINE
  5
F3
330
EB
100
AcDbEntity
  8
치수문자_일반주서
 62
     0
370
    -2
100
AcDbLine
 10
-142.0911345692417
 20
-11.23949999999996
 30
0.0
 11
-142.0911345692417
 21
-14.54149999999996
 31
0.0
  0
SOLID
  5
F4
330
EB
100
AcDbEntity
  8
치수문자_일반주서
 62
     0
100
AcDbTrace
 10
-142.641467902575
 20
11.23950000000004
 30
0.0
 11
-141.5408012359084
 21
11.23950000000004
 31
0.0
 12
-142.0911345692417
 22
7.937500000000043
 32
0.0
 13
-142.0911345692417
 23
7.937500000000043
 33
0.0
  0
SOLID
  5
F5
330
EB
100
AcDbEntity
  8
치수문자_일반주서
 62
     0
100
AcDbTrace
 10
-141.5408012359083
 20
-11.23949999999996
 30
0.0
 11
-142.641467902575
 21
-11.23949999999996
 31
0.0
 12
-142.0911345692417
 22
-7.937499999999957
 32
0.0
 13
-142.0911345692417
 23
-7.937499999999957
 33
0.0
  0
MTEXT
  5
F6
330
EB
100
AcDbEntity
  8
치수문자_일반주서
 62
     0
100
AcDbMText
 10
-146.4661345692418
 20
28.54150000000003
 30
0.0
 40
3.5
 41
0.0
 71
     2
 72
     1
  1
\A1;%%c15.88 [5/8]
  7
SLDTEXTSTYLE0
 11
-3.580687802255623E-15
 21
1.0
 31
0.0
 73
     1
 44
1.0
  0
POINT
  5
F7
330
EB
100
AcDbEntity
  8
Defpoints
 62
     0
100
AcDbPoint
 10
-154.7411345692418
 20
7.937499999999991
 30
0.0
  0
POINT
  5
227
330
EB
100
AcDbEntity
  8
Defpoints
 62
     0
100
AcDbPoint
 10
-154.7411345692418
 20
-7.937500000000009
 30
0.0
  0
POINT
  5
228
330
EB
100
AcDbEntity
  8
Defpoints
 62
     0
100
AcDbPoint
 10
-142.0911345692417
 20
-7.937499999999962
 30
0.0
  0
ENDBLK
  5
ED
330
EB
100
AcDbEntity
  8
0
100
AcDbBlockEnd
  0
BLOCK
  5
105
330
104
100
AcDbEntity
  8
0
100
AcDbBlockBegin
  2
SW_DOWELSYMBOL_0
 70
     0
 10
0.0
 20
0.0
 30
0.0
  3
SW_DOWELSYMBOL_0
  1
SW_DOWELSYMBOL_0
  0
CIRCLE
  5
107
330
104
100
AcDbEntity
  8
해칭선
 62
     0
100
AcDbCircle
 10
0.0
 20
0.0
 30
0.0
 40
3.000000000000003
  0
HATCH
  5
108
330
104
100
AcDbEntity
  8
0
  6
Continuous
 62
     0
370
     0
100
AcDbHatch
 10
0.0
 20
0.0
 30
0.0
210
0.0
220
0.0
230
1.0
  2
SOLID
 70
     1
 71
     0
 91
        1
 92
        0
 93
        3
 72
     2
 10
0.0
 20
0.0
 40
3.000000000000003
 50
0.0
 51
90.0
 73
     1
 72
     1
 10
0.0
 20
3.000000000000003
 11
0.0
 21
0.0
 72
     1
 10
0.0
 20
0.0
 11
3.000000000000003
 21
0.0
 97
        0
 75
     0
 76
     1
 98
        1
 10
0.0
 20
0.0
  0
HATCH
  5
109
330
104
100
AcDbEntity
  8
0
  6
Continuous
 62
     0
370
     0
100
AcDbHatch
 10
0.0
 20
0.0
 30
0.0
210
0.0
220
0.0
230
1.0
  2
SOLID
 70
     1
 71
     0
 91
        1
 92
        0
 93
        3
 72
     2
 10
0.0
 20
0.0
 40
3.000000000000003
 50
180.0
 51
270.0000000000007
 73
     1
 72
     1
 10
0.0
 20
-3.000000000000003
 11
0.0
 21
0.0
 72
     1
 10
0.0
 20
0.0
 11
-3.000000000000003
 21
0.0
 97
        0
 75
     0
 76
     1
 98
        1
 10
0.0
 20
0.0
  0
ENDBLK
  5
106
330
104
100
AcDbEntity
  8
0
100
AcDbBlockEnd
  0
BLOCK
  5
18E
330
18D
100
AcDbEntity
  8
0
100
AcDbBlockBegin
  2
*D7
 70
     1
 10
0.0
 20
0.0
 30
0.0
  3
*D7
  1
*D13
  0
LINE
  5
18F
330
18D
100
AcDbEntity
  8
치수문자_일반주서
 62
     0
370
    -2
100
AcDbLine
 10
96.25000000000006
 20
20.95399999999994
 30
0.0
 11
96.25000000000006
 21
52.51025
 31
0.0
  0
LINE
  5
190
330
18D
100
AcDbEntity
  8
치수문자_일반주서
 62
     0
370
    -2
100
AcDbLine
 10
16.87500000000006
 20
19.16024999999993
 30
0.0
 11
16.87500000000006
 21
52.51025
 31
0.0
  0
LINE
  5
191
330
18D
100
AcDbEntity
  8
치수문자_일반주서
 62
     0
370
    -2
100
AcDbLine
 10
92.94800000000005
 20
52.51025
 30
0.0
 11
20.17700000000006
 21
52.51025
 31
0.0
  0
SOLID
  5
192
330
18D
100
AcDbEntity
  8
치수문자_일반주서
 62
     0
100
AcDbTrace
 10
92.94800000000005
 20
51.95991666666666
 30
0.0
 11
92.94800000000005
 21
53.06058333333333
 31
0.0
 12
96.25000000000006
 22
52.51025
 32
0.0
 13
96.25000000000006
 23
52.51025
 33
0.0
  0
SOLID
  5
193
330
18D
100
AcDbEntity
  8
치수문자_일반주서
 62
     0
100
AcDbTrace
 10
20.17700000000006
 20
53.06058333333333
 30
0.0
 11
20.17700000000006
 21
51.95991666666666
 31
0.0
 12
16.87500000000006
 22
52.51025
 32
0.0
 13
16.87500000000006
 23
52.51025
 33
0.0
  0
MTEXT
  5
194
330
18D
100
AcDbEntity
  8
치수문자_일반주서
 62
     0
100
AcDbMText
 10
54.97500000000005
 20
56.88525
 30
0.0
 40
3.5
 41
0.0
 71
     2
 72
     1
  1
\A1;79.38 [3 1/8]
  7
SLDTEXTSTYLE0
 73
     1
 44
1.0
  0
POINT
  5
195
330
18D
100
AcDbEntity
  8
Defpoints
 62
     0
100
AcDbPoint
 10
96.25000000000006
 20
20.89149999999994
 30
0.0
  0
POINT
  5
196
330
18D
100
AcDbEntity
  8
Defpoints
 62
     0
100
AcDbPoint
 10
16.87500000000006
 20
19.09774999999993
 30
0.0
  0
POINT
  5
197
330
18D
100
AcDbEntity
  8
Defpoints
 62
     0
100
AcDbPoint
 10
16.87500000000006
 20
52.51025
 30
0.0
  0
ENDBLK
  5
198
330
18D
100
AcDbEntity
  8
0
100
AcDbBlockEnd
  0
BLOCK
  5
19B
330
19A
100
AcDbEntity
  8
0
100
AcDbBlockBegin
  2
*D8
 70
     1
 10
0.0
 20
0.0
 30
0.0
  3
*D8
  1
*D14
  0
LINE
  5
19C
330
19A
100
AcDbEntity
  8
치수문자_일반주서
 62
     0
370
    -2
100
AcDbLine
 10
17.81250000000006
 20
20.09774999999994
 30
0.0
 11
4.37500000000002
 21
20.09774999999989
 31
0.0
  0
LINE
  5
19D
330
19A
100
AcDbEntity
  8
치수문자_일반주서
 62
     0
370
    -2
100
AcDbLine
 10
17.81250000000006
 20
7.397749999999948
 30
0.0
 11
4.375000000000065
 21
7.397749999999898
 31
0.0
  0
LINE
  5
19E
330
19A
100
AcDbEntity
  8
치수문자_일반주서
 62
     0
370
    -2
100
AcDbLine
 10
4.375000000000032
 20
16.79574999999989
 30
0.0
 11
4.375000000000053
 21
10.6997499999999
 31
0.0
  0
SOLID
  5
19F
330
19A
100
AcDbEntity
  8
치수문자_일반주서
 62
     0
100
AcDbTrace
 10
4.925333333333366
 20
16.79574999999989
 30
0.0
 11
3.824666666666698
 21
16.79574999999988
 31
0.0
 12
4.37500000000002
 22
20.09774999999989
 32
0.0
 13
4.37500000000002
 23
20.09774999999989
 33
0.0
  0
SOLID
  5
1A0
330
19A
100
AcDbEntity
  8
치수문자_일반주서
 62
     0
100
AcDbTrace
 10
3.82466666666672
 20
10.6997499999999
 30
0.0
 11
4.925333333333387
 21
10.6997499999999
 31
0.0
 12
4.375000000000065
 22
7.397749999999898
 32
0.0
 13
4.375000000000065
 23
7.397749999999898
 33
0.0
  0
MTEXT
  5
1A1
330
19A
100
AcDbEntity
  8
치수문자_일반주서
 62
     0
100
AcDbMText
 10
0.0000000000000426
 20
13.74774999999993
 30
0.0
 40
3.5
 41
0.0
 71
     2
 72
     1
  1
\A1;%%c12.70 [1/2]
  7
SLDTEXTSTYLE0
 11
-3.496765431890259E-15
 21
1.0
 31
0.0
 73
     1
 44
1.0
  0
POINT
  5
1A2
330
19A
100
AcDbEntity
  8
Defpoints
 62
     0
100
AcDbPoint
 10
17.87500000000006
 20
20.09774999999994
 30
0.0
  0
POINT
  5
1A3
330
19A
100
AcDbEntity
  8
Defpoints
 62
     0
100
AcDbPoint
 10
17.87500000000006
 20
7.397749999999948
 30
0.0
  0
POINT
  5
1A4
330
19A
100
AcDbEntity
  8
Defpoints
 62
     0
100
AcDbPoint
 10
4.375000000000057
 20
7.397749999999897
 30
0.0
  0
ENDBLK
  5
1A5
330
19A
100
AcDbEntity
  8
0
100
AcDbBlockEnd
  0
BLOCK
  5
1B7
330
1B6
100
AcDbEntity
  8
0
100
AcDbBlockBegin
  2
*D9
 70
     1
 10
0.0
 20
0.0
 30
0.0
  3
*D9
  1
*D10
  0
LINE
  5
1B9
330
1B6
100
AcDbEntity
  8
치수문자_일반주서
 62
     0
370
    -2
100
AcDbLine
 10
96.25000000000006
 20
20.95399999999995
 30
0.0
 11
96.25000000000006
 21
33.57334977941636
 31
0.0
  0
LINE
  5
1BA
330
1B6
100
AcDbEntity
  8
치수문자_일반주서
 62
     0
370
    -2
100
AcDbLine
 10
67.67500000000004
 20
20.9328675592978
 30
0.0
 11
67.67500000000004
 21
33.57334977941636
 31
0.0
  0
LINE
  5
1BB
330
1B6
100
AcDbEntity
  8
치수문자_일반주서
 62
     0
370
    -2
100
AcDbLine
 10
92.94800000000005
 20
33.57334977941636
 30
0.0
 11
70.97700000000005
 21
33.57334977941636
 31
0.0
  0
SOLID
  5
1BC
330
1B6
100
AcDbEntity
  8
치수문자_일반주서
 62
     0
100
AcDbTrace
 10
92.94800000000005
 20
33.02301644608303
 30
0.0
 11
92.94800000000005
 21
34.1236831127497
 31
0.0
 12
96.25000000000006
 22
33.57334977941636
 32
0.0
 13
96.25000000000006
 23
33.57334977941636
 33
0.0
  0
SOLID
  5
1BD
330
1B6
100
AcDbEntity
  8
치수문자_일반주서
 62
     0
100
AcDbTrace
 10
70.97700000000005
 20
34.1236831127497
 30
0.0
 11
70.97700000000005
 21
33.02301644608303
 31
0.0
 12
67.67500000000004
 22
33.57334977941636
 32
0.0
 13
67.67500000000004
 23
33.57334977941636
 33
0.0
  0
MTEXT
  5
1BE
330
1B6
100
AcDbEntity
  8
치수문자_일반주서
 62
     0
100
AcDbMText
 10
79.38853353249173
 20
37.94834977941636
 30
0.0
 40
3.5
 41
0.0
 71
     2
 72
     1
  1
\A1;28.58 [1 1/8]
  7
SLDTEXTSTYLE0
 73
     1
 44
1.0
  0
POINT
  5
1BF
330
1B6
100
AcDbEntity
  8
Defpoints
 62
     0
100
AcDbPoint
 10
96.25000000000006
 20
20.89149999999995
 30
0.0
  0
POINT
  5
1C0
330
1B6
100
AcDbEntity
  8
Defpoints
 62
     0
100
AcDbPoint
 10
67.67500000000004
 20
20.8703675592978
 30
0.0
  0
POINT
  5
1C1
330
1B6
100
AcDbEntity
  8
Defpoints
 62
     0
100
AcDbPoint
 10
67.67500000000004
 20
33.57334977941636
 30
0.0
  0
ENDBLK
  5
1B8
330
1B6
100
AcDbEntity
  8
0
100
AcDbBlockEnd
  0
BLOCK
  5
1C3
330
1C2
100
AcDbEntity
  8
0
100
AcDbBlockBegin
  2
*D10
 70
     1
 10
0.0
 20
0.0
 30
0.0
  3
*D10
  1
*D11
  0
LINE
  5
1C5
330
1C2
100
AcDbEntity
  8
치수문자_일반주서
 62
     0
370
    -2
100
AcDbLine
 10
96.31250000000006
 20
20.89149999999994
 30
0.0
 11
109.6937500000001
 21
20.89149999999999
 31
0.0
  0
LINE
  5
1C6
330
1C2
100
AcDbEntity
  8
치수문자_일반주서
 62
     0
370
    -2
100
AcDbLine
 10
96.31250000000006
 20
6.603999999999946
 30
0.0
 11
109.6937500000002
 21
6.603999999999999
 31
0.0
  0
LINE
  5
1C7
330
1C2
100
AcDbEntity
  8
치수문자_일반주서
 62
     0
370
    -2
100
AcDbLine
 10
109.6937500000001
 20
20.89149999999999
 30
0.0
 11
109.69375
 21
57.2455
 31
0.0
  0
LINE
  5
1C8
330
1C2
100
AcDbEntity
  8
치수문자_일반주서
 62
     0
370
    -2
100
AcDbLine
 10
109.6937500000001
 20
20.89149999999999
 30
0.0
 11
109.6937500000002
 21
6.603999999999999
 31
0.0
  0
LINE
  5
1C9
330
1C2
100
AcDbEntity
  8
치수문자_일반주서
 62
     0
370
    -2
100
AcDbLine
 10
109.6937500000001
 20
24.19349999999999
 30
0.0
 11
109.6937500000001
 21
27.49549999999999
 31
0.0
  0
LINE
  5
1CA
330
1C2
100
AcDbEntity
  8
치수문자_일반주서
 62
     0
370
    -2
100
AcDbLine
 10
109.6937500000002
 20
3.301999999999999
 30
0.0
 11
109.6937500000002
 21
-0.0000000000000009
 31
0.0
  0
SOLID
  5
1CB
330
1C2
100
AcDbEntity
  8
치수문자_일반주서
 62
     0
100
AcDbTrace
 10
109.1434166666668
 20
24.19349999999999
 30
0.0
 11
110.2440833333334
 21
24.1935
 31
0.0
 12
109.6937500000001
 22
20.89149999999999
 32
0.0
 13
109.6937500000001
 23
20.89149999999999
 33
0.0
  0
SOLID
  5
1CC
330
1C2
100
AcDbEntity
  8
치수문자_일반주서
 62
     0
100
AcDbTrace
 10
110.2440833333335
 20
3.302000000000001
 30
0.0
 11
109.1434166666669
 21
3.301999999999997
 31
0.0
 12
109.6937500000002
 22
6.603999999999999
 32
0.0
 13
109.6937500000002
 23
6.603999999999999
 33
0.0
  0
MTEXT
  5
1CD
330
1C2
100
AcDbEntity
  8
치수문자_일반주서
 62
     0
100
AcDbMText
 10
105.31875
 20
42.37049999999999
 30
0.0
 40
3.5
 41
0.0
 71
     2
 72
     1
  1
\A1;%%c14.29 [9/16]
  7
SLDTEXTSTYLE0
 11
-3.978542002506248E-15
 21
1.0
 31
0.0
 73
     1
 44
1.0
  0
POINT
  5
1CE
330
1C2
100
AcDbEntity
  8
Defpoints
 62
     0
100
AcDbPoint
 10
96.25000000000006
 20
20.89149999999994
 30
0.0
  0
POINT
  5
1CF
330
1C2
100
AcDbEntity
  8
Defpoints
 62
     0
100
AcDbPoint
 10
96.25000000000006
 20
6.603999999999946
 30
0.0
  0
POINT
  5
1D0
330
1C2
100
AcDbEntity
  8
Defpoints
 62
     0
100
AcDbPoint
 10
109.6937500000002
 20
6.603999999999997
 30
0.0
  0
ENDBLK
  5
1C4
330
1C2
100
AcDbEntity
  8
0
100
AcDbBlockEnd
  0
BLOCK
  5
1F3
330
1F2
100
AcDbEntity
  8
0
100
AcDbBlockBegin
  2
*D11
 70
     1
 10
0.0
 20
0.0
 30
0.0
  3
*D11
  1
*D12
  0
LINE
  5
1F5
330
1F2
100
AcDbEntity
  8
치수문자_일반주서
 62
     0
370
    -2
100
AcDbLine
 10
168.903309302776
 20
-49.9318210790023
 30
0.0
 11
168.903309302776
 21
-37.31247129958589
 31
0.0
  0
LINE
  5
1F6
330
1F2
100
AcDbEntity
  8
치수문자_일반주서
 62
     0
370
    -2
100
AcDbLine
 10
140.328309302776
 20
-49.95295351970446
 30
0.0
 11
140.328309302776
 21
-37.31247129958589
 31
0.0
  0
LINE
  5
1F7
330
1F2
100
AcDbEntity
  8
치수문자_일반주서
 62
     0
370
    -2
100
AcDbLine
 10
165.601309302776
 20
-37.31247129958589
 30
0.0
 11
143.630309302776
 21
-37.31247129958589
 31
0.0
  0
SOLID
  5
1F8
330
1F2
100
AcDbEntity
  8
치수문자_일반주서
 62
     0
100
AcDbTrace
 10
165.601309302776
 20
-37.86280463291923
 30
0.0
 11
165.601309302776
 21
-36.76213796625256
 31
0.0
 12
168.903309302776
 22
-37.31247129958589
 32
0.0
 13
168.903309302776
 23
-37.31247129958589
 33
0.0
  0
SOLID
  5
1F9
330
1F2
100
AcDbEntity
  8
치수문자_일반주서
 62
     0
100
AcDbTrace
 10
143.630309302776
 20
-36.76213796625256
 30
0.0
 11
143.630309302776
 21
-37.86280463291923
 31
0.0
 12
140.328309302776
 22
-37.31247129958589
 32
0.0
 13
140.328309302776
 23
-37.31247129958589
 33
0.0
  0
MTEXT
  5
1FA
330
1F2
100
AcDbEntity
  8
치수문자_일반주서
 62
     0
100
AcDbMText
 10
152.0418428352677
 20
-32.93747129958589
 30
0.0
 40
3.5
 41
0.0
 71
     2
 72
     1
  1
\A1;28.58 [1 1/8]
  7
SLDTEXTSTYLE0
 73
     1
 44
1.0
  0
POINT
  5
1FB
330
1F2
100
AcDbEntity
  8
Defpoints
 62
     0
100
AcDbPoint
 10
168.903309302776
 20
-49.9943210790023
 30
0.0
  0
POINT
  5
1FC
330
1F2
100
AcDbEntity
  8
Defpoints
 62
     0
100
AcDbPoint
 10
140.328309302776
 20
-50.01545351970446
 30
0.0
  0
POINT
  5
1FD
330
1F2
100
AcDbEntity
  8
Defpoints
 62
     0
100
AcDbPoint
 10
140.328309302776
 20
-37.31247129958589
 30
0.0
  0
ENDBLK
  5
1F4
330
1F2
100
AcDbEntity
  8
0
100
AcDbBlockEnd
  0
BLOCK
  5
1FF
330
1FE
100
AcDbEntity
  8
0
100
AcDbBlockBegin
  2
*D12
 70
     1
 10
0.0
 20
0.0
 30
0.0
  3
*D12
  1
*D13
  0
LINE
  5
201
330
1FE
100
AcDbEntity
  8
치수문자_일반주서
 62
     0
370
    -2
100
AcDbLine
 10
168.965809302776
 20
-49.99432107900231
 30
0.0
 11
182.3470593027761
 21
-49.99432107900226
 31
0.0
  0
LINE
  5
202
330
1FE
100
AcDbEntity
  8
치수문자_일반주서
 62
     0
370
    -2
100
AcDbLine
 10
168.965809302776
 20
-64.28182107900231
 30
0.0
 11
182.3470593027761
 21
-64.28182107900227
 31
0.0
  0
LINE
  5
203
330
1FE
100
AcDbEntity
  8
치수문자_일반주서
 62
     0
370
    -2
100
AcDbLine
 10
182.3470593027761
 20
-49.99432107900226
 30
0.0
 11
182.3470593027759
 21
-13.64032107900226
 31
0.0
  0
LINE
  5
204
330
1FE
100
AcDbEntity
  8
치수문자_일반주서
 62
     0
370
    -2
100
AcDbLine
 10
182.3470593027761
 20
-49.99432107900226
 30
0.0
 11
182.3470593027761
 21
-64.28182107900227
 31
0.0
  0
LINE
  5
205
330
1FE
100
AcDbEntity
  8
치수문자_일반주서
 62
     0
370
    -2
100
AcDbLine
 10
182.3470593027761
 20
-46.69232107900226
 30
0.0
 11
182.3470593027761
 21
-43.39032107900226
 31
0.0
  0
LINE
  5
206
330
1FE
100
AcDbEntity
  8
치수문자_일반주서
 62
     0
370
    -2
100
AcDbLine
 10
182.3470593027761
 20
-67.58382107900228
 30
0.0
 11
182.3470593027761
 21
-70.88582107900228
 31
0.0
  0
SOLID
  5
207
330
1FE
100
AcDbEntity
  8
치수문자_일반주서
 62
     0
100
AcDbTrace
 10
181.7967259694427
 20
-46.69232107900226
 30
0.0
 11
182.8973926361094
 21
-46.69232107900226
 31
0.0
 12
182.3470593027761
 22
-49.99432107900226
 32
0.0
 13
182.3470593027761
 23
-49.99432107900226
 33
0.0
  0
SOLID
  5
208
330
1FE
100
AcDbEntity
  8
치수문자_일반주서
 62
     0
100
AcDbTrace
 10
182.8973926361095
 20
-67.58382107900228
 30
0.0
 11
181.7967259694428
 21
-67.58382107900228
 31
0.0
 12
182.3470593027761
 22
-64.28182107900227
 32
0.0
 13
182.3470593027761
 23
-64.28182107900227
 33
0.0
  0
MTEXT
  5
209
330
1FE
100
AcDbEntity
  8
치수문자_일반주서
 62
     0
100
AcDbMText
 10
177.972059302776
 20
-28.51532107900227
 30
0.0
 40
3.5
 41
0.0
 71
     2
 72
     1
  1
\A1;%%c14.29 [9/16]
  7
SLDTEXTSTYLE0
 11
-3.978542002506250E-15
 21
1.0
 31
0.0
 73
     1
 44
1.0
  0
POINT
  5
20A
330
1FE
100
AcDbEntity
  8
Defpoints
 62
     0
100
AcDbPoint
 10
168.903309302776
 20
-49.99432107900231
 30
0.0
  0
POINT
  5
20B
330
1FE
100
AcDbEntity
  8
Defpoints
 62
     0
100
AcDbPoint
 10
168.903309302776
 20
-64.28182107900231
 30
0.0
  0
POINT
  5
20C
330
1FE
100
AcDbEntity
  8
Defpoints
 62
     0
100
AcDbPoint
 10
182.3470593027761
 20
-64.28182107900226
 30
0.0
  0
ENDBLK
  5
200
330
1FE
100
AcDbEntity
  8
0
100
AcDbBlockEnd
  0
BLOCK
  5
20E
330
20D
100
AcDbEntity
  8
0
100
AcDbBlockBegin
  2
*D13
 70
     1
 10
0.0
 20
0.0
 30
0.0
  3
*D13
  1
*D14
  0
LINE
  5
210
330
20D
100
AcDbEntity
  8
치수문자_일반주서
 62
     0
370
    -2
100
AcDbLine
 10
-154.7411345692418
 20
7.999999999999991
 30
0.0
 11
-154.7411345692418
 21
38.76250000000005
 31
0.0
  0
LINE
  5
211
330
20D
100
AcDbEntity
  8
치수문자_일반주서
 62
     0
370
    -2
100
AcDbLine
 10
-234.1161345692418
 20
5.412499999999978
 30
0.0
 11
-234.1161345692418
 21
38.76250000000005
 31
0.0
  0
LINE
  5
212
330
20D
100
AcDbEntity
  8
치수문자_일반주서
 62
     0
370
    -2
100
AcDbLine
 10
-158.0431345692418
 20
38.76250000000005
 30
0.0
 11
-230.8141345692418
 21
38.76250000000005
 31
0.0
  0
SOLID
  5
213
330
20D
100
AcDbEntity
  8
치수문자_일반주서
 62
     0
100
AcDbTrace
 10
-158.0431345692418
 20
38.21216666666672
 30
0.0
 11
-158.0431345692418
 21
39.31283333333339
 31
0.0
 12
-154.7411345692418
 22
38.76250000000005
 32
0.0
 13
-154.7411345692418
 23
38.76250000000005
 33
0.0
  0
SOLID
  5
214
330
20D
100
AcDbEntity
  8
치수문자_일반주서
 62
     0
100
AcDbTrace
 10
-230.8141345692418
 20
39.31283333333339
 30
0.0
 11
-230.8141345692418
 21
38.21216666666672
 31
0.0
 12
-234.1161345692418
 22
38.76250000000005
 32
0.0
 13
-234.1161345692418
 23
38.76250000000005
 33
0.0
  0
MTEXT
  5
215
330
20D
100
AcDbEntity
  8
치수문자_일반주서
 62
     0
100
AcDbMText
 10
-196.0161345692418
 20
43.13750000000005
 30
0.0
 40
3.5
 41
0.0
 71
     2
 72
     1
  1
\A1;79.38 [3 1/8]
  7
SLDTEXTSTYLE0
 73
     1
 44
1.0
  0
POINT
  5
216
330
20D
100
AcDbEntity
  8
Defpoints
 62
     0
100
AcDbPoint
 10
-154.7411345692418
 20
7.937499999999991
 30
0.0
  0
POINT
  5
217
330
20D
100
AcDbEntity
  8
Defpoints
 62
     0
100
AcDbPoint
 10
-234.1161345692418
 20
5.349999999999978
 30
0.0
  0
POINT
  5
218
330
20D
100
AcDbEntity
  8
Defpoints
 62
     0
100
AcDbPoint
 10
-234.1161345692418
 20
38.76250000000005
 30
0.0
  0
ENDBLK
  5
20F
330
20D
100
AcDbEntity
  8
0
100
AcDbBlockEnd
  0
BLOCK
  5
21A
330
219
100
AcDbEntity
  8
0
100
AcDbBlockBegin
  2
*D14
 70
     1
 10
0.0
 20
0.0
 30
0.0
  3
*D14
  1
*D15
  0
LINE
  5
21C
330
219
100
AcDbEntity
  8
치수문자_일반주서
 62
     0
370
    -2
100
AcDbLine
 10
-46.27500000070833
 20
6.350000000000001
 30
0.0
 11
-59.71250000070835
 21
6.349999999999952
 31
0.0
  0
LINE
  5
21D
330
219
100
AcDbEntity
  8
치수문자_일반주서
 62
     0
370
    -2
100
AcDbLine
 10
-46.27500000070833
 20
-6.349999999999988
 30
0.0
 11
-59.71250000070831
 21
-6.350000000000038
 31
0.0
  0
LINE
  5
21E
330
219
100
AcDbEntity
  8
치수문자_일반주서
 62
     0
370
    -2
100
AcDbLine
 10
-59.71250000070834
 20
3.047999999999952
 30
0.0
 11
-59.71250000070832
 21
-3.048000000000038
 31
0.0
  0
SOLID
  5
21F
330
219
100
AcDbEntity
  8
치수문자_일반주서
 62
     0
100
AcDbTrace
 10
-59.162166667375
 20
3.047999999999953
 30
0.0
 11
-60.26283333404167
 21
3.04799999999995
 31
0.0
 12
-59.71250000070835
 22
6.349999999999952
 32
0.0
 13
-59.71250000070835
 23
6.349999999999952
 33
0.0
  0
SOLID
  5
220
330
219
100
AcDbEntity
  8
치수문자_일반주서
 62
     0
100
AcDbTrace
 10
-60.26283333404166
 20
-3.04800000000004
 30
0.0
 11
-59.16216666737499
 21
-3.048000000000036
 31
0.0
 12
-59.71250000070831
 22
-6.350000000000038
 32
0.0
 13
-59.71250000070831
 23
-6.350000000000038
 33
0.0
  0
MTEXT
  5
221
330
219
100
AcDbEntity
  8
치수문자_일반주서
 62
     0
100
AcDbMText
 10
-64.08750000070833
 20
-0.0000000000000074
 30
0.0
 40
3.5
 41
0.0
 71
     2
 72
     1
  1
\A1;%%c12.70 [1/2]
  7
SLDTEXTSTYLE0
 11
-3.356894814614649E-15
 21
1.0
 31
0.0
 73
     1
 44
1.0
  0
POINT
  5
222
330
219
100
AcDbEntity
  8
Defpoints
 62
     0
100
AcDbPoint
 10
-46.21250000070833
 20
6.350000000000001
 30
0.0
  0
POINT
  5
223
330
219
100
AcDbEntity
  8
Defpoints
 62
     0
100
AcDbPoint
 10
-46.21250000070833
 20
-6.349999999999988
 30
0.0
  0
POINT
  5
224
330
219
100
AcDbEntity
  8
Defpoints
 62
     0
100
AcDbPoint
 10
-59.7125000007083
 20
-6.350000000000039
 30
0.0
  0
ENDBLK
  5
21B
330
219
100
AcDbEntity
  8
0
100
AcDbBlockEnd
  0
BLOCK
  5
2E3
330
2E2
100
AcDbEntity
  8
0
100
AcDbBlockBegin
  2
*D15
 70
     1
 10
0.0
 20
0.0
 30
0.0
  3
*D15
  1
*D16
  0
LINE
  5
2E5
330
2E2
100
AcDbEntity
  8
치수문자_일반주서
 62
     0
370
    -2
100
AcDbLine
 10
105.7750000000001
 20
21.12500000000003
 30
0.0
 11
105.7750000000001
 21
32.95059977941644
 31
0.0
  0
LINE
  5
2E6
330
2E2
100
AcDbEntity
  8
치수문자_일반주서
 62
     0
370
    -2
100
AcDbLine
 10
70.85000000000005
 20
21.11890848240342
 30
0.0
 11
70.85000000000005
 21
32.95059977941644
 31
0.0
  0
LINE
  5
2E7
330
2E2
100
AcDbEntity
  8
치수문자_일반주서
 62
     0
370
    -2
100
AcDbLine
 10
70.85000000000005
 20
32.95059977941644
 30
0.0
 11
33.62100000000005
 21
32.95059977941644
 31
0.0
  0
LINE
  5
2E8
330
2E2
100
AcDbEntity
  8
치수문자_일반주서
 62
     0
370
    -2
100
AcDbLine
 10
105.7750000000001
 20
32.95059977941644
 30
0.0
 11
70.85000000000005
 21
32.95059977941644
 31
0.0
  0
LINE
  5
2E9
330
2E2
100
AcDbEntity
  8
치수문자_일반주서
 62
     0
370
    -2
100
AcDbLine
 10
109.0770000000001
 20
32.95059977941644
 30
0.0
 11
112.3790000000001
 21
32.95059977941644
 31
0.0
  0
LINE
  5
2EA
330
2E2
100
AcDbEntity
  8
치수문자_일반주서
 62
     0
370
    -2
100
AcDbLine
 10
67.54800000000004
 20
32.95059977941644
 30
0.0
 11
64.24600000000004
 21
32.95059977941644
 31
0.0
  0
SOLID
  5
2EB
330
2E2
100
AcDbEntity
  8
치수문자_일반주서
 62
     0
100
AcDbTrace
 10
109.0770000000001
 20
33.50093311274977
 30
0.0
 11
109.0770000000001
 21
32.4002664460831
 31
0.0
 12
105.7750000000001
 22
32.95059977941644
 32
0.0
 13
105.7750000000001
 23
32.95059977941644
 33
0.0
  0
SOLID
  5
2EC
330
2E2
100
AcDbEntity
  8
치수문자_일반주서
 62
     0
100
AcDbTrace
 10
67.54800000000004
 20
32.4002664460831
 30
0.0
 11
67.54800000000004
 21
33.50093311274977
 31
0.0
 12
70.85000000000005
 22
32.95059977941644
 32
0.0
 13
70.85000000000005
 23
32.95059977941644
 33
0.0
  0
MTEXT
  5
2ED
330
2E2
100
AcDbEntity
  8
치수문자_일반주서
 62
     0
100
AcDbMText
 10
48.93350000000005
 20
37.32559977941644
 30
0.0
 40
3.5
 41
0.0
 71
     2
 72
     1
  1
\A1;34.93 [1 3/8]
  7
SLDTEXTSTYLE0
 73
     1
 44
1.0
  0
POINT
  5
2EE
330
2E2
100
AcDbEntity
  8
Defpoints
 62
     0
100
AcDbPoint
 10
105.7750000000001
 20
21.06250000000003
 30
0.0
  0
POINT
  5
2EF
330
2E2
100
AcDbEntity
  8
Defpoints
 62
     0
100
AcDbPoint
 10
70.85000000000005
 20
21.05640848240342
 30
0.0
  0
POINT
  5
2F0
330
2E2
100
AcDbEntity
  8
Defpoints
 62
     0
100
AcDbPoint
 10
70.85000000000005
 20
32.95059977941644
 30
0.0
  0
ENDBLK
  5
2E4
330
2E2
100
AcDbEntity
  8
0
100
AcDbBlockEnd
  0
BLOCK
  5
2F2
330
2F1
100
AcDbEntity
  8
0
100
AcDbBlockBegin
  2
*D16
 70
     1
 10
0.0
 20
0.0
 30
0.0
  3
*D16
  1
*D17
  0
LINE
  5
2F4
330
2F1
100
AcDbEntity
  8
치수문자_일반주서
 62
     0
370
    -2
100
AcDbLine
 10
105.7750000000001
 20
21.12500000000003
 30
0.0
 11
105.7750000000001
 21
51.88750000000009
 31
0.0
  0
LINE
  5
2F5
330
2F1
100
AcDbEntity
  8
치수문자_일반주서
 62
     0
370
    -2
100
AcDbLine
 10
16.87500000000004
 20
20.12500000000001
 30
0.0
 11
16.87500000000004
 21
51.88750000000009
 31
0.0
  0
LINE
  5
2F6
330
2F1
100
AcDbEntity
  8
치수문자_일반주서
 62
     0
370
    -2
100
AcDbLine
 10
102.4730000000001
 20
51.88750000000009
 30
0.0
 11
20.17700000000004
 21
51.88750000000009
 31
0.0
  0
SOLID
  5
2F7
330
2F1
100
AcDbEntity
  8
치수문자_일반주서
 62
     0
100
AcDbTrace
 10
102.4730000000001
 20
51.33716666666675
 30
0.0
 11
102.4730000000001
 21
52.43783333333342
 31
0.0
 12
105.7750000000001
 22
51.88750000000009
 32
0.0
 13
105.7750000000001
 23
51.88750000000009
 33
0.0
  0
SOLID
  5
2F8
330
2F1
100
AcDbEntity
  8
치수문자_일반주서
 62
     0
100
AcDbTrace
 10
20.17700000000004
 20
52.43783333333342
 30
0.0
 11
20.17700000000004
 21
51.33716666666675
 31
0.0
 12
16.87500000000004
 22
51.88750000000009
 32
0.0
 13
16.87500000000004
 23
51.88750000000009
 33
0.0
  0
MTEXT
  5
2F9
330
2F1
100
AcDbEntity
  8
치수문자_일반주서
 62
     0
100
AcDbMText
 10
61.32500000000004
 20
56.26250000000009
 30
0.0
 40
3.5
 41
0.0
 71
     2
 72
     1
  1
\A1;88.90 [3 1/2]
  7
SLDTEXTSTYLE0
 73
     1
 44
1.0
  0
POINT
  5
2FA
330
2F1
100
AcDbEntity
  8
Defpoints
 62
     0
100
AcDbPoint
 10
105.7750000000001
 20
21.06250000000003
 30
0.0
  0
POINT
  5
2FB
330
2F1
100
AcDbEntity
  8
Defpoints
 62
     0
100
AcDbPoint
 10
16.87500000000004
 20
20.06250000000001
 30
0.0
  0
POINT
  5
2FC
330
2F1
100
AcDbEntity
  8
Defpoints
 62
     0
100
AcDbPoint
 10
16.87500000000004
 20
51.88750000000009
 30
0.0
  0
ENDBLK
  5
2F3
330
2F1
100
AcDbEntity
  8
0
100
AcDbBlockEnd
  0
BLOCK
  5
2FE
330
2FD
100
AcDbEntity
  8
0
100
AcDbBlockBegin
  2
*D17
 70
     1
 10
0.0
 20
0.0
 30
0.0
  3
*D17
  1
*D18
  0
LINE
  5
300
330
2FD
100
AcDbEntity
  8
치수문자_일반주서
 62
     0
370
    -2
100
AcDbLine
 10
17.81250000000007
 20
21.06250000000001
 30
0.0
 11
4.375000000000022
 21
21.06249999999996
 31
0.0
  0
LINE
  5
301
330
2FD
100
AcDbEntity
  8
치수문자_일반주서
 62
     0
370
    -2
100
AcDbLine
 10
17.81250000000007
 20
5.187500000000014
 30
0.0
 11
4.375000000000077
 21
5.187499999999964
 31
0.0
  0
LINE
  5
302
330
2FD
100
AcDbEntity
  8
치수문자_일반주서
 62
     0
370
    -2
100
AcDbLine
 10
4.375000000000034
 20
17.76049999999996
 30
0.0
 11
4.375000000000066
 21
8.489499999999964
 31
0.0
  0
SOLID
  5
303
330
2FD
100
AcDbEntity
  8
치수문자_일반주서
 62
     0
100
AcDbTrace
 10
4.925333333333367
 20
17.76049999999997
 30
0.0
 11
3.8246666666667
 21
17.76049999999996
 31
0.0
 12
4.375000000000022
 22
21.06249999999996
 32
0.0
 13
4.375000000000022
 23
21.06249999999996
 33
0.0
  0
SOLID
  5
304
330
2FD
100
AcDbEntity
  8
치수문자_일반주서
 62
     0
100
AcDbTrace
 10
3.824666666666732
 20
8.489499999999962
 30
0.0
 11
4.925333333333399
 21
8.489499999999966
 31
0.0
 12
4.375000000000077
 22
5.187499999999964
 32
0.0
 13
4.375000000000077
 23
5.187499999999964
 33
0.0
  0
MTEXT
  5
305
330
2FD
100
AcDbEntity
  8
치수문자_일반주서
 62
     0
100
AcDbMText
 10
0.0000000000000497
 20
13.125
 30
0.0
 40
3.5
 41
0.0
 71
     2
 72
     1
  1
\A1;%%c15.88 [5/8]
  7
SLDTEXTSTYLE0
 11
-3.468791308435135E-15
 21
1.0
 31
0.0
 73
     1
 44
1.0
  0
POINT
  5
306
330
2FD
100
AcDbEntity
  8
Defpoints
 62
     0
100
AcDbPoint
 10
17.87500000000007
 20
21.06250000000001
 30
0.0
  0
POINT
  5
307
330
2FD
100
AcDbEntity
  8
Defpoints
 62
     0
100
AcDbPoint
 10
17.87500000000007
 20
5.187500000000014
 30
0.0
  0
POINT
  5
308
330
2FD
100
AcDbEntity
  8
Defpoints
 62
     0
100
AcDbPoint
 10
4.375000000000078
 20
5.187499999999964
 30
0.0
  0
ENDBLK
  5
2FF
330
2FD
100
AcDbEntity
  8
0
100
AcDbBlockEnd
  0
BLOCK
  5
30A
330
309
100
AcDbEntity
  8
0
100
AcDbBlockBegin
  2
*D18
 70
     1
 10
0.0
 20
0.0
 30
0.0
  3
*D18
  1
*D19
  0
LINE
  5
30C
330
309
100
AcDbEntity
  8
치수문자_일반주서
 62
     0
370
    -2
100
AcDbLine
 10
105.8375000000001
 20
21.06250000000003
 30
0.0
 11
118.4250000000001
 21
21.06250000000008
 31
0.0
  0
LINE
  5
30D
330
309
100
AcDbEntity
  8
치수문자_일반주서
 62
     0
370
    -2
100
AcDbLine
 10
105.8375000000001
 20
5.187500000000033
 30
0.0
 11
118.4250000000002
 21
5.187500000000078
 31
0.0
  0
LINE
  5
30E
330
309
100
AcDbEntity
  8
치수문자_일반주서
 62
     0
370
    -2
100
AcDbLine
 10
118.4250000000001
 20
21.06250000000008
 30
0.0
 11
118.425
 21
55.66650000000008
 31
0.0
  0
LINE
  5
30F
330
309
100
AcDbEntity
  8
치수문자_일반주서
 62
     0
370
    -2
100
AcDbLine
 10
118.4250000000001
 20
21.06250000000008
 30
0.0
 11
118.4250000000002
 21
5.187500000000078
 31
0.0
  0
LINE
  5
310
330
309
100
AcDbEntity
  8
치수문자_일반주서
 62
     0
370
    -2
100
AcDbLine
 10
118.4250000000001
 20
24.36450000000008
 30
0.0
 11
118.4250000000001
 21
27.66650000000008
 31
0.0
  0
LINE
  5
311
330
309
100
AcDbEntity
  8
치수문자_일반주서
 62
     0
370
    -2
100
AcDbLine
 10
118.4250000000002
 20
1.885500000000078
 30
0.0
 11
118.4250000000002
 21
-1.416499999999922
 31
0.0
  0
SOLID
  5
312
330
309
100
AcDbEntity
  8
치수문자_일반주서
 62
     0
100
AcDbTrace
 10
117.8746666666668
 20
24.36450000000007
 30
0.0
 11
118.9753333333334
 21
24.36450000000008
 31
0.0
 12
118.4250000000001
 22
21.06250000000008
 32
0.0
 13
118.4250000000001
 23
21.06250000000008
 33
0.0
  0
SOLID
  5
313
330
309
100
AcDbEntity
  8
치수문자_일반주서
 62
     0
100
AcDbTrace
 10
118.9753333333335
 20
1.88550000000008
 30
0.0
 11
117.8746666666669
 21
1.885500000000076
 31
0.0
 12
118.4250000000002
 22
5.187500000000078
 32
0.0
 13
118.4250000000002
 23
5.187500000000078
 33
0.0
  0
MTEXT
  5
314
330
309
100
AcDbEntity
  8
치수문자_일반주서
 62
     0
100
AcDbMText
 10
114.0500000000001
 20
41.66650000000006
 30
0.0
 40
3.5
 41
0.0
 71
     2
 72
     1
  1
\A1;%%c15.88 [5/8]
  7
SLDTEXTSTYLE0
 11
-3.580687802255624E-15
 21
1.0
 31
0.0
 73
     1
 44
1.0
  0
POINT
  5
315
330
309
100
AcDbEntity
  8
Defpoints
 62
     0
100
AcDbPoint
 10
105.7750000000001
 20
21.06250000000003
 30
0.0
  0
POINT
  5
316
330
309
100
AcDbEntity
  8
Defpoints
 62
     0
100
AcDbPoint
 10
105.7750000000001
 20
5.187500000000033
 30
0.0
  0
POINT
  5
317
330
309
100
AcDbEntity
  8
Defpoints
 62
     0
100
AcDbPoint
 10
118.4250000000002
 20
5.18750000000008
 30
0.0
  0
ENDBLK
  5
30B
330
309
100
AcDbEntity
  8
0
100
AcDbBlockEnd
  0
BLOCK
  5
346
330
345
100
AcDbEntity
  8
0
100
AcDbBlockBegin
  2
*D19
 70
     1
 10
0.0
 20
0.0
 30
0.0
  3
*D19
  1
*D20
  0
LINE
  5
348
330
345
100
AcDbEntity
  8
치수문자_일반주서
 62
     0
370
    -2
100
AcDbLine
 10
32.1624999992917
 20
8.000000000000004
 30
0.0
 11
32.1624999992917
 21
19.82559977941641
 31
0.0
  0
LINE
  5
349
330
345
100
AcDbEntity
  8
치수문자_일반주서
 62
     0
370
    -2
100
AcDbLine
 10
3.587499999291694
 20
8.0
 30
0.0
 11
3.587499999291694
 21
19.82559977941641
 31
0.0
  0
LINE
  5
34A
330
345
100
AcDbEntity
  8
치수문자_일반주서
 62
     0
370
    -2
100
AcDbLine
 10
28.8604999992917
 20
19.82559977941641
 30
0.0
 11
6.889499999291694
 21
19.82559977941641
 31
0.0
  0
SOLID
  5
34B
330
345
100
AcDbEntity
  8
치수문자_일반주서
 62
     0
100
AcDbTrace
 10
28.8604999992917
 20
19.27526644608307
 30
0.0
 11
28.8604999992917
 21
20.37593311274974
 31
0.0
 12
32.1624999992917
 22
19.82559977941641
 32
0.0
 13
32.1624999992917
 23
19.82559977941641
 33
0.0
  0
SOLID
  5
34C
330
345
100
AcDbEntity
  8
치수문자_일반주서
 62
     0
100
AcDbTrace
 10
6.889499999291694
 20
20.37593311274974
 30
0.0
 11
6.889499999291694
 21
19.27526644608307
 31
0.0
 12
3.587499999291694
 22
19.82559977941641
 32
0.0
 13
3.587499999291694
 23
19.82559977941641
 33
0.0
  0
MTEXT
  5
34D
330
345
100
AcDbEntity
  8
치수문자_일반주서
 62
     0
100
AcDbMText
 10
17.87499999929169
 20
24.20059977941641
 30
0.0
 40
3.5
 41
0.0
 71
     2
 72
     1
  1
\A1;28.58 [1 1/8]
  7
SLDTEXTSTYLE0
 73
     1
 44
1.0
  0
POINT
  5
34E
330
345
100
AcDbEntity
  8
Defpoints
 62
     0
100
AcDbPoint
 10
32.1624999992917
 20
7.937500000000004
 30
0.0
  0
POINT
  5
34F
330
345
100
AcDbEntity
  8
Defpoints
 62
     0
100
AcDbPoint
 10
3.587499999291694
 20
7.937500000000001
 30
0.0
  0
POINT
  5
350
330
345
100
AcDbEntity
  8
Defpoints
 62
     0
100
AcDbPoint
 10
3.587499999291694
 20
19.82559977941641
 30
0.0
  0
ENDBLK
  5
347
330
345
100
AcDbEntity
  8
0
100
AcDbBlockEnd
  0
BLOCK
  5
355
330
354
100
AcDbEntity
  8
0
100
AcDbBlockBegin
  2
*D20
 70
     1
 10
0.0
 20
0.0
 30
0.0
  3
*D20
  1
*D21
  0
LINE
  5
357
330
354
100
AcDbEntity
  8
치수문자_일반주서
 62
     0
370
    -2
100
AcDbLine
 10
32.1624999992917
 20
8.000000000000004
 30
0.0
 11
32.1624999992917
 21
38.76250000000006
 31
0.0
  0
LINE
  5
358
330
354
100
AcDbEntity
  8
치수문자_일반주서
 62
     0
370
    -2
100
AcDbLine
 10
-47.21250000070829
 20
8.0
 30
0.0
 11
-47.21250000070829
 21
38.76250000000006
 31
0.0
  0
LINE
  5
359
330
354
100
AcDbEntity
  8
치수문자_일반주서
 62
     0
370
    -2
100
AcDbLine
 10
28.8604999992917
 20
38.76250000000006
 30
0.0
 11
-43.91050000070829
 21
38.76250000000006
 31
0.0
  0
SOLID
  5
35A
330
354
100
AcDbEntity
  8
치수문자_일반주서
 62
     0
100
AcDbTrace
 10
28.8604999992917
 20
38.21216666666673
 30
0.0
 11
28.8604999992917
 21
39.31283333333339
 31
0.0
 12
32.1624999992917
 22
38.76250000000006
 32
0.0
 13
32.1624999992917
 23
38.76250000000006
 33
0.0
  0
SOLID
  5
35B
330
354
100
AcDbEntity
  8
치수문자_일반주서
 62
     0
100
AcDbTrace
 10
-43.91050000070829
 20
39.31283333333339
 30
0.0
 11
-43.91050000070829
 21
38.21216666666673
 31
0.0
 12
-47.21250000070829
 22
38.76250000000006
 32
0.0
 13
-47.21250000070829
 23
38.76250000000006
 33
0.0
  0
MTEXT
  5
35C
330
354
100
AcDbEntity
  8
치수문자_일반주서
 62
     0
100
AcDbMText
 10
-7.5250000007083
 20
43.13750000000006
 30
0.0
 40
3.5
 41
0.0
 71
     2
 72
     1
  1
\A1;79.38 [3 1/8]
  7
SLDTEXTSTYLE0
 73
     1
 44
1.0
  0
POINT
  5
35D
330
354
100
AcDbEntity
  8
Defpoints
 62
     0
100
AcDbPoint
 10
32.1624999992917
 20
7.937500000000004
 30
0.0
  0
POINT
  5
35E
330
354
100
AcDbEntity
  8
Defpoints
 62
     0
100
AcDbPoint
 10
-47.21250000070829
 20
7.937500000000001
 30
0.0
  0
POINT
  5
35F
330
354
100
AcDbEntity
  8
Defpoints
 62
     0
100
AcDbPoint
 10
-47.21250000070829
 20
38.76250000000006
 30
0.0
  0
ENDBLK
  5
356
330
354
100
AcDbEntity
  8
0
100
AcDbBlockEnd
  0
BLOCK
  5
361
330
360
100
AcDbEntity
  8
0
100
AcDbBlockBegin
  2
*D21
 70
     1
 10
0.0
 20
0.0
 30
0.0
  3
*D21
  1
*D22
  0
LINE
  5
363
330
360
100
AcDbEntity
  8
치수문자_일반주서
 62
     0
370
    -2
100
AcDbLine
 10
-41.03749999999999
 20
7.937499999999988
 30
0.0
 11
-54.47500000000003
 21
7.937499999999937
 31
0.0
  0
LINE
  5
364
330
360
100
AcDbEntity
  8
치수문자_일반주서
 62
     0
370
    -2
100
AcDbLine
 10
-41.03749999999999
 20
-7.937500000000012
 30
0.0
 11
-54.47499999999997
 21
-7.937500000000063
 31
0.0
  0
LINE
  5
365
330
360
100
AcDbEntity
  8
치수문자_일반주서
 62
     0
370
    -2
100
AcDbLine
 10
-54.47500000000002
 20
4.635499999999936
 30
0.0
 11
-54.47499999999999
 21
-4.635500000000063
 31
0.0
  0
SOLID
  5
366
330
360
100
AcDbEntity
  8
치수문자_일반주서
 62
     0
100
AcDbTrace
 10
-53.92466666666668
 20
4.635499999999938
 30
0.0
 11
-55.02533333333335
 21
4.635499999999935
 31
0.0
 12
-54.47500000000003
 22
7.937499999999937
 32
0.0
 13
-54.47500000000003
 23
7.937499999999937
 33
0.0
  0
SOLID
  5
367
330
360
100
AcDbEntity
  8
치수문자_일반주서
 62
     0
100
AcDbTrace
 10
-55.02533333333332
 20
-4.635500000000064
 30
0.0
 11
-53.92466666666665
 21
-4.635500000000061
 31
0.0
 12
-54.47499999999997
 22
-7.937500000000063
 32
0.0
 13
-54.47499999999997
 23
-7.937500000000063
 33
0.0
  0
MTEXT
  5
368
330
360
100
AcDbEntity
  8
치수문자_일반주서
 62
     0
100
AcDbMText
 10
-58.85
 20
-0.0000000000000279
 30
0.0
 40
3.5
 41
0.0
 71
     2
 72
     1
  1
\A1;%%c15.88 [5/8]
  7
SLDTEXTSTYLE0
 11
-3.580687802255623E-15
 21
1.0
 31
0.0
 73
     1
 44
1.0
  0
POINT
  5
369
330
360
100
AcDbEntity
  8
Defpoints
 62
     0
100
AcDbPoint
 10
-40.97499999999999
 20
7.937499999999988
 30
0.0
  0
POINT
  5
36A
330
360
100
AcDbEntity
  8
Defpoints
 62
     0
100
AcDbPoint
 10
-40.97499999999999
 20
-7.937500000000012
 30
0.0
  0
POINT
  5
36B
330
360
100
AcDbEntity
  8
Defpoints
 62
     0
100
AcDbPoint
 10
-54.47499999999997
 20
-7.937500000000063
 30
0.0
  0
ENDBLK
  5
362
330
360
100
AcDbEntity
  8
0
100
AcDbBlockEnd
  0
BLOCK
  5
36D
330
36C
100
AcDbEntity
  8
0
100
AcDbBlockBegin
  2
*D22
 70
     1
 10
0.0
 20
0.0
 30
0.0
  3
*D22
  1
*D23
  0
LINE
  5
36F
330
36C
100
AcDbEntity
  8
치수문자_일반주서
 62
     0
370
    -2
100
AcDbLine
 10
32.2249999992917
 20
7.937500000000004
 30
0.0
 11
44.81249999929176
 21
7.93750000000005
 31
0.0
  0
LINE
  5
370
330
36C
100
AcDbEntity
  8
치수문자_일반주서
 62
     0
370
    -2
100
AcDbLine
 10
32.2249999992917
 20
-7.937499999999996
 30
0.0
 11
44.81249999929182
 21
-7.937499999999943
 31
0.0
  0
LINE
  5
371
330
36C
100
AcDbEntity
  8
치수문자_일반주서
 62
     0
370
    -2
100
AcDbLine
 10
44.81249999929176
 20
7.93750000000005
 30
0.0
 11
44.81249999929164
 21
42.54150000000006
 31
0.0
  0
LINE
  5
372
330
36C
100
AcDbEntity
  8
치수문자_일반주서
 62
     0
370
    -2
100
AcDbLine
 10
44.81249999929176
 20
7.93750000000005
 30
0.0
 11
44.81249999929182
 21
-7.937499999999943
 31
0.0
  0
LINE
  5
373
330
36C
100
AcDbEntity
  8
치수문자_일반주서
 62
     0
370
    -2
100
AcDbLine
 10
44.81249999929175
 20
11.23950000000005
 30
0.0
 11
44.81249999929173
 21
14.54150000000005
 31
0.0
  0
LINE
  5
374
330
36C
100
AcDbEntity
  8
치수문자_일반주서
 62
     0
370
    -2
100
AcDbLine
 10
44.81249999929183
 20
-11.23949999999994
 30
0.0
 11
44.81249999929184
 21
-14.54149999999994
 31
0.0
  0
SOLID
  5
375
330
36C
100
AcDbEntity
  8
치수문자_일반주서
 62
     0
100
AcDbTrace
 10
44.26216666595841
 20
11.23950000000005
 30
0.0
 11
45.36283333262508
 21
11.23950000000005
 31
0.0
 12
44.81249999929176
 22
7.93750000000005
 32
0.0
 13
44.81249999929176
 23
7.93750000000005
 33
0.0
  0
SOLID
  5
376
330
36C
100
AcDbEntity
  8
치수문자_일반주서
 62
     0
100
AcDbTrace
 10
45.36283333262516
 20
-11.23949999999994
 30
0.0
 11
44.2621666659585
 21
-11.23949999999994
 31
0.0
 12
44.81249999929182
 22
-7.937499999999943
 32
0.0
 13
44.81249999929182
 23
-7.937499999999943
 33
0.0
  0
MTEXT
  5
377
330
36C
100
AcDbEntity
  8
치수문자_일반주서
 62
     0
100
AcDbMText
 10
40.43749999929169
 20
28.54150000000004
 30
0.0
 40
3.5
 41
0.0
 71
     2
 72
     1
  1
\A1;%%c15.88 [5/8]
  7
SLDTEXTSTYLE0
 11
-3.580687802255623E-15
 21
1.0
 31
0.0
 73
     1
 44
1.0
  0
POINT
  5
378
330
36C
100
AcDbEntity
  8
Defpoints
 62
     0
100
AcDbPoint
 10
32.1624999992917
 20
7.937500000000004
 30
0.0
  0
POINT
  5
379
330
36C
100
AcDbEntity
  8
Defpoints
 62
     0
100
AcDbPoint
 10
32.1624999992917
 20
-7.937499999999996
 30
0.0
  0
POINT
  5
37A
330
36C
100
AcDbEntity
  8
Defpoints
 62
     0
100
AcDbPoint
 10
44.81249999929182
 20
-7.937499999999948
 30
0.0
  0
ENDBLK
  5
36E
330
36C
100
AcDbEntity
  8
0
100
AcDbBlockEnd
  0
ENDSEC
  0
SECTION
  2
ENTITIES
  0
LINE
  5
96
330
1F
100
AcDbEntity
  8
0
  6
Continuous
 62
     1
370
    15
100
AcDbLine
 10
-183.3161345692418
 20
-7.937500000000014
 30
0.0
 11
-162.6786345692418
 21
-7.937500000000014
 31
0.0
  0
LINE
  5
97
330
1F
100
AcDbEntity
  8
0
  6
Continuous
 62
     1
370
    15
100
AcDbLine
 10
-162.6786345692418
 20
7.937499999999986
 30
0.0
 11
-183.3161345692418
 21
7.937499999999986
 31
0.0
  0
ARC
  5
98
330
1F
100
AcDbEntity
  8
0
  6
Continuous
 62
     1
370
    15
100
AcDbCircle
 10
-162.6786345692418
 20
-0.0000000000000145
 30
0.0
 40
7.9375
100
AcDbArc
 50
270.0000000000007
 51
0.0
  0
ARC
  5
99
330
1F
100
AcDbEntity
  8
0
  6
Continuous
 62
     1
370
    15
100
AcDbCircle
 10
-162.6786345692418
 20
-0.0000000000000145
 30
0.0
 40
7.9375
100
AcDbArc
 50
0.0
 51
90.0
  0
SPLINE
  5
9A
330
1F
100
AcDbEntity
  8
0
  6
Continuous
 62
     1
370
    15
100
AcDbSpline
210
0.0
220
0.0
230
1.0
 70
     8
 71
     3
 72
    14
 73
    10
 74
     0
 42
0.000000001
 43
0.00000001
 40
0.0
 40
0.0
 40
0.0
 40
0.0
 40
0.25
 40
0.25
 40
0.5
 40
0.5
 40
0.75
 40
0.75
 40
1.0
 40
1.0
 40
1.0
 40
1.0
 10
-183.3161345692418
 20
7.93749999929336
 30
0.0
 10
-182.9376734192213
 20
7.937497088322906
 30
0.0
 10
-182.5590832984647
 20
7.928485082826617
 30
0.0
 10
-181.8054892301777
 20
7.892613415658913
 30
0.0
 10
-181.4297307595976
 20
7.865769547298701
 30
0.0
 10
-180.6735753806555
 20
7.794228217496534
 30
0.0
 10
-180.2946280440138
 20
7.749549078517446
 30
0.0
 10
-179.5388502540756
 20
7.64283728558698
 30
0.0
 10
-179.1635352931577
 20
7.580908501966793
 30
0.0
 10
-178.7864057553651
 20
7.510394028726775
 30
0.0
  0
LINE
  5
9B
330
1F
100
AcDbEntity
  8
외형선
  6
Continuous
370
    15
100
AcDbLine
 10
-183.3161345692418
 20
-7.937499999293387
 30
0.0
 11
-183.3161345692418
 21
-2.465817143229243
 31
0.0
  0
SPLINE
  5
9C
330
1F
100
AcDbEntity
  8
0
  6
Continuous
 62
     1
370
    15
100
AcDbSpline
210
0.0
220
0.0
230
1.0
 70
     8
 71
     3
 72
    20
 73
    16
 74
     0
 42
0.000000001
 43
0.00000001
 40
0.0
 40
0.0
 40
0.0
 40
0.0
 40
0.2499999999999998
 40
0.2499999999999998
 40
0.3749999999999998
 40
0.3749999999999998
 40
0.4999999999999999
 40
0.4999999999999999
 40
0.6249999999999999
 40
0.6249999999999999
 40
0.7499999999999999
 40
0.7499999999999999
 40
0.875
 40
0.875
 40
1.0
 40
1.0
 40
1.0
 40
1.0
 10
-173.7911345692418
 20
-6.716202213910437
 30
0.0
 10
-174.5810471316152
 20
-6.472355138074671
 30
0.0
 10
-175.3810788037575
 20
-6.19375314716012
 30
0.0
 10
-176.5695193097957
 20
-5.732905611279985
 30
0.0
 10
-176.9644676364958
 20
-5.572105782219287
 30
0.0
 10
-177.759397663874
 20
-5.236292523462007
 30
0.0
 10
-178.1577603985053
 20
-5.061485525918362
 30
0.0
 10
-178.9518037819844
 20
-4.700050076995638
 30
0.0
 10
-179.3460665207558
 20
-4.51366287873766
 30
0.0
 10
-180.1397179431243
 20
-4.12928464949989
 30
0.0
 10
-180.5380390487909
 20
-3.93144315041181
 30
0.0
 10
-181.3331960744008
 20
-3.526659961965495
 30
0.0
 10
-181.7286230052174
 20
-3.319971421872144
 30
0.0
 10
-182.5203608003114
 20
-2.898685541932795
 30
0.0
 10
-182.9183187617737
 20
-2.683785255051613
 30
0.0
 10
-183.3161345692418
 20
-2.465817143229242
 30
0.0
  0
LINE
  5
9D
330
1F
100
AcDbEntity
  8
0
  6
Continuous
 62
     1
370
    15
100
AcDbLine
 10
-173.7911345692418
 20
7.901939504990445
 30
0.0
 11
-173.7911345692418
 21
-6.716202213906643
 31
0.0
  0
ELLIPSE
  5
9E
330
1F
100
AcDbEntity
  8
0
  6
Continuous
 62
     1
370
    15
100
AcDbEllipse
 10
-171.7291380136854
 20
-0.0000000000000145
 30
0.0
 11
21.80810201692102
 21
0.0
 31
0.0
210
0.0
220
0.0
230
1.0
 40
0.3639702342662032
 41
1.665489637280634
 42
1.900336109021991
  0
SPLINE
  5
9F
330
1F
100
AcDbEntity
  8
0
  6
Continuous
 62
     1
370
    15
100
AcDbSpline
210
0.0
220
0.0
230
1.0
 70
     8
 71
     3
 72
    20
 73
    16
 74
     0
 42
0.000000001
 43
0.00000001
 40
0.0
 40
0.0
 40
0.0
 40
0.0
 40
0.2500000000000001
 40
0.2500000000000001
 40
0.3750000000000001
 40
0.3750000000000001
 40
0.5000000000000001
 40
0.5000000000000001
 40
0.6250000000000001
 40
0.6250000000000001
 40
0.7500000000000002
 40
0.7500000000000002
 40
0.8750000000000002
 40
0.8750000000000002
 40
1.0
 40
1.0
 40
1.0
 40
1.0
 10
-173.7911345692418
 20
-0.0000000000000137
 30
0.0
 10
-174.5810471316152
 20
0.3115712032588538
 30
0.0
 10
-175.3810788037575
 20
0.6244605827527903
 30
0.0
 10
-176.5695193097957
 20
1.085284312651033
 30
0.0
 10
-176.9644676364958
 20
1.237576487353195
 30
0.0
 10
-177.759397663874
 20
1.539329172683683
 30
0.0
 10
-178.1577603985053
 20
1.688578158428874
 30
0.0
 10
-178.9518037819845
 20
1.982148254386193
 30
0.0
 10
-179.3460665207558
 20
2.126304096164682
 30
0.0
 10
-180.1397179431243
 20
2.409569158016737
 30
0.0
 10
-180.5380390487909
 20
2.548539338231094
 30
0.0
 10
-181.3331960744008
 20
2.819581321307515
 30
0.0
 10
-181.7286230052174
 20
2.951501146564754
 30
0.0
 10
-182.5203608003114
 20
3.207755696468901
 30
0.0
 10
-182.9183187617737
 20
3.332257914459112
 30
0.0
 10
-183.3161345692418
 20
3.452416041457061
 30
0.0
  0
SPLINE
  5
A0
330
1F
100
AcDbEntity
  8
외형선
  6
Continuous
370
    15
100
AcDbSpline
210
0.0
220
0.0
230
1.0
 70
    24
 71
     3
 72
    16
 73
    12
 74
     0
 42
0.000000001
 43
0.00000001
 40
0.0
 40
0.0
 40
0.0
 40
0.0
 40
0.2500000000000001
 40
0.2500000000000001
 40
0.5
 40
0.5
 40
0.75
 40
0.75
 40
0.875
 40
0.875
 40
1.0
 40
1.0
 40
1.0
 40
1.0
 10
-183.3161345692418
 20
3.452416041457056
 30
0.0
 10
-183.3161345692418
 20
2.991666242492689
 30
0.0
 10
-183.3161345692418
 20
2.471830132509359
 30
0.0
 10
-183.3161345692418
 20
1.355097024775575
 30
0.0
 10
-183.3161345692418
 20
0.757958757647267
 30
0.0
 10
-183.3161345692418
 20
-0.4000358843796389
 30
0.0
 10
-183.3161345692418
 20
-0.9581155061592687
 30
0.0
 10
-183.3161345692418
 20
-1.650914618847951
 30
0.0
 10
-183.3161345692418
 20
-1.857794754021022
 30
0.0
 10
-183.3161345692418
 20
-2.209779746787697
 30
0.0
 10
-183.3161345692418
 20
-2.354820224583233
 30
0.0
 10
-183.3161345692418
 20
-2.46581714322781
 30
0.0
  0
SPLINE
  5
A1
330
1F
100
AcDbEntity
  8
0
  6
Continuous
 62
     1
370
    15
100
AcDbSpline
210
0.0
220
0.0
230
1.0
 70
     8
 71
     3
 72
    10
 73
     6
 74
     0
 42
0.000000001
 43
0.00000001
 40
0.0
 40
0.0
 40
0.0
 40
0.0
 40
0.5
 40
0.5
 40
1.0
 40
1.0
 40
1.0
 40
1.0
 10
-180.2481131222467
 20
3.55320569818535
 30
0.0
 10
-179.1884531711964
 20
3.258684898315819
 30
0.0
 10
-178.1161549598513
 20
2.939787030738454
 30
0.0
 10
-175.9571018316842
 20
2.263052494325134
 30
0.0
 10
-174.8752140563752
 20
1.906812304810173
 30
0.0
 10
-173.7911345692418
 20
1.533982200530371
 30
0.0
  0
SPLINE
  5
A2
330
1F
100
AcDbEntity
  8
0
  6
Continuous
 62
     1
370
    15
100
AcDbSpline
210
0.0
220
0.0
230
1.0
 70
     8
 71
     3
 72
    18
 73
    14
 74
     0
 42
0.000000001
 43
0.00000001
 40
0.0
 40
0.0
 40
0.0
 40
0.0
 40
0.2499999999999999
 40
0.2499999999999999
 40
0.3749999999999999
 40
0.3749999999999999
 40
0.4999999999999999
 40
0.4999999999999999
 40
0.6249999999999999
 40
0.6249999999999999
 40
0.7499999999999998
 40
0.7499999999999998
 40
1.0
 40
1.0
 40
1.0
 40
1.0
 10
-178.7864057553648
 20
7.510394028746489
 30
0.0
 10
-178.6767888858583
 20
7.129350201241381
 30
0.0
 10
-178.6015699723495
 20
6.743304616364612
 30
0.0
 10
-178.5671948014133
 20
6.152828472027135
 30
0.0
 10
-178.5692496475862
 20
5.952115498935699
 30
0.0
 10
-178.6088289857276
 20
5.55518329185873
 30
0.0
 10
-178.6458982930019
 20
5.360678166499106
 30
0.0
 10
-178.7622371684427
 20
4.981341400291594
 30
0.0
 10
-178.8418614245321
 20
4.798099401635781
 30
0.0
 10
-179.0391585615355
 20
4.463085354891105
 30
0.0
 10
-179.1593879508047
 20
4.306938866623799
 30
0.0
 10
-179.5667883730017
 20
3.893724953224384
 30
0.0
 10
-179.8996682184447
 20
3.69168974030067
 30
0.0
 10
-180.2481131222467
 20
3.553205698185348
 30
0.0
  0
SPLINE
  5
A3
330
1F
100
AcDbEntity
  8
외형선
  6
Continuous
370
    15
100
AcDbSpline
210
0.0
220
0.0
230
1.0
 70
    24
 71
     3
 72
    14
 73
    10
 74
     0
 42
0.000000001
 43
0.00000001
 40
0.0
 40
0.0
 40
0.0
 40
0.0
 40
0.2500000000000001
 40
0.2500000000000001
 40
0.5000000000000001
 40
0.5000000000000001
 40
0.7500000000000001
 40
0.7500000000000001
 40
1.0
 40
1.0
 40
1.0
 40
1.0
 10
-183.3161345692418
 20
7.937499999291675
 30
0.0
 10
-183.3161345692418
 20
7.32838941777865
 30
0.0
 10
-183.3161345692418
 20
6.715298661084712
 30
0.0
 10
-183.3161345692418
 20
5.610953079129335
 30
0.0
 10
-183.3161345692418
 20
5.121818010763252
 30
0.0
 10
-183.3161345692418
 20
4.337454438133981
 30
0.0
 10
-183.3161345692418
 20
4.041448801175034
 30
0.0
 10
-183.3161345692418
 20
3.628387916418861
 30
0.0
 10
-183.3161345692418
 20
3.5096482681582
 30
0.0
 10
-183.3161345692418
 20
3.452416041457061
 30
0.0
  0
LINE
  5
A5
330
1F
100
AcDbEntity
  8
참조1
100
AcDbLine
 10
-17.37573868667715
 20
0.0010749287238874
 30
0.0
 11
-17.37573868667715
 21
-39.99892507127611
 31
0.0
  0
LINE
  5
A6
330
1F
100
AcDbEntity
  8
참조1
100
AcDbLine
 10
28.66176131332285
 20
0.0010749287238874
 30
0.0
 11
28.66176131332285
 21
4.274726723198786
 31
0.0
  0
LINE
  5
A7
330
1F
100
AcDbEntity
  8
참조1
100
AcDbLine
 10
-17.37573868667715
 20
-39.99892507127611
 30
0.0
 11
-34.91584550098581
 21
-39.9989250712761
 31
0.0
  0
INSERT
  5
A9
330
1F
100
AcDbEntity
  8
0
  6
Continuous
 62
     7
100
AcDbBlockReference
 66
     1
  2
블럭10
 10
-31.31601161880236
 20
-52.04609937292004
 30
0.0
  0
ATTRIB
  5
AA
330
A9
100
AcDbEntity
  8
FORMAT
 62
     2
100
AcDbText
 10
-40.49730690754365
 20
-49.97073246008785
 30
0.0
 40
4.233333333333333
  1
E2110901 [ 2 FLUTE ]
 41
0.75
  7
SLDTEXTSTYLE0
 11
-40.49730690754365
 21
-52.08739912675452
 31
0.0
100
AcDbAttribute
  2
AUTOATTR0
 70
     0
 74
     1
  0
SEQEND
  5
AB
330
A9
100
AcDbEntity
  8
0
  6
Continuous
 62
     7
  0
HATCH
  5
AC
330
1F
100
AcDbEntity
  8
중심선
100
AcDbHatch
 10
0.0
 20
0.0
 30
0.0
210
0.0
220
0.0
230
1.0
  2
SOLID
 70
     1
 71
     0
 91
        1
 92
        0
 93
        4
 72
     1
 10
-25.60110231442151
 20
-35.7989250712761
 11
-29.04737755825879
 21
-35.7989250712761
 72
     1
 10
-29.04737755825879
 20
-35.7989250712761
 11
-31.17560741746281
 21
-38.3352506518487
 72
     1
 10
-31.17560741746281
 20
-38.3352506518487
 11
-27.72929908851238
 21
-38.33521122254621
 72
     1
 10
-27.72929908851238
 20
-38.33521122254621
 11
-25.60110231442151
 21
-35.7989250712761
 97
        0
 75
     0
 76
     1
 98
        1
 10
-14.76250000070831
 20
-0.0000000000000018
  0
HATCH
  5
AD
330
1F
100
AcDbEntity
  8
중심선
100
AcDbHatch
 10
0.0
 20
0.0
 30
0.0
210
0.0
220
0.0
230
1.0
  2
SOLID
 70
     1
 71
     0
 91
        1
 92
        0
 93
        4
 72
     1
 10
-20.58833832338553
 20
-35.7989250712761
 11
-24.03461356722281
 21
-35.7989250712761
 72
     1
 10
-24.03461356722281
 20
-35.7989250712761
 11
-28.56575157558023
 21
-41.19892507127612
 72
     1
 10
-28.56575157558023
 20
-41.19892507127612
 11
-25.11947633174294
 21
-41.19892507127612
 72
     1
 10
-25.11947633174294
 20
-41.19892507127612
 11
-20.58833832338553
 21
-35.7989250712761
 97
        0
 75
     0
 76
     1
 98
        1
 10
-14.76250000070831
 20
-0.0000000000000018
  0
HATCH
  5
AE
330
1F
100
AcDbEntity
  8
중심선
100
AcDbHatch
 10
0.0
 20
0.0
 30
0.0
210
0.0
220
0.0
230
1.0
  2
SOLID
 70
     1
 71
     0
 91
        1
 92
        0
 93
        4
 72
     1
 10
-15.57557433234966
 20
-35.7989250712761
 11
-19.02184957618677
 21
-35.7989250712761
 72
     1
 10
-19.02184957618678
 20
-35.7989250712761
 11
-26.07028647807603
 21
-44.19892507127612
 72
     1
 10
-26.07028647807603
 20
-44.19892507127612
 11
-22.62401123423874
 21
-44.19892507127612
 72
     1
 10
-22.62401123423874
 20
-44.19892507127612
 11
-15.57557433234966
 21
-35.7989250712761
 97
        0
 75
     0
 76
     1
 98
        1
 10
-14.76250000070831
 20
-0.0000000000000018
  0
HATCH
  5
AF
330
1F
100
AcDbEntity
  8
중심선
100
AcDbHatch
 10
0.0
 20
0.0
 30
0.0
210
0.0
220
0.0
230
1.0
  2
SOLID
 70
     1
 71
     0
 91
        1
 92
        0
 93
        6
 72
     3
 10
-10.77568390133746
 20
-39.99892507132738
 11
3.960054785062285
 21
1.540882976769353E-10
 40
0.3939339440162626
 50
17.09539180608436
 51
320.0019657685086
 73
     0
 72
     1
 10
-9.092684245636868
 20
-38.58681907591443
 11
-6.78738237193583
 21
-36.65249236586649
 72
     3
 10
-10.77568390139031
 20
-39.99892507127625
 11
6.600054785286829
 21
-1.278976924368180E-13
 40
0.636358354079598
 50
39.99873849337411
 51
368.4976242363724
 73
     1
 72
     1
 10
-4.350351409489701
 20
-39.03892507120613
 11
-12.09561659455439
 21
-39.03892507120613
 72
     1
 10
-12.09561659455439
 20
-39.03892507120613
 11
-12.09564163900032
 21
-40.95892507120602
 72
     1
 10
-12.09564163900032
 20
-40.95892507120602
 11
-7.654261869528283
 21
-40.95892507120599
 97
        0
 75
     0
 76
     1
 98
        1
 10
-14.76250000070831
 20
-0.0000000000000018
  0
DIMENSION
  5
B0
330
1F
100
AcDbEntity
  8
치수문자_일반주서
100
AcDbDimension
  2
_D
 10
-183.3161345692418
 20
19.8255997794164
 30
0.0
 11
-204.7951345692418
 21
19.8255997794164
 31
0.0
 70
   160
  1
<>
 71
     2
 42
28.57500000000002
  3
SLDDIMSTYLE1
100
AcDbAlignedDimension
 13
-154.7411345692418
 23
7.937499999999991
 33
0.0
 14
-183.3161345692418
 24
7.937499999293367
 34
0.0
100
AcDbRotatedDimension
1001
ACAD
1000
DSTYLE
1002
{
1070
   171
1070
     6
1070
   273
1070
     7
1002
}
  0
DIMENSION
  5
EA
330
1F
100
AcDbEntity
  8
치수문자_일반주서
100
AcDbDimension
  2
_D_3
 10
-142.0911345692417
 20
-7.937499999999957
 30
0.0
 11
-142.0911345692418
 21
28.54150000000005
 31
0.0
 70
   160
  1
%%c<>
 71
     2
 42
15.875
 52
-270.0
  3
SLDDIMSTYLE1
100
AcDbAlignedDimension
 13
-154.7411345692418
 23
7.937499999999991
 33
0.0
 14
-154.7411345692418
 24
-7.937500000000009
 34
0.0
 50
90.0000000000002
100
AcDbRotatedDimension
1001
ACAD
1000
DSTYLE
1002
{
1070
   171
1070
     6
1070
   273
1070
     7
1002
}
  0
LINE
  5
FD
330
1F
100
AcDbEntity
  8
참조1
100
AcDbLine
 10
63.05649512866844
 20
7.441074928723895
 30
0.0
 11
63.05649512866844
 21
-7.438925071276111
 31
0.0
  0
LINE
  5
FE
330
1F
100
AcDbEntity
  8
참조1
100
AcDbLine
 10
75.75649512866845
 20
5.441074928723895
 30
0.0
 11
63.05649512866844
 21
5.441074928723895
 31
0.0
  0
SOLID
  5
FF
330
1F
100
AcDbEntity
  8
참조1
100
AcDbTrace
 10
63.05649512866844
 20
5.441074928723895
 30
0.0
 11
69.40649512866844
 21
4.425074928723895
 31
0.0
 12
69.40649512866844
 22
6.457074928723895
 32
0.0
 13
69.40649512866844
 23
6.457074928723895
 33
0.0
  0
LINE
  5
100
330
1F
100
AcDbEntity
  8
참조1
100
AcDbLine
 10
75.75649512866845
 20
-5.438925071276111
 30
0.0
 11
63.05649512866844
 21
-5.438925071276111
 31
0.0
  0
SOLID
  5
101
330
1F
100
AcDbEntity
  8
참조1
100
AcDbTrace
 10
63.05649512866844
 20
-5.438925071276111
 30
0.0
 11
69.40649512866844
 21
-6.454925071276111
 31
0.0
 12
69.40649512866844
 22
-4.422925071276111
 32
0.0
 13
69.40649512866844
 23
-4.422925071276111
 33
0.0
  0
MTEXT
  5
102
330
1F
100
AcDbEntity
  8
참조1
100
AcDbMText
 10
72.44084526129444
 20
11.01136670591222
 30
0.0
 40
3.5
 41
0.0
 71
     1
 72
     1
  1
A
  7
SLDTEXTSTYLE0
 73
     1
 44
1.0
  0
MTEXT
  5
103
330
1F
100
AcDbEntity
  8
참조1
100
AcDbMText
 10
72.44084526129444
 20
0.1313667059122174
 30
0.0
 40
3.5
 41
0.0
 71
     1
 72
     1
  1
A
  7
SLDTEXTSTYLE0
 73
     1
 44
1.0
  0
LINE
  5
1E3
330
1F
100
AcDbEntity
  8
외형선
  6
Continuous
370
    15
100
AcDbLine
 10
-233.1161345692418
 20
6.349999999999978
 30
0.0
 11
-234.1161345692418
 21
5.349999999999978
 31
0.0
  0
LINE
  5
1E4
330
1F
100
AcDbEntity
  8
외형선
  6
Continuous
370
    15
100
AcDbLine
 10
-234.1161345692418
 20
-5.350000000000017
 30
0.0
 11
-233.1161345692418
 21
-6.350000000000017
 31
0.0
  0
LINE
  5
1E5
330
1F
100
AcDbEntity
  8
외형선
  6
Continuous
370
    15
100
AcDbLine
 10
-233.1161345692418
 20
-6.350000000000017
 30
0.0
 11
-183.3161345692418
 21
-6.350000000000011
 31
0.0
  0
LINE
  5
1E6
330
1F
100
AcDbEntity
  8
외형선
  6
Continuous
370
    15
100
AcDbLine
 10
-233.1161345692418
 20
6.349999999999978
 30
0.0
 11
-233.1161345692418
 21
-6.350000000000011
 31
0.0
  0
LINE
  5
1E7
330
1F
100
AcDbEntity
  8
외형선
  6
Continuous
370
    15
100
AcDbLine
 10
-234.1161345692418
 20
5.349999999999978
 30
0.0
 11
-234.1161345692418
 21
-5.350000000000025
 31
0.0
  0
LINE
  5
1E8
330
1F
100
AcDbEntity
  8
중심선
 48
0.8
100
AcDbLine
 10
-237.1161345692418
 20
-0.000000000000016
 30
0.0
 11
-151.7411345692418
 21
-0.0000000000000089
 31
0.0
  0
CIRCLE
  5
1E9
330
1F
100
AcDbEntity
  8
해칭선
100
AcDbCircle
 10
-185.3161345692418
 20
-0.0000000000000018
 30
0.0
 40
3.000000000000003
  0
DIMENSION
  5
1EA
330
1F
100
AcDbEntity
  8
치수문자_일반주서
100
AcDbDimension
  2
*D13
 10
-234.1161345692418
 20
38.76250000000005
 30
0.0
 11
-196.0161345692418
 21
38.76250000000005
 31
0.0
 70
   160
  1
<>
 71
     2
 42
79.37500000000003
  3
SLDDIMSTYLE1
100
AcDbAlignedDimension
 13
-154.7411345692418
 23
7.937499999999991
 33
0.0
 14
-234.1161345692418
 24
5.349999999999978
 34
0.0
100
AcDbRotatedDimension
1001
ACAD
1000
DSTYLE
1002
{
1070
   171
1070
     6
1070
   273
1070
     7
1002
}
  0
DIMENSION
  5
1EB
330
1F
100
AcDbEntity
  8
치수문자_일반주서
100
AcDbDimension
  2
*D14
 10
-59.71250000070831
 20
-6.350000000000038
 30
0.0
 11
-59.71250000070833
 21
0.0000000000000071
 31
0.0
 70
   160
  1
%%c<>
 71
     2
 42
12.69999999999999
 52
-270.0
  3
SLDDIMSTYLE1
100
AcDbAlignedDimension
 13
-46.21250000070833
 23
6.350000000000001
 33
0.0
 14
-46.21250000070833
 24
-6.349999999999988
 34
0.0
 50
90.0000000000002
100
AcDbRotatedDimension
1001
ACAD
1000
DSTYLE
1002
{
1070
   171
1070
     6
1070
   273
1070
     7
1002
}
  0
INSERT
  5
1EC
330
1F
100
AcDbEntity
  8
해칭선
100
AcDbBlockReference
  2
SW_DOWELSYMBOL_0
 10
-185.3161345692418
 20
-0.0000000000000018
 30
0.0
  0
LINE
  5
1ED
330
1F
100
AcDbEntity
  8
외형선
  6
Continuous
370
    15
100
AcDbLine
 10
-216.0822595692418
 20
4.825999999999977
 30
0.0
 11
-204.9062595692419
 21
4.825999999999977
 31
0.0
  0
LINE
  5
1EE
330
1F
100
AcDbEntity
  8
외형선
  6
Continuous
370
    15
100
AcDbLine
 10
-216.0822595692418
 20
4.825999999999977
 30
0.0
 11
-217.6062595692418
 21
6.349999999999978
 31
0.0
  0
LINE
  5
1EF
330
1F
100
AcDbEntity
  8
외형선
  6
Continuous
370
    15
100
AcDbLine
 10
-204.9062595692418
 20
4.825999999999977
 30
0.0
 11
-203.3822595692418
 21
6.349999999999978
 31
0.0
  0
LINE
  5
1F0
330
1F
100
AcDbEntity
  8
외형선
  6
Continuous
370
    15
100
AcDbLine
 10
-233.1161345692418
 20
6.349999999999978
 30
0.0
 11
-217.6062595692418
 21
6.349999999999978
 31
0.0
  0
LINE
  5
1F1
330
1F
100
AcDbEntity
  8
외형선
  6
Continuous
370
    15
100
AcDbLine
 10
-183.3161345692418
 20
6.349999999999993
 30
0.0
 11
-203.3822595692418
 21
6.349999999999985
 31
0.0
  0
LINE
  5
31D
330
1F
100
AcDbEntity
  8
0
  6
Continuous
 62
     1
370
    15
100
AcDbLine
 10
22.6363074653361
 20
-7.937499999999999
 30
0.0
 11
24.22499999929169
 21
-7.937499999999999
 31
0.0
  0
ARC
  5
31E
330
1F
100
AcDbEntity
  8
0
  6
Continuous
 62
     1
370
    15
100
AcDbCircle
 10
24.22499999929169
 20
0.0
 30
0.0
 40
7.9375
100
AcDbArc
 50
270.0000000000007
 51
0.0
  0
ARC
  5
31F
330
1F
100
AcDbEntity
  8
0
  6
Continuous
 62
     1
370
    15
100
AcDbCircle
 10
24.22499999929169
 20
0.0
 30
0.0
 40
7.9375
100
AcDbArc
 50
0.0
 51
90.0
  0
LINE
  5
320
330
1F
100
AcDbEntity
  8
0
  6
Continuous
 62
     1
370
    15
100
AcDbLine
 10
24.22499999929169
 20
7.9375
 30
0.0
 11
22.6363074653361
 21
7.9375
 31
0.0
  0
SPLINE
  5
32B
330
1F
100
AcDbEntity
  8
0
  6
Continuous
 62
     1
370
    15
100
AcDbSpline
210
0.0
220
0.0
230
1.0
 70
     8
 71
     3
 72
    12
 73
     8
 74
     0
 42
0.000000001
 43
0.00000001
 40
0.0
 40
0.0
 40
0.0
 40
0.0
 40
0.0374546638612566
 40
0.2059202688998291
 40
0.3743428001020688
 40
0.5427399995523413
 40
0.5493435976344151
 40
0.5493435976344151
 40
0.5493435976344151
 40
0.5493435976344151
 10
11.3282228623957
 20
-5.383195858123652
 30
0.0
 10
11.15229074294262
 20
-5.391281409486227
 30
0.0
 10
10.1850416580197
 20
-5.435734589388008
 30
0.0
 10
8.426751904649702
 20
-5.358255401330385
 30
0.0
 10
6.053479032825802
 20
-5.144416365673824
 30
0.0
 10
4.440438287030009
 20
-4.886257456313497
 30
0.0
 10
3.618514947900454
 20
-4.729571475587667
 30
0.0
 10
3.587499999291701
 20
-4.723623386970568
 30
0.0
  0
SPLINE
  5
32D
330
1F
100
AcDbEntity
  8
0
  6
Continuous
 62
     1
370
    15
100
AcDbSpline
210
0.0
220
0.0
230
1.0
 70
     8
 71
     3
 72
    17
 73
    13
 74
     0
 42
0.000000001
 43
0.00000001
 40
0.2500133475811845
 40
0.2500133475811845
 40
0.2500133475811845
 40
0.2500133475811845
 40
0.2550304403948847
 40
0.3400047756536058
 40
0.4250281383540698
 40
0.5100921539489782
 40
0.5950916780991121
 40
0.6885705816857155
 40
0.7820464592145504
 40
0.8755282432497623
 40
0.9690248507451661
 40
1.0
 40
1.0
 40
1.0
 40
1.0
 10
3.587499999291691
 20
-1.461408783401472
 30
0.0
 10
3.629971011239391
 20
-1.485512959688171
 30
0.0
 10
4.391772364575058
 20
-1.917499975492333
 30
0.0
 10
5.873330442598498
 20
-2.744202412689752
 30
0.0
 10
8.032776394345913
 20
-3.880753691439676
 30
0.0
 10
10.19284212502449
 20
-4.921357328442312
 30
0.0
 10
12.42383404031993
 20
-5.87240990560174
 30
0.0
 10
14.7263084476329
 20
-6.691609233311004
 30
0.0
 10
17.10048402256714
 20
-7.341667445951787
 30
0.0
 10
19.47487481388677
 20
-7.756734296005793
 30
0.0
 10
21.32014471919085
 20
-7.947702091471851
 30
0.0
 10
22.37404211343408
 20
-7.918541187992121
 30
0.0
 10
22.6363074653361
 20
-7.911284414557946
 30
0.0
  0
SPLINE
  5
32E
330
1F
100
AcDbEntity
  8
0
  6
Continuous
 62
     1
370
    15
100
AcDbSpline
210
0.0
220
0.0
230
1.0
 70
     8
 71
     3
 72
    20
 73
    16
 74
     0
 42
0.000000001
 43
0.00000001
 40
0.0
 40
0.0
 40
0.0
 40
0.0
 40
0.0625
 40
0.0625
 40
0.1250000000000001
 40
0.1250000000000001
 40
0.1875000000000001
 40
0.1875000000000001
 40
0.2500000000000001
 40
0.2500000000000001
 40
0.3125000000000001
 40
0.3125000000000001
 40
0.3750000000000002
 40
0.3750000000000002
 40
0.4351806640625072
 40
0.4351806640625072
 40
0.4351806640625072
 40
0.4351806640625072
 10
24.22499999929169
 20
-3.318818210147116
 30
0.0
 10
23.66455676243873
 20
-3.024259873268544
 30
0.0
 10
23.10203717601953
 20
-2.72101579263067
 30
0.0
 10
21.97498306241436
 20
-2.102013363419548
 30
0.0
 10
21.41547964631394
 20
-1.787199461580755
 30
0.0
 10
20.29142269420677
 20
-1.149264359834296
 30
0.0
 10
19.72623704401076
 20
-0.8260066865510804
 30
0.0
 10
18.60227279430739
 20
-0.1781875014560139
 30
0.0
 10
18.04269895190276
 20
0.1465185973340759
 30
0.0
 10
16.91562616515955
 20
0.7950915284124136
 30
0.0
 10
16.35324758171711
 20
1.117967444909141
 30
0.0
 10
15.23223156429131
 20
1.755804036176157
 30
0.0
 10
14.66729585287106
 20
2.071948382318844
 30
0.0
 10
13.56216486028938
 20
2.680037612947515
 30
0.0
 10
13.02416061985359
 20
2.972047427410907
 30
0.0
 10
12.48232916894955
 20
3.257161181467461
 30
0.0
  0
SPLINE
  5
32F
330
1F
100
AcDbEntity
  8
0
  6
Continuous
 62
     1
370
    15
100
AcDbSpline
210
0.0
220
0.0
230
1.0
 70
     8
 71
     3
 72
    16
 73
    12
 74
     0
 42
0.000000001
 43
0.00000001
 40
0.0
 40
0.0
 40
0.0
 40
0.0
 40
0.1123451670106045
 40
0.2246799623876728
 40
0.3370091198085732
 40
0.4455231437154002
 40
0.5540470414018998
 40
0.6625922751499469
 40
0.771170248907744
 40
0.8797678759464467
 40
0.9845001459639373
 40
0.9845001459639373
 40
0.9845001459639373
 40
0.9845001459639373
 10
30.03757628697737
 20
0.8318083798088534
 30
0.0
 10
29.21871916949936
 20
1.147368767902224
 30
0.0
 10
27.58108053090563
 20
1.778460411756964
 30
0.0
 10
25.12473822514695
 20
2.661409795310885
 30
0.0
 10
22.69630621863939
 20
3.452442434777215
 30
0.0
 10
20.29573776116072
 20
4.128006760062149
 30
0.0
 10
17.92270479898204
 20
4.673479650075922
 30
0.0
 10
15.54916758731911
 20
5.07885990771576
 30
0.0
 10
13.17501464122543
 20
5.337539276443025
 30
0.0
 10
10.82858593647134
 20
5.420453167880177
 30
0.0
 10
9.273661960742057
 20
5.410274212350102
 30
0.0
 10
8.51030468915716
 20
5.347186746155766
 30
0.0
  0
SPLINE
  5
330
330
1F
100
AcDbEntity
  8
0
  6
Continuous
 62
     1
370
    15
100
AcDbSpline
210
0.0
220
0.0
230
1.0
 70
     8
 71
     3
 72
    32
 73
    28
 74
     0
 42
0.000000001
 43
0.00000001
 40
0.0
 40
0.0
 40
0.0
 40
0.0
 40
0.1249999999999988
 40
0.1249999999999988
 40
0.1874999999999981
 40
0.1874999999999981
 40
0.2499999999999975
 40
0.2499999999999975
 40
0.3749999999999969
 40
0.3749999999999969
 40
0.4374999999999973
 40
0.4374999999999973
 40
0.4999999999999977
 40
0.4999999999999977
 40
0.562499999999998
 40
0.562499999999998
 40
0.6249999999999984
 40
0.6249999999999984
 40
0.6874999999999988
 40
0.6874999999999988
 40
0.7499999999999992
 40
0.7499999999999992
 40
0.8124999999999996
 40
0.8124999999999996
 40
0.8749999999999999
 40
0.8749999999999999
 40
1.0
 40
1.0
 40
1.0
 40
1.0
 10
24.22499999929169
 20
-3.318818210147159
 30
0.0
 10
24.66558812023507
 20
-3.55038297107153
 30
0.0
 10
25.09960908976111
 20
-3.757117574133254
 30
0.0
 10
25.74890932123455
 20
-4.018650329113497
 30
0.0
 10
25.96506667467709
 20
-4.097654212438556
 30
0.0
 10
26.39857042599013
 20
-4.236032712352689
 30
0.0
 10
26.61684058804803
 20
-4.295608885325894
 30
0.0
 10
27.26266423644887
 20
-4.434639506884851
 30
0.0
 10
27.68507623213176
 20
-4.476557865492321
 30
0.0
 10
28.32038834560489
 20
-4.428992345944859
 30
0.0
 10
28.52821000407337
 20
-4.394593696935459
 30
0.0
 10
28.9364074123434
 20
-4.282028323855513
 30
0.0
 10
29.1391709324393
 20
-4.202797816703637
 30
0.0
 10
29.5284083328687
 20
-3.992863502005845
 30
0.0
 10
29.7137968100987
 20
-3.86350400691931
 30
0.0
 10
30.0648752896156
 20
-3.542174033748616
 30
0.0
 10
30.22262800878567
 20
-3.35742443863041
 30
0.0
 10
30.49780783235152
 20
-2.933813071501614
 30
0.0
 10
30.60831605574466
 20
-2.705019077798637
 30
0.0
 10
30.7718600844685
 20
-2.22116206885163
 30
0.0
 10
30.82189101278243
 20
-1.974358269129054
 30
0.0
 10
30.86362834917551
 20
-1.483475037431525
 30
0.0
 10
30.85510311658949
 20
-1.246348441763359
 30
0.0
 10
30.79176652949755
 20
-0.78727402610253
 30
0.0
 10
30.73612817887516
 20
-0.5637003331125072
 30
0.0
 10
30.51741619865825
 20
0.0717456095375617
 30
0.0
 10
30.30145563979491
 20
0.4608481068603982
 30
0.0
 10
30.03757628692648
 20
0.8318083798286278
 30
0.0
  0
SPLINE
  5
331
330
1F
100
AcDbEntity
  8
0
  6
Continuous
 62
     1
370
    15
100
AcDbSpline
210
0.0
220
0.0
230
1.0
 70
     8
 71
     3
 72
    12
 73
     8
 74
     0
 42
0.000000001
 43
0.00000001
 40
0.0
 40
0.0
 40
0.0
 40
0.0
 40
0.2500000000000008
 40
0.2500000000000008
 40
0.5000000000000014
 40
0.5000000000000014
 40
1.0
 40
1.0
 40
1.0
 40
1.0
 10
30.03757628692641
 20
0.831808379828642
 30
0.0
 10
30.12887843174786
 20
0.8868025304355651
 30
0.0
 10
30.21020790345355
 20
0.9549940110446453
 30
0.0
 10
30.35285771227133
 20
1.118533091122652
 30
0.0
 10
30.41464548392642
 20
1.21543410702454
 30
0.0
 10
30.56080652478303
 20
1.533900395325315
 30
0.0
 10
30.60903655133313
 20
1.789712211347759
 30
0.0
 10
30.6134726113386
 20
2.055735033142703
 30
0.0
  0
ARC
  5
332
330
1F
100
AcDbEntity
  8
0
  6
Continuous
 62
     1
370
    15
100
AcDbCircle
 10
28.36492892982991
 20
-1.379798856937763
 30
0.0
 40
4.105951996497864
100
AcDbArc
 50
23.84125036270437
 51
56.79540765092803
  0
ARC
  5
333
330
1F
100
AcDbEntity
  8
0
  6
Continuous
 62
     1
370
    15
100
AcDbCircle
 10
25.01894433749595
 20
0.1437104505317901
 30
0.0
 40
7.102875841401828
100
AcDbArc
 50
1.09818904521919
 51
71.1348682840156
  0
SPLINE
  5
334
330
1F
100
AcDbEntity
  8
0
  6
Continuous
 62
     1
370
    15
100
AcDbSpline
210
0.0
220
0.0
230
1.0
 70
     8
 71
     3
 72
    10
 73
     6
 74
     0
 42
0.000000001
 43
0.00000001
 40
0.0
 40
0.0
 40
0.0
 40
0.0
 40
0.5
 40
0.5
 40
1.0
 40
1.0
 40
1.0
 40
1.0
 10
27.31559959461336
 20
6.865036201328618
 30
0.0
 10
26.82452090974274
 20
7.164378820383384
 30
0.0
 10
26.31938470770137
 20
7.399766225851735
 30
0.0
 10
25.28800950988969
 20
7.741924390268927
 30
0.0
 10
24.75676259173528
 20
7.849150968295
 30
0.0
 10
24.22499999929175
 20
7.884609533580054
 30
0.0
  0
SPLINE
  5
335
330
1F
100
AcDbEntity
  8
0
  6
Continuous
 62
     1
370
    15
100
AcDbSpline
210
0.0
220
0.0
230
1.0
 70
     8
 71
     3
 72
     8
 73
     4
 74
     0
 42
0.000000001
 43
0.00000001
 40
0.0
 40
0.0
 40
0.0
 40
0.0
 40
1.0
 40
1.0
 40
1.0
 40
1.0
 10
25.70552144628678
 20
3.553205698185373
 30
0.0
 10
27.31912573174649
 20
3.104722178207588
 30
0.0
 10
28.96425854908651
 20
2.599471927405762
 30
0.0
 10
30.61347261133866
 20
2.055735033142769
 30
0.0
  0
SPLINE
  5
336
330
1F
100
AcDbEntity
  8
0
  6
Continuous
 62
     1
370
    15
100
AcDbSpline
210
0.0
220
0.0
230
1.0
 70
     8
 71
     3
 72
    13
 73
     9
 74
     0
 42
0.000000001
 43
0.00000001
 40
0.0
 40
0.0
 40
0.0
 40
0.0
 40
0.0793929877039889
 40
0.2634911655196139
 40
0.44758338379036
 40
0.6316872343868986
 40
0.8158202784367785
 40
1.0
 40
1.0
 40
1.0
 40
1.0
 10
11.3282228623957
 20
5.383195858123656
 30
0.0
 10
11.66951171076071
 20
5.53100994048863
 30
0.0
 10
12.80218852561778
 20
6.021578515483853
 30
0.0
 10
14.72630063278156
 20
6.687005639733997
 30
0.0
 10
17.10048714721847
 20
7.341038225565651
 30
0.0
 10
19.47487012983282
 20
7.763856002225392
 30
0.0
 10
21.84968924326752
 20
7.974637836742808
 30
0.0
 10
23.43316285430796
 20
7.914621503324788
 30
0.0
 10
24.22499999929169
 20
7.884609533580061
 30
0.0
  0
SPLINE
  5
337
330
1F
100
AcDbEntity
  8
0
  6
Continuous
 62
     1
370
    15
100
AcDbSpline
210
0.0
220
0.0
230
1.0
 70
     8
 71
     3
 72
    18
 73
    14
 74
     0
 42
0.000000001
 43
0.00000001
 40
0.0
 40
0.0
 40
0.0
 40
0.0
 40
0.2499999999999999
 40
0.2499999999999999
 40
0.3749999999999996
 40
0.3749999999999996
 40
0.4999999999999992
 40
0.4999999999999992
 40
0.6249999999999989
 40
0.6249999999999989
 40
0.7499999999999986
 40
0.7499999999999986
 40
1.0
 40
1.0
 40
1.0
 40
1.0
 10
27.31559959461338
 20
6.865036201328621
 30
0.0
 10
27.37196801102212
 20
6.531827276881188
 30
0.0
 10
27.39734179689244
 20
6.192747789343333
 30
0.0
 10
27.3604807761302
 20
5.677451131588306
 30
0.0
 10
27.33571535125725
 20
5.508545982712793
 30
0.0
 10
27.25689277431213
 20
5.17745017116178
 30
0.0
 10
27.20184253452714
 20
5.013368194308196
 30
0.0
 10
27.06195698761699
 20
4.705335497142539
 30
0.0
 10
26.97752001633684
 20
4.561011474966662
 30
0.0
 10
26.77916843102738
 20
4.292075244864943
 30
0.0
 10
26.66450111394559
 20
4.167426605853063
 30
0.0
 10
26.29439615400656
 20
3.83884015498176
 30
0.0
 10
26.00518401451827
 20
3.67230195491506
 30
0.0
 10
25.70552144628678
 20
3.553205698185366
 30
0.0
  0
LINE
  5
33A
330
1F
100
AcDbEntity
  8
중심선
 48
0.8
100
AcDbLine
 10
-54.21250000070829
 20
-0.0000000000000065
 30
0.0
 11
35.1624999992917
 21
0.0000000000000036
 31
0.0
  0
CIRCLE
  5
33B
330
1F
100
AcDbEntity
  8
해칭선
100
AcDbCircle
 10
0.0
 20
0.0
 30
0.0
 40
3.000000000000003
  0
DIMENSION
  5
33C
330
1F
100
AcDbEntity
  8
치수문자_일반주서
100
AcDbDimension
  2
*D19
 10
3.587499999291694
 20
19.82559977941641
 30
0.0
 11
17.87499999929169
 21
19.82559977941641
 31
0.0
 70
   160
  1
<>
 71
     2
 42
28.575
  3
SLDDIMSTYLE1
100
AcDbAlignedDimension
 13
32.1624999992917
 23
7.937500000000004
 33
0.0
 14
3.587499999291694
 24
7.937500000000001
 34
0.0
 50
0.0000000000000058
100
AcDbRotatedDimension
1001
ACAD
1000
DSTYLE
1002
{
1070
   171
1070
     6
1070
   273
1070
     7
1002
}
  0
DIMENSION
  5
33D
330
1F
100
AcDbEntity
  8
치수문자_일반주서
100
AcDbDimension
  2
*D20
 10
-47.21250000070829
 20
38.76250000000006
 30
0.0
 11
-7.5250000007083
 21
38.76250000000006
 31
0.0
 70
   160
  1
<>
 71
     2
 42
79.37499999999999
  3
SLDDIMSTYLE1
100
AcDbAlignedDimension
 13
32.1624999992917
 23
7.937500000000004
 33
0.0
 14
-47.21250000070829
 24
7.937500000000001
 34
0.0
100
AcDbRotatedDimension
1001
ACAD
1000
DSTYLE
1002
{
1070
   171
1070
     6
1070
   273
1070
     7
1002
}
  0
DIMENSION
  5
33F
330
1F
100
AcDbEntity
  8
치수문자_일반주서
100
AcDbDimension
  2
*D22
 10
44.81249999929182
 20
-7.937499999999943
 30
0.0
 11
44.81249999929169
 21
28.54150000000006
 31
0.0
 70
   160
  1
%%c<>
 71
     2
 42
15.875
 52
-270.0
  3
SLDDIMSTYLE1
100
AcDbAlignedDimension
 13
32.1624999992917
 23
7.937500000000004
 33
0.0
 14
32.1624999992917
 24
-7.937499999999996
 34
0.0
 50
90.0000000000002
100
AcDbRotatedDimension
1001
ACAD
1000
DSTYLE
1002
{
1070
   171
1070
     6
1070
   273
1070
     7
1002
}
  0
INSERT
  5
340
330
1F
100
AcDbEntity
  8
해칭선
100
AcDbBlockReference
  2
SW_DOWELSYMBOL_0
 10
0.0
 20
0.0
 30
0.0
  0
LINE
  5
37C
330
1F
100
AcDbEntity
  8
외형선
  6
Continuous
370
    15
100
AcDbLine
 10
3.587499999291694
 20
7.937500000000001
 30
0.0
 11
3.587499999291694
 21
-7.937500000000001
 31
0.0
  0
LINE
  5
37E
330
1F
100
AcDbEntity
  8
외형선
  6
Continuous
370
    15
100
AcDbLine
 10
3.587499999291683
 20
-7.937499999293364
 30
0.0
 11
3.587499999291683
 21
-2.46581714322922
 31
0.0
  0
SPLINE
  5
37F
330
1F
100
AcDbEntity
  8
외형선
  6
Continuous
370
    15
100
AcDbSpline
210
0.0
220
0.0
230
1.0
 70
    24
 71
     3
 72
    16
 73
    12
 74
     0
 42
0.000000001
 43
0.00000001
 40
0.0
 40
0.0
 40
0.0
 40
0.0
 40
0.2500000000000001
 40
0.2500000000000001
 40
0.5
 40
0.5
 40
0.75
 40
0.75
 40
0.875
 40
0.875
 40
1.0
 40
1.0
 40
1.0
 40
1.0
 10
3.587499999291712
 20
3.452416041457079
 30
0.0
 10
3.587499999291712
 20
2.991666242492713
 30
0.0
 10
3.587499999291712
 20
2.471830132509382
 30
0.0
 10
3.587499999291712
 20
1.355097024775598
 30
0.0
 10
3.587499999291712
 20
0.75795875764729
 30
0.0
 10
3.587499999291712
 20
-0.4000358843796158
 30
0.0
 10
3.587499999291712
 20
-0.9581155061592456
 30
0.0
 10
3.587499999291712
 20
-1.650914618847928
 30
0.0
 10
3.587499999291712
 20
-1.857794754020999
 30
0.0
 10
3.587499999291712
 20
-2.209779746787674
 30
0.0
 10
3.587499999291712
 20
-2.354820224583209
 30
0.0
 10
3.587499999291712
 20
-2.465817143227787
 30
0.0
  0
SPLINE
  5
380
330
1F
100
AcDbEntity
  8
외형선
  6
Continuous
370
    15
100
AcDbSpline
210
0.0
220
0.0
230
1.0
 70
    24
 71
     3
 72
    14
 73
    10
 74
     0
 42
0.000000001
 43
0.00000001
 40
0.0
 40
0.0
 40
0.0
 40
0.0
 40
0.2500000000000001
 40
0.2500000000000001
 40
0.5000000000000001
 40
0.5000000000000001
 40
0.7500000000000001
 40
0.7500000000000001
 40
1.0
 40
1.0
 40
1.0
 40
1.0
 10
3.587499999291683
 20
7.937499999291698
 30
0.0
 10
3.587499999291683
 20
7.328389417778673
 30
0.0
 10
3.587499999291683
 20
6.715298661084735
 30
0.0
 10
3.587499999291683
 20
5.610953079129358
 30
0.0
 10
3.587499999291683
 20
5.121818010763275
 30
0.0
 10
3.587499999291683
 20
4.337454438134004
 30
0.0
 10
3.587499999291683
 20
4.041448801175057
 30
0.0
 10
3.587499999291683
 20
3.628387916418884
 30
0.0
 10
3.587499999291683
 20
3.509648268158224
 30
0.0
 10
3.587499999291683
 20
3.452416041457084
 30
0.0
  0
LINE
  5
381
330
1F
100
AcDbEntity
  8
외형선
  6
Continuous
370
    15
100
AcDbLine
 10
-46.2125000007083
 20
6.350000000000001
 30
0.0
 11
-47.2125000007083
 21
5.350000000000001
 31
0.0
  0
LINE
  5
382
330
1F
100
AcDbEntity
  8
외형선
  6
Continuous
370
    15
100
AcDbLine
 10
-47.2125000007083
 20
-5.349999999999994
 30
0.0
 11
-46.2125000007083
 21
-6.349999999999994
 31
0.0
  0
LINE
  5
383
330
1F
100
AcDbEntity
  8
외형선
  6
Continuous
370
    15
100
AcDbLine
 10
-46.2125000007083
 20
-6.349999999999994
 30
0.0
 11
1.999999999999968
 21
-6.349999999999988
 31
0.0
  0
LINE
  5
384
330
1F
100
AcDbEntity
  8
외형선
  6
Continuous
370
    15
100
AcDbLine
 10
-46.2125000007083
 20
6.350000000000001
 30
0.0
 11
-46.2125000007083
 21
-6.349999999999988
 31
0.0
  0
LINE
  5
385
330
1F
100
AcDbEntity
  8
외형선
  6
Continuous
370
    15
100
AcDbLine
 10
-47.2125000007083
 20
5.350000000000001
 30
0.0
 11
-47.2125000007083
 21
-5.350000000000001
 31
0.0
  0
LINE
  5
388
330
1F
100
AcDbEntity
  8
외형선
  6
Continuous
370
    15
100
AcDbLine
 10
-29.17862500070828
 20
4.826000000000001
 30
0.0
 11
-18.0026250007084
 21
4.826000000000001
 31
0.0
  0
LINE
  5
389
330
1F
100
AcDbEntity
  8
외형선
  6
Continuous
370
    15
100
AcDbLine
 10
-29.17862500070828
 20
4.826000000000001
 30
0.0
 11
-30.70262500070828
 21
6.350000000000001
 31
0.0
  0
LINE
  5
38A
330
1F
100
AcDbEntity
  8
외형선
  6
Continuous
370
    15
100
AcDbLine
 10
-18.00262500070829
 20
4.826000000000001
 30
0.0
 11
-16.47862500070829
 21
6.350000000000001
 31
0.0
  0
LINE
  5
38B
330
1F
100
AcDbEntity
  8
외형선
  6
Continuous
370
    15
100
AcDbLine
 10
-46.2125000007083
 20
6.350000000000001
 30
0.0
 11
-30.70262500070828
 21
6.350000000000001
 31
0.0
  0
LINE
  5
38C
330
1F
100
AcDbEntity
  8
외형선
  6
Continuous
370
    15
100
AcDbLine
 10
2.0
 20
6.350000000000015
 30
0.0
 11
-16.47862500070829
 21
6.350000000000009
 31
0.0
  0
SPLINE
  5
38D
330
1F
100
AcDbEntity
  8
0
  6
Continuous
 62
     1
370
    15
100
AcDbSpline
210
0.0
220
0.0
230
1.0
 70
  1080
 71
     3
 72
     8
 73
     4
 74
     2
 42
0.000000001
 43
0.0000000001
 44
0.0
 40
0.0
 40
0.0
 40
0.0
 40
0.0
 40
10.05104757759275
 40
10.05104757759275
 40
10.05104757759275
 40
10.05104757759275
 10
3.587499999291683
 20
7.937499999291698
 30
0.0
 10
6.552443055844368
 20
6.37738706001692
 30
0.0
 10
9.517386112397054
 20
4.817274120742141
 30
0.0
 10
12.48232916894974
 20
3.257161181467362
 30
0.0
 11
3.587499999291683
 21
7.937499999291698
 31
0.0
 11
12.48232916894974
 21
3.257161181467362
 31
0.0
  0
SPLINE
  5
38E
330
1F
100
AcDbEntity
  8
0
  6
Continuous
 62
     1
370
    15
100
AcDbSpline
210
0.0
220
0.0
230
1.0
 70
     8
 71
     3
 72
     9
 73
     5
 74
     0
 42
0.000000001
 43
0.0000000001
 40
0.0
 40
0.0
 40
0.0
 40
0.0
 40
6.544818797452605
 40
7.698503051174854
 40
7.698503051174854
 40
7.698503051174854
 40
7.698503051174854
 10
3.587499999291694
 20
-7.937500000000001
 30
0.0
 10
5.718171995346673
 20
-7.390956542868273
 30
0.0
 10
8.224426999544264
 20
-6.748071445122564
 30
0.0
 10
10.50225078089868
 20
-5.585850106565891
 30
0.0
 10
10.83993927926311
 20
-5.403355653693456
 30
0.0
  0
LINE
  5
38F
330
1F
100
AcDbEntity
  8
외형선
  6
Continuous
370
    15
100
AcDbLine
 10
3.587499999291683
 20
7.937499999291697
 30
0.0
 11
2.0
 21
6.350000000000015
 31
0.0
  0
LINE
  5
390
330
1F
100
AcDbEntity
  8
외형선
  6
Continuous
370
    15
100
AcDbLine
 10
3.587499999291683
 20
-7.937499999291697
 30
0.0
 11
2.0
 21
-6.350000000000015
 31
0.0
  0
LINE
  5
391
330
1F
100
AcDbEntity
  8
외형선
  6
Continuous
370
    15
100
AcDbLine
 10
2.0
 20
-6.350000000000015
 30
0.0
 11
2.0
 21
6.350000000000015
 31
0.0
  0
ENDSEC
  0
SECTION
  2
OBJECTS
  0
DICTIONARY
  5
C
330
0
100
AcDbDictionary
281
     1
  3
ACAD_GROUP
350
D
  3
ACAD_IMAGE_VARS
350
12E
  3
ACAD_LAYOUT
350
1A
  3
ACAD_MLINESTYLE
350
17
  3
ACAD_PLOTSETTINGS
350
19
  3
ACAD_PLOTSTYLENAME
350
E
  3
ACAD_SCALELIST
350
47
  3
APPDATA
350
12C
  3
DWGPROPS
350
3B7
  0
DICTIONARY
  5
1B2
330
2
100
AcDbDictionary
280
     1
281
     1
  3
ACAD_LAYERSTATES
360
1B3
  0
DICTIONARY
  5
D
102
{ACAD_REACTORS
330
C
102
}
330
C
100
AcDbDictionary
281
     1
  0
RASTERVARIABLES
  5
12E
102
{ACAD_REACTORS
330
C
102
}
330
C
100
AcDbRasterVariables
 90
        0
 70
     1
 71
     1
 72
     1
  0
DICTIONARY
  5
1A
102
{ACAD_REACTORS
330
C
102
}
330
C
100
AcDbDictionary
281
     1
  3
Layout1
350
1E
  3
Layout2
350
26
  3
Model
350
22
  0
DICTIONARY
  5
17
102
{ACAD_REACTORS
330
C
102
}
330
C
100
AcDbDictionary
281
     1
  3
Standard
350
18
  0
DICTIONARY
  5
19
102
{ACAD_REACTORS
330
C
102
}
330
C
100
AcDbDictionary
281
     1
  0
ACDBDICTIONARYWDFLT
  5
E
102
{ACAD_REACTORS
330
C
102
}
330
C
100
AcDbDictionary
281
     1
  3
Normal
350
F
100
AcDbDictionaryWithDefault
340
F
  0
DICTIONARY
  5
47
102
{ACAD_REACTORS
330
C
102
}
330
C
100
AcDbDictionary
281
     1
  3
A0
350
48
  3
A1
350
49
  3
A2
350
4A
  3
A3
350
4B
  3
A4
350
4C
  3
A5
350
4D
  3
A6
350
4E
  3
A7
350
4F
  3
A8
350
50
  3
A9
350
51
  3
B0
350
52
  3
B1
350
53
  3
B2
350
54
  3
B3
350
55
  3
B4
350
56
  3
B5
350
57
  3
B6
350
58
  3
B7
350
59
  3
B8
350
5A
  3
B9
350
5B
  3
C0
350
5C
  3
C1
350
5D
  3
C2
350
5E
  3
C3
350
5F
  3
C4
350
60
  3
C5
350
61
  3
C6
350
62
  3
C7
350
63
  3
C8
350
64
  3
C9
350
65
  3
D0
350
66
  3
D1
350
67
  3
D2
350
68
  0
DICTIONARY
  5
12C
102
{ACAD_REACTORS
330
C
102
}
330
C
100
AcDbDictionary
281
     1
  0
XRECORD
  5
3B7
102
{ACAD_REACTORS
330
C
102
}
330
C
100
AcDbXrecord
280
     1
  1
DWGPROPS COOKIE
  2

  3

  4

  6

  7

  8
12016016
  9

300
=
301
=
302
=
303
=
304
=
305
=
306
=
307
=
308
=
309
=
 40
0.0
 41
2458316.208877743
 42
2458320.365357396
  1

 90
        0
  0
DICTIONARY
  5
1B3
102
{ACAD_REACTORS
330
1B2
102
}
330
1B2
100
AcDbDictionary
281
     1
  0
LAYOUT
  5
1E
102
{ACAD_REACTORS
330
1A
102
}
330
1A
100
AcDbPlotSettings
  1

  2
none_device
  4

  6

 40
0.0
 41
0.0
 42
0.0
 43
0.0
 44
0.0
 45
0.0
 46
0.0
 47
0.0
 48
0.0
 49
0.0
140
0.0
141
0.0
142
1.0
143
1.0
 70
   688
 72
     1
 73
     0
 74
     5
  7

 75
    16
147
1.0
148
0.0
149
0.0
100
AcDbLayout
  1
Layout1
 70
     1
 71
     1
 10
0.0
 20
0.0
 11
420.0
 21
297.0
 12
0.0
 22
0.0
 32
0.0
 14
1.000000000000000E+20
 24
1.000000000000000E+20
 34
1.000000000000000E+20
 15
-1.000000000000000E+20
 25
-1.000000000000000E+20
 35
-1.000000000000000E+20
146
0.0
 13
0.0
 23
0.0
 33
0.0
 16
1.0
 26
0.0
 36
0.0
 17
0.0
 27
1.0
 37
0.0
 76
     0
330
1B
  0
LAYOUT
  5
26
102
{ACAD_REACTORS
330
1A
102
}
330
1A
100
AcDbPlotSettings
  1

  2
none_device
  4

  6

 40
0.0
 41
0.0
 42
0.0
 43
0.0
 44
0.0
 45
0.0
 46
0.0
 47
0.0
 48
0.0
 49
0.0
140
0.0
141
0.0
142
1.0
143
1.0
 70
   688
 72
     1
 73
     0
 74
     5
  7

 75
    16
147
1.0
148
0.0
149
0.0
100
AcDbLayout
  1
Layout2
 70
     1
 71
     2
 10
0.0
 20
0.0
 11
0.0
 21
0.0
 12
0.0
 22
0.0
 32
0.0
 14
0.0
 24
0.0
 34
0.0
 15
0.0
 25
0.0
 35
0.0
146
0.0
 13
0.0
 23
0.0
 33
0.0
 16
1.0
 26
0.0
 36
0.0
 17
0.0
 27
1.0
 37
0.0
 76
     0
330
23
  0
LAYOUT
  5
22
102
{ACAD_REACTORS
330
1A
102
}
330
1A
100
AcDbPlotSettings
  1

  2
none_device
  4
ANSI_A_(11.00_x_8.50_Inches)
  6

 40
6.35
 41
19.05
 42
6.35000508
 43
19.05000254
 44
279.4
 45
215.9
 46
117.5369438383043
 47
76.60220857283022
 48
0.0
 49
0.0
140
0.0
141
0.0
142
0.0670308056064505
143
1.0
 70
  1696
 72
     0
 73
     0
 74
     0
  7

 75
     0
147
0.0235690232323232
148
0.0
149
0.0
100
AcDbLayout
  1
Model
 70
     1
 71
     0
 10
0.0
 20
0.0
 11
420.0
 21
297.0
 12
0.0
 22
0.0
 32
0.0
 14
-237.1161345692418
 24
-49.97073246008785
 34
0.0
 15
75.75649512866845
 25
43.13750000000006
 35
0.0
146
0.0
 13
0.0
 23
0.0
 33
0.0
 16
1.0
 26
0.0
 36
0.0
 17
0.0
 27
1.0
 37
0.0
 76
     0
330
1F
331
29
  0
MLINESTYLE
  5
18
102
{ACAD_REACTORS
330
17
102
}
330
17
100
AcDbMlineStyle
  2
Standard
 70
     0
  3

 62
   256
 51
90.0
 52
90.0
 71
     2
 49
0.5
 62
   256
  6
BYLAYER
 49
-0.5
 62
   256
  6
BYLAYER
  0
ACDBPLACEHOLDER
  5
F
102
{ACAD_REACTORS
330
E
102
}
330
E
  0
SCALE
  5
48
102
{ACAD_REACTORS
330
47
102
}
330
47
100
AcDbScale
 70
     0
300
1:1
140
1.0
141
1.0
290
     1
  0
SCALE
  5
49
102
{ACAD_REACTORS
330
47
102
}
330
47
100
AcDbScale
 70
     0
300
1:2
140
1.0
141
2.0
290
     0
  0
SCALE
  5
4A
102
{ACAD_REACTORS
330
47
102
}
330
47
100
AcDbScale
 70
     0
300
1:4
140
1.0
141
4.0
290
     0
  0
SCALE
  5
4B
102
{ACAD_REACTORS
330
47
102
}
330
47
100
AcDbScale
 70
     0
300
1:5
140
1.0
141
5.0
290
     0
  0
SCALE
  5
4C
102
{ACAD_REACTORS
330
47
102
}
330
47
100
AcDbScale
 70
     0
300
1:8
140
1.0
141
8.0
290
     0
  0
SCALE
  5
4D
102
{ACAD_REACTORS
330
47
102
}
330
47
100
AcDbScale
 70
     0
300
1:10
140
1.0
141
10.0
290
     0
  0
SCALE
  5
4E
102
{ACAD_REACTORS
330
47
102
}
330
47
100
AcDbScale
 70
     0
300
1:16
140
1.0
141
16.0
290
     0
  0
SCALE
  5
4F
102
{ACAD_REACTORS
330
47
102
}
330
47
100
AcDbScale
 70
     0
300
1:20
140
1.0
141
20.0
290
     0
  0
SCALE
  5
50
102
{ACAD_REACTORS
330
47
102
}
330
47
100
AcDbScale
 70
     0
300
1:30
140
1.0
141
30.0
290
     0
  0
SCALE
  5
51
102
{ACAD_REACTORS
330
47
102
}
330
47
100
AcDbScale
 70
     0
300
1:40
140
1.0
141
40.0
290
     0
  0
SCALE
  5
52
102
{ACAD_REACTORS
330
47
102
}
330
47
100
AcDbScale
 70
     0
300
1:50
140
1.0
141
50.0
290
     0
  0
SCALE
  5
53
102
{ACAD_REACTORS
330
47
102
}
330
47
100
AcDbScale
 70
     0
300
1:100
140
1.0
141
100.0
290
     0
  0
SCALE
  5
54
102
{ACAD_REACTORS
330
47
102
}
330
47
100
AcDbScale
 70
     0
300
2:1
140
2.0
141
1.0
290
     0
  0
SCALE
  5
55
102
{ACAD_REACTORS
330
47
102
}
330
47
100
AcDbScale
 70
     0
300
4:1
140
4.0
141
1.0
290
     0
  0
SCALE
  5
56
102
{ACAD_REACTORS
330
47
102
}
330
47
100
AcDbScale
 70
     0
300
8:1
140
8.0
141
1.0
290
     0
  0
SCALE
  5
57
102
{ACAD_REACTORS
330
47
102
}
330
47
100
AcDbScale
 70
     0
300
10:1
140
10.0
141
1.0
290
     0
  0
SCALE
  5
58
102
{ACAD_REACTORS
330
47
102
}
330
47
100
AcDbScale
 70
     0
300
100:1
140
100.0
141
1.0
290
     0
  0
SCALE
  5
59
102
{ACAD_REACTORS
330
47
102
}
330
47
100
AcDbScale
 70
     0
300
1/128" = 1'-0"
140
0.0078125
141
12.0
290
     0
  0
SCALE
  5
5A
102
{ACAD_REACTORS
330
47
102
}
330
47
100
AcDbScale
 70
     0
300
1/64" = 1'-0"
140
0.015625
141
12.0
290
     0
  0
SCALE
  5
5B
102
{ACAD_REACTORS
330
47
102
}
330
47
100
AcDbScale
 70
     0
300
1/32" = 1'-0"
140
0.03125
141
12.0
290
     0
  0
SCALE
  5
5C
102
{ACAD_REACTORS
330
47
102
}
330
47
100
AcDbScale
 70
     0
300
1/16" = 1'-0"
140
0.0625
141
12.0
290
     0
  0
SCALE
  5
5D
102
{ACAD_REACTORS
330
47
102
}
330
47
100
AcDbScale
 70
     0
300
3/32" = 1'-0"
140
0.09375
141
12.0
290
     0
  0
SCALE
  5
5E
102
{ACAD_REACTORS
330
47
102
}
330
47
100
AcDbScale
 70
     0
300
1/8" = 1'-0"
140
0.125
141
12.0
290
     0
  0
SCALE
  5
5F
102
{ACAD_REACTORS
330
47
102
}
330
47
100
AcDbScale
 70
     0
300
3/16" = 1'-0"
140
0.1875
141
12.0
290
     0
  0
SCALE
  5
60
102
{ACAD_REACTORS
330
47
102
}
330
47
100
AcDbScale
 70
     0
300
1/4" = 1'-0"
140
0.25
141
12.0
290
     0
  0
SCALE
  5
61
102
{ACAD_REACTORS
330
47
102
}
330
47
100
AcDbScale
 70
     0
300
3/8" = 1'-0"
140
0.375
141
12.0
290
     0
  0
SCALE
  5
62
102
{ACAD_REACTORS
330
47
102
}
330
47
100
AcDbScale
 70
     0
300
1/2" = 1'-0"
140
0.5
141
12.0
290
     0
  0
SCALE
  5
63
102
{ACAD_REACTORS
330
47
102
}
330
47
100
AcDbScale
 70
     0
300
3/4" = 1'-0"
140
0.75
141
12.0
290
     0
  0
SCALE
  5
64
102
{ACAD_REACTORS
330
47
102
}
330
47
100
AcDbScale
 70
     0
300
1" = 1'-0"
140
1.0
141
12.0
290
     0
  0
SCALE
  5
65
102
{ACAD_REACTORS
330
47
102
}
330
47
100
AcDbScale
 70
     0
300
1-1/2" = 1'-0"
140
1.5
141
12.0
290
     0
  0
SCALE
  5
66
102
{ACAD_REACTORS
330
47
102
}
330
47
100
AcDbScale
 70
     0
300
3" = 1'-0"
140
3.0
141
12.0
290
     0
  0
SCALE
  5
67
102
{ACAD_REACTORS
330
47
102
}
330
47
100
AcDbScale
 70
     0
300
6" = 1'-0"
140
6.0
141
12.0
290
     0
  0
SCALE
  5
68
102
{ACAD_REACTORS
330
47
102
}
330
47
100
AcDbScale
 70
     0
300
1'-0" = 1'-0"
140
12.0
141
12.0
290
     0
  0
ENDSEC
  0
EOF
