  0
SECTION
  2
HEADER
  9
$ACADVER
  1
AC1015
  9
$ACADMAINTVER
 70
     6
  9
$DWGCODEPAGE
  3
ANSI_949
  9
$INSBASE
 10
0.0
 20
0.0
 30
0.0
  9
$EXTMIN
 10
-61.96250000000007
 20
-50.13877209681861
 30
0.0
  9
$EXTMAX
 10
223.6324207285164
 20
43.13750000000005
 30
0.0
  9
$LIMMIN
 10
0.0
 20
0.0
  9
$LIMMAX
 10
420.0
 20
297.0
  9
$ORTHOMODE
 70
     1
  9
$REGENMODE
 70
     1
  9
$FILLMODE
 70
     1
  9
$QTEXTMODE
 70
     0
  9
$MIRRTEXT
 70
     1
  9
$LTSCALE
 40
1.0
  9
$ATTMODE
 70
     1
  9
$TEXTSIZE
 40
3.5
  9
$TRACEWID
 40
1.0
  9
$TEXTSTYLE
  7
Standard
  9
$CLAYER
  8
0
  9
$CELTYPE
  6
ByLayer
  9
$CECOLOR
 62
   256
  9
$CELTSCALE
 40
1.0
  9
$DISPSILH
 70
     0
  9
$DIMSCALE
 40
1.0
  9
$DIMASZ
 40
3.302
  9
$DIMEXO
 40
1.0
  9
$DIMDLI
 40
3.75
  9
$DIMRND
 40
0.0
  9
$DIMDLE
 40
0.0
  9
$DIMEXE
 40
1.0
  9
$DIMTP
 40
0.0
  9
$DIMTM
 40
0.0
  9
$DIMTXT
 40
3.5
  9
$DIMCEN
 40
2.5
  9
$DIMTSZ
 40
0.0
  9
$DIMTOL
 70
     0
  9
$DIMLIM
 70
     0
  9
$DIMTIH
 70
     1
  9
$DIMTOH
 70
     1
  9
$DIMSE1
 70
     0
  9
$DIMSE2
 70
     0
  9
$DIMTAD
 70
     1
  9
$DIMZIN
 70
     0
  9
$DIMBLK
  1

  9
$DIMASO
 70
     1
  9
$DIMSHO
 70
     1
  9
$DIMPOST
  1

  9
$DIMAPOST
  1

  9
$DIMALT
 70
     0
  9
$DIMALTD
 70
     3
  9
$DIMALTF
 40
0.0393700787401575
  9
$DIMLFAC
 40
1.0
  9
$DIMTOFL
 70
     1
  9
$DIMTVP
 40
0.0
  9
$DIMTIX
 70
     0
  9
$DIMSOXD
 70
     0
  9
$DIMSAH
 70
     0
  9
$DIMBLK1
  1

  9
$DIMBLK2
  1

  9
$DIMSTYLE
  2
ISO-25
  9
$DIMCLRD
 70
     0
  9
$DIMCLRE
 70
     0
  9
$DIMCLRT
 70
     0
  9
$DIMTFAC
 40
1.0
  9
$DIMGAP
 40
1.524
  9
$DIMJUST
 70
     0
  9
$DIMSD1
 70
     0
  9
$DIMSD2
 70
     0
  9
$DIMTOLJ
 70
     0
  9
$DIMTZIN
 70
     0
  9
$DIMALTZ
 70
     0
  9
$DIMALTTZ
 70
     0
  9
$DIMUPT
 70
     0
  9
$DIMDEC
 70
     2
  9
$DIMTDEC
 70
     2
  9
$DIMALTU
 70
     2
  9
$DIMALTTD
 70
     3
  9
$DIMTXSTY
  7
Standard
  9
$DIMAUNIT
 70
     0
  9
$DIMADEC
 70
     2
  9
$DIMALTRND
 40
0.0
  9
$DIMAZIN
 70
     0
  9
$DIMDSEP
 70
    44
  9
$DIMATFIT
 70
     3
  9
$DIMFRAC
 70
     0
  9
$DIMLDRBLK
  1

  9
$DIMLUNIT
 70
     2
  9
$DIMLWD
 70
    -2
  9
$DIMLWE
 70
    -2
  9
$DIMTMOVE
 70
     0
  9
$LUNITS
 70
     2
  9
$LUPREC
 70
     2
  9
$SKETCHINC
 40
1.0
  9
$FILLETRAD
 40
10.0
  9
$AUNITS
 70
     0
  9
$AUPREC
 70
     2
  9
$MENU
  1
.
  9
$ELEVATION
 40
0.0
  9
$PELEVATION
 40
0.0
  9
$THICKNESS
 40
0.0
  9
$LIMCHECK
 70
     0
  9
$CHAMFERA
 40
0.0
  9
$CHAMFERB
 40
0.0
  9
$CHAMFERC
 40
0.0
  9
$CHAMFERD
 40
0.0
  9
$SKPOLY
 70
     0
  9
$TDCREATE
 40
2458316.584512778
  9
$TDUCREATE
 40
2458316.209512778
  9
$TDUPDATE
 40
2458320.740194583
  9
$TDUUPDATE
 40
2458320.365194583
  9
$TDINDWG
 40
0.0040213426
  9
$TDUSRTIMER
 40
2458320.365154074
  9
$USRTIMER
 70
     1
  9
$ANGBASE
 50
0.0
  9
$ANGDIR
 70
     0
  9
$PDMODE
 70
     0
  9
$PDSIZE
 40
-1.0
  9
$PLINEWID
 40
0.0
  9
$SPLFRAME
 70
     0
  9
$SPLINETYPE
 70
     6
  9
$SPLINESEGS
 70
     8
  9
$HANDSEED
  5
3EA
  9
$SURFTAB1
 70
     6
  9
$SURFTAB2
 70
     6
  9
$SURFTYPE
 70
     6
  9
$SURFU
 70
     6
  9
$SURFV
 70
     6
  9
$UCSBASE
  2

  9
$UCSNAME
  2

  9
$UCSORG
 10
0.0
 20
0.0
 30
0.0
  9
$UCSXDIR
 10
1.0
 20
0.0
 30
0.0
  9
$UCSYDIR
 10
0.0
 20
1.0
 30
0.0
  9
$UCSORTHOREF
  2

  9
$UCSORTHOVIEW
 70
     0
  9
$UCSORGTOP
 10
0.0
 20
0.0
 30
0.0
  9
$UCSORGBOTTOM
 10
0.0
 20
0.0
 30
0.0
  9
$UCSORGLEFT
 10
0.0
 20
0.0
 30
0.0
  9
$UCSORGRIGHT
 10
0.0
 20
0.0
 30
0.0
  9
$UCSORGFRONT
 10
0.0
 20
0.0
 30
0.0
  9
$UCSORGBACK
 10
0.0
 20
0.0
 30
0.0
  9
$PUCSBASE
  2

  9
$PUCSNAME
  2

  9
$PUCSORG
 10
0.0
 20
0.0
 30
0.0
  9
$PUCSXDIR
 10
1.0
 20
0.0
 30
0.0
  9
$PUCSYDIR
 10
0.0
 20
1.0
 30
0.0
  9
$PUCSORTHOREF
  2

  9
$PUCSORTHOVIEW
 70
     0
  9
$PUCSORGTOP
 10
0.0
 20
0.0
 30
0.0
  9
$PUCSORGBOTTOM
 10
0.0
 20
0.0
 30
0.0
  9
$PUCSORGLEFT
 10
0.0
 20
0.0
 30
0.0
  9
$PUCSORGRIGHT
 10
0.0
 20
0.0
 30
0.0
  9
$PUCSORGFRONT
 10
0.0
 20
0.0
 30
0.0
  9
$PUCSORGBACK
 10
0.0
 20
0.0
 30
0.0
  9
$USERI1
 70
     0
  9
$USERI2
 70
     0
  9
$USERI3
 70
     0
  9
$USERI4
 70
     0
  9
$USERI5
 70
     0
  9
$USERR1
 40
0.0
  9
$USERR2
 40
0.0
  9
$USERR3
 40
0.0
  9
$USERR4
 40
0.0
  9
$USERR5
 40
0.0
  9
$WORLDVIEW
 70
     1
  9
$SHADEDGE
 70
     3
  9
$SHADEDIF
 70
    70
  9
$TILEMODE
 70
     1
  9
$MAXACTVP
 70
    64
  9
$PINSBASE
 10
0.0
 20
0.0
 30
0.0
  9
$PLIMCHECK
 70
     0
  9
$PEXTMIN
 10
1.000000000000000E+20
 20
1.000000000000000E+20
 30
1.000000000000000E+20
  9
$PEXTMAX
 10
-1.000000000000000E+20
 20
-1.000000000000000E+20
 30
-1.000000000000000E+20
  9
$PLIMMIN
 10
0.0
 20
0.0
  9
$PLIMMAX
 10
0.0
 20
0.0
  9
$UNITMODE
 70
     0
  9
$VISRETAIN
 70
     1
  9
$PLINEGEN
 70
     0
  9
$PSLTSCALE
 70
     1
  9
$TREEDEPTH
 70
  3020
  9
$CMLSTYLE
  2
Standard
  9
$CMLJUST
 70
     0
  9
$CMLSCALE
 40
20.0
  9
$PROXYGRAPHICS
 70
     1
  9
$MEASUREMENT
 70
     1
  9
$CELWEIGHT
370
    -1
  9
$ENDCAPS
280
     0
  9
$JOINSTYLE
280
     0
  9
$LWDISPLAY
290
     1
  9
$INSUNITS
 70
     4
  9
$HYPERLINKBASE
  1

  9
$STYLESHEET
  1

  9
$XEDIT
290
     1
  9
$CEPSNTYPE
380
     0
  9
$PSTYLEMODE
290
     1
  9
$FINGERPRINTGUID
  2
{F0F5CD5E-841A-4E8F-B93A-29C5292A8F51}
  9
$VERSIONGUID
  2
{FAEB1C32-E019-11D5-929B-00C0DF256EC4}
  9
$EXTNAMES
290
     1
  9
$PSVPSCALE
 40
0.0
  9
$OLESTARTUP
290
     0
  0
ENDSEC
  0
SECTION
  2
CLASSES
  0
CLASS
  1
ACDBDICTIONARYWDFLT
  2
AcDbDictionaryWithDefault
  3
ObjectDBX Classes
 90
        0
280
     0
281
     0
  0
CLASS
  1
VISUALSTYLE
  2
AcDbVisualStyle
  3
ObjectDBX Classes
 90
     4095
280
     0
281
     0
  0
CLASS
  1
MATERIAL
  2
AcDbMaterial
  3
ObjectDBX Classes
 90
     1153
280
     0
281
     0
  0
CLASS
  1
SCALE
  2
AcDbScale
  3
ObjectDBX Classes
 90
     1153
280
     0
281
     0
  0
CLASS
  1
SUN
  2
AcDbSun
  3
SCENEOE
 90
     1153
280
     0
281
     0
  0
CLASS
  1
ACDBPLACEHOLDER
  2
AcDbPlaceHolder
  3
ObjectDBX Classes
 90
        0
280
     0
281
     0
  0
CLASS
  1
LAYOUT
  2
AcDbLayout
  3
ObjectDBX Classes
 90
        0
280
     0
281
     0
  0
CLASS
  1
TABLESTYLE
  2
AcDbTableStyle
  3
ObjectDBX Classes
 90
     4095
280
     0
281
     0
  0
CLASS
  1
MLEADERSTYLE
  2
AcDbMLeaderStyle
  3
ACDB_MLEADERSTYLE_CLASS
 90
     4095
280
     0
281
     0
  0
CLASS
  1
RASTERVARIABLES
  2
AcDbRasterVariables
  3
ISM
 90
        0
280
     0
281
     0
  0
CLASS
  1
DIMASSOC
  2
AcDbDimAssoc
  3
"AcDbDimAssoc|Product Desc:     AcDim ARX App For Dimension|Company:          Autodesk, Inc.|WEB Address:      www.autodesk.com"
 90
        0
280
     0
281
     0
  0
ENDSEC
  0
SECTION
  2
TABLES
  0
TABLE
  2
VPORT
  5
8
330
0
100
AcDbSymbolTable
 70
     1
  0
VPORT
  5
29
330
8
100
AcDbSymbolTableRecord
100
AcDbViewportTableRecord
  2
*Active
 70
     0
 10
0.0
 20
0.0
 11
1.0
 21
1.0
 12
-53.28029016748968
 22
-22.23732790911845
 13
0.0
 23
0.0
 14
10.0
 24
10.0
 15
10.0
 25
10.0
 16
0.0
 26
0.0
 36
1.0
 17
0.0
 27
0.0
 37
0.0
 40
170.4739067768973
 41
1.673114119922631
 42
50.0
 43
0.0
 44
0.0
 50
0.0
 51
0.0
 71
    16
 72
  2000
 73
     1
 74
     3
 75
     0
 76
     0
 77
     0
 78
     0
281
     0
 65
     1
110
0.0
120
0.0
130
0.0
111
1.0
121
0.0
131
0.0
112
0.0
122
1.0
132
0.0
 79
     0
146
0.0
  0
ENDTAB
  0
TABLE
  2
LTYPE
  5
5
330
0
100
AcDbSymbolTable
 70
     6
  0
LTYPE
  5
14
330
5
100
AcDbSymbolTableRecord
100
AcDbLinetypeTableRecord
  2
ByBlock
 70
     0
  3

 72
    65
 73
     0
 40
0.0
  0
LTYPE
  5
15
330
5
100
AcDbSymbolTableRecord
100
AcDbLinetypeTableRecord
  2
ByLayer
 70
     0
  3

 72
    65
 73
     0
 40
0.0
  0
LTYPE
  5
16
330
5
100
AcDbSymbolTableRecord
100
AcDbLinetypeTableRecord
  2
Continuous
 70
     0
  3
Solid line
 72
    65
 73
     0
 40
0.0
  0
LTYPE
  5
6A
330
5
100
AcDbSymbolTableRecord
100
AcDbLinetypeTableRecord
  2
HIDDEN
 70
     0
  3
Hidden __ __ __ __ __ __ __ __ __ __ __ __ __ __
 72
    65
 73
     2
 40
1.905
 49
1.27
 74
     0
 49
-0.635
 74
     0
  0
LTYPE
  5
6B
330
5
100
AcDbSymbolTableRecord
100
AcDbLinetypeTableRecord
  2
PHANTOM
 70
     0
  3
Phantom ______  __  __  ______  __  __  ______
 72
    65
 73
     6
 40
12.7
 49
6.35
 74
     0
 49
-1.27
 74
     0
 49
1.27
 74
     0
 49
-1.27
 74
     0
 49
1.27
 74
     0
 49
-1.27
 74
     0
  0
LTYPE
  5
6C
330
5
100
AcDbSymbolTableRecord
100
AcDbLinetypeTableRecord
  2
CENTER
 70
     0
  3
Center ____ _ ____ _ ____ _ ____ _ ____ _ ____
 72
    65
 73
     4
 40
10.16
 49
6.35
 74
     0
 49
-1.27
 74
     0
 49
1.27
 74
     0
 49
-1.27
 74
     0
  0
LTYPE
  5
6D
330
5
100
AcDbSymbolTableRecord
100
AcDbLinetypeTableRecord
  2
CENTERX2
 70
     0
  3
Center (2x) ________  __  ________  __  _____
 72
    65
 73
     4
 40
20.32
 49
12.7
 74
     0
 49
-2.54
 74
     0
 49
2.54
 74
     0
 49
-2.54
 74
     0
  0
LTYPE
  5
6E
330
5
100
AcDbSymbolTableRecord
100
AcDbLinetypeTableRecord
  2
DOT2
 70
     0
  3
Dot (.5x) ........................................
 72
    65
 73
     2
 40
0.635
 49
0.0
 74
     0
 49
-0.635
 74
     0
  0
ENDTAB
  0
TABLE
  2
LAYER
  5
2
102
{ACAD_XDICTIONARY
360
1B2
102
}
330
0
100
AcDbSymbolTable
 70
    18
  0
LAYER
  5
10
330
2
100
AcDbSymbolTableRecord
100
AcDbLayerTableRecord
  2
0
 70
     0
 62
     7
  6
Continuous
370
    -3
390
F
  0
LAYER
  5
6F
330
2
100
AcDbSymbolTableRecord
100
AcDbLayerTableRecord
  2
FORMAT
 70
     0
 62
     2
  6
Continuous
370
    -3
390
F
  0
LAYER
  5
70
330
2
100
AcDbSymbolTableRecord
100
AcDbLayerTableRecord
  2
외형선
 70
     0
 62
     4
  6
Continuous
370
    30
390
F
  0
LAYER
  5
71
330
2
100
AcDbSymbolTableRecord
100
AcDbLayerTableRecord
  2
숨은선
 70
     0
 62
     2
  6
HIDDEN
370
    15
390
F
  0
LAYER
  5
72
330
2
100
AcDbSymbolTableRecord
100
AcDbLayerTableRecord
  2
중심선
 70
     0
 62
     1
  6
CENTERX2
370
    -3
390
F
  0
LAYER
  5
73
330
2
100
AcDbSymbolTableRecord
100
AcDbLayerTableRecord
  2
파단선
 70
     0
 62
     4
  6
Continuous
370
    -3
390
F
  0
LAYER
  5
74
330
2
100
AcDbSymbolTableRecord
100
AcDbLayerTableRecord
  2
해칭선
 70
     0
 62
   100
  6
Continuous
370
    -3
390
F
  0
LAYER
  5
75
330
2
100
AcDbSymbolTableRecord
100
AcDbLayerTableRecord
  2
가는실선
 70
     0
 62
     4
  6
Continuous
370
    -3
390
F
  0
LAYER
  5
76
330
2
100
AcDbSymbolTableRecord
100
AcDbLayerTableRecord
  2
치수_보조선
 70
     0
 62
     4
  6
Continuous
370
    -3
390
F
  0
LAYER
  5
77
330
2
100
AcDbSymbolTableRecord
100
AcDbLayerTableRecord
  2
치수문자_일반주서
 70
     0
 62
     7
  6
Continuous
370
    15
390
F
  0
LAYER
  5
78
330
2
100
AcDbSymbolTableRecord
100
AcDbLayerTableRecord
  2
개별주서
 70
     0
 62
   100
  6
Continuous
370
    30
390
F
  0
LAYER
  5
79
330
2
100
AcDbSymbolTableRecord
100
AcDbLayerTableRecord
  2
중간선
 70
     0
 62
     2
  6
Continuous
370
    15
390
F
  0
LAYER
  5
7A
330
2
100
AcDbSymbolTableRecord
100
AcDbLayerTableRecord
  2
윤곽선
 70
     0
 62
     3
  6
Continuous
370
    40
390
F
  0
LAYER
  5
7B
330
2
100
AcDbSymbolTableRecord
100
AcDbLayerTableRecord
  2
중심마크
 70
     0
 62
   100
  6
Continuous
370
    30
390
F
  0
LAYER
  5
7C
330
2
100
AcDbSymbolTableRecord
100
AcDbLayerTableRecord
  2
가상선
 70
     0
 62
     4
  6
PHANTOM
370
    -3
390
F
  0
LAYER
  5
7D
330
2
100
AcDbSymbolTableRecord
100
AcDbLayerTableRecord
  2
특수지정선
 70
     0
 62
     5
  6
CENTERX2
370
    60
390
F
  0
LAYER
  5
7E
330
2
100
AcDbSymbolTableRecord
100
AcDbLayerTableRecord
  2
참조1
 70
     0
 62
    -4
  6
Continuous
370
    -3
390
F
  0
LAYER
  5
130
330
2
100
AcDbSymbolTableRecord
100
AcDbLayerTableRecord
  2
Defpoints
 70
     0
 62
     7
  6
Continuous
290
     0
370
    -3
390
F
  0
ENDTAB
  0
TABLE
  2
STYLE
  5
3
330
0
100
AcDbSymbolTable
 70
     2
  0
STYLE
  5
11
330
3
100
AcDbSymbolTableRecord
100
AcDbTextStyleTableRecord
  2
Standard
 70
     0
 40
0.0
 41
1.0
 50
0.0
 71
     0
 42
3.5
  3
txt
  4

  0
STYLE
  5
94
330
3
100
AcDbSymbolTableRecord
100
AcDbTextStyleTableRecord
  2
SLDTEXTSTYLE0
 70
     0
 40
0.0
 41
0.75
 50
0.0
 71
     0
 42
3.5
  3
TXT
  4

  0
ENDTAB
  0
TABLE
  2
VIEW
  5
6
330
0
100
AcDbSymbolTable
 70
     0
  0
ENDTAB
  0
TABLE
  2
UCS
  5
7
330
0
100
AcDbSymbolTable
 70
     0
  0
ENDTAB
  0
TABLE
  2
APPID
  5
9
330
0
100
AcDbSymbolTable
 70
     2
  0
APPID
  5
12
330
9
100
AcDbSymbolTableRecord
100
AcDbRegAppTableRecord
  2
ACAD
 70
     0
  0
APPID
  5
37D
330
9
100
AcDbSymbolTableRecord
100
AcDbRegAppTableRecord
  2
PE_DIMMEASUREMENT
 70
     0
  0
ENDTAB
  0
TABLE
  2
DIMSTYLE
  5
A
330
0
100
AcDbSymbolTable
 70
     3
100
AcDbDimStyleTable
  0
DIMSTYLE
105
27
330
A
100
AcDbSymbolTableRecord
100
AcDbDimStyleTableRecord
  2
ISO-25
 70
     0
 41
2.5
 42
0.625
 43
3.75
 44
1.25
 73
     0
 74
     0
 77
     1
 78
     8
140
2.5
141
2.5
143
0.03937007874016
147
0.625
171
     3
172
     1
178
     0
271
     2
272
     2
274
     3
278
    44
283
     0
284
     8
340
11
  0
DIMSTYLE
105
B1
330
A
100
AcDbSymbolTableRecord
100
AcDbDimStyleTableRecord
  2
SLDDIMSTYLE0
 70
     0
 41
3.302
 44
0.0
 45
0.000000001
 73
     0
 74
     0
 77
     1
 78
    12
 79
     3
140
3.5
143
0.0393700787401575
147
0.875
148
0.000000001
170
     1
173
     1
178
     0
271
     2
272
     2
276
     2
284
    12
340
94
  0
DIMSTYLE
105
139
102
{ACAD_REACTORS
330
1E1
330
1E2
330
32F
330
330
330
331
330
36D
102
}
330
A
100
AcDbSymbolTableRecord
100
AcDbDimStyleTableRecord
  2
SLDDIMSTYLE1
 70
     0
 41
3.302
 44
0.0
 45
0.000000001
 73
     0
 74
     0
 77
     1
 78
     4
 79
     1
140
3.5
143
0.0393700787401575
147
0.875
148
0.000000001
170
     1
173
     1
178
     0
271
     2
272
     2
276
     2
284
    12
340
94
  0
ENDTAB
  0
TABLE
  2
BLOCK_RECORD
  5
1
330
0
100
AcDbSymbolTable
 70
    24
  0
BLOCK_RECORD
  5
1F
330
1
100
AcDbSymbolTableRecord
100
AcDbBlockTableRecord
  2
*Model_Space
340
22
  0
BLOCK_RECORD
  5
1B
330
1
100
AcDbSymbolTableRecord
100
AcDbBlockTableRecord
  2
*Paper_Space
340
1E
  0
BLOCK_RECORD
  5
23
330
1
100
AcDbSymbolTableRecord
100
AcDbBlockTableRecord
  2
*Paper_Space0
340
26
  0
BLOCK_RECORD
  5
7F
330
1
100
AcDbSymbolTableRecord
100
AcDbBlockTableRecord
  2
블럭10
340
0
102
{BLKREFS
331
A9
102
}
  0
BLOCK_RECORD
  5
B2
330
1
100
AcDbSymbolTableRecord
100
AcDbBlockTableRecord
  2
_D
340
0
  0
BLOCK_RECORD
  5
C6
330
1
100
AcDbSymbolTableRecord
100
AcDbBlockTableRecord
  2
_D_1
340
0
  0
BLOCK_RECORD
  5
D9
330
1
100
AcDbSymbolTableRecord
100
AcDbBlockTableRecord
  2
_D_2
340
0
  0
BLOCK_RECORD
  5
EB
330
1
100
AcDbSymbolTableRecord
100
AcDbBlockTableRecord
  2
_D_3
340
0
  0
BLOCK_RECORD
  5
104
330
1
100
AcDbSymbolTableRecord
100
AcDbBlockTableRecord
  2
SW_DOWELSYMBOL_0
340
0
102
{BLKREFS
331
333
102
}
  0
BLOCK_RECORD
  5
18B
330
1
100
AcDbSymbolTableRecord
100
AcDbBlockTableRecord
  2
*D7
340
0
  0
BLOCK_RECORD
  5
198
330
1
100
AcDbSymbolTableRecord
100
AcDbBlockTableRecord
  2
*D8
340
0
  0
BLOCK_RECORD
  5
1B6
330
1
100
AcDbSymbolTableRecord
100
AcDbBlockTableRecord
  2
*D9
340
0
  0
BLOCK_RECORD
  5
1C2
330
1
100
AcDbSymbolTableRecord
100
AcDbBlockTableRecord
  2
*D10
340
0
  0
BLOCK_RECORD
  5
1F2
330
1
100
AcDbSymbolTableRecord
100
AcDbBlockTableRecord
  2
*D11
340
0
  0
BLOCK_RECORD
  5
1FE
330
1
100
AcDbSymbolTableRecord
100
AcDbBlockTableRecord
  2
*D12
340
0
  0
BLOCK_RECORD
  5
20B
330
1
100
AcDbSymbolTableRecord
100
AcDbBlockTableRecord
  2
*D13
340
0
  0
BLOCK_RECORD
  5
217
330
1
100
AcDbSymbolTableRecord
100
AcDbBlockTableRecord
  2
*D14
340
0
  0
BLOCK_RECORD
  5
2DB
330
1
100
AcDbSymbolTableRecord
100
AcDbBlockTableRecord
  2
*D15
340
0
  0
BLOCK_RECORD
  5
2E7
330
1
100
AcDbSymbolTableRecord
100
AcDbBlockTableRecord
  2
*D16
340
0
  0
BLOCK_RECORD
  5
2F3
330
1
100
AcDbSymbolTableRecord
100
AcDbBlockTableRecord
  2
*D17
340
0
  0
BLOCK_RECORD
  5
2FF
330
1
100
AcDbSymbolTableRecord
100
AcDbBlockTableRecord
  2
*D18
340
0
  0
BLOCK_RECORD
  5
33B
330
1
100
AcDbSymbolTableRecord
100
AcDbBlockTableRecord
  2
*D19
340
0
  0
BLOCK_RECORD
  5
347
330
1
100
AcDbSymbolTableRecord
100
AcDbBlockTableRecord
  2
*D20
340
0
  0
BLOCK_RECORD
  5
353
330
1
100
AcDbSymbolTableRecord
100
AcDbBlockTableRecord
  2
*D21
340
0
  0
BLOCK_RECORD
  5
35F
330
1
100
AcDbSymbolTableRecord
100
AcDbBlockTableRecord
  2
*D22
340
0
  0
BLOCK_RECORD
  5
370
330
1
100
AcDbSymbolTableRecord
100
AcDbBlockTableRecord
  2
*D23
340
0
  0
ENDTAB
  0
ENDSEC
  0
SECTION
  2
BLOCKS
  0
BLOCK
  5
20
330
1F
100
AcDbEntity
  8
0
100
AcDbBlockBegin
  2
*Model_Space
 70
     0
 10
0.0
 20
0.0
 30
0.0
  3
*Model_Space
  1
*Model_Space
  0
ENDBLK
  5
21
330
1F
100
AcDbEntity
  8
0
100
AcDbBlockEnd
  0
BLOCK
  5
1C
330
1B
100
AcDbEntity
 67
     1
  8
0
100
AcDbBlockBegin
  2
*Paper_Space
 70
     0
 10
0.0
 20
0.0
 30
0.0
  3
*Paper_Space
  1
*Paper_Space
  0
ENDBLK
  5
1D
330
1B
100
AcDbEntity
 67
     1
  8
0
100
AcDbBlockEnd
  0
BLOCK
  5
24
330
23
100
AcDbEntity
  8
0
100
AcDbBlockBegin
  2
*Paper_Space0
 70
     0
 10
0.0
 20
0.0
 30
0.0
  3
*Paper_Space0
  1
*Paper_Space0
  0
ENDBLK
  5
25
330
23
100
AcDbEntity
  8
0
100
AcDbBlockEnd
  0
BLOCK
  5
80
330
7F
100
AcDbEntity
  8
0
100
AcDbBlockBegin
  2
블럭10
 70
     2
 10
0.0
 20
0.0
 30
0.0
  3
블럭10
  1
블럭10
  0
ELLIPSE
  5
82
330
7F
100
AcDbEntity
  8
중심선
100
AcDbEllipse
 10
20.54032771741204
 20
12.0471743016438
 30
0.0
 11
6.600054785286829
 21
-1.261213355974178E-13
 31
0.0
210
0.0
220
0.0
230
1.0
 40
0.636358354079598
 41
0.9219305317359503
 42
6.513795318482858
  0
ELLIPSE
  5
83
330
7F
100
AcDbEntity
  8
중심선
100
AcDbEllipse
 10
20.54032771746488
 20
12.04717430159265
 30
0.0
 11
3.960054785062283
 21
1.540847449632565E-10
 31
0.0
210
0.0
220
0.0
230
1.0
 40
0.3939339440162632
 41
1.131841032648279
 42
5.62031148352944
  0
LINE
  5
84
330
7F
100
AcDbEntity
  8
중심선
100
AcDbLine
 10
2.268634060543552
 20
16.24717430164393
 30
0.0
 11
5.714909304380834
 21
16.24717430164393
 31
0.0
  0
LINE
  5
85
330
7F
100
AcDbEntity
  8
중심선
100
AcDbLine
 10
5.245725140726316
 20
7.84717430164391
 30
0.0
 11
8.692000384563599
 21
7.84717430164391
 31
0.0
  0
LINE
  5
86
330
7F
100
AcDbEntity
  8
중심선
100
AcDbLine
 10
15.74043728645272
 20
16.24717430164393
 30
0.0
 11
8.692000384563599
 21
7.84717430164391
 31
0.0
  0
LINE
  5
87
330
7F
100
AcDbEntity
  8
중심선
100
AcDbLine
 10
0.1404042013395286
 20
13.71084872107135
 30
0.0
 11
3.58671253028996
 21
13.71088815037384
 31
0.0
  0
LINE
  5
88
330
7F
100
AcDbEntity
  8
중심선
100
AcDbLine
 10
2.750260043222114
 20
10.84717430164391
 30
0.0
 11
6.196535287059397
 21
10.84717430164391
 31
0.0
  0
LINE
  5
89
330
7F
100
AcDbEntity
  8
중심선
100
AcDbLine
 10
12.29416204261559
 20
16.24717430164393
 30
0.0
 11
5.245725140726316
 21
7.84717430164391
 31
0.0
  0
LINE
  5
8A
330
7F
100
AcDbEntity
  8
중심선
100
AcDbLine
 10
10.72767329541681
 20
16.24717430164393
 30
0.0
 11
6.196535287059397
 21
10.84717430164391
 31
0.0
  0
LINE
  5
8B
330
7F
100
AcDbEntity
  8
중심선
100
AcDbLine
 10
7.28139805157953
 20
16.24717430164393
 30
0.0
 11
2.750260043222114
 21
10.84717430164391
 31
0.0
  0
LINE
  5
8C
330
7F
100
AcDbEntity
  8
중심선
100
AcDbLine
 10
5.714909304380834
 20
16.24717430164393
 30
0.0
 11
3.58671253028996
 21
13.71088815037384
 31
0.0
  0
LINE
  5
8D
330
7F
100
AcDbEntity
  8
중심선
100
AcDbLine
 10
2.268634060543552
 20
16.24717430164393
 30
0.0
 11
0.1404042013395286
 21
13.71084872107135
 31
0.0
  0
LINE
  5
8E
330
7F
100
AcDbEntity
  8
중심선
100
AcDbLine
 10
7.28139805157953
 20
16.24717430164393
 30
0.0
 11
10.72767329541681
 21
16.24717430164393
 31
0.0
  0
LINE
  5
8F
330
7F
100
AcDbEntity
  8
중심선
100
AcDbLine
 10
12.29416204261559
 20
16.24717430164393
 30
0.0
 11
15.74043728645272
 21
16.24717430164393
 31
0.0
  0
LINE
  5
90
330
7F
100
AcDbEntity
  8
중심선
100
AcDbLine
 10
19.22036997980202
 20
11.08717430171403
 30
0.0
 11
23.66174974927406
 21
11.08717430171406
 31
0.0
  0
LINE
  5
91
330
7F
100
AcDbEntity
  8
중심선
100
AcDbLine
 10
19.22039502424796
 20
13.00717430171391
 30
0.0
 11
19.22036997980202
 21
11.08717430171403
 31
0.0
  0
LINE
  5
92
330
7F
100
AcDbEntity
  8
중심선
100
AcDbLine
 10
19.22039502424796
 20
13.00717430171391
 30
0.0
 11
26.96566020931264
 21
13.00717430171391
 31
0.0
  0
LINE
  5
93
330
7F
100
AcDbEntity
  8
중심선
100
AcDbLine
 10
22.22332737316547
 20
13.45928029700563
 30
0.0
 11
24.52862924686651
 21
15.39360700705356
 31
0.0
  0
ATTDEF
  5
95
330
7F
100
AcDbEntity
  8
FORMAT
 62
     2
100
AcDbText
 10
4.408487351596664
 20
2.075366912832191
 30
0.0
 40
4.233333333333333
  1
E1110916
 41
0.75
  7
SLDTEXTSTYLE0
 11
4.408487351596664
 21
-0.0412997538344756
 31
0.0
100
AcDbAttributeDefinition
  3

  2
AUTOATTR0
 70
     0
 74
     1
  0
ENDBLK
  5
81
330
7F
100
AcDbEntity
  8
0
100
AcDbBlockEnd
  0
BLOCK
  5
B3
330
B2
100
AcDbEntity
  8
0
100
AcDbBlockBegin
  2
_D
 70
     0
 10
0.0
 20
0.0
 30
0.0
  3
_D
  1
_D
  0
LINE
  5
B5
330
B2
100
AcDbEntity
  8
치수문자_일반주서
 62
     0
370
    -2
100
AcDbLine
 10
43.27499999999813
 20
15.9375
 30
0.0
 11
43.27499999999813
 21
27.71315063168967
 31
0.0
  0
LINE
  5
B6
330
B2
100
AcDbEntity
  8
치수문자_일반주서
 62
     0
370
    -2
100
AcDbLine
 10
1.999999999998121
 20
15.1401761376129
 30
0.0
 11
1.999999999998121
 21
27.71315063168967
 31
0.0
  0
LINE
  5
B7
330
B2
100
AcDbEntity
  8
치수문자_일반주서
 62
     0
370
    -2
100
AcDbLine
 10
39.97299999999813
 20
27.71315063168967
 30
0.0
 11
5.30199999999812
 21
27.71315063168967
 31
0.0
  0
SOLID
  5
B8
330
B2
100
AcDbEntity
  8
치수문자_일반주서
 62
     0
100
AcDbTrace
 10
39.97299999999813
 20
27.16281729835634
 30
0.0
 11
39.97299999999813
 21
28.26348396502301
 31
0.0
 12
43.27499999999813
 22
27.71315063168967
 32
0.0
 13
43.27499999999813
 23
27.71315063168967
 33
0.0
  0
SOLID
  5
B9
330
B2
100
AcDbEntity
  8
치수문자_일반주서
 62
     0
100
AcDbTrace
 10
5.30199999999812
 20
28.26348396502301
 30
0.0
 11
5.30199999999812
 21
27.16281729835634
 31
0.0
 12
1.999999999998121
 22
27.71315063168967
 32
0.0
 13
1.999999999998121
 23
27.71315063168967
 33
0.0
  0
MTEXT
  5
BA
330
B2
100
AcDbEntity
  8
치수문자_일반주서
 62
     0
100
AcDbMText
 10
22.00920790976019
 20
32.08815063168967
 30
0.0
 40
3.5
 41
0.0
 71
     2
 72
     1
  1
\A1;41.28 [1 5/8]
  7
SLDTEXTSTYLE0
 73
     1
 44
1.0
  0
POINT
  5
BB
330
B2
100
AcDbEntity
  8
Defpoints
 62
     0
100
AcDbPoint
 10
43.27499999999813
 20
15.875
 30
0.0
  0
POINT
  5
BC
330
B2
100
AcDbEntity
  8
Defpoints
 62
     0
100
AcDbPoint
 10
1.999999999998121
 20
15.0776761376129
 30
0.0
  0
POINT
  5
BD
330
B2
100
AcDbEntity
  8
Defpoints
 62
     0
100
AcDbPoint
 10
1.999999999998121
 20
27.71315063168967
 30
0.0
  0
ENDBLK
  5
B4
330
B2
100
AcDbEntity
  8
0
100
AcDbBlockEnd
  0
BLOCK
  5
C7
330
C6
100
AcDbEntity
  8
0
100
AcDbBlockBegin
  2
_D_1
 70
     0
 10
0.0
 20
0.0
 30
0.0
  3
_D_1
  1
_D_1
  0
LINE
  5
C9
330
C6
100
AcDbEntity
  8
치수문자_일반주서
 62
     0
370
    -2
100
AcDbLine
 10
78.34926131403117
 20
4.337226723198786
 30
0.0
 11
78.34926131403117
 21
38.76357492872395
 31
0.0
  0
LINE
  5
CA
330
C6
100
AcDbEntity
  8
치수문자_일반주서
 62
     0
370
    -2
100
AcDbLine
 10
-48.65073868596884
 20
14.93857492872389
 30
0.0
 11
-48.65073868596884
 21
38.76357492872395
 31
0.0
  0
LINE
  5
CB
330
C6
100
AcDbEntity
  8
치수문자_일반주서
 62
     0
370
    -2
100
AcDbLine
 10
75.04726131403118
 20
38.76357492872395
 30
0.0
 11
-45.34873868596884
 21
38.76357492872395
 31
0.0
  0
SOLID
  5
CC
330
C6
100
AcDbEntity
  8
치수문자_일반주서
 62
     0
100
AcDbTrace
 10
75.04726131403118
 20
38.21324159539062
 30
0.0
 11
75.04726131403118
 21
39.31390826205729
 31
0.0
 12
78.34926131403117
 22
38.76357492872395
 32
0.0
 13
78.34926131403117
 23
38.76357492872395
 33
0.0
  0
SOLID
  5
CD
330
C6
100
AcDbEntity
  8
치수문자_일반주서
 62
     0
100
AcDbTrace
 10
-45.34873868596884
 20
39.31390826205729
 30
0.0
 11
-45.34873868596884
 21
38.21324159539062
 31
0.0
 12
-48.65073868596884
 22
38.76357492872395
 32
0.0
 13
-48.65073868596884
 23
38.76357492872395
 33
0.0
  0
MTEXT
  5
CE
330
C6
100
AcDbEntity
  8
치수문자_일반주서
 62
     0
100
AcDbMText
 10
14.84926131403116
 20
43.13857492872395
 30
0.0
 40
3.5
 41
0.0
 71
     2
 72
     1
  1
\A1;127.00 [5]
  7
SLDTEXTSTYLE0
 73
     1
 44
1.0
  0
POINT
  5
CF
330
C6
100
AcDbEntity
  8
Defpoints
 62
     0
100
AcDbPoint
 10
78.34926131403117
 20
4.274726723198786
 30
0.0
  0
POINT
  5
D0
330
C6
100
AcDbEntity
  8
Defpoints
 62
     0
100
AcDbPoint
 10
-48.65073868596884
 20
14.87607492872389
 30
0.0
  0
POINT
  5
D1
330
C6
100
AcDbEntity
  8
Defpoints
 62
     0
100
AcDbPoint
 10
-48.65073868596884
 20
38.76357492872395
 30
0.0
  0
ENDBLK
  5
C8
330
C6
100
AcDbEntity
  8
0
100
AcDbBlockEnd
  0
BLOCK
  5
DA
330
D9
100
AcDbEntity
  8
0
100
AcDbBlockBegin
  2
_D_2
 70
     0
 10
0.0
 20
0.0
 30
0.0
  3
_D_2
  1
_D_2
  0
LINE
  5
DC
330
D9
100
AcDbEntity
  8
치수문자_일반주서
 62
     0
370
    -2
100
AcDbLine
 10
-47.71323868596883
 20
15.8760749287239
 30
0.0
 11
-61.1507386859689
 21
15.87607492872385
 31
0.0
  0
LINE
  5
DD
330
D9
100
AcDbEntity
  8
치수문자_일반주서
 62
     0
370
    -2
100
AcDbLine
 10
-47.71323868596883
 20
-15.8739250712761
 30
0.0
 11
-61.15073868596879
 21
-15.87392507127615
 31
0.0
  0
LINE
  5
DE
330
D9
100
AcDbEntity
  8
치수문자_일반주서
 62
     0
370
    -2
100
AcDbLine
 10
-61.15073868596889
 20
12.57407492872385
 30
0.0
 11
-61.1507386859688
 21
-12.57192507127615
 31
0.0
  0
SOLID
  5
DF
330
D9
100
AcDbEntity
  8
치수문자_일반주서
 62
     0
100
AcDbTrace
 10
-60.60040535263555
 20
12.57407492872385
 30
0.0
 11
-61.70107201930222
 21
12.57407492872385
 31
0.0
 12
-61.1507386859689
 22
15.87607492872385
 32
0.0
 13
-61.1507386859689
 23
15.87607492872385
 33
0.0
  0
SOLID
  5
E0
330
D9
100
AcDbEntity
  8
치수문자_일반주서
 62
     0
100
AcDbTrace
 10
-61.70107201930214
 20
-12.57192507127615
 30
0.0
 11
-60.60040535263547
 21
-12.57192507127615
 31
0.0
 12
-61.15073868596879
 22
-15.87392507127615
 32
0.0
 13
-61.15073868596879
 23
-15.87392507127615
 33
0.0
  0
MTEXT
  5
E1
330
D9
100
AcDbEntity
  8
치수문자_일반주서
 62
     0
100
AcDbMText
 10
-65.52573868596885
 20
0.0010749287238803
 30
0.0
 40
3.5
 41
0.0
 71
     2
 72
     1
  1
\A1;%%c31.75 [1 1/4]
  7
SLDTEXTSTYLE0
 11
-3.580687802255623E-15
 21
1.0
 31
0.0
 73
     1
 44
1.0
  0
POINT
  5
E2
330
D9
100
AcDbEntity
  8
Defpoints
 62
     0
100
AcDbPoint
 10
-47.65073868596883
 20
15.8760749287239
 30
0.0
  0
POINT
  5
E3
330
D9
100
AcDbEntity
  8
Defpoints
 62
     0
100
AcDbPoint
 10
-47.65073868596883
 20
-15.8739250712761
 30
0.0
  0
POINT
  5
E4
330
D9
100
AcDbEntity
  8
Defpoints
 62
     0
100
AcDbPoint
 10
-61.15073868596885
 20
-15.87392507127615
 30
0.0
  0
ENDBLK
  5
DB
330
D9
100
AcDbEntity
  8
0
100
AcDbBlockEnd
  0
BLOCK
  5
EC
330
EB
100
AcDbEntity
  8
0
100
AcDbBlockBegin
  2
_D_3
 70
     0
 10
0.0
 20
0.0
 30
0.0
  3
_D_3
  1
_D_3
  0
LINE
  5
EE
330
EB
100
AcDbEntity
  8
치수문자_일반주서
 62
     0
370
    -2
100
AcDbLine
 10
43.33749999999813
 20
15.875
 30
0.0
 11
55.61504460899587
 21
15.87500000000005
 31
0.0
  0
LINE
  5
EF
330
EB
100
AcDbEntity
  8
치수문자_일반주서
 62
     0
370
    -2
100
AcDbLine
 10
43.33749999999813
 20
-15.875
 30
0.0
 11
55.61504460899599
 21
-15.87499999999996
 31
0.0
  0
LINE
  5
F0
330
EB
100
AcDbEntity
  8
치수문자_일반주서
 62
     0
370
    -2
100
AcDbLine
 10
55.61504460899587
 20
15.87500000000005
 30
0.0
 11
55.61504460899575
 21
50.67700000000008
 31
0.0
  0
LINE
  5
F1
330
EB
100
AcDbEntity
  8
치수문자_일반주서
 62
     0
370
    -2
100
AcDbLine
 10
55.61504460899589
 20
12.57300000000005
 30
0.0
 11
55.61504460899597
 21
-12.57299999999996
 31
0.0
  0
SOLID
  5
F2
330
EB
100
AcDbEntity
  8
치수문자_일반주서
 62
     0
100
AcDbTrace
 10
56.16537794232922
 20
12.57300000000005
 30
0.0
 11
55.06471127566255
 21
12.57300000000004
 31
0.0
 12
55.61504460899587
 22
15.87500000000005
 32
0.0
 13
55.61504460899587
 23
15.87500000000005
 33
0.0
  0
SOLID
  5
F3
330
EB
100
AcDbEntity
  8
치수문자_일반주서
 62
     0
100
AcDbTrace
 10
55.06471127566264
 20
-12.57299999999996
 30
0.0
 11
56.16537794232931
 21
-12.57299999999996
 31
0.0
 12
55.61504460899599
 22
-15.87499999999996
 32
0.0
 13
55.61504460899599
 23
-15.87499999999996
 33
0.0
  0
MTEXT
  5
F4
330
EB
100
AcDbEntity
  8
치수문자_일반주서
 62
     0
100
AcDbMText
 10
51.2400446089958
 20
34.92700000000007
 30
0.0
 40
3.5
 41
0.0
 71
     2
 72
     1
  1
\A1;%%c31.75 [1 1/4]
  7
SLDTEXTSTYLE0
 11
-3.580687802255623E-15
 21
1.0
 31
0.0
 73
     1
 44
1.0
  0
POINT
  5
F5
330
EB
100
AcDbEntity
  8
Defpoints
 62
     0
100
AcDbPoint
 10
43.27499999999813
 20
15.875
 30
0.0
  0
POINT
  5
F6
330
EB
100
AcDbEntity
  8
Defpoints
 62
     0
100
AcDbPoint
 10
43.27499999999813
 20
-15.875
 30
0.0
  0
POINT
  5
F7
330
EB
100
AcDbEntity
  8
Defpoints
 62
     0
100
AcDbPoint
 10
55.61504460899599
 20
-15.87499999999996
 30
0.0
  0
ENDBLK
  5
ED
330
EB
100
AcDbEntity
  8
0
100
AcDbBlockEnd
  0
BLOCK
  5
105
330
104
100
AcDbEntity
  8
0
100
AcDbBlockBegin
  2
SW_DOWELSYMBOL_0
 70
     0
 10
0.0
 20
0.0
 30
0.0
  3
SW_DOWELSYMBOL_0
  1
SW_DOWELSYMBOL_0
  0
CIRCLE
  5
107
330
104
100
AcDbEntity
  8
해칭선
 62
     0
100
AcDbCircle
 10
0.0
 20
0.0
 30
0.0
 40
3.000000000000003
  0
HATCH
  5
108
330
104
100
AcDbEntity
  8
0
  6
Continuous
 62
     0
370
     0
100
AcDbHatch
 10
0.0
 20
0.0
 30
0.0
210
0.0
220
0.0
230
1.0
  2
SOLID
 70
     1
 71
     0
 91
        1
 92
        0
 93
        3
 72
     2
 10
0.0
 20
0.0
 40
3.000000000000003
 50
0.0
 51
90.0
 73
     1
 72
     1
 10
0.0
 20
3.000000000000003
 11
0.0
 21
0.0
 72
     1
 10
0.0
 20
0.0
 11
3.000000000000003
 21
0.0
 97
        0
 75
     0
 76
     1
 98
        1
 10
0.0
 20
0.0
  0
HATCH
  5
109
330
104
100
AcDbEntity
  8
0
  6
Continuous
 62
     0
370
     0
100
AcDbHatch
 10
0.0
 20
0.0
 30
0.0
210
0.0
220
0.0
230
1.0
  2
SOLID
 70
     1
 71
     0
 91
        1
 92
        0
 93
        3
 72
     2
 10
0.0
 20
0.0
 40
3.000000000000003
 50
180.0
 51
270.0000000000007
 73
     1
 72
     1
 10
0.0
 20
-3.000000000000003
 11
0.0
 21
0.0
 72
     1
 10
0.0
 20
0.0
 11
-3.000000000000003
 21
0.0
 97
        0
 75
     0
 76
     1
 98
        1
 10
0.0
 20
0.0
  0
ENDBLK
  5
106
330
104
100
AcDbEntity
  8
0
100
AcDbBlockEnd
  0
BLOCK
  5
18C
330
18B
100
AcDbEntity
  8
0
100
AcDbBlockBegin
  2
*D7
 70
     1
 10
0.0
 20
0.0
 30
0.0
  3
*D7
  1
*D8
  0
LINE
  5
18D
330
18B
100
AcDbEntity
  8
치수문자_일반주서
 62
     0
370
    -2
100
AcDbLine
 10
115.3000000000018
 20
28.6375
 30
0.0
 11
115.3000000000018
 21
53.05000000000007
 31
0.0
  0
LINE
  5
18E
330
18B
100
AcDbEntity
  8
치수문자_일반주서
 62
     0
370
    -2
100
AcDbLine
 10
16.87500000000006
 20
22.87500000000001
 30
0.0
 11
16.87500000000006
 21
53.05000000000007
 31
0.0
  0
LINE
  5
18F
330
18B
100
AcDbEntity
  8
치수문자_일반주서
 62
     0
370
    -2
100
AcDbLine
 10
111.9980000000018
 20
53.05000000000007
 30
0.0
 11
20.17700000000006
 21
53.05000000000007
 31
0.0
  0
SOLID
  5
190
330
18B
100
AcDbEntity
  8
치수문자_일반주서
 62
     0
100
AcDbTrace
 10
111.9980000000018
 20
52.49966666666673
 30
0.0
 11
111.9980000000018
 21
53.6003333333334
 31
0.0
 12
115.3000000000018
 22
53.05000000000007
 32
0.0
 13
115.3000000000018
 23
53.05000000000007
 33
0.0
  0
SOLID
  5
191
330
18B
100
AcDbEntity
  8
치수문자_일반주서
 62
     0
100
AcDbTrace
 10
20.17700000000006
 20
53.6003333333334
 30
0.0
 11
20.17700000000006
 21
52.49966666666673
 31
0.0
 12
16.87500000000006
 22
53.05000000000007
 32
0.0
 13
16.87500000000006
 23
53.05000000000007
 33
0.0
  0
MTEXT
  5
192
330
18B
100
AcDbEntity
  8
치수문자_일반주서
 62
     0
100
AcDbMText
 10
66.08750000000003
 20
57.42500000000007
 30
0.0
 40
3.5
 41
0.0
 71
     2
 72
     1
  1
\A1;98.43 [3 7/8]
  7
SLDTEXTSTYLE0
 73
     1
 44
1.0
  0
POINT
  5
193
330
18B
100
AcDbEntity
  8
Defpoints
 62
     0
100
AcDbPoint
 10
115.3000000000018
 20
28.575
 30
0.0
  0
POINT
  5
194
330
18B
100
AcDbEntity
  8
Defpoints
 62
     0
100
AcDbPoint
 10
16.87500000000006
 20
22.81250000000001
 30
0.0
  0
POINT
  5
195
330
18B
100
AcDbEntity
  8
Defpoints
 62
     0
100
AcDbPoint
 10
16.87500000000006
 20
53.05000000000007
 30
0.0
  0
ENDBLK
  5
196
330
18B
100
AcDbEntity
  8
0
100
AcDbBlockEnd
  0
BLOCK
  5
199
330
198
100
AcDbEntity
  8
0
100
AcDbBlockBegin
  2
*D8
 70
     1
 10
0.0
 20
0.0
 30
0.0
  3
*D8
  1
*D9
  0
LINE
  5
19A
330
198
100
AcDbEntity
  8
치수문자_일반주서
 62
     0
370
    -2
100
AcDbLine
 10
17.81250000000006
 20
23.81250000000001
 30
0.0
 11
4.375000000000024
 21
23.81249999999996
 31
0.0
  0
LINE
  5
19B
330
198
100
AcDbEntity
  8
치수문자_일반주서
 62
     0
370
    -2
100
AcDbLine
 10
17.81250000000006
 20
4.762500000000001
 30
0.0
 11
4.375000000000091
 21
4.762499999999951
 31
0.0
  0
LINE
  5
19C
330
198
100
AcDbEntity
  8
치수문자_일반주서
 62
     0
370
    -2
100
AcDbLine
 10
4.375000000000036
 20
20.51049999999996
 30
0.0
 11
4.375000000000079
 21
8.064499999999951
 31
0.0
  0
SOLID
  5
19D
330
198
100
AcDbEntity
  8
치수문자_일반주서
 62
     0
100
AcDbTrace
 10
4.925333333333369
 20
20.51049999999997
 30
0.0
 11
3.824666666666702
 21
20.51049999999996
 31
0.0
 12
4.375000000000024
 22
23.81249999999996
 32
0.0
 13
4.375000000000024
 23
23.81249999999996
 33
0.0
  0
SOLID
  5
19E
330
198
100
AcDbEntity
  8
치수문자_일반주서
 62
     0
100
AcDbTrace
 10
3.824666666666746
 20
8.06449999999995
 30
0.0
 11
4.925333333333413
 21
8.064499999999953
 31
0.0
 12
4.375000000000091
 22
4.762499999999951
 32
0.0
 13
4.375000000000091
 23
4.762499999999951
 33
0.0
  0
MTEXT
  5
19F
330
198
100
AcDbEntity
  8
치수문자_일반주서
 62
     0
100
AcDbMText
 10
0.000000000000056
 20
14.2875
 30
0.0
 40
3.5
 41
0.0
 71
     2
 72
     1
  1
\A1;%%c19.05 [3/4]
  7
SLDTEXTSTYLE0
 11
-3.496765431890254E-15
 21
1.0
 31
0.0
 73
     1
 44
1.0
  0
POINT
  5
1A0
330
198
100
AcDbEntity
  8
Defpoints
 62
     0
100
AcDbPoint
 10
17.87500000000006
 20
23.81250000000001
 30
0.0
  0
POINT
  5
1A1
330
198
100
AcDbEntity
  8
Defpoints
 62
     0
100
AcDbPoint
 10
17.87500000000006
 20
4.762500000000001
 30
0.0
  0
POINT
  5
1A2
330
198
100
AcDbEntity
  8
Defpoints
 62
     0
100
AcDbPoint
 10
4.375000000000099
 20
4.76249999999995
 30
0.0
  0
ENDBLK
  5
1A3
330
198
100
AcDbEntity
  8
0
100
AcDbBlockEnd
  0
BLOCK
  5
1B7
330
1B6
100
AcDbEntity
  8
0
100
AcDbBlockBegin
  2
*D9
 70
     1
 10
0.0
 20
0.0
 30
0.0
  3
*D9
  1
*D10
  0
LINE
  5
1B9
330
1B6
100
AcDbEntity
  8
치수문자_일반주서
 62
     0
370
    -2
100
AcDbLine
 10
115.3000000000018
 20
28.6375
 30
0.0
 11
115.3000000000018
 21
42.06441901980629
 31
0.0
  0
LINE
  5
1BA
330
1B6
100
AcDbEntity
  8
치수문자_일반주서
 62
     0
370
    -2
100
AcDbLine
 10
74.0250000000018
 20
27.96551692524482
 30
0.0
 11
74.0250000000018
 21
42.06441901980629
 31
0.0
  0
LINE
  5
1BB
330
1B6
100
AcDbEntity
  8
치수문자_일반주서
 62
     0
370
    -2
100
AcDbLine
 10
111.9980000000018
 20
42.06441901980629
 30
0.0
 11
77.32700000000179
 21
42.06441901980629
 31
0.0
  0
SOLID
  5
1BC
330
1B6
100
AcDbEntity
  8
치수문자_일반주서
 62
     0
100
AcDbTrace
 10
111.9980000000018
 20
41.51408568647295
 30
0.0
 11
111.9980000000018
 21
42.61475235313962
 31
0.0
 12
115.3000000000018
 22
42.06441901980629
 32
0.0
 13
115.3000000000018
 23
42.06441901980629
 33
0.0
  0
SOLID
  5
1BD
330
1B6
100
AcDbEntity
  8
치수문자_일반주서
 62
     0
100
AcDbTrace
 10
77.32700000000179
 20
42.61475235313962
 30
0.0
 11
77.32700000000179
 21
41.51408568647295
 31
0.0
 12
74.0250000000018
 22
42.06441901980629
 32
0.0
 13
74.0250000000018
 23
42.06441901980629
 33
0.0
  0
MTEXT
  5
1BE
330
1B6
100
AcDbEntity
  8
치수문자_일반주서
 62
     0
100
AcDbMText
 10
94.46351531832963
 20
46.43941901980629
 30
0.0
 40
3.5
 41
0.0
 71
     2
 72
     1
  1
\A1;41.28 [1 5/8]
  7
SLDTEXTSTYLE0
 73
     1
 44
1.0
  0
POINT
  5
1BF
330
1B6
100
AcDbEntity
  8
Defpoints
 62
     0
100
AcDbPoint
 10
115.3000000000018
 20
28.575
 30
0.0
  0
POINT
  5
1C0
330
1B6
100
AcDbEntity
  8
Defpoints
 62
     0
100
AcDbPoint
 10
74.0250000000018
 20
27.90301692524482
 30
0.0
  0
POINT
  5
1C1
330
1B6
100
AcDbEntity
  8
Defpoints
 62
     0
100
AcDbPoint
 10
74.0250000000018
 20
42.06441901980629
 30
0.0
  0
ENDBLK
  5
1B8
330
1B6
100
AcDbEntity
  8
0
100
AcDbBlockEnd
  0
BLOCK
  5
1C3
330
1C2
100
AcDbEntity
  8
0
100
AcDbBlockBegin
  2
*D10
 70
     1
 10
0.0
 20
0.0
 30
0.0
  3
*D10
  1
*D11
  0
LINE
  5
1C5
330
1C2
100
AcDbEntity
  8
치수문자_일반주서
 62
     0
370
    -2
100
AcDbLine
 10
115.3625000000018
 20
28.575
 30
0.0
 11
132.4396750461576
 21
28.57500000000007
 31
0.0
  0
LINE
  5
1C6
330
1C2
100
AcDbEntity
  8
치수문자_일반주서
 62
     0
370
    -2
100
AcDbLine
 10
115.3625000000018
 20
0.0000000000000091
 30
0.0
 11
132.4396750461577
 21
0.0000000000000711
 31
0.0
  0
LINE
  5
1C7
330
1C2
100
AcDbEntity
  8
치수문자_일반주서
 62
     0
370
    -2
100
AcDbLine
 10
132.4396750461576
 20
28.57500000000007
 30
0.0
 11
132.4396750461574
 21
67.01564818776657
 31
0.0
  0
LINE
  5
1C8
330
1C2
100
AcDbEntity
  8
치수문자_일반주서
 62
     0
370
    -2
100
AcDbLine
 10
132.4396750461576
 20
25.27300000000007
 30
0.0
 11
132.4396750461577
 21
3.302000000000071
 31
0.0
  0
SOLID
  5
1C9
330
1C2
100
AcDbEntity
  8
치수문자_일반주서
 62
     0
100
AcDbTrace
 10
132.9900083794909
 20
25.27300000000007
 30
0.0
 11
131.8893417128243
 21
25.27300000000006
 31
0.0
 12
132.4396750461576
 22
28.57500000000007
 32
0.0
 13
132.4396750461576
 23
28.57500000000007
 33
0.0
  0
SOLID
  5
1CA
330
1C2
100
AcDbEntity
  8
치수문자_일반주서
 62
     0
100
AcDbTrace
 10
131.8893417128244
 20
3.302000000000068
 30
0.0
 11
132.990008379491
 21
3.302000000000073
 31
0.0
 12
132.4396750461577
 22
0.0000000000000711
 32
0.0
 13
132.4396750461577
 23
0.0000000000000711
 33
0.0
  0
MTEXT
  5
1CB
330
1C2
100
AcDbEntity
  8
치수문자_일반주서
 62
     0
100
AcDbMText
 10
128.0646750461575
 20
50.82814818776655
 30
0.0
 40
3.5
 41
0.0
 71
     2
 72
     1
  1
\A1;%%c28.58 [1 1/8]
  7
SLDTEXTSTYLE0
 11
-3.978542002506249E-15
 21
1.0
 31
0.0
 73
     1
 44
1.0
  0
POINT
  5
1CC
330
1C2
100
AcDbEntity
  8
Defpoints
 62
     0
100
AcDbPoint
 10
115.3000000000018
 20
28.575
 30
0.0
  0
POINT
  5
1CD
330
1C2
100
AcDbEntity
  8
Defpoints
 62
     0
100
AcDbPoint
 10
115.3000000000018
 20
0.0000000000000089
 30
0.0
  0
POINT
  5
1CE
330
1C2
100
AcDbEntity
  8
Defpoints
 62
     0
100
AcDbPoint
 10
132.4396750461577
 20
0.0000000000000729
 30
0.0
  0
ENDBLK
  5
1C4
330
1C2
100
AcDbEntity
  8
0
100
AcDbBlockEnd
  0
BLOCK
  5
1F3
330
1F2
100
AcDbEntity
  8
0
100
AcDbBlockBegin
  2
*D11
 70
     1
 10
0.0
 20
0.0
 30
0.0
  3
*D11
  1
*D12
  0
LINE
  5
1F5
330
1F2
100
AcDbEntity
  8
치수문자_일반주서
 62
     0
370
    -2
100
AcDbLine
 10
205.9424123490272
 20
-21.50127209681861
 30
0.0
 11
205.9424123490272
 21
-8.074353077012326
 31
0.0
  0
LINE
  5
1F6
330
1F2
100
AcDbEntity
  8
치수문자_일반주서
 62
     0
370
    -2
100
AcDbLine
 10
164.6674123490272
 20
-22.1732551715738
 30
0.0
 11
164.6674123490272
 21
-8.074353077012326
 31
0.0
  0
LINE
  5
1F7
330
1F2
100
AcDbEntity
  8
치수문자_일반주서
 62
     0
370
    -2
100
AcDbLine
 10
202.6404123490272
 20
-8.074353077012326
 30
0.0
 11
167.9694123490272
 21
-8.074353077012326
 31
0.0
  0
SOLID
  5
1F8
330
1F2
100
AcDbEntity
  8
치수문자_일반주서
 62
     0
100
AcDbTrace
 10
202.6404123490272
 20
-8.624686410345658
 30
0.0
 11
202.6404123490272
 21
-7.524019743678992
 31
0.0
 12
205.9424123490272
 22
-8.074353077012326
 32
0.0
 13
205.9424123490272
 23
-8.074353077012326
 33
0.0
  0
SOLID
  5
1F9
330
1F2
100
AcDbEntity
  8
치수문자_일반주서
 62
     0
100
AcDbTrace
 10
167.9694123490272
 20
-7.524019743678992
 30
0.0
 11
167.9694123490272
 21
-8.624686410345658
 31
0.0
 12
164.6674123490272
 22
-8.074353077012326
 32
0.0
 13
164.6674123490272
 23
-8.074353077012326
 33
0.0
  0
MTEXT
  5
1FA
330
1F2
100
AcDbEntity
  8
치수문자_일반주서
 62
     0
100
AcDbMText
 10
185.1059276673551
 20
-3.699353077012326
 30
0.0
 40
3.5
 41
0.0
 71
     2
 72
     1
  1
\A1;41.28 [1 5/8]
  7
SLDTEXTSTYLE0
 73
     1
 44
1.0
  0
POINT
  5
1FB
330
1F2
100
AcDbEntity
  8
Defpoints
 62
     0
100
AcDbPoint
 10
205.9424123490272
 20
-21.56377209681861
 30
0.0
  0
POINT
  5
1FC
330
1F2
100
AcDbEntity
  8
Defpoints
 62
     0
100
AcDbPoint
 10
164.6674123490272
 20
-22.2357551715738
 30
0.0
  0
POINT
  5
1FD
330
1F2
100
AcDbEntity
  8
Defpoints
 62
     0
100
AcDbPoint
 10
164.6674123490272
 20
-8.074353077012326
 30
0.0
  0
ENDBLK
  5
1F4
330
1F2
100
AcDbEntity
  8
0
100
AcDbBlockEnd
  0
BLOCK
  5
1FF
330
1FE
100
AcDbEntity
  8
0
100
AcDbBlockBegin
  2
*D12
 70
     1
 10
0.0
 20
0.0
 30
0.0
  3
*D12
  1
*D13
  0
LINE
  5
201
330
1FE
100
AcDbEntity
  8
치수문자_일반주서
 62
     0
370
    -2
100
AcDbLine
 10
206.0049123490272
 20
-21.56377209681861
 30
0.0
 11
223.082087395183
 21
-21.56377209681855
 31
0.0
  0
LINE
  5
202
330
1FE
100
AcDbEntity
  8
치수문자_일반주서
 62
     0
370
    -2
100
AcDbLine
 10
206.0049123490272
 20
-50.13877209681861
 30
0.0
 11
223.0820873951831
 21
-50.13877209681854
 31
0.0
  0
LINE
  5
203
330
1FE
100
AcDbEntity
  8
치수문자_일반주서
 62
     0
370
    -2
100
AcDbLine
 10
223.082087395183
 20
-21.56377209681855
 30
0.0
 11
223.0820873951828
 21
16.87687609094795
 31
0.0
  0
LINE
  5
204
330
1FE
100
AcDbEntity
  8
치수문자_일반주서
 62
     0
370
    -2
100
AcDbLine
 10
223.082087395183
 20
-24.86577209681855
 30
0.0
 11
223.0820873951831
 21
-46.83677209681854
 31
0.0
  0
SOLID
  5
205
330
1FE
100
AcDbEntity
  8
치수문자_일반주서
 62
     0
100
AcDbTrace
 10
223.6324207285163
 20
-24.86577209681855
 30
0.0
 11
222.5317540618497
 21
-24.86577209681855
 31
0.0
 12
223.082087395183
 22
-21.56377209681855
 32
0.0
 13
223.082087395183
 23
-21.56377209681855
 33
0.0
  0
SOLID
  5
206
330
1FE
100
AcDbEntity
  8
치수문자_일반주서
 62
     0
100
AcDbTrace
 10
222.5317540618498
 20
-46.83677209681854
 30
0.0
 11
223.6324207285164
 21
-46.83677209681854
 31
0.0
 12
223.0820873951831
 22
-50.13877209681854
 32
0.0
 13
223.0820873951831
 23
-50.13877209681854
 33
0.0
  0
MTEXT
  5
207
330
1FE
100
AcDbEntity
  8
치수문자_일반주서
 62
     0
100
AcDbMText
 10
218.7070873951829
 20
0.6893760909479352
 30
0.0
 40
3.5
 41
0.0
 71
     2
 72
     1
  1
\A1;%%c28.58 [1 1/8]
  7
SLDTEXTSTYLE0
 11
-3.978542002506249E-15
 21
1.0
 31
0.0
 73
     1
 44
1.0
  0
POINT
  5
208
330
1FE
100
AcDbEntity
  8
Defpoints
 62
     0
100
AcDbPoint
 10
205.9424123490272
 20
-21.56377209681861
 30
0.0
  0
POINT
  5
209
330
1FE
100
AcDbEntity
  8
Defpoints
 62
     0
100
AcDbPoint
 10
205.9424123490272
 20
-50.13877209681861
 30
0.0
  0
POINT
  5
20A
330
1FE
100
AcDbEntity
  8
Defpoints
 62
     0
100
AcDbPoint
 10
223.0820873951831
 20
-50.13877209681854
 30
0.0
  0
ENDBLK
  5
200
330
1FE
100
AcDbEntity
  8
0
100
AcDbBlockEnd
  0
BLOCK
  5
20C
330
20B
100
AcDbEntity
  8
0
100
AcDbBlockBegin
  2
*D13
 70
     1
 10
0.0
 20
0.0
 30
0.0
  3
*D13
  1
*D14
  0
LINE
  5
20E
330
20B
100
AcDbEntity
  8
치수문자_일반주서
 62
     0
370
    -2
100
AcDbLine
 10
43.27499999999813
 20
15.9375
 30
0.0
 11
43.27499999999813
 21
38.76250000000006
 31
0.0
  0
LINE
  5
20F
330
20B
100
AcDbEntity
  8
치수문자_일반주서
 62
     0
370
    -2
100
AcDbLine
 10
-55.15000000000362
 20
8.587499999999999
 30
0.0
 11
-55.15000000000362
 21
38.76250000000006
 31
0.0
  0
LINE
  5
210
330
20B
100
AcDbEntity
  8
치수문자_일반주서
 62
     0
370
    -2
100
AcDbLine
 10
39.97299999999813
 20
38.76250000000006
 30
0.0
 11
-51.84800000000362
 21
38.76250000000006
 31
0.0
  0
SOLID
  5
211
330
20B
100
AcDbEntity
  8
치수문자_일반주서
 62
     0
100
AcDbTrace
 10
39.97299999999813
 20
38.21216666666673
 30
0.0
 11
39.97299999999813
 21
39.31283333333339
 31
0.0
 12
43.27499999999813
 22
38.76250000000006
 32
0.0
 13
43.27499999999813
 23
38.76250000000006
 33
0.0
  0
SOLID
  5
212
330
20B
100
AcDbEntity
  8
치수문자_일반주서
 62
     0
100
AcDbTrace
 10
-51.84800000000362
 20
39.31283333333339
 30
0.0
 11
-51.84800000000362
 21
38.21216666666673
 31
0.0
 12
-55.15000000000362
 22
38.76250000000006
 32
0.0
 13
-55.15000000000362
 23
38.76250000000006
 33
0.0
  0
MTEXT
  5
213
330
20B
100
AcDbEntity
  8
치수문자_일반주서
 62
     0
100
AcDbMText
 10
-5.937500000003638
 20
43.13750000000006
 30
0.0
 40
3.5
 41
0.0
 71
     2
 72
     1
  1
\A1;98.43 [3 7/8]
  7
SLDTEXTSTYLE0
 73
     1
 44
1.0
  0
POINT
  5
214
330
20B
100
AcDbEntity
  8
Defpoints
 62
     0
100
AcDbPoint
 10
43.27499999999813
 20
15.875
 30
0.0
  0
POINT
  5
215
330
20B
100
AcDbEntity
  8
Defpoints
 62
     0
100
AcDbPoint
 10
-55.15000000000362
 20
8.524999999999999
 30
0.0
  0
POINT
  5
216
330
20B
100
AcDbEntity
  8
Defpoints
 62
     0
100
AcDbPoint
 10
-55.15000000000362
 20
38.76250000000006
 30
0.0
  0
ENDBLK
  5
20D
330
20B
100
AcDbEntity
  8
0
100
AcDbBlockEnd
  0
BLOCK
  5
218
330
217
100
AcDbEntity
  8
0
100
AcDbBlockBegin
  2
*D14
 70
     1
 10
0.0
 20
0.0
 30
0.0
  3
*D14
  1
*D15
  0
LINE
  5
21A
330
217
100
AcDbEntity
  8
치수문자_일반주서
 62
     0
370
    -2
100
AcDbLine
 10
-54.21250000000362
 20
9.525000000000006
 30
0.0
 11
-67.65000000000363
 21
9.524999999999956
 31
0.0
  0
LINE
  5
21B
330
217
100
AcDbEntity
  8
치수문자_일반주서
 62
     0
370
    -2
100
AcDbLine
 10
-54.21250000000362
 20
-9.525000000000006
 30
0.0
 11
-67.65000000000356
 21
-9.525000000000055
 31
0.0
  0
LINE
  5
21C
330
217
100
AcDbEntity
  8
치수문자_일반주서
 62
     0
370
    -2
100
AcDbLine
 10
-67.65000000000362
 20
6.222999999999956
 30
0.0
 11
-67.65000000000357
 21
-6.223000000000056
 31
0.0
  0
SOLID
  5
21D
330
217
100
AcDbEntity
  8
치수문자_일반주서
 62
     0
100
AcDbTrace
 10
-67.09966666667029
 20
6.222999999999958
 30
0.0
 11
-68.20033333333694
 21
6.222999999999955
 31
0.0
 12
-67.65000000000363
 22
9.524999999999956
 32
0.0
 13
-67.65000000000363
 23
9.524999999999956
 33
0.0
  0
SOLID
  5
21E
330
217
100
AcDbEntity
  8
치수문자_일반주서
 62
     0
100
AcDbTrace
 10
-68.2003333333369
 20
-6.223000000000058
 30
0.0
 11
-67.09966666667025
 21
-6.223000000000054
 31
0.0
 12
-67.65000000000356
 22
-9.525000000000055
 32
0.0
 13
-67.65000000000356
 23
-9.525000000000055
 33
0.0
  0
MTEXT
  5
21F
330
217
100
AcDbEntity
  8
치수문자_일반주서
 62
     0
100
AcDbMText
 10
-72.0250000000036
 20
-0.0000000000000092
 30
0.0
 40
3.5
 41
0.0
 71
     2
 72
     1
  1
\A1;%%c19.05 [3/4]
  7
SLDTEXTSTYLE0
 11
-3.729883127349605E-15
 21
1.0
 31
0.0
 73
     1
 44
1.0
  0
POINT
  5
220
330
217
100
AcDbEntity
  8
Defpoints
 62
     0
100
AcDbPoint
 10
-54.15000000000362
 20
9.525000000000006
 30
0.0
  0
POINT
  5
221
330
217
100
AcDbEntity
  8
Defpoints
 62
     0
100
AcDbPoint
 10
-54.15000000000362
 20
-9.525000000000006
 30
0.0
  0
POINT
  5
222
330
217
100
AcDbEntity
  8
Defpoints
 62
     0
100
AcDbPoint
 10
-67.65000000000356
 20
-9.525000000000055
 30
0.0
  0
ENDBLK
  5
219
330
217
100
AcDbEntity
  8
0
100
AcDbBlockEnd
  0
BLOCK
  5
2DC
330
2DB
100
AcDbEntity
  8
0
100
AcDbBlockBegin
  2
*D15
 70
     1
 10
0.0
 20
0.0
 30
0.0
  3
*D15
  1
*D16
  0
LINE
  5
2DE
330
2DB
100
AcDbEntity
  8
치수문자_일반주서
 62
     0
370
    -2
100
AcDbLine
 10
143.8750000000001
 20
31.84695802388574
 30
0.0
 11
143.8750000000001
 21
35.73505780330215
 31
0.0
  0
LINE
  5
2DF
330
2DB
100
AcDbEntity
  8
치수문자_일반주서
 62
     0
370
    -2
100
AcDbLine
 10
80.37500000000006
 20
31.27133370777132
 30
0.0
 11
80.37500000000006
 21
35.73505780330215
 31
0.0
  0
LINE
  5
2E0
330
2DB
100
AcDbEntity
  8
치수문자_일반주서
 62
     0
370
    -2
100
AcDbLine
 10
140.5730000000001
 20
35.73505780330215
 30
0.0
 11
83.67700000000006
 21
35.73505780330215
 31
0.0
  0
SOLID
  5
2E1
330
2DB
100
AcDbEntity
  8
치수문자_일반주서
 62
     0
100
AcDbTrace
 10
140.5730000000001
 20
35.18472446996881
 30
0.0
 11
140.5730000000001
 21
36.28539113663548
 31
0.0
 12
143.8750000000001
 22
35.73505780330215
 32
0.0
 13
143.8750000000001
 23
35.73505780330215
 33
0.0
  0
SOLID
  5
2E2
330
2DB
100
AcDbEntity
  8
치수문자_일반주서
 62
     0
100
AcDbTrace
 10
83.67700000000006
 20
36.28539113663548
 30
0.0
 11
83.67700000000006
 21
35.18472446996881
 31
0.0
 12
80.37500000000006
 22
35.73505780330215
 32
0.0
 13
80.37500000000006
 23
35.73505780330215
 33
0.0
  0
MTEXT
  5
2E3
330
2DB
100
AcDbEntity
  8
치수문자_일반주서
 62
     0
100
AcDbMText
 10
114.7604069093419
 20
40.11005780330215
 30
0.0
 40
3.5
 41
0.0
 71
     2
 72
     1
  1
\A1;63.50 [2 1/2]
  7
SLDTEXTSTYLE0
 73
     1
 44
1.0
  0
POINT
  5
2E4
330
2DB
100
AcDbEntity
  8
Defpoints
 62
     0
100
AcDbPoint
 10
143.8750000000001
 20
31.78445802388574
 30
0.0
  0
POINT
  5
2E5
330
2DB
100
AcDbEntity
  8
Defpoints
 62
     0
100
AcDbPoint
 10
80.37500000000006
 20
31.20883370777132
 30
0.0
  0
POINT
  5
2E6
330
2DB
100
AcDbEntity
  8
Defpoints
 62
     0
100
AcDbPoint
 10
80.37500000000006
 20
35.73505780330215
 30
0.0
  0
ENDBLK
  5
2DD
330
2DB
100
AcDbEntity
  8
0
100
AcDbBlockEnd
  0
BLOCK
  5
2E8
330
2E7
100
AcDbEntity
  8
0
100
AcDbBlockBegin
  2
*D16
 70
     1
 10
0.0
 20
0.0
 30
0.0
  3
*D16
  1
*D17
  0
LINE
  5
2EA
330
2E7
100
AcDbEntity
  8
치수문자_일반주서
 62
     0
370
    -2
100
AcDbLine
 10
143.8750000000001
 20
31.84695802388574
 30
0.0
 11
143.8750000000001
 21
54.67195802388579
 31
0.0
  0
LINE
  5
2EB
330
2E7
100
AcDbEntity
  8
치수문자_일반주서
 62
     0
370
    -2
100
AcDbLine
 10
16.87500000000006
 20
30.84695802388573
 30
0.0
 11
16.87500000000006
 21
54.67195802388579
 31
0.0
  0
LINE
  5
2EC
330
2E7
100
AcDbEntity
  8
치수문자_일반주서
 62
     0
370
    -2
100
AcDbLine
 10
140.5730000000001
 20
54.67195802388579
 30
0.0
 11
20.17700000000006
 21
54.67195802388579
 31
0.0
  0
SOLID
  5
2ED
330
2E7
100
AcDbEntity
  8
치수문자_일반주서
 62
     0
100
AcDbTrace
 10
140.5730000000001
 20
54.12162469055245
 30
0.0
 11
140.5730000000001
 21
55.22229135721912
 31
0.0
 12
143.8750000000001
 22
54.67195802388579
 32
0.0
 13
143.8750000000001
 23
54.67195802388579
 33
0.0
  0
SOLID
  5
2EE
330
2E7
100
AcDbEntity
  8
치수문자_일반주서
 62
     0
100
AcDbTrace
 10
20.17700000000006
 20
55.22229135721912
 30
0.0
 11
20.17700000000006
 21
54.12162469055245
 31
0.0
 12
16.87500000000006
 22
54.67195802388579
 32
0.0
 13
16.87500000000006
 23
54.67195802388579
 33
0.0
  0
MTEXT
  5
2EF
330
2E7
100
AcDbEntity
  8
치수문자_일반주서
 62
     0
100
AcDbMText
 10
80.37500000000006
 20
59.04695802388579
 30
0.0
 40
3.5
 41
0.0
 71
     2
 72
     1
  1
\A1;127.00 [5]
  7
SLDTEXTSTYLE0
 73
     1
 44
1.0
  0
POINT
  5
2F0
330
2E7
100
AcDbEntity
  8
Defpoints
 62
     0
100
AcDbPoint
 10
143.8750000000001
 20
31.78445802388574
 30
0.0
  0
POINT
  5
2F1
330
2E7
100
AcDbEntity
  8
Defpoints
 62
     0
100
AcDbPoint
 10
16.87500000000006
 20
30.78445802388573
 30
0.0
  0
POINT
  5
2F2
330
2E7
100
AcDbEntity
  8
Defpoints
 62
     0
100
AcDbPoint
 10
16.87500000000006
 20
54.67195802388579
 30
0.0
  0
ENDBLK
  5
2E9
330
2E7
100
AcDbEntity
  8
0
100
AcDbBlockEnd
  0
BLOCK
  5
2F4
330
2F3
100
AcDbEntity
  8
0
100
AcDbBlockBegin
  2
*D17
 70
     1
 10
0.0
 20
0.0
 30
0.0
  3
*D17
  1
*D18
  0
LINE
  5
2F6
330
2F3
100
AcDbEntity
  8
치수문자_일반주서
 62
     0
370
    -2
100
AcDbLine
 10
17.81250000000006
 20
31.78445802388574
 30
0.0
 11
4.374999999999988
 21
31.78445802388569
 31
0.0
  0
LINE
  5
2F7
330
2F3
100
AcDbEntity
  8
치수문자_일반주서
 62
     0
370
    -2
100
AcDbLine
 10
17.81250000000006
 20
0.0344580238857401
 30
0.0
 11
4.375000000000099
 21
0.0344580238856906
 31
0.0
  0
LINE
  5
2F8
330
2F3
100
AcDbEntity
  8
치수문자_일반주서
 62
     0
370
    -2
100
AcDbLine
 10
4.374999999999999
 20
28.48245802388569
 30
0.0
 11
4.375000000000087
 21
3.336458023885691
 31
0.0
  0
SOLID
  5
2F9
330
2F3
100
AcDbEntity
  8
치수문자_일반주서
 62
     0
100
AcDbTrace
 10
4.925333333333333
 20
28.48245802388569
 30
0.0
 11
3.824666666666666
 21
28.48245802388569
 31
0.0
 12
4.374999999999988
 22
31.78445802388569
 32
0.0
 13
4.374999999999988
 23
31.78445802388569
 33
0.0
  0
SOLID
  5
2FA
330
2F3
100
AcDbEntity
  8
치수문자_일반주서
 62
     0
100
AcDbTrace
 10
3.824666666666753
 20
3.336458023885689
 30
0.0
 11
4.925333333333421
 21
3.336458023885692
 31
0.0
 12
4.375000000000099
 22
0.0344580238856906
 32
0.0
 13
4.375000000000099
 23
0.0344580238856906
 33
0.0
  0
MTEXT
  5
2FB
330
2F3
100
AcDbEntity
  8
치수문자_일반주서
 62
     0
100
AcDbMText
 10
0.0000000000000426
 20
15.90945802388572
 30
0.0
 40
3.5
 41
0.0
 71
     2
 72
     1
  1
\A1;%%c31.75 [1 1/4]
  7
SLDTEXTSTYLE0
 11
-3.496765431890257E-15
 21
1.0
 31
0.0
 73
     1
 44
1.0
  0
POINT
  5
2FC
330
2F3
100
AcDbEntity
  8
Defpoints
 62
     0
100
AcDbPoint
 10
17.87500000000006
 20
31.78445802388574
 30
0.0
  0
POINT
  5
2FD
330
2F3
100
AcDbEntity
  8
Defpoints
 62
     0
100
AcDbPoint
 10
17.87500000000006
 20
0.0344580238857404
 30
0.0
  0
POINT
  5
2FE
330
2F3
100
AcDbEntity
  8
Defpoints
 62
     0
100
AcDbPoint
 10
4.375000000000099
 20
0.0344580238856899
 30
0.0
  0
ENDBLK
  5
2F5
330
2F3
100
AcDbEntity
  8
0
100
AcDbBlockEnd
  0
BLOCK
  5
300
330
2FF
100
AcDbEntity
  8
0
100
AcDbBlockBegin
  2
*D18
 70
     1
 10
0.0
 20
0.0
 30
0.0
  3
*D18
  1
*D19
  0
LINE
  5
302
330
2FF
100
AcDbEntity
  8
치수문자_일반주서
 62
     0
370
    -2
100
AcDbLine
 10
143.9375000000001
 20
31.78445802388574
 30
0.0
 11
163.9484955240948
 21
31.78445802388581
 31
0.0
  0
LINE
  5
303
330
2FF
100
AcDbEntity
  8
치수문자_일반주서
 62
     0
370
    -2
100
AcDbLine
 10
143.9375000000001
 20
0.0449842400634497
 30
0.0
 11
163.9484955240949
 21
0.0449842400635205
 31
0.0
  0
LINE
  5
304
330
2FF
100
AcDbEntity
  8
치수문자_일반주서
 62
     0
370
    -2
100
AcDbLine
 10
163.9484955240948
 20
31.78445802388581
 30
0.0
 11
163.9484955240947
 21
67.68020802388581
 31
0.0
  0
LINE
  5
305
330
2FF
100
AcDbEntity
  8
치수문자_일반주서
 62
     0
370
    -2
100
AcDbLine
 10
163.9484955240948
 20
28.48245802388582
 30
0.0
 11
163.9484955240949
 21
3.346984240063521
 31
0.0
  0
SOLID
  5
306
330
2FF
100
AcDbEntity
  8
치수문자_일반주서
 62
     0
100
AcDbTrace
 10
164.4988288574281
 20
28.48245802388582
 30
0.0
 11
163.3981621907615
 21
28.48245802388581
 31
0.0
 12
163.9484955240948
 22
31.78445802388581
 32
0.0
 13
163.9484955240948
 23
31.78445802388581
 33
0.0
  0
SOLID
  5
307
330
2FF
100
AcDbEntity
  8
치수문자_일반주서
 62
     0
100
AcDbTrace
 10
163.3981621907616
 20
3.346984240063519
 30
0.0
 11
164.4988288574282
 21
3.346984240063522
 31
0.0
 12
163.9484955240949
 22
0.0449842400635205
 32
0.0
 13
163.9484955240949
 23
0.0449842400635205
 33
0.0
  0
MTEXT
  5
308
330
2FF
100
AcDbEntity
  8
치수문자_일반주서
 62
     0
100
AcDbMText
 10
159.5734955240947
 20
51.9302080238858
 30
0.0
 40
3.5
 41
0.0
 71
     2
 72
     1
  1
\A1;%%c31.74 [1 1/4]
  7
SLDTEXTSTYLE0
 11
-3.581875317024398E-15
 21
1.0
 31
0.0
 73
     1
 44
1.0
  0
POINT
  5
309
330
2FF
100
AcDbEntity
  8
Defpoints
 62
     0
100
AcDbPoint
 10
143.8750000000001
 20
31.78445802388574
 30
0.0
  0
POINT
  5
30A
330
2FF
100
AcDbEntity
  8
Defpoints
 62
     0
100
AcDbPoint
 10
143.8750000000001
 20
0.0449842400634495
 30
0.0
  0
POINT
  5
30B
330
2FF
100
AcDbEntity
  8
Defpoints
 62
     0
100
AcDbPoint
 10
163.9484955240949
 20
0.0449842400635245
 30
0.0
  0
ENDBLK
  5
301
330
2FF
100
AcDbEntity
  8
0
100
AcDbBlockEnd
  0
BLOCK
  5
33C
330
33B
100
AcDbEntity
  8
0
100
AcDbBlockBegin
  2
*D19
 70
     1
 10
0.0
 20
0.0
 30
0.0
  3
*D19
  1
*D20
  0
LINE
  5
33E
330
33B
100
AcDbEntity
  8
치수문자_일반주서
 62
     0
370
    -2
100
AcDbLine
 10
53.27500000000001
 20
15.93750000000001
 30
0.0
 11
53.27500000000001
 21
26.8589587765618
 31
0.0
  0
LINE
  5
33F
330
33B
100
AcDbEntity
  8
치수문자_일반주서
 62
     0
370
    -2
100
AcDbLine
 10
12.0
 20
15.9375
 30
0.0
 11
12.0
 21
26.8589587765618
 31
0.0
  0
LINE
  5
340
330
33B
100
AcDbEntity
  8
치수문자_일반주서
 62
     0
370
    -2
100
AcDbLine
 10
49.97300000000001
 20
26.8589587765618
 30
0.0
 11
15.302
 21
26.8589587765618
 31
0.0
  0
SOLID
  5
341
330
33B
100
AcDbEntity
  8
치수문자_일반주서
 62
     0
100
AcDbTrace
 10
49.97300000000001
 20
26.30862544322846
 30
0.0
 11
49.97300000000001
 21
27.40929210989513
 31
0.0
 12
53.27500000000001
 22
26.8589587765618
 32
0.0
 13
53.27500000000001
 23
26.8589587765618
 33
0.0
  0
SOLID
  5
342
330
33B
100
AcDbEntity
  8
치수문자_일반주서
 62
     0
100
AcDbTrace
 10
15.302
 20
27.40929210989513
 30
0.0
 11
15.302
 21
26.30862544322846
 31
0.0
 12
12.0
 22
26.8589587765618
 32
0.0
 13
12.0
 23
26.8589587765618
 33
0.0
  0
MTEXT
  5
343
330
33B
100
AcDbEntity
  8
치수문자_일반주서
 62
     0
100
AcDbMText
 10
32.6375
 20
31.2339587765618
 30
0.0
 40
3.5
 41
0.0
 71
     2
 72
     1
  1
\A1;41.28 [1 5/8]
  7
SLDTEXTSTYLE0
 73
     1
 44
1.0
  0
POINT
  5
344
330
33B
100
AcDbEntity
  8
Defpoints
 62
     0
100
AcDbPoint
 10
53.27500000000001
 20
15.87500000000001
 30
0.0
  0
POINT
  5
345
330
33B
100
AcDbEntity
  8
Defpoints
 62
     0
100
AcDbPoint
 10
12.0
 20
15.875
 30
0.0
  0
POINT
  5
346
330
33B
100
AcDbEntity
  8
Defpoints
 62
     0
100
AcDbPoint
 10
12.0
 20
26.8589587765618
 30
0.0
  0
ENDBLK
  5
33D
330
33B
100
AcDbEntity
  8
0
100
AcDbBlockEnd
  0
BLOCK
  5
348
330
347
100
AcDbEntity
  8
0
100
AcDbBlockBegin
  2
*D20
 70
     1
 10
0.0
 20
0.0
 30
0.0
  3
*D20
  1
*D21
  0
LINE
  5
34A
330
347
100
AcDbEntity
  8
치수문자_일반주서
 62
     0
370
    -2
100
AcDbLine
 10
53.27500000000001
 20
15.93750000000001
 30
0.0
 11
53.27500000000001
 21
38.76250000000005
 31
0.0
  0
LINE
  5
34B
330
347
100
AcDbEntity
  8
치수문자_일반주서
 62
     0
370
    -2
100
AcDbLine
 10
-45.14999999999999
 20
8.587499999999995
 30
0.0
 11
-45.14999999999999
 21
38.76250000000005
 31
0.0
  0
LINE
  5
34C
330
347
100
AcDbEntity
  8
치수문자_일반주서
 62
     0
370
    -2
100
AcDbLine
 10
49.97300000000001
 20
38.76250000000005
 30
0.0
 11
-41.84799999999999
 21
38.76250000000005
 31
0.0
  0
SOLID
  5
34D
330
347
100
AcDbEntity
  8
치수문자_일반주서
 62
     0
100
AcDbTrace
 10
49.97300000000001
 20
38.21216666666671
 30
0.0
 11
49.97300000000001
 21
39.31283333333338
 31
0.0
 12
53.27500000000001
 22
38.76250000000005
 32
0.0
 13
53.27500000000001
 23
38.76250000000005
 33
0.0
  0
SOLID
  5
34E
330
347
100
AcDbEntity
  8
치수문자_일반주서
 62
     0
100
AcDbTrace
 10
-41.84799999999999
 20
39.31283333333338
 30
0.0
 11
-41.84799999999999
 21
38.21216666666671
 31
0.0
 12
-45.14999999999999
 22
38.76250000000005
 32
0.0
 13
-45.14999999999999
 23
38.76250000000005
 33
0.0
  0
MTEXT
  5
34F
330
347
100
AcDbEntity
  8
치수문자_일반주서
 62
     0
100
AcDbMText
 10
4.0625
 20
43.13750000000005
 30
0.0
 40
3.5
 41
0.0
 71
     2
 72
     1
  1
\A1;98.43 [3 7/8]
  7
SLDTEXTSTYLE0
 73
     1
 44
1.0
  0
POINT
  5
350
330
347
100
AcDbEntity
  8
Defpoints
 62
     0
100
AcDbPoint
 10
53.27500000000001
 20
15.87500000000001
 30
0.0
  0
POINT
  5
351
330
347
100
AcDbEntity
  8
Defpoints
 62
     0
100
AcDbPoint
 10
-45.14999999999999
 20
8.524999999999995
 30
0.0
  0
POINT
  5
352
330
347
100
AcDbEntity
  8
Defpoints
 62
     0
100
AcDbPoint
 10
-45.14999999999999
 20
38.76250000000005
 30
0.0
  0
ENDBLK
  5
349
330
347
100
AcDbEntity
  8
0
100
AcDbBlockEnd
  0
BLOCK
  5
354
330
353
100
AcDbEntity
  8
0
100
AcDbBlockBegin
  2
*D21
 70
     1
 10
0.0
 20
0.0
 30
0.0
  3
*D21
  1
*D22
  0
LINE
  5
356
330
353
100
AcDbEntity
  8
치수문자_일반주서
 62
     0
370
    -2
100
AcDbLine
 10
-44.15000000000001
 20
9.524999999999986
 30
0.0
 11
-57.58750000000006
 21
9.524999999999936
 31
0.0
  0
LINE
  5
357
330
353
100
AcDbEntity
  8
치수문자_일반주서
 62
     0
370
    -2
100
AcDbLine
 10
-44.15000000000001
 20
-9.525000000000032
 30
0.0
 11
-57.58749999999999
 21
-9.525000000000082
 31
0.0
  0
LINE
  5
358
330
353
100
AcDbEntity
  8
치수문자_일반주서
 62
     0
370
    -2
100
AcDbLine
 10
-57.58750000000004
 20
6.222999999999937
 30
0.0
 11
-57.58750000000001
 21
-6.223000000000082
 31
0.0
  0
SOLID
  5
359
330
353
100
AcDbEntity
  8
치수문자_일반주서
 62
     0
100
AcDbTrace
 10
-57.03716666666671
 20
6.222999999999939
 30
0.0
 11
-58.13783333333338
 21
6.222999999999935
 31
0.0
 12
-57.58750000000006
 22
9.524999999999936
 32
0.0
 13
-57.58750000000006
 23
9.524999999999936
 33
0.0
  0
SOLID
  5
35A
330
353
100
AcDbEntity
  8
치수문자_일반주서
 62
     0
100
AcDbTrace
 10
-58.13783333333334
 20
-6.223000000000084
 30
0.0
 11
-57.03716666666667
 21
-6.223000000000081
 31
0.0
 12
-57.58749999999999
 22
-9.525000000000082
 32
0.0
 13
-57.58749999999999
 23
-9.525000000000082
 33
0.0
  0
MTEXT
  5
35B
330
353
100
AcDbEntity
  8
치수문자_일반주서
 62
     0
100
AcDbMText
 10
-61.96250000000003
 20
-0.0000000000000323
 30
0.0
 40
3.5
 41
0.0
 71
     2
 72
     1
  1
\A1;%%c19.05 [3/4]
  7
SLDTEXTSTYLE0
 11
-3.356894814614643E-15
 21
1.0
 31
0.0
 73
     1
 44
1.0
  0
POINT
  5
35C
330
353
100
AcDbEntity
  8
Defpoints
 62
     0
100
AcDbPoint
 10
-44.08750000000001
 20
9.524999999999986
 30
0.0
  0
POINT
  5
35D
330
353
100
AcDbEntity
  8
Defpoints
 62
     0
100
AcDbPoint
 10
-44.08750000000001
 20
-9.525000000000032
 30
0.0
  0
POINT
  5
35E
330
353
100
AcDbEntity
  8
Defpoints
 62
     0
100
AcDbPoint
 10
-57.58749999999999
 20
-9.525000000000082
 30
0.0
  0
ENDBLK
  5
355
330
353
100
AcDbEntity
  8
0
100
AcDbBlockEnd
  0
BLOCK
  5
360
330
35F
100
AcDbEntity
  8
0
100
AcDbBlockBegin
  2
*D22
 70
     1
 10
0.0
 20
0.0
 30
0.0
  3
*D22
  1
*D23
  0
LINE
  5
362
330
35F
100
AcDbEntity
  8
치수문자_일반주서
 62
     0
370
    -2
100
AcDbLine
 10
75.5625
 20
15.8760749287239
 30
0.0
 11
95.57349552409472
 21
15.87607492872398
 31
0.0
  0
LINE
  5
363
330
35F
100
AcDbEntity
  8
치수문자_일반주서
 62
     0
370
    -2
100
AcDbLine
 10
75.5625
 20
-15.86339885509839
 30
0.0
 11
95.57349552409484
 21
-15.86339885509832
 31
0.0
  0
LINE
  5
364
330
35F
100
AcDbEntity
  8
치수문자_일반주서
 62
     0
370
    -2
100
AcDbLine
 10
95.57349552409472
 20
15.87607492872398
 30
0.0
 11
95.5734955240946
 21
51.77182492872397
 31
0.0
  0
LINE
  5
365
330
35F
100
AcDbEntity
  8
치수문자_일반주서
 62
     0
370
    -2
100
AcDbLine
 10
95.57349552409474
 20
12.57407492872398
 30
0.0
 11
95.57349552409482
 21
-12.56139885509832
 31
0.0
  0
SOLID
  5
366
330
35F
100
AcDbEntity
  8
치수문자_일반주서
 62
     0
100
AcDbTrace
 10
96.12382885742807
 20
12.57407492872398
 30
0.0
 11
95.02316219076141
 21
12.57407492872398
 31
0.0
 12
95.57349552409472
 22
15.87607492872398
 32
0.0
 13
95.57349552409472
 23
15.87607492872398
 33
0.0
  0
SOLID
  5
367
330
35F
100
AcDbEntity
  8
치수문자_일반주서
 62
     0
100
AcDbTrace
 10
95.0231621907615
 20
-12.56139885509832
 30
0.0
 11
96.12382885742815
 21
-12.56139885509832
 31
0.0
 12
95.57349552409484
 22
-15.86339885509832
 32
0.0
 13
95.57349552409484
 23
-15.86339885509832
 33
0.0
  0
MTEXT
  5
368
330
35F
100
AcDbEntity
  8
치수문자_일반주서
 62
     0
100
AcDbMText
 10
91.19849552409465
 20
36.02182492872396
 30
0.0
 40
3.5
 41
0.0
 71
     2
 72
     1
  1
\A1;%%c31.74 [1 1/4]
  7
SLDTEXTSTYLE0
 11
-3.581875317024398E-15
 21
1.0
 31
0.0
 73
     1
 44
1.0
  0
POINT
  5
369
330
35F
100
AcDbEntity
  8
Defpoints
 62
     0
100
AcDbPoint
 10
75.5
 20
15.8760749287239
 30
0.0
  0
POINT
  5
36A
330
35F
100
AcDbEntity
  8
Defpoints
 62
     0
100
AcDbPoint
 10
75.5
 20
-15.86339885509839
 30
0.0
  0
POINT
  5
36B
330
35F
100
AcDbEntity
  8
Defpoints
 62
     0
100
AcDbPoint
 10
95.57349552409484
 20
-15.86339885509832
 30
0.0
  0
ENDBLK
  5
361
330
35F
100
AcDbEntity
  8
0
100
AcDbBlockEnd
  0
BLOCK
  5
371
330
370
100
AcDbEntity
  8
0
100
AcDbBlockBegin
  2
*D23
 70
     1
 10
0.0
 20
0.0
 30
0.0
  3
*D23
  1
*D24
  0
LINE
  5
373
330
370
100
AcDbEntity
  8
치수문자_일반주서
 62
     0
370
    -2
100
AcDbLine
 10
53.33750000000001
 20
15.875
 30
0.0
 11
70.24163991050393
 21
15.875
 31
0.0
  0
LINE
  5
374
330
370
100
AcDbEntity
  8
치수문자_일반주서
 62
     0
370
    -2
100
AcDbLine
 10
53.33750000000001
 20
-15.875
 30
0.0
 11
70.24163991050393
 21
-15.875
 31
0.0
  0
LINE
  5
375
330
370
100
AcDbEntity
  8
치수문자_일반주서
 62
     0
370
    -2
100
AcDbLine
 10
70.24163991050393
 20
12.573
 30
0.0
 11
70.24163991050393
 21
-12.573
 31
0.0
  0
SOLID
  5
376
330
370
100
AcDbEntity
  8
치수문자_일반주서
 62
     0
100
AcDbTrace
 10
70.79197324383726
 20
12.573
 30
0.0
 11
69.69130657717061
 21
12.573
 31
0.0
 12
70.24163991050393
 22
15.875
 32
0.0
 13
70.24163991050393
 23
15.875
 33
0.0
  0
SOLID
  5
377
330
370
100
AcDbEntity
  8
치수문자_일반주서
 62
     0
100
AcDbTrace
 10
69.69130657717061
 20
-12.573
 30
0.0
 11
70.79197324383726
 21
-12.573
 31
0.0
 12
70.24163991050393
 22
-15.875
 32
0.0
 13
70.24163991050393
 23
-15.875
 33
0.0
  0
MTEXT
  5
378
330
370
100
AcDbEntity
  8
치수문자_일반주서
 62
     0
100
AcDbMText
 10
67.61663991050393
 20
-0.0000000000000018
 30
0.0
 40
3.5
 41
0.0
 71
     5
 72
     1
  1
\A1;{%%c31.75 [1 1/4]}
  7
SLDTEXTSTYLE0
 11
0.0
 21
1.0
 31
0.0
 73
     1
 44
1.0
  0
POINT
  5
379
330
370
100
AcDbEntity
  8
Defpoints
 62
     0
100
AcDbPoint
 10
53.27500000000001
 20
15.875
 30
0.0
  0
POINT
  5
37A
330
370
100
AcDbEntity
  8
Defpoints
 62
     0
100
AcDbPoint
 10
53.27500000000001
 20
-15.875
 30
0.0
  0
POINT
  5
37B
330
370
100
AcDbEntity
  8
Defpoints
 62
     0
100
AcDbPoint
 10
70.24163991050393
 20
-15.875
 30
0.0
  0
ENDBLK
  5
372
330
370
100
AcDbEntity
  8
0
100
AcDbBlockEnd
  0
ENDSEC
  0
SECTION
  2
ENTITIES
  0
LINE
  5
A5
330
1F
100
AcDbEntity
  8
참조1
100
AcDbLine
 10
-18.48823868596883
 20
-0.0000000000000059
 30
0.0
 11
-18.48823868596883
 21
-40.00000000000001
 31
0.0
  0
LINE
  5
A6
330
1F
100
AcDbEntity
  8
참조1
100
AcDbLine
 10
33.89926131403118
 20
-0.0000000000000059
 30
0.0
 11
33.89926131403118
 21
4.273651794474893
 31
0.0
  0
LINE
  5
A7
330
1F
100
AcDbEntity
  8
참조1
100
AcDbLine
 10
-18.48823868596883
 20
-40.00000000000001
 30
0.0
 11
-42.37834550027749
 21
-39.99999999999999
 31
0.0
  0
INSERT
  5
A9
330
1F
100
AcDbEntity
  8
0
  6
Continuous
 62
     7
100
AcDbBlockReference
 66
     1
  2
블럭10
 10
-45.27777293212709
 20
-52.04824923036784
 30
0.0
  0
ATTRIB
  5
AA
330
A9
100
AcDbEntity
  8
FORMAT
 62
     2
100
AcDbText
 10
-54.45906822086837
 20
-49.97288231753565
 30
0.0
 40
4.233333333333333
  1
E2110916 [ 2 FLUTE ]
 41
0.75
  7
SLDTEXTSTYLE0
 11
-54.45906822086837
 21
-52.08954898420232
 31
0.0
100
AcDbAttribute
  2
AUTOATTR0
 70
     0
 74
     1
  0
SEQEND
  5
AB
330
A9
100
AcDbEntity
  8
0
  6
Continuous
 62
     7
  0
HATCH
  5
AC
330
1F
100
AcDbEntity
  8
중심선
100
AcDbHatch
 10
0.0
 20
0.0
 30
0.0
210
0.0
220
0.0
230
1.0
  2
SOLID
 70
     1
 71
     0
 91
        1
 92
        0
 93
        4
 72
     1
 10
-39.56286362774624
 20
-35.80107492872389
 11
-43.00913887158353
 21
-35.80107492872389
 72
     1
 10
-43.00913887158352
 20
-35.80107492872389
 11
-45.13736873078754
 21
-38.33740050929651
 72
     1
 10
-45.13736873078754
 20
-38.33740050929651
 11
-41.69106040183711
 21
-38.33736107999402
 72
     1
 10
-41.69106040183711
 20
-38.33736107999402
 11
-39.56286362774624
 21
-35.80107492872389
 97
        0
 75
     0
 76
     1
 98
        1
 10
-35.07426131403304
 20
-0.0021498574477973
  0
HATCH
  5
AD
330
1F
100
AcDbEntity
  8
중심선
100
AcDbHatch
 10
0.0
 20
0.0
 30
0.0
210
0.0
220
0.0
230
1.0
  2
SOLID
 70
     1
 71
     0
 91
        1
 92
        0
 93
        4
 72
     1
 10
-34.55009963671024
 20
-35.80107492872388
 11
-37.99637488054758
 21
-35.80107492872393
 72
     1
 10
-37.99637488054758
 20
-35.80107492872393
 11
-42.52751288890496
 21
-41.20107492872391
 72
     1
 10
-42.52751288890495
 20
-41.20107492872391
 11
-39.08123764506767
 21
-41.20107492872391
 72
     1
 10
-39.08123764506767
 20
-41.20107492872391
 11
-34.55009963671024
 21
-35.80107492872388
 97
        0
 75
     0
 76
     1
 98
        1
 10
-35.07426131403304
 20
-0.0021498574477973
  0
HATCH
  5
AE
330
1F
100
AcDbEntity
  8
중심선
100
AcDbHatch
 10
0.0
 20
0.0
 30
0.0
210
0.0
220
0.0
230
1.0
  2
SOLID
 70
     1
 71
     0
 91
        1
 92
        0
 93
        4
 72
     1
 10
-29.53733564567439
 20
-35.80107492872389
 11
-32.98361088951145
 21
-35.80107492872389
 72
     1
 10
-32.98361088951145
 20
-35.80107492872389
 11
-40.03204779140076
 21
-44.20107492872391
 72
     1
 10
-40.03204779140076
 20
-44.20107492872391
 11
-36.58577254756348
 21
-44.20107492872391
 72
     1
 10
-36.58577254756347
 20
-44.20107492872391
 11
-29.53733564567439
 21
-35.80107492872389
 97
        0
 75
     0
 76
     1
 98
        1
 10
-35.07426131403304
 20
-0.0021498574477973
  0
HATCH
  5
AF
330
1F
100
AcDbEntity
  8
중심선
100
AcDbHatch
 10
0.0
 20
0.0
 30
0.0
210
0.0
220
0.0
230
1.0
  2
SOLID
 70
     1
 71
     0
 91
        1
 92
        0
 93
        6
 72
     3
 10
-24.73744521466219
 20
-40.00107492877518
 11
3.960054785062283
 21
1.540882976769353E-10
 40
0.3939339440162628
 50
17.09539180608439
 51
320.0019657685081
 73
     0
 72
     1
 10
-23.0544455589616
 20
-38.5889689333622
 11
-20.74914368526053
 21
-36.65464222331428
 72
     3
 10
-24.73744521471504
 20
-40.00107492872406
 11
6.600054785286829
 21
-1.278976924368180E-13
 40
0.636358354079598
 50
39.99873849337385
 51
368.4976242363724
 73
     1
 72
     1
 10
-18.31211272281443
 20
-39.04107492865393
 11
-26.05737790787909
 21
-39.04107492865393
 72
     1
 10
-26.05737790787909
 20
-39.04107492865393
 11
-26.05740295232505
 21
-40.96107492865382
 72
     1
 10
-26.05740295232505
 20
-40.96107492865382
 11
-21.61602318285301
 21
-40.96107492865379
 97
        0
 75
     0
 76
     1
 98
        1
 10
-35.07426131403304
 20
-0.0021498574477973
  0
LINE
  5
FD
330
1F
100
AcDbEntity
  8
참조1
100
AcDbLine
 10
55.59399512937676
 20
7.440000000000001
 30
0.0
 11
55.59399512937676
 21
-7.440000000000004
 31
0.0
  0
LINE
  5
FE
330
1F
100
AcDbEntity
  8
참조1
100
AcDbLine
 10
68.29399512937677
 20
5.440000000000001
 30
0.0
 11
55.59399512937676
 21
5.440000000000001
 31
0.0
  0
SOLID
  5
FF
330
1F
100
AcDbEntity
  8
참조1
100
AcDbTrace
 10
55.59399512937676
 20
5.440000000000001
 30
0.0
 11
61.94399512937676
 21
4.424000000000001
 31
0.0
 12
61.94399512937676
 22
6.456000000000001
 32
0.0
 13
61.94399512937676
 23
6.456000000000001
 33
0.0
  0
LINE
  5
100
330
1F
100
AcDbEntity
  8
참조1
100
AcDbLine
 10
68.29399512937677
 20
-5.440000000000004
 30
0.0
 11
55.59399512937676
 21
-5.440000000000004
 31
0.0
  0
SOLID
  5
101
330
1F
100
AcDbEntity
  8
참조1
100
AcDbTrace
 10
55.59399512937676
 20
-5.440000000000004
 30
0.0
 11
61.94399512937676
 21
-6.456000000000004
 31
0.0
 12
61.94399512937676
 22
-4.424000000000004
 32
0.0
 13
61.94399512937676
 23
-4.424000000000004
 33
0.0
  0
MTEXT
  5
102
330
1F
100
AcDbEntity
  8
참조1
100
AcDbMText
 10
64.97834526200276
 20
11.01029177718832
 30
0.0
 40
3.5
 41
0.0
 71
     1
 72
     1
  1
A
  7
SLDTEXTSTYLE0
 73
     1
 44
1.0
  0
MTEXT
  5
103
330
1F
100
AcDbEntity
  8
참조1
100
AcDbMText
 10
64.97834526200276
 20
0.130291777188324
 30
0.0
 40
3.5
 41
0.0
 71
     1
 72
     1
  1
A
  7
SLDTEXTSTYLE0
 73
     1
 44
1.0
  0
ARC
  5
1D0
330
1F
100
AcDbEntity
  8
0
  6
Continuous
 62
     1
370
    15
100
AcDbCircle
 10
191.6549123490272
 20
-35.85127209681861
 30
0.0
 40
14.2875
100
AcDbArc
 50
270.0000000000009
 51
0.0
  0
ARC
  5
1D1
330
1F
100
AcDbEntity
  8
0
  6
Continuous
 62
     1
370
    15
100
AcDbCircle
 10
191.6549123490272
 20
-35.85127209681861
 30
0.0
 40
14.2875
100
AcDbArc
 50
0.0
 51
90.0
  0
LINE
  5
1D2
330
1F
100
AcDbEntity
  8
0
  6
Continuous
 62
     1
370
    15
100
AcDbLine
 10
191.6549123490272
 20
-21.56377209681861
 30
0.0
 11
164.6674123490272
 21
-21.56377209681861
 31
0.0
  0
SPLINE
  5
1D3
330
1F
100
AcDbEntity
  8
0
  6
Continuous
 62
     1
370
    15
100
AcDbSpline
210
0.0
220
0.0
230
1.0
 70
     8
 71
     3
 72
     8
 73
     4
 74
     0
 42
0.000000001
 43
0.00000001
 40
0.0
 40
0.0
 40
0.0
 40
0.0
 40
1.0
 40
1.0
 40
1.0
 40
1.0
 10
165.2021467814631
 20
-22.33241066598424
 30
0.0
 10
165.0239659994432
 20
-22.29914332757259
 30
0.0
 10
164.8457004260479
 20
-22.26692086372119
 30
0.0
 10
164.6674123490272
 20
-22.23575517157379
 30
0.0
  0
LINE
  5
1D4
330
1F
100
AcDbEntity
  8
외형선
  6
Continuous
370
    15
100
AcDbLine
 10
164.6674123490272
 20
-22.23575517157379
 30
0.0
 11
164.6674123490272
 21
-21.56377209681861
 31
0.0
  0
LINE
  5
1D5
330
1F
100
AcDbEntity
  8
외형선
  6
Continuous
370
    15
100
AcDbLine
 10
164.6674123490272
 20
-50.13877209681861
 30
0.0
 11
164.6674123490272
 21
-44.19675828663421
 31
0.0
  0
SPLINE
  5
1D6
330
1F
100
AcDbEntity
  8
0
  6
Continuous
 62
     1
370
    15
100
AcDbSpline
210
0.0
220
0.0
230
1.0
 70
     8
 71
     3
 72
    14
 73
    10
 74
     0
 42
0.000000001
 43
0.00000001
 40
0.0
 40
0.0
 40
0.0
 40
0.0
 40
0.25
 40
0.25
 40
0.5
 40
0.5
 40
0.75
 40
0.75
 40
1.0
 40
1.0
 40
1.0
 40
1.0
 10
174.1924123490272
 20
-47.94043608185738
 30
0.0
 10
173.4010847453491
 20
-47.69643559928844
 30
0.0
 10
172.6052605025189
 20
-47.43331163804054
 30
0.0
 10
171.0156341274126
 20
-46.8723038576705
 30
0.0
 10
170.2248041965567
 20
-46.57483287357339
 30
0.0
 10
168.637026667171
 20
-45.94699054855759
 30
0.0
 10
167.8406616265878
 20
-45.61664034048646
 30
0.0
 10
166.2540192314994
 20
-44.92768353599173
 30
0.0
 10
165.4623760631044
 20
-44.56892265486938
 30
0.0
 10
164.6674123490272
 20
-44.1967582866511
 30
0.0
  0
LINE
  5
1D7
330
1F
100
AcDbEntity
  8
0
  6
Continuous
 62
     1
370
    15
100
AcDbLine
 10
174.1924123490272
 20
-21.62778098783578
 30
0.0
 11
174.1924123490272
 21
-47.94043608185054
 31
0.0
  0
ELLIPSE
  5
1D8
330
1F
100
AcDbEntity
  8
0
  6
Continuous
 62
     1
370
    15
100
AcDbEllipse
 10
177.9040061490287
 20
-35.85127209681861
 30
0.0
 11
39.25458363045783
 21
-4.969982758673552E-16
 31
0.0
210
0.0
220
0.0
230
1.0
 40
0.3639702342662032
 41
1.665489637280634
 42
1.900303193479607
  0
SPLINE
  5
1D9
330
1F
100
AcDbEntity
  8
0
  6
Continuous
 62
     1
370
    15
100
AcDbSpline
210
0.0
220
0.0
230
1.0
 70
     8
 71
     3
 72
    14
 73
    10
 74
     0
 42
0.000000001
 43
0.00000001
 40
0.0
 40
0.0
 40
0.0
 40
0.0
 40
0.2500000000000002
 40
0.2500000000000002
 40
0.5000000000000001
 40
0.5000000000000001
 40
0.75
 40
0.75
 40
1.0
 40
1.0
 40
1.0
 40
1.0
 10
174.1924123490272
 20
-35.85127209681861
 30
0.0
 10
173.4010847453491
 20
-35.5395048808732
 30
0.0
 10
172.6052605025189
 20
-35.22714815488509
 30
0.0
 10
171.0156341274126
 20
-34.60558948862995
 30
0.0
 10
170.2248041965567
 20
-34.2967720425579
 30
0.0
 10
168.637026667171
 20
-33.68408868579751
 30
0.0
 10
167.8406616265878
 20
-33.38030857605705
 30
0.0
 10
166.2540192314994
 20
-32.78207788526078
 30
0.0
 10
165.4623760631044
 20
-32.48744361198757
 30
0.0
 10
164.6674123490272
 20
-32.19804581410762
 30
0.0
  0
SPLINE
  5
1DA
330
1F
100
AcDbEntity
  8
외형선
  6
Continuous
370
    15
100
AcDbSpline
210
0.0
220
0.0
230
1.0
 70
    24
 71
     3
 72
    20
 73
    16
 74
     0
 42
0.000000001
 43
0.00000001
 40
0.0
 40
0.0
 40
0.0
 40
0.0
 40
0.25
 40
0.25
 40
0.375
 40
0.375
 40
0.5
 40
0.5
 40
0.625
 40
0.625
 40
0.75
 40
0.75
 40
0.875
 40
0.875
 40
1.0
 40
1.0
 40
1.0
 40
1.0
 10
164.6674123490272
 20
-32.19804581410762
 30
0.0
 10
164.6674123490272
 20
-32.93686534327841
 30
0.0
 10
164.6674123490272
 20
-33.8063216505727
 30
0.0
 10
164.6674123490272
 20
-35.28775014924493
 30
0.0
 10
164.6674123490272
 20
-35.81029295140142
 30
0.0
 10
164.6674123490272
 20
-36.89723205783684
 30
0.0
 10
164.6674123490272
 20
-37.46161847290786
 30
0.0
 10
164.6674123490272
 20
-38.6067994673032
 30
0.0
 10
164.6674123490272
 20
-39.18747921355335
 30
0.0
 10
164.6674123490272
 20
-40.33160853255286
 30
0.0
 10
164.6674123490272
 20
-40.89484412749009
 30
0.0
 10
164.6674123490272
 20
-41.96726725864826
 30
0.0
 10
164.6674123490272
 20
-42.47620808280619
 30
0.0
 10
164.6674123490272
 20
-43.40726691464017
 30
0.0
 10
164.6674123490272
 20
-43.82920509736466
 30
0.0
 10
164.6674123490272
 20
-44.19675828663817
 30
0.0
  0
SPLINE
  5
1DB
330
1F
100
AcDbEntity
  8
0
  6
Continuous
 62
     1
370
    15
100
AcDbSpline
210
0.0
220
0.0
230
1.0
 70
     8
 71
     3
 72
    10
 73
     6
 74
     0
 42
0.000000001
 43
0.00000001
 40
0.0
 40
0.0
 40
0.0
 40
0.0
 40
0.5000000000000001
 40
0.5000000000000001
 40
1.0
 40
1.0
 40
1.0
 40
1.0
 10
164.6674123490272
 20
-30.05325077486664
 30
0.0
 10
166.2459639502643
 20
-30.51387592619309
 30
0.0
 10
167.8293840005147
 20
-30.99926501207501
 30
0.0
 10
171.0046604437024
 20
-32.01295562630423
 30
0.0
 10
172.5965175418381
 20
-32.54126074172618
 30
0.0
 10
174.1924123490272
 20
-33.09010413586392
 30
0.0
  0
SPLINE
  5
1DC
330
1F
100
AcDbEntity
  8
외형선
  6
Continuous
370
    15
100
AcDbSpline
210
0.0
220
0.0
230
1.0
 70
    24
 71
     3
 72
    10
 73
     6
 74
     0
 42
0.000000001
 43
0.00000001
 40
0.0
 40
0.0
 40
0.0
 40
0.0
 40
0.5
 40
0.5
 40
1.0
 40
1.0
 40
1.0
 40
1.0
 10
164.6674123490272
 20
-30.05325077486637
 30
0.0
 10
164.6674123490272
 20
-30.55129654433005
 30
0.0
 10
164.6674123490272
 20
-30.97597935148875
 30
0.0
 10
164.6674123490272
 20
-31.68558375220373
 30
0.0
 10
164.6674123490272
 20
-31.97093076293019
 30
0.0
 10
164.6674123490272
 20
-32.19804581410764
 30
0.0
  0
SPLINE
  5
1DD
330
1F
100
AcDbEntity
  8
0
  6
Continuous
 62
     1
370
    15
100
AcDbSpline
210
0.0
220
0.0
230
1.0
 70
     8
 71
     3
 72
    16
 73
    12
 74
     0
 42
0.000000001
 43
0.00000001
 40
0.0
 40
0.0
 40
0.0
 40
0.0
 40
0.2500000000000002
 40
0.2500000000000002
 40
0.5000000000000004
 40
0.5000000000000004
 40
0.7500000000000007
 40
0.7500000000000007
 40
0.8750000000000003
 40
0.8750000000000003
 40
1.0
 40
1.0
 40
1.0
 40
1.0
 10
165.2021467814631
 20
-22.33241066598422
 30
0.0
 10
165.3363066417308
 20
-22.79843358649051
 30
0.0
 10
165.4411029171553
 20
-23.26871855224735
 30
0.0
 10
165.575198797746
 20
-24.2202466221024
 30
0.0
 10
165.6050322576054
 20
-24.70141223862976
 30
0.0
 10
165.5553368322832
 20
-25.67961712150495
 30
0.0
 10
165.4758529587916
 20
-26.15971258219281
 30
0.0
 10
165.2502114181271
 20
-26.85279250854823
 30
0.0
 10
165.1569410438662
 20
-27.07873663109788
 30
0.0
 10
164.9377727301326
 20
-27.5061250079873
 30
0.0
 10
164.8113286355716
 20
-27.70947787649321
 30
0.0
 10
164.6674123490272
 20
-27.90211388882758
 30
0.0
  0
SPLINE
  5
1DE
330
1F
100
AcDbEntity
  8
외형선
  6
Continuous
370
    15
100
AcDbSpline
210
0.0
220
0.0
230
1.0
 70
    24
 71
     3
 72
    10
 73
     6
 74
     0
 42
0.000000001
 43
0.00000001
 40
0.0
 40
0.0
 40
0.0
 40
0.0
 40
0.5
 40
0.5
 40
1.0
 40
1.0
 40
1.0
 40
1.0
 10
164.6674123490272
 20
-22.23575517157381
 30
0.0
 10
164.6674123490272
 20
-23.17597598450996
 30
0.0
 10
164.6674123490272
 20
-24.17286910518328
 30
0.0
 10
164.6674123490272
 20
-26.11449787017036
 30
0.0
 10
164.6674123490272
 20
-27.05641336474768
 30
0.0
 10
164.6674123490272
 20
-27.90211388882755
 30
0.0
  0
LINE
  5
1DF
330
1F
100
AcDbEntity
  8
외형선
  6
Continuous
370
    15
100
AcDbLine
 10
164.6674123490272
 20
-30.03352749435372
 30
0.0
 11
164.6674123490272
 21
-27.90211388882758
 31
0.0
  0
DIMENSION
  5
1E1
330
1F
100
AcDbEntity
  8
치수문자_일반주서
100
AcDbDimension
  2
*D11
 10
164.6674123490272
 20
-8.074353077012326
 30
0.0
 11
185.1059276673551
 21
-8.074353077012326
 31
0.0
 70
   160
  1
<>
 71
     2
 42
41.27499999999998
  3
SLDDIMSTYLE1
100
AcDbAlignedDimension
 13
205.9424123490272
 23
-21.56377209681861
 33
0.0
 14
164.6674123490272
 24
-22.2357551715738
 34
0.0
 50
0.0000000000000049
100
AcDbRotatedDimension
1001
ACAD
1000
DSTYLE
1002
{
1070
   171
1070
     6
1070
   273
1070
     7
1002
}
  0
DIMENSION
  5
1E2
330
1F
100
AcDbEntity
  8
치수문자_일반주서
100
AcDbDimension
  2
*D12
 10
223.0820873951831
 20
-50.13877209681854
 30
0.0
 11
223.0820873951829
 21
0.6893760909479525
 31
0.0
 70
   160
  1
%%c<>
 71
     2
 42
28.57499999999999
 52
-270.0
  3
SLDDIMSTYLE1
100
AcDbAlignedDimension
 13
205.9424123490272
 23
-21.56377209681861
 33
0.0
 14
205.9424123490272
 24
-50.13877209681861
 34
0.0
 50
90.0000000000002
100
AcDbRotatedDimension
1001
ACAD
1000
DSTYLE
1002
{
1070
   171
1070
     6
1070
   273
1070
     7
1002
}
  0
LINE
  5
30E
330
1F
100
AcDbEntity
  8
외형선
  6
Continuous
370
    15
100
AcDbLine
 10
-44.15000000000001
 20
-9.525
 30
0.0
 11
12.00000000000001
 21
-9.52499999999999
 31
0.0
  0
LINE
  5
30F
330
1F
100
AcDbEntity
  8
외형선
  6
Continuous
370
    15
100
AcDbLine
 10
-45.14999999999999
 20
-8.525000000000002
 30
0.0
 11
-44.14999999999999
 21
-9.525000000000013
 31
0.0
  0
LINE
  5
310
330
1F
100
AcDbEntity
  8
0
  6
Continuous
 62
     1
370
    15
100
AcDbLine
 10
34.22456586712494
 20
-15.87499999999999
 30
0.0
 11
37.40000000000001
 21
-15.87499999999999
 31
0.0
  0
ARC
  5
311
330
1F
100
AcDbEntity
  8
0
  6
Continuous
 62
     1
370
    15
100
AcDbCircle
 10
37.40000000000001
 20
0.0
 30
0.0
 40
15.875
100
AcDbArc
 50
270.0000000000007
 51
0.0
  0
ARC
  5
312
330
1F
100
AcDbEntity
  8
0
  6
Continuous
 62
     1
370
    15
100
AcDbCircle
 10
37.40000000000001
 20
0.0
 30
0.0
 40
15.875
100
AcDbArc
 50
0.0
 51
90.0
  0
LINE
  5
313
330
1F
100
AcDbEntity
  8
0
  6
Continuous
 62
     1
370
    15
100
AcDbLine
 10
37.40000000000001
 20
15.87500000000001
 30
0.0
 11
34.22456586712497
 21
15.87500000000001
 31
0.0
  0
LINE
  5
31A
330
1F
100
AcDbEntity
  8
외형선
  6
Continuous
370
    15
100
AcDbLine
 10
-45.14999999999999
 20
8.524999999999995
 30
0.0
 11
-45.14999999999999
 21
-8.524999999999997
 31
0.0
  0
SPLINE
  5
31E
330
1F
100
AcDbEntity
  8
0
  6
Continuous
 62
     1
370
    15
100
AcDbSpline
210
0.0
220
0.0
230
1.0
 70
     8
 71
     3
 72
    30
 73
    26
 74
     0
 42
0.000000001
 43
0.00000001
 40
0.0
 40
0.0
 40
0.0
 40
0.0
 40
0.0624999999999997
 40
0.0624999999999997
 40
0.1249999999999994
 40
0.1249999999999994
 40
0.1874999999999991
 40
0.1874999999999991
 40
0.2499999999999987
 40
0.2499999999999987
 40
0.2812499999999987
 40
0.2812499999999987
 40
0.3124999999999987
 40
0.3124999999999987
 40
0.3749999999999987
 40
0.3749999999999987
 40
0.4062499999999988
 40
0.4062499999999988
 40
0.4374999999999989
 40
0.4374999999999989
 40
0.4687499999999989
 40
0.4687499999999989
 40
0.499999999999999
 40
0.499999999999999
 40
0.5333482174771191
 40
0.5333482174771191
 40
0.5333482174771191
 40
0.5333482174771191
 10
37.40000000000003
 20
-6.637544563933385
 30
0.0
 10
36.40684839381774
 20
-6.117012037258739
 30
0.0
 10
35.41868485666186
 20
-5.584395287504938
 30
0.0
 10
33.43192712377592
 20
-4.497578406068508
 30
0.0
 10
32.43857224494265
 20
-3.94430759409255
 30
0.0
 10
30.45845938378565
 20
-2.825779649959046
 30
0.0
 10
29.46275256934639
 20
-2.258833580296622
 30
0.0
 10
27.47748698784812
 20
-1.119489279803092
 30
0.0
 10
26.48887740536065
 20
-0.5472892751803009
 30
0.0
 10
24.99842979333806
 20
0.3123847086504394
 30
0.0
 10
24.50139831801269
 20
0.5989713584776002
 30
0.0
 10
23.50908759037125
 20
1.170943263089891
 30
0.0
 10
23.01485757085881
 20
1.456127605289018
 30
0.0
 10
21.5282405926562
 20
2.309886534793739
 30
0.0
 10
20.53236344827684
 20
2.876567139765568
 30
0.0
 10
19.04444301937824
 20
3.715392330235476
 30
0.0
 10
18.55037677041364
 20
3.992967346859073
 30
0.0
 10
17.55885028177848
 20
4.544585198274019
 30
0.0
 10
17.06199418442591
 20
4.818511727784214
 30
0.0
 10
16.06827715217216
 20
5.361386669848107
 30
0.0
 10
15.57141728403498
 20
5.630334499583972
 30
0.0
 10
14.57987576737352
 20
6.16208124668684
 30
0.0
 10
14.08581235067719
 20
6.424775815859993
 30
0.0
 10
13.06057828920954
 20
6.961753179139153
 30
0.0
 10
12.5301877185835
 20
7.235430548900943
 30
0.0
 10
12.0
 20
7.504902395121036
 30
0.0
  0
SPLINE
  5
31F
330
1F
100
AcDbEntity
  8
0
  6
Continuous
 62
     1
370
    15
100
AcDbSpline
210
0.0
220
0.0
230
1.0
 70
     8
 71
     3
 72
    12
 73
     8
 74
     0
 42
0.000000001
 43
0.00000001
 40
0.0
 40
0.0
 40
0.0
 40
0.0
 40
0.094590181554264
 40
0.189177533994808
 40
0.2837623379927635
 40
0.3790335293044731
 40
0.4240229531651458
 40
0.4240229531651458
 40
0.4240229531651458
 40
0.4240229531651458
 10
49.02515257533935
 20
1.664212936929536
 30
0.0
 10
47.64855921617396
 20
2.195333809707867
 30
0.0
 10
44.8954136706065
 20
3.257559669880619
 30
0.0
 10
40.76576794800968
 20
4.767543627738556
 30
0.0
 10
36.6262242525556
 20
6.176278029361891
 30
0.0
 10
33.20848530578251
 20
7.223385088948563
 30
0.0
 10
31.16725551084818
 20
7.787368179423086
 30
0.0
 10
30.51251919984093
 20
7.961510444007883
 30
0.0
  0
SPLINE
  5
320
330
1F
100
AcDbEntity
  8
0
  6
Continuous
 62
     1
370
    15
100
AcDbSpline
210
0.0
220
0.0
230
1.0
 70
     8
 71
     3
 72
    42
 73
    38
 74
     0
 42
0.000000001
 43
0.00000001
 40
0.0
 40
0.0
 40
0.0
 40
0.0
 40
0.1249999999999986
 40
0.1249999999999986
 40
0.1874999999999984
 40
0.1874999999999984
 40
0.2499999999999981
 40
0.2499999999999981
 40
0.3124999999999978
 40
0.3124999999999978
 40
0.3749999999999976
 40
0.3749999999999976
 40
0.4374999999999973
 40
0.4374999999999973
 40
0.4687499999999972
 40
0.4687499999999972
 40
0.499999999999997
 40
0.499999999999997
 40
0.5624999999999973
 40
0.5624999999999973
 40
0.6249999999999977
 40
0.6249999999999977
 40
0.6562499999999979
 40
0.6562499999999979
 40
0.6874999999999981
 40
0.6874999999999981
 40
0.7187499999999983
 40
0.7187499999999983
 40
0.7499999999999984
 40
0.7499999999999984
 40
0.8124999999999989
 40
0.8124999999999989
 40
0.8749999999999992
 40
0.8749999999999992
 40
0.9374999999999996
 40
0.9374999999999996
 40
1.0
 40
1.0
 40
1.0
 40
1.0
 10
37.40000000000001
 20
-6.637544563933393
 30
0.0
 10
38.28178097437504
 20
-7.099705301234563
 30
0.0
 10
39.14979900594537
 20
-7.513204546037018
 30
0.0
 10
40.44748880583492
 20
-8.0377108844259
 30
0.0
 10
40.87944118025487
 20
-8.196287516869171
 30
0.0
 10
41.74642143901693
 20
-8.473005736272732
 30
0.0
 10
42.18330988031889
 20
-8.591609609047802
 30
0.0
 10
43.04517845544535
 20
-8.775718024511447
 30
0.0
 10
43.47197671107935
 20
-8.84204960833208
 30
0.0
 10
44.32143153035562
 20
-8.914667860255136
 30
0.0
 10
44.74396778341176
 20
-8.921290620891119
 30
0.0
 10
45.59071519751808
 20
-8.858629958340977
 30
0.0
 10
46.00648294927026
 20
-8.78993803182339
 30
0.0
 10
46.61880913270917
 20
-8.62096964976823
 30
0.0
 10
46.8211832229604
 20
-8.55358329740229
 30
0.0
 10
47.22293589219819
 20
-8.393739027603353
 30
0.0
 10
47.42313136323881
 20
-8.3007291057572
 30
0.0
 10
48.00700588101438
 20
-7.985234058251729
 30
0.0
 10
48.37774571734343
 20
-7.726187092606414
 30
0.0
 10
49.07976692889562
 20
-7.083821577225185
 30
0.0
 10
49.39546856350162
 20
-6.714328421604696
 30
0.0
 10
49.80820249284599
 20
-6.079055098642536
 30
0.0
 10
49.93282525454416
 20
-5.857480628245012
 30
0.0
 10
50.15266585329206
 20
-5.402326588052185
 30
0.0
 10
50.24861231441398
 20
-5.167633936769056
 30
0.0
 10
50.41211012266999
 20
-4.683808559384973
 30
0.0
 10
50.47847506492755
 20
-4.43740253423992
 30
0.0
 10
50.57947095607156
 20
-3.947819939744578
 30
0.0
 10
50.61473006178176
 20
-3.70279367868817
 30
0.0
 10
50.67725908378921
 20
-2.96651323310906
 30
0.0
 10
50.66016108251884
 20
-2.492243812172317
 30
0.0
 10
50.53341495109885
 20
-1.5741532283712
 30
0.0
 10
50.42211053797664
 20
-1.127019606354356
 30
0.0
 10
50.13046165973824
 20
-0.2797513191145153
 30
0.0
 10
49.94960522272856
 20
0.125138061541433
 30
0.0
 10
49.52932471127011
 20
0.9111312208657676
 30
0.0
 10
49.28896139426067
 20
1.293145811787324
 30
0.0
 10
49.02515257526954
 20
1.66421293695671
 30
0.0
  0
SPLINE
  5
321
330
1F
100
AcDbEntity
  8
0
  6
Continuous
 62
     1
370
    15
100
AcDbSpline
210
0.0
220
0.0
230
1.0
 70
     8
 71
     3
 72
     8
 73
     4
 74
     0
 42
0.000000001
 43
0.00000001
 40
0.0
 40
0.0
 40
0.0
 40
0.0
 40
0.0020944963063715
 40
0.0020944963063715
 40
0.0020944963063715
 40
0.0020944963063715
 10
11.63470043867002
 20
-10.79217154859455
 30
0.0
 10
11.61943902615385
 20
-10.79225608811152
 30
0.0
 10
11.60417761363767
 20
-10.79234062762848
 30
0.0
 10
11.58891620113556
 20
-10.79242509661247
 30
0.0
  0
SPLINE
  5
322
330
1F
100
AcDbEntity
  8
0
  6
Continuous
 62
     1
370
    15
100
AcDbSpline
210
0.0
220
0.0
230
1.0
 70
     8
 71
     3
 72
     8
 73
     4
 74
     0
 42
0.000000001
 43
0.00000001
 40
0.0
 40
0.0
 40
0.0
 40
0.0
 40
0.0282749629874197
 40
0.0282749629874197
 40
0.0282749629874197
 40
0.0282749629874197
 10
-10.22500000000046
 20
0.7260712346405587
 30
0.0
 10
-9.806064605481144
 20
0.483998078282412
 30
0.0
 10
-9.387129210961827
 20
0.2419249219242652
 30
0.0
 10
-8.968193048777486
 20
-0.0000000000000493
 30
0.0
  0
SPLINE
  5
324
330
1F
100
AcDbEntity
  8
0
  6
Continuous
 62
     1
370
    15
100
AcDbSpline
210
0.0
220
0.0
230
1.0
 70
     8
 71
     3
 72
    14
 73
    10
 74
     0
 42
0.000000001
 43
0.00000001
 40
0.0
 40
0.0
 40
0.0
 40
0.0
 40
0.25
 40
0.25
 40
0.5
 40
0.5
 40
0.75
 40
0.75
 40
1.0
 40
1.0
 40
1.0
 40
1.0
 10
49.02515257526946
 20
1.664212936956739
 30
0.0
 10
49.20777834430439
 20
1.774068375059032
 30
0.0
 10
49.3704478244187
 20
1.910357042930036
 30
0.0
 10
49.65576028423746
 20
2.237297887272424
 30
0.0
 10
49.77933754433334
 20
2.431058920171692
 30
0.0
 10
49.9742084880273
 20
2.855611506660678
 30
0.0
 10
50.04710959763642
 20
3.086955216306171
 30
0.0
 10
50.14685044833635
 20
3.58393723634987
 30
0.0
 10
50.17251290231107
 20
3.845472293519292
 30
0.0
 10
50.17694601912902
 20
4.111469450475736
 30
0.0
  0
ARC
  5
325
330
1F
100
AcDbEntity
  8
0
  6
Continuous
 62
     1
370
    15
100
AcDbCircle
 10
45.67985895586426
 20
-2.759596969501489
 30
0.0
 40
8.211902690748474
100
AcDbArc
 50
23.84124869977954
 51
56.79540420373072
  0
ARC
  5
326
330
1F
100
AcDbEntity
  8
0
  6
Continuous
 62
     1
370
    15
100
AcDbCircle
 10
38.97134614381301
 20
0.2753917903634022
 30
0.0
 40
14.22252654540746
100
AcDbArc
 50
1.145362452544693
 51
71.08085203482842
  0
SPLINE
  5
327
330
1F
100
AcDbEntity
  8
0
  6
Continuous
 62
     1
370
    15
100
AcDbSpline
210
0.0
220
0.0
230
1.0
 70
     8
 71
     3
 72
    14
 73
    10
 74
     0
 42
0.000000001
 43
0.00000001
 40
0.0
 40
0.0
 40
0.0
 40
0.0
 40
0.25
 40
0.25
 40
0.5
 40
0.5
 40
0.75
 40
0.75
 40
1.0
 40
1.0
 40
1.0
 40
1.0
 10
43.58276680153469
 20
13.72957555796362
 30
0.0
 10
43.09153190064174
 20
14.02904606761338
 30
0.0
 10
42.59138603484209
 20
14.29685907489391
 30
0.0
 10
41.58286755961009
 20
14.76702309397368
 30
0.0
 10
41.07315910516181
 20
14.97017946135069
 30
0.0
 10
40.04219953386442
 20
15.31260613628065
 30
0.0
 10
39.52071380669406
 20
15.45182926620833
 30
0.0
 10
38.46228591019084
 20
15.66311949047537
 30
0.0
 10
37.93223429111853
 20
15.7338412760695
 30
0.0
 10
37.40000000000001
 20
15.7692307207671
 30
0.0
  0
SPLINE
  5
328
330
1F
100
AcDbEntity
  8
0
  6
Continuous
 62
     1
370
    15
100
AcDbSpline
210
0.0
220
0.0
230
1.0
 70
     8
 71
     3
 72
    10
 73
     6
 74
     0
 42
0.000000001
 43
0.00000001
 40
0.0
 40
0.0
 40
0.0
 40
0.0
 40
0.5
 40
0.5
 40
1.0
 40
1.0
 40
1.0
 40
1.0
 10
40.36100708819291
 20
7.106429666903592
 30
0.0
 10
41.97458169231211
 20
6.657997014394949
 30
0.0
 10
43.60189550433296
 20
6.181418282251167
 30
0.0
 10
46.88033080501353
 20
5.179488518467933
 30
0.0
 10
48.52769187392298
 20
4.6552236376748
 30
0.0
 10
50.17694601912905
 20
4.111469450475715
 30
0.0
  0
SPLINE
  5
329
330
1F
100
AcDbEntity
  8
0
  6
Continuous
 62
     1
370
    15
100
AcDbSpline
210
0.0
220
0.0
230
1.0
 70
     8
 71
     3
 72
    13
 73
     9
 74
     0
 42
0.000000001
 43
0.00000001
 40
0.2555426340059267
 40
0.2555426340059267
 40
0.2555426340059267
 40
0.2555426340059267
 40
0.3222475154889616
 40
0.4578061273122163
 40
0.5934158755861854
 40
0.7289711647791702
 40
0.864487109881902
 40
0.9999999999999999
 40
0.9999999999999999
 40
0.9999999999999999
 40
0.9999999999999999
 10
18.21878698626687
 20
13.2581790757127
 30
0.0
 10
18.7916490737671
 20
13.44053290848708
 30
0.0
 10
20.52868859101466
 20
13.96955241457866
 30
0.0
 10
23.43052347334454
 20
14.70618663433976
 30
0.0
 10
26.92412620371354
 20
15.36077152276002
 30
0.0
 10
30.41687822975749
 20
15.76217824506947
 30
0.0
 10
33.90860936660238
 20
15.92806808070823
 30
0.0
 10
36.23621186762927
 20
15.82217610954953
 30
0.0
 10
37.40000000000001
 20
15.7692307207671
 30
0.0
  0
SPLINE
  5
32A
330
1F
100
AcDbEntity
  8
0
  6
Continuous
 62
     1
370
    15
100
AcDbSpline
210
0.0
220
0.0
230
1.0
 70
     8
 71
     3
 72
    24
 73
    20
 74
     0
 42
0.000000001
 43
0.00000001
 40
0.0
 40
0.0
 40
0.0
 40
0.0
 40
0.125
 40
0.125
 40
0.25
 40
0.25
 40
0.375
 40
0.375
 40
0.4375
 40
0.4375
 40
0.5
 40
0.5
 40
0.625
 40
0.625
 40
0.75
 40
0.75
 40
0.875
 40
0.875
 40
1.0
 40
1.0
 40
1.0
 40
1.0
 10
43.58276680153469
 20
13.72957555796363
 30
0.0
 10
43.63910519971776
 20
13.39638120640325
 30
0.0
 10
43.67941387655529
 20
13.06086018396483
 30
0.0
 10
43.72059484579214
 20
12.38409405410665
 30
0.0
 10
43.72147319793891
 20
12.04161596801018
 30
0.0
 10
43.67222900534924
 20
11.35450041332078
 30
0.0
 10
43.62264422396586
 20
11.01668234087351
 30
0.0
 10
43.50430273247761
 20
10.52006400930543
 30
0.0
 10
43.45750208756996
 20
10.35621536158003
 30
0.0
 10
43.34769888940363
 20
10.032243393448
 30
0.0
 10
43.28465027574634
 20
9.872406484949186
 30
0.0
 10
43.07461746228651
 20
9.410439011434212
 30
0.0
 10
42.90557619379035
 20
9.12189438285631
 30
0.0
 10
42.50851215658045
 20
8.58430381630106
 30
0.0
 10
42.27900341567457
 20
8.335192939997837
 30
0.0
 10
41.78538436898614
 20
7.897146981516778
 30
0.0
 10
41.51830163193736
 20
7.704177006581249
 30
0.0
 10
40.95282145038425
 20
7.366700251139152
 30
0.0
 10
40.66066079362707
 20
7.225580952969219
 30
0.0
 10
40.36100708819291
 20
7.106429666903599
 30
0.0
  0
LINE
  5
32D
330
1F
100
AcDbEntity
  8
중심선
100
AcDbLine
 10
-52.14999999999999
 20
-0.0000000000000042
 30
0.0
 11
56.27500000000001
 21
0.0000000000000089
 31
0.0
  0
CIRCLE
  5
32E
330
1F
100
AcDbEntity
  8
해칭선
100
AcDbCircle
 10
0.0
 20
0.0
 30
0.0
 40
3.000000000000003
  0
DIMENSION
  5
32F
330
1F
100
AcDbEntity
  8
치수문자_일반주서
100
AcDbDimension
  2
*D19
 10
12.0
 20
26.8589587765618
 30
0.0
 11
32.6375
 21
26.8589587765618
 31
0.0
 70
   160
  1
<>
 71
     2
 42
41.27500000000001
  3
SLDDIMSTYLE1
100
AcDbAlignedDimension
 13
53.27500000000001
 23
15.87500000000001
 33
0.0
 14
12.0
 24
15.875
 34
0.0
 50
0.0000000000000032
100
AcDbRotatedDimension
1001
ACAD
1000
DSTYLE
1002
{
1070
   171
1070
     6
1070
   273
1070
     7
1002
}
  0
DIMENSION
  5
330
330
1F
100
AcDbEntity
  8
치수문자_일반주서
100
AcDbDimension
  2
*D20
 10
-45.14999999999999
 20
38.76250000000005
 30
0.0
 11
4.0625
 21
38.76250000000005
 31
0.0
 70
   160
  1
<>
 71
     2
 42
98.425
  3
SLDDIMSTYLE1
100
AcDbAlignedDimension
 13
53.27500000000001
 23
15.87500000000001
 33
0.0
 14
-45.14999999999999
 24
8.524999999999995
 34
0.0
 50
0.0000000000000064
100
AcDbRotatedDimension
1001
ACAD
1000
DSTYLE
1002
{
1070
   171
1070
     6
1070
   273
1070
     7
1002
}
  0
DIMENSION
  5
331
330
1F
100
AcDbEntity
  8
치수문자_일반주서
100
AcDbDimension
  2
*D21
 10
-57.58749999999999
 20
-9.525000000000082
 30
0.0
 11
-57.58750000000003
 21
-0.0000000000000178
 31
0.0
 70
   160
  1
%%c<>
 71
     2
 42
19.05000000000002
 52
-270.0
  3
SLDDIMSTYLE1
100
AcDbAlignedDimension
 13
-44.08750000000001
 23
9.524999999999986
 33
0.0
 14
-44.08750000000001
 24
-9.525000000000032
 34
0.0
 50
90.0000000000002
100
AcDbRotatedDimension
1001
ACAD
1000
DSTYLE
1002
{
1070
   171
1070
     6
1070
   273
1070
     7
1002
}
  0
INSERT
  5
333
330
1F
100
AcDbEntity
  8
해칭선
100
AcDbBlockReference
  2
SW_DOWELSYMBOL_0
 10
0.0
 20
0.0
 30
0.0
  0
DIMENSION
  5
36D
330
1F
100
AcDbEntity
  8
치수문자_일반주서
100
AcDbDimension
  2
*D23
 10
70.24163991050393
 20
-15.875
 30
0.0
 11
67.61663991050393
 21
-0.0000000000000018
 31
0.0
 70
    32
  1
{%%c<>[]}
 71
     5
 42
31.75
  3
SLDDIMSTYLE1
100
AcDbAlignedDimension
 13
53.27500000000001
 23
15.875
 33
0.0
 14
53.27500000000001
 24
-15.875
 34
0.0
 50
90.0
100
AcDbRotatedDimension
1001
ACAD
1000
DSTYLE
1002
{
1070
   283
1070
     1
1070
   170
1070
     1
1070
   171
1070
     6
1070
   273
1070
     7
1002
}
  0
LINE
  5
382
330
1F
100
AcDbEntity
  8
외형선
  6
Continuous
370
    15
100
AcDbLine
 10
-44.14999999999999
 20
9.524999999999995
 30
0.0
 11
-44.14999999999999
 21
-9.525000000000002
 31
0.0
  0
LINE
  5
383
330
1F
100
AcDbEntity
  8
외형선
  6
Continuous
370
    15
100
AcDbLine
 10
-45.14999999999999
 20
8.524999999999995
 30
0.0
 11
-44.14999999999999
 21
9.525000000000006
 31
0.0
  0
LINE
  5
384
330
1F
100
AcDbEntity
  8
외형선
  6
Continuous
370
    15
100
AcDbLine
 10
-44.15000000000001
 20
9.524999999999986
 30
0.0
 11
-27.04932500000007
 21
9.524999999999983
 31
0.0
  0
LINE
  5
386
330
1F
100
AcDbEntity
  8
외형선
  6
Continuous
370
    15
100
AcDbLine
 10
12.0
 20
15.875
 30
0.0
 11
12.0
 21
-15.875
 31
0.0
  0
SPLINE
  5
38A
330
1F
100
AcDbEntity
  8
0
  6
Continuous
 62
     1
370
    15
100
AcDbSpline
210
0.0
220
0.0
230
1.0
 70
     8
 71
     3
 72
    15
 73
    11
 74
     0
 42
0.000000001
 43
0.00000001
 40
0.4999938498820654
 40
0.4999938498820654
 40
0.4999938498820654
 40
0.4999938498820654
 40
0.5143173590691058
 40
0.6000172196759419
 40
0.6785723644212363
 40
0.7571515089883641
 40
0.8357602957781382
 40
0.9143375143190193
 40
0.9928919263047559
 40
0.9999999999999999
 40
0.9999999999999999
 40
0.9999999999999999
 40
0.9999999999999999
 10
12.0
 20
-10.96528909216216
 30
0.0
 10
12.21222096484293
 20
-11.05389984689623
 30
0.0
 10
13.69419542699792
 20
-11.66583396390056
 30
0.0
 10
16.34009338997353
 20
-12.67078794684715
 30
0.0
 10
19.93769172899657
 20
-13.81745397147782
 30
0.0
 10
23.43052355024213
 20
-14.70582316402701
 30
0.0
 10
26.92412593344093
 20
-15.36430072176855
 30
0.0
 10
30.41687923334922
 20
-15.74843335270216
 30
0.0
 10
32.85013498511857
 20
-15.90945802388574
 30
0.0
 10
34.11925707019617
 20
-15.867920473113
 30
0.0
 10
34.22456586712497
 20
-15.86447378382229
 30
0.0
  0
SPLINE
  5
38B
330
1F
100
AcDbEntity
  8
0
  6
Continuous
 62
     1
370
    15
100
AcDbSpline
210
0.0
220
0.0
230
1.0
 70
  1080
 71
     3
 72
     8
 73
     4
 74
     2
 42
0.000000001
 43
0.0000000001
 44
0.0
 40
0.0
 40
0.0
 40
0.0
 40
0.0
 40
20.15762328554073
 40
20.15762328554073
 40
20.15762328554073
 40
20.15762328554073
 10
12.0
 20
15.9375
 30
0.0
 10
18.17083973328031
 20
13.27883681466929
 30
0.0
 10
24.34167946656062
 20
10.62017362933859
 30
0.0
 10
30.51251919984092
 20
7.961510444007881
 30
0.0
 11
12.0
 21
15.9375
 31
0.0
 11
30.51251919984092
 21
7.961510444007881
 31
0.0
  0
SPLINE
  5
38C
330
1F
100
AcDbEntity
  8
0
  6
Continuous
 62
     1
370
    15
100
AcDbSpline
210
0.0
220
0.0
230
1.0
 70
     8
 71
     3
 72
     9
 73
     5
 74
     0
 42
0.000000001
 43
0.0000000001
 40
0.0
 40
0.0
 40
0.0
 40
0.0
 40
7.171122526250453
 40
9.166952113461411
 40
9.166952113461411
 40
9.166952113461411
 40
9.166952113461411
 10
12.0
 20
-15.875
 30
0.0
 10
14.36167832921687
 20
-15.48669826323713
 30
0.0
 10
17.38064670858583
 20
-14.99032640325996
 30
0.0
 10
20.34018846761768
 20
-14.24121208566935
 30
0.0
 10
20.98245635453394
 20
-14.06925243898302
 30
0.0
  0
LINE
  5
3C1
330
1F
100
AcDbEntity
  8
외형선
  6
Continuous
370
    15
100
AcDbLine
 10
-25.14432499999997
 20
7.620000000000005
 30
0.0
 11
-13.56192499999996
 21
7.620000000000005
 31
0.0
  0
LINE
  5
3C2
330
1F
100
AcDbEntity
  8
외형선
  6
Continuous
370
    15
100
AcDbLine
 10
-25.14432499999997
 20
7.61999999999999
 30
0.0
 11
-27.04932500000011
 21
9.52500000000002
 31
0.0
  0
LINE
  5
3C3
330
1F
100
AcDbEntity
  8
외형선
  6
Continuous
370
    15
100
AcDbLine
 10
-13.56192499999996
 20
7.61999999999999
 30
0.0
 11
-11.65692499999999
 21
9.52500000000002
 31
0.0
  0
LINE
  5
3C4
330
1F
100
AcDbEntity
  8
외형선
  6
Continuous
370
    15
100
AcDbLine
 10
-11.65692500000002
 20
9.52499999999998
 30
0.0
 11
12.00000000000001
 21
9.524999999999975
 31
0.0
  0
ENDSEC
  0
SECTION
  2
OBJECTS
  0
DICTIONARY
  5
C
330
0
100
AcDbDictionary
281
     1
  3
ACAD_GROUP
350
D
  3
ACAD_IMAGE_VARS
350
12E
  3
ACAD_LAYOUT
350
1A
  3
ACAD_MLINESTYLE
350
17
  3
ACAD_PLOTSETTINGS
350
19
  3
ACAD_PLOTSTYLENAME
350
E
  3
ACAD_SCALELIST
350
47
  3
APPDATA
350
12C
  3
DWGPROPS
350
3E9
  0
DICTIONARY
  5
1B2
330
2
100
AcDbDictionary
280
     1
281
     1
  3
ACAD_LAYERSTATES
360
1B3
  0
DICTIONARY
  5
D
102
{ACAD_REACTORS
330
C
102
}
330
C
100
AcDbDictionary
281
     1
  0
RASTERVARIABLES
  5
12E
102
{ACAD_REACTORS
330
C
102
}
330
C
100
AcDbRasterVariables
 90
        0
 70
     1
 71
     1
 72
     1
  0
DICTIONARY
  5
1A
102
{ACAD_REACTORS
330
C
102
}
330
C
100
AcDbDictionary
281
     1
  3
Layout1
350
1E
  3
Layout2
350
26
  3
Model
350
22
  0
DICTIONARY
  5
17
102
{ACAD_REACTORS
330
C
102
}
330
C
100
AcDbDictionary
281
     1
  3
Standard
350
18
  0
DICTIONARY
  5
19
102
{ACAD_REACTORS
330
C
102
}
330
C
100
AcDbDictionary
281
     1
  0
ACDBDICTIONARYWDFLT
  5
E
102
{ACAD_REACTORS
330
C
102
}
330
C
100
AcDbDictionary
281
     1
  3
Normal
350
F
100
AcDbDictionaryWithDefault
340
F
  0
DICTIONARY
  5
47
102
{ACAD_REACTORS
330
C
102
}
330
C
100
AcDbDictionary
281
     1
  3
A0
350
48
  3
A1
350
49
  3
A2
350
4A
  3
A3
350
4B
  3
A4
350
4C
  3
A5
350
4D
  3
A6
350
4E
  3
A7
350
4F
  3
A8
350
50
  3
A9
350
51
  3
B0
350
52
  3
B1
350
53
  3
B2
350
54
  3
B3
350
55
  3
B4
350
56
  3
B5
350
57
  3
B6
350
58
  3
B7
350
59
  3
B8
350
5A
  3
B9
350
5B
  3
C0
350
5C
  3
C1
350
5D
  3
C2
350
5E
  3
C3
350
5F
  3
C4
350
60
  3
C5
350
61
  3
C6
350
62
  3
C7
350
63
  3
C8
350
64
  3
C9
350
65
  3
D0
350
66
  3
D1
350
67
  3
D2
350
68
  0
DICTIONARY
  5
12C
102
{ACAD_REACTORS
330
C
102
}
330
C
100
AcDbDictionary
281
     1
  0
XRECORD
  5
3E9
102
{ACAD_REACTORS
330
C
102
}
330
C
100
AcDbXrecord
280
     1
  1
DWGPROPS COOKIE
  2

  3

  4

  6

  7

  8
12016016
  9

300
=
301
=
302
=
303
=
304
=
305
=
306
=
307
=
308
=
309
=
 40
0.0
 41
2458316.209512778
 42
2458320.365194583
  1

 90
        0
  0
DICTIONARY
  5
1B3
102
{ACAD_REACTORS
330
1B2
102
}
330
1B2
100
AcDbDictionary
281
     1
  0
LAYOUT
  5
1E
102
{ACAD_REACTORS
330
1A
102
}
330
1A
100
AcDbPlotSettings
  1

  2
none_device
  4

  6

 40
0.0
 41
0.0
 42
0.0
 43
0.0
 44
0.0
 45
0.0
 46
0.0
 47
0.0
 48
0.0
 49
0.0
140
0.0
141
0.0
142
1.0
143
1.0
 70
   688
 72
     1
 73
     0
 74
     5
  7

 75
    16
147
1.0
148
0.0
149
0.0
100
AcDbLayout
  1
Layout1
 70
     1
 71
     1
 10
0.0
 20
0.0
 11
420.0
 21
297.0
 12
0.0
 22
0.0
 32
0.0
 14
1.000000000000000E+20
 24
1.000000000000000E+20
 34
1.000000000000000E+20
 15
-1.000000000000000E+20
 25
-1.000000000000000E+20
 35
-1.000000000000000E+20
146
0.0
 13
0.0
 23
0.0
 33
0.0
 16
1.0
 26
0.0
 36
0.0
 17
0.0
 27
1.0
 37
0.0
 76
     0
330
1B
  0
LAYOUT
  5
26
102
{ACAD_REACTORS
330
1A
102
}
330
1A
100
AcDbPlotSettings
  1

  2
none_device
  4

  6

 40
0.0
 41
0.0
 42
0.0
 43
0.0
 44
0.0
 45
0.0
 46
0.0
 47
0.0
 48
0.0
 49
0.0
140
0.0
141
0.0
142
1.0
143
1.0
 70
   688
 72
     1
 73
     0
 74
     5
  7

 75
    16
147
1.0
148
0.0
149
0.0
100
AcDbLayout
  1
Layout2
 70
     1
 71
     2
 10
0.0
 20
0.0
 11
0.0
 21
0.0
 12
0.0
 22
0.0
 32
0.0
 14
0.0
 24
0.0
 34
0.0
 15
0.0
 25
0.0
 35
0.0
146
0.0
 13
0.0
 23
0.0
 33
0.0
 16
1.0
 26
0.0
 36
0.0
 17
0.0
 27
1.0
 37
0.0
 76
     0
330
23
  0
LAYOUT
  5
22
102
{ACAD_REACTORS
330
1A
102
}
330
1A
100
AcDbPlotSettings
  1

  2
none_device
  4
ANSI_A_(11.00_x_8.50_Inches)
  6

 40
6.35
 41
19.05
 42
6.35000508
 43
19.05000254
 44
279.4
 45
215.9
 46
121.8469698226241
 47
44.84089107654674
 48
0.0
 49
0.0
140
0.0
141
0.0
142
0.0487608040732035
143
1.0
 70
  1696
 72
     0
 73
     0
 74
     0
  7

 75
     0
147
0.0235690232323232
148
0.0
149
0.0
100
AcDbLayout
  1
Model
 70
     1
 71
     0
 10
0.0
 20
0.0
 11
420.0
 21
297.0
 12
0.0
 22
0.0
 32
0.0
 14
-61.96250000000007
 24
-50.13877209681861
 34
0.0
 15
223.6324207285164
 25
43.13750000000005
 35
0.0
146
0.0
 13
0.0
 23
0.0
 33
0.0
 16
1.0
 26
0.0
 36
0.0
 17
0.0
 27
1.0
 37
0.0
 76
     0
330
1F
331
29
  0
MLINESTYLE
  5
18
102
{ACAD_REACTORS
330
17
102
}
330
17
100
AcDbMlineStyle
  2
Standard
 70
     0
  3

 62
   256
 51
90.0
 52
90.0
 71
     2
 49
0.5
 62
   256
  6
BYLAYER
 49
-0.5
 62
   256
  6
BYLAYER
  0
ACDBPLACEHOLDER
  5
F
102
{ACAD_REACTORS
330
E
102
}
330
E
  0
SCALE
  5
48
102
{ACAD_REACTORS
330
47
102
}
330
47
100
AcDbScale
 70
     0
300
1:1
140
1.0
141
1.0
290
     1
  0
SCALE
  5
49
102
{ACAD_REACTORS
330
47
102
}
330
47
100
AcDbScale
 70
     0
300
1:2
140
1.0
141
2.0
290
     0
  0
SCALE
  5
4A
102
{ACAD_REACTORS
330
47
102
}
330
47
100
AcDbScale
 70
     0
300
1:4
140
1.0
141
4.0
290
     0
  0
SCALE
  5
4B
102
{ACAD_REACTORS
330
47
102
}
330
47
100
AcDbScale
 70
     0
300
1:5
140
1.0
141
5.0
290
     0
  0
SCALE
  5
4C
102
{ACAD_REACTORS
330
47
102
}
330
47
100
AcDbScale
 70
     0
300
1:8
140
1.0
141
8.0
290
     0
  0
SCALE
  5
4D
102
{ACAD_REACTORS
330
47
102
}
330
47
100
AcDbScale
 70
     0
300
1:10
140
1.0
141
10.0
290
     0
  0
SCALE
  5
4E
102
{ACAD_REACTORS
330
47
102
}
330
47
100
AcDbScale
 70
     0
300
1:16
140
1.0
141
16.0
290
     0
  0
SCALE
  5
4F
102
{ACAD_REACTORS
330
47
102
}
330
47
100
AcDbScale
 70
     0
300
1:20
140
1.0
141
20.0
290
     0
  0
SCALE
  5
50
102
{ACAD_REACTORS
330
47
102
}
330
47
100
AcDbScale
 70
     0
300
1:30
140
1.0
141
30.0
290
     0
  0
SCALE
  5
51
102
{ACAD_REACTORS
330
47
102
}
330
47
100
AcDbScale
 70
     0
300
1:40
140
1.0
141
40.0
290
     0
  0
SCALE
  5
52
102
{ACAD_REACTORS
330
47
102
}
330
47
100
AcDbScale
 70
     0
300
1:50
140
1.0
141
50.0
290
     0
  0
SCALE
  5
53
102
{ACAD_REACTORS
330
47
102
}
330
47
100
AcDbScale
 70
     0
300
1:100
140
1.0
141
100.0
290
     0
  0
SCALE
  5
54
102
{ACAD_REACTORS
330
47
102
}
330
47
100
AcDbScale
 70
     0
300
2:1
140
2.0
141
1.0
290
     0
  0
SCALE
  5
55
102
{ACAD_REACTORS
330
47
102
}
330
47
100
AcDbScale
 70
     0
300
4:1
140
4.0
141
1.0
290
     0
  0
SCALE
  5
56
102
{ACAD_REACTORS
330
47
102
}
330
47
100
AcDbScale
 70
     0
300
8:1
140
8.0
141
1.0
290
     0
  0
SCALE
  5
57
102
{ACAD_REACTORS
330
47
102
}
330
47
100
AcDbScale
 70
     0
300
10:1
140
10.0
141
1.0
290
     0
  0
SCALE
  5
58
102
{ACAD_REACTORS
330
47
102
}
330
47
100
AcDbScale
 70
     0
300
100:1
140
100.0
141
1.0
290
     0
  0
SCALE
  5
59
102
{ACAD_REACTORS
330
47
102
}
330
47
100
AcDbScale
 70
     0
300
1/128" = 1'-0"
140
0.0078125
141
12.0
290
     0
  0
SCALE
  5
5A
102
{ACAD_REACTORS
330
47
102
}
330
47
100
AcDbScale
 70
     0
300
1/64" = 1'-0"
140
0.015625
141
12.0
290
     0
  0
SCALE
  5
5B
102
{ACAD_REACTORS
330
47
102
}
330
47
100
AcDbScale
 70
     0
300
1/32" = 1'-0"
140
0.03125
141
12.0
290
     0
  0
SCALE
  5
5C
102
{ACAD_REACTORS
330
47
102
}
330
47
100
AcDbScale
 70
     0
300
1/16" = 1'-0"
140
0.0625
141
12.0
290
     0
  0
SCALE
  5
5D
102
{ACAD_REACTORS
330
47
102
}
330
47
100
AcDbScale
 70
     0
300
3/32" = 1'-0"
140
0.09375
141
12.0
290
     0
  0
SCALE
  5
5E
102
{ACAD_REACTORS
330
47
102
}
330
47
100
AcDbScale
 70
     0
300
1/8" = 1'-0"
140
0.125
141
12.0
290
     0
  0
SCALE
  5
5F
102
{ACAD_REACTORS
330
47
102
}
330
47
100
AcDbScale
 70
     0
300
3/16" = 1'-0"
140
0.1875
141
12.0
290
     0
  0
SCALE
  5
60
102
{ACAD_REACTORS
330
47
102
}
330
47
100
AcDbScale
 70
     0
300
1/4" = 1'-0"
140
0.25
141
12.0
290
     0
  0
SCALE
  5
61
102
{ACAD_REACTORS
330
47
102
}
330
47
100
AcDbScale
 70
     0
300
3/8" = 1'-0"
140
0.375
141
12.0
290
     0
  0
SCALE
  5
62
102
{ACAD_REACTORS
330
47
102
}
330
47
100
AcDbScale
 70
     0
300
1/2" = 1'-0"
140
0.5
141
12.0
290
     0
  0
SCALE
  5
63
102
{ACAD_REACTORS
330
47
102
}
330
47
100
AcDbScale
 70
     0
300
3/4" = 1'-0"
140
0.75
141
12.0
290
     0
  0
SCALE
  5
64
102
{ACAD_REACTORS
330
47
102
}
330
47
100
AcDbScale
 70
     0
300
1" = 1'-0"
140
1.0
141
12.0
290
     0
  0
SCALE
  5
65
102
{ACAD_REACTORS
330
47
102
}
330
47
100
AcDbScale
 70
     0
300
1-1/2" = 1'-0"
140
1.5
141
12.0
290
     0
  0
SCALE
  5
66
102
{ACAD_REACTORS
330
47
102
}
330
47
100
AcDbScale
 70
     0
300
3" = 1'-0"
140
3.0
141
12.0
290
     0
  0
SCALE
  5
67
102
{ACAD_REACTORS
330
47
102
}
330
47
100
AcDbScale
 70
     0
300
6" = 1'-0"
140
6.0
141
12.0
290
     0
  0
SCALE
  5
68
102
{ACAD_REACTORS
330
47
102
}
330
47
100
AcDbScale
 70
     0
300
1'-0" = 1'-0"
140
12.0
141
12.0
290
     0
  0
ENDSEC
  0
EOF
