  0
SECTION
  2
HEADER
  9
$ACADVER
  1
AC1015
  9
$ACADMAINTVER
 70
     6
  9
$DWGCODEPAGE
  3
ANSI_949
  9
$INSBASE
 10
0.0
 20
0.0
 30
0.0
  9
$EXTMIN
 10
-75.20000000000005
 20
-49.97073246008785
 30
0.0
  9
$EXTMAX
 10
83.69399512937675
 20
47.00067322023857
 30
0.0
  9
$LIMMIN
 10
0.0
 20
0.0
  9
$LIMMAX
 10
420.0
 20
297.0
  9
$ORTHOMODE
 70
     1
  9
$REGENMODE
 70
     1
  9
$FILLMODE
 70
     1
  9
$QTEXTMODE
 70
     0
  9
$MIRRTEXT
 70
     1
  9
$LTSCALE
 40
1.0
  9
$ATTMODE
 70
     1
  9
$TEXTSIZE
 40
3.5
  9
$TRACEWID
 40
1.0
  9
$TEXTSTYLE
  7
Standard
  9
$CLAYER
  8
0
  9
$CELTYPE
  6
ByLayer
  9
$CECOLOR
 62
   256
  9
$CELTSCALE
 40
1.0
  9
$DISPSILH
 70
     0
  9
$DIMSCALE
 40
1.0
  9
$DIMASZ
 40
3.302
  9
$DIMEXO
 40
1.0
  9
$DIMDLI
 40
3.75
  9
$DIMRND
 40
0.0
  9
$DIMDLE
 40
0.0
  9
$DIMEXE
 40
1.0
  9
$DIMTP
 40
0.0
  9
$DIMTM
 40
0.0
  9
$DIMTXT
 40
3.5
  9
$DIMCEN
 40
2.5
  9
$DIMTSZ
 40
0.0
  9
$DIMTOL
 70
     0
  9
$DIMLIM
 70
     0
  9
$DIMTIH
 70
     1
  9
$DIMTOH
 70
     1
  9
$DIMSE1
 70
     0
  9
$DIMSE2
 70
     0
  9
$DIMTAD
 70
     1
  9
$DIMZIN
 70
     0
  9
$DIMBLK
  1

  9
$DIMASO
 70
     1
  9
$DIMSHO
 70
     1
  9
$DIMPOST
  1

  9
$DIMAPOST
  1

  9
$DIMALT
 70
     0
  9
$DIMALTD
 70
     3
  9
$DIMALTF
 40
0.0393700787401575
  9
$DIMLFAC
 40
1.0
  9
$DIMTOFL
 70
     1
  9
$DIMTVP
 40
0.0
  9
$DIMTIX
 70
     0
  9
$DIMSOXD
 70
     0
  9
$DIMSAH
 70
     0
  9
$DIMBLK1
  1

  9
$DIMBLK2
  1

  9
$DIMSTYLE
  2
ISO-25
  9
$DIMCLRD
 70
     0
  9
$DIMCLRE
 70
     0
  9
$DIMCLRT
 70
     0
  9
$DIMTFAC
 40
1.0
  9
$DIMGAP
 40
1.524
  9
$DIMJUST
 70
     0
  9
$DIMSD1
 70
     0
  9
$DIMSD2
 70
     0
  9
$DIMTOLJ
 70
     0
  9
$DIMTZIN
 70
     0
  9
$DIMALTZ
 70
     0
  9
$DIMALTTZ
 70
     0
  9
$DIMUPT
 70
     0
  9
$DIMDEC
 70
     2
  9
$DIMTDEC
 70
     2
  9
$DIMALTU
 70
     2
  9
$DIMALTTD
 70
     3
  9
$DIMTXSTY
  7
Standard
  9
$DIMAUNIT
 70
     0
  9
$DIMADEC
 70
     2
  9
$DIMALTRND
 40
0.0
  9
$DIMAZIN
 70
     0
  9
$DIMDSEP
 70
    44
  9
$DIMATFIT
 70
     3
  9
$DIMFRAC
 70
     0
  9
$DIMLDRBLK
  1

  9
$DIMLUNIT
 70
     2
  9
$DIMLWD
 70
    -2
  9
$DIMLWE
 70
    -2
  9
$DIMTMOVE
 70
     0
  9
$LUNITS
 70
     2
  9
$LUPREC
 70
     2
  9
$SKETCHINC
 40
1.0
  9
$FILLETRAD
 40
10.0
  9
$AUNITS
 70
     0
  9
$AUPREC
 70
     2
  9
$MENU
  1
.
  9
$ELEVATION
 40
0.0
  9
$PELEVATION
 40
0.0
  9
$THICKNESS
 40
0.0
  9
$LIMCHECK
 70
     0
  9
$CHAMFERA
 40
0.0
  9
$CHAMFERB
 40
0.0
  9
$CHAMFERC
 40
0.0
  9
$CHAMFERD
 40
0.0
  9
$SKPOLY
 70
     0
  9
$TDCREATE
 40
2458316.585572095
  9
$TDUCREATE
 40
2458316.210572095
  9
$TDUPDATE
 40
2458320.73992632
  9
$TDUUPDATE
 40
2458320.36492632
  9
$TDINDWG
 40
0.0052996528
  9
$TDUSRTIMER
 40
2458320.364888009
  9
$USRTIMER
 70
     1
  9
$ANGBASE
 50
0.0
  9
$ANGDIR
 70
     0
  9
$PDMODE
 70
     0
  9
$PDSIZE
 40
-1.0
  9
$PLINEWID
 40
0.0
  9
$SPLFRAME
 70
     0
  9
$SPLINETYPE
 70
     6
  9
$SPLINESEGS
 70
     8
  9
$HANDSEED
  5
41F
  9
$SURFTAB1
 70
     6
  9
$SURFTAB2
 70
     6
  9
$SURFTYPE
 70
     6
  9
$SURFU
 70
     6
  9
$SURFV
 70
     6
  9
$UCSBASE
  2

  9
$UCSNAME
  2

  9
$UCSORG
 10
0.0
 20
0.0
 30
0.0
  9
$UCSXDIR
 10
1.0
 20
0.0
 30
0.0
  9
$UCSYDIR
 10
0.0
 20
1.0
 30
0.0
  9
$UCSORTHOREF
  2

  9
$UCSORTHOVIEW
 70
     0
  9
$UCSORGTOP
 10
0.0
 20
0.0
 30
0.0
  9
$UCSORGBOTTOM
 10
0.0
 20
0.0
 30
0.0
  9
$UCSORGLEFT
 10
0.0
 20
0.0
 30
0.0
  9
$UCSORGRIGHT
 10
0.0
 20
0.0
 30
0.0
  9
$UCSORGFRONT
 10
0.0
 20
0.0
 30
0.0
  9
$UCSORGBACK
 10
0.0
 20
0.0
 30
0.0
  9
$PUCSBASE
  2

  9
$PUCSNAME
  2

  9
$PUCSORG
 10
0.0
 20
0.0
 30
0.0
  9
$PUCSXDIR
 10
1.0
 20
0.0
 30
0.0
  9
$PUCSYDIR
 10
0.0
 20
1.0
 30
0.0
  9
$PUCSORTHOREF
  2

  9
$PUCSORTHOVIEW
 70
     0
  9
$PUCSORGTOP
 10
0.0
 20
0.0
 30
0.0
  9
$PUCSORGBOTTOM
 10
0.0
 20
0.0
 30
0.0
  9
$PUCSORGLEFT
 10
0.0
 20
0.0
 30
0.0
  9
$PUCSORGRIGHT
 10
0.0
 20
0.0
 30
0.0
  9
$PUCSORGFRONT
 10
0.0
 20
0.0
 30
0.0
  9
$PUCSORGBACK
 10
0.0
 20
0.0
 30
0.0
  9
$USERI1
 70
     0
  9
$USERI2
 70
     0
  9
$USERI3
 70
     0
  9
$USERI4
 70
     0
  9
$USERI5
 70
     0
  9
$USERR1
 40
0.0
  9
$USERR2
 40
0.0
  9
$USERR3
 40
0.0
  9
$USERR4
 40
0.0
  9
$USERR5
 40
0.0
  9
$WORLDVIEW
 70
     1
  9
$SHADEDGE
 70
     3
  9
$SHADEDIF
 70
    70
  9
$TILEMODE
 70
     1
  9
$MAXACTVP
 70
    64
  9
$PINSBASE
 10
0.0
 20
0.0
 30
0.0
  9
$PLIMCHECK
 70
     0
  9
$PEXTMIN
 10
1.000000000000000E+20
 20
1.000000000000000E+20
 30
1.000000000000000E+20
  9
$PEXTMAX
 10
-1.000000000000000E+20
 20
-1.000000000000000E+20
 30
-1.000000000000000E+20
  9
$PLIMMIN
 10
0.0
 20
0.0
  9
$PLIMMAX
 10
0.0
 20
0.0
  9
$UNITMODE
 70
     0
  9
$VISRETAIN
 70
     1
  9
$PLINEGEN
 70
     0
  9
$PSLTSCALE
 70
     1
  9
$TREEDEPTH
 70
  3020
  9
$CMLSTYLE
  2
Standard
  9
$CMLJUST
 70
     0
  9
$CMLSCALE
 40
20.0
  9
$PROXYGRAPHICS
 70
     1
  9
$MEASUREMENT
 70
     1
  9
$CELWEIGHT
370
    -1
  9
$ENDCAPS
280
     0
  9
$JOINSTYLE
280
     0
  9
$LWDISPLAY
290
     1
  9
$INSUNITS
 70
     4
  9
$HYPERLINKBASE
  1

  9
$STYLESHEET
  1

  9
$XEDIT
290
     1
  9
$CEPSNTYPE
380
     0
  9
$PSTYLEMODE
290
     1
  9
$FINGERPRINTGUID
  2
{75E554E4-A8B7-4E14-B0D1-901935BCC39F}
  9
$VERSIONGUID
  2
{FAEB1C32-E019-11D5-929B-00C0DF256EC4}
  9
$EXTNAMES
290
     1
  9
$PSVPSCALE
 40
0.0
  9
$OLESTARTUP
290
     0
  0
ENDSEC
  0
SECTION
  2
CLASSES
  0
CLASS
  1
ACDBDICTIONARYWDFLT
  2
AcDbDictionaryWithDefault
  3
ObjectDBX Classes
 90
        0
280
     0
281
     0
  0
CLASS
  1
VISUALSTYLE
  2
AcDbVisualStyle
  3
ObjectDBX Classes
 90
     4095
280
     0
281
     0
  0
CLASS
  1
MATERIAL
  2
AcDbMaterial
  3
ObjectDBX Classes
 90
     1153
280
     0
281
     0
  0
CLASS
  1
SCALE
  2
AcDbScale
  3
ObjectDBX Classes
 90
     1153
280
     0
281
     0
  0
CLASS
  1
SUN
  2
AcDbSun
  3
SCENEOE
 90
     1153
280
     0
281
     0
  0
CLASS
  1
ACDBPLACEHOLDER
  2
AcDbPlaceHolder
  3
ObjectDBX Classes
 90
        0
280
     0
281
     0
  0
CLASS
  1
LAYOUT
  2
AcDbLayout
  3
ObjectDBX Classes
 90
        0
280
     0
281
     0
  0
CLASS
  1
TABLESTYLE
  2
AcDbTableStyle
  3
ObjectDBX Classes
 90
     4095
280
     0
281
     0
  0
CLASS
  1
MLEADERSTYLE
  2
AcDbMLeaderStyle
  3
ACDB_MLEADERSTYLE_CLASS
 90
     4095
280
     0
281
     0
  0
CLASS
  1
RASTERVARIABLES
  2
AcDbRasterVariables
  3
ISM
 90
        0
280
     0
281
     0
  0
ENDSEC
  0
SECTION
  2
TABLES
  0
TABLE
  2
VPORT
  5
8
330
0
100
AcDbSymbolTable
 70
     1
  0
VPORT
  5
29
330
8
100
AcDbSymbolTableRecord
100
AcDbViewportTableRecord
  2
*Active
 70
     0
 10
0.0
 20
0.0
 11
1.0
 21
1.0
 12
-52.29736595150574
 22
-51.39909892426117
 13
0.0
 23
0.0
 14
10.0
 24
10.0
 15
10.0
 25
10.0
 16
0.0
 26
0.0
 36
1.0
 17
0.0
 27
0.0
 37
0.0
 40
154.2945427110896
 41
1.67311411992263
 42
50.0
 43
0.0
 44
0.0
 50
0.0
 51
0.0
 71
    16
 72
  2000
 73
     1
 74
     3
 75
     0
 76
     0
 77
     0
 78
     0
281
     0
 65
     1
110
0.0
120
0.0
130
0.0
111
1.0
121
0.0
131
0.0
112
0.0
122
1.0
132
0.0
 79
     0
146
0.0
  0
ENDTAB
  0
TABLE
  2
LTYPE
  5
5
330
0
100
AcDbSymbolTable
 70
     6
  0
LTYPE
  5
14
330
5
100
AcDbSymbolTableRecord
100
AcDbLinetypeTableRecord
  2
ByBlock
 70
     0
  3

 72
    65
 73
     0
 40
0.0
  0
LTYPE
  5
15
330
5
100
AcDbSymbolTableRecord
100
AcDbLinetypeTableRecord
  2
ByLayer
 70
     0
  3

 72
    65
 73
     0
 40
0.0
  0
LTYPE
  5
16
330
5
100
AcDbSymbolTableRecord
100
AcDbLinetypeTableRecord
  2
Continuous
 70
     0
  3
Solid line
 72
    65
 73
     0
 40
0.0
  0
LTYPE
  5
6A
330
5
100
AcDbSymbolTableRecord
100
AcDbLinetypeTableRecord
  2
HIDDEN
 70
     0
  3
Hidden __ __ __ __ __ __ __ __ __ __ __ __ __ __
 72
    65
 73
     2
 40
1.905
 49
1.27
 74
     0
 49
-0.635
 74
     0
  0
LTYPE
  5
6B
330
5
100
AcDbSymbolTableRecord
100
AcDbLinetypeTableRecord
  2
PHANTOM
 70
     0
  3
Phantom ______  __  __  ______  __  __  ______
 72
    65
 73
     6
 40
12.7
 49
6.35
 74
     0
 49
-1.27
 74
     0
 49
1.27
 74
     0
 49
-1.27
 74
     0
 49
1.27
 74
     0
 49
-1.27
 74
     0
  0
LTYPE
  5
6C
330
5
100
AcDbSymbolTableRecord
100
AcDbLinetypeTableRecord
  2
CENTER
 70
     0
  3
Center ____ _ ____ _ ____ _ ____ _ ____ _ ____
 72
    65
 73
     4
 40
10.16
 49
6.35
 74
     0
 49
-1.27
 74
     0
 49
1.27
 74
     0
 49
-1.27
 74
     0
  0
LTYPE
  5
6D
330
5
100
AcDbSymbolTableRecord
100
AcDbLinetypeTableRecord
  2
CENTERX2
 70
     0
  3
Center (2x) ________  __  ________  __  _____
 72
    65
 73
     4
 40
20.32
 49
12.7
 74
     0
 49
-2.54
 74
     0
 49
2.54
 74
     0
 49
-2.54
 74
     0
  0
LTYPE
  5
6E
330
5
100
AcDbSymbolTableRecord
100
AcDbLinetypeTableRecord
  2
DOT2
 70
     0
  3
Dot (.5x) ........................................
 72
    65
 73
     2
 40
0.635
 49
0.0
 74
     0
 49
-0.635
 74
     0
  0
ENDTAB
  0
TABLE
  2
LAYER
  5
2
102
{ACAD_XDICTIONARY
360
1B8
102
}
330
0
100
AcDbSymbolTable
 70
    18
  0
LAYER
  5
10
330
2
100
AcDbSymbolTableRecord
100
AcDbLayerTableRecord
  2
0
 70
     0
 62
     7
  6
Continuous
370
    -3
390
F
  0
LAYER
  5
6F
330
2
100
AcDbSymbolTableRecord
100
AcDbLayerTableRecord
  2
FORMAT
 70
     0
 62
     2
  6
Continuous
370
    -3
390
F
  0
LAYER
  5
70
330
2
100
AcDbSymbolTableRecord
100
AcDbLayerTableRecord
  2
외형선
 70
     0
 62
     4
  6
Continuous
370
    30
390
F
  0
LAYER
  5
71
330
2
100
AcDbSymbolTableRecord
100
AcDbLayerTableRecord
  2
숨은선
 70
     0
 62
     2
  6
HIDDEN
370
    15
390
F
  0
LAYER
  5
72
330
2
100
AcDbSymbolTableRecord
100
AcDbLayerTableRecord
  2
중심선
 70
     0
 62
     1
  6
CENTERX2
370
    -3
390
F
  0
LAYER
  5
73
330
2
100
AcDbSymbolTableRecord
100
AcDbLayerTableRecord
  2
파단선
 70
     0
 62
     4
  6
Continuous
370
    -3
390
F
  0
LAYER
  5
74
330
2
100
AcDbSymbolTableRecord
100
AcDbLayerTableRecord
  2
해칭선
 70
     0
 62
   100
  6
Continuous
370
    -3
390
F
  0
LAYER
  5
75
330
2
100
AcDbSymbolTableRecord
100
AcDbLayerTableRecord
  2
가는실선
 70
     0
 62
     4
  6
Continuous
370
    -3
390
F
  0
LAYER
  5
76
330
2
100
AcDbSymbolTableRecord
100
AcDbLayerTableRecord
  2
치수_보조선
 70
     0
 62
     4
  6
Continuous
370
    -3
390
F
  0
LAYER
  5
77
330
2
100
AcDbSymbolTableRecord
100
AcDbLayerTableRecord
  2
치수문자_일반주서
 70
     0
 62
     7
  6
Continuous
370
    15
390
F
  0
LAYER
  5
78
330
2
100
AcDbSymbolTableRecord
100
AcDbLayerTableRecord
  2
개별주서
 70
     0
 62
   100
  6
Continuous
370
    30
390
F
  0
LAYER
  5
79
330
2
100
AcDbSymbolTableRecord
100
AcDbLayerTableRecord
  2
중간선
 70
     0
 62
     2
  6
Continuous
370
    15
390
F
  0
LAYER
  5
7A
330
2
100
AcDbSymbolTableRecord
100
AcDbLayerTableRecord
  2
윤곽선
 70
     0
 62
     3
  6
Continuous
370
    40
390
F
  0
LAYER
  5
7B
330
2
100
AcDbSymbolTableRecord
100
AcDbLayerTableRecord
  2
중심마크
 70
     0
 62
   100
  6
Continuous
370
    30
390
F
  0
LAYER
  5
7C
330
2
100
AcDbSymbolTableRecord
100
AcDbLayerTableRecord
  2
가상선
 70
     0
 62
     4
  6
PHANTOM
370
    -3
390
F
  0
LAYER
  5
7D
330
2
100
AcDbSymbolTableRecord
100
AcDbLayerTableRecord
  2
특수지정선
 70
     0
 62
     5
  6
CENTERX2
370
    60
390
F
  0
LAYER
  5
7E
330
2
100
AcDbSymbolTableRecord
100
AcDbLayerTableRecord
  2
참조1
 70
     0
 62
    -4
  6
Continuous
370
    -3
390
F
  0
LAYER
  5
137
330
2
100
AcDbSymbolTableRecord
100
AcDbLayerTableRecord
  2
Defpoints
 70
     0
 62
     7
  6
Continuous
290
     0
370
    -3
390
F
  0
ENDTAB
  0
TABLE
  2
STYLE
  5
3
330
0
100
AcDbSymbolTable
 70
     2
  0
STYLE
  5
11
330
3
100
AcDbSymbolTableRecord
100
AcDbTextStyleTableRecord
  2
Standard
 70
     0
 40
0.0
 41
1.0
 50
0.0
 71
     0
 42
3.5
  3
txt
  4

  0
STYLE
  5
94
330
3
100
AcDbSymbolTableRecord
100
AcDbTextStyleTableRecord
  2
SLDTEXTSTYLE0
 70
     0
 40
0.0
 41
0.75
 50
0.0
 71
     0
 42
3.5
  3
TXT
  4

  0
ENDTAB
  0
TABLE
  2
VIEW
  5
6
330
0
100
AcDbSymbolTable
 70
     0
  0
ENDTAB
  0
TABLE
  2
UCS
  5
7
330
0
100
AcDbSymbolTable
 70
     0
  0
ENDTAB
  0
TABLE
  2
APPID
  5
9
330
0
100
AcDbSymbolTable
 70
     1
  0
APPID
  5
12
330
9
100
AcDbSymbolTableRecord
100
AcDbRegAppTableRecord
  2
ACAD
 70
     0
  0
ENDTAB
  0
TABLE
  2
DIMSTYLE
  5
A
330
0
100
AcDbSymbolTable
 70
     4
100
AcDbDimStyleTable
  0
DIMSTYLE
105
27
330
A
100
AcDbSymbolTableRecord
100
AcDbDimStyleTableRecord
  2
ISO-25
 70
     0
 41
2.5
 42
0.625
 43
3.75
 44
1.25
 73
     0
 74
     0
 77
     1
 78
     8
140
2.5
141
2.5
143
0.03937007874016
147
0.625
171
     3
172
     1
178
     0
271
     2
272
     2
274
     3
278
    44
283
     0
284
     8
340
11
  0
DIMSTYLE
105
B4
330
A
100
AcDbSymbolTableRecord
100
AcDbDimStyleTableRecord
  2
SLDDIMSTYLE0
 70
     0
 41
3.302
 44
0.0
 45
0.000000001
 73
     0
 74
     0
 77
     1
 78
    12
 79
     3
140
3.5
143
0.0393700787401575
147
0.875
148
0.000000001
170
     1
173
     1
178
     0
271
     2
272
     2
276
     2
284
    12
340
94
  0
DIMSTYLE
105
DC
102
{ACAD_REACTORS
330
347
330
348
330
349
330
34A
102
}
330
A
100
AcDbSymbolTableRecord
100
AcDbDimStyleTableRecord
  2
SLDDIMSTYLE1
 70
     0
 41
3.302
 44
0.0
 45
0.000000001
 73
     0
 74
     0
 77
     1
 78
     4
 79
     1
140
3.5
143
0.0393700787401575
147
0.875
148
0.000000001
170
     1
172
     1
173
     1
178
     0
271
     2
272
     2
276
     2
284
    12
289
     0
340
94
  0
DIMSTYLE
105
F1
330
A
100
AcDbSymbolTableRecord
100
AcDbDimStyleTableRecord
  2
SLDDIMSTYLE2
 70
     0
 41
3.302
 44
0.0
 45
0.000000001
 73
     0
 74
     0
 77
     1
 78
     4
 79
     1
140
3.5
143
0.0393700787401575
147
0.875
148
0.000000001
170
     1
173
     1
178
     0
271
     2
272
     2
276
     2
284
    12
340
94
  0
ENDTAB
  0
TABLE
  2
BLOCK_RECORD
  5
1
330
0
100
AcDbSymbolTable
 70
    23
  0
BLOCK_RECORD
  5
1F
330
1
100
AcDbSymbolTableRecord
100
AcDbBlockTableRecord
  2
*Model_Space
340
22
  0
BLOCK_RECORD
  5
1B
330
1
100
AcDbSymbolTableRecord
100
AcDbBlockTableRecord
  2
*Paper_Space
340
1E
  0
BLOCK_RECORD
  5
23
330
1
100
AcDbSymbolTableRecord
100
AcDbBlockTableRecord
  2
*Paper_Space0
340
26
  0
BLOCK_RECORD
  5
7F
330
1
100
AcDbSymbolTableRecord
100
AcDbBlockTableRecord
  2
블럭10
340
0
102
{BLKREFS
331
AC
102
}
  0
BLOCK_RECORD
  5
B5
330
1
100
AcDbSymbolTableRecord
100
AcDbBlockTableRecord
  2
_D
340
0
  0
BLOCK_RECORD
  5
C9
330
1
100
AcDbSymbolTableRecord
100
AcDbBlockTableRecord
  2
_D_1
340
0
  0
BLOCK_RECORD
  5
DD
330
1
100
AcDbSymbolTableRecord
100
AcDbBlockTableRecord
  2
_D_2
340
0
  0
BLOCK_RECORD
  5
F2
330
1
100
AcDbSymbolTableRecord
100
AcDbBlockTableRecord
  2
_D_3
340
0
  0
BLOCK_RECORD
  5
10B
330
1
100
AcDbSymbolTableRecord
100
AcDbBlockTableRecord
  2
SW_DOWELSYMBOL_0
340
0
102
{BLKREFS
331
34B
102
}
  0
BLOCK_RECORD
  5
191
330
1
100
AcDbSymbolTableRecord
100
AcDbBlockTableRecord
  2
*D7
340
0
  0
BLOCK_RECORD
  5
19E
330
1
100
AcDbSymbolTableRecord
100
AcDbBlockTableRecord
  2
*D8
340
0
  0
BLOCK_RECORD
  5
1BC
330
1
100
AcDbSymbolTableRecord
100
AcDbBlockTableRecord
  2
*D9
340
0
  0
BLOCK_RECORD
  5
1C8
330
1
100
AcDbSymbolTableRecord
100
AcDbBlockTableRecord
  2
*D10
340
0
  0
BLOCK_RECORD
  5
1F7
330
1
100
AcDbSymbolTableRecord
100
AcDbBlockTableRecord
  2
*D11
340
0
  0
BLOCK_RECORD
  5
203
330
1
100
AcDbSymbolTableRecord
100
AcDbBlockTableRecord
  2
*D12
340
0
  0
BLOCK_RECORD
  5
212
330
1
100
AcDbSymbolTableRecord
100
AcDbBlockTableRecord
  2
*D13
340
0
  0
BLOCK_RECORD
  5
21E
330
1
100
AcDbSymbolTableRecord
100
AcDbBlockTableRecord
  2
*D14
340
0
  0
BLOCK_RECORD
  5
2EF
330
1
100
AcDbSymbolTableRecord
100
AcDbBlockTableRecord
  2
*D15
340
0
  0
BLOCK_RECORD
  5
2FB
330
1
100
AcDbSymbolTableRecord
100
AcDbBlockTableRecord
  2
*D16
340
0
  0
BLOCK_RECORD
  5
307
330
1
100
AcDbSymbolTableRecord
100
AcDbBlockTableRecord
  2
*D17
340
0
  0
BLOCK_RECORD
  5
313
330
1
100
AcDbSymbolTableRecord
100
AcDbBlockTableRecord
  2
*D18
340
0
  0
BLOCK_RECORD
  5
352
330
1
100
AcDbSymbolTableRecord
100
AcDbBlockTableRecord
  2
*D19
340
0
  0
BLOCK_RECORD
  5
35E
330
1
100
AcDbSymbolTableRecord
100
AcDbBlockTableRecord
  2
*D20
340
0
  0
BLOCK_RECORD
  5
36A
330
1
100
AcDbSymbolTableRecord
100
AcDbBlockTableRecord
  2
*D21
340
0
  0
BLOCK_RECORD
  5
376
330
1
100
AcDbSymbolTableRecord
100
AcDbBlockTableRecord
  2
*D22
340
0
  0
ENDTAB
  0
ENDSEC
  0
SECTION
  2
BLOCKS
  0
BLOCK
  5
20
330
1F
100
AcDbEntity
  8
0
100
AcDbBlockBegin
  2
*Model_Space
 70
     0
 10
0.0
 20
0.0
 30
0.0
  3
*Model_Space
  1
*Model_Space
  0
ENDBLK
  5
21
330
1F
100
AcDbEntity
  8
0
100
AcDbBlockEnd
  0
BLOCK
  5
1C
330
1B
100
AcDbEntity
 67
     1
  8
0
100
AcDbBlockBegin
  2
*Paper_Space
 70
     0
 10
0.0
 20
0.0
 30
0.0
  3
*Paper_Space
  1
*Paper_Space
  0
ENDBLK
  5
1D
330
1B
100
AcDbEntity
 67
     1
  8
0
100
AcDbBlockEnd
  0
BLOCK
  5
24
330
23
100
AcDbEntity
  8
0
100
AcDbBlockBegin
  2
*Paper_Space0
 70
     0
 10
0.0
 20
0.0
 30
0.0
  3
*Paper_Space0
  1
*Paper_Space0
  0
ENDBLK
  5
25
330
23
100
AcDbEntity
  8
0
100
AcDbBlockEnd
  0
BLOCK
  5
80
330
7F
100
AcDbEntity
  8
0
100
AcDbBlockBegin
  2
블럭10
 70
     2
 10
0.0
 20
0.0
 30
0.0
  3
블럭10
  1
블럭10
  0
ELLIPSE
  5
82
330
7F
100
AcDbEntity
  8
중심선
100
AcDbEllipse
 10
20.54032771741204
 20
12.0471743016438
 30
0.0
 11
6.600054785286829
 21
-1.261213355974178E-13
 31
0.0
210
0.0
220
0.0
230
1.0
 40
0.636358354079598
 41
0.9219305317359503
 42
6.513795318482858
  0
ELLIPSE
  5
83
330
7F
100
AcDbEntity
  8
중심선
100
AcDbEllipse
 10
20.54032771746488
 20
12.04717430159265
 30
0.0
 11
3.960054785062283
 21
1.540847449632565E-10
 31
0.0
210
0.0
220
0.0
230
1.0
 40
0.3939339440162632
 41
1.131841032648279
 42
5.62031148352944
  0
LINE
  5
84
330
7F
100
AcDbEntity
  8
중심선
100
AcDbLine
 10
2.268634060543552
 20
16.24717430164393
 30
0.0
 11
5.714909304380834
 21
16.24717430164393
 31
0.0
  0
LINE
  5
85
330
7F
100
AcDbEntity
  8
중심선
100
AcDbLine
 10
5.245725140726316
 20
7.84717430164391
 30
0.0
 11
8.692000384563599
 21
7.84717430164391
 31
0.0
  0
LINE
  5
86
330
7F
100
AcDbEntity
  8
중심선
100
AcDbLine
 10
15.74043728645272
 20
16.24717430164393
 30
0.0
 11
8.692000384563599
 21
7.84717430164391
 31
0.0
  0
LINE
  5
87
330
7F
100
AcDbEntity
  8
중심선
100
AcDbLine
 10
0.1404042013395286
 20
13.71084872107135
 30
0.0
 11
3.58671253028996
 21
13.71088815037384
 31
0.0
  0
LINE
  5
88
330
7F
100
AcDbEntity
  8
중심선
100
AcDbLine
 10
2.750260043222114
 20
10.84717430164391
 30
0.0
 11
6.196535287059397
 21
10.84717430164391
 31
0.0
  0
LINE
  5
89
330
7F
100
AcDbEntity
  8
중심선
100
AcDbLine
 10
12.29416204261559
 20
16.24717430164393
 30
0.0
 11
5.245725140726316
 21
7.84717430164391
 31
0.0
  0
LINE
  5
8A
330
7F
100
AcDbEntity
  8
중심선
100
AcDbLine
 10
10.72767329541681
 20
16.24717430164393
 30
0.0
 11
6.196535287059397
 21
10.84717430164391
 31
0.0
  0
LINE
  5
8B
330
7F
100
AcDbEntity
  8
중심선
100
AcDbLine
 10
7.28139805157953
 20
16.24717430164393
 30
0.0
 11
2.750260043222114
 21
10.84717430164391
 31
0.0
  0
LINE
  5
8C
330
7F
100
AcDbEntity
  8
중심선
100
AcDbLine
 10
5.714909304380834
 20
16.24717430164393
 30
0.0
 11
3.58671253028996
 21
13.71088815037384
 31
0.0
  0
LINE
  5
8D
330
7F
100
AcDbEntity
  8
중심선
100
AcDbLine
 10
2.268634060543552
 20
16.24717430164393
 30
0.0
 11
0.1404042013395286
 21
13.71084872107135
 31
0.0
  0
LINE
  5
8E
330
7F
100
AcDbEntity
  8
중심선
100
AcDbLine
 10
7.28139805157953
 20
16.24717430164393
 30
0.0
 11
10.72767329541681
 21
16.24717430164393
 31
0.0
  0
LINE
  5
8F
330
7F
100
AcDbEntity
  8
중심선
100
AcDbLine
 10
12.29416204261559
 20
16.24717430164393
 30
0.0
 11
15.74043728645272
 21
16.24717430164393
 31
0.0
  0
LINE
  5
90
330
7F
100
AcDbEntity
  8
중심선
100
AcDbLine
 10
19.22036997980202
 20
11.08717430171403
 30
0.0
 11
23.66174974927406
 21
11.08717430171406
 31
0.0
  0
LINE
  5
91
330
7F
100
AcDbEntity
  8
중심선
100
AcDbLine
 10
19.22039502424796
 20
13.00717430171391
 30
0.0
 11
19.22036997980202
 21
11.08717430171403
 31
0.0
  0
LINE
  5
92
330
7F
100
AcDbEntity
  8
중심선
100
AcDbLine
 10
19.22039502424796
 20
13.00717430171391
 30
0.0
 11
26.96566020931264
 21
13.00717430171391
 31
0.0
  0
LINE
  5
93
330
7F
100
AcDbEntity
  8
중심선
100
AcDbLine
 10
22.22332737316547
 20
13.45928029700563
 30
0.0
 11
24.52862924686651
 21
15.39360700705356
 31
0.0
  0
ATTDEF
  5
95
330
7F
100
AcDbEntity
  8
FORMAT
 62
     2
100
AcDbText
 10
4.408487351596664
 20
2.075366912832191
 30
0.0
 40
4.233333333333333
  1
E1110964
 41
0.75
  7
SLDTEXTSTYLE0
 11
4.408487351596664
 21
-0.0412997538344756
 31
0.0
100
AcDbAttributeDefinition
  3

  2
AUTOATTR0
 70
     0
 74
     1
  0
ENDBLK
  5
81
330
7F
100
AcDbEntity
  8
0
100
AcDbBlockEnd
  0
BLOCK
  5
B6
330
B5
100
AcDbEntity
  8
0
100
AcDbBlockBegin
  2
_D
 70
     0
 10
0.0
 20
0.0
 30
0.0
  3
_D
  1
_D
  0
LINE
  5
B8
330
B5
100
AcDbEntity
  8
치수문자_일반주서
 62
     0
370
    -2
100
AcDbLine
 10
59.14999999999816
 20
12.76250000000005
 30
0.0
 11
59.14999999999816
 21
28.07473854947111
 31
0.0
  0
LINE
  5
B9
330
B5
100
AcDbEntity
  8
치수문자_일반주서
 62
     0
370
    -2
100
AcDbLine
 10
1.999999999998177
 20
12.33619740529843
 30
0.0
 11
1.999999999998177
 21
28.07473854947111
 31
0.0
  0
LINE
  5
BA
330
B5
100
AcDbEntity
  8
치수문자_일반주서
 62
     0
370
    -2
100
AcDbLine
 10
55.84799999999816
 20
28.07473854947111
 30
0.0
 11
5.301999999998177
 21
28.07473854947111
 31
0.0
  0
SOLID
  5
BB
330
B5
100
AcDbEntity
  8
치수문자_일반주서
 62
     0
100
AcDbTrace
 10
55.84799999999816
 20
27.52440521613778
 30
0.0
 11
55.84799999999816
 21
28.62507188280445
 31
0.0
 12
59.14999999999816
 22
28.07473854947111
 32
0.0
 13
59.14999999999816
 23
28.07473854947111
 33
0.0
  0
SOLID
  5
BC
330
B5
100
AcDbEntity
  8
치수문자_일반주서
 62
     0
100
AcDbTrace
 10
5.301999999998177
 20
28.62507188280445
 30
0.0
 11
5.301999999998177
 21
27.52440521613778
 31
0.0
 12
1.999999999998177
 22
28.07473854947111
 32
0.0
 13
1.999999999998177
 23
28.07473854947111
 33
0.0
  0
MTEXT
  5
BD
330
B5
100
AcDbEntity
  8
치수문자_일반주서
 62
     0
100
AcDbMText
 10
33.71586098157706
 20
32.44973854947111
 30
0.0
 40
3.5
 41
0.0
 71
     2
 72
     1
  1
\A1;57.15 [2 1/4]
  7
SLDTEXTSTYLE0
 73
     1
 44
1.0
  0
POINT
  5
BE
330
B5
100
AcDbEntity
  8
Defpoints
 62
     0
100
AcDbPoint
 10
59.14999999999816
 20
12.70000000000005
 30
0.0
  0
POINT
  5
BF
330
B5
100
AcDbEntity
  8
Defpoints
 62
     0
100
AcDbPoint
 10
1.999999999998177
 20
12.27369740529843
 30
0.0
  0
POINT
  5
C0
330
B5
100
AcDbEntity
  8
Defpoints
 62
     0
100
AcDbPoint
 10
1.999999999998177
 20
28.07473854947111
 30
0.0
  0
ENDBLK
  5
B7
330
B5
100
AcDbEntity
  8
0
100
AcDbBlockEnd
  0
BLOCK
  5
CA
330
C9
100
AcDbEntity
  8
0
100
AcDbBlockBegin
  2
_D_1
 70
     0
 10
0.0
 20
0.0
 30
0.0
  3
_D_1
  1
_D_1
  0
LINE
  5
CC
330
C9
100
AcDbEntity
  8
치수문자_일반주서
 62
     0
370
    -2
100
AcDbLine
 10
40.24926131403114
 20
4.337226723198786
 30
0.0
 11
40.24926131403114
 21
38.76357492872395
 31
0.0
  0
LINE
  5
CD
330
C9
100
AcDbEntity
  8
치수문자_일반주서
 62
     0
370
    -2
100
AcDbLine
 10
-35.95073868596884
 20
5.413574928723887
 30
0.0
 11
-35.95073868596884
 21
38.76357492872395
 31
0.0
  0
LINE
  5
CE
330
C9
100
AcDbEntity
  8
치수문자_일반주서
 62
     0
370
    -2
100
AcDbLine
 10
36.94726131403115
 20
38.76357492872395
 30
0.0
 11
-32.64873868596884
 21
38.76357492872395
 31
0.0
  0
SOLID
  5
CF
330
C9
100
AcDbEntity
  8
치수문자_일반주서
 62
     0
100
AcDbTrace
 10
36.94726131403115
 20
38.21324159539062
 30
0.0
 11
36.94726131403115
 21
39.31390826205729
 31
0.0
 12
40.24926131403114
 22
38.76357492872395
 32
0.0
 13
40.24926131403114
 23
38.76357492872395
 33
0.0
  0
SOLID
  5
D0
330
C9
100
AcDbEntity
  8
치수문자_일반주서
 62
     0
100
AcDbTrace
 10
-32.64873868596884
 20
39.31390826205729
 30
0.0
 11
-32.64873868596884
 21
38.21324159539062
 31
0.0
 12
-35.95073868596884
 22
38.76357492872395
 32
0.0
 13
-35.95073868596884
 23
38.76357492872395
 33
0.0
  0
MTEXT
  5
D1
330
C9
100
AcDbEntity
  8
치수문자_일반주서
 62
     0
100
AcDbMText
 10
2.149261314031146
 20
43.13857492872395
 30
0.0
 40
3.5
 41
0.0
 71
     2
 72
     1
  1
\A1;76.20 [3]
  7
SLDTEXTSTYLE0
 73
     1
 44
1.0
  0
POINT
  5
D2
330
C9
100
AcDbEntity
  8
Defpoints
 62
     0
100
AcDbPoint
 10
40.24926131403114
 20
4.274726723198786
 30
0.0
  0
POINT
  5
D3
330
C9
100
AcDbEntity
  8
Defpoints
 62
     0
100
AcDbPoint
 10
-35.95073868596884
 20
5.351074928723887
 30
0.0
  0
POINT
  5
D4
330
C9
100
AcDbEntity
  8
Defpoints
 62
     0
100
AcDbPoint
 10
-35.95073868596884
 20
38.76357492872395
 30
0.0
  0
ENDBLK
  5
CB
330
C9
100
AcDbEntity
  8
0
100
AcDbBlockEnd
  0
BLOCK
  5
DE
330
DD
100
AcDbEntity
  8
0
100
AcDbBlockBegin
  2
_D_2
 70
     0
 10
0.0
 20
0.0
 30
0.0
  3
_D_2
  1
_D_2
  0
LINE
  5
E0
330
DD
100
AcDbEntity
  8
치수문자_일반주서
 62
     0
370
    -2
100
AcDbLine
 10
-35.01323868596884
 20
6.351074928723891
 30
0.0
 11
-48.45073868596888
 21
6.351074928723843
 31
0.0
  0
LINE
  5
E1
330
DD
100
AcDbEntity
  8
치수문자_일반주서
 62
     0
370
    -2
100
AcDbLine
 10
-35.01323868596884
 20
-6.348925071276098
 30
0.0
 11
-48.45073868596884
 21
-6.348925071276146
 31
0.0
  0
LINE
  5
E2
330
DD
100
AcDbEntity
  8
치수문자_일반주서
 62
     0
370
    -2
100
AcDbLine
 10
-48.45073868596887
 20
3.049074928723844
 30
0.0
 11
-48.45073868596885
 21
-3.046925071276147
 31
0.0
  0
SOLID
  5
E3
330
DD
100
AcDbEntity
  8
치수문자_일반주서
 62
     0
100
AcDbTrace
 10
-47.90040535263553
 20
3.049074928723845
 30
0.0
 11
-49.0010720193022
 21
3.049074928723842
 31
0.0
 12
-48.45073868596888
 22
6.351074928723843
 32
0.0
 13
-48.45073868596888
 23
6.351074928723843
 33
0.0
  0
SOLID
  5
E4
330
DD
100
AcDbEntity
  8
치수문자_일반주서
 62
     0
100
AcDbTrace
 10
-49.00107201930219
 20
-3.046925071276148
 30
0.0
 11
-47.90040535263552
 21
-3.046925071276145
 31
0.0
 12
-48.45073868596884
 22
-6.348925071276146
 32
0.0
 13
-48.45073868596884
 23
-6.348925071276146
 33
0.0
  0
MTEXT
  5
E5
330
DD
100
AcDbEntity
  8
치수문자_일반주서
 62
     0
100
AcDbMText
 10
-52.82573868596886
 20
0.0010749287238769
 30
0.0
 40
3.5
 41
0.0
 71
     2
 72
     1
  1
\A1;%%c12.70 [1/2]
  7
SLDTEXTSTYLE0
 11
-3.356894814614650E-15
 21
1.0
 31
0.0
 73
     1
 44
1.0
  0
POINT
  5
E6
330
DD
100
AcDbEntity
  8
Defpoints
 62
     0
100
AcDbPoint
 10
-34.95073868596884
 20
6.351074928723891
 30
0.0
  0
POINT
  5
E7
330
DD
100
AcDbEntity
  8
Defpoints
 62
     0
100
AcDbPoint
 10
-34.95073868596884
 20
-6.348925071276098
 30
0.0
  0
POINT
  5
E8
330
DD
100
AcDbEntity
  8
Defpoints
 62
     0
100
AcDbPoint
 10
-48.45073868596886
 20
-6.348925071276145
 30
0.0
  0
ENDBLK
  5
DF
330
DD
100
AcDbEntity
  8
0
100
AcDbBlockEnd
  0
BLOCK
  5
F3
330
F2
100
AcDbEntity
  8
0
100
AcDbBlockBegin
  2
_D_3
 70
     0
 10
0.0
 20
0.0
 30
0.0
  3
_D_3
  1
_D_3
  0
LINE
  5
F5
330
F2
100
AcDbEntity
  8
치수문자_일반주서
 62
     0
370
    -2
100
AcDbLine
 10
59.17210005488806
 20
12.70000000000005
 30
0.0
 11
79.90820488182737
 21
12.70000000000012
 31
0.0
  0
LINE
  5
F6
330
F2
100
AcDbEntity
  8
치수문자_일반주서
 62
     0
370
    -2
100
AcDbLine
 10
59.21249999999816
 20
-12.7
 30
0.0
 11
79.90820488182746
 21
-12.69999999999992
 31
0.0
  0
LINE
  5
F7
330
F2
100
AcDbEntity
  8
치수문자_일반주서
 62
     0
370
    -2
100
AcDbLine
 10
79.90820488182737
 20
12.70000000000012
 30
0.0
 11
79.90820488182727
 21
41.61650000000012
 31
0.0
  0
LINE
  5
F8
330
F2
100
AcDbEntity
  8
치수문자_일반주서
 62
     0
370
    -2
100
AcDbLine
 10
79.90820488182737
 20
12.70000000000012
 30
0.0
 11
79.90820488182746
 21
-12.69999999999992
 31
0.0
  0
LINE
  5
F9
330
F2
100
AcDbEntity
  8
치수문자_일반주서
 62
     0
370
    -2
100
AcDbLine
 10
79.90820488182736
 20
16.00200000000012
 30
0.0
 11
79.90820488182734
 21
19.30400000000012
 31
0.0
  0
LINE
  5
FA
330
F2
100
AcDbEntity
  8
치수문자_일반주서
 62
     0
370
    -2
100
AcDbLine
 10
79.90820488182747
 20
-16.00199999999992
 30
0.0
 11
79.90820488182749
 21
-19.30399999999992
 31
0.0
  0
SOLID
  5
FB
330
F2
100
AcDbEntity
  8
치수문자_일반주서
 62
     0
100
AcDbTrace
 10
79.35787154849403
 20
16.00200000000012
 30
0.0
 11
80.45853821516069
 21
16.00200000000012
 31
0.0
 12
79.90820488182737
 22
12.70000000000012
 32
0.0
 13
79.90820488182737
 23
12.70000000000012
 33
0.0
  0
SOLID
  5
FC
330
F2
100
AcDbEntity
  8
치수문자_일반주서
 62
     0
100
AcDbTrace
 10
80.4585382151608
 20
-16.00199999999992
 30
0.0
 11
79.35787154849415
 21
-16.00199999999992
 31
0.0
 12
79.90820488182746
 22
-12.69999999999992
 32
0.0
 13
79.90820488182746
 23
-12.69999999999992
 33
0.0
  0
MTEXT
  5
FD
330
F2
100
AcDbEntity
  8
치수문자_일반주서
 62
     0
100
AcDbMText
 10
75.53320488182732
 20
30.46025000000011
 30
0.0
 40
3.5
 41
0.0
 71
     2
 72
     1
  1
\A1;%%c25.40 [1]
  7
SLDTEXTSTYLE0
 11
-3.356894814614641E-15
 21
1.0
 31
0.0
 73
     1
 44
1.0
  0
POINT
  5
230
330
F2
100
AcDbEntity
  8
Defpoints
 62
     0
100
AcDbPoint
 10
59.10960005488806
 20
12.70000000000005
 30
0.0
  0
POINT
  5
231
330
F2
100
AcDbEntity
  8
Defpoints
 62
     0
100
AcDbPoint
 10
59.14999999999816
 20
-12.7
 30
0.0
  0
POINT
  5
232
330
F2
100
AcDbEntity
  8
Defpoints
 62
     0
100
AcDbPoint
 10
79.90820488182746
 20
-12.69999999999992
 30
0.0
  0
ENDBLK
  5
F4
330
F2
100
AcDbEntity
  8
0
100
AcDbBlockEnd
  0
BLOCK
  5
10C
330
10B
100
AcDbEntity
  8
0
100
AcDbBlockBegin
  2
SW_DOWELSYMBOL_0
 70
     0
 10
0.0
 20
0.0
 30
0.0
  3
SW_DOWELSYMBOL_0
  1
SW_DOWELSYMBOL_0
  0
CIRCLE
  5
10E
330
10B
100
AcDbEntity
  8
해칭선
 62
     0
100
AcDbCircle
 10
0.0
 20
0.0
 30
0.0
 40
3.0
  0
HATCH
  5
10F
330
10B
100
AcDbEntity
  8
0
  6
Continuous
 62
     0
370
     0
100
AcDbHatch
 10
0.0
 20
0.0
 30
0.0
210
0.0
220
0.0
230
1.0
  2
SOLID
 70
     1
 71
     0
 91
        1
 92
        0
 93
        3
 72
     2
 10
0.0
 20
0.0
 40
3.0
 50
0.0
 51
90.0
 73
     1
 72
     1
 10
0.0
 20
3.0
 11
0.0
 21
0.0
 72
     1
 10
0.0
 20
0.0
 11
2.999999999999999
 21
0.0
 97
        0
 75
     0
 76
     1
 98
        1
 10
0.0
 20
0.0
  0
HATCH
  5
110
330
10B
100
AcDbEntity
  8
0
  6
Continuous
 62
     0
370
     0
100
AcDbHatch
 10
0.0
 20
0.0
 30
0.0
210
0.0
220
0.0
230
1.0
  2
SOLID
 70
     1
 71
     0
 91
        1
 92
        0
 93
        3
 72
     2
 10
0.0
 20
0.0
 40
3.0
 50
180.0
 51
270.0000000000007
 73
     1
 72
     1
 10
0.0
 20
-3.0
 11
0.0
 21
0.0
 72
     1
 10
0.0
 20
0.0
 11
-2.999999999999999
 21
0.0
 97
        0
 75
     0
 76
     1
 98
        1
 10
0.0
 20
0.0
  0
ENDBLK
  5
10D
330
10B
100
AcDbEntity
  8
0
100
AcDbBlockEnd
  0
BLOCK
  5
192
330
191
100
AcDbEntity
  8
0
100
AcDbBlockBegin
  2
*D7
 70
     1
 10
0.0
 20
0.0
 30
0.0
  3
*D7
  1
*D8
  0
LINE
  5
193
330
191
100
AcDbEntity
  8
치수문자_일반주서
 62
     0
370
    -2
100
AcDbLine
 10
121.65
 20
44.76649999999992
 30
0.0
 11
121.65
 21
72.75814180571024
 31
0.0
  0
LINE
  5
194
330
191
100
AcDbEntity
  8
치수문자_일반주서
 62
     0
370
    -2
100
AcDbLine
 10
16.87500000000003
 20
34.24149999999992
 30
0.0
 11
16.87500000000003
 21
72.75814180571024
 31
0.0
  0
LINE
  5
195
330
191
100
AcDbEntity
  8
치수문자_일반주서
 62
     0
370
    -2
100
AcDbLine
 10
118.348
 20
72.75814180571024
 30
0.0
 11
20.17700000000003
 21
72.75814180571024
 31
0.0
  0
SOLID
  5
196
330
191
100
AcDbEntity
  8
치수문자_일반주서
 62
     0
100
AcDbTrace
 10
118.348
 20
72.20780847237691
 30
0.0
 11
118.348
 21
73.30847513904357
 31
0.0
 12
121.65
 22
72.75814180571024
 32
0.0
 13
121.65
 23
72.75814180571024
 33
0.0
  0
SOLID
  5
197
330
191
100
AcDbEntity
  8
치수문자_일반주서
 62
     0
100
AcDbTrace
 10
20.17700000000003
 20
73.30847513904357
 30
0.0
 11
20.17700000000003
 21
72.20780847237691
 31
0.0
 12
16.87500000000003
 22
72.75814180571024
 32
0.0
 13
16.87500000000003
 23
72.75814180571024
 33
0.0
  0
MTEXT
  5
198
330
191
100
AcDbEntity
  8
치수문자_일반주서
 62
     0
100
AcDbMText
 10
66.08749999999999
 20
77.13314180571024
 30
0.0
 40
3.5
 41
0.0
 71
     2
 72
     1
  1
\A1;104.78 [4 1/8]
  7
SLDTEXTSTYLE0
 73
     1
 44
1.0
  0
POINT
  5
199
330
191
100
AcDbEntity
  8
Defpoints
 62
     0
100
AcDbPoint
 10
121.65
 20
44.70399999999992
 30
0.0
  0
POINT
  5
19A
330
191
100
AcDbEntity
  8
Defpoints
 62
     0
100
AcDbPoint
 10
16.87500000000003
 20
34.17899999999992
 30
0.0
  0
POINT
  5
19B
330
191
100
AcDbEntity
  8
Defpoints
 62
     0
100
AcDbPoint
 10
16.87500000000003
 20
72.75814180571024
 30
0.0
  0
ENDBLK
  5
19C
330
191
100
AcDbEntity
  8
0
100
AcDbBlockEnd
  0
BLOCK
  5
19F
330
19E
100
AcDbEntity
  8
0
100
AcDbBlockBegin
  2
*D8
 70
     1
 10
0.0
 20
0.0
 30
0.0
  3
*D8
  1
*D9
  0
LINE
  5
1A0
330
19E
100
AcDbEntity
  8
치수문자_일반주서
 62
     0
370
    -2
100
AcDbLine
 10
17.81250000000003
 20
35.17899999999993
 30
0.0
 11
4.37500000000001
 21
35.17899999999988
 31
0.0
  0
LINE
  5
1A1
330
19E
100
AcDbEntity
  8
치수문자_일반주서
 62
     0
370
    -2
100
AcDbLine
 10
17.81250000000003
 20
16.12899999999991
 30
0.0
 11
4.375000000000076
 21
16.12899999999986
 31
0.0
  0
LINE
  5
1A2
330
19E
100
AcDbEntity
  8
치수문자_일반주서
 62
     0
370
    -2
100
AcDbLine
 10
4.375000000000021
 20
31.87699999999988
 30
0.0
 11
4.375000000000065
 21
19.43099999999986
 31
0.0
  0
SOLID
  5
1A3
330
19E
100
AcDbEntity
  8
치수문자_일반주서
 62
     0
100
AcDbTrace
 10
4.925333333333355
 20
31.87699999999989
 30
0.0
 11
3.824666666666688
 21
31.87699999999988
 31
0.0
 12
4.37500000000001
 22
35.17899999999988
 32
0.0
 13
4.37500000000001
 23
35.17899999999988
 33
0.0
  0
SOLID
  5
1A4
330
19E
100
AcDbEntity
  8
치수문자_일반주서
 62
     0
100
AcDbTrace
 10
3.824666666666732
 20
19.43099999999986
 30
0.0
 11
4.925333333333398
 21
19.43099999999987
 31
0.0
 12
4.375000000000076
 22
16.12899999999986
 32
0.0
 13
4.375000000000076
 23
16.12899999999986
 33
0.0
  0
MTEXT
  5
1A5
330
19E
100
AcDbEntity
  8
치수문자_일반주서
 62
     0
100
AcDbMText
 10
0.0000000000000426
 20
25.65399999999991
 30
0.0
 40
3.5
 41
0.0
 71
     2
 72
     1
  1
\A1;%%c19.05 [3/4]
  7
SLDTEXTSTYLE0
 11
-3.496765431890253E-15
 21
1.0
 31
0.0
 73
     1
 44
1.0
  0
POINT
  5
1A6
330
19E
100
AcDbEntity
  8
Defpoints
 62
     0
100
AcDbPoint
 10
17.87500000000003
 20
35.17899999999993
 30
0.0
  0
POINT
  5
1A7
330
19E
100
AcDbEntity
  8
Defpoints
 62
     0
100
AcDbPoint
 10
17.87500000000003
 20
16.12899999999991
 30
0.0
  0
POINT
  5
1A8
330
19E
100
AcDbEntity
  8
Defpoints
 62
     0
100
AcDbPoint
 10
4.375000000000085
 20
16.12899999999986
 30
0.0
  0
ENDBLK
  5
1A9
330
19E
100
AcDbEntity
  8
0
100
AcDbBlockEnd
  0
BLOCK
  5
1BD
330
1BC
100
AcDbEntity
  8
0
100
AcDbBlockBegin
  2
*D9
 70
     1
 10
0.0
 20
0.0
 30
0.0
  3
*D9
  1
*D10
  0
LINE
  5
1BF
330
1BC
100
AcDbEntity
  8
치수문자_일반주서
 62
     0
370
    -2
100
AcDbLine
 10
121.6500000000001
 20
44.76649999999992
 30
0.0
 11
121.6500000000001
 21
53.1055640965388
 31
0.0
  0
LINE
  5
1C0
330
1BC
100
AcDbEntity
  8
치수문자_일반주서
 62
     0
370
    -2
100
AcDbLine
 10
80.37500000000004
 20
44.02361245879359
 30
0.0
 11
80.37500000000004
 21
53.1055640965388
 31
0.0
  0
LINE
  5
1C1
330
1BC
100
AcDbEntity
  8
치수문자_일반주서
 62
     0
370
    -2
100
AcDbLine
 10
118.3480000000001
 20
53.1055640965388
 30
0.0
 11
83.67700000000005
 21
53.1055640965388
 31
0.0
  0
SOLID
  5
1C2
330
1BC
100
AcDbEntity
  8
치수문자_일반주서
 62
     0
100
AcDbTrace
 10
118.3480000000001
 20
52.55523076320546
 30
0.0
 11
118.3480000000001
 21
53.65589742987213
 31
0.0
 12
121.6500000000001
 22
53.1055640965388
 32
0.0
 13
121.6500000000001
 23
53.1055640965388
 33
0.0
  0
SOLID
  5
1C3
330
1BC
100
AcDbEntity
  8
치수문자_일반주서
 62
     0
100
AcDbTrace
 10
83.67700000000005
 20
53.65589742987213
 30
0.0
 11
83.67700000000005
 21
52.55523076320546
 31
0.0
 12
80.37500000000004
 22
53.1055640965388
 32
0.0
 13
80.37500000000004
 23
53.1055640965388
 33
0.0
  0
MTEXT
  5
1C4
330
1BC
100
AcDbEntity
  8
치수문자_일반주서
 62
     0
100
AcDbMText
 10
102.1350289119666
 20
57.4805640965388
 30
0.0
 40
3.5
 41
0.0
 71
     2
 72
     1
  1
\A1;41.28 [1 5/8]
  7
SLDTEXTSTYLE0
 73
     1
 44
1.0
  0
POINT
  5
1C5
330
1BC
100
AcDbEntity
  8
Defpoints
 62
     0
100
AcDbPoint
 10
121.6500000000001
 20
44.70399999999992
 30
0.0
  0
POINT
  5
1C6
330
1BC
100
AcDbEntity
  8
Defpoints
 62
     0
100
AcDbPoint
 10
80.37500000000004
 20
43.96111245879359
 30
0.0
  0
POINT
  5
1C7
330
1BC
100
AcDbEntity
  8
Defpoints
 62
     0
100
AcDbPoint
 10
80.37500000000004
 20
53.1055640965388
 30
0.0
  0
ENDBLK
  5
1BE
330
1BC
100
AcDbEntity
  8
0
100
AcDbBlockEnd
  0
BLOCK
  5
1C9
330
1C8
100
AcDbEntity
  8
0
100
AcDbBlockBegin
  2
*D10
 70
     1
 10
0.0
 20
0.0
 30
0.0
  3
*D10
  1
*D11
  0
LINE
  5
1CB
330
1C8
100
AcDbEntity
  8
치수문자_일반주서
 62
     0
370
    -2
100
AcDbLine
 10
121.7125
 20
44.70399999999992
 30
0.0
 11
145.2506850795956
 21
44.704
 31
0.0
  0
LINE
  5
1CC
330
1C8
100
AcDbEntity
  8
치수문자_일반주서
 62
     0
370
    -2
100
AcDbLine
 10
121.7125000000001
 20
6.603999999999914
 30
0.0
 11
145.2506850795957
 21
6.603999999999999
 31
0.0
  0
LINE
  5
1CD
330
1C8
100
AcDbEntity
  8
치수문자_일반주서
 62
     0
370
    -2
100
AcDbLine
 10
145.2506850795956
 20
44.704
 30
0.0
 11
145.2506850795954
 21
86.97373178955608
 31
0.0
  0
LINE
  5
1CE
330
1C8
100
AcDbEntity
  8
치수문자_일반주서
 62
     0
370
    -2
100
AcDbLine
 10
145.2506850795956
 20
44.704
 30
0.0
 11
145.2506850795957
 21
6.603999999999999
 31
0.0
  0
LINE
  5
1CF
330
1C8
100
AcDbEntity
  8
치수문자_일반주서
 62
     0
370
    -2
100
AcDbLine
 10
145.2506850795956
 20
48.006
 30
0.0
 11
145.2506850795956
 21
51.308
 31
0.0
  0
LINE
  5
1D0
330
1C8
100
AcDbEntity
  8
치수문자_일반주서
 62
     0
370
    -2
100
AcDbLine
 10
145.2506850795957
 20
3.302
 30
0.0
 11
145.2506850795957
 21
0.0
 31
0.0
  0
SOLID
  5
1D1
330
1C8
100
AcDbEntity
  8
치수문자_일반주서
 62
     0
100
AcDbTrace
 10
144.7003517462622
 20
48.006
 30
0.0
 11
145.8010184129289
 21
48.006
 31
0.0
 12
145.2506850795956
 22
44.704
 32
0.0
 13
145.2506850795956
 23
44.704
 33
0.0
  0
SOLID
  5
1D2
330
1C8
100
AcDbEntity
  8
치수문자_일반주서
 62
     0
100
AcDbTrace
 10
145.801018412929
 20
3.302000000000002
 30
0.0
 11
144.7003517462624
 21
3.301999999999997
 31
0.0
 12
145.2506850795957
 22
6.603999999999999
 32
0.0
 13
145.2506850795957
 23
6.603999999999999
 33
0.0
  0
MTEXT
  5
1D3
330
1C8
100
AcDbEntity
  8
치수문자_일반주서
 62
     0
100
AcDbMText
 10
140.8756850795955
 20
71.44248178955607
 30
0.0
 40
3.5
 41
0.0
 71
     2
 72
     1
  1
\A1;%%c38.10 [1 1/2]
  7
SLDTEXTSTYLE0
 11
-3.729883127349607E-15
 21
1.0
 31
0.0
 73
     1
 44
1.0
  0
POINT
  5
1D4
330
1C8
100
AcDbEntity
  8
Defpoints
 62
     0
100
AcDbPoint
 10
121.65
 20
44.70399999999992
 30
0.0
  0
POINT
  5
1D5
330
1C8
100
AcDbEntity
  8
Defpoints
 62
     0
100
AcDbPoint
 10
121.6500000000001
 20
6.603999999999914
 30
0.0
  0
POINT
  5
1D6
330
1C8
100
AcDbEntity
  8
Defpoints
 62
     0
100
AcDbPoint
 10
145.2506850795957
 20
6.604000000000002
 30
0.0
  0
ENDBLK
  5
1CA
330
1C8
100
AcDbEntity
  8
0
100
AcDbBlockEnd
  0
BLOCK
  5
1F8
330
1F7
100
AcDbEntity
  8
0
100
AcDbBlockBegin
  2
*D11
 70
     1
 10
0.0
 20
0.0
 30
0.0
  3
*D11
  1
*D12
  0
LINE
  5
1FA
330
1F7
100
AcDbEntity
  8
치수문자_일반주서
 62
     0
370
    -2
100
AcDbLine
 10
238.2663037800577
 20
-56.28751330708295
 30
0.0
 11
238.2663037800577
 21
-47.94844921054407
 31
0.0
  0
LINE
  5
1FB
330
1F7
100
AcDbEntity
  8
치수문자_일반주서
 62
     0
370
    -2
100
AcDbLine
 10
196.9913037800577
 20
-57.03040084828928
 30
0.0
 11
196.9913037800577
 21
-47.94844921054407
 31
0.0
  0
LINE
  5
1FC
330
1F7
100
AcDbEntity
  8
치수문자_일반주서
 62
     0
370
    -2
100
AcDbLine
 10
234.9643037800577
 20
-47.94844921054407
 30
0.0
 11
200.2933037800577
 21
-47.94844921054407
 31
0.0
  0
SOLID
  5
1FD
330
1F7
100
AcDbEntity
  8
치수문자_일반주서
 62
     0
100
AcDbTrace
 10
234.9643037800577
 20
-48.4987825438774
 30
0.0
 11
234.9643037800577
 21
-47.39811587721073
 31
0.0
 12
238.2663037800577
 22
-47.94844921054407
 32
0.0
 13
238.2663037800577
 23
-47.94844921054407
 33
0.0
  0
SOLID
  5
1FE
330
1F7
100
AcDbEntity
  8
치수문자_일반주서
 62
     0
100
AcDbTrace
 10
200.2933037800577
 20
-47.39811587721073
 30
0.0
 11
200.2933037800577
 21
-48.4987825438774
 31
0.0
 12
196.9913037800577
 22
-47.94844921054407
 32
0.0
 13
196.9913037800577
 23
-47.94844921054407
 33
0.0
  0
MTEXT
  5
1FF
330
1F7
100
AcDbEntity
  8
치수문자_일반주서
 62
     0
100
AcDbMText
 10
218.7513326920242
 20
-43.57344921054407
 30
0.0
 40
3.5
 41
0.0
 71
     2
 72
     1
  1
\A1;41.28 [1 5/8]
  7
SLDTEXTSTYLE0
 73
     1
 44
1.0
  0
POINT
  5
200
330
1F7
100
AcDbEntity
  8
Defpoints
 62
     0
100
AcDbPoint
 10
238.2663037800577
 20
-56.35001330708295
 30
0.0
  0
POINT
  5
201
330
1F7
100
AcDbEntity
  8
Defpoints
 62
     0
100
AcDbPoint
 10
196.9913037800577
 20
-57.09290084828928
 30
0.0
  0
POINT
  5
202
330
1F7
100
AcDbEntity
  8
Defpoints
 62
     0
100
AcDbPoint
 10
196.9913037800577
 20
-47.94844921054407
 30
0.0
  0
ENDBLK
  5
1F9
330
1F7
100
AcDbEntity
  8
0
100
AcDbBlockEnd
  0
BLOCK
  5
204
330
203
100
AcDbEntity
  8
0
100
AcDbBlockBegin
  2
*D12
 70
     1
 10
0.0
 20
0.0
 30
0.0
  3
*D12
  1
*D13
  0
LINE
  5
206
330
203
100
AcDbEntity
  8
치수문자_일반주서
 62
     0
370
    -2
100
AcDbLine
 10
238.3288037800577
 20
-56.35001330708295
 30
0.0
 11
261.8669888596532
 21
-56.35001330708287
 31
0.0
  0
LINE
  5
207
330
203
100
AcDbEntity
  8
치수문자_일반주서
 62
     0
370
    -2
100
AcDbLine
 10
238.3288037800577
 20
-94.45001330708295
 30
0.0
 11
261.8669888596533
 21
-94.45001330708287
 31
0.0
  0
LINE
  5
208
330
203
100
AcDbEntity
  8
치수문자_일반주서
 62
     0
370
    -2
100
AcDbLine
 10
261.8669888596532
 20
-56.35001330708287
 30
0.0
 11
261.8669888596531
 21
-14.08028151752679
 31
0.0
  0
LINE
  5
209
330
203
100
AcDbEntity
  8
치수문자_일반주서
 62
     0
370
    -2
100
AcDbLine
 10
261.8669888596532
 20
-56.35001330708287
 30
0.0
 11
261.8669888596533
 21
-94.45001330708287
 31
0.0
  0
LINE
  5
20A
330
203
100
AcDbEntity
  8
치수문자_일반주서
 62
     0
370
    -2
100
AcDbLine
 10
261.8669888596532
 20
-53.04801330708287
 30
0.0
 11
261.8669888596532
 21
-49.74601330708287
 31
0.0
  0
LINE
  5
20B
330
203
100
AcDbEntity
  8
치수문자_일반주서
 62
     0
370
    -2
100
AcDbLine
 10
261.8669888596533
 20
-97.75201330708288
 30
0.0
 11
261.8669888596533
 21
-101.0540133070829
 31
0.0
  0
SOLID
  5
20C
330
203
100
AcDbEntity
  8
치수문자_일반주서
 62
     0
100
AcDbTrace
 10
261.3166555263198
 20
-53.04801330708287
 30
0.0
 11
262.4173221929865
 21
-53.04801330708287
 31
0.0
 12
261.8669888596532
 22
-56.35001330708287
 32
0.0
 13
261.8669888596532
 23
-56.35001330708287
 33
0.0
  0
SOLID
  5
20D
330
203
100
AcDbEntity
  8
치수문자_일반주서
 62
     0
100
AcDbTrace
 10
262.4173221929867
 20
-97.75201330708288
 30
0.0
 11
261.3166555263199
 21
-97.75201330708288
 31
0.0
 12
261.8669888596533
 22
-94.45001330708287
 32
0.0
 13
261.8669888596533
 23
-94.45001330708287
 33
0.0
  0
MTEXT
  5
20E
330
203
100
AcDbEntity
  8
치수문자_일반주서
 62
     0
100
AcDbMText
 10
257.4919888596531
 20
-29.6115315175268
 30
0.0
 40
3.5
 41
0.0
 71
     2
 72
     1
  1
\A1;%%c38.10 [1 1/2]
  7
SLDTEXTSTYLE0
 11
-2.983906501879686E-15
 21
1.0
 31
0.0
 73
     1
 44
1.0
  0
POINT
  5
20F
330
203
100
AcDbEntity
  8
Defpoints
 62
     0
100
AcDbPoint
 10
238.2663037800577
 20
-56.35001330708295
 30
0.0
  0
POINT
  5
210
330
203
100
AcDbEntity
  8
Defpoints
 62
     0
100
AcDbPoint
 10
238.2663037800577
 20
-94.45001330708295
 30
0.0
  0
POINT
  5
211
330
203
100
AcDbEntity
  8
Defpoints
 62
     0
100
AcDbPoint
 10
261.8669888596534
 20
-94.45001330708287
 30
0.0
  0
ENDBLK
  5
205
330
203
100
AcDbEntity
  8
0
100
AcDbBlockEnd
  0
BLOCK
  5
213
330
212
100
AcDbEntity
  8
0
100
AcDbBlockBegin
  2
*D13
 70
     1
 10
0.0
 20
0.0
 30
0.0
  3
*D13
  1
*D14
  0
LINE
  5
215
330
212
100
AcDbEntity
  8
치수문자_일반주서
 62
     0
370
    -2
100
AcDbLine
 10
59.14999999999816
 20
12.76250000000005
 30
0.0
 11
59.14999999999816
 21
47.10414180571033
 31
0.0
  0
LINE
  5
216
330
212
100
AcDbEntity
  8
치수문자_일반주서
 62
     0
370
    -2
100
AcDbLine
 10
-55.15000000000184
 20
8.587500000000006
 30
0.0
 11
-55.15000000000184
 21
47.10414180571033
 31
0.0
  0
LINE
  5
217
330
212
100
AcDbEntity
  8
치수문자_일반주서
 62
     0
370
    -2
100
AcDbLine
 10
55.84799999999816
 20
47.10414180571033
 30
0.0
 11
-51.84800000000184
 21
47.10414180571033
 31
0.0
  0
SOLID
  5
218
330
212
100
AcDbEntity
  8
치수문자_일반주서
 62
     0
100
AcDbTrace
 10
55.84799999999816
 20
46.55380847237699
 30
0.0
 11
55.84799999999816
 21
47.65447513904366
 31
0.0
 12
59.14999999999816
 22
47.10414180571033
 32
0.0
 13
59.14999999999816
 23
47.10414180571033
 33
0.0
  0
SOLID
  5
219
330
212
100
AcDbEntity
  8
치수문자_일반주서
 62
     0
100
AcDbTrace
 10
-51.84800000000184
 20
47.65447513904366
 30
0.0
 11
-51.84800000000184
 21
46.55380847237699
 31
0.0
 12
-55.15000000000184
 22
47.10414180571033
 32
0.0
 13
-55.15000000000184
 23
47.10414180571033
 33
0.0
  0
MTEXT
  5
21A
330
212
100
AcDbEntity
  8
치수문자_일반주서
 62
     0
100
AcDbMText
 10
-5.93750000000189
 20
51.47914180571033
 30
0.0
 40
3.5
 41
0.0
 71
     2
 72
     1
  1
\A1;114.30 [4 1/2]
  7
SLDTEXTSTYLE0
 73
     1
 44
1.0
  0
POINT
  5
21B
330
212
100
AcDbEntity
  8
Defpoints
 62
     0
100
AcDbPoint
 10
59.14999999999816
 20
12.70000000000005
 30
0.0
  0
POINT
  5
21C
330
212
100
AcDbEntity
  8
Defpoints
 62
     0
100
AcDbPoint
 10
-55.15000000000184
 20
8.525000000000006
 30
0.0
  0
POINT
  5
21D
330
212
100
AcDbEntity
  8
Defpoints
 62
     0
100
AcDbPoint
 10
-55.15000000000184
 20
47.10414180571033
 30
0.0
  0
ENDBLK
  5
214
330
212
100
AcDbEntity
  8
0
100
AcDbBlockEnd
  0
BLOCK
  5
21F
330
21E
100
AcDbEntity
  8
0
100
AcDbBlockBegin
  2
*D14
 70
     1
 10
0.0
 20
0.0
 30
0.0
  3
*D14
  1
*D15
  0
LINE
  5
221
330
21E
100
AcDbEntity
  8
치수문자_일반주서
 62
     0
370
    -2
100
AcDbLine
 10
-54.21250000000184
 20
9.52500000000002
 30
0.0
 11
-67.65000000000185
 21
9.52499999999997
 31
0.0
  0
LINE
  5
222
330
21E
100
AcDbEntity
  8
치수문자_일반주서
 62
     0
370
    -2
100
AcDbLine
 10
-54.21250000000184
 20
-9.525000000000006
 30
0.0
 11
-67.65000000000178
 21
-9.525000000000055
 31
0.0
  0
LINE
  5
223
330
21E
100
AcDbEntity
  8
치수문자_일반주서
 62
     0
370
    -2
100
AcDbLine
 10
-67.65000000000184
 20
6.222999999999971
 30
0.0
 11
-67.6500000000018
 21
-6.223000000000056
 31
0.0
  0
SOLID
  5
224
330
21E
100
AcDbEntity
  8
치수문자_일반주서
 62
     0
100
AcDbTrace
 10
-67.09966666666851
 20
6.222999999999972
 30
0.0
 11
-68.20033333333517
 21
6.222999999999969
 31
0.0
 12
-67.65000000000185
 22
9.52499999999997
 32
0.0
 13
-67.65000000000185
 23
9.52499999999997
 33
0.0
  0
SOLID
  5
225
330
21E
100
AcDbEntity
  8
치수문자_일반주서
 62
     0
100
AcDbTrace
 10
-68.20033333333512
 20
-6.223000000000058
 30
0.0
 11
-67.09966666666847
 21
-6.223000000000054
 31
0.0
 12
-67.65000000000178
 22
-9.525000000000055
 32
0.0
 13
-67.65000000000178
 23
-9.525000000000055
 33
0.0
  0
MTEXT
  5
226
330
21E
100
AcDbEntity
  8
치수문자_일반주서
 62
     0
100
AcDbMText
 10
-72.02500000000182
 20
-0.0000000000000021
 30
0.0
 40
3.5
 41
0.0
 71
     2
 72
     1
  1
\A1;%%c19.05 [3/4]
  7
SLDTEXTSTYLE0
 11
-3.729883127349602E-15
 21
1.0
 31
0.0
 73
     1
 44
1.0
  0
POINT
  5
227
330
21E
100
AcDbEntity
  8
Defpoints
 62
     0
100
AcDbPoint
 10
-54.15000000000184
 20
9.52500000000002
 30
0.0
  0
POINT
  5
228
330
21E
100
AcDbEntity
  8
Defpoints
 62
     0
100
AcDbPoint
 10
-54.15000000000184
 20
-9.525000000000006
 30
0.0
  0
POINT
  5
229
330
21E
100
AcDbEntity
  8
Defpoints
 62
     0
100
AcDbPoint
 10
-67.6500000000018
 20
-9.525000000000055
 30
0.0
  0
ENDBLK
  5
220
330
21E
100
AcDbEntity
  8
0
100
AcDbBlockEnd
  0
BLOCK
  5
2F0
330
2EF
100
AcDbEntity
  8
0
100
AcDbBlockBegin
  2
*D15
 70
     1
 10
0.0
 20
0.0
 30
0.0
  3
*D15
  1
*D16
  0
LINE
  5
2F2
330
2EF
100
AcDbEntity
  8
치수문자_일반주서
 62
     0
370
    -2
100
AcDbLine
 10
137.525
 20
32.06649999999993
 30
0.0
 11
137.525
 21
46.01893884240208
 31
0.0
  0
LINE
  5
2F3
330
2EF
100
AcDbEntity
  8
치수문자_일반주서
 62
     0
370
    -2
100
AcDbLine
 10
80.37500000000006
 20
32.06649999999993
 30
0.0
 11
80.37500000000006
 21
46.01893884240208
 31
0.0
  0
LINE
  5
2F4
330
2EF
100
AcDbEntity
  8
치수문자_일반주서
 62
     0
370
    -2
100
AcDbLine
 10
134.223
 20
46.01893884240208
 30
0.0
 11
83.67700000000006
 21
46.01893884240208
 31
0.0
  0
SOLID
  5
2F5
330
2EF
100
AcDbEntity
  8
치수문자_일반주서
 62
     0
100
AcDbTrace
 10
134.223
 20
45.46860550906874
 30
0.0
 11
134.223
 21
46.56927217573541
 31
0.0
 12
137.525
 22
46.01893884240208
 32
0.0
 13
137.525
 23
46.01893884240208
 33
0.0
  0
SOLID
  5
2F6
330
2EF
100
AcDbEntity
  8
치수문자_일반주서
 62
     0
100
AcDbTrace
 10
83.67700000000006
 20
46.56927217573541
 30
0.0
 11
83.67700000000006
 21
45.46860550906874
 31
0.0
 12
80.37500000000006
 22
46.01893884240208
 32
0.0
 13
80.37500000000006
 23
46.01893884240208
 33
0.0
  0
MTEXT
  5
2F7
330
2EF
100
AcDbEntity
  8
치수문자_일반주서
 62
     0
100
AcDbMText
 10
107.8993770998502
 20
50.39393884240208
 30
0.0
 40
3.5
 41
0.0
 71
     2
 72
     1
  1
\A1;57.15 [2 1/4]
  7
SLDTEXTSTYLE0
 73
     1
 44
1.0
  0
POINT
  5
2F8
330
2EF
100
AcDbEntity
  8
Defpoints
 62
     0
100
AcDbPoint
 10
137.525
 20
32.00399999999993
 30
0.0
  0
POINT
  5
2F9
330
2EF
100
AcDbEntity
  8
Defpoints
 62
     0
100
AcDbPoint
 10
80.37500000000006
 20
32.00399999999993
 30
0.0
  0
POINT
  5
2FA
330
2EF
100
AcDbEntity
  8
Defpoints
 62
     0
100
AcDbPoint
 10
80.37500000000006
 20
46.01893884240208
 30
0.0
  0
ENDBLK
  5
2F1
330
2EF
100
AcDbEntity
  8
0
100
AcDbBlockEnd
  0
BLOCK
  5
2FC
330
2FB
100
AcDbEntity
  8
0
100
AcDbBlockBegin
  2
*D16
 70
     1
 10
0.0
 20
0.0
 30
0.0
  3
*D16
  1
*D17
  0
LINE
  5
2FE
330
2FB
100
AcDbEntity
  8
치수문자_일반주서
 62
     0
370
    -2
100
AcDbLine
 10
137.525
 20
32.06649999999993
 30
0.0
 11
137.525
 21
58.0665
 31
0.0
  0
LINE
  5
2FF
330
2FB
100
AcDbEntity
  8
치수문자_일반주서
 62
     0
370
    -2
100
AcDbLine
 10
16.87500000000005
 20
31.06649999999993
 30
0.0
 11
16.87500000000005
 21
58.0665
 31
0.0
  0
LINE
  5
300
330
2FB
100
AcDbEntity
  8
치수문자_일반주서
 62
     0
370
    -2
100
AcDbLine
 10
134.223
 20
58.0665
 30
0.0
 11
20.17700000000005
 21
58.0665
 31
0.0
  0
SOLID
  5
301
330
2FB
100
AcDbEntity
  8
치수문자_일반주서
 62
     0
100
AcDbTrace
 10
134.223
 20
57.51616666666666
 30
0.0
 11
134.223
 21
58.61683333333333
 31
0.0
 12
137.525
 22
58.0665
 32
0.0
 13
137.525
 23
58.0665
 33
0.0
  0
SOLID
  5
302
330
2FB
100
AcDbEntity
  8
치수문자_일반주서
 62
     0
100
AcDbTrace
 10
20.17700000000005
 20
58.61683333333333
 30
0.0
 11
20.17700000000005
 21
57.51616666666666
 31
0.0
 12
16.87500000000005
 22
58.0665
 32
0.0
 13
16.87500000000005
 23
58.0665
 33
0.0
  0
MTEXT
  5
303
330
2FB
100
AcDbEntity
  8
치수문자_일반주서
 62
     0
100
AcDbMText
 10
77.20000000000005
 20
62.4415
 30
0.0
 40
3.5
 41
0.0
 71
     2
 72
     1
  1
\A1;120.65 [4 3/4]
  7
SLDTEXTSTYLE0
 73
     1
 44
1.0
  0
POINT
  5
304
330
2FB
100
AcDbEntity
  8
Defpoints
 62
     0
100
AcDbPoint
 10
137.525
 20
32.00399999999993
 30
0.0
  0
POINT
  5
305
330
2FB
100
AcDbEntity
  8
Defpoints
 62
     0
100
AcDbPoint
 10
16.87500000000005
 20
31.00399999999993
 30
0.0
  0
POINT
  5
306
330
2FB
100
AcDbEntity
  8
Defpoints
 62
     0
100
AcDbPoint
 10
16.87500000000005
 20
58.0665
 30
0.0
  0
ENDBLK
  5
2FD
330
2FB
100
AcDbEntity
  8
0
100
AcDbBlockEnd
  0
BLOCK
  5
308
330
307
100
AcDbEntity
  8
0
100
AcDbBlockBegin
  2
*D17
 70
     1
 10
0.0
 20
0.0
 30
0.0
  3
*D17
  1
*D18
  0
LINE
  5
30A
330
307
100
AcDbEntity
  8
치수문자_일반주서
 62
     0
370
    -2
100
AcDbLine
 10
17.81250000000006
 20
32.00399999999993
 30
0.0
 11
4.37500000000001
 21
32.00399999999988
 31
0.0
  0
LINE
  5
30B
330
307
100
AcDbEntity
  8
치수문자_일반주서
 62
     0
370
    -2
100
AcDbLine
 10
17.81250000000006
 20
6.603999999999917
 30
0.0
 11
4.375000000000099
 21
6.603999999999868
 31
0.0
  0
LINE
  5
30C
330
307
100
AcDbEntity
  8
치수문자_일반주서
 62
     0
370
    -2
100
AcDbLine
 10
4.375000000000021
 20
28.70199999999988
 30
0.0
 11
4.375000000000087
 21
9.905999999999867
 31
0.0
  0
SOLID
  5
30D
330
307
100
AcDbEntity
  8
치수문자_일반주서
 62
     0
100
AcDbTrace
 10
4.925333333333355
 20
28.70199999999988
 30
0.0
 11
3.824666666666688
 21
28.70199999999987
 31
0.0
 12
4.37500000000001
 22
32.00399999999988
 32
0.0
 13
4.37500000000001
 23
32.00399999999988
 33
0.0
  0
SOLID
  5
30E
330
307
100
AcDbEntity
  8
치수문자_일반주서
 62
     0
100
AcDbTrace
 10
3.824666666666753
 20
9.905999999999866
 30
0.0
 11
4.925333333333421
 21
9.90599999999987
 31
0.0
 12
4.375000000000099
 22
6.603999999999868
 32
0.0
 13
4.375000000000099
 23
6.603999999999868
 33
0.0
  0
MTEXT
  5
30F
330
307
100
AcDbEntity
  8
치수문자_일반주서
 62
     0
100
AcDbMText
 10
0.0000000000000497
 20
20.50062735735915
 30
0.0
 40
3.5
 41
0.0
 71
     2
 72
     1
  1
\A1;%%c25.40 [1]
  7
SLDTEXTSTYLE0
 11
-3.496765431890256E-15
 21
1.0
 31
0.0
 73
     1
 44
1.0
  0
POINT
  5
310
330
307
100
AcDbEntity
  8
Defpoints
 62
     0
100
AcDbPoint
 10
17.87500000000006
 20
32.00399999999993
 30
0.0
  0
POINT
  5
311
330
307
100
AcDbEntity
  8
Defpoints
 62
     0
100
AcDbPoint
 10
17.87500000000006
 20
6.603999999999917
 30
0.0
  0
POINT
  5
312
330
307
100
AcDbEntity
  8
Defpoints
 62
     0
100
AcDbPoint
 10
4.375000000000099
 20
6.603999999999867
 30
0.0
  0
ENDBLK
  5
309
330
307
100
AcDbEntity
  8
0
100
AcDbBlockEnd
  0
BLOCK
  5
314
330
313
100
AcDbEntity
  8
0
100
AcDbBlockBegin
  2
*D18
 70
     1
 10
0.0
 20
0.0
 30
0.0
  3
*D18
  1
*D19
  0
LINE
  5
316
330
313
100
AcDbEntity
  8
치수문자_일반주서
 62
     0
370
    -2
100
AcDbLine
 10
137.5875
 20
32.00399999999993
 30
0.0
 11
155.6709635613874
 21
32.004
 31
0.0
  0
LINE
  5
317
330
313
100
AcDbEntity
  8
치수문자_일반주서
 62
     0
370
    -2
100
AcDbLine
 10
137.5875000000001
 20
6.603999999999939
 30
0.0
 11
155.6709635613875
 21
6.604000000000006
 31
0.0
  0
LINE
  5
318
330
313
100
AcDbEntity
  8
치수문자_일반주서
 62
     0
370
    -2
100
AcDbLine
 10
155.6709635613874
 20
32.004
 30
0.0
 11
155.6709635613873
 21
66.3046732202385
 31
0.0
  0
LINE
  5
319
330
313
100
AcDbEntity
  8
치수문자_일반주서
 62
     0
370
    -2
100
AcDbLine
 10
155.6709635613874
 20
32.004
 30
0.0
 11
155.6709635613875
 21
6.604000000000006
 31
0.0
  0
LINE
  5
31A
330
313
100
AcDbEntity
  8
치수문자_일반주서
 62
     0
370
    -2
100
AcDbLine
 10
155.6709635613874
 20
35.306
 30
0.0
 11
155.6709635613874
 21
38.608
 31
0.0
  0
LINE
  5
31B
330
313
100
AcDbEntity
  8
치수문자_일반주서
 62
     0
370
    -2
100
AcDbLine
 10
155.6709635613875
 20
3.302000000000006
 30
0.0
 11
155.6709635613875
 21
0.0000000000000062
 31
0.0
  0
SOLID
  5
31C
330
313
100
AcDbEntity
  8
치수문자_일반주서
 62
     0
100
AcDbTrace
 10
155.1206302280541
 20
35.306
 30
0.0
 11
156.2212968947208
 21
35.306
 31
0.0
 12
155.6709635613874
 22
32.004
 32
0.0
 13
155.6709635613874
 23
32.004
 33
0.0
  0
SOLID
  5
31D
330
313
100
AcDbEntity
  8
치수문자_일반주서
 62
     0
100
AcDbTrace
 10
156.2212968947208
 20
3.302000000000008
 30
0.0
 11
155.1206302280542
 21
3.302000000000004
 31
0.0
 12
155.6709635613875
 22
6.604000000000006
 32
0.0
 13
155.6709635613875
 23
6.604000000000006
 33
0.0
  0
MTEXT
  5
31E
330
313
100
AcDbEntity
  8
치수문자_일반주서
 62
     0
100
AcDbMText
 10
151.2959635613873
 20
55.14842322023849
 30
0.0
 40
3.5
 41
0.0
 71
     2
 72
     1
  1
\A1;%%c25.40 [1]
  7
SLDTEXTSTYLE0
 11
-3.356894814614647E-15
 21
1.0
 31
0.0
 73
     1
 44
1.0
  0
POINT
  5
31F
330
313
100
AcDbEntity
  8
Defpoints
 62
     0
100
AcDbPoint
 10
137.525
 20
32.00399999999993
 30
0.0
  0
POINT
  5
320
330
313
100
AcDbEntity
  8
Defpoints
 62
     0
100
AcDbPoint
 10
137.5250000000001
 20
6.603999999999939
 30
0.0
  0
POINT
  5
321
330
313
100
AcDbEntity
  8
Defpoints
 62
     0
100
AcDbPoint
 10
155.6709635613875
 20
6.604000000000006
 30
0.0
  0
ENDBLK
  5
315
330
313
100
AcDbEntity
  8
0
100
AcDbBlockEnd
  0
BLOCK
  5
353
330
352
100
AcDbEntity
  8
0
100
AcDbBlockBegin
  2
*D19
 70
     1
 10
0.0
 20
0.0
 30
0.0
  3
*D19
  1
*D20
  0
LINE
  5
355
330
352
100
AcDbEntity
  8
치수문자_일반주서
 62
     0
370
    -2
100
AcDbLine
 10
62.32499999999992
 20
12.7625
 30
0.0
 11
62.32499999999992
 21
26.71493884240214
 31
0.0
  0
LINE
  5
356
330
352
100
AcDbEntity
  8
치수문자_일반주서
 62
     0
370
    -2
100
AcDbLine
 10
5.175000000000003
 20
12.76249999999999
 30
0.0
 11
5.175000000000004
 21
26.71493884240214
 31
0.0
  0
LINE
  5
357
330
352
100
AcDbEntity
  8
치수문자_일반주서
 62
     0
370
    -2
100
AcDbLine
 10
59.02299999999993
 20
26.71493884240214
 30
0.0
 11
8.477000000000004
 21
26.71493884240214
 31
0.0
  0
SOLID
  5
358
330
352
100
AcDbEntity
  8
치수문자_일반주서
 62
     0
100
AcDbTrace
 10
59.02299999999993
 20
26.16460550906881
 30
0.0
 11
59.02299999999993
 21
27.26527217573548
 31
0.0
 12
62.32499999999992
 22
26.71493884240214
 32
0.0
 13
62.32499999999992
 23
26.71493884240214
 33
0.0
  0
SOLID
  5
359
330
352
100
AcDbEntity
  8
치수문자_일반주서
 62
     0
100
AcDbTrace
 10
8.477000000000004
 20
27.26527217573548
 30
0.0
 11
8.477000000000004
 21
26.16460550906881
 31
0.0
 12
5.175000000000004
 22
26.71493884240214
 32
0.0
 13
5.175000000000004
 23
26.71493884240214
 33
0.0
  0
MTEXT
  5
35A
330
352
100
AcDbEntity
  8
치수문자_일반주서
 62
     0
100
AcDbMText
 10
32.69937709985012
 20
31.08993884240214
 30
0.0
 40
3.5
 41
0.0
 71
     2
 72
     1
  1
\A1;57.15 [2 1/4]
  7
SLDTEXTSTYLE0
 73
     1
 44
1.0
  0
POINT
  5
35B
330
352
100
AcDbEntity
  8
Defpoints
 62
     0
100
AcDbPoint
 10
62.32499999999992
 20
12.7
 30
0.0
  0
POINT
  5
35C
330
352
100
AcDbEntity
  8
Defpoints
 62
     0
100
AcDbPoint
 10
5.175000000000003
 20
12.69999999999999
 30
0.0
  0
POINT
  5
35D
330
352
100
AcDbEntity
  8
Defpoints
 62
     0
100
AcDbPoint
 10
5.175000000000003
 20
26.71493884240214
 30
0.0
  0
ENDBLK
  5
354
330
352
100
AcDbEntity
  8
0
100
AcDbBlockEnd
  0
BLOCK
  5
35F
330
35E
100
AcDbEntity
  8
0
100
AcDbBlockBegin
  2
*D20
 70
     1
 10
0.0
 20
0.0
 30
0.0
  3
*D20
  1
*D21
  0
LINE
  5
361
330
35E
100
AcDbEntity
  8
치수문자_일반주서
 62
     0
370
    -2
100
AcDbLine
 10
62.32499999999998
 20
12.7625
 30
0.0
 11
62.32499999999998
 21
38.76250000000006
 31
0.0
  0
LINE
  5
362
330
35E
100
AcDbEntity
  8
치수문자_일반주서
 62
     0
370
    -2
100
AcDbLine
 10
-51.975
 20
10.85749999999998
 30
0.0
 11
-51.975
 21
38.76250000000006
 31
0.0
  0
LINE
  5
363
330
35E
100
AcDbEntity
  8
치수문자_일반주서
 62
     0
370
    -2
100
AcDbLine
 10
59.02299999999998
 20
38.76250000000006
 30
0.0
 11
-48.673
 21
38.76250000000006
 31
0.0
  0
SOLID
  5
364
330
35E
100
AcDbEntity
  8
치수문자_일반주서
 62
     0
100
AcDbTrace
 10
59.02299999999998
 20
38.21216666666673
 30
0.0
 11
59.02299999999998
 21
39.31283333333339
 31
0.0
 12
62.32499999999998
 22
38.76250000000006
 32
0.0
 13
62.32499999999998
 23
38.76250000000006
 33
0.0
  0
SOLID
  5
365
330
35E
100
AcDbEntity
  8
치수문자_일반주서
 62
     0
100
AcDbTrace
 10
-48.673
 20
39.31283333333339
 30
0.0
 11
-48.673
 21
38.21216666666673
 31
0.0
 12
-51.975
 22
38.76250000000006
 32
0.0
 13
-51.975
 23
38.76250000000006
 33
0.0
  0
MTEXT
  5
366
330
35E
100
AcDbEntity
  8
치수문자_일반주서
 62
     0
100
AcDbMText
 10
1.999999999999992
 20
43.13750000000006
 30
0.0
 40
3.5
 41
0.0
 71
     2
 72
     1
  1
\A1;114.30 [4 1/2]
  7
SLDTEXTSTYLE0
 73
     1
 44
1.0
  0
POINT
  5
367
330
35E
100
AcDbEntity
  8
Defpoints
 62
     0
100
AcDbPoint
 10
62.32499999999998
 20
12.7
 30
0.0
  0
POINT
  5
368
330
35E
100
AcDbEntity
  8
Defpoints
 62
     0
100
AcDbPoint
 10
-51.975
 20
10.79499999999998
 30
0.0
  0
POINT
  5
369
330
35E
100
AcDbEntity
  8
Defpoints
 62
     0
100
AcDbPoint
 10
-51.975
 20
38.76250000000006
 30
0.0
  0
ENDBLK
  5
360
330
35E
100
AcDbEntity
  8
0
100
AcDbBlockEnd
  0
BLOCK
  5
36B
330
36A
100
AcDbEntity
  8
0
100
AcDbBlockBegin
  2
*D21
 70
     1
 10
0.0
 20
0.0
 30
0.0
  3
*D21
  1
*D22
  0
LINE
  5
36D
330
36A
100
AcDbEntity
  8
치수문자_일반주서
 62
     0
370
    -2
100
AcDbLine
 10
-51.0375
 20
9.524999999999993
 30
0.0
 11
-70.82500000000003
 21
9.524999999999919
 31
0.0
  0
LINE
  5
36E
330
36A
100
AcDbEntity
  8
치수문자_일반주서
 62
     0
370
    -2
100
AcDbLine
 10
-51.0375
 20
-9.525000000000007
 30
0.0
 11
-70.82499999999996
 21
-9.525000000000082
 31
0.0
  0
LINE
  5
36F
330
36A
100
AcDbEntity
  8
치수문자_일반주서
 62
     0
370
    -2
100
AcDbLine
 10
-70.82500000000002
 20
6.222999999999919
 30
0.0
 11
-70.82499999999997
 21
-6.223000000000082
 31
0.0
  0
SOLID
  5
370
330
36A
100
AcDbEntity
  8
치수문자_일반주서
 62
     0
100
AcDbTrace
 10
-70.27466666666669
 20
6.222999999999921
 30
0.0
 11
-71.37533333333334
 21
6.222999999999917
 31
0.0
 12
-70.82500000000003
 22
9.524999999999919
 32
0.0
 13
-70.82500000000003
 23
9.524999999999919
 33
0.0
  0
SOLID
  5
371
330
36A
100
AcDbEntity
  8
치수문자_일반주서
 62
     0
100
AcDbTrace
 10
-71.3753333333333
 20
-6.223000000000084
 30
0.0
 11
-70.27466666666665
 21
-6.223000000000081
 31
0.0
 12
-70.82499999999996
 22
-9.525000000000082
 32
0.0
 13
-70.82499999999996
 23
-9.525000000000082
 33
0.0
  0
MTEXT
  5
372
330
36A
100
AcDbEntity
  8
치수문자_일반주서
 62
     0
100
AcDbMText
 10
-75.2
 20
1.19662735735921
 30
0.0
 40
3.5
 41
0.0
 71
     2
 72
     1
  1
\A1;%%c19.05 [3/4]
  7
SLDTEXTSTYLE0
 11
-3.729883127349607E-15
 21
1.0
 31
0.0
 73
     1
 44
1.0
  0
POINT
  5
373
330
36A
100
AcDbEntity
  8
Defpoints
 62
     0
100
AcDbPoint
 10
-50.975
 20
9.524999999999993
 30
0.0
  0
POINT
  5
374
330
36A
100
AcDbEntity
  8
Defpoints
 62
     0
100
AcDbPoint
 10
-50.975
 20
-9.525000000000007
 30
0.0
  0
POINT
  5
375
330
36A
100
AcDbEntity
  8
Defpoints
 62
     0
100
AcDbPoint
 10
-70.82499999999997
 20
-9.525000000000082
 30
0.0
  0
ENDBLK
  5
36C
330
36A
100
AcDbEntity
  8
0
100
AcDbBlockEnd
  0
BLOCK
  5
377
330
376
100
AcDbEntity
  8
0
100
AcDbBlockBegin
  2
*D22
 70
     1
 10
0.0
 20
0.0
 30
0.0
  3
*D22
  1
*D23
  0
LINE
  5
379
330
376
100
AcDbEntity
  8
치수문자_일반주서
 62
     0
370
    -2
100
AcDbLine
 10
62.38749999999998
 20
12.7
 30
0.0
 11
80.47096356138735
 21
12.70000000000006
 31
0.0
  0
LINE
  5
37A
330
376
100
AcDbEntity
  8
치수문자_일반주서
 62
     0
370
    -2
100
AcDbLine
 10
62.38750000000004
 20
-12.7
 30
0.0
 11
80.47096356138744
 21
-12.69999999999994
 31
0.0
  0
LINE
  5
37B
330
376
100
AcDbEntity
  8
치수문자_일반주서
 62
     0
370
    -2
100
AcDbLine
 10
80.47096356138735
 20
12.70000000000006
 30
0.0
 11
80.47096356138724
 21
47.00067322023857
 31
0.0
  0
LINE
  5
37C
330
376
100
AcDbEntity
  8
치수문자_일반주서
 62
     0
370
    -2
100
AcDbLine
 10
80.47096356138735
 20
12.70000000000006
 30
0.0
 11
80.47096356138744
 21
-12.69999999999994
 31
0.0
  0
LINE
  5
37D
330
376
100
AcDbEntity
  8
치수문자_일반주서
 62
     0
370
    -2
100
AcDbLine
 10
80.47096356138734
 20
16.00200000000006
 30
0.0
 11
80.47096356138732
 21
19.30400000000006
 31
0.0
  0
LINE
  5
37E
330
376
100
AcDbEntity
  8
치수문자_일반주서
 62
     0
370
    -2
100
AcDbLine
 10
80.47096356138745
 20
-16.00199999999994
 30
0.0
 11
80.47096356138746
 21
-19.30399999999994
 31
0.0
  0
SOLID
  5
37F
330
376
100
AcDbEntity
  8
치수문자_일반주서
 62
     0
100
AcDbTrace
 10
79.92063022805401
 20
16.00200000000006
 30
0.0
 11
81.02129689472066
 21
16.00200000000007
 31
0.0
 12
80.47096356138735
 22
12.70000000000006
 32
0.0
 13
80.47096356138735
 23
12.70000000000006
 33
0.0
  0
SOLID
  5
380
330
376
100
AcDbEntity
  8
치수문자_일반주서
 62
     0
100
AcDbTrace
 10
81.02129689472078
 20
-16.00199999999993
 30
0.0
 11
79.92063022805412
 21
-16.00199999999994
 31
0.0
 12
80.47096356138744
 22
-12.69999999999994
 32
0.0
 13
80.47096356138744
 23
-12.69999999999994
 33
0.0
  0
MTEXT
  5
381
330
376
100
AcDbEntity
  8
치수문자_일반주서
 62
     0
100
AcDbMText
 10
76.09596356138728
 20
35.84442322023855
 30
0.0
 40
3.5
 41
0.0
 71
     2
 72
     1
  1
\A1;%%c25.40 [1]
  7
SLDTEXTSTYLE0
 11
-3.356894814614647E-15
 21
1.0
 31
0.0
 73
     1
 44
1.0
  0
POINT
  5
382
330
376
100
AcDbEntity
  8
Defpoints
 62
     0
100
AcDbPoint
 10
62.32499999999998
 20
12.7
 30
0.0
  0
POINT
  5
383
330
376
100
AcDbEntity
  8
Defpoints
 62
     0
100
AcDbPoint
 10
62.32500000000004
 20
-12.7
 30
0.0
  0
POINT
  5
384
330
376
100
AcDbEntity
  8
Defpoints
 62
     0
100
AcDbPoint
 10
80.47096356138744
 20
-12.69999999999993
 30
0.0
  0
ENDBLK
  5
378
330
376
100
AcDbEntity
  8
0
100
AcDbBlockEnd
  0
ENDSEC
  0
SECTION
  2
ENTITIES
  0
LINE
  5
A8
330
1F
100
AcDbEntity
  8
참조1
100
AcDbLine
 10
11.19926131403115
 20
0.0010749287238892
 30
0.0
 11
11.19926131403115
 21
-39.99892507127611
 31
0.0
  0
LINE
  5
A9
330
1F
100
AcDbEntity
  8
참조1
100
AcDbLine
 10
65.17426131403114
 20
0.0010749287238892
 30
0.0
 11
65.17426131403114
 21
4.274726723198788
 31
0.0
  0
LINE
  5
AA
330
1F
100
AcDbEntity
  8
참조1
100
AcDbLine
 10
11.19926131403115
 20
-39.99892507127611
 30
0.0
 11
-26.97834550027751
 21
-39.9989250712761
 31
0.0
  0
INSERT
  5
AC
330
1F
100
AcDbEntity
  8
0
  6
Continuous
 62
     7
100
AcDbBlockReference
 66
     1
  2
블럭10
 10
-22.48638253998272
 20
-52.04609937292004
 30
0.0
  0
ATTRIB
  5
AD
330
AC
100
AcDbEntity
  8
FORMAT
 62
     2
100
AcDbText
 10
-31.667677828724
 20
-49.97073246008785
 30
0.0
 40
4.233333333333333
  1
E2110964 [ 2 FLUTE ]
 41
0.75
  7
SLDTEXTSTYLE0
 11
-31.667677828724
 21
-52.08739912675452
 31
0.0
100
AcDbAttribute
  2
AUTOATTR0
 70
     0
 74
     1
  0
SEQEND
  5
AE
330
AC
100
AcDbEntity
  8
0
  6
Continuous
 62
     7
  0
HATCH
  5
AF
330
1F
100
AcDbEntity
  8
중심선
100
AcDbHatch
 10
0.0
 20
0.0
 30
0.0
210
0.0
220
0.0
230
1.0
  2
SOLID
 70
     1
 71
     0
 91
        1
 92
        0
 93
        4
 72
     1
 10
-16.77147323560187
 20
-35.7989250712761
 11
-20.21774847943916
 21
-35.7989250712761
 72
     1
 10
-20.21774847943916
 20
-35.7989250712761
 11
-22.34597833864321
 21
-38.33525065184867
 72
     1
 10
-22.3459783386432
 20
-38.33525065184867
 11
-18.89967000969274
 21
-38.33521122254619
 72
     1
 10
-18.89967000969274
 20
-38.33521122254619
 11
-16.77147323560187
 21
-35.7989250712761
 97
        0
 75
     0
 76
     1
 98
        1
 10
-26.57037092188868
 20
0.0
  0
HATCH
  5
B0
330
1F
100
AcDbEntity
  8
중심선
100
AcDbHatch
 10
0.0
 20
0.0
 30
0.0
210
0.0
220
0.0
230
1.0
  2
SOLID
 70
     1
 71
     0
 91
        1
 92
        0
 93
        4
 72
     1
 10
-11.75870924456587
 20
-35.79892507127608
 11
-15.20498448840312
 21
-35.79892507127608
 72
     1
 10
-15.20498448840312
 20
-35.79892507127608
 11
-19.73612249676059
 21
-41.19892507127612
 72
     1
 10
-19.73612249676059
 20
-41.19892507127612
 11
-16.28984725292331
 21
-41.19892507127612
 72
     1
 10
-16.28984725292331
 20
-41.19892507127612
 11
-11.75870924456587
 21
-35.79892507127608
 97
        0
 75
     0
 76
     1
 98
        1
 10
-26.57037092188868
 20
0.0
  0
HATCH
  5
B1
330
1F
100
AcDbEntity
  8
중심선
100
AcDbHatch
 10
0.0
 20
0.0
 30
0.0
210
0.0
220
0.0
230
1.0
  2
SOLID
 70
     1
 71
     0
 91
        1
 92
        0
 93
        4
 72
     1
 10
-6.745945253530025
 20
-35.79892507127608
 11
-10.19222049736712
 21
-35.79892507127608
 72
     1
 10
-10.19222049736712
 20
-35.79892507127608
 11
-17.24065739925639
 21
-44.19892507127612
 72
     1
 10
-17.24065739925639
 20
-44.19892507127612
 11
-13.79438215541911
 21
-44.19892507127612
 72
     1
 10
-13.79438215541911
 20
-44.19892507127612
 11
-6.745945253530024
 21
-35.79892507127608
 97
        0
 75
     0
 76
     1
 98
        1
 10
-26.57037092188868
 20
0.0
  0
HATCH
  5
B2
330
1F
100
AcDbEntity
  8
중심선
100
AcDbHatch
 10
0.0
 20
0.0
 30
0.0
210
0.0
220
0.0
230
1.0
  2
SOLID
 70
     1
 71
     0
 91
        1
 92
        0
 93
        6
 72
     3
 10
-1.946054822517828
 20
-39.99892507132738
 11
3.960054785062284
 21
1.540882976769353E-10
 40
0.3939339440162627
 50
17.09539180608439
 51
320.0019657685078
 73
     0
 72
     1
 10
-0.2630551668172325
 20
-38.58681907591441
 11
2.042246706883833
 21
-36.65249236586646
 72
     3
 10
-1.946054822570674
 20
-39.99892507127625
 11
6.600054785286829
 21
-1.278976924368180E-13
 40
0.636358354079598
 50
39.99873849337411
 51
368.4976242363724
 73
     1
 72
     1
 10
4.47927766932994
 20
-39.03892507120613
 11
-3.265987515734751
 21
-39.0389250712061
 72
     1
 10
-3.265987515734751
 20
-39.0389250712061
 11
-3.266012560180685
 21
-40.95892507120602
 72
     1
 10
-3.266012560180685
 20
-40.95892507120602
 11
1.175367209291351
 21
-40.95892507120599
 97
        0
 75
     0
 76
     1
 98
        1
 10
-26.57037092188868
 20
0.0
  0
LINE
  5
104
330
1F
100
AcDbEntity
  8
참조1
100
AcDbLine
 10
70.99399512937674
 20
7.441074928723896
 30
0.0
 11
70.99399512937674
 21
-7.438925071276109
 31
0.0
  0
LINE
  5
105
330
1F
100
AcDbEntity
  8
참조1
100
AcDbLine
 10
83.69399512937675
 20
5.441074928723896
 30
0.0
 11
70.99399512937674
 21
5.441074928723896
 31
0.0
  0
SOLID
  5
106
330
1F
100
AcDbEntity
  8
참조1
100
AcDbTrace
 10
70.99399512937674
 20
5.441074928723896
 30
0.0
 11
77.34399512937674
 21
4.425074928723896
 31
0.0
 12
77.34399512937674
 22
6.457074928723896
 32
0.0
 13
77.34399512937674
 23
6.457074928723896
 33
0.0
  0
LINE
  5
107
330
1F
100
AcDbEntity
  8
참조1
100
AcDbLine
 10
83.69399512937675
 20
-5.438925071276109
 30
0.0
 11
70.99399512937674
 21
-5.438925071276109
 31
0.0
  0
SOLID
  5
108
330
1F
100
AcDbEntity
  8
참조1
100
AcDbTrace
 10
70.99399512937674
 20
-5.438925071276109
 30
0.0
 11
77.34399512937674
 21
-6.454925071276109
 31
0.0
 12
77.34399512937674
 22
-4.422925071276109
 32
0.0
 13
77.34399512937674
 23
-4.422925071276109
 33
0.0
  0
MTEXT
  5
109
330
1F
100
AcDbEntity
  8
참조1
100
AcDbMText
 10
80.37834526200274
 20
11.01136670591222
 30
0.0
 40
3.5
 41
0.0
 71
     1
 72
     1
  1
A
  7
SLDTEXTSTYLE0
 73
     1
 44
1.0
  0
MTEXT
  5
10A
330
1F
100
AcDbEntity
  8
참조1
100
AcDbMText
 10
80.37834526200274
 20
0.1313667059122192
 30
0.0
 40
3.5
 41
0.0
 71
     1
 72
     1
  1
A
  7
SLDTEXTSTYLE0
 73
     1
 44
1.0
  0
LINE
  5
324
330
1F
100
AcDbEntity
  8
외형선
  6
Continuous
370
    15
100
AcDbLine
 10
-50.975
 20
-9.525000000000007
 30
0.0
 11
2.000000000000028
 21
-9.525000000000007
 31
0.0
  0
LINE
  5
325
330
1F
100
AcDbEntity
  8
외형선
  6
Continuous
370
    15
100
AcDbLine
 10
-51.975
 20
-8.525000000000007
 30
0.0
 11
-50.975
 21
-9.525000000000007
 31
0.0
  0
LINE
  5
326
330
1F
100
AcDbEntity
  8
0
  6
Continuous
 62
     1
370
    15
100
AcDbLine
 10
47.08465550410164
 20
-12.7
 30
0.0
 11
49.62500000000001
 21
-12.7
 31
0.0
  0
LINE
  5
327
330
1F
100
AcDbEntity
  8
0
  6
Continuous
 62
     1
370
    15
100
AcDbLine
 10
5.582647343013952
 20
12.7
 30
0.0
 11
5.175000000000003
 21
12.7
 31
0.0
  0
ARC
  5
328
330
1F
100
AcDbEntity
  8
0
  6
Continuous
 62
     1
370
    15
100
AcDbCircle
 10
49.62500000000001
 20
0.0
 30
0.0
 40
12.7
100
AcDbArc
 50
270.0000000000007
 51
0.0
  0
ARC
  5
329
330
1F
100
AcDbEntity
  8
0
  6
Continuous
 62
     1
370
    15
100
AcDbCircle
 10
49.62500000000001
 20
0.0
 30
0.0
 40
12.7
100
AcDbArc
 50
0.0
 51
90.0
  0
LINE
  5
32A
330
1F
100
AcDbEntity
  8
외형선
  6
Continuous
370
    15
100
AcDbLine
 10
5.175000000000003
 20
-12.7
 30
0.0
 11
5.582647343013952
 21
-12.7
 31
0.0
  0
LINE
  5
32B
330
1F
100
AcDbEntity
  8
0
  6
Continuous
 62
     1
370
    15
100
AcDbLine
 10
49.62500000000001
 20
12.7
 30
0.0
 11
47.08527339649475
 21
12.7
 31
0.0
  0
LINE
  5
32C
330
1F
100
AcDbEntity
  8
외형선
  6
Continuous
370
    15
100
AcDbLine
 10
5.175000000000003
 20
12.7
 30
0.0
 11
5.175000000000003
 21
4.168439305109107
 31
0.0
  0
LINE
  5
32F
330
1F
100
AcDbEntity
  8
외형선
  6
Continuous
370
    15
100
AcDbLine
 10
5.175000000000003
 20
-12.69781393945072
 30
0.0
 11
5.175000000000003
 21
-12.7
 31
0.0
  0
SPLINE
  5
334
330
1F
100
AcDbEntity
  8
외형선
  6
Continuous
370
    15
100
AcDbSpline
210
0.0
220
0.0
230
1.0
 70
    24
 71
     3
 72
    18
 73
    14
 74
     0
 42
0.000000001
 43
0.00000001
 40
0.0
 40
0.0
 40
0.0
 40
0.0
 40
0.125
 40
0.125
 40
0.25
 40
0.25
 40
0.375
 40
0.375
 40
0.5
 40
0.5
 40
0.75
 40
0.75
 40
1.0
 40
1.0
 40
1.0
 40
1.0
 10
5.175000000000003
 20
4.16843930510921
 30
0.0
 10
5.175000000000003
 20
3.981109422405421
 30
0.0
 10
5.175000000000003
 20
3.748754979540156
 30
0.0
 10
5.175000000000003
 20
3.204191935008964
 30
0.0
 10
5.175000000000003
 20
2.892072348050068
 30
0.0
 10
5.175000000000003
 20
2.206968688829733
 30
0.0
 10
5.175000000000003
 20
1.834130435263639
 30
0.0
 10
5.175000000000003
 20
1.051690890806526
 30
0.0
 10
5.175000000000003
 20
0.6422364981596864
 30
0.0
 10
5.175000000000003
 20
-0.6043692837858892
 30
0.0
 10
5.175000000000003
 20
-1.456679675000135
 30
0.0
 10
5.175000000000003
 20
-3.056937194996006
 30
0.0
 10
5.175000000000003
 20
-3.805088652781798
 30
0.0
 10
5.175000000000003
 20
-4.47284042722282
 30
0.0
  0
SPLINE
  5
335
330
1F
100
AcDbEntity
  8
외형선
  6
Continuous
370
    15
100
AcDbSpline
210
0.0
220
0.0
230
1.0
 70
    24
 71
     3
 72
    20
 73
    16
 74
     0
 42
0.000000001
 43
0.00000001
 40
0.0
 40
0.0
 40
0.0
 40
0.0
 40
0.25
 40
0.25
 40
0.3750000000000001
 40
0.3750000000000001
 40
0.5000000000000001
 40
0.5000000000000001
 40
0.6250000000000002
 40
0.6250000000000002
 40
0.7500000000000001
 40
0.7500000000000001
 40
0.875
 40
0.875
 40
1.0
 40
1.0
 40
1.0
 40
1.0
 10
5.175000000000003
 20
-4.472840427222813
 30
0.0
 10
5.175000000000003
 20
-4.572059622207902
 30
0.0
 10
5.175000000000003
 20
-4.783439660566117
 30
0.0
 10
5.175000000000003
 20
-5.347253338403057
 30
0.0
 10
5.175000000000003
 20
-5.57620448244294
 30
0.0
 10
5.175000000000003
 20
-6.123426818802542
 30
0.0
 10
5.175000000000003
 20
-6.441813205963321
 30
0.0
 10
5.175000000000003
 20
-7.167008145385434
 30
0.0
 10
5.175000000000003
 20
-7.573874842414664
 30
0.0
 10
5.175000000000003
 20
-8.463882419420568
 30
0.0
 10
5.175000000000003
 20
-8.946973541542933
 30
0.0
 10
5.175000000000003
 20
-9.965733377717124
 30
0.0
 10
5.175000000000003
 20
-10.50123643127276
 30
0.0
 10
5.175000000000003
 20
-11.59283660266988
 30
0.0
 10
5.175000000000003
 20
-12.14870765914977
 30
0.0
 10
5.175000000000003
 20
-12.6978139394436
 30
0.0
  0
SPLINE
  5
336
330
1F
100
AcDbEntity
  8
0
  6
Continuous
 62
     1
370
    15
100
AcDbSpline
210
0.0
220
0.0
230
1.0
 70
     8
 71
     3
 72
    14
 73
    10
 74
     0
 42
0.000000001
 43
0.00000001
 40
0.0
 40
0.0
 40
0.0
 40
0.0
 40
0.0209754880787966
 40
0.1791538491371405
 40
0.3373332664960744
 40
0.4955135060660323
 40
0.6636783127000958
 40
0.8318423673334427
 40
1.0
 40
1.0
 40
1.0
 40
1.0
 10
28.96258450789136
 20
-8.621445573201777
 30
0.0
 10
28.79626846077168
 20
-8.629649024680702
 30
0.0
 10
27.37574561511344
 20
-8.6997155663096
 30
0.0
 10
24.70100714531757
 20
-8.590891286856388
 30
0.0
 10
20.93834734236901
 20
-8.278751482858
 30
0.0
 10
17.09655338958186
 20
-7.688959983020908
 30
0.0
 10
13.17538759740858
 20
-6.849502440820096
 30
0.0
 10
9.175160876237122
 20
-5.775930348758855
 30
0.0
 10
6.508369984874995
 20
-4.907198205003915
 30
0.0
 10
5.175000000000032
 20
-4.472840427222824
 30
0.0
  0
SPLINE
  5
337
330
1F
100
AcDbEntity
  8
외형선
  6
Continuous
370
    15
100
AcDbSpline
210
0.0
220
0.0
230
1.0
 70
    24
 71
     3
 72
    18
 73
    14
 74
     0
 42
0.000000001
 43
0.00000001
 40
0.0
 40
0.0
 40
0.0
 40
0.0
 40
0.125
 40
0.125
 40
0.25
 40
0.25
 40
0.375
 40
0.375
 40
0.5
 40
0.5
 40
0.75
 40
0.75
 40
1.0
 40
1.0
 40
1.0
 40
1.0
 10
5.175000000000003
 20
4.168439305109207
 30
0.0
 10
5.175000000000003
 20
3.981109422405417
 30
0.0
 10
5.175000000000003
 20
3.748754979540152
 30
0.0
 10
5.175000000000003
 20
3.204191935008964
 30
0.0
 10
5.175000000000003
 20
2.892072348050064
 30
0.0
 10
5.175000000000003
 20
2.206968688829733
 30
0.0
 10
5.175000000000003
 20
1.834130435263635
 30
0.0
 10
5.175000000000003
 20
1.051690890806523
 30
0.0
 10
5.175000000000003
 20
0.6422364981596829
 30
0.0
 10
5.175000000000003
 20
-0.6043692837858892
 30
0.0
 10
5.175000000000003
 20
-1.456679675000139
 30
0.0
 10
5.175000000000003
 20
-3.056937194996006
 30
0.0
 10
5.175000000000003
 20
-3.805088652781798
 30
0.0
 10
5.175000000000003
 20
-4.47284042722282
 30
0.0
  0
SPLINE
  5
338
330
1F
100
AcDbEntity
  8
0
  6
Continuous
 62
     1
370
    15
100
AcDbSpline
210
0.0
220
0.0
230
1.0
 70
     8
 71
     3
 72
    28
 73
    24
 74
     0
 42
0.000000001
 43
0.00000001
 40
0.0
 40
0.0
 40
0.0
 40
0.0
 40
0.0535382568360858
 40
0.107076532945506
 40
0.1611771667142562
 40
0.2152777680339721
 40
0.2687466577185522
 40
0.3223546143790177
 40
0.3659778319753439
 40
0.4096010515788745
 40
0.4535281744439534
 40
0.4974553018748833
 40
0.540996280926076
 40
0.5845372611765666
 40
0.6283803644593866
 40
0.6722234713504341
 40
0.7197580538560864
 40
0.7672926688483638
 40
0.8152208636580461
 40
0.8631490823260782
 40
0.912297563658432
 40
0.9614460629920947
 40
1.0
 40
1.0
 40
1.0
 40
1.0
 10
5.175000000000003
 20
4.168439305109217
 30
0.0
 10
5.922928629064265
 20
3.756334916668841
 30
0.0
 10
7.418786156440979
 20
2.932125991433885
 30
0.0
 10
9.670667429608237
 20
1.649759912957084
 30
0.0
 10
11.93047905003873
 20
0.3486916987371451
 30
0.0
 10
14.18903783851579
 20
-0.9568218829126742
 30
0.0
 10
16.4401397732934
 20
-2.248985480017385
 30
0.0
 10
18.54579246559815
 20
-3.433854977616832
 30
0.0
 10
20.51335012290306
 20
-4.51287657085809
 30
0.0
 10
22.34584166551613
 20
-5.486240119387137
 30
0.0
 10
24.18246543788275
 20
-6.423938453139545
 30
0.0
 10
26.01804164300736
 20
-7.315974171590184
 30
0.0
 10
27.84815820884801
 20
-8.15486629578334
 30
0.0
 10
29.6771559299679
 20
-8.936833267379916
 30
0.0
 10
31.51028011771501
 20
-9.658867367556152
 30
0.0
 10
33.39937187280292
 20
-10.33335072818939
 30
0.0
 10
35.3395695593459
 20
-10.94756726452838
 30
0.0
 10
37.33751571427822
 20
-11.4893514485757
 30
0.0
 10
39.34032646499099
 20
-11.93764643756918
 30
0.0
 10
41.36630906697919
 20
-12.29144295270556
 30
0.0
 10
43.40883638704681
 20
-12.53916883602986
 30
0.0
 10
45.32086446724603
 20
-12.68151366406681
 30
0.0
 10
46.54606021005011
 20
-12.6874955017936
 30
0.0
 10
47.08465550410164
 20
-12.69012511397464
 30
0.0
  0
SPLINE
  5
339
330
1F
100
AcDbEntity
  8
0
  6
Continuous
 62
     1
370
    15
100
AcDbSpline
210
0.0
220
0.0
230
1.0
 70
     8
 71
     3
 72
    20
 73
    16
 74
     0
 42
0.000000001
 43
0.00000001
 40
0.0
 40
0.0
 40
0.0
 40
0.0
 40
0.0807346126101078
 40
0.161469268381676
 40
0.2422039988449459
 40
0.3229388355252745
 40
0.4036738099410709
 40
0.4844089536017383
 40
0.5651442980056124
 40
0.639151429716117
 40
0.7131667331665085
 40
0.7871933527147937
 40
0.8612254523658398
 40
0.9352455977359455
 40
1.0
 40
1.0
 40
1.0
 40
1.0
 10
49.62500000000001
 20
-5.309731008042696
 30
0.0
 10
48.43974302455944
 20
-4.674706941561439
 30
0.0
 10
46.06922844002911
 20
-3.404658469109258
 30
0.0
 10
42.51345486890096
 20
-1.373713714248687
 30
0.0
 10
38.95767685075922
 20
0.6831102850246751
 30
0.0
 10
35.40189511761093
 20
2.724788030115505
 30
0.0
 10
31.84609900986634
 20
4.694702227264539
 30
0.0
 10
28.2903204395877
 20
6.54241037445971
 30
0.0
 10
24.83321441458163
 20
8.17284024783697
 30
0.0
 10
21.47509605498252
 20
9.562939052340951
 30
0.0
 10
18.21529691870108
 20
10.70205272233136
 30
0.0
 10
14.95504523319152
 20
11.60850685777472
 30
0.0
 10
11.69463245742016
 20
12.25330921248426
 30
0.0
 10
8.570498411031416
 20
12.63950464572736
 30
0.0
 10
6.533256630096907
 20
12.6703627506017
 30
0.0
 10
5.582647343013938
 20
12.68476163116161
 30
0.0
  0
SPLINE
  5
33A
330
1F
100
AcDbEntity
  8
0
  6
Continuous
 62
     1
370
    15
100
AcDbSpline
210
0.0
220
0.0
230
1.0
 70
     8
 71
     3
 72
    17
 73
    13
 74
     0
 42
0.000000001
 43
0.00000001
 40
0.0
 40
0.0
 40
0.0
 40
0.0
 40
0.1110744515291922
 40
0.2221494651293663
 40
0.3332321376985408
 40
0.44085944526753
 40
0.5484882658127961
 40
0.6561184408731974
 40
0.7637498117718409
 40
0.8713822196412687
 40
0.9790155054487021
 40
0.9999999999999999
 40
0.9999999999999999
 40
0.9999999999999999
 40
0.9999999999999999
 10
58.92512206022354
 20
1.331241570900229
 30
0.0
 10
57.63082605604944
 20
1.830108389261838
 30
0.0
 10
55.04222749816432
 20
2.827844550405018
 30
0.0
 10
51.15924742380499
 20
4.225491375157905
 30
0.0
 10
47.3163829870117
 20
5.48158630652356
 30
0.0
 10
43.51371739407485
 20
6.558939102162082
 30
0.0
 10
39.75126449127544
 20
7.434105370878299
 30
0.0
 10
35.98876290901134
 20
8.090688752777698
 30
0.0
 10
32.22621459446933
 20
8.516988288411333
 30
0.0
 10
28.46362652143369
 20
8.672963436975877
 30
0.0
 10
25.71069752762624
 20
8.661268391024429
 30
0.0
 10
24.21196471433394
 20
8.52268027383878
 30
0.0
 10
23.96744058659153
 20
8.500069079788894
 30
0.0
  0
SPLINE
  5
33B
330
1F
100
AcDbEntity
  8
0
  6
Continuous
 62
     1
370
    15
100
AcDbSpline
210
0.0
220
0.0
230
1.0
 70
     8
 71
     3
 72
    38
 73
    34
 74
     0
 42
0.000000001
 43
0.00000001
 40
0.0
 40
0.0
 40
0.0
 40
0.0
 40
0.1250000000000012
 40
0.1250000000000012
 40
0.1875000000000018
 40
0.1875000000000018
 40
0.2500000000000023
 40
0.2500000000000023
 40
0.3750000000000026
 40
0.3750000000000026
 40
0.4375000000000028
 40
0.4375000000000028
 40
0.4687500000000029
 40
0.4687500000000029
 40
0.500000000000003
 40
0.500000000000003
 40
0.5625000000000023
 40
0.5625000000000023
 40
0.6250000000000016
 40
0.6250000000000016
 40
0.6875000000000009
 40
0.6875000000000009
 40
0.7187500000000008
 40
0.7187500000000008
 40
0.7500000000000006
 40
0.7500000000000006
 40
0.8125000000000004
 40
0.8125000000000004
 40
0.8750000000000003
 40
0.8750000000000003
 40
0.9375000000000001
 40
0.9375000000000001
 40
1.0
 40
1.0
 40
1.0
 40
1.0
 10
49.62499999999999
 20
-5.309731008042718
 30
0.0
 10
50.33048047883181
 20
-5.679312277052013
 30
0.0
 10
51.02442989171514
 20
-6.010852599255792
 30
0.0
 10
52.06256783607014
 20
-6.430455700346377
 30
0.0
 10
52.40832165612184
 20
-6.556993596241666
 30
0.0
 10
53.10202633629756
 20
-6.778168403061466
 30
0.0
 10
53.45154438538747
 20
-6.873016614587879
 30
0.0
 10
54.48570956807318
 20
-7.094052025625864
 30
0.0
 10
55.16110089883062
 20
-7.162382986337594
 30
0.0
 10
56.17735873733246
 20
-7.086917579283664
 30
0.0
 10
56.50998698830835
 20
-7.031918134901137
 30
0.0
 10
56.99987612501987
 20
-6.896724318653671
 30
0.0
 10
57.16178247050814
 20
-6.842817445033345
 30
0.0
 10
57.48319443298703
 20
-6.714962321781066
 30
0.0
 10
57.64335680725826
 20
-6.640571580318561
 30
0.0
 10
58.11049025838354
 20
-6.388232278850179
 30
0.0
 10
58.40710856129351
 20
-6.181048203336474
 30
0.0
 10
58.96878817782015
 20
-5.667254173390887
 30
0.0
 10
59.22131811678849
 20
-5.371596614885508
 30
0.0
 10
59.661581191597
 20
-4.693938260860499
 30
0.0
 10
59.83844072123468
 20
-4.327764497880434
 30
0.0
 10
60.03466030325887
 20
-3.747138664387418
 30
0.0
 10
60.08774994419365
 20
-3.550034942210836
 30
0.0
 10
60.16855518728163
 20
-3.158373756510844
 30
0.0
 10
60.19676843261202
 20
-2.962349317570009
 30
0.0
 10
60.24680786269152
 20
-2.37329848799747
 30
0.0
 10
60.23313890958968
 20
-1.993914271789706
 30
0.0
 10
60.13175568774368
 20
-1.259420121252202
 30
0.0
 10
60.04271806009404
 20
-0.9017149169414331
 30
0.0
 10
59.80941004135229
 20
-0.2239114095377133
 30
0.0
 10
59.66472601641208
 20
0.1000000165418555
 30
0.0
 10
59.32848731412457
 20
0.7287961903258129
 30
0.0
 10
59.13618192236964
 20
1.034406987497771
 30
0.0
 10
58.92512206021564
 20
1.331241570903323
 30
0.0
  0
SPLINE
  5
33C
330
1F
100
AcDbEntity
  8
0
  6
Continuous
 62
     1
370
    15
100
AcDbSpline
210
0.0
220
0.0
230
1.0
 70
     8
 71
     3
 72
    14
 73
    10
 74
     0
 42
0.000000001
 43
0.00000001
 40
0.0
 40
0.0
 40
0.0
 40
0.0
 40
0.25
 40
0.25
 40
0.5
 40
0.5
 40
0.75
 40
0.75
 40
1.0
 40
1.0
 40
1.0
 40
1.0
 10
58.92512206021558
 20
1.331241570903337
 30
0.0
 10
59.07121988132524
 20
1.419150631659079
 30
0.0
 10
59.20135432612664
 20
1.528199772717972
 30
0.0
 10
59.42960300557854
 20
1.7897802592137
 30
0.0
 10
59.52846477313965
 20
1.944798386022494
 30
0.0
 10
59.68436337027048
 20
2.284456852826636
 30
0.0
 10
59.74268549403705
 20
2.469538249506613
 30
0.0
 10
59.82247993448924
 20
2.867135131467833
 30
0.0
 10
59.84301078085888
 20
3.076371141862445
 30
0.0
 10
59.84655694983842
 20
3.289175456173588
 30
0.0
  0
ARC
  5
33D
330
1F
100
AcDbEntity
  8
0
  6
Continuous
 62
     1
370
    15
100
AcDbCircle
 10
56.24888734995073
 20
-2.207677449638705
 30
0.0
 40
6.569521932233309
100
AcDbArc
 50
23.84124834803085
 51
56.79540347456626
  0
ARC
  5
33E
330
1F
100
AcDbEntity
  8
0
  6
Continuous
 62
     1
370
    15
100
AcDbCircle
 10
50.90447842259392
 20
0.2366571751659023
 30
0.0
 40
11.35530863087115
100
AcDbArc
 50
1.065172245498009
 51
71.16094673361448
  0
SPLINE
  5
33F
330
1F
100
AcDbEntity
  8
0
  6
Continuous
 62
     1
370
    15
100
AcDbSpline
210
0.0
220
0.0
230
1.0
 70
     8
 71
     3
 72
    12
 73
     8
 74
     0
 42
0.000000001
 43
0.00000001
 40
0.0
 40
0.0
 40
0.0
 40
0.0
 40
0.2500000000000008
 40
0.2500000000000008
 40
0.5000000000000016
 40
0.5000000000000016
 40
1.0
 40
1.0
 40
1.0
 40
1.0
 10
54.57123094478452
 20
10.98365489747631
 30
0.0
 10
54.17832419883398
 20
11.22324959267709
 30
0.0
 10
53.7782094979837
 20
11.43752799818267
 30
0.0
 10
52.97133016331474
 20
11.81366299315221
 30
0.0
 10
52.56348071687594
 20
11.97617427803668
 30
0.0
 10
51.32590955706467
 20
12.38699851259737
 30
0.0
 10
50.47670968827295
 20
12.5588317507304
 30
0.0
 10
49.62499999999999
 20
12.6154232202385
 30
0.0
  0
SPLINE
  5
340
330
1F
100
AcDbEntity
  8
0
  6
Continuous
 62
     1
370
    15
100
AcDbSpline
210
0.0
220
0.0
230
1.0
 70
     8
 71
     3
 72
    10
 73
     6
 74
     0
 42
0.000000001
 43
0.00000001
 40
0.0
 40
0.0
 40
0.0
 40
0.0
 40
0.5
 40
0.5
 40
1.0
 40
1.0
 40
1.0
 40
1.0
 10
51.99378049782789
 20
5.685156578345758
 30
0.0
 10
53.28465976739187
 20
5.326386615035002
 30
0.0
 10
54.58651327237273
 20
4.945137534754632
 30
0.0
 10
57.20928784646002
 20
4.143582256497414
 30
0.0
 10
58.52717156833329
 20
3.724172193624348
 30
0.0
 10
59.84655694983848
 20
3.289175456173702
 30
0.0
  0
SPLINE
  5
341
330
1F
100
AcDbEntity
  8
0
  6
Continuous
 62
     1
370
    15
100
AcDbSpline
210
0.0
220
0.0
230
1.0
 70
     8
 71
     3
 72
    18
 73
    14
 74
     0
 42
0.000000001
 43
0.00000001
 40
0.0
 40
0.0
 40
0.0
 40
0.0
 40
0.0343737117991652
 40
0.1232233714814963
 40
0.2122282297946178
 40
0.3085441016925287
 40
0.4050577699804072
 40
0.5021696476310038
 40
0.5994841038288021
 40
0.6990632837679133
 40
0.7988607301519252
 40
0.8993184095919928
 40
0.9999999999999999
 40
0.9999999999999999
 40
0.9999999999999999
 40
0.9999999999999999
 10
28.96271638314345
 20
8.621439531780187
 30
0.0
 10
29.19944667897503
 20
8.723527140326752
 30
0.0
 10
30.04808081411331
 20
9.08949225300033
 30
0.0
 10
31.50996397629449
 20
9.656045005021646
 30
0.0
 10
33.39794805313182
 20
10.33382321625564
 30
0.0
 10
35.33954283604415
 20
10.94663823706021
 30
0.0
 10
37.33575049769858
 20
11.48926449834974
 30
0.0
 10
39.34052594554365
 20
11.93722075514851
 30
0.0
 10
41.36441763152825
 20
12.29070797290031
 30
0.0
 10
43.40895800934864
 20
12.54153448646413
 30
0.0
 10
45.47312348738212
 20
12.68335909407323
 30
0.0
 10
47.54646769810049
 20
12.72112609823211
 30
0.0
 10
48.93164190111943
 20
12.65068365206575
 30
0.0
 10
49.62499999999999
 20
12.6154232202385
 30
0.0
  0
SPLINE
  5
342
330
1F
100
AcDbEntity
  8
0
  6
Continuous
 62
     1
370
    15
100
AcDbSpline
210
0.0
220
0.0
230
1.0
 70
     8
 71
     3
 72
    20
 73
    16
 74
     0
 42
0.000000001
 43
0.00000001
 40
0.0
 40
0.0
 40
0.0
 40
0.0
 40
0.2500000000000006
 40
0.2500000000000006
 40
0.3750000000000005
 40
0.3750000000000005
 40
0.5000000000000004
 40
0.5000000000000004
 40
0.6250000000000004
 40
0.6250000000000004
 40
0.7500000000000002
 40
0.7500000000000002
 40
0.8750000000000001
 40
0.8750000000000001
 40
1.0
 40
1.0
 40
1.0
 40
1.0
 10
54.57123094478458
 20
10.98365489747631
 30
0.0
 10
54.66132651365532
 20
10.45051589719196
 30
0.0
 10
54.7018223200589
 20
9.908061737069076
 30
0.0
 10
54.64275367528904
 20
9.083532602295229
 30
0.0
 10
54.60310399865727
 20
8.813273910191352
 30
0.0
 10
54.4769126524149
 20
8.283526468753635
 30
0.0
 10
54.38877756938665
 20
8.021006917559308
 30
0.0
 10
54.16477848460342
 20
7.528235453571298
 30
0.0
 10
54.02955482911954
 20
7.297394701457723
 30
0.0
 10
53.71188932699621
 20
6.867318530385166
 30
0.0
 10
53.52826761806269
 20
6.668043805530409
 30
0.0
 10
53.1333372016096
 20
6.31764835193184
 30
0.0
 10
52.91963092021921
 20
6.163287245386798
 30
0.0
 10
52.4672368187727
 20
5.893362849085079
 30
0.0
 10
52.23350359601648
 20
5.780483718287552
 30
0.0
 10
51.99378049782791
 20
5.685156578345769
 30
0.0
  0
SPLINE
  5
343
330
1F
100
AcDbEntity
  8
0
  6
Continuous
 62
     1
370
    15
100
AcDbSpline
210
0.0
220
0.0
230
1.0
 70
     8
 71
     3
 72
    13
 73
     9
 74
     0
 42
0.000000001
 43
0.00000001
 40
0.0
 40
0.0
 40
0.0
 40
0.0
 40
0.1326242011650733
 40
0.3060861576043842
 40
0.4795746344035181
 40
0.6530759543486241
 40
0.8265492582907811
 40
1.0
 40
1.0
 40
1.0
 40
1.0
 10
23.96744058659154
 20
-8.500069079788881
 30
0.0
 10
23.13669298845355
 20
-8.852265837931116
 30
0.0
 10
21.21939329488833
 20
-9.665108075422134
 30
0.0
 10
18.2153000661741
 20
-10.69831472295663
 30
0.0
 10
14.95504445983786
 20
-11.60922741287639
 30
0.0
 10
11.69463240284671
 20
-12.25416560815205
 30
0.0
 10
8.434613859023635
 20
-12.65215738005759
 30
0.0
 10
6.261490843265086
 20
-12.68259574617353
 30
0.0
 10
5.175000000000003
 20
-12.69781393945072
 30
0.0
  0
SPLINE
  5
344
330
1F
100
AcDbEntity
  8
외형선
  6
Continuous
370
    15
100
AcDbSpline
210
0.0
220
0.0
230
1.0
 70
    24
 71
     3
 72
    20
 73
    16
 74
     0
 42
0.000000001
 43
0.00000001
 40
0.0
 40
0.0
 40
0.0
 40
0.0
 40
0.25
 40
0.25
 40
0.3750000000000001
 40
0.3750000000000001
 40
0.5000000000000001
 40
0.5000000000000001
 40
0.6250000000000002
 40
0.6250000000000002
 40
0.7500000000000001
 40
0.7500000000000001
 40
0.875
 40
0.875
 40
1.0
 40
1.0
 40
1.0
 40
1.0
 10
5.175000000000003
 20
-4.472840427222813
 30
0.0
 10
5.175000000000003
 20
-4.572059622207902
 30
0.0
 10
5.175000000000003
 20
-4.783439660566117
 30
0.0
 10
5.175000000000003
 20
-5.347253338403057
 30
0.0
 10
5.175000000000003
 20
-5.57620448244294
 30
0.0
 10
5.175000000000003
 20
-6.123426818802542
 30
0.0
 10
5.175000000000003
 20
-6.441813205963321
 30
0.0
 10
5.175000000000003
 20
-7.167008145385434
 30
0.0
 10
5.175000000000003
 20
-7.573874842414664
 30
0.0
 10
5.175000000000003
 20
-8.463882419420568
 30
0.0
 10
5.175000000000003
 20
-8.946973541542933
 30
0.0
 10
5.175000000000003
 20
-9.965733377717124
 30
0.0
 10
5.175000000000003
 20
-10.50123643127276
 30
0.0
 10
5.175000000000003
 20
-11.59283660266988
 30
0.0
 10
5.175000000000003
 20
-12.14870765914977
 30
0.0
 10
5.175000000000003
 20
-12.6978139394436
 30
0.0
  0
LINE
  5
345
330
1F
100
AcDbEntity
  8
중심선
100
AcDbLine
 10
-61.325
 20
-0.0000000000000071
 30
0.0
 11
65.32500000000003
 21
0.0000000000000071
 31
0.0
  0
CIRCLE
  5
346
330
1F
100
AcDbEntity
  8
해칭선
100
AcDbCircle
 10
0.0
 20
0.0
 30
0.0
 40
3.000000000000003
  0
DIMENSION
  5
347
330
1F
100
AcDbEntity
  8
치수문자_일반주서
100
AcDbDimension
  2
*D19
 10
5.175000000000004
 20
26.71493884240214
 30
0.0
 11
32.69937709985012
 21
26.71493884240214
 31
0.0
 70
   160
  1
<>
 71
     2
 42
57.14999999999992
  3
SLDDIMSTYLE1
100
AcDbAlignedDimension
 13
62.32499999999992
 23
12.7
 33
0.0
 14
5.175000000000003
 24
12.69999999999999
 34
0.0
 50
0.0000000000000036
100
AcDbRotatedDimension
1001
ACAD
1000
DSTYLE
1002
{
1070
   171
1070
     6
1070
   273
1070
     7
1002
}
  0
DIMENSION
  5
348
330
1F
100
AcDbEntity
  8
치수문자_일반주서
100
AcDbDimension
  2
*D20
 10
-51.975
 20
38.76250000000006
 30
0.0
 11
1.999999999999992
 21
38.76250000000006
 31
0.0
 70
   160
  1
<>
 71
     2
 42
114.3
  3
SLDDIMSTYLE1
100
AcDbAlignedDimension
 13
62.32499999999998
 23
12.7
 33
0.0
 14
-51.975
 24
10.79499999999998
 34
0.0
 50
0.0000000000000101
100
AcDbRotatedDimension
1001
ACAD
1000
DSTYLE
1002
{
1070
   171
1070
     6
1070
   273
1070
     7
1002
}
  0
DIMENSION
  5
349
330
1F
100
AcDbEntity
  8
치수문자_일반주서
100
AcDbDimension
  2
*D21
 10
-70.82499999999996
 20
-9.525000000000082
 30
0.0
 11
-70.825
 21
1.196627357359226
 31
0.0
 70
   160
  1
%%c<>
 71
     2
 42
19.05
 52
-270.0
  3
SLDDIMSTYLE1
100
AcDbAlignedDimension
 13
-50.975
 23
9.524999999999993
 33
0.0
 14
-50.975
 24
-9.525000000000007
 34
0.0
 50
90.0000000000002
100
AcDbRotatedDimension
1001
ACAD
1000
DSTYLE
1002
{
1070
   171
1070
     6
1070
   273
1070
     7
1002
}
  0
DIMENSION
  5
34A
330
1F
100
AcDbEntity
  8
치수문자_일반주서
100
AcDbDimension
  2
*D22
 10
80.47096356138744
 20
-12.69999999999994
 30
0.0
 11
80.47096356138728
 21
35.84442322023857
 31
0.0
 70
   160
  1
%%c<>
 71
     2
 42
25.4
 52
-270.0
  3
SLDDIMSTYLE1
100
AcDbAlignedDimension
 13
62.32499999999998
 23
12.7
 33
0.0
 14
62.32500000000004
 24
-12.7
 34
0.0
 50
90.0000000000002
100
AcDbRotatedDimension
1001
ACAD
1000
DSTYLE
1002
{
1070
   171
1070
     6
1070
   273
1070
     7
1002
}
  0
INSERT
  5
34B
330
1F
100
AcDbEntity
  8
해칭선
100
AcDbBlockReference
  2
SW_DOWELSYMBOL_0
 10
0.0
 20
0.0
 30
0.0
  0
LINE
  5
387
330
1F
100
AcDbEntity
  8
외형선
  6
Continuous
370
    15
100
AcDbLine
 10
-51.975
 20
8.524999999999993
 30
0.0
 11
-51.975
 21
-8.525000000000006
 31
0.0
  0
LINE
  5
388
330
1F
100
AcDbEntity
  8
외형선
  6
Continuous
370
    15
100
AcDbLine
 10
-50.975
 20
9.524999999999993
 30
0.0
 11
-50.975
 21
-9.525000000000007
 31
0.0
  0
LINE
  5
38A
330
1F
100
AcDbEntity
  8
외형선
  6
Continuous
370
    15
100
AcDbLine
 10
-51.975
 20
8.524999999999993
 30
0.0
 11
-50.975
 21
9.524999999999993
 31
0.0
  0
LINE
  5
38B
330
1F
100
AcDbEntity
  8
외형선
  6
Continuous
370
    15
100
AcDbLine
 10
-50.975
 20
9.524999999999993
 30
0.0
 11
-33.8743250000001
 21
9.524999999999993
 31
0.0
  0
LINE
  5
38C
330
1F
100
AcDbEntity
  8
외형선
  6
Continuous
370
    15
100
AcDbLine
 10
5.175000000000003
 20
12.7
 30
0.0
 11
2.000000000000001
 21
9.524999999999993
 31
0.0
  0
LINE
  5
38D
330
1F
100
AcDbEntity
  8
외형선
  6
Continuous
370
    15
100
AcDbLine
 10
5.175000000000003
 20
-12.7
 30
0.0
 11
2.000000000000001
 21
-9.524999999999993
 31
0.0
  0
LINE
  5
38E
330
1F
100
AcDbEntity
  8
외형선
  6
Continuous
370
    15
100
AcDbLine
 10
2.000000000000001
 20
-9.524999999999993
 30
0.0
 11
1.999999999999999
 21
9.524999999999993
 31
0.0
  0
LINE
  5
3F7
330
1F
100
AcDbEntity
  8
외형선
  6
Continuous
370
    15
100
AcDbLine
 10
-31.96932499999997
 20
7.61999999999999
 30
0.0
 11
-20.38692499999996
 21
7.61999999999999
 31
0.0
  0
LINE
  5
3F8
330
1F
100
AcDbEntity
  8
외형선
  6
Continuous
370
    15
100
AcDbLine
 10
-31.96932499999997
 20
7.619999999999976
 30
0.0
 11
-33.87432500000011
 21
9.525000000000006
 31
0.0
  0
LINE
  5
3F9
330
1F
100
AcDbEntity
  8
외형선
  6
Continuous
370
    15
100
AcDbLine
 10
-20.38692499999996
 20
7.619999999999976
 30
0.0
 11
-18.48192499999999
 21
9.525000000000006
 31
0.0
  0
LINE
  5
3FA
330
1F
100
AcDbEntity
  8
외형선
  6
Continuous
370
    15
100
AcDbLine
 10
-18.481925
 20
9.524999999999993
 30
0.0
 11
2.0
 21
9.524999999999993
 31
0.0
  0
ENDSEC
  0
SECTION
  2
OBJECTS
  0
DICTIONARY
  5
C
330
0
100
AcDbDictionary
281
     1
  3
ACAD_GROUP
350
D
  3
ACAD_IMAGE_VARS
350
135
  3
ACAD_LAYOUT
350
1A
  3
ACAD_MLINESTYLE
350
17
  3
ACAD_PLOTSETTINGS
350
19
  3
ACAD_PLOTSTYLENAME
350
E
  3
ACAD_SCALELIST
350
47
  3
APPDATA
350
133
  3
DWGPROPS
350
41E
  0
DICTIONARY
  5
1B8
330
2
100
AcDbDictionary
280
     1
281
     1
  3
ACAD_LAYERSTATES
360
1B9
  0
DICTIONARY
  5
D
102
{ACAD_REACTORS
330
C
102
}
330
C
100
AcDbDictionary
281
     1
  0
RASTERVARIABLES
  5
135
102
{ACAD_REACTORS
330
C
102
}
330
C
100
AcDbRasterVariables
 90
        0
 70
     1
 71
     1
 72
     1
  0
DICTIONARY
  5
1A
102
{ACAD_REACTORS
330
C
102
}
330
C
100
AcDbDictionary
281
     1
  3
Layout1
350
1E
  3
Layout2
350
26
  3
Model
350
22
  0
DICTIONARY
  5
17
102
{ACAD_REACTORS
330
C
102
}
330
C
100
AcDbDictionary
281
     1
  3
Standard
350
18
  0
DICTIONARY
  5
19
102
{ACAD_REACTORS
330
C
102
}
330
C
100
AcDbDictionary
281
     1
  0
ACDBDICTIONARYWDFLT
  5
E
102
{ACAD_REACTORS
330
C
102
}
330
C
100
AcDbDictionary
281
     1
  3
Normal
350
F
100
AcDbDictionaryWithDefault
340
F
  0
DICTIONARY
  5
47
102
{ACAD_REACTORS
330
C
102
}
330
C
100
AcDbDictionary
281
     1
  3
A0
350
48
  3
A1
350
49
  3
A2
350
4A
  3
A3
350
4B
  3
A4
350
4C
  3
A5
350
4D
  3
A6
350
4E
  3
A7
350
4F
  3
A8
350
50
  3
A9
350
51
  3
B0
350
52
  3
B1
350
53
  3
B2
350
54
  3
B3
350
55
  3
B4
350
56
  3
B5
350
57
  3
B6
350
58
  3
B7
350
59
  3
B8
350
5A
  3
B9
350
5B
  3
C0
350
5C
  3
C1
350
5D
  3
C2
350
5E
  3
C3
350
5F
  3
C4
350
60
  3
C5
350
61
  3
C6
350
62
  3
C7
350
63
  3
C8
350
64
  3
C9
350
65
  3
D0
350
66
  3
D1
350
67
  3
D2
350
68
  0
DICTIONARY
  5
133
102
{ACAD_REACTORS
330
C
102
}
330
C
100
AcDbDictionary
281
     1
  0
XRECORD
  5
41E
102
{ACAD_REACTORS
330
C
102
}
330
C
100
AcDbXrecord
280
     1
  1
DWGPROPS COOKIE
  2

  3

  4

  6

  7

  8
12016016
  9

300
=
301
=
302
=
303
=
304
=
305
=
306
=
307
=
308
=
309
=
 40
0.0
 41
2458316.210572095
 42
2458320.36492632
  1

 90
        0
  0
DICTIONARY
  5
1B9
102
{ACAD_REACTORS
330
1B8
102
}
330
1B8
100
AcDbDictionary
281
     1
  0
LAYOUT
  5
1E
102
{ACAD_REACTORS
330
1A
102
}
330
1A
100
AcDbPlotSettings
  1

  2
none_device
  4

  6

 40
0.0
 41
0.0
 42
0.0
 43
0.0
 44
0.0
 45
0.0
 46
0.0
 47
0.0
 48
0.0
 49
0.0
140
0.0
141
0.0
142
1.0
143
1.0
 70
   688
 72
     1
 73
     0
 74
     5
  7

 75
    16
147
1.0
148
0.0
149
0.0
100
AcDbLayout
  1
Layout1
 70
     1
 71
     1
 10
0.0
 20
0.0
 11
420.0
 21
297.0
 12
0.0
 22
0.0
 32
0.0
 14
1.000000000000000E+20
 24
1.000000000000000E+20
 34
1.000000000000000E+20
 15
-1.000000000000000E+20
 25
-1.000000000000000E+20
 35
-1.000000000000000E+20
146
0.0
 13
0.0
 23
0.0
 33
0.0
 16
1.0
 26
0.0
 36
0.0
 17
0.0
 27
1.0
 37
0.0
 76
     0
330
1B
  0
LAYOUT
  5
26
102
{ACAD_REACTORS
330
1A
102
}
330
1A
100
AcDbPlotSettings
  1

  2
none_device
  4

  6

 40
0.0
 41
0.0
 42
0.0
 43
0.0
 44
0.0
 45
0.0
 46
0.0
 47
0.0
 48
0.0
 49
0.0
140
0.0
141
0.0
142
1.0
143
1.0
 70
   688
 72
     1
 73
     0
 74
     5
  7

 75
    16
147
1.0
148
0.0
149
0.0
100
AcDbLayout
  1
Layout2
 70
     1
 71
     2
 10
0.0
 20
0.0
 11
0.0
 21
0.0
 12
0.0
 22
0.0
 32
0.0
 14
0.0
 24
0.0
 34
0.0
 15
0.0
 25
0.0
 35
0.0
146
0.0
 13
0.0
 23
0.0
 33
0.0
 16
1.0
 26
0.0
 36
0.0
 17
0.0
 27
1.0
 37
0.0
 76
     0
330
23
  0
LAYOUT
  5
22
102
{ACAD_REACTORS
330
1A
102
}
330
1A
100
AcDbPlotSettings
  1

  2
none_device
  4
ANSI_A_(11.00_x_8.50_Inches)
  6

 40
6.35
 41
19.05
 42
6.35000508
 43
19.05000254
 44
279.4
 45
215.9
 46
111.0518393433956
 47
54.34481831365775
 48
0.0
 49
0.0
140
0.0
141
0.0
142
0.0561387512356856
143
1.0
 70
  1696
 72
     0
 73
     0
 74
     0
  7

 75
     0
147
0.0235690232323232
148
0.0
149
0.0
100
AcDbLayout
  1
Model
 70
     1
 71
     0
 10
0.0
 20
0.0
 11
420.0
 21
297.0
 12
0.0
 22
0.0
 32
0.0
 14
-75.20000000000005
 24
-49.97073246008785
 34
0.0
 15
83.69399512937675
 25
47.00067322023857
 35
0.0
146
0.0
 13
0.0
 23
0.0
 33
0.0
 16
1.0
 26
0.0
 36
0.0
 17
0.0
 27
1.0
 37
0.0
 76
     0
330
1F
331
29
  0
MLINESTYLE
  5
18
102
{ACAD_REACTORS
330
17
102
}
330
17
100
AcDbMlineStyle
  2
Standard
 70
     0
  3

 62
   256
 51
90.0
 52
90.0
 71
     2
 49
0.5
 62
   256
  6
BYLAYER
 49
-0.5
 62
   256
  6
BYLAYER
  0
ACDBPLACEHOLDER
  5
F
102
{ACAD_REACTORS
330
E
102
}
330
E
  0
SCALE
  5
48
102
{ACAD_REACTORS
330
47
102
}
330
47
100
AcDbScale
 70
     0
300
1:1
140
1.0
141
1.0
290
     1
  0
SCALE
  5
49
102
{ACAD_REACTORS
330
47
102
}
330
47
100
AcDbScale
 70
     0
300
1:2
140
1.0
141
2.0
290
     0
  0
SCALE
  5
4A
102
{ACAD_REACTORS
330
47
102
}
330
47
100
AcDbScale
 70
     0
300
1:4
140
1.0
141
4.0
290
     0
  0
SCALE
  5
4B
102
{ACAD_REACTORS
330
47
102
}
330
47
100
AcDbScale
 70
     0
300
1:5
140
1.0
141
5.0
290
     0
  0
SCALE
  5
4C
102
{ACAD_REACTORS
330
47
102
}
330
47
100
AcDbScale
 70
     0
300
1:8
140
1.0
141
8.0
290
     0
  0
SCALE
  5
4D
102
{ACAD_REACTORS
330
47
102
}
330
47
100
AcDbScale
 70
     0
300
1:10
140
1.0
141
10.0
290
     0
  0
SCALE
  5
4E
102
{ACAD_REACTORS
330
47
102
}
330
47
100
AcDbScale
 70
     0
300
1:16
140
1.0
141
16.0
290
     0
  0
SCALE
  5
4F
102
{ACAD_REACTORS
330
47
102
}
330
47
100
AcDbScale
 70
     0
300
1:20
140
1.0
141
20.0
290
     0
  0
SCALE
  5
50
102
{ACAD_REACTORS
330
47
102
}
330
47
100
AcDbScale
 70
     0
300
1:30
140
1.0
141
30.0
290
     0
  0
SCALE
  5
51
102
{ACAD_REACTORS
330
47
102
}
330
47
100
AcDbScale
 70
     0
300
1:40
140
1.0
141
40.0
290
     0
  0
SCALE
  5
52
102
{ACAD_REACTORS
330
47
102
}
330
47
100
AcDbScale
 70
     0
300
1:50
140
1.0
141
50.0
290
     0
  0
SCALE
  5
53
102
{ACAD_REACTORS
330
47
102
}
330
47
100
AcDbScale
 70
     0
300
1:100
140
1.0
141
100.0
290
     0
  0
SCALE
  5
54
102
{ACAD_REACTORS
330
47
102
}
330
47
100
AcDbScale
 70
     0
300
2:1
140
2.0
141
1.0
290
     0
  0
SCALE
  5
55
102
{ACAD_REACTORS
330
47
102
}
330
47
100
AcDbScale
 70
     0
300
4:1
140
4.0
141
1.0
290
     0
  0
SCALE
  5
56
102
{ACAD_REACTORS
330
47
102
}
330
47
100
AcDbScale
 70
     0
300
8:1
140
8.0
141
1.0
290
     0
  0
SCALE
  5
57
102
{ACAD_REACTORS
330
47
102
}
330
47
100
AcDbScale
 70
     0
300
10:1
140
10.0
141
1.0
290
     0
  0
SCALE
  5
58
102
{ACAD_REACTORS
330
47
102
}
330
47
100
AcDbScale
 70
     0
300
100:1
140
100.0
141
1.0
290
     0
  0
SCALE
  5
59
102
{ACAD_REACTORS
330
47
102
}
330
47
100
AcDbScale
 70
     0
300
1/128" = 1'-0"
140
0.0078125
141
12.0
290
     0
  0
SCALE
  5
5A
102
{ACAD_REACTORS
330
47
102
}
330
47
100
AcDbScale
 70
     0
300
1/64" = 1'-0"
140
0.015625
141
12.0
290
     0
  0
SCALE
  5
5B
102
{ACAD_REACTORS
330
47
102
}
330
47
100
AcDbScale
 70
     0
300
1/32" = 1'-0"
140
0.03125
141
12.0
290
     0
  0
SCALE
  5
5C
102
{ACAD_REACTORS
330
47
102
}
330
47
100
AcDbScale
 70
     0
300
1/16" = 1'-0"
140
0.0625
141
12.0
290
     0
  0
SCALE
  5
5D
102
{ACAD_REACTORS
330
47
102
}
330
47
100
AcDbScale
 70
     0
300
3/32" = 1'-0"
140
0.09375
141
12.0
290
     0
  0
SCALE
  5
5E
102
{ACAD_REACTORS
330
47
102
}
330
47
100
AcDbScale
 70
     0
300
1/8" = 1'-0"
140
0.125
141
12.0
290
     0
  0
SCALE
  5
5F
102
{ACAD_REACTORS
330
47
102
}
330
47
100
AcDbScale
 70
     0
300
3/16" = 1'-0"
140
0.1875
141
12.0
290
     0
  0
SCALE
  5
60
102
{ACAD_REACTORS
330
47
102
}
330
47
100
AcDbScale
 70
     0
300
1/4" = 1'-0"
140
0.25
141
12.0
290
     0
  0
SCALE
  5
61
102
{ACAD_REACTORS
330
47
102
}
330
47
100
AcDbScale
 70
     0
300
3/8" = 1'-0"
140
0.375
141
12.0
290
     0
  0
SCALE
  5
62
102
{ACAD_REACTORS
330
47
102
}
330
47
100
AcDbScale
 70
     0
300
1/2" = 1'-0"
140
0.5
141
12.0
290
     0
  0
SCALE
  5
63
102
{ACAD_REACTORS
330
47
102
}
330
47
100
AcDbScale
 70
     0
300
3/4" = 1'-0"
140
0.75
141
12.0
290
     0
  0
SCALE
  5
64
102
{ACAD_REACTORS
330
47
102
}
330
47
100
AcDbScale
 70
     0
300
1" = 1'-0"
140
1.0
141
12.0
290
     0
  0
SCALE
  5
65
102
{ACAD_REACTORS
330
47
102
}
330
47
100
AcDbScale
 70
     0
300
1-1/2" = 1'-0"
140
1.5
141
12.0
290
     0
  0
SCALE
  5
66
102
{ACAD_REACTORS
330
47
102
}
330
47
100
AcDbScale
 70
     0
300
3" = 1'-0"
140
3.0
141
12.0
290
     0
  0
SCALE
  5
67
102
{ACAD_REACTORS
330
47
102
}
330
47
100
AcDbScale
 70
     0
300
6" = 1'-0"
140
6.0
141
12.0
290
     0
  0
SCALE
  5
68
102
{ACAD_REACTORS
330
47
102
}
330
47
100
AcDbScale
 70
     0
300
1'-0" = 1'-0"
140
12.0
141
12.0
290
     0
  0
ENDSEC
  0
EOF
