  0
SECTION
  2
HEADER
  9
$ACADVER
  1
AC1015
  9
$ACADMAINTVER
 70
     6
  9
$DWGCODEPAGE
  3
ANSI_949
  9
$INSBASE
 10
0.0
 20
0.0
 30
0.0
  9
$EXTMIN
 10
-62.52500000000006
 20
-49.97180738881175
 30
0.0
  9
$EXTMAX
 10
92.4322588153456
 20
40.60825000000006
 30
0.0
  9
$LIMMIN
 10
0.0
 20
0.0
  9
$LIMMAX
 10
420.0
 20
297.0
  9
$ORTHOMODE
 70
     0
  9
$REGENMODE
 70
     1
  9
$FILLMODE
 70
     1
  9
$QTEXTMODE
 70
     0
  9
$MIRRTEXT
 70
     1
  9
$LTSCALE
 40
1.0
  9
$ATTMODE
 70
     1
  9
$TEXTSIZE
 40
3.5
  9
$TRACEWID
 40
1.0
  9
$TEXTSTYLE
  7
Standard
  9
$CLAYER
  8
0
  9
$CELTYPE
  6
ByLayer
  9
$CECOLOR
 62
   256
  9
$CELTSCALE
 40
1.0
  9
$DISPSILH
 70
     0
  9
$DIMSCALE
 40
1.0
  9
$DIMASZ
 40
3.302
  9
$DIMEXO
 40
1.0
  9
$DIMDLI
 40
3.75
  9
$DIMRND
 40
0.0
  9
$DIMDLE
 40
0.0
  9
$DIMEXE
 40
1.0
  9
$DIMTP
 40
0.0
  9
$DIMTM
 40
0.0
  9
$DIMTXT
 40
3.5
  9
$DIMCEN
 40
2.5
  9
$DIMTSZ
 40
0.0
  9
$DIMTOL
 70
     0
  9
$DIMLIM
 70
     0
  9
$DIMTIH
 70
     1
  9
$DIMTOH
 70
     1
  9
$DIMSE1
 70
     0
  9
$DIMSE2
 70
     0
  9
$DIMTAD
 70
     1
  9
$DIMZIN
 70
     0
  9
$DIMBLK
  1

  9
$DIMASO
 70
     1
  9
$DIMSHO
 70
     1
  9
$DIMPOST
  1

  9
$DIMAPOST
  1

  9
$DIMALT
 70
     0
  9
$DIMALTD
 70
     3
  9
$DIMALTF
 40
0.0393700787401575
  9
$DIMLFAC
 40
1.0
  9
$DIMTOFL
 70
     1
  9
$DIMTVP
 40
0.0
  9
$DIMTIX
 70
     0
  9
$DIMSOXD
 70
     0
  9
$DIMSAH
 70
     0
  9
$DIMBLK1
  1

  9
$DIMBLK2
  1

  9
$DIMSTYLE
  2
ISO-25
  9
$DIMCLRD
 70
     0
  9
$DIMCLRE
 70
     0
  9
$DIMCLRT
 70
     0
  9
$DIMTFAC
 40
1.0
  9
$DIMGAP
 40
1.524
  9
$DIMJUST
 70
     0
  9
$DIMSD1
 70
     0
  9
$DIMSD2
 70
     0
  9
$DIMTOLJ
 70
     0
  9
$DIMTZIN
 70
     0
  9
$DIMALTZ
 70
     0
  9
$DIMALTTZ
 70
     0
  9
$DIMUPT
 70
     0
  9
$DIMDEC
 70
     2
  9
$DIMTDEC
 70
     2
  9
$DIMALTU
 70
     2
  9
$DIMALTTD
 70
     3
  9
$DIMTXSTY
  7
Standard
  9
$DIMAUNIT
 70
     0
  9
$DIMADEC
 70
     2
  9
$DIMALTRND
 40
0.0
  9
$DIMAZIN
 70
     0
  9
$DIMDSEP
 70
    44
  9
$DIMATFIT
 70
     3
  9
$DIMFRAC
 70
     0
  9
$DIMLDRBLK
  1

  9
$DIMLUNIT
 70
     2
  9
$DIMLWD
 70
    -2
  9
$DIMLWE
 70
    -2
  9
$DIMTMOVE
 70
     0
  9
$LUNITS
 70
     2
  9
$LUPREC
 70
     2
  9
$SKETCHINC
 40
1.0
  9
$FILLETRAD
 40
10.0
  9
$AUNITS
 70
     0
  9
$AUPREC
 70
     2
  9
$MENU
  1
.
  9
$ELEVATION
 40
0.0
  9
$PELEVATION
 40
0.0
  9
$THICKNESS
 40
0.0
  9
$LIMCHECK
 70
     0
  9
$CHAMFERA
 40
0.0
  9
$CHAMFERB
 40
0.0
  9
$CHAMFERC
 40
0.0
  9
$CHAMFERD
 40
0.0
  9
$SKPOLY
 70
     0
  9
$TDCREATE
 40
2458311.642743125
  9
$TDUCREATE
 40
2458311.267743125
  9
$TDUPDATE
 40
2458327.479204421
  9
$TDUUPDATE
 40
2458327.104204421
  9
$TDINDWG
 40
0.0006254861
  9
$TDUSRTIMER
 40
2458327.104117454
  9
$USRTIMER
 70
     1
  9
$ANGBASE
 50
0.0
  9
$ANGDIR
 70
     0
  9
$PDMODE
 70
     0
  9
$PDSIZE
 40
-1.0
  9
$PLINEWID
 40
0.0
  9
$SPLFRAME
 70
     0
  9
$SPLINETYPE
 70
     6
  9
$SPLINESEGS
 70
     8
  9
$HANDSEED
  5
171
  9
$SURFTAB1
 70
     6
  9
$SURFTAB2
 70
     6
  9
$SURFTYPE
 70
     6
  9
$SURFU
 70
     6
  9
$SURFV
 70
     6
  9
$UCSBASE
  2

  9
$UCSNAME
  2

  9
$UCSORG
 10
0.0
 20
0.0
 30
0.0
  9
$UCSXDIR
 10
1.0
 20
0.0
 30
0.0
  9
$UCSYDIR
 10
0.0
 20
1.0
 30
0.0
  9
$UCSORTHOREF
  2

  9
$UCSORTHOVIEW
 70
     0
  9
$UCSORGTOP
 10
0.0
 20
0.0
 30
0.0
  9
$UCSORGBOTTOM
 10
0.0
 20
0.0
 30
0.0
  9
$UCSORGLEFT
 10
0.0
 20
0.0
 30
0.0
  9
$UCSORGRIGHT
 10
0.0
 20
0.0
 30
0.0
  9
$UCSORGFRONT
 10
0.0
 20
0.0
 30
0.0
  9
$UCSORGBACK
 10
0.0
 20
0.0
 30
0.0
  9
$PUCSBASE
  2

  9
$PUCSNAME
  2

  9
$PUCSORG
 10
0.0
 20
0.0
 30
0.0
  9
$PUCSXDIR
 10
1.0
 20
0.0
 30
0.0
  9
$PUCSYDIR
 10
0.0
 20
1.0
 30
0.0
  9
$PUCSORTHOREF
  2

  9
$PUCSORTHOVIEW
 70
     0
  9
$PUCSORGTOP
 10
0.0
 20
0.0
 30
0.0
  9
$PUCSORGBOTTOM
 10
0.0
 20
0.0
 30
0.0
  9
$PUCSORGLEFT
 10
0.0
 20
0.0
 30
0.0
  9
$PUCSORGRIGHT
 10
0.0
 20
0.0
 30
0.0
  9
$PUCSORGFRONT
 10
0.0
 20
0.0
 30
0.0
  9
$PUCSORGBACK
 10
0.0
 20
0.0
 30
0.0
  9
$USERI1
 70
     0
  9
$USERI2
 70
     0
  9
$USERI3
 70
     0
  9
$USERI4
 70
     0
  9
$USERI5
 70
     0
  9
$USERR1
 40
0.0
  9
$USERR2
 40
0.0
  9
$USERR3
 40
0.0
  9
$USERR4
 40
0.0
  9
$USERR5
 40
0.0
  9
$WORLDVIEW
 70
     1
  9
$SHADEDGE
 70
     3
  9
$SHADEDIF
 70
    70
  9
$TILEMODE
 70
     1
  9
$MAXACTVP
 70
    64
  9
$PINSBASE
 10
0.0
 20
0.0
 30
0.0
  9
$PLIMCHECK
 70
     0
  9
$PEXTMIN
 10
1.000000000000000E+20
 20
1.000000000000000E+20
 30
1.000000000000000E+20
  9
$PEXTMAX
 10
-1.000000000000000E+20
 20
-1.000000000000000E+20
 30
-1.000000000000000E+20
  9
$PLIMMIN
 10
0.0
 20
0.0
  9
$PLIMMAX
 10
0.0
 20
0.0
  9
$UNITMODE
 70
     0
  9
$VISRETAIN
 70
     1
  9
$PLINEGEN
 70
     0
  9
$PSLTSCALE
 70
     1
  9
$TREEDEPTH
 70
  3020
  9
$CMLSTYLE
  2
Standard
  9
$CMLJUST
 70
     0
  9
$CMLSCALE
 40
20.0
  9
$PROXYGRAPHICS
 70
     1
  9
$MEASUREMENT
 70
     1
  9
$CELWEIGHT
370
    -1
  9
$ENDCAPS
280
     0
  9
$JOINSTYLE
280
     0
  9
$LWDISPLAY
290
     1
  9
$INSUNITS
 70
     4
  9
$HYPERLINKBASE
  1

  9
$STYLESHEET
  1

  9
$XEDIT
290
     1
  9
$CEPSNTYPE
380
     0
  9
$PSTYLEMODE
290
     1
  9
$FINGERPRINTGUID
  2
{735D702A-EB7A-4F25-B4A7-416DF4672D70}
  9
$VERSIONGUID
  2
{FAEB1C32-E019-11D5-929B-00C0DF256EC4}
  9
$EXTNAMES
290
     1
  9
$PSVPSCALE
 40
0.0
  9
$OLESTARTUP
290
     0
  0
ENDSEC
  0
SECTION
  2
CLASSES
  0
CLASS
  1
ACDBDICTIONARYWDFLT
  2
AcDbDictionaryWithDefault
  3
ObjectDBX Classes
 90
        0
280
     0
281
     0
  0
CLASS
  1
VISUALSTYLE
  2
AcDbVisualStyle
  3
ObjectDBX Classes
 90
     4095
280
     0
281
     0
  0
CLASS
  1
MATERIAL
  2
AcDbMaterial
  3
ObjectDBX Classes
 90
     1153
280
     0
281
     0
  0
CLASS
  1
SCALE
  2
AcDbScale
  3
ObjectDBX Classes
 90
     1153
280
     0
281
     0
  0
CLASS
  1
SUN
  2
AcDbSun
  3
SCENEOE
 90
     1153
280
     0
281
     0
  0
CLASS
  1
ACDBPLACEHOLDER
  2
AcDbPlaceHolder
  3
ObjectDBX Classes
 90
        0
280
     0
281
     0
  0
CLASS
  1
LAYOUT
  2
AcDbLayout
  3
ObjectDBX Classes
 90
        0
280
     0
281
     0
  0
CLASS
  1
TABLESTYLE
  2
AcDbTableStyle
  3
ObjectDBX Classes
 90
     4095
280
     0
281
     0
  0
CLASS
  1
MLEADERSTYLE
  2
AcDbMLeaderStyle
  3
ACDB_MLEADERSTYLE_CLASS
 90
     4095
280
     0
281
     0
  0
CLASS
  1
RASTERVARIABLES
  2
AcDbRasterVariables
  3
ISM
 90
        0
280
     0
281
     0
  0
ENDSEC
  0
SECTION
  2
TABLES
  0
TABLE
  2
VPORT
  5
8
330
0
100
AcDbSymbolTable
 70
     1
  0
VPORT
  5
29
330
8
100
AcDbSymbolTableRecord
100
AcDbViewportTableRecord
  2
*Active
 70
     0
 10
0.0
 20
0.0
 11
1.0
 21
1.0
 12
-5.912306958619396
 22
-15.71223076079654
 13
0.0
 23
0.0
 14
10.0
 24
10.0
 15
10.0
 25
10.0
 16
0.0
 26
0.0
 36
1.0
 17
0.0
 27
0.0
 37
0.0
 40
129.252075649791
 41
1.591876208897486
 42
50.0
 43
0.0
 44
0.0
 50
0.0
 51
0.0
 71
    16
 72
  2000
 73
     1
 74
     3
 75
     0
 76
     0
 77
     0
 78
     0
281
     0
 65
     1
110
0.0
120
0.0
130
0.0
111
1.0
121
0.0
131
0.0
112
0.0
122
1.0
132
0.0
 79
     0
146
0.0
  0
ENDTAB
  0
TABLE
  2
LTYPE
  5
5
330
0
100
AcDbSymbolTable
 70
     6
  0
LTYPE
  5
14
330
5
100
AcDbSymbolTableRecord
100
AcDbLinetypeTableRecord
  2
ByBlock
 70
     0
  3

 72
    65
 73
     0
 40
0.0
  0
LTYPE
  5
15
330
5
100
AcDbSymbolTableRecord
100
AcDbLinetypeTableRecord
  2
ByLayer
 70
     0
  3

 72
    65
 73
     0
 40
0.0
  0
LTYPE
  5
16
330
5
100
AcDbSymbolTableRecord
100
AcDbLinetypeTableRecord
  2
Continuous
 70
     0
  3
Solid line
 72
    65
 73
     0
 40
0.0
  0
LTYPE
  5
6A
330
5
100
AcDbSymbolTableRecord
100
AcDbLinetypeTableRecord
  2
HIDDEN
 70
     0
  3
Hidden __ __ __ __ __ __ __ __ __ __ __ __ __ __
 72
    65
 73
     2
 40
1.905
 49
1.27
 74
     0
 49
-0.635
 74
     0
  0
LTYPE
  5
6B
330
5
100
AcDbSymbolTableRecord
100
AcDbLinetypeTableRecord
  2
PHANTOM
 70
     0
  3
Phantom ______  __  __  ______  __  __  ______
 72
    65
 73
     6
 40
12.7
 49
6.35
 74
     0
 49
-1.27
 74
     0
 49
1.27
 74
     0
 49
-1.27
 74
     0
 49
1.27
 74
     0
 49
-1.27
 74
     0
  0
LTYPE
  5
6C
330
5
100
AcDbSymbolTableRecord
100
AcDbLinetypeTableRecord
  2
CENTER
 70
     0
  3
Center ____ _ ____ _ ____ _ ____ _ ____ _ ____
 72
    65
 73
     4
 40
10.16
 49
6.35
 74
     0
 49
-1.27
 74
     0
 49
1.27
 74
     0
 49
-1.27
 74
     0
  0
LTYPE
  5
6D
330
5
100
AcDbSymbolTableRecord
100
AcDbLinetypeTableRecord
  2
CENTERX2
 70
     0
  3
Center (2x) ________  __  ________  __  _____
 72
    65
 73
     4
 40
20.32
 49
12.7
 74
     0
 49
-2.54
 74
     0
 49
2.54
 74
     0
 49
-2.54
 74
     0
  0
LTYPE
  5
6E
330
5
100
AcDbSymbolTableRecord
100
AcDbLinetypeTableRecord
  2
DOT2
 70
     0
  3
Dot (.5x) ........................................
 72
    65
 73
     2
 40
0.635
 49
0.0
 74
     0
 49
-0.635
 74
     0
  0
ENDTAB
  0
TABLE
  2
LAYER
  5
2
330
0
100
AcDbSymbolTable
 70
    18
  0
LAYER
  5
10
330
2
100
AcDbSymbolTableRecord
100
AcDbLayerTableRecord
  2
0
 70
     0
 62
     7
  6
Continuous
370
    -3
390
F
  0
LAYER
  5
6F
330
2
100
AcDbSymbolTableRecord
100
AcDbLayerTableRecord
  2
FORMAT
 70
     0
 62
     2
  6
Continuous
370
    -3
390
F
  0
LAYER
  5
70
330
2
100
AcDbSymbolTableRecord
100
AcDbLayerTableRecord
  2
외형선
 70
     0
 62
     4
  6
Continuous
370
    30
390
F
  0
LAYER
  5
71
330
2
100
AcDbSymbolTableRecord
100
AcDbLayerTableRecord
  2
숨은선
 70
     0
 62
     2
  6
HIDDEN
370
    15
390
F
  0
LAYER
  5
72
330
2
100
AcDbSymbolTableRecord
100
AcDbLayerTableRecord
  2
중심선
 70
     0
 62
     1
  6
CENTERX2
370
    -3
390
F
  0
LAYER
  5
73
330
2
100
AcDbSymbolTableRecord
100
AcDbLayerTableRecord
  2
파단선
 70
     0
 62
     4
  6
Continuous
370
    -3
390
F
  0
LAYER
  5
74
330
2
100
AcDbSymbolTableRecord
100
AcDbLayerTableRecord
  2
해칭선
 70
     0
 62
   100
  6
Continuous
370
    -3
390
F
  0
LAYER
  5
75
330
2
100
AcDbSymbolTableRecord
100
AcDbLayerTableRecord
  2
가는실선
 70
     0
 62
     4
  6
Continuous
370
    -3
390
F
  0
LAYER
  5
76
330
2
100
AcDbSymbolTableRecord
100
AcDbLayerTableRecord
  2
치수_보조선
 70
     0
 62
     4
  6
Continuous
370
    -3
390
F
  0
LAYER
  5
77
330
2
100
AcDbSymbolTableRecord
100
AcDbLayerTableRecord
  2
치수문자_일반주서
 70
     0
 62
     7
  6
Continuous
370
    15
390
F
  0
LAYER
  5
78
330
2
100
AcDbSymbolTableRecord
100
AcDbLayerTableRecord
  2
개별주서
 70
     0
 62
   100
  6
Continuous
370
    30
390
F
  0
LAYER
  5
79
330
2
100
AcDbSymbolTableRecord
100
AcDbLayerTableRecord
  2
중간선
 70
     0
 62
     2
  6
Continuous
370
    15
390
F
  0
LAYER
  5
7A
330
2
100
AcDbSymbolTableRecord
100
AcDbLayerTableRecord
  2
윤곽선
 70
     0
 62
     3
  6
Continuous
370
    40
390
F
  0
LAYER
  5
7B
330
2
100
AcDbSymbolTableRecord
100
AcDbLayerTableRecord
  2
중심마크
 70
     0
 62
   100
  6
Continuous
370
    30
390
F
  0
LAYER
  5
7C
330
2
100
AcDbSymbolTableRecord
100
AcDbLayerTableRecord
  2
가상선
 70
     0
 62
     4
  6
PHANTOM
370
    -3
390
F
  0
LAYER
  5
7D
330
2
100
AcDbSymbolTableRecord
100
AcDbLayerTableRecord
  2
특수지정선
 70
     0
 62
     5
  6
CENTERX2
370
    60
390
F
  0
LAYER
  5
7E
330
2
100
AcDbSymbolTableRecord
100
AcDbLayerTableRecord
  2
참조1
 70
     0
 62
    -4
  6
Continuous
370
    -3
390
F
  0
LAYER
  5
147
330
2
100
AcDbSymbolTableRecord
100
AcDbLayerTableRecord
  2
Defpoints
 70
     0
 62
     7
  6
Continuous
290
     0
370
    -3
390
F
  0
ENDTAB
  0
TABLE
  2
STYLE
  5
3
330
0
100
AcDbSymbolTable
 70
     2
  0
STYLE
  5
11
330
3
100
AcDbSymbolTableRecord
100
AcDbTextStyleTableRecord
  2
Standard
 70
     0
 40
0.0
 41
1.0
 50
0.0
 71
     0
 42
3.5
  3
txt
  4

  0
STYLE
  5
94
330
3
100
AcDbSymbolTableRecord
100
AcDbTextStyleTableRecord
  2
SLDTEXTSTYLE0
 70
     0
 40
0.0
 41
0.75
 50
0.0
 71
     0
 42
3.5
  3
TXT
  4

  0
ENDTAB
  0
TABLE
  2
VIEW
  5
6
330
0
100
AcDbSymbolTable
 70
     0
  0
ENDTAB
  0
TABLE
  2
UCS
  5
7
330
0
100
AcDbSymbolTable
 70
     0
  0
ENDTAB
  0
TABLE
  2
APPID
  5
9
330
0
100
AcDbSymbolTable
 70
     1
  0
APPID
  5
12
330
9
100
AcDbSymbolTableRecord
100
AcDbRegAppTableRecord
  2
ACAD
 70
     0
  0
ENDTAB
  0
TABLE
  2
DIMSTYLE
  5
A
330
0
100
AcDbSymbolTable
 70
     3
100
AcDbDimStyleTable
  0
DIMSTYLE
105
27
330
A
100
AcDbSymbolTableRecord
100
AcDbDimStyleTableRecord
  2
ISO-25
 70
     0
 41
2.5
 42
0.625
 43
3.75
 44
1.25
 73
     0
 74
     0
 77
     1
 78
     8
140
2.5
141
2.5
143
0.03937007874016
147
0.625
171
     3
172
     1
178
     0
271
     2
272
     2
274
     3
278
    44
283
     0
284
     8
340
11
  0
DIMSTYLE
105
C7
102
{ACAD_REACTORS
330
C6
330
EF
330
102
102
}
330
A
100
AcDbSymbolTableRecord
100
AcDbDimStyleTableRecord
  2
SLDDIMSTYLE0
 70
     0
 41
3.302
 44
0.0
 45
0.000000001
 73
     0
 74
     0
 77
     1
 78
    12
 79
     3
140
3.5
143
0.0393700787401575
147
0.875
148
0.000000001
170
     1
173
     1
178
     0
271
     2
272
     2
276
     2
284
    12
340
94
  0
DIMSTYLE
105
DB
102
{ACAD_REACTORS
330
DA
102
}
330
A
100
AcDbSymbolTableRecord
100
AcDbDimStyleTableRecord
  2
SLDDIMSTYLE1
 70
     0
 41
3.302
 44
0.0
 45
0.000000001
 73
     0
 74
     0
 77
     1
 78
    12
 79
     3
140
3.5
143
0.0393700787401575
147
0.875
148
0.000000001
170
     1
172
     1
173
     1
178
     0
271
     2
272
     2
276
     2
284
    12
289
     0
340
94
  0
ENDTAB
  0
TABLE
  2
BLOCK_RECORD
  5
1
330
0
100
AcDbSymbolTable
 70
     7
  0
BLOCK_RECORD
  5
1F
330
1
100
AcDbSymbolTableRecord
100
AcDbBlockTableRecord
  2
*Model_Space
340
22
  0
BLOCK_RECORD
  5
1B
330
1
100
AcDbSymbolTableRecord
100
AcDbBlockTableRecord
  2
*Paper_Space
340
1E
  0
BLOCK_RECORD
  5
23
330
1
100
AcDbSymbolTableRecord
100
AcDbBlockTableRecord
  2
*Paper_Space0
340
26
  0
BLOCK_RECORD
  5
7F
330
1
100
AcDbSymbolTableRecord
100
AcDbBlockTableRecord
  2
블럭10
340
0
102
{BLKREFS
331
BF
102
}
  0
BLOCK_RECORD
  5
C8
330
1
100
AcDbSymbolTableRecord
100
AcDbBlockTableRecord
  2
_D
340
0
  0
BLOCK_RECORD
  5
DC
330
1
100
AcDbSymbolTableRecord
100
AcDbBlockTableRecord
  2
_D_1
340
0
  0
BLOCK_RECORD
  5
F0
330
1
100
AcDbSymbolTableRecord
100
AcDbBlockTableRecord
  2
_D_2
340
0
  0
BLOCK_RECORD
  5
103
330
1
100
AcDbSymbolTableRecord
100
AcDbBlockTableRecord
  2
_D_3
340
0
  0
BLOCK_RECORD
  5
11C
330
1
100
AcDbSymbolTableRecord
100
AcDbBlockTableRecord
  2
SW_DOWELSYMBOL_0
340
0
102
{BLKREFS
331
122
102
}
  0
ENDTAB
  0
ENDSEC
  0
SECTION
  2
BLOCKS
  0
BLOCK
  5
20
330
1F
100
AcDbEntity
  8
0
100
AcDbBlockBegin
  2
*Model_Space
 70
     0
 10
0.0
 20
0.0
 30
0.0
  3
*Model_Space
  1
*Model_Space
  0
ENDBLK
  5
21
330
1F
100
AcDbEntity
  8
0
100
AcDbBlockEnd
  0
BLOCK
  5
1C
330
1B
100
AcDbEntity
 67
     1
  8
0
100
AcDbBlockBegin
  2
*Paper_Space
 70
     0
 10
0.0
 20
0.0
 30
0.0
  3
*Paper_Space
  1
*Paper_Space
  0
ENDBLK
  5
1D
330
1B
100
AcDbEntity
 67
     1
  8
0
100
AcDbBlockEnd
  0
BLOCK
  5
24
330
23
100
AcDbEntity
  8
0
100
AcDbBlockBegin
  2
*Paper_Space0
 70
     0
 10
0.0
 20
0.0
 30
0.0
  3
*Paper_Space0
  1
*Paper_Space0
  0
ENDBLK
  5
25
330
23
100
AcDbEntity
  8
0
100
AcDbBlockEnd
  0
BLOCK
  5
80
330
7F
100
AcDbEntity
  8
0
100
AcDbBlockBegin
  2
블럭10
 70
     2
 10
0.0
 20
0.0
 30
0.0
  3
블럭10
  1
블럭10
  0
ELLIPSE
  5
82
330
7F
100
AcDbEntity
  8
중심선
100
AcDbEllipse
 10
20.54032771741204
 20
12.0471743016438
 30
0.0
 11
6.600054785286829
 21
-1.261213355974178E-13
 31
0.0
210
0.0
220
0.0
230
1.0
 40
0.636358354079598
 41
0.9219305317359503
 42
6.513795318482858
  0
ELLIPSE
  5
83
330
7F
100
AcDbEntity
  8
중심선
100
AcDbEllipse
 10
20.54032771746488
 20
12.04717430159265
 30
0.0
 11
3.960054785062283
 21
1.540847449632565E-10
 31
0.0
210
0.0
220
0.0
230
1.0
 40
0.3939339440162632
 41
1.131841032648279
 42
5.62031148352944
  0
LINE
  5
84
330
7F
100
AcDbEntity
  8
중심선
100
AcDbLine
 10
2.268634060543552
 20
16.24717430164393
 30
0.0
 11
5.714909304380834
 21
16.24717430164393
 31
0.0
  0
LINE
  5
85
330
7F
100
AcDbEntity
  8
중심선
100
AcDbLine
 10
5.245725140726316
 20
7.84717430164391
 30
0.0
 11
8.692000384563599
 21
7.84717430164391
 31
0.0
  0
LINE
  5
86
330
7F
100
AcDbEntity
  8
중심선
100
AcDbLine
 10
15.74043728645272
 20
16.24717430164393
 30
0.0
 11
8.692000384563599
 21
7.84717430164391
 31
0.0
  0
LINE
  5
87
330
7F
100
AcDbEntity
  8
중심선
100
AcDbLine
 10
0.1404042013395286
 20
13.71084872107135
 30
0.0
 11
3.58671253028996
 21
13.71088815037384
 31
0.0
  0
LINE
  5
88
330
7F
100
AcDbEntity
  8
중심선
100
AcDbLine
 10
2.750260043222114
 20
10.84717430164391
 30
0.0
 11
6.196535287059397
 21
10.84717430164391
 31
0.0
  0
LINE
  5
89
330
7F
100
AcDbEntity
  8
중심선
100
AcDbLine
 10
12.29416204261559
 20
16.24717430164393
 30
0.0
 11
5.245725140726316
 21
7.84717430164391
 31
0.0
  0
LINE
  5
8A
330
7F
100
AcDbEntity
  8
중심선
100
AcDbLine
 10
10.72767329541681
 20
16.24717430164393
 30
0.0
 11
6.196535287059397
 21
10.84717430164391
 31
0.0
  0
LINE
  5
8B
330
7F
100
AcDbEntity
  8
중심선
100
AcDbLine
 10
7.28139805157953
 20
16.24717430164393
 30
0.0
 11
2.750260043222114
 21
10.84717430164391
 31
0.0
  0
LINE
  5
8C
330
7F
100
AcDbEntity
  8
중심선
100
AcDbLine
 10
5.714909304380834
 20
16.24717430164393
 30
0.0
 11
3.58671253028996
 21
13.71088815037384
 31
0.0
  0
LINE
  5
8D
330
7F
100
AcDbEntity
  8
중심선
100
AcDbLine
 10
2.268634060543552
 20
16.24717430164393
 30
0.0
 11
0.1404042013395286
 21
13.71084872107135
 31
0.0
  0
LINE
  5
8E
330
7F
100
AcDbEntity
  8
중심선
100
AcDbLine
 10
7.28139805157953
 20
16.24717430164393
 30
0.0
 11
10.72767329541681
 21
16.24717430164393
 31
0.0
  0
LINE
  5
8F
330
7F
100
AcDbEntity
  8
중심선
100
AcDbLine
 10
12.29416204261559
 20
16.24717430164393
 30
0.0
 11
15.74043728645272
 21
16.24717430164393
 31
0.0
  0
LINE
  5
90
330
7F
100
AcDbEntity
  8
중심선
100
AcDbLine
 10
19.22036997980202
 20
11.08717430171403
 30
0.0
 11
23.66174974927406
 21
11.08717430171406
 31
0.0
  0
LINE
  5
91
330
7F
100
AcDbEntity
  8
중심선
100
AcDbLine
 10
19.22039502424796
 20
13.00717430171391
 30
0.0
 11
19.22036997980202
 21
11.08717430171403
 31
0.0
  0
LINE
  5
92
330
7F
100
AcDbEntity
  8
중심선
100
AcDbLine
 10
19.22039502424796
 20
13.00717430171391
 30
0.0
 11
26.96566020931264
 21
13.00717430171391
 31
0.0
  0
LINE
  5
93
330
7F
100
AcDbEntity
  8
중심선
100
AcDbLine
 10
22.22332737316547
 20
13.45928029700563
 30
0.0
 11
24.52862924686651
 21
15.39360700705356
 31
0.0
  0
ATTDEF
  5
95
330
7F
100
AcDbEntity
  8
FORMAT
 62
     2
100
AcDbText
 10
4.408487351596664
 20
2.075366912832191
 30
0.0
 40
4.233333333333333
  1
E2120048
 41
0.75
  7
SLDTEXTSTYLE0
 11
4.408487351596664
 21
-0.0412997538344756
 31
0.0
100
AcDbAttributeDefinition
  3

  2
AUTOATTR0
 70
     0
 74
     1
  0
ENDBLK
  5
81
330
7F
100
AcDbEntity
  8
0
100
AcDbBlockEnd
  0
BLOCK
  5
C9
330
C8
100
AcDbEntity
  8
0
100
AcDbBlockBegin
  2
_D
 70
     0
 10
0.0
 20
0.0
 30
0.0
  3
_D
  1
_D
  0
LINE
  5
CB
330
C8
100
AcDbEntity
  8
치수문자_일반주서
 62
     0
370
    -2
100
AcDbLine
 10
-45.15
 20
9.087499999999991
 30
0.0
 11
-45.15
 21
32.71605032795721
 31
0.0
  0
LINE
  5
CC
330
C8
100
AcDbEntity
  8
치수문자_일반주서
 62
     0
370
    -2
100
AcDbLine
 10
53.275
 20
-1.174833795657011
 30
0.0
 11
53.275
 21
32.71605032795721
 31
0.0
  0
LINE
  5
CD
330
C8
100
AcDbEntity
  8
치수문자_일반주서
 62
     0
370
    -2
100
AcDbLine
 10
-41.848
 20
32.71605032795721
 30
0.0
 11
49.973
 21
32.71605032795721
 31
0.0
  0
SOLID
  5
CE
330
C8
100
AcDbEntity
  8
치수문자_일반주서
 62
     0
100
AcDbTrace
 10
-41.848
 20
33.26638366129055
 30
0.0
 11
-41.848
 21
32.16571699462388
 31
0.0
 12
-45.15
 22
32.71605032795721
 32
0.0
 13
-45.15
 23
32.71605032795721
 33
0.0
  0
SOLID
  5
CF
330
C8
100
AcDbEntity
  8
치수문자_일반주서
 62
     0
100
AcDbTrace
 10
49.973
 20
32.16571699462388
 30
0.0
 11
49.973
 21
33.26638366129055
 31
0.0
 12
53.275
 22
32.71605032795721
 32
0.0
 13
53.275
 23
32.71605032795721
 33
0.0
  0
MTEXT
  5
D0
330
C8
100
AcDbEntity
  8
치수문자_일반주서
 62
     0
100
AcDbMText
 10
4.062500000000002
 20
37.09105032795721
 30
0.0
 40
3.5
 41
0.0
 71
     2
 72
     1
  1
\A1;98.43 [3 7/8]
  7
SLDTEXTSTYLE0
 73
     1
 44
1.0
  0
POINT
  5
D1
330
C8
100
AcDbEntity
  8
Defpoints
 62
     0
100
AcDbPoint
 10
-45.15
 20
9.024999999999991
 30
0.0
  0
POINT
  5
D2
330
C8
100
AcDbEntity
  8
Defpoints
 62
     0
100
AcDbPoint
 10
53.275
 20
-1.237333795657011
 30
0.0
  0
POINT
  5
D3
330
C8
100
AcDbEntity
  8
Defpoints
 62
     0
100
AcDbPoint
 10
53.275
 20
32.71605032795721
 30
0.0
  0
ENDBLK
  5
CA
330
C8
100
AcDbEntity
  8
0
100
AcDbBlockEnd
  0
BLOCK
  5
DD
330
DC
100
AcDbEntity
  8
0
100
AcDbBlockBegin
  2
_D_1
 70
     0
 10
0.0
 20
0.0
 30
0.0
  3
_D_1
  1
_D_1
  0
LINE
  5
DF
330
DC
100
AcDbEntity
  8
치수문자_일반주서
 62
     0
370
    -2
100
AcDbLine
 10
-44.7125
 20
9.525000000000004
 30
0.0
 11
-58.15000000000004
 21
9.524999999999954
 31
0.0
  0
LINE
  5
E0
330
DC
100
AcDbEntity
  8
치수문자_일반주서
 62
     0
370
    -2
100
AcDbLine
 10
-44.7125
 20
-9.525000000000007
 30
0.0
 11
-58.14999999999998
 21
-9.525000000000057
 31
0.0
  0
LINE
  5
E1
330
DC
100
AcDbEntity
  8
치수문자_일반주서
 62
     0
370
    -2
100
AcDbLine
 10
-58.15000000000003
 20
6.222999999999955
 30
0.0
 11
-58.14999999999999
 21
-6.223000000000058
 31
0.0
  0
SOLID
  5
E2
330
DC
100
AcDbEntity
  8
치수문자_일반주서
 62
     0
100
AcDbTrace
 10
-57.59966666666669
 20
6.222999999999956
 30
0.0
 11
-58.70033333333336
 21
6.222999999999953
 31
0.0
 12
-58.15000000000004
 22
9.524999999999954
 32
0.0
 13
-58.15000000000004
 23
9.524999999999954
 33
0.0
  0
SOLID
  5
E3
330
DC
100
AcDbEntity
  8
치수문자_일반주서
 62
     0
100
AcDbTrace
 10
-58.70033333333333
 20
-6.223000000000059
 30
0.0
 11
-57.59966666666666
 21
-6.223000000000056
 31
0.0
 12
-58.14999999999998
 22
-9.525000000000057
 32
0.0
 13
-58.14999999999998
 23
-9.525000000000057
 33
0.0
  0
MTEXT
  5
E4
330
DC
100
AcDbEntity
  8
치수문자_일반주서
 62
     0
100
AcDbMText
 10
-62.52500000000001
 20
-0.0000000000000033
 30
0.0
 40
3.5
 41
0.0
 71
     2
 72
     1
  1
\A1;%%c19.05 [3/4]
  7
SLDTEXTSTYLE0
 11
-3.356894814614645E-15
 21
1.0
 31
0.0
 73
     1
 44
1.0
  0
POINT
  5
E5
330
DC
100
AcDbEntity
  8
Defpoints
 62
     0
100
AcDbPoint
 10
-44.65
 20
9.525000000000004
 30
0.0
  0
POINT
  5
E6
330
DC
100
AcDbEntity
  8
Defpoints
 62
     0
100
AcDbPoint
 10
-44.65
 20
-9.525000000000007
 30
0.0
  0
POINT
  5
E7
330
DC
100
AcDbEntity
  8
Defpoints
 62
     0
100
AcDbPoint
 10
-58.14999999999998
 20
-9.525000000000057
 30
0.0
  0
ENDBLK
  5
DE
330
DC
100
AcDbEntity
  8
0
100
AcDbBlockEnd
  0
BLOCK
  5
F1
330
F0
100
AcDbEntity
  8
0
100
AcDbBlockBegin
  2
_D_2
 70
     0
 10
0.0
 20
0.0
 30
0.0
  3
_D_2
  1
_D_2
  0
LINE
  5
F3
330
F0
100
AcDbEntity
  8
치수문자_일반주서
 62
     0
370
    -2
100
AcDbLine
 10
53.275
 20
6.22997526278349
 30
0.0
 11
53.275
 21
17.64211081217373
 31
0.0
  0
LINE
  5
F4
330
F0
100
AcDbEntity
  8
치수문자_일반주서
 62
     0
370
    -2
100
AcDbLine
 10
12.00000000000001
 20
9.026945176394339
 30
0.0
 11
12.00000000000001
 21
17.64211081217373
 31
0.0
  0
LINE
  5
F5
330
F0
100
AcDbEntity
  8
치수문자_일반주서
 62
     0
370
    -2
100
AcDbLine
 10
49.973
 20
17.64211081217373
 30
0.0
 11
15.30200000000001
 21
17.64211081217373
 31
0.0
  0
SOLID
  5
F6
330
F0
100
AcDbEntity
  8
치수문자_일반주서
 62
     0
100
AcDbTrace
 10
49.973
 20
17.09177747884039
 30
0.0
 11
49.973
 21
18.19244414550706
 31
0.0
 12
53.275
 22
17.64211081217373
 32
0.0
 13
53.275
 23
17.64211081217373
 33
0.0
  0
SOLID
  5
F7
330
F0
100
AcDbEntity
  8
치수문자_일반주서
 62
     0
100
AcDbTrace
 10
15.30200000000001
 20
18.19244414550706
 30
0.0
 11
15.30200000000001
 21
17.09177747884039
 31
0.0
 12
12.00000000000001
 22
17.64211081217373
 32
0.0
 13
12.00000000000001
 23
17.64211081217373
 33
0.0
  0
MTEXT
  5
F8
330
F0
100
AcDbEntity
  8
치수문자_일반주서
 62
     0
100
AcDbMText
 10
33.95705664698858
 20
22.01711081217373
 30
0.0
 40
3.5
 41
0.0
 71
     2
 72
     1
  1
\A1;41.28 [1 5/8]
  7
SLDTEXTSTYLE0
 73
     1
 44
1.0
  0
POINT
  5
F9
330
F0
100
AcDbEntity
  8
Defpoints
 62
     0
100
AcDbPoint
 10
53.275
 20
6.16747526278349
 30
0.0
  0
POINT
  5
FA
330
F0
100
AcDbEntity
  8
Defpoints
 62
     0
100
AcDbPoint
 10
12.00000000000001
 20
8.964445176394339
 30
0.0
  0
POINT
  5
FB
330
F0
100
AcDbEntity
  8
Defpoints
 62
     0
100
AcDbPoint
 10
12.00000000000001
 20
17.64211081217373
 30
0.0
  0
ENDBLK
  5
F2
330
F0
100
AcDbEntity
  8
0
100
AcDbBlockEnd
  0
BLOCK
  5
104
330
103
100
AcDbEntity
  8
0
100
AcDbBlockBegin
  2
_D_3
 70
     0
 10
0.0
 20
0.0
 30
0.0
  3
_D_3
  1
_D_3
  0
LINE
  5
106
330
103
100
AcDbEntity
  8
치수문자_일반주서
 62
     0
370
    -2
100
AcDbLine
 10
53.3375
 20
9.525000000000002
 30
0.0
 11
70.64563443570704
 21
9.525000000000063
 31
0.0
  0
LINE
  5
107
330
103
100
AcDbEntity
  8
치수문자_일반주서
 62
     0
370
    -2
100
AcDbLine
 10
45.73312126910534
 20
-9.525000000000006
 30
0.0
 11
70.64563443570711
 21
-9.524999999999913
 31
0.0
  0
LINE
  5
108
330
103
100
AcDbEntity
  8
치수문자_일반주서
 62
     0
370
    -2
100
AcDbLine
 10
70.64563443570704
 20
9.525000000000063
 30
0.0
 11
70.64563443570691
 21
40.60825000000006
 31
0.0
  0
LINE
  5
109
330
103
100
AcDbEntity
  8
치수문자_일반주서
 62
     0
370
    -2
100
AcDbLine
 10
70.64563443570705
 20
6.223000000000063
 30
0.0
 11
70.6456344357071
 21
-6.222999999999914
 31
0.0
  0
SOLID
  5
10A
330
103
100
AcDbEntity
  8
치수문자_일반주서
 62
     0
100
AcDbTrace
 10
71.19596776904038
 20
6.223000000000065
 30
0.0
 11
70.09530110237372
 21
6.223000000000061
 31
0.0
 12
70.64563443570704
 22
9.525000000000063
 32
0.0
 13
70.64563443570704
 23
9.525000000000063
 33
0.0
  0
SOLID
  5
10B
330
103
100
AcDbEntity
  8
치수문자_일반주서
 62
     0
100
AcDbTrace
 10
70.09530110237377
 20
-6.222999999999915
 30
0.0
 11
71.19596776904042
 21
-6.222999999999912
 31
0.0
 12
70.64563443570711
 22
-9.524999999999913
 32
0.0
 13
70.64563443570711
 23
-9.524999999999913
 33
0.0
  0
MTEXT
  5
10C
330
103
100
AcDbEntity
  8
치수문자_일반주서
 62
     0
100
AcDbMText
 10
66.27063443570697
 20
26.82700000000004
 30
0.0
 40
3.5
 41
0.0
 71
     2
 72
     1
  1
\A1;%%c19.05 [3/4]
  7
SLDTEXTSTYLE0
 11
-3.729883127349612E-15
 21
1.0
 31
0.0
 73
     1
 44
1.0
  0
POINT
  5
10D
330
103
100
AcDbEntity
  8
Defpoints
 62
     0
100
AcDbPoint
 10
53.275
 20
9.525000000000002
 30
0.0
  0
POINT
  5
10E
330
103
100
AcDbEntity
  8
Defpoints
 62
     0
100
AcDbPoint
 10
45.67062126910534
 20
-9.525000000000006
 30
0.0
  0
POINT
  5
10F
330
103
100
AcDbEntity
  8
Defpoints
 62
     0
100
AcDbPoint
 10
70.64563443570711
 20
-9.524999999999912
 30
0.0
  0
ENDBLK
  5
105
330
103
100
AcDbEntity
  8
0
100
AcDbBlockEnd
  0
BLOCK
  5
11D
330
11C
100
AcDbEntity
  8
0
100
AcDbBlockBegin
  2
SW_DOWELSYMBOL_0
 70
     0
 10
0.0
 20
0.0
 30
0.0
  3
SW_DOWELSYMBOL_0
  1
SW_DOWELSYMBOL_0
  0
CIRCLE
  5
11F
330
11C
100
AcDbEntity
  8
해칭선
 62
     0
100
AcDbCircle
 10
0.0
 20
0.0
 30
0.0
 40
3.000000000000001
  0
HATCH
  5
120
330
11C
100
AcDbEntity
  8
0
  6
Continuous
 62
     0
370
     0
100
AcDbHatch
 10
0.0
 20
0.0
 30
0.0
210
0.0
220
0.0
230
1.0
  2
SOLID
 70
     1
 71
     0
 91
        1
 92
        0
 93
        3
 72
     2
 10
0.0
 20
0.0
 40
3.000000000000001
 50
0.0
 51
90.0
 73
     1
 72
     1
 10
0.0
 20
3.000000000000001
 11
0.0
 21
0.0
 72
     1
 10
0.0
 20
0.0
 11
3.000000000000001
 21
0.0
 97
        0
 75
     0
 76
     1
 98
        1
 10
0.0
 20
0.0
  0
HATCH
  5
121
330
11C
100
AcDbEntity
  8
0
  6
Continuous
 62
     0
370
     0
100
AcDbHatch
 10
0.0
 20
0.0
 30
0.0
210
0.0
220
0.0
230
1.0
  2
SOLID
 70
     1
 71
     0
 91
        1
 92
        0
 93
        3
 72
     2
 10
0.0
 20
0.0
 40
3.000000000000001
 50
180.0
 51
270.0000000000007
 73
     1
 72
     1
 10
0.0
 20
-3.000000000000001
 11
0.0
 21
0.0
 72
     1
 10
0.0
 20
0.0
 11
-3.000000000000001
 21
0.0
 97
        0
 75
     0
 76
     1
 98
        1
 10
0.0
 20
0.0
  0
ENDBLK
  5
11E
330
11C
100
AcDbEntity
  8
0
100
AcDbBlockEnd
  0
ENDSEC
  0
SECTION
  2
ENTITIES
  0
LINE
  5
96
330
1F
100
AcDbEntity
  8
외형선
  6
Continuous
370
    15
100
AcDbLine
 10
8.94995455714747
 20
9.524999999999999
 30
0.0
 11
-44.65
 21
9.524999999999995
 31
0.0
  0
LINE
  5
97
330
1F
100
AcDbEntity
  8
외형선
  6
Continuous
370
    15
100
AcDbLine
 10
-44.65
 20
-9.525000000000006
 30
0.0
 11
11.11794544706146
 21
-9.525000000000002
 31
0.0
  0
LINE
  5
98
330
1F
100
AcDbEntity
  8
외형선
  6
Continuous
370
    15
100
AcDbLine
 10
-44.65
 20
9.52499999999999
 30
0.0
 11
-45.15
 21
9.024999999999991
 31
0.0
  0
LINE
  5
99
330
1F
100
AcDbEntity
  8
외형선
  6
Continuous
370
    15
100
AcDbLine
 10
-45.15
 20
-9.025000000000002
 30
0.0
 11
-44.65
 21
-9.525
 31
0.0
  0
LINE
  5
9A
330
1F
100
AcDbEntity
  8
외형선
  6
Continuous
 62
     1
370
    15
100
AcDbLine
 10
28.39382362540259
 20
9.525000000000002
 30
0.0
 11
17.68714409914502
 21
9.525000000000002
 31
0.0
  0
LINE
  5
9B
330
1F
100
AcDbEntity
  8
외형선
  6
Continuous
 62
     1
370
    15
100
AcDbLine
 10
34.96463335940956
 20
-9.525000000000006
 30
0.0
 11
45.67008722128973
 21
-9.525000000000006
 31
0.0
  0
LINE
  5
9C
330
1F
100
AcDbEntity
  8
외형선
  6
Continuous
 62
     1
370
    15
100
AcDbLine
 10
53.275
 20
9.525000000000002
 30
0.0
 11
52.2411371191031
 21
9.525000000000002
 31
0.0
  0
SPLINE
  5
9D
330
1F
100
AcDbEntity
  8
외형선
  6
Continuous
370
    15
100
AcDbSpline
210
0.0
220
0.0
230
1.0
 70
     8
 71
     3
 72
    10
 73
     6
 74
     0
 42
0.000000001
 43
0.00000001
 40
0.0
 40
0.0
 40
0.0
 40
0.0
 40
0.5
 40
0.5
 40
1.0
 40
1.0
 40
1.0
 40
1.0
 10
12.00000000000001
 20
-9.51137750219999
 30
0.0
 10
11.49059194423221
 20
-9.527079443568386
 30
0.0
 10
10.9823183451205
 20
-9.529192759820228
 30
0.0
 10
9.969017842411771
 20
-9.506369605555648
 30
0.0
 10
9.45936219931921
 20
-9.481382036480225
 30
0.0
 10
8.94995455714747
 20
-9.442905100795143
 30
0.0
  0
SPLINE
  5
9E
330
1F
100
AcDbEntity
  8
외형선
  6
Continuous
370
    15
100
AcDbSpline
210
0.0
220
0.0
230
1.0
 70
     8
 71
     3
 72
    10
 73
     6
 74
     0
 42
0.000000001
 43
0.00000001
 40
0.0
 40
0.0
 40
0.0
 40
0.0
 40
0.5000000000000001
 40
0.5000000000000001
 40
1.0
 40
1.0
 40
1.0
 40
1.0
 10
12.00000000000001
 20
-1.694165781106427
 30
0.0
 10
11.49059194423221
 20
-1.405152951791838
 30
0.0
 10
10.9823183451205
 20
-1.113937941755752
 30
0.0
 10
9.969017842411771
 20
-0.5297942396655627
 30
0.0
 10
9.45936219931921
 20
-0.2359753662505152
 30
0.0
 10
8.94995455714747
 20
0.0577150115315392
 30
0.0
  0
SPLINE
  5
9F
330
1F
100
AcDbEntity
  8
외형선
  6
Continuous
370
    15
100
AcDbSpline
210
0.0
220
0.0
230
1.0
 70
    24
 71
     3
 72
    24
 73
    20
 74
     0
 42
0.000000001
 43
0.00000001
 40
0.0
 40
0.0
 40
0.0
 40
0.0
 40
0.0476898693288515
 40
0.1020440840551593
 40
0.1658183914995368
 40
0.2300354950360777
 40
0.2956491529546112
 40
0.3617453807771836
 40
0.4255196882215612
 40
0.489736791758102
 40
0.5553504496766389
 40
0.621446677499208
 40
0.6852209849435857
 40
0.749438088480127
 40
0.8150517463986605
 40
0.8811479742212327
 40
0.9403912203778496
 40
0.9701732756084016
 40
1.0
 40
1.0
 40
1.0
 40
1.0
 10
12.00000000000001
 20
-1.724093823040144
 30
0.0
 10
12.00000000000001
 20
-1.744872819602941
 30
0.0
 10
12.00000000000001
 20
-1.789334540754128
 30
0.0
 10
12.00000000000001
 20
-1.922201290575112
 30
0.0
 10
12.00000000000001
 20
-2.119607456315879
 30
0.0
 10
12.00000000000001
 20
-2.394022096473652
 30
0.0
 10
12.00000000000001
 20
-2.734337140702838
 30
0.0
 10
12.00000000000001
 20
-3.135318400162777
 30
0.0
 10
12.00000000000001
 20
-3.590533124187084
 30
0.0
 10
12.00000000000001
 20
-4.097677933581812
 30
0.0
 10
12.00000000000001
 20
-4.661760782503347
 30
0.0
 10
12.00000000000001
 20
-5.271948716663495
 30
0.0
 10
12.00000000000001
 20
-5.919742891748961
 30
0.0
 10
12.00000000000001
 20
-6.602758614835643
 30
0.0
 10
12.00000000000001
 20
-7.326935675808431
 30
0.0
 10
12.00000000000001
 20
-8.060123474679006
 30
0.0
 10
12.00000000000001
 20
-8.672895007239426
 30
0.0
 10
12.00000000000001
 20
-9.149197806097051
 30
0.0
 10
12.00000000000001
 20
-9.390590639141285
 30
0.0
 10
12.00000000000001
 20
-9.511377502199998
 30
0.0
  0
SPLINE
  5
A0
330
1F
100
AcDbEntity
  8
외형선
  6
Continuous
370
    15
100
AcDbSpline
210
0.0
220
0.0
230
1.0
 70
     8
 71
     3
 72
    10
 73
     6
 74
     0
 42
0.000000001
 43
0.00000001
 40
0.0
 40
0.0
 40
0.0
 40
0.0
 40
0.5
 40
0.5
 40
1.0
 40
1.0
 40
1.0
 40
1.0
 10
12.00000000000001
 20
8.964445176394339
 30
0.0
 10
11.49059194423221
 20
8.865178424741204
 30
0.0
 10
10.9823183451205
 20
8.753189735926238
 30
0.0
 10
9.96901784241177
 20
8.50493150572494
 30
0.0
 10
9.459362199319209
 20
8.368269397928426
 30
0.0
 10
8.949954557147468
 20
8.219883033436723
 30
0.0
  0
LINE
  5
A1
330
1F
100
AcDbEntity
  8
외형선
  6
Continuous
370
    15
100
AcDbLine
 10
8.94995455714747
 20
9.524999999999999
 30
0.0
 11
8.94995455714747
 21
5.802136212694645
 31
0.0
  0
SPLINE
  5
A2
330
1F
100
AcDbEntity
  8
외형선
  6
Continuous
370
    15
100
AcDbSpline
210
0.0
220
0.0
230
1.0
 70
     8
 71
     3
 72
    10
 73
     6
 74
     0
 42
0.000000001
 43
0.00000001
 40
0.0
 40
0.0
 40
0.0
 40
0.0
 40
0.5
 40
0.5
 40
1.0
 40
1.0
 40
1.0
 40
1.0
 10
12.00000000000001
 20
4.314675987131892
 30
0.0
 10
11.49059194423221
 20
4.576511259531756
 30
0.0
 10
10.9823183451205
 20
4.831991799745131
 30
0.0
 10
9.969017842411771
 20
5.327972437385817
 30
0.0
 10
9.45936219931921
 20
5.569218424217813
 30
0.0
 10
8.94995455714747
 20
5.802135757000142
 30
0.0
  0
LINE
  5
A3
330
1F
100
AcDbEntity
  8
외형선
  6
Continuous
370
    15
100
AcDbLine
 10
12.00000000000001
 20
4.314675987131891
 30
0.0
 11
12.00000000000001
 21
-1.694165781106427
 31
0.0
  0
LINE
  5
A4
330
1F
100
AcDbEntity
  8
외형선
  6
Continuous
370
    15
100
AcDbLine
 10
-44.65
 20
9.52499999999999
 30
0.0
 11
-44.65
 21
-9.525000000000006
 31
0.0
  0
LINE
  5
A5
330
1F
100
AcDbEntity
  8
외형선
  6
Continuous
370
    15
100
AcDbLine
 10
8.94995455714747
 20
0.0577152804773624
 30
0.0
 11
8.949954557147471
 21
-9.442905025516371
 31
0.0
  0
LINE
  5
A6
330
1F
100
AcDbEntity
  8
외형선
  6
Continuous
370
    15
100
AcDbLine
 10
-45.15
 20
9.024999999999991
 30
0.0
 11
-45.15
 21
-9.025000000000002
 31
0.0
  0
SPLINE
  5
A7
330
1F
100
AcDbEntity
  8
외형선
  6
Continuous
370
    15
100
AcDbSpline
210
0.0
220
0.0
230
1.0
 70
    24
 71
     3
 72
    12
 73
     8
 74
     0
 42
0.000000001
 43
0.00000001
 40
0.0
 40
0.0
 40
0.0
 40
0.0
 40
0.1863465174742922
 40
0.3763664252799657
 40
0.6005931540127682
 40
0.8313224730690203
 40
1.0
 40
1.0
 40
1.0
 40
1.0
 10
12.00000000000001
 20
8.964445176394339
 30
0.0
 10
12.00000000000001
 20
8.58149431524887
 30
0.0
 10
12.00000000000001
 20
7.808043602991329
 30
0.0
 10
12.00000000000001
 20
6.708656985240475
 30
0.0
 10
12.00000000000001
 20
5.687391421488774
 30
0.0
 10
12.00000000000001
 20
4.870105550326461
 30
0.0
 10
12.00000000000001
 20
4.528973673453692
 30
0.0
 10
12.00000000000001
 20
4.384906835525576
 30
0.0
  0
SPLINE
  5
A8
330
1F
100
AcDbEntity
  8
외형선
  6
Continuous
 62
     1
370
    15
100
AcDbSpline
210
0.0
220
0.0
230
1.0
 70
     8
 71
     3
 72
    58
 73
    54
 74
     0
 42
0.000000001
 43
0.00000001
 40
0.0
 40
0.0
 40
0.0
 40
0.0
 40
0.0625000000000002
 40
0.0625000000000002
 40
0.0937500000000002
 40
0.0937500000000002
 40
0.1250000000000001
 40
0.1250000000000001
 40
0.15625
 40
0.15625
 40
0.1875
 40
0.1875
 40
0.2499999999999998
 40
0.2499999999999998
 40
0.2812499999999997
 40
0.2812499999999997
 40
0.3124999999999996
 40
0.3124999999999996
 40
0.3437499999999996
 40
0.3437499999999996
 40
0.3749999999999995
 40
0.3749999999999995
 40
0.4374999999999996
 40
0.4374999999999996
 40
0.4687499999999996
 40
0.4687499999999996
 40
0.4999999999999994
 40
0.4999999999999994
 40
0.5312499999999993
 40
0.5312499999999993
 40
0.5624999999999992
 40
0.5624999999999992
 40
0.6249999999999991
 40
0.6249999999999991
 40
0.6562499999999992
 40
0.6562499999999992
 40
0.6874999999999992
 40
0.6874999999999992
 40
0.7187499999999992
 40
0.7187499999999992
 40
0.7499999999999992
 40
0.7499999999999992
 40
0.8124999999999994
 40
0.8124999999999994
 40
0.8749999999999997
 40
0.8749999999999997
 40
0.9062499999999999
 40
0.9062499999999999
 40
0.9375
 40
0.9375
 40
0.96875
 40
0.96875
 40
1.0
 40
1.0
 40
1.0
 40
1.0
 10
53.275
 20
-8.53094315550959
 30
0.0
 10
52.41877745212273
 20
-8.75144649835625
 30
0.0
 10
51.55323955791548
 20
-8.937867011732463
 30
0.0
 10
50.26461191650768
 20
-9.161099605846374
 30
0.0
 10
49.83695101321542
 20
-9.226167532978543
 30
0.0
 10
48.976398863414
 20
-9.337642116381714
 30
0.0
 10
48.54504457000971
 20
-9.383950627972952
 30
0.0
 10
47.68413250124427
 20
-9.457277747525099
 30
0.0
 10
47.25607405304898
 20
-9.484281177384036
 30
0.0
 10
46.39760911173222
 20
-9.519007270948054
 30
0.0
 10
45.96658311023485
 20
-9.526710590777101
 30
0.0
 10
44.67403896278451
 20
-9.520626443955505
 30
0.0
 10
43.81845802018919
 20
-9.477753574778346
 30
0.0
 10
42.52630700079775
 20
-9.355724135581037
 30
0.0
 10
42.09505094110116
 20
-9.305432128712802
 30
0.0
 10
41.23541068044723
 20
-9.186117405674262
 30
0.0
 10
40.80794820181247
 20
-9.117171068728366
 30
0.0
 10
39.94782132912237
 20
-8.96058056083092
 30
0.0
 10
39.51649998837137
 20
-8.872984973714875
 30
0.0
 10
38.6552934500675
 20
-8.679973055624203
 30
0.0
 10
38.22663843723134
 20
-8.57466834250448
 30
0.0
 10
36.93996849929067
 20
-8.232892857351898
 30
0.0
 10
36.07429780490797
 20
-7.969718819332986
 30
0.0
 10
34.78761981212369
 20
-7.529166063160419
 30
0.0
 10
34.35897000582243
 20
-7.374540190683701
 30
0.0
 10
33.49776542919813
 20
-7.050096310935876
 30
0.0
 10
33.06644371924463
 20
-6.88041810416285
 30
0.0
 10
32.20631341930246
 20
-6.527721688557867
 30
0.0
 10
31.77885019490683
 20
-6.344912030102338
 30
0.0
 10
30.91921384968182
 20
-5.966087900706188
 30
0.0
 10
30.48795840583413
 20
-5.770185721466055
 30
0.0
 10
29.19580518028079
 20
-5.165663712298332
 30
0.0
 10
28.34022548397902
 20
-4.74086728653985
 30
0.0
 10
27.0476820740045
 20
-4.075819663950177
 30
0.0
 10
26.61665496574237
 20
-3.849716118241876
 30
0.0
 10
25.75818513937524
 20
-3.390767726513408
 30
0.0
 10
25.33013040788123
 20
-3.15782403751212
 30
0.0
 10
24.46922079120252
 20
-2.685107964950716
 30
0.0
 10
24.03786637533628
 20
-2.445602567469531
 30
0.0
 10
23.17731128732807
 20
-1.96249406943805
 30
0.0
 10
22.74964814694174
 20
-1.719186798914554
 30
0.0
 10
21.46102710945541
 20
-0.9837015032851573
 30
0.0
 10
20.59548822087735
 20
-0.4861250554989075
 30
0.0
 10
18.88303046153514
 20
0.5053808507334542
 30
0.0
 10
18.01750622614516
 20
1.002875780114946
 30
0.0
 10
16.7288719862822
 20
1.738129193573249
 30
0.0
 10
16.30121330891803
 20
1.981338266440714
 30
0.0
 10
15.44066410098848
 20
2.464212399768328
 30
0.0
 10
15.00930993189402
 20
2.703581916208468
 30
0.0
 10
14.14839541471203
 20
3.175989994407429
 30
0.0
 10
13.72033323865509
 20
3.408762193691302
 30
0.0
 10
12.86187318602414
 20
3.867326674143932
 30
0.0
 10
12.4308482931347
 20
4.093220360510706
 30
0.0
 10
12.0
 20
4.314675987131899
 30
0.0
  0
SPLINE
  5
A9
330
1F
100
AcDbEntity
  8
외형선
  6
Continuous
370
    15
100
AcDbSpline
210
0.0
220
0.0
230
1.0
 70
    24
 71
     3
 72
    12
 73
     8
 74
     0
 42
0.000000001
 43
0.00000001
 40
0.0
 40
0.0
 40
0.0
 40
0.0
 40
0.1863465174742923
 40
0.3763664252799653
 40
0.600593154012768
 40
0.8313224730690201
 40
1.0
 40
1.0
 40
1.0
 40
1.0
 10
12.00000000000001
 20
8.964445176394335
 30
0.0
 10
12.00000000000001
 20
8.581494315248868
 30
0.0
 10
12.00000000000001
 20
7.808043602991328
 30
0.0
 10
12.00000000000001
 20
6.708656985240473
 30
0.0
 10
12.00000000000001
 20
5.687391421488778
 30
0.0
 10
12.00000000000001
 20
4.870105550326459
 30
0.0
 10
12.00000000000001
 20
4.528973673453691
 30
0.0
 10
12.00000000000001
 20
4.384906835525576
 30
0.0
  0
SPLINE
  5
AA
330
1F
100
AcDbEntity
  8
외형선
  6
Continuous
 62
     1
370
    15
100
AcDbSpline
210
0.0
220
0.0
230
1.0
 70
     8
 71
     3
 72
    58
 73
    54
 74
     0
 42
0.000000001
 43
0.00000001
 40
0.0
 40
0.0
 40
0.0
 40
0.0
 40
0.0625000000000005
 40
0.0625000000000005
 40
0.0937500000000008
 40
0.0937500000000008
 40
0.1250000000000011
 40
0.1250000000000011
 40
0.1562500000000014
 40
0.1562500000000014
 40
0.1875000000000017
 40
0.1875000000000017
 40
0.2500000000000018
 40
0.2500000000000018
 40
0.2812500000000019
 40
0.2812500000000019
 40
0.312500000000002
 40
0.312500000000002
 40
0.3437500000000021
 40
0.3437500000000021
 40
0.3750000000000022
 40
0.3750000000000022
 40
0.4375000000000021
 40
0.4375000000000021
 40
0.4687500000000019
 40
0.4687500000000019
 40
0.5000000000000018
 40
0.5000000000000018
 40
0.5312500000000017
 40
0.5312500000000017
 40
0.5625000000000016
 40
0.5625000000000016
 40
0.6250000000000012
 40
0.6250000000000012
 40
0.6562500000000011
 40
0.6562500000000011
 40
0.6875000000000009
 40
0.6875000000000009
 40
0.7187500000000008
 40
0.7187500000000008
 40
0.7500000000000006
 40
0.7500000000000006
 40
0.8125000000000004
 40
0.8125000000000004
 40
0.8750000000000002
 40
0.8750000000000002
 40
0.9062500000000002
 40
0.9062500000000002
 40
0.9375000000000001
 40
0.9375000000000001
 40
0.9687500000000001
 40
0.9687500000000001
 40
1.0
 40
1.0
 40
1.0
 40
1.0
 10
53.27499999999999
 20
-5.269722087595488
 30
0.0
 10
52.41877745212274
 20
-4.856753661278403
 30
0.0
 10
51.55323955791548
 20
-4.420754078862781
 30
0.0
 10
50.26461191650765
 20
-3.74403105342601
 30
0.0
 10
49.83695101321541
 20
-3.514751333267807
 30
0.0
 10
48.976398863414
 20
-3.048569386105632
 30
0.0
 10
48.54504457000971
 20
-2.811934086957539
 30
0.0
 10
47.68413250124428
 20
-2.333740911156581
 30
0.0
 10
47.256074053049
 20
-2.092469072859489
 30
0.0
 10
46.39760911173222
 20
-1.605724759057319
 30
0.0
 10
45.96658311023484
 20
-1.360129421045803
 30
0.0
 10
44.67403896278453
 20
-0.6200303346095357
 30
0.0
 10
43.81845802018918
 20
-0.1232609132193311
 30
0.0
 10
42.52630700079775
 20
0.6212996995029426
 30
0.0
 10
42.09505094110114
 20
0.8692083935714117
 30
0.0
 10
41.2354106804472
 20
1.362201224518641
 30
0.0
 10
40.80794820181246
 20
1.607113292275592
 30
0.0
 10
39.94782132912236
 20
2.094155441246681
 30
0.0
 10
39.51649998837139
 20
2.336025007401999
 30
0.0
 10
38.6552934500675
 20
2.814239103571289
 30
0.0
 10
38.22663843723132
 20
3.050360383728354
 30
0.0
 10
36.93996849929066
 20
3.748838351244763
 30
0.0
 10
36.07429780490796
 20
4.202466411957738
 30
0.0
 10
34.78761981212369
 20
4.852472005807659
 30
0.0
 10
34.35897000582243
 20
5.064388144804269
 30
0.0
 10
33.49776542919813
 20
5.478102596982249
 30
0.0
 10
33.06644371924462
 20
5.679690843701273
 30
0.0
 10
32.20631341930245
 20
6.070496295196438
 30
0.0
 10
31.77885019490681
 20
6.259530977429832
 30
0.0
 10
30.9192138496818
 20
6.625170750609423
 30
0.0
 10
30.48795840583413
 20
6.801622266349125
 30
0.0
 10
29.19580518028077
 20
7.309403876751692
 30
0.0
 10
28.34022548397903
 20
7.61874703203235
 30
0.0
 10
27.04768207400451
 20
8.035464800816412
 30
0.0
 10
26.61665496574237
 20
8.166321461432755
 30
0.0
 10
25.75818513937524
 20
8.410799746906061
 30
0.0
 10
25.33013040788123
 20
8.524503883086023
 30
0.0
 10
24.46922079120253
 20
8.734730203524888
 30
0.0
 10
24.03786637533628
 20
8.831104592613565
 30
0.0
 10
23.17731128732807
 20
9.00549999739781
 30
0.0
 10
22.74964814694174
 20
9.08344730995912
 30
0.0
 10
21.4610271094554
 20
9.289686019031912
 30
0.0
 10
20.59548822087735
 20
9.390019682934566
 30
0.0
 10
18.88303046153513
 20
9.512963564307992
 30
0.0
 10
18.01750622614516
 20
9.536016268255977
 30
0.0
 10
16.7288719862822
 20
9.512144623825785
 30
0.0
 10
16.30121330891803
 20
9.49452408660943
 30
0.0
 10
15.44066410098848
 20
9.439908096945539
 30
0.0
 10
15.00930993189402
 20
9.402912915929983
 30
0.0
 10
14.14839541471202
 20
9.309879075816312
 30
0.0
 10
13.72033323865509
 20
9.253921862438022
 30
0.0
 10
12.86187318602415
 20
9.123213288289143
 30
0.0
 10
12.4308482931347
 20
9.048403233261569
 30
0.0
 10
12.00000000000001
 20
8.964445176394339
 30
0.0
  0
SPLINE
  5
AB
330
1F
100
AcDbEntity
  8
외형선
  6
Continuous
 62
     1
370
    15
100
AcDbSpline
210
0.0
220
0.0
230
1.0
 70
     8
 71
     3
 72
    10
 73
     6
 74
     0
 42
0.000000001
 43
0.00000001
 40
0.0
 40
0.0
 40
0.0
 40
0.0
 40
0.2475602630270691
 40
0.6218879149915034
 40
1.0
 40
1.0
 40
1.0
 40
1.0
 10
51.41881051824688
 20
-4.334428703859475
 30
0.0
 10
51.32438133172076
 20
-4.359031138119339
 30
0.0
 10
51.08716890834952
 20
-4.420834096148635
 30
0.0
 10
50.67204390440031
 20
-4.582997578595879
 30
0.0
 10
50.35238688608854
 20
-4.728363821329282
 30
0.0
 10
50.19175451150434
 20
-4.801412506066351
 30
0.0
  0
SPLINE
  5
AC
330
1F
100
AcDbEntity
  8
외형선
  6
Continuous
 62
     1
370
    15
100
AcDbSpline
210
0.0
220
0.0
230
1.0
 70
     8
 71
     3
 72
     8
 73
     4
 74
     0
 42
0.000000001
 43
0.00000001
 40
0.0
 40
0.0
 40
0.0
 40
0.0
 40
1.0
 40
1.0
 40
1.0
 40
1.0
 10
53.275
 20
-5.568392862373733
 30
0.0
 10
52.22150446030926
 20
-5.406753698297547
 30
0.0
 10
51.19454768106583
 20
-5.1482024522128
 30
0.0
 10
50.19175451150436
 20
-4.801412506066357
 30
0.0
  0
LINE
  5
AD
330
1F
100
AcDbEntity
  8
외형선
  6
Continuous
 62
     1
370
    15
100
AcDbLine
 10
53.275
 20
-8.530943155509593
 30
0.0
 11
53.275
 21
-5.568392862373735
 31
0.0
  0
SPLINE
  5
AE
330
1F
100
AcDbEntity
  8
외형선
  6
Continuous
 62
     1
370
    15
100
AcDbSpline
210
0.0
220
0.0
230
1.0
 70
     8
 71
     3
 72
    17
 73
    13
 74
     0
 42
0.000000001
 43
0.00000001
 40
0.0
 40
0.0
 40
0.0
 40
0.0
 40
0.104083163614594
 40
0.2081247549416166
 40
0.3121426896094853
 40
0.4161549700157749
 40
0.520179619319826
 40
0.6223810715993171
 40
0.7246235455274995
 40
0.8268229500393803
 40
0.9289866206298648
 40
1.0
 40
1.0
 40
1.0
 40
1.0
 10
53.275
 20
0.5964832419736905
 30
0.0
 10
52.41167835829235
 20
1.092341013164689
 30
0.0
 10
50.68537989775049
 20
2.08385850294007
 30
0.0
 10
48.09658682835549
 20
3.516271899864829
 30
0.0
 10
45.50847751007241
 20
4.863183154521909
 30
0.0
 10
42.92054571657204
 20
6.090261046461467
 30
0.0
 10
40.347603796399
 20
7.161603962678247
 30
0.0
 10
37.78923531027475
 20
8.053474037217134
 30
0.0
 10
35.24563283529326
 20
8.751170375089254
 30
0.0
 10
32.70271210210755
 20
9.232980851571588
 30
0.0
 10
30.41896286782048
 20
9.498150893627205
 30
0.0
 10
28.98275735918287
 20
9.499071788804555
 30
0.0
 10
28.39382362540259
 20
9.499449413198805
 30
0.0
  0
LINE
  5
AF
330
1F
100
AcDbEntity
  8
외형선
  6
Continuous
 62
     1
370
    15
100
AcDbLine
 10
53.275
 20
-5.26972208759549
 30
0.0
 11
53.275
 21
0.5964832419736876
 31
0.0
  0
SPLINE
  5
B0
330
1F
100
AcDbEntity
  8
외형선
  6
Continuous
 62
     1
370
    15
100
AcDbSpline
210
0.0
220
0.0
230
1.0
 70
     8
 71
     3
 72
    16
 73
    12
 74
     0
 42
0.000000001
 43
0.00000001
 40
0.0
 40
0.0
 40
0.0
 40
0.0
 40
0.1126977753995301
 40
0.2254199913828122
 40
0.3381860665081877
 40
0.4509585885856192
 40
0.5636851273420996
 40
0.6743693834580594
 40
0.785047151642358
 40
0.89574445286743
 40
1.0
 40
1.0
 40
1.0
 40
1.0
 10
12.00000000000001
 20
-1.694165781106427
 30
0.0
 10
12.86264232851824
 20
-2.18036247726345
 30
0.0
 10
14.58811406539728
 20
-3.152861310266367
 30
0.0
 10
17.17685343464422
 20
-4.523050295434981
 30
0.0
 10
19.76642881781797
 20
-5.784943387910003
 30
0.0
 10
22.35608706330007
 20
-6.903943321475388
 30
0.0
 10
24.92952370199907
 20
-7.847634276927536
 30
0.0
 10
27.48675557615829
 20
-8.5978954440574
 30
0.0
 10
30.0284363216193
 20
-9.134871963488738
 30
0.0
 10
32.52097134041533
 20
-9.467383792538714
 30
0.0
 10
34.16651738126908
 20
-9.501987675691359
 30
0.0
 10
34.96463335940957
 20
-9.518771108888707
 30
0.0
  0
SPLINE
  5
B1
330
1F
100
AcDbEntity
  8
외형선
  6
Continuous
 62
     1
370
    15
100
AcDbSpline
210
0.0
220
0.0
230
1.0
 70
     8
 71
     3
 72
    12
 73
     8
 74
     0
 42
0.000000001
 43
0.00000001
 40
0.0
 40
0.0
 40
0.0
 40
0.0
 40
0.1990892239611363
 40
0.3992658922444072
 40
0.5994543995747206
 40
0.7996880535023223
 40
0.9999999999999999
 40
0.9999999999999999
 40
0.9999999999999999
 40
0.9999999999999999
 10
40.31851548354137
 20
7.143256834812701
 30
0.0
 10
41.17833258952952
 20
7.454950577260863
 30
0.0
 10
42.90266320451239
 20
8.08004056309484
 30
0.0
 10
45.49146335397036
 20
8.773630005542746
 30
0.0
 10
48.08525232985228
 20
9.2603474669661
 30
0.0
 10
50.67971931403172
 20
9.5319631756536
 30
0.0
 10
52.40979371512197
 20
9.51485876914048
 30
0.0
 10
53.275
 20
9.506304894229128
 30
0.0
  0
SPLINE
  5
B2
330
1F
100
AcDbEntity
  8
외형선
  6
Continuous
 62
     1
370
    15
100
AcDbSpline
210
0.0
220
0.0
230
1.0
 70
     8
 71
     3
 72
    14
 73
    10
 74
     0
 42
0.000000001
 43
0.00000001
 40
0.0
 40
0.0
 40
0.0
 40
0.0
 40
0.2499999999999998
 40
0.2499999999999998
 40
0.4999999999999997
 40
0.4999999999999997
 40
0.7499999999999998
 40
0.7499999999999998
 40
1.0
 40
1.0
 40
1.0
 40
1.0
 10
53.275
 20
6.167475262783499
 30
0.0
 10
53.11800632252566
 20
5.809080276806903
 30
0.0
 10
52.93296057669146
 20
5.477031801470007
 30
0.0
 10
52.50376606047183
 20
4.868444428385957
 30
0.0
 10
52.25643726380812
 20
4.590102158575936
 30
0.0
 10
51.72485959125711
 20
4.116979557754245
 30
0.0
 10
51.43891441918406
 20
3.918396890292537
 30
0.0
 10
50.82841989545633
 20
3.593969675102706
 30
0.0
 10
50.51400405813996
 20
3.473382040395971
 30
0.0
 10
50.19175451150434
 20
3.388812609867061
 30
0.0
  0
SPLINE
  5
B3
330
1F
100
AcDbEntity
  8
외형선
  6
Continuous
 62
     1
370
    15
100
AcDbSpline
210
0.0
220
0.0
230
1.0
 70
     8
 71
     3
 72
     8
 73
     4
 74
     0
 42
0.000000001
 43
0.00000001
 40
0.0
 40
0.0
 40
0.0
 40
0.0
 40
1.0
 40
1.0
 40
1.0
 40
1.0
 10
53.275
 20
1.837376426293263
 30
0.0
 10
52.22150446030926
 20
2.410081156542152
 30
0.0
 10
51.19454768106582
 20
2.925518111563286
 30
0.0
 10
50.19175451150434
 20
3.388812609867056
 30
0.0
  0
LINE
  5
B4
330
1F
100
AcDbEntity
  8
외형선
  6
Continuous
 62
     1
370
    15
100
AcDbLine
 10
53.275
 20
0.5964832419736876
 30
0.0
 11
53.275
 21
1.837376426293261
 31
0.0
  0
LINE
  5
B5
330
1F
100
AcDbEntity
  8
외형선
  6
Continuous
 62
     1
370
    15
100
AcDbLine
 10
53.275
 20
6.16747526278349
 30
0.0
 11
53.275
 21
9.506304894229128
 31
0.0
  0
SPLINE
  5
B6
330
1F
100
AcDbEntity
  8
외형선
  6
Continuous
 62
     1
370
    15
100
AcDbSpline
210
0.0
220
0.0
230
1.0
 70
     8
 71
     3
 72
    12
 73
     8
 74
     0
 42
0.000000001
 43
0.00000001
 40
0.0
 40
0.0
 40
0.0
 40
0.0
 40
0.0601617313075953
 40
0.2951931720918716
 40
0.5302038208913059
 40
0.7651264587074732
 40
1.0
 40
1.0
 40
1.0
 40
1.0
 10
23.04338295855362
 20
-7.126780565716046
 30
0.0
 10
22.82192596494642
 20
-7.216243475236597
 30
0.0
 10
21.73531175016256
 20
-7.655207572046191
 30
0.0
 10
19.78335336806986
 20
-8.26716429153943
 30
0.0
 10
17.18815988664832
 20
-8.923409252835082
 30
0.0
 10
14.59377461460389
 20
-9.3626899391047
 30
0.0
 10
12.86453129942891
 20
-9.461818434342698
 30
0.0
 10
12.00000000000001
 20
-9.5113775022
 30
0.0
  0
SPLINE
  5
B7
330
1F
100
AcDbEntity
  8
외형선
  6
Continuous
370
    15
100
AcDbSpline
210
0.0
220
0.0
230
1.0
 70
    24
 71
     3
 72
    16
 73
    12
 74
     0
 42
0.000000001
 43
0.00000001
 40
0.0
 40
0.0
 40
0.0
 40
0.0
 40
0.1003303907801786
 40
0.2285558653959509
 40
0.3604998874621915
 40
0.4887253620779638
 40
0.6206693841442045
 40
0.7488948587599774
 40
0.8808388808262178
 40
0.9402417782711371
 40
1.0
 40
1.0
 40
1.0
 40
1.0
 10
12.00000000000001
 20
-1.730520774239447
 30
0.0
 10
12.00000000000001
 20
-1.782855682402555
 30
0.0
 10
12.00000000000001
 20
-1.902076290760834
 30
0.0
 10
12.00000000000001
 20
-2.369757945765601
 30
0.0
 10
12.00000000000001
 20
-3.102615380690505
 30
0.0
 10
12.00000000000001
 20
-4.078908915466283
 30
0.0
 10
12.00000000000001
 20
-5.246383831586907
 30
0.0
 10
12.00000000000001
 20
-6.594436046496021
 30
0.0
 10
12.00000000000001
 20
-7.80194470407309
 30
0.0
 10
12.00000000000001
 20
-8.790079415113066
 30
0.0
 10
12.00000000000001
 20
-9.270467319973253
 30
0.0
 10
12.00000000000001
 20
-9.511377502199998
 30
0.0
  0
LINE
  5
B8
330
1F
100
AcDbEntity
  8
외형선
  6
Continuous
 62
     1
370
    15
100
AcDbLine
 10
53.275
 20
1.837376426293263
 30
0.0
 11
53.275
 21
6.16747526278349
 31
0.0
  0
LINE
  5
B9
330
1F
100
AcDbEntity
  8
외형선
  6
Continuous
 62
     1
370
    15
100
AcDbLine
 10
53.275
 20
-5.269722087595491
 30
0.0
 11
53.275
 21
-5.568392862373734
 31
0.0
  0
LINE
  5
BA
330
1F
100
AcDbEntity
  8
외형선
  6
Continuous
 62
     1
370
    15
100
AcDbLine
 10
53.275
 20
9.506304894229128
 30
0.0
 11
53.275
 21
9.525000000000002
 31
0.0
  0
LINE
  5
BB
330
1F
100
AcDbEntity
  8
중심선
 62
     1
100
AcDbLine
 10
-48.14999999999999
 20
-0.0000000000000053
 30
0.0
 11
56.27500000000001
 21
0.0000000000000062
 31
0.0
  0
LINE
  5
BC
330
1F
100
AcDbEntity
  8
참조1
100
AcDbLine
 10
4.062500000000007
 20
-0.0000000000000058
 30
0.0
 11
4.062500000000012
 21
-40.00000000000001
 31
0.0
  0
LINE
  5
BD
330
1F
100
AcDbEntity
  8
참조1
100
AcDbLine
 10
4.062500000000012
 20
-40.00000000000001
 30
0.0
 11
-18.24008181430866
 21
-40.0
 31
0.0
  0
CIRCLE
  5
BE
330
1F
100
AcDbEntity
  8
해칭선
100
AcDbCircle
 10
0.0
 20
0.0
 30
0.0
 40
3.000000000000001
  0
INSERT
  5
BF
330
1F
100
AcDbEntity
  8
0
  6
Continuous
 62
     7
100
AcDbBlockReference
 66
     1
  2
블럭10
 10
-9.877772932125199
 20
-52.04717430164393
 30
0.0
  0
ATTRIB
  5
C0
330
BF
100
AcDbEntity
  8
FORMAT
 62
     2
100
AcDbText
 10
-19.05906822086648
 20
-49.97180738881174
 30
0.0
 40
4.233333333333333
  1
E2120048 [ 3 FLUTE ]
 41
0.75
  7
SLDTEXTSTYLE0
 11
-19.05906822086648
 21
-52.08847405547841
 31
0.0
100
AcDbAttribute
  2
AUTOATTR0
 70
     0
 74
     1
  0
SEQEND
  5
C1
330
BF
100
AcDbEntity
  8
0
  6
Continuous
 62
     7
  0
HATCH
  5
C2
330
1F
100
AcDbEntity
  8
중심선
100
AcDbHatch
 10
0.0
 20
0.0
 30
0.0
210
0.0
220
0.0
230
1.0
  2
SOLID
 70
     1
 71
     0
 91
        1
 92
        0
 93
        4
 72
     1
 10
-4.162863627744342
 20
-35.8
 11
-7.609138871581624
 21
-35.8
 72
     1
 10
-7.609138871581624
 20
-35.8
 11
-9.737368730785647
 21
-38.3363255805726
 72
     1
 10
-9.737368730785647
 20
-38.3363255805726
 11
-6.291060401835216
 21
-38.33628615127011
 72
     1
 10
-6.291060401835216
 20
-38.33628615127011
 11
-4.162863627744342
 21
-35.8
 97
        0
 75
     0
 76
     1
 98
        1
 10
3.075369342984444
 20
-0.001074928723895
  0
HATCH
  5
C3
330
1F
100
AcDbEntity
  8
중심선
100
AcDbHatch
 10
0.0
 20
0.0
 30
0.0
210
0.0
220
0.0
230
1.0
  2
SOLID
 70
     1
 71
     0
 91
        1
 92
        0
 93
        4
 72
     1
 10
0.8499003632916646
 20
-35.8
 11
-2.596374880545646
 21
-35.8
 72
     1
 10
-2.596374880545646
 20
-35.8
 11
-7.127512888903061
 21
-41.20000000000002
 72
     1
 10
-7.127512888903061
 20
-41.20000000000002
 11
-3.681237645065779
 21
-41.20000000000002
 72
     1
 10
-3.681237645065779
 20
-41.20000000000002
 11
0.8499003632916642
 21
-35.8
 97
        0
 75
     0
 76
     1
 98
        1
 10
3.075369342984444
 20
-0.001074928723895
  0
HATCH
  5
C4
330
1F
100
AcDbEntity
  8
중심선
100
AcDbHatch
 10
0.0
 20
0.0
 30
0.0
210
0.0
220
0.0
230
1.0
  2
SOLID
 70
     1
 71
     0
 91
        1
 92
        0
 93
        4
 72
     1
 10
5.862664354327505
 20
-35.80000000000003
 11
2.416389110490389
 21
-35.8
 72
     1
 10
2.416389110490389
 20
-35.8
 11
-4.632047791398859
 21
-44.20000000000002
 72
     1
 10
-4.632047791398859
 20
-44.20000000000002
 11
-1.185772547561577
 21
-44.20000000000002
 72
     1
 10
-1.185772547561578
 20
-44.20000000000002
 11
5.862664354327505
 21
-35.80000000000003
 97
        0
 75
     0
 76
     1
 98
        1
 10
3.075369342984444
 20
-0.001074928723895
  0
HATCH
  5
C5
330
1F
100
AcDbEntity
  8
중심선
100
AcDbHatch
 10
0.0
 20
0.0
 30
0.0
210
0.0
220
0.0
230
1.0
  2
SOLID
 70
     1
 71
     0
 91
        1
 92
        0
 93
        6
 72
     3
 10
10.6625547853397
 20
-40.00000000005127
 11
3.960054785062283
 21
1.540882976769353E-10
 40
0.3939339440162628
 50
17.09539180608436
 51
320.0019657685082
 73
     0
 72
     1
 10
12.34555444104027
 20
-38.58789400463833
 11
14.65085631474134
 21
-36.65356729459038
 72
     3
 10
10.66255478528686
 20
-40.00000000000015
 11
6.600054785286829
 21
-1.278976924368180E-13
 40
0.636358354079598
 50
39.99873849337411
 51
368.4976242363724
 73
     1
 72
     1
 10
17.08788727718747
 20
-39.03999999993002
 11
9.342622092122777
 21
-39.03999999993002
 72
     1
 10
9.34262209212278
 20
-39.03999999993002
 11
9.342597047676847
 21
-40.95999999992991
 72
     1
 10
9.342597047676847
 20
-40.95999999992991
 11
13.78397681714888
 21
-40.95999999992988
 97
        0
 75
     0
 76
     1
 98
        1
 10
3.075369342984444
 20
-0.001074928723895
  0
DIMENSION
  5
C6
330
1F
100
AcDbEntity
  8
치수문자_일반주서
100
AcDbDimension
  2
_D
 10
53.275
 20
32.71605032795721
 30
0.0
 11
4.062500000000002
 21
32.71605032795721
 31
0.0
 70
   160
  1
<>
 71
     2
 42
98.425
  3
SLDDIMSTYLE0
100
AcDbAlignedDimension
 13
-45.15
 23
9.024999999999991
 33
0.0
 14
53.275
 24
-1.237333795657011
 34
0.0
 50
-0.0000000000000041
100
AcDbRotatedDimension
1001
ACAD
1000
DSTYLE
1002
{
1070
   171
1070
     5
1070
   273
1070
     7
1002
}
  0
DIMENSION
  5
DA
330
1F
100
AcDbEntity
  8
치수문자_일반주서
100
AcDbDimension
  2
_D_1
 10
-58.14999999999998
 20
-9.525000000000057
 30
0.0
 11
-58.15000000000001
 21
0.0000000000000112
 31
0.0
 70
   160
  1
%%c<>
 71
     2
 42
19.05000000000001
 52
-270.0
  3
SLDDIMSTYLE1
100
AcDbAlignedDimension
 13
-44.65
 23
9.525000000000004
 33
0.0
 14
-44.65
 24
-9.525000000000007
 34
0.0
 50
90.0000000000002
100
AcDbRotatedDimension
1001
ACAD
1000
DSTYLE
1002
{
1070
   171
1070
     5
1070
   273
1070
     7
1002
}
  0
DIMENSION
  5
EF
330
1F
100
AcDbEntity
  8
치수문자_일반주서
100
AcDbDimension
  2
_D_2
 10
12.00000000000001
 20
17.64211081217373
 30
0.0
 11
33.95705664698858
 21
17.64211081217373
 31
0.0
 70
   160
  1
<>
 71
     2
 42
41.27499999999999
  3
SLDDIMSTYLE0
100
AcDbAlignedDimension
 13
53.275
 23
6.16747526278349
 33
0.0
 14
12.00000000000001
 24
8.964445176394339
 34
0.0
 50
0.0000000000000099
100
AcDbRotatedDimension
1001
ACAD
1000
DSTYLE
1002
{
1070
   171
1070
     5
1070
   273
1070
     7
1002
}
  0
DIMENSION
  5
102
330
1F
100
AcDbEntity
  8
치수문자_일반주서
100
AcDbDimension
  2
_D_3
 10
70.64563443570711
 20
-9.524999999999913
 30
0.0
 11
70.64563443570697
 21
26.82700000000006
 31
0.0
 70
   160
  1
%%c<>
 71
     2
 42
19.04999999999998
 52
-270.0
  3
SLDDIMSTYLE0
100
AcDbAlignedDimension
 13
53.275
 23
9.525000000000002
 33
0.0
 14
45.67062126910534
 24
-9.525000000000006
 34
0.0
 50
90.0000000000002
100
AcDbRotatedDimension
1001
ACAD
1000
DSTYLE
1002
{
1070
   171
1070
     5
1070
   273
1070
     7
1002
}
  0
LINE
  5
115
330
1F
100
AcDbEntity
  8
참조1
100
AcDbLine
 10
79.7322588153456
 20
7.44
 30
0.0
 11
79.7322588153456
 21
-7.440000000000004
 31
0.0
  0
LINE
  5
116
330
1F
100
AcDbEntity
  8
참조1
100
AcDbLine
 10
92.4322588153456
 20
5.44
 30
0.0
 11
79.7322588153456
 21
5.44
 31
0.0
  0
SOLID
  5
117
330
1F
100
AcDbEntity
  8
참조1
100
AcDbTrace
 10
79.7322588153456
 20
5.44
 30
0.0
 11
86.0822588153456
 21
4.424
 31
0.0
 12
86.0822588153456
 22
6.456
 32
0.0
 13
86.0822588153456
 23
6.456
 33
0.0
  0
LINE
  5
118
330
1F
100
AcDbEntity
  8
참조1
100
AcDbLine
 10
92.4322588153456
 20
-5.440000000000004
 30
0.0
 11
79.7322588153456
 21
-5.440000000000004
 31
0.0
  0
SOLID
  5
119
330
1F
100
AcDbEntity
  8
참조1
100
AcDbTrace
 10
79.7322588153456
 20
-5.440000000000004
 30
0.0
 11
86.0822588153456
 21
-6.456000000000004
 31
0.0
 12
86.0822588153456
 22
-4.424000000000004
 32
0.0
 13
86.0822588153456
 23
-4.424000000000004
 33
0.0
  0
MTEXT
  5
11A
330
1F
100
AcDbEntity
  8
참조1
100
AcDbMText
 10
89.1166089479716
 20
11.01029177718833
 30
0.0
 40
3.5
 41
0.0
 71
     1
 72
     1
  1
A
  7
SLDTEXTSTYLE0
 73
     1
 44
1.0
  0
MTEXT
  5
11B
330
1F
100
AcDbEntity
  8
참조1
100
AcDbMText
 10
89.1166089479716
 20
0.1302917771883251
 30
0.0
 40
3.5
 41
0.0
 71
     1
 72
     1
  1
A
  7
SLDTEXTSTYLE0
 73
     1
 44
1.0
  0
INSERT
  5
122
330
1F
100
AcDbEntity
  8
해칭선
100
AcDbBlockReference
  2
SW_DOWELSYMBOL_0
 10
0.0
 20
0.0
 30
0.0
  0
ENDSEC
  0
SECTION
  2
OBJECTS
  0
DICTIONARY
  5
C
330
0
100
AcDbDictionary
281
     1
  3
ACAD_GROUP
350
D
  3
ACAD_IMAGE_VARS
350
146
  3
ACAD_LAYOUT
350
1A
  3
ACAD_MLINESTYLE
350
17
  3
ACAD_PLOTSETTINGS
350
19
  3
ACAD_PLOTSTYLENAME
350
E
  3
ACAD_SCALELIST
350
47
  3
APPDATA
350
144
  3
DWGPROPS
350
170
  0
DICTIONARY
  5
D
102
{ACAD_REACTORS
330
C
102
}
330
C
100
AcDbDictionary
281
     1
  0
RASTERVARIABLES
  5
146
102
{ACAD_REACTORS
330
C
102
}
330
C
100
AcDbRasterVariables
 90
        0
 70
     1
 71
     1
 72
     1
  0
DICTIONARY
  5
1A
102
{ACAD_REACTORS
330
C
102
}
330
C
100
AcDbDictionary
281
     1
  3
Layout1
350
1E
  3
Layout2
350
26
  3
Model
350
22
  0
DICTIONARY
  5
17
102
{ACAD_REACTORS
330
C
102
}
330
C
100
AcDbDictionary
281
     1
  3
Standard
350
18
  0
DICTIONARY
  5
19
102
{ACAD_REACTORS
330
C
102
}
330
C
100
AcDbDictionary
281
     1
  0
ACDBDICTIONARYWDFLT
  5
E
102
{ACAD_REACTORS
330
C
102
}
330
C
100
AcDbDictionary
281
     1
  3
Normal
350
F
100
AcDbDictionaryWithDefault
340
F
  0
DICTIONARY
  5
47
102
{ACAD_REACTORS
330
C
102
}
330
C
100
AcDbDictionary
281
     1
  3
A0
350
48
  3
A1
350
49
  3
A2
350
4A
  3
A3
350
4B
  3
A4
350
4C
  3
A5
350
4D
  3
A6
350
4E
  3
A7
350
4F
  3
A8
350
50
  3
A9
350
51
  3
B0
350
52
  3
B1
350
53
  3
B2
350
54
  3
B3
350
55
  3
B4
350
56
  3
B5
350
57
  3
B6
350
58
  3
B7
350
59
  3
B8
350
5A
  3
B9
350
5B
  3
C0
350
5C
  3
C1
350
5D
  3
C2
350
5E
  3
C3
350
5F
  3
C4
350
60
  3
C5
350
61
  3
C6
350
62
  3
C7
350
63
  3
C8
350
64
  3
C9
350
65
  3
D0
350
66
  3
D1
350
67
  3
D2
350
68
  0
DICTIONARY
  5
144
102
{ACAD_REACTORS
330
C
102
}
330
C
100
AcDbDictionary
281
     1
  0
XRECORD
  5
170
102
{ACAD_REACTORS
330
C
102
}
330
C
100
AcDbXrecord
280
     1
  1
DWGPROPS COOKIE
  2

  3

  4

  6

  7

  8
12016016
  9

300
=
301
=
302
=
303
=
304
=
305
=
306
=
307
=
308
=
309
=
 40
0.0
 41
2458311.267743125
 42
2458327.104204421
  1

 90
        0
  0
LAYOUT
  5
1E
102
{ACAD_REACTORS
330
1A
102
}
330
1A
100
AcDbPlotSettings
  1

  2
none_device
  4

  6

 40
0.0
 41
0.0
 42
0.0
 43
0.0
 44
0.0
 45
0.0
 46
0.0
 47
0.0
 48
0.0
 49
0.0
140
0.0
141
0.0
142
1.0
143
1.0
 70
   688
 72
     1
 73
     0
 74
     5
  7

 75
    16
147
1.0
148
0.0
149
0.0
100
AcDbLayout
  1
Layout1
 70
     1
 71
     1
 10
0.0
 20
0.0
 11
420.0
 21
297.0
 12
0.0
 22
0.0
 32
0.0
 14
1.000000000000000E+20
 24
1.000000000000000E+20
 34
1.000000000000000E+20
 15
-1.000000000000000E+20
 25
-1.000000000000000E+20
 35
-1.000000000000000E+20
146
0.0
 13
0.0
 23
0.0
 33
0.0
 16
1.0
 26
0.0
 36
0.0
 17
0.0
 27
1.0
 37
0.0
 76
     0
330
1B
  0
LAYOUT
  5
26
102
{ACAD_REACTORS
330
1A
102
}
330
1A
100
AcDbPlotSettings
  1

  2
none_device
  4

  6

 40
0.0
 41
0.0
 42
0.0
 43
0.0
 44
0.0
 45
0.0
 46
0.0
 47
0.0
 48
0.0
 49
0.0
140
0.0
141
0.0
142
1.0
143
1.0
 70
   688
 72
     1
 73
     0
 74
     5
  7

 75
    16
147
1.0
148
0.0
149
0.0
100
AcDbLayout
  1
Layout2
 70
     1
 71
     2
 10
0.0
 20
0.0
 11
0.0
 21
0.0
 12
0.0
 22
0.0
 32
0.0
 14
0.0
 24
0.0
 34
0.0
 15
0.0
 25
0.0
 35
0.0
146
0.0
 13
0.0
 23
0.0
 33
0.0
 16
1.0
 26
0.0
 36
0.0
 17
0.0
 27
1.0
 37
0.0
 76
     0
330
23
  0
LAYOUT
  5
22
102
{ACAD_REACTORS
330
1A
102
}
330
1A
100
AcDbPlotSettings
  1

  2
none_device
  4
ANSI_A_(11.00_x_8.50_Inches)
  6

 40
6.35
 41
19.05
 42
6.35000508
 43
19.05000254
 44
279.4
 45
215.9
 46
118.490300355582
 47
94.83254234230645
 48
0.0
 49
0.0
140
0.0
141
0.0
142
0.0674825128835865
143
1.0
 70
  1696
 72
     0
 73
     0
 74
     0
  7

 75
     0
147
0.0235690232323232
148
0.0
149
0.0
100
AcDbLayout
  1
Model
 70
     1
 71
     0
 10
0.0
 20
0.0
 11
420.0
 21
297.0
 12
0.0
 22
0.0
 32
0.0
 14
-62.52500000000006
 24
-49.97180738881175
 34
0.0
 15
92.4322588153456
 25
40.60825000000006
 35
0.0
146
0.0
 13
0.0
 23
0.0
 33
0.0
 16
1.0
 26
0.0
 36
0.0
 17
0.0
 27
1.0
 37
0.0
 76
     0
330
1F
331
29
  0
MLINESTYLE
  5
18
102
{ACAD_REACTORS
330
17
102
}
330
17
100
AcDbMlineStyle
  2
Standard
 70
     0
  3

 62
   256
 51
90.0
 52
90.0
 71
     2
 49
0.5
 62
   256
  6
BYLAYER
 49
-0.5
 62
   256
  6
BYLAYER
  0
ACDBPLACEHOLDER
  5
F
102
{ACAD_REACTORS
330
E
102
}
330
E
  0
SCALE
  5
48
102
{ACAD_REACTORS
330
47
102
}
330
47
100
AcDbScale
 70
     0
300
1:1
140
1.0
141
1.0
290
     1
  0
SCALE
  5
49
102
{ACAD_REACTORS
330
47
102
}
330
47
100
AcDbScale
 70
     0
300
1:2
140
1.0
141
2.0
290
     0
  0
SCALE
  5
4A
102
{ACAD_REACTORS
330
47
102
}
330
47
100
AcDbScale
 70
     0
300
1:4
140
1.0
141
4.0
290
     0
  0
SCALE
  5
4B
102
{ACAD_REACTORS
330
47
102
}
330
47
100
AcDbScale
 70
     0
300
1:5
140
1.0
141
5.0
290
     0
  0
SCALE
  5
4C
102
{ACAD_REACTORS
330
47
102
}
330
47
100
AcDbScale
 70
     0
300
1:8
140
1.0
141
8.0
290
     0
  0
SCALE
  5
4D
102
{ACAD_REACTORS
330
47
102
}
330
47
100
AcDbScale
 70
     0
300
1:10
140
1.0
141
10.0
290
     0
  0
SCALE
  5
4E
102
{ACAD_REACTORS
330
47
102
}
330
47
100
AcDbScale
 70
     0
300
1:16
140
1.0
141
16.0
290
     0
  0
SCALE
  5
4F
102
{ACAD_REACTORS
330
47
102
}
330
47
100
AcDbScale
 70
     0
300
1:20
140
1.0
141
20.0
290
     0
  0
SCALE
  5
50
102
{ACAD_REACTORS
330
47
102
}
330
47
100
AcDbScale
 70
     0
300
1:30
140
1.0
141
30.0
290
     0
  0
SCALE
  5
51
102
{ACAD_REACTORS
330
47
102
}
330
47
100
AcDbScale
 70
     0
300
1:40
140
1.0
141
40.0
290
     0
  0
SCALE
  5
52
102
{ACAD_REACTORS
330
47
102
}
330
47
100
AcDbScale
 70
     0
300
1:50
140
1.0
141
50.0
290
     0
  0
SCALE
  5
53
102
{ACAD_REACTORS
330
47
102
}
330
47
100
AcDbScale
 70
     0
300
1:100
140
1.0
141
100.0
290
     0
  0
SCALE
  5
54
102
{ACAD_REACTORS
330
47
102
}
330
47
100
AcDbScale
 70
     0
300
2:1
140
2.0
141
1.0
290
     0
  0
SCALE
  5
55
102
{ACAD_REACTORS
330
47
102
}
330
47
100
AcDbScale
 70
     0
300
4:1
140
4.0
141
1.0
290
     0
  0
SCALE
  5
56
102
{ACAD_REACTORS
330
47
102
}
330
47
100
AcDbScale
 70
     0
300
8:1
140
8.0
141
1.0
290
     0
  0
SCALE
  5
57
102
{ACAD_REACTORS
330
47
102
}
330
47
100
AcDbScale
 70
     0
300
10:1
140
10.0
141
1.0
290
     0
  0
SCALE
  5
58
102
{ACAD_REACTORS
330
47
102
}
330
47
100
AcDbScale
 70
     0
300
100:1
140
100.0
141
1.0
290
     0
  0
SCALE
  5
59
102
{ACAD_REACTORS
330
47
102
}
330
47
100
AcDbScale
 70
     0
300
1/128" = 1'-0"
140
0.0078125
141
12.0
290
     0
  0
SCALE
  5
5A
102
{ACAD_REACTORS
330
47
102
}
330
47
100
AcDbScale
 70
     0
300
1/64" = 1'-0"
140
0.015625
141
12.0
290
     0
  0
SCALE
  5
5B
102
{ACAD_REACTORS
330
47
102
}
330
47
100
AcDbScale
 70
     0
300
1/32" = 1'-0"
140
0.03125
141
12.0
290
     0
  0
SCALE
  5
5C
102
{ACAD_REACTORS
330
47
102
}
330
47
100
AcDbScale
 70
     0
300
1/16" = 1'-0"
140
0.0625
141
12.0
290
     0
  0
SCALE
  5
5D
102
{ACAD_REACTORS
330
47
102
}
330
47
100
AcDbScale
 70
     0
300
3/32" = 1'-0"
140
0.09375
141
12.0
290
     0
  0
SCALE
  5
5E
102
{ACAD_REACTORS
330
47
102
}
330
47
100
AcDbScale
 70
     0
300
1/8" = 1'-0"
140
0.125
141
12.0
290
     0
  0
SCALE
  5
5F
102
{ACAD_REACTORS
330
47
102
}
330
47
100
AcDbScale
 70
     0
300
3/16" = 1'-0"
140
0.1875
141
12.0
290
     0
  0
SCALE
  5
60
102
{ACAD_REACTORS
330
47
102
}
330
47
100
AcDbScale
 70
     0
300
1/4" = 1'-0"
140
0.25
141
12.0
290
     0
  0
SCALE
  5
61
102
{ACAD_REACTORS
330
47
102
}
330
47
100
AcDbScale
 70
     0
300
3/8" = 1'-0"
140
0.375
141
12.0
290
     0
  0
SCALE
  5
62
102
{ACAD_REACTORS
330
47
102
}
330
47
100
AcDbScale
 70
     0
300
1/2" = 1'-0"
140
0.5
141
12.0
290
     0
  0
SCALE
  5
63
102
{ACAD_REACTORS
330
47
102
}
330
47
100
AcDbScale
 70
     0
300
3/4" = 1'-0"
140
0.75
141
12.0
290
     0
  0
SCALE
  5
64
102
{ACAD_REACTORS
330
47
102
}
330
47
100
AcDbScale
 70
     0
300
1" = 1'-0"
140
1.0
141
12.0
290
     0
  0
SCALE
  5
65
102
{ACAD_REACTORS
330
47
102
}
330
47
100
AcDbScale
 70
     0
300
1-1/2" = 1'-0"
140
1.5
141
12.0
290
     0
  0
SCALE
  5
66
102
{ACAD_REACTORS
330
47
102
}
330
47
100
AcDbScale
 70
     0
300
3" = 1'-0"
140
3.0
141
12.0
290
     0
  0
SCALE
  5
67
102
{ACAD_REACTORS
330
47
102
}
330
47
100
AcDbScale
 70
     0
300
6" = 1'-0"
140
6.0
141
12.0
290
     0
  0
SCALE
  5
68
102
{ACAD_REACTORS
330
47
102
}
330
47
100
AcDbScale
 70
     0
300
1'-0" = 1'-0"
140
12.0
141
12.0
290
     0
  0
ENDSEC
  0
EOF
