  0
SECTION
  2
HEADER
  9
$ACADVER
  1
AC1015
  9
$ACADMAINTVER
 70
     6
  9
$DWGCODEPAGE
  3
ANSI_949
  9
$INSBASE
 10
0.0
 20
0.0
 30
0.0
  9
$EXTMIN
 10
-59.35000000000007
 20
-49.97073246008785
 30
0.0
  9
$EXTMAX
 10
101.1634838153456
 20
46.79563796711784
 30
0.0
  9
$LIMMIN
 10
0.0
 20
0.0
  9
$LIMMAX
 10
420.0
 20
297.0
  9
$ORTHOMODE
 70
     0
  9
$REGENMODE
 70
     1
  9
$FILLMODE
 70
     1
  9
$QTEXTMODE
 70
     0
  9
$MIRRTEXT
 70
     1
  9
$LTSCALE
 40
1.0
  9
$ATTMODE
 70
     1
  9
$TEXTSIZE
 40
3.5
  9
$TRACEWID
 40
1.0
  9
$TEXTSTYLE
  7
Standard
  9
$CLAYER
  8
0
  9
$CELTYPE
  6
ByLayer
  9
$CECOLOR
 62
   256
  9
$CELTSCALE
 40
1.0
  9
$DISPSILH
 70
     0
  9
$DIMSCALE
 40
1.0
  9
$DIMASZ
 40
3.302
  9
$DIMEXO
 40
1.0
  9
$DIMDLI
 40
3.75
  9
$DIMRND
 40
0.0
  9
$DIMDLE
 40
0.0
  9
$DIMEXE
 40
1.0
  9
$DIMTP
 40
0.0
  9
$DIMTM
 40
0.0
  9
$DIMTXT
 40
3.5
  9
$DIMCEN
 40
2.5
  9
$DIMTSZ
 40
0.0
  9
$DIMTOL
 70
     0
  9
$DIMLIM
 70
     0
  9
$DIMTIH
 70
     1
  9
$DIMTOH
 70
     1
  9
$DIMSE1
 70
     0
  9
$DIMSE2
 70
     0
  9
$DIMTAD
 70
     1
  9
$DIMZIN
 70
     0
  9
$DIMBLK
  1

  9
$DIMASO
 70
     1
  9
$DIMSHO
 70
     1
  9
$DIMPOST
  1

  9
$DIMAPOST
  1

  9
$DIMALT
 70
     0
  9
$DIMALTD
 70
     3
  9
$DIMALTF
 40
0.0393700787401575
  9
$DIMLFAC
 40
1.0
  9
$DIMTOFL
 70
     1
  9
$DIMTVP
 40
0.0
  9
$DIMTIX
 70
     0
  9
$DIMSOXD
 70
     0
  9
$DIMSAH
 70
     0
  9
$DIMBLK1
  1

  9
$DIMBLK2
  1

  9
$DIMSTYLE
  2
ISO-25
  9
$DIMCLRD
 70
     0
  9
$DIMCLRE
 70
     0
  9
$DIMCLRT
 70
     0
  9
$DIMTFAC
 40
1.0
  9
$DIMGAP
 40
1.524
  9
$DIMJUST
 70
     0
  9
$DIMSD1
 70
     0
  9
$DIMSD2
 70
     0
  9
$DIMTOLJ
 70
     0
  9
$DIMTZIN
 70
     0
  9
$DIMALTZ
 70
     0
  9
$DIMALTTZ
 70
     0
  9
$DIMUPT
 70
     0
  9
$DIMDEC
 70
     2
  9
$DIMTDEC
 70
     2
  9
$DIMALTU
 70
     2
  9
$DIMALTTD
 70
     3
  9
$DIMTXSTY
  7
Standard
  9
$DIMAUNIT
 70
     0
  9
$DIMADEC
 70
     2
  9
$DIMALTRND
 40
0.0
  9
$DIMAZIN
 70
     0
  9
$DIMDSEP
 70
    44
  9
$DIMATFIT
 70
     3
  9
$DIMFRAC
 70
     0
  9
$DIMLDRBLK
  1

  9
$DIMLUNIT
 70
     2
  9
$DIMLWD
 70
    -2
  9
$DIMLWE
 70
    -2
  9
$DIMTMOVE
 70
     0
  9
$LUNITS
 70
     2
  9
$LUPREC
 70
     2
  9
$SKETCHINC
 40
1.0
  9
$FILLETRAD
 40
10.0
  9
$AUNITS
 70
     0
  9
$AUPREC
 70
     2
  9
$MENU
  1
.
  9
$ELEVATION
 40
0.0
  9
$PELEVATION
 40
0.0
  9
$THICKNESS
 40
0.0
  9
$LIMCHECK
 70
     0
  9
$CHAMFERA
 40
0.0
  9
$CHAMFERB
 40
0.0
  9
$CHAMFERC
 40
0.0
  9
$CHAMFERD
 40
0.0
  9
$SKPOLY
 70
     0
  9
$TDCREATE
 40
2458323.440050533
  9
$TDUCREATE
 40
2458323.065050533
  9
$TDUPDATE
 40
2458323.74149434
  9
$TDUUPDATE
 40
2458323.36649434
  9
$TDINDWG
 40
0.000943287
  9
$TDUSRTIMER
 40
2458323.366099965
  9
$USRTIMER
 70
     1
  9
$ANGBASE
 50
0.0
  9
$ANGDIR
 70
     0
  9
$PDMODE
 70
     0
  9
$PDSIZE
 40
-1.0
  9
$PLINEWID
 40
0.0
  9
$SPLFRAME
 70
     0
  9
$SPLINETYPE
 70
     6
  9
$SPLINESEGS
 70
     8
  9
$HANDSEED
  5
344
  9
$SURFTAB1
 70
     6
  9
$SURFTAB2
 70
     6
  9
$SURFTYPE
 70
     6
  9
$SURFU
 70
     6
  9
$SURFV
 70
     6
  9
$UCSBASE
  2

  9
$UCSNAME
  2

  9
$UCSORG
 10
0.0
 20
0.0
 30
0.0
  9
$UCSXDIR
 10
1.0
 20
0.0
 30
0.0
  9
$UCSYDIR
 10
0.0
 20
1.0
 30
0.0
  9
$UCSORTHOREF
  2

  9
$UCSORTHOVIEW
 70
     0
  9
$UCSORGTOP
 10
0.0
 20
0.0
 30
0.0
  9
$UCSORGBOTTOM
 10
0.0
 20
0.0
 30
0.0
  9
$UCSORGLEFT
 10
0.0
 20
0.0
 30
0.0
  9
$UCSORGRIGHT
 10
0.0
 20
0.0
 30
0.0
  9
$UCSORGFRONT
 10
0.0
 20
0.0
 30
0.0
  9
$UCSORGBACK
 10
0.0
 20
0.0
 30
0.0
  9
$PUCSBASE
  2

  9
$PUCSNAME
  2

  9
$PUCSORG
 10
0.0
 20
0.0
 30
0.0
  9
$PUCSXDIR
 10
1.0
 20
0.0
 30
0.0
  9
$PUCSYDIR
 10
0.0
 20
1.0
 30
0.0
  9
$PUCSORTHOREF
  2

  9
$PUCSORTHOVIEW
 70
     0
  9
$PUCSORGTOP
 10
0.0
 20
0.0
 30
0.0
  9
$PUCSORGBOTTOM
 10
0.0
 20
0.0
 30
0.0
  9
$PUCSORGLEFT
 10
0.0
 20
0.0
 30
0.0
  9
$PUCSORGRIGHT
 10
0.0
 20
0.0
 30
0.0
  9
$PUCSORGFRONT
 10
0.0
 20
0.0
 30
0.0
  9
$PUCSORGBACK
 10
0.0
 20
0.0
 30
0.0
  9
$USERI1
 70
     0
  9
$USERI2
 70
     0
  9
$USERI3
 70
     0
  9
$USERI4
 70
     0
  9
$USERI5
 70
     0
  9
$USERR1
 40
0.0
  9
$USERR2
 40
0.0
  9
$USERR3
 40
0.0
  9
$USERR4
 40
0.0
  9
$USERR5
 40
0.0
  9
$WORLDVIEW
 70
     1
  9
$SHADEDGE
 70
     3
  9
$SHADEDIF
 70
    70
  9
$TILEMODE
 70
     1
  9
$MAXACTVP
 70
    64
  9
$PINSBASE
 10
0.0
 20
0.0
 30
0.0
  9
$PLIMCHECK
 70
     0
  9
$PEXTMIN
 10
1.000000000000000E+20
 20
1.000000000000000E+20
 30
1.000000000000000E+20
  9
$PEXTMAX
 10
-1.000000000000000E+20
 20
-1.000000000000000E+20
 30
-1.000000000000000E+20
  9
$PLIMMIN
 10
0.0
 20
0.0
  9
$PLIMMAX
 10
0.0
 20
0.0
  9
$UNITMODE
 70
     0
  9
$VISRETAIN
 70
     1
  9
$PLINEGEN
 70
     0
  9
$PSLTSCALE
 70
     1
  9
$TREEDEPTH
 70
  3020
  9
$CMLSTYLE
  2
Standard
  9
$CMLJUST
 70
     0
  9
$CMLSCALE
 40
20.0
  9
$PROXYGRAPHICS
 70
     1
  9
$MEASUREMENT
 70
     1
  9
$CELWEIGHT
370
    -1
  9
$ENDCAPS
280
     0
  9
$JOINSTYLE
280
     0
  9
$LWDISPLAY
290
     1
  9
$INSUNITS
 70
     4
  9
$HYPERLINKBASE
  1

  9
$STYLESHEET
  1

  9
$XEDIT
290
     1
  9
$CEPSNTYPE
380
     0
  9
$PSTYLEMODE
290
     1
  9
$FINGERPRINTGUID
  2
{0C6B887F-BF42-4758-A884-4622B778DF18}
  9
$VERSIONGUID
  2
{FAEB1C32-E019-11D5-929B-00C0DF256EC4}
  9
$EXTNAMES
290
     1
  9
$PSVPSCALE
 40
0.0
  9
$OLESTARTUP
290
     0
  0
ENDSEC
  0
SECTION
  2
CLASSES
  0
CLASS
  1
ACDBDICTIONARYWDFLT
  2
AcDbDictionaryWithDefault
  3
ObjectDBX Classes
 90
        0
280
     0
281
     0
  0
CLASS
  1
VISUALSTYLE
  2
AcDbVisualStyle
  3
ObjectDBX Classes
 90
     4095
280
     0
281
     0
  0
CLASS
  1
MATERIAL
  2
AcDbMaterial
  3
ObjectDBX Classes
 90
     1153
280
     0
281
     0
  0
CLASS
  1
SCALE
  2
AcDbScale
  3
ObjectDBX Classes
 90
     1153
280
     0
281
     0
  0
CLASS
  1
SUN
  2
AcDbSun
  3
SCENEOE
 90
     1153
280
     0
281
     0
  0
CLASS
  1
ACDBPLACEHOLDER
  2
AcDbPlaceHolder
  3
ObjectDBX Classes
 90
        0
280
     0
281
     0
  0
CLASS
  1
LAYOUT
  2
AcDbLayout
  3
ObjectDBX Classes
 90
        0
280
     0
281
     0
  0
CLASS
  1
TABLESTYLE
  2
AcDbTableStyle
  3
ObjectDBX Classes
 90
     4095
280
     0
281
     0
  0
CLASS
  1
MLEADERSTYLE
  2
AcDbMLeaderStyle
  3
ACDB_MLEADERSTYLE_CLASS
 90
     4095
280
     0
281
     0
  0
CLASS
  1
RASTERVARIABLES
  2
AcDbRasterVariables
  3
ISM
 90
        0
280
     0
281
     0
  0
ENDSEC
  0
SECTION
  2
TABLES
  0
TABLE
  2
VPORT
  5
8
330
0
100
AcDbSymbolTable
 70
     1
  0
VPORT
  5
29
330
8
100
AcDbSymbolTableRecord
100
AcDbViewportTableRecord
  2
*Active
 70
     0
 10
0.0
 20
0.0
 11
1.0
 21
1.0
 12
19.76792201907884
 22
2.889667572950867
 13
0.0
 23
0.0
 14
10.0
 24
10.0
 15
10.0
 25
10.0
 16
0.0
 26
0.0
 36
1.0
 17
0.0
 27
0.0
 37
0.0
 40
155.2375058110654
 41
1.632093933463796
 42
50.0
 43
0.0
 44
0.0
 50
0.0
 51
0.0
 71
    16
 72
  2000
 73
     1
 74
     3
 75
     0
 76
     0
 77
     0
 78
     0
281
     0
 65
     1
110
0.0
120
0.0
130
0.0
111
1.0
121
0.0
131
0.0
112
0.0
122
1.0
132
0.0
 79
     0
146
0.0
  0
ENDTAB
  0
TABLE
  2
LTYPE
  5
5
330
0
100
AcDbSymbolTable
 70
     6
  0
LTYPE
  5
14
330
5
100
AcDbSymbolTableRecord
100
AcDbLinetypeTableRecord
  2
ByBlock
 70
     0
  3

 72
    65
 73
     0
 40
0.0
  0
LTYPE
  5
15
330
5
100
AcDbSymbolTableRecord
100
AcDbLinetypeTableRecord
  2
ByLayer
 70
     0
  3

 72
    65
 73
     0
 40
0.0
  0
LTYPE
  5
16
330
5
100
AcDbSymbolTableRecord
100
AcDbLinetypeTableRecord
  2
Continuous
 70
     0
  3
Solid line
 72
    65
 73
     0
 40
0.0
  0
LTYPE
  5
6A
330
5
100
AcDbSymbolTableRecord
100
AcDbLinetypeTableRecord
  2
HIDDEN
 70
     0
  3
Hidden __ __ __ __ __ __ __ __ __ __ __ __ __ __
 72
    65
 73
     2
 40
1.905
 49
1.27
 74
     0
 49
-0.635
 74
     0
  0
LTYPE
  5
6B
330
5
100
AcDbSymbolTableRecord
100
AcDbLinetypeTableRecord
  2
PHANTOM
 70
     0
  3
Phantom ______  __  __  ______  __  __  ______
 72
    65
 73
     6
 40
12.7
 49
6.35
 74
     0
 49
-1.27
 74
     0
 49
1.27
 74
     0
 49
-1.27
 74
     0
 49
1.27
 74
     0
 49
-1.27
 74
     0
  0
LTYPE
  5
6C
330
5
100
AcDbSymbolTableRecord
100
AcDbLinetypeTableRecord
  2
CENTER
 70
     0
  3
Center ____ _ ____ _ ____ _ ____ _ ____ _ ____
 72
    65
 73
     4
 40
10.16
 49
6.35
 74
     0
 49
-1.27
 74
     0
 49
1.27
 74
     0
 49
-1.27
 74
     0
  0
LTYPE
  5
6D
330
5
100
AcDbSymbolTableRecord
100
AcDbLinetypeTableRecord
  2
CENTERX2
 70
     0
  3
Center (2x) ________  __  ________  __  _____
 72
    65
 73
     4
 40
20.32
 49
12.7
 74
     0
 49
-2.54
 74
     0
 49
2.54
 74
     0
 49
-2.54
 74
     0
  0
LTYPE
  5
6E
330
5
100
AcDbSymbolTableRecord
100
AcDbLinetypeTableRecord
  2
DOT2
 70
     0
  3
Dot (.5x) ........................................
 72
    65
 73
     2
 40
0.635
 49
0.0
 74
     0
 49
-0.635
 74
     0
  0
ENDTAB
  0
TABLE
  2
LAYER
  5
2
102
{ACAD_XDICTIONARY
360
228
102
}
330
0
100
AcDbSymbolTable
 70
    18
  0
LAYER
  5
10
330
2
100
AcDbSymbolTableRecord
100
AcDbLayerTableRecord
  2
0
 70
     0
 62
     7
  6
Continuous
370
    -3
390
F
  0
LAYER
  5
6F
330
2
100
AcDbSymbolTableRecord
100
AcDbLayerTableRecord
  2
FORMAT
 70
     0
 62
     2
  6
Continuous
370
    -3
390
F
  0
LAYER
  5
70
330
2
100
AcDbSymbolTableRecord
100
AcDbLayerTableRecord
  2
외형선
 70
     0
 62
     4
  6
Continuous
370
    30
390
F
  0
LAYER
  5
71
330
2
100
AcDbSymbolTableRecord
100
AcDbLayerTableRecord
  2
숨은선
 70
     0
 62
     2
  6
HIDDEN
370
    15
390
F
  0
LAYER
  5
72
330
2
100
AcDbSymbolTableRecord
100
AcDbLayerTableRecord
  2
중심선
 70
     0
 62
     1
  6
CENTERX2
370
    -3
390
F
  0
LAYER
  5
73
330
2
100
AcDbSymbolTableRecord
100
AcDbLayerTableRecord
  2
파단선
 70
     0
 62
     4
  6
Continuous
370
    -3
390
F
  0
LAYER
  5
74
330
2
100
AcDbSymbolTableRecord
100
AcDbLayerTableRecord
  2
해칭선
 70
     0
 62
   100
  6
Continuous
370
    -3
390
F
  0
LAYER
  5
75
330
2
100
AcDbSymbolTableRecord
100
AcDbLayerTableRecord
  2
가는실선
 70
     0
 62
     4
  6
Continuous
370
    -3
390
F
  0
LAYER
  5
76
330
2
100
AcDbSymbolTableRecord
100
AcDbLayerTableRecord
  2
치수_보조선
 70
     0
 62
     4
  6
Continuous
370
    -3
390
F
  0
LAYER
  5
77
330
2
100
AcDbSymbolTableRecord
100
AcDbLayerTableRecord
  2
치수문자_일반주서
 70
     0
 62
     7
  6
Continuous
370
    15
390
F
  0
LAYER
  5
78
330
2
100
AcDbSymbolTableRecord
100
AcDbLayerTableRecord
  2
개별주서
 70
     0
 62
   100
  6
Continuous
370
    30
390
F
  0
LAYER
  5
79
330
2
100
AcDbSymbolTableRecord
100
AcDbLayerTableRecord
  2
중간선
 70
     0
 62
     2
  6
Continuous
370
    15
390
F
  0
LAYER
  5
7A
330
2
100
AcDbSymbolTableRecord
100
AcDbLayerTableRecord
  2
윤곽선
 70
     0
 62
     3
  6
Continuous
370
    40
390
F
  0
LAYER
  5
7B
330
2
100
AcDbSymbolTableRecord
100
AcDbLayerTableRecord
  2
중심마크
 70
     0
 62
   100
  6
Continuous
370
    30
390
F
  0
LAYER
  5
7C
330
2
100
AcDbSymbolTableRecord
100
AcDbLayerTableRecord
  2
가상선
 70
     0
 62
     4
  6
PHANTOM
370
    -3
390
F
  0
LAYER
  5
7D
330
2
100
AcDbSymbolTableRecord
100
AcDbLayerTableRecord
  2
특수지정선
 70
     0
 62
     5
  6
CENTERX2
370
    60
390
F
  0
LAYER
  5
7E
330
2
100
AcDbSymbolTableRecord
100
AcDbLayerTableRecord
  2
참조1
 70
     0
 62
    -4
  6
Continuous
370
    -3
390
F
  0
LAYER
  5
171
330
2
100
AcDbSymbolTableRecord
100
AcDbLayerTableRecord
  2
Defpoints
 70
     0
 62
     7
  6
Continuous
290
     0
370
    -3
390
F
  0
ENDTAB
  0
TABLE
  2
STYLE
  5
3
330
0
100
AcDbSymbolTable
 70
     2
  0
STYLE
  5
11
330
3
100
AcDbSymbolTableRecord
100
AcDbTextStyleTableRecord
  2
Standard
 70
     0
 40
0.0
 41
1.0
 50
0.0
 71
     0
 42
3.5
  3
txt
  4

  0
STYLE
  5
94
330
3
100
AcDbSymbolTableRecord
100
AcDbTextStyleTableRecord
  2
SLDTEXTSTYLE0
 70
     0
 40
0.0
 41
0.75
 50
0.0
 71
     0
 42
3.5
  3
TXT
  4

  0
ENDTAB
  0
TABLE
  2
VIEW
  5
6
330
0
100
AcDbSymbolTable
 70
     0
  0
ENDTAB
  0
TABLE
  2
UCS
  5
7
330
0
100
AcDbSymbolTable
 70
     0
  0
ENDTAB
  0
TABLE
  2
APPID
  5
9
330
0
100
AcDbSymbolTable
 70
     1
  0
APPID
  5
12
330
9
100
AcDbSymbolTableRecord
100
AcDbRegAppTableRecord
  2
ACAD
 70
     0
  0
ENDTAB
  0
TABLE
  2
DIMSTYLE
  5
A
330
0
100
AcDbSymbolTable
 70
     4
100
AcDbDimStyleTable
  0
DIMSTYLE
105
27
330
A
100
AcDbSymbolTableRecord
100
AcDbDimStyleTableRecord
  2
ISO-25
 70
     0
 41
2.5
 42
0.625
 43
3.75
 44
1.25
 73
     0
 74
     0
 77
     1
 78
     8
140
2.5
141
2.5
143
0.03937007874016
147
0.625
171
     3
172
     1
178
     0
271
     2
272
     2
274
     3
278
    44
283
     0
284
     8
340
11
  0
DIMSTYLE
105
EF
102
{ACAD_REACTORS
330
EE
330
117
330
12B
330
103
102
}
330
A
100
AcDbSymbolTableRecord
100
AcDbDimStyleTableRecord
  2
SLDDIMSTYLE0
 70
     0
 41
3.302
 44
0.0
 45
0.000000001
 73
     0
 74
     0
 77
     1
 78
    12
 79
     3
140
3.5
143
0.0393700787401575
147
0.875
148
0.000000001
170
     1
172
     1
173
     1
178
     0
271
     2
272
     2
276
     2
284
    12
289
     0
340
94
  0
DIMSTYLE
105
104
330
A
100
AcDbSymbolTableRecord
100
AcDbDimStyleTableRecord
  2
SLDDIMSTYLE1
 70
     0
 41
3.302
 44
0.0
 45
0.000000001
 73
     0
 74
     0
 77
     1
 78
     4
 79
     1
140
3.5
143
0.0393700787401575
147
0.875
148
0.000000001
170
     1
173
     1
178
     0
271
     2
272
     2
276
     2
284
    12
340
94
  0
DIMSTYLE
105
118
330
A
100
AcDbSymbolTableRecord
100
AcDbDimStyleTableRecord
  2
SLDDIMSTYLE2
 70
     0
 41
3.302
 44
0.0
 45
0.000000001
 73
     0
 74
     0
 77
     1
 78
    12
 79
     3
140
3.5
143
0.0393700787401575
147
0.875
148
0.000000001
170
     1
173
     1
178
     0
271
     2
272
     2
276
     2
284
    12
340
94
  0
ENDTAB
  0
TABLE
  2
BLOCK_RECORD
  5
1
330
0
100
AcDbSymbolTable
 70
    15
  0
BLOCK_RECORD
  5
1F
330
1
100
AcDbSymbolTableRecord
100
AcDbBlockTableRecord
  2
*Model_Space
340
22
  0
BLOCK_RECORD
  5
1B
330
1
100
AcDbSymbolTableRecord
100
AcDbBlockTableRecord
  2
*Paper_Space
340
1E
  0
BLOCK_RECORD
  5
23
330
1
100
AcDbSymbolTableRecord
100
AcDbBlockTableRecord
  2
*Paper_Space0
340
26
  0
BLOCK_RECORD
  5
7F
330
1
100
AcDbSymbolTableRecord
100
AcDbBlockTableRecord
  2
블럭10
340
0
102
{BLKREFS
331
E7
102
}
  0
BLOCK_RECORD
  5
F0
330
1
100
AcDbSymbolTableRecord
100
AcDbBlockTableRecord
  2
_D
340
0
  0
BLOCK_RECORD
  5
105
330
1
100
AcDbSymbolTableRecord
100
AcDbBlockTableRecord
  2
_D_1
340
0
  0
BLOCK_RECORD
  5
119
330
1
100
AcDbSymbolTableRecord
100
AcDbBlockTableRecord
  2
_D_2
340
0
  0
BLOCK_RECORD
  5
12C
330
1
100
AcDbSymbolTableRecord
100
AcDbBlockTableRecord
  2
_D_3
340
0
  0
BLOCK_RECORD
  5
145
330
1
100
AcDbSymbolTableRecord
100
AcDbBlockTableRecord
  2
SW_DOWELSYMBOL_0
340
0
102
{BLKREFS
331
14B
102
}
  0
BLOCK_RECORD
  5
22C
330
1
100
AcDbSymbolTableRecord
100
AcDbBlockTableRecord
  2
*D7
340
0
  0
BLOCK_RECORD
  5
238
330
1
100
AcDbSymbolTableRecord
100
AcDbBlockTableRecord
  2
*D8
340
0
  0
BLOCK_RECORD
  5
244
330
1
100
AcDbSymbolTableRecord
100
AcDbBlockTableRecord
  2
*D9
340
0
  0
BLOCK_RECORD
  5
250
330
1
100
AcDbSymbolTableRecord
100
AcDbBlockTableRecord
  2
*D10
340
0
  0
BLOCK_RECORD
  5
2B5
330
1
100
AcDbSymbolTableRecord
100
AcDbBlockTableRecord
  2
*D11
340
0
  0
BLOCK_RECORD
  5
2C1
330
1
100
AcDbSymbolTableRecord
100
AcDbBlockTableRecord
  2
*D12
340
0
  0
BLOCK_RECORD
  5
2CD
330
1
100
AcDbSymbolTableRecord
100
AcDbBlockTableRecord
  2
*D13
340
0
  0
BLOCK_RECORD
  5
2D9
330
1
100
AcDbSymbolTableRecord
100
AcDbBlockTableRecord
  2
*D14
340
0
  0
ENDTAB
  0
ENDSEC
  0
SECTION
  2
BLOCKS
  0
BLOCK
  5
20
330
1F
100
AcDbEntity
  8
0
100
AcDbBlockBegin
  2
*Model_Space
 70
     0
 10
0.0
 20
0.0
 30
0.0
  3
*Model_Space
  1
*Model_Space
  0
ENDBLK
  5
21
330
1F
100
AcDbEntity
  8
0
100
AcDbBlockEnd
  0
BLOCK
  5
1C
330
1B
100
AcDbEntity
 67
     1
  8
0
100
AcDbBlockBegin
  2
*Paper_Space
 70
     0
 10
0.0
 20
0.0
 30
0.0
  3
*Paper_Space
  1
*Paper_Space
  0
ENDBLK
  5
1D
330
1B
100
AcDbEntity
 67
     1
  8
0
100
AcDbBlockEnd
  0
BLOCK
  5
24
330
23
100
AcDbEntity
  8
0
100
AcDbBlockBegin
  2
*Paper_Space0
 70
     0
 10
0.0
 20
0.0
 30
0.0
  3
*Paper_Space0
  1
*Paper_Space0
  0
ENDBLK
  5
25
330
23
100
AcDbEntity
  8
0
100
AcDbBlockEnd
  0
BLOCK
  5
80
330
7F
100
AcDbEntity
  8
0
100
AcDbBlockBegin
  2
블럭10
 70
     2
 10
0.0
 20
0.0
 30
0.0
  3
블럭10
  1
블럭10
  0
ELLIPSE
  5
82
330
7F
100
AcDbEntity
  8
중심선
100
AcDbEllipse
 10
20.54032771741204
 20
12.0471743016438
 30
0.0
 11
6.600054785286829
 21
-1.261213355974178E-13
 31
0.0
210
0.0
220
0.0
230
1.0
 40
0.636358354079598
 41
0.9219305317359503
 42
6.513795318482858
  0
ELLIPSE
  5
83
330
7F
100
AcDbEntity
  8
중심선
100
AcDbEllipse
 10
20.54032771746488
 20
12.04717430159265
 30
0.0
 11
3.960054785062283
 21
1.540847449632565E-10
 31
0.0
210
0.0
220
0.0
230
1.0
 40
0.3939339440162632
 41
1.131841032648279
 42
5.62031148352944
  0
LINE
  5
84
330
7F
100
AcDbEntity
  8
중심선
100
AcDbLine
 10
2.268634060543552
 20
16.24717430164393
 30
0.0
 11
5.714909304380834
 21
16.24717430164393
 31
0.0
  0
LINE
  5
85
330
7F
100
AcDbEntity
  8
중심선
100
AcDbLine
 10
5.245725140726316
 20
7.84717430164391
 30
0.0
 11
8.692000384563599
 21
7.84717430164391
 31
0.0
  0
LINE
  5
86
330
7F
100
AcDbEntity
  8
중심선
100
AcDbLine
 10
15.74043728645272
 20
16.24717430164393
 30
0.0
 11
8.692000384563599
 21
7.84717430164391
 31
0.0
  0
LINE
  5
87
330
7F
100
AcDbEntity
  8
중심선
100
AcDbLine
 10
0.1404042013395286
 20
13.71084872107135
 30
0.0
 11
3.58671253028996
 21
13.71088815037384
 31
0.0
  0
LINE
  5
88
330
7F
100
AcDbEntity
  8
중심선
100
AcDbLine
 10
2.750260043222114
 20
10.84717430164391
 30
0.0
 11
6.196535287059397
 21
10.84717430164391
 31
0.0
  0
LINE
  5
89
330
7F
100
AcDbEntity
  8
중심선
100
AcDbLine
 10
12.29416204261559
 20
16.24717430164393
 30
0.0
 11
5.245725140726316
 21
7.84717430164391
 31
0.0
  0
LINE
  5
8A
330
7F
100
AcDbEntity
  8
중심선
100
AcDbLine
 10
10.72767329541681
 20
16.24717430164393
 30
0.0
 11
6.196535287059397
 21
10.84717430164391
 31
0.0
  0
LINE
  5
8B
330
7F
100
AcDbEntity
  8
중심선
100
AcDbLine
 10
7.28139805157953
 20
16.24717430164393
 30
0.0
 11
2.750260043222114
 21
10.84717430164391
 31
0.0
  0
LINE
  5
8C
330
7F
100
AcDbEntity
  8
중심선
100
AcDbLine
 10
5.714909304380834
 20
16.24717430164393
 30
0.0
 11
3.58671253028996
 21
13.71088815037384
 31
0.0
  0
LINE
  5
8D
330
7F
100
AcDbEntity
  8
중심선
100
AcDbLine
 10
2.268634060543552
 20
16.24717430164393
 30
0.0
 11
0.1404042013395286
 21
13.71084872107135
 31
0.0
  0
LINE
  5
8E
330
7F
100
AcDbEntity
  8
중심선
100
AcDbLine
 10
7.28139805157953
 20
16.24717430164393
 30
0.0
 11
10.72767329541681
 21
16.24717430164393
 31
0.0
  0
LINE
  5
8F
330
7F
100
AcDbEntity
  8
중심선
100
AcDbLine
 10
12.29416204261559
 20
16.24717430164393
 30
0.0
 11
15.74043728645272
 21
16.24717430164393
 31
0.0
  0
LINE
  5
90
330
7F
100
AcDbEntity
  8
중심선
100
AcDbLine
 10
19.22036997980202
 20
11.08717430171403
 30
0.0
 11
23.66174974927406
 21
11.08717430171406
 31
0.0
  0
LINE
  5
91
330
7F
100
AcDbEntity
  8
중심선
100
AcDbLine
 10
19.22039502424796
 20
13.00717430171391
 30
0.0
 11
19.22036997980202
 21
11.08717430171403
 31
0.0
  0
LINE
  5
92
330
7F
100
AcDbEntity
  8
중심선
100
AcDbLine
 10
19.22039502424796
 20
13.00717430171391
 30
0.0
 11
26.96566020931264
 21
13.00717430171391
 31
0.0
  0
LINE
  5
93
330
7F
100
AcDbEntity
  8
중심선
100
AcDbLine
 10
22.22332737316547
 20
13.45928029700563
 30
0.0
 11
24.52862924686651
 21
15.39360700705356
 31
0.0
  0
ATTDEF
  5
95
330
7F
100
AcDbEntity
  8
FORMAT
 62
     2
100
AcDbText
 10
4.408487351596664
 20
2.075366912832191
 30
0.0
 40
4.233333333333333
  1
E1162040
 41
0.75
  7
SLDTEXTSTYLE0
 11
4.408487351596664
 21
-0.0412997538344756
 31
0.0
100
AcDbAttributeDefinition
  3

  2
AUTOATTR0
 70
     0
 74
     1
  0
ENDBLK
  5
81
330
7F
100
AcDbEntity
  8
0
100
AcDbBlockEnd
  0
BLOCK
  5
F1
330
F0
100
AcDbEntity
  8
0
100
AcDbBlockBegin
  2
_D
 70
     0
 10
0.0
 20
0.0
 30
0.0
  3
_D
  1
_D
  0
LINE
  5
F3
330
F0
100
AcDbEntity
  8
치수문자_일반주서
 62
     0
370
    -2
100
AcDbLine
 10
-40.45000000000002
 20
7.938574928723908
 30
0.0
 11
-54.97500000000006
 21
7.938574928723853
 31
0.0
  0
LINE
  5
F4
330
F0
100
AcDbEntity
  8
치수문자_일반주서
 62
     0
370
    -2
100
AcDbLine
 10
-40.45000000000002
 20
-7.936425071276119
 30
0.0
 11
-54.975
 21
-7.936425071276174
 31
0.0
  0
LINE
  5
F5
330
F0
100
AcDbEntity
  8
치수문자_일반주서
 62
     0
370
    -2
100
AcDbLine
 10
-54.97500000000004
 20
4.636574928723854
 30
0.0
 11
-54.97500000000002
 21
-4.634425071276175
 31
0.0
  0
SOLID
  5
F6
330
F0
100
AcDbEntity
  8
치수문자_일반주서
 62
     0
100
AcDbTrace
 10
-54.42466666666671
 20
4.636574928723856
 30
0.0
 11
-55.52533333333338
 21
4.636574928723852
 31
0.0
 12
-54.97500000000006
 22
7.938574928723853
 32
0.0
 13
-54.97500000000006
 23
7.938574928723853
 33
0.0
  0
SOLID
  5
F7
330
F0
100
AcDbEntity
  8
치수문자_일반주서
 62
     0
100
AcDbTrace
 10
-55.52533333333335
 20
-4.634425071276176
 30
0.0
 11
-54.42466666666668
 21
-4.634425071276173
 31
0.0
 12
-54.975
 22
-7.936425071276174
 32
0.0
 13
-54.975
 23
-7.936425071276174
 33
0.0
  0
MTEXT
  5
F8
330
F0
100
AcDbEntity
  8
치수문자_일반주서
 62
     0
100
AcDbMText
 10
-59.35000000000003
 20
0.0010749287238924
 30
0.0
 40
3.5
 41
0.0
 71
     2
 72
     1
  1
\A1;%%c15.88 [5/8]
  7
SLDTEXTSTYLE0
 11
-3.580687802255617E-15
 21
1.0
 31
0.0
 73
     1
 44
1.0
  0
POINT
  5
F9
330
F0
100
AcDbEntity
  8
Defpoints
 62
     0
100
AcDbPoint
 10
-40.38750000000002
 20
7.938574928723908
 30
0.0
  0
POINT
  5
FA
330
F0
100
AcDbEntity
  8
Defpoints
 62
     0
100
AcDbPoint
 10
-40.38750000000002
 20
-7.936425071276119
 30
0.0
  0
POINT
  5
FB
330
F0
100
AcDbEntity
  8
Defpoints
 62
     0
100
AcDbPoint
 10
-54.975
 20
-7.936425071276173
 30
0.0
  0
ENDBLK
  5
F2
330
F0
100
AcDbEntity
  8
0
100
AcDbBlockEnd
  0
BLOCK
  5
106
330
105
100
AcDbEntity
  8
0
100
AcDbBlockBegin
  2
_D_1
 70
     0
 10
0.0
 20
0.0
 30
0.0
  3
_D_1
  1
_D_1
  0
LINE
  5
108
330
105
100
AcDbEntity
  8
치수문자_일반주서
 62
     0
370
    -2
100
AcDbLine
 10
75.49999999999999
 20
8.001074928723897
 30
0.0
 11
75.49999999999999
 21
30.42063796711783
 31
0.0
  0
LINE
  5
109
330
105
100
AcDbEntity
  8
치수문자_일반주서
 62
     0
370
    -2
100
AcDbLine
 10
11.99999999999998
 20
7.741168311757647
 30
0.0
 11
11.99999999999998
 21
30.42063796711783
 31
0.0
  0
LINE
  5
10A
330
105
100
AcDbEntity
  8
치수문자_일반주서
 62
     0
370
    -2
100
AcDbLine
 10
72.19799999999998
 20
30.42063796711783
 30
0.0
 11
15.30199999999998
 21
30.42063796711783
 31
0.0
  0
SOLID
  5
10B
330
105
100
AcDbEntity
  8
치수문자_일반주서
 62
     0
100
AcDbTrace
 10
72.19799999999998
 20
29.8703046337845
 30
0.0
 11
72.19799999999998
 21
30.97097130045116
 31
0.0
 12
75.49999999999999
 22
30.42063796711783
 32
0.0
 13
75.49999999999999
 23
30.42063796711783
 33
0.0
  0
SOLID
  5
10C
330
105
100
AcDbEntity
  8
치수문자_일반주서
 62
     0
100
AcDbTrace
 10
15.30199999999998
 20
30.97097130045116
 30
0.0
 11
15.30199999999998
 21
29.8703046337845
 31
0.0
 12
11.99999999999998
 22
30.42063796711783
 32
0.0
 13
11.99999999999998
 23
30.42063796711783
 33
0.0
  0
MTEXT
  5
10D
330
105
100
AcDbEntity
  8
치수문자_일반주서
 62
     0
100
AcDbMText
 10
43.74999999999998
 20
34.79563796711783
 30
0.0
 40
3.5
 41
0.0
 71
     2
 72
     1
  1
\A1;63.5 [2 1/2]
  7
SLDTEXTSTYLE0
 73
     1
 44
1.0
  0
POINT
  5
10E
330
105
100
AcDbEntity
  8
Defpoints
 62
     0
100
AcDbPoint
 10
75.49999999999999
 20
7.938574928723897
 30
0.0
  0
POINT
  5
10F
330
105
100
AcDbEntity
  8
Defpoints
 62
     0
100
AcDbPoint
 10
11.99999999999998
 20
7.678668311757647
 30
0.0
  0
POINT
  5
110
330
105
100
AcDbEntity
  8
Defpoints
 62
     0
100
AcDbPoint
 10
11.99999999999998
 20
30.42063796711783
 30
0.0
  0
ENDBLK
  5
107
330
105
100
AcDbEntity
  8
0
100
AcDbBlockEnd
  0
BLOCK
  5
11A
330
119
100
AcDbEntity
  8
0
100
AcDbBlockBegin
  2
_D_2
 70
     0
 10
0.0
 20
0.0
 30
0.0
  3
_D_2
  1
_D_2
  0
LINE
  5
11C
330
119
100
AcDbEntity
  8
치수문자_일반주서
 62
     0
370
    -2
100
AcDbLine
 10
75.49999999999999
 20
8.001074928723897
 30
0.0
 11
75.49999999999997
 21
42.42063796711784
 31
0.0
  0
LINE
  5
11D
330
119
100
AcDbEntity
  8
치수문자_일반주서
 62
     0
370
    -2
100
AcDbLine
 10
-41.97500000000002
 20
6.413574928723902
 30
0.0
 11
-41.97500000000003
 21
42.42063796711784
 31
0.0
  0
LINE
  5
11E
330
119
100
AcDbEntity
  8
치수문자_일반주서
 62
     0
370
    -2
100
AcDbLine
 10
72.19799999999998
 20
42.42063796711784
 30
0.0
 11
-38.67300000000003
 21
42.42063796711784
 31
0.0
  0
SOLID
  5
11F
330
119
100
AcDbEntity
  8
치수문자_일반주서
 62
     0
100
AcDbTrace
 10
72.19799999999998
 20
41.87030463378451
 30
0.0
 11
72.19799999999998
 21
42.97097130045118
 31
0.0
 12
75.49999999999997
 22
42.42063796711784
 32
0.0
 13
75.49999999999997
 23
42.42063796711784
 33
0.0
  0
SOLID
  5
120
330
119
100
AcDbEntity
  8
치수문자_일반주서
 62
     0
100
AcDbTrace
 10
-38.67300000000003
 20
42.97097130045118
 30
0.0
 11
-38.67300000000003
 21
41.87030463378451
 31
0.0
 12
-41.97500000000003
 22
42.42063796711784
 32
0.0
 13
-41.97500000000003
 23
42.42063796711784
 33
0.0
  0
MTEXT
  5
121
330
119
100
AcDbEntity
  8
치수문자_일반주서
 62
     0
100
AcDbMText
 10
16.76249999999998
 20
46.79563796711784
 30
0.0
 40
3.5
 41
0.0
 71
     2
 72
     1
  1
\A1;117.48 [4 5/8]
  7
SLDTEXTSTYLE0
 73
     1
 44
1.0
  0
POINT
  5
122
330
119
100
AcDbEntity
  8
Defpoints
 62
     0
100
AcDbPoint
 10
75.49999999999999
 20
7.938574928723897
 30
0.0
  0
POINT
  5
123
330
119
100
AcDbEntity
  8
Defpoints
 62
     0
100
AcDbPoint
 10
-41.97500000000002
 20
6.351074928723902
 30
0.0
  0
POINT
  5
124
330
119
100
AcDbEntity
  8
Defpoints
 62
     0
100
AcDbPoint
 10
-41.97500000000002
 20
42.42063796711784
 30
0.0
  0
ENDBLK
  5
11B
330
119
100
AcDbEntity
  8
0
100
AcDbBlockEnd
  0
BLOCK
  5
12D
330
12C
100
AcDbEntity
  8
0
100
AcDbBlockBegin
  2
_D_3
 70
     0
 10
0.0
 20
0.0
 30
0.0
  3
_D_3
  1
_D_3
  0
LINE
  5
12F
330
12C
100
AcDbEntity
  8
치수문자_일반주서
 62
     0
370
    -2
100
AcDbLine
 10
75.56249999999999
 20
7.938574928723899
 30
0.0
 11
98.51617686287024
 21
7.938574928723984
 31
0.0
  0
LINE
  5
130
330
12C
100
AcDbEntity
  8
치수문자_일반주서
 62
     0
370
    -2
100
AcDbLine
 10
75.56249999999999
 20
-7.936425071276108
 30
0.0
 11
98.5161768628703
 21
-7.936425071276023
 31
0.0
  0
LINE
  5
131
330
12C
100
AcDbEntity
  8
치수문자_일반주서
 62
     0
370
    -2
100
AcDbLine
 10
98.51617686287024
 20
7.938574928723984
 30
0.0
 11
98.51617686287011
 21
42.54257492872398
 31
0.0
  0
LINE
  5
132
330
12C
100
AcDbEntity
  8
치수문자_일반주서
 62
     0
370
    -2
100
AcDbLine
 10
98.51617686287024
 20
7.938574928723984
 30
0.0
 11
98.5161768628703
 21
-7.936425071276023
 31
0.0
  0
LINE
  5
133
330
12C
100
AcDbEntity
  8
치수문자_일반주서
 62
     0
370
    -2
100
AcDbLine
 10
98.51617686287022
 20
11.24057492872398
 30
0.0
 11
98.51617686287021
 21
14.54257492872398
 31
0.0
  0
LINE
  5
134
330
12C
100
AcDbEntity
  8
치수문자_일반주서
 62
     0
370
    -2
100
AcDbLine
 10
98.51617686287031
 20
-11.23842507127602
 30
0.0
 11
98.51617686287032
 21
-14.54042507127602
 31
0.0
  0
SOLID
  5
135
330
12C
100
AcDbEntity
  8
치수문자_일반주서
 62
     0
100
AcDbTrace
 10
97.9658435295369
 20
11.24057492872398
 30
0.0
 11
99.06651019620355
 21
11.24057492872399
 31
0.0
 12
98.51617686287024
 22
7.938574928723984
 32
0.0
 13
98.51617686287024
 23
7.938574928723984
 33
0.0
  0
SOLID
  5
136
330
12C
100
AcDbEntity
  8
치수문자_일반주서
 62
     0
100
AcDbTrace
 10
99.06651019620364
 20
-11.23842507127602
 30
0.0
 11
97.96584352953698
 21
-11.23842507127602
 31
0.0
 12
98.5161768628703
 22
-7.936425071276023
 32
0.0
 13
98.5161768628703
 23
-7.936425071276023
 33
0.0
  0
MTEXT
  5
137
330
12C
100
AcDbEntity
  8
치수문자_일반주서
 62
     0
100
AcDbMText
 10
94.14117686287017
 20
28.54257492872397
 30
0.0
 40
3.5
 41
0.0
 71
     2
 72
     1
  1
\A1;%%c15.88 [5/8]
  7
SLDTEXTSTYLE0
 11
-3.580687802255621E-15
 21
1.0
 31
0.0
 73
     1
 44
1.0
  0
POINT
  5
138
330
12C
100
AcDbEntity
  8
Defpoints
 62
     0
100
AcDbPoint
 10
75.49999999999999
 20
7.938574928723899
 30
0.0
  0
POINT
  5
2E8
330
12C
100
AcDbEntity
  8
Defpoints
 62
     0
100
AcDbPoint
 10
75.49999999999999
 20
-7.936425071276108
 30
0.0
  0
POINT
  5
2E9
330
12C
100
AcDbEntity
  8
Defpoints
 62
     0
100
AcDbPoint
 10
98.5161768628703
 20
-7.936425071276022
 30
0.0
  0
ENDBLK
  5
12E
330
12C
100
AcDbEntity
  8
0
100
AcDbBlockEnd
  0
BLOCK
  5
146
330
145
100
AcDbEntity
  8
0
100
AcDbBlockBegin
  2
SW_DOWELSYMBOL_0
 70
     0
 10
0.0
 20
0.0
 30
0.0
  3
SW_DOWELSYMBOL_0
  1
SW_DOWELSYMBOL_0
  0
CIRCLE
  5
148
330
145
100
AcDbEntity
  8
해칭선
 62
     0
100
AcDbCircle
 10
0.0
 20
0.0
 30
0.0
 40
3.000000000000002
  0
HATCH
  5
149
330
145
100
AcDbEntity
  8
0
  6
Continuous
 62
     0
370
     0
100
AcDbHatch
 10
0.0
 20
0.0
 30
0.0
210
0.0
220
0.0
230
1.0
  2
SOLID
 70
     1
 71
     0
 91
        1
 92
        0
 93
        3
 72
     2
 10
0.000000000000052
 20
0.0
 40
3.000000000000002
 50
0.0
 51
90.0
 73
     1
 72
     1
 10
0.000000000000052
 20
3.000000000000002
 11
0.000000000000052
 21
0.0
 72
     1
 10
0.000000000000052
 20
0.0
 11
3.000000000000054
 21
0.0
 97
        0
 75
     0
 76
     1
 98
        1
 10
0.0
 20
0.0
  0
HATCH
  5
14A
330
145
100
AcDbEntity
  8
0
  6
Continuous
 62
     0
370
     0
100
AcDbHatch
 10
0.0
 20
0.0
 30
0.0
210
0.0
220
0.0
230
1.0
  2
SOLID
 70
     1
 71
     0
 91
        1
 92
        0
 93
        3
 72
     2
 10
0.000000000000052
 20
0.0
 40
3.000000000000002
 50
180.0
 51
270.0000000000007
 73
     1
 72
     1
 10
0.000000000000052
 20
-3.000000000000002
 11
0.000000000000052
 21
0.0
 72
     1
 10
0.000000000000052
 20
0.0
 11
-2.99999999999995
 21
0.0
 97
        0
 75
     0
 76
     1
 98
        1
 10
0.0
 20
0.0
  0
ENDBLK
  5
147
330
145
100
AcDbEntity
  8
0
100
AcDbBlockEnd
  0
BLOCK
  5
22D
330
22C
100
AcDbEntity
  8
0
100
AcDbBlockBegin
  2
*D7
 70
     1
 10
0.0
 20
0.0
 30
0.0
  3
*D7
  1
*D8
  0
LINE
  5
22F
330
22C
100
AcDbEntity
  8
치수문자_일반주서
 62
     0
370
    -2
100
AcDbLine
 10
18.90000000000006
 20
19.30399999999992
 30
0.0
 11
4.375000000000028
 21
19.30399999999987
 31
0.0
  0
LINE
  5
230
330
22C
100
AcDbEntity
  8
치수문자_일반주서
 62
     0
370
    -2
100
AcDbLine
 10
18.90000000000006
 20
6.603999999999934
 30
0.0
 11
4.375000000000072
 21
6.603999999999878
 31
0.0
  0
LINE
  5
231
330
22C
100
AcDbEntity
  8
치수문자_일반주서
 62
     0
370
    -2
100
AcDbLine
 10
4.375000000000039
 20
16.00199999999987
 30
0.0
 11
4.37500000000006
 21
9.905999999999878
 31
0.0
  0
SOLID
  5
232
330
22C
100
AcDbEntity
  8
치수문자_일반주서
 62
     0
100
AcDbTrace
 10
4.925333333333373
 20
16.00199999999987
 30
0.0
 11
3.824666666666706
 21
16.00199999999986
 31
0.0
 12
4.375000000000028
 22
19.30399999999987
 32
0.0
 13
4.375000000000028
 23
19.30399999999987
 33
0.0
  0
SOLID
  5
233
330
22C
100
AcDbEntity
  8
치수문자_일반주서
 62
     0
100
AcDbTrace
 10
3.824666666666727
 20
9.905999999999876
 30
0.0
 11
4.925333333333394
 21
9.90599999999988
 31
0.0
 12
4.375000000000072
 22
6.603999999999878
 32
0.0
 13
4.375000000000072
 23
6.603999999999878
 33
0.0
  0
MTEXT
  5
234
330
22C
100
AcDbEntity
  8
치수문자_일반주서
 62
     0
100
AcDbMText
 10
0.0000000000000497
 20
12.95399999999991
 30
0.0
 40
3.5
 41
0.0
 71
     2
 72
     1
  1
\A1;%%c12.7 [1/2]
  7
SLDTEXTSTYLE0
 11
-3.496765431890260E-15
 21
1.0
 31
0.0
 73
     1
 44
1.0
  0
POINT
  5
235
330
22C
100
AcDbEntity
  8
Defpoints
 62
     0
100
AcDbPoint
 10
18.96250000000006
 20
19.30399999999992
 30
0.0
  0
POINT
  5
236
330
22C
100
AcDbEntity
  8
Defpoints
 62
     0
100
AcDbPoint
 10
18.96250000000006
 20
6.603999999999934
 30
0.0
  0
POINT
  5
237
330
22C
100
AcDbEntity
  8
Defpoints
 62
     0
100
AcDbPoint
 10
4.375000000000071
 20
6.60399999999988
 30
0.0
  0
ENDBLK
  5
22E
330
22C
100
AcDbEntity
  8
0
100
AcDbBlockEnd
  0
BLOCK
  5
239
330
238
100
AcDbEntity
  8
0
100
AcDbBlockBegin
  2
*D8
 70
     1
 10
0.0
 20
0.0
 30
0.0
  3
*D8
  1
*D9
  0
LINE
  5
23B
330
238
100
AcDbEntity
  8
치수문자_일반주서
 62
     0
370
    -2
100
AcDbLine
 10
119.2925000000001
 20
19.36649999999993
 30
0.0
 11
119.2925000000001
 21
41.79764773883323
 31
0.0
  0
LINE
  5
23C
330
238
100
AcDbEntity
  8
치수문자_일반주서
 62
     0
370
    -2
100
AcDbLine
 10
68.49250000000006
 20
19.15836549805064
 30
0.0
 11
68.49250000000006
 21
41.79764773883323
 31
0.0
  0
LINE
  5
23D
330
238
100
AcDbEntity
  8
치수문자_일반주서
 62
     0
370
    -2
100
AcDbLine
 10
115.9905000000001
 20
41.79764773883323
 30
0.0
 11
71.79450000000006
 21
41.79764773883323
 31
0.0
  0
SOLID
  5
23E
330
238
100
AcDbEntity
  8
치수문자_일반주서
 62
     0
100
AcDbTrace
 10
115.9905000000001
 20
41.2473144054999
 30
0.0
 11
115.9905000000001
 21
42.34798107216657
 31
0.0
 12
119.2925000000001
 22
41.79764773883323
 32
0.0
 13
119.2925000000001
 23
41.79764773883323
 33
0.0
  0
SOLID
  5
23F
330
238
100
AcDbEntity
  8
치수문자_일반주서
 62
     0
100
AcDbTrace
 10
71.79450000000006
 20
42.34798107216657
 30
0.0
 11
71.79450000000006
 21
41.2473144054999
 31
0.0
 12
68.49250000000006
 22
41.79764773883323
 32
0.0
 13
68.49250000000006
 23
41.79764773883323
 33
0.0
  0
MTEXT
  5
240
330
238
100
AcDbEntity
  8
치수문자_일반주서
 62
     0
100
AcDbMText
 10
93.89250000000006
 20
46.17264773883323
 30
0.0
 40
3.5
 41
0.0
 71
     2
 72
     1
  1
\A1;50.8 [2]
  7
SLDTEXTSTYLE0
 73
     1
 44
1.0
  0
POINT
  5
241
330
238
100
AcDbEntity
  8
Defpoints
 62
     0
100
AcDbPoint
 10
119.2925000000001
 20
19.30399999999993
 30
0.0
  0
POINT
  5
242
330
238
100
AcDbEntity
  8
Defpoints
 62
     0
100
AcDbPoint
 10
68.49250000000006
 20
19.09586549805064
 30
0.0
  0
POINT
  5
243
330
238
100
AcDbEntity
  8
Defpoints
 62
     0
100
AcDbPoint
 10
68.49250000000006
 20
41.79764773883323
 30
0.0
  0
ENDBLK
  5
23A
330
238
100
AcDbEntity
  8
0
100
AcDbBlockEnd
  0
BLOCK
  5
245
330
244
100
AcDbEntity
  8
0
100
AcDbBlockBegin
  2
*D9
 70
     1
 10
0.0
 20
0.0
 30
0.0
  3
*D9
  1
*D10
  0
LINE
  5
247
330
244
100
AcDbEntity
  8
치수문자_일반주서
 62
     0
370
    -2
100
AcDbLine
 10
119.2925000000001
 20
19.36649999999993
 30
0.0
 11
119.2925000000001
 21
53.79764773883324
 31
0.0
  0
LINE
  5
248
330
244
100
AcDbEntity
  8
치수문자_일반주서
 62
     0
370
    -2
100
AcDbLine
 10
17.69250000000007
 20
18.09649999999993
 30
0.0
 11
17.69250000000007
 21
53.79764773883324
 31
0.0
  0
LINE
  5
249
330
244
100
AcDbEntity
  8
치수문자_일반주서
 62
     0
370
    -2
100
AcDbLine
 10
115.9905000000001
 20
53.79764773883324
 30
0.0
 11
20.99450000000007
 21
53.79764773883324
 31
0.0
  0
SOLID
  5
24A
330
244
100
AcDbEntity
  8
치수문자_일반주서
 62
     0
100
AcDbTrace
 10
115.9905000000001
 20
53.24731440549991
 30
0.0
 11
115.9905000000001
 21
54.34798107216658
 31
0.0
 12
119.2925000000001
 22
53.79764773883324
 32
0.0
 13
119.2925000000001
 23
53.79764773883324
 33
0.0
  0
SOLID
  5
24B
330
244
100
AcDbEntity
  8
치수문자_일반주서
 62
     0
100
AcDbTrace
 10
20.99450000000007
 20
54.34798107216658
 30
0.0
 11
20.99450000000007
 21
53.24731440549991
 31
0.0
 12
17.69250000000007
 22
53.79764773883324
 32
0.0
 13
17.69250000000007
 23
53.79764773883324
 33
0.0
  0
MTEXT
  5
24C
330
244
100
AcDbEntity
  8
치수문자_일반주서
 62
     0
100
AcDbMText
 10
68.49250000000006
 20
58.17264773883324
 30
0.0
 40
3.5
 41
0.0
 71
     2
 72
     1
  1
\A1;101.6 [4]
  7
SLDTEXTSTYLE0
 73
     1
 44
1.0
  0
POINT
  5
24D
330
244
100
AcDbEntity
  8
Defpoints
 62
     0
100
AcDbPoint
 10
119.2925000000001
 20
19.30399999999993
 30
0.0
  0
POINT
  5
24E
330
244
100
AcDbEntity
  8
Defpoints
 62
     0
100
AcDbPoint
 10
17.69250000000007
 20
18.03399999999993
 30
0.0
  0
POINT
  5
24F
330
244
100
AcDbEntity
  8
Defpoints
 62
     0
100
AcDbPoint
 10
17.69250000000007
 20
53.79764773883324
 30
0.0
  0
ENDBLK
  5
246
330
244
100
AcDbEntity
  8
0
100
AcDbBlockEnd
  0
BLOCK
  5
251
330
250
100
AcDbEntity
  8
0
100
AcDbBlockBegin
  2
*D10
 70
     1
 10
0.0
 20
0.0
 30
0.0
  3
*D10
  1
*D11
  0
LINE
  5
253
330
250
100
AcDbEntity
  8
치수문자_일반주서
 62
     0
370
    -2
100
AcDbLine
 10
119.3550000000001
 20
19.30399999999993
 30
0.0
 11
137.6733063089935
 21
19.304
 31
0.0
  0
LINE
  5
254
330
250
100
AcDbEntity
  8
치수문자_일반주서
 62
     0
370
    -2
100
AcDbLine
 10
119.3550000000001
 20
6.603999999999926
 30
0.0
 11
137.6733063089935
 21
6.603999999999992
 31
0.0
  0
LINE
  5
255
330
250
100
AcDbEntity
  8
치수문자_일반주서
 62
     0
370
    -2
100
AcDbLine
 10
137.6733063089935
 20
19.304
 30
0.0
 11
137.6733063089933
 21
51.93924999999999
 31
0.0
  0
LINE
  5
256
330
250
100
AcDbEntity
  8
치수문자_일반주서
 62
     0
370
    -2
100
AcDbLine
 10
137.6733063089935
 20
19.304
 30
0.0
 11
137.6733063089935
 21
6.603999999999992
 31
0.0
  0
LINE
  5
257
330
250
100
AcDbEntity
  8
치수문자_일반주서
 62
     0
370
    -2
100
AcDbLine
 10
137.6733063089935
 20
22.606
 30
0.0
 11
137.6733063089934
 21
25.908
 31
0.0
  0
LINE
  5
258
330
250
100
AcDbEntity
  8
치수문자_일반주서
 62
     0
370
    -2
100
AcDbLine
 10
137.6733063089936
 20
3.301999999999992
 30
0.0
 11
137.6733063089936
 21
-0.0000000000000071
 31
0.0
  0
SOLID
  5
259
330
250
100
AcDbEntity
  8
치수문자_일반주서
 62
     0
100
AcDbTrace
 10
137.1229729756601
 20
22.60599999999999
 30
0.0
 11
138.2236396423268
 21
22.606
 31
0.0
 12
137.6733063089935
 22
19.304
 32
0.0
 13
137.6733063089935
 23
19.304
 33
0.0
  0
SOLID
  5
25A
330
250
100
AcDbEntity
  8
치수문자_일반주서
 62
     0
100
AcDbTrace
 10
138.2236396423269
 20
3.301999999999995
 30
0.0
 11
137.1229729756602
 21
3.30199999999999
 31
0.0
 12
137.6733063089935
 22
6.603999999999992
 32
0.0
 13
137.6733063089935
 23
6.603999999999992
 33
0.0
  0
MTEXT
  5
25B
330
250
100
AcDbEntity
  8
치수문자_일반주서
 62
     0
100
AcDbMText
 10
133.2983063089934
 20
39.68924999999997
 30
0.0
 40
3.5
 41
0.0
 71
     2
 72
     1
  1
\A1;%%c12.7 [1/2]
  7
SLDTEXTSTYLE0
 11
-4.475859752819528E-15
 21
1.0
 31
0.0
 73
     1
 44
1.0
  0
POINT
  5
25C
330
250
100
AcDbEntity
  8
Defpoints
 62
     0
100
AcDbPoint
 10
119.2925000000001
 20
19.30399999999993
 30
0.0
  0
POINT
  5
25D
330
250
100
AcDbEntity
  8
Defpoints
 62
     0
100
AcDbPoint
 10
119.2925000000001
 20
6.603999999999926
 30
0.0
  0
POINT
  5
25E
330
250
100
AcDbEntity
  8
Defpoints
 62
     0
100
AcDbPoint
 10
137.6733063089935
 20
6.603999999999995
 30
0.0
  0
ENDBLK
  5
252
330
250
100
AcDbEntity
  8
0
100
AcDbBlockEnd
  0
BLOCK
  5
2B6
330
2B5
100
AcDbEntity
  8
0
100
AcDbBlockBegin
  2
*D11
 70
     1
 10
0.0
 20
0.0
 30
0.0
  3
*D11
  1
*D12
  0
LINE
  5
2B8
330
2B5
100
AcDbEntity
  8
치수문자_일반주서
 62
     0
370
    -2
100
AcDbLine
 10
122.3577193246349
 20
-56.1283062835375
 30
0.0
 11
107.8327193246349
 21
-56.12830628353756
 31
0.0
  0
LINE
  5
2B9
330
2B5
100
AcDbEntity
  8
치수문자_일반주서
 62
     0
370
    -2
100
AcDbLine
 10
122.3577193246349
 20
-68.8283062835375
 30
0.0
 11
107.8327193246349
 21
-68.82830628353756
 31
0.0
  0
LINE
  5
2BA
330
2B5
100
AcDbEntity
  8
치수문자_일반주서
 62
     0
370
    -2
100
AcDbLine
 10
107.8327193246349
 20
-59.43030628353756
 30
0.0
 11
107.8327193246349
 21
-65.52630628353756
 31
0.0
  0
SOLID
  5
2BB
330
2B5
100
AcDbEntity
  8
치수문자_일반주서
 62
     0
100
AcDbTrace
 10
108.3830526579682
 20
-59.43030628353756
 30
0.0
 11
107.2823859913015
 21
-59.43030628353756
 31
0.0
 12
107.8327193246349
 22
-56.12830628353756
 32
0.0
 13
107.8327193246349
 23
-56.12830628353756
 33
0.0
  0
SOLID
  5
2BC
330
2B5
100
AcDbEntity
  8
치수문자_일반주서
 62
     0
100
AcDbTrace
 10
107.2823859913016
 20
-65.52630628353756
 30
0.0
 11
108.3830526579682
 21
-65.52630628353756
 31
0.0
 12
107.8327193246349
 22
-68.82830628353756
 32
0.0
 13
107.8327193246349
 23
-68.82830628353756
 33
0.0
  0
MTEXT
  5
2BD
330
2B5
100
AcDbEntity
  8
치수문자_일반주서
 62
     0
100
AcDbMText
 10
103.4577193246349
 20
-62.47830628353752
 30
0.0
 40
3.5
 41
0.0
 71
     2
 72
     1
  1
\A1;%%c12.7 [1/2]
  7
SLDTEXTSTYLE0
 11
-3.356894814614648E-15
 21
1.0
 31
0.0
 73
     1
 44
1.0
  0
POINT
  5
2BE
330
2B5
100
AcDbEntity
  8
Defpoints
 62
     0
100
AcDbPoint
 10
122.4202193246349
 20
-56.1283062835375
 30
0.0
  0
POINT
  5
2BF
330
2B5
100
AcDbEntity
  8
Defpoints
 62
     0
100
AcDbPoint
 10
122.4202193246349
 20
-68.8283062835375
 30
0.0
  0
POINT
  5
2C0
330
2B5
100
AcDbEntity
  8
Defpoints
 62
     0
100
AcDbPoint
 10
107.8327193246349
 20
-68.82830628353756
 30
0.0
  0
ENDBLK
  5
2B7
330
2B5
100
AcDbEntity
  8
0
100
AcDbBlockEnd
  0
BLOCK
  5
2C2
330
2C1
100
AcDbEntity
  8
0
100
AcDbBlockBegin
  2
*D12
 70
     1
 10
0.0
 20
0.0
 30
0.0
  3
*D12
  1
*D13
  0
LINE
  5
2C4
330
2C1
100
AcDbEntity
  8
치수문자_일반주서
 62
     0
370
    -2
100
AcDbLine
 10
222.7502193246349
 20
-56.0658062835375
 30
0.0
 11
222.7502193246349
 21
-33.63465854470419
 31
0.0
  0
LINE
  5
2C5
330
2C1
100
AcDbEntity
  8
치수문자_일반주서
 62
     0
370
    -2
100
AcDbLine
 10
171.9502193246349
 20
-56.27394078548679
 30
0.0
 11
171.9502193246349
 21
-33.63465854470419
 31
0.0
  0
LINE
  5
2C6
330
2C1
100
AcDbEntity
  8
치수문자_일반주서
 62
     0
370
    -2
100
AcDbLine
 10
219.4482193246349
 20
-33.63465854470419
 30
0.0
 11
175.2522193246349
 21
-33.63465854470419
 31
0.0
  0
SOLID
  5
2C7
330
2C1
100
AcDbEntity
  8
치수문자_일반주서
 62
     0
100
AcDbTrace
 10
219.4482193246349
 20
-34.18499187803753
 30
0.0
 11
219.4482193246349
 21
-33.08432521137086
 31
0.0
 12
222.7502193246349
 22
-33.63465854470419
 32
0.0
 13
222.7502193246349
 23
-33.63465854470419
 33
0.0
  0
SOLID
  5
2C8
330
2C1
100
AcDbEntity
  8
치수문자_일반주서
 62
     0
100
AcDbTrace
 10
175.2522193246349
 20
-33.08432521137086
 30
0.0
 11
175.2522193246349
 21
-34.18499187803753
 31
0.0
 12
171.9502193246349
 22
-33.63465854470419
 32
0.0
 13
171.9502193246349
 23
-33.63465854470419
 33
0.0
  0
MTEXT
  5
2C9
330
2C1
100
AcDbEntity
  8
치수문자_일반주서
 62
     0
100
AcDbMText
 10
197.3502193246348
 20
-29.25965854470419
 30
0.0
 40
3.5
 41
0.0
 71
     2
 72
     1
  1
\A1;50.8 [2]
  7
SLDTEXTSTYLE0
 73
     1
 44
1.0
  0
POINT
  5
2CA
330
2C1
100
AcDbEntity
  8
Defpoints
 62
     0
100
AcDbPoint
 10
222.7502193246349
 20
-56.1283062835375
 30
0.0
  0
POINT
  5
2CB
330
2C1
100
AcDbEntity
  8
Defpoints
 62
     0
100
AcDbPoint
 10
171.9502193246349
 20
-56.33644078548679
 30
0.0
  0
POINT
  5
2CC
330
2C1
100
AcDbEntity
  8
Defpoints
 62
     0
100
AcDbPoint
 10
171.9502193246349
 20
-33.63465854470419
 30
0.0
  0
ENDBLK
  5
2C3
330
2C1
100
AcDbEntity
  8
0
100
AcDbBlockEnd
  0
BLOCK
  5
2CE
330
2CD
100
AcDbEntity
  8
0
100
AcDbBlockBegin
  2
*D13
 70
     1
 10
0.0
 20
0.0
 30
0.0
  3
*D13
  1
*D14
  0
LINE
  5
2D0
330
2CD
100
AcDbEntity
  8
치수문자_일반주서
 62
     0
370
    -2
100
AcDbLine
 10
222.7502193246349
 20
-56.0658062835375
 30
0.0
 11
222.7502193246349
 21
-21.63465854470419
 31
0.0
  0
LINE
  5
2D1
330
2CD
100
AcDbEntity
  8
치수문자_일반주서
 62
     0
370
    -2
100
AcDbLine
 10
121.1502193246349
 20
-57.33580628353749
 30
0.0
 11
121.1502193246349
 21
-21.63465854470419
 31
0.0
  0
LINE
  5
2D2
330
2CD
100
AcDbEntity
  8
치수문자_일반주서
 62
     0
370
    -2
100
AcDbLine
 10
219.4482193246349
 20
-21.63465854470419
 30
0.0
 11
124.4522193246349
 21
-21.63465854470419
 31
0.0
  0
SOLID
  5
2D3
330
2CD
100
AcDbEntity
  8
치수문자_일반주서
 62
     0
100
AcDbTrace
 10
219.4482193246349
 20
-22.18499187803752
 30
0.0
 11
219.4482193246349
 21
-21.08432521137085
 31
0.0
 12
222.7502193246349
 22
-21.63465854470419
 32
0.0
 13
222.7502193246349
 23
-21.63465854470419
 33
0.0
  0
SOLID
  5
2D4
330
2CD
100
AcDbEntity
  8
치수문자_일반주서
 62
     0
100
AcDbTrace
 10
124.4522193246349
 20
-21.08432521137085
 30
0.0
 11
124.4522193246349
 21
-22.18499187803752
 31
0.0
 12
121.1502193246349
 22
-21.63465854470419
 32
0.0
 13
121.1502193246349
 23
-21.63465854470419
 33
0.0
  0
MTEXT
  5
2D5
330
2CD
100
AcDbEntity
  8
치수문자_일반주서
 62
     0
100
AcDbMText
 10
171.9502193246349
 20
-17.25965854470419
 30
0.0
 40
3.5
 41
0.0
 71
     2
 72
     1
  1
\A1;101.6 [4]
  7
SLDTEXTSTYLE0
 73
     1
 44
1.0
  0
POINT
  5
2D6
330
2CD
100
AcDbEntity
  8
Defpoints
 62
     0
100
AcDbPoint
 10
222.7502193246349
 20
-56.1283062835375
 30
0.0
  0
POINT
  5
2D7
330
2CD
100
AcDbEntity
  8
Defpoints
 62
     0
100
AcDbPoint
 10
121.1502193246349
 20
-57.39830628353749
 30
0.0
  0
POINT
  5
2D8
330
2CD
100
AcDbEntity
  8
Defpoints
 62
     0
100
AcDbPoint
 10
121.1502193246349
 20
-21.63465854470419
 30
0.0
  0
ENDBLK
  5
2CF
330
2CD
100
AcDbEntity
  8
0
100
AcDbBlockEnd
  0
BLOCK
  5
2DA
330
2D9
100
AcDbEntity
  8
0
100
AcDbBlockBegin
  2
*D14
 70
     1
 10
0.0
 20
0.0
 30
0.0
  3
*D14
  1
*D15
  0
LINE
  5
2DC
330
2D9
100
AcDbEntity
  8
치수문자_일반주서
 62
     0
370
    -2
100
AcDbLine
 10
222.8127193246349
 20
-56.1283062835375
 30
0.0
 11
241.1310256336283
 21
-56.12830628353743
 31
0.0
  0
LINE
  5
2DD
330
2D9
100
AcDbEntity
  8
치수문자_일반주서
 62
     0
370
    -2
100
AcDbLine
 10
222.8127193246349
 20
-68.8283062835375
 30
0.0
 11
241.1310256336284
 21
-68.82830628353743
 31
0.0
  0
LINE
  5
2DE
330
2D9
100
AcDbEntity
  8
치수문자_일반주서
 62
     0
370
    -2
100
AcDbLine
 10
241.1310256336283
 20
-56.12830628353743
 30
0.0
 11
241.1310256336282
 21
-23.49305628353743
 31
0.0
  0
LINE
  5
2DF
330
2D9
100
AcDbEntity
  8
치수문자_일반주서
 62
     0
370
    -2
100
AcDbLine
 10
241.1310256336283
 20
-56.12830628353743
 30
0.0
 11
241.1310256336284
 21
-68.82830628353743
 31
0.0
  0
LINE
  5
2E0
330
2D9
100
AcDbEntity
  8
치수문자_일반주서
 62
     0
370
    -2
100
AcDbLine
 10
241.1310256336283
 20
-52.82630628353743
 30
0.0
 11
241.1310256336282
 21
-49.52430628353743
 31
0.0
  0
LINE
  5
2E1
330
2D9
100
AcDbEntity
  8
치수문자_일반주서
 62
     0
370
    -2
100
AcDbLine
 10
241.1310256336284
 20
-72.13030628353744
 30
0.0
 11
241.1310256336284
 21
-75.43230628353743
 31
0.0
  0
SOLID
  5
2E2
330
2D9
100
AcDbEntity
  8
치수문자_일반주서
 62
     0
100
AcDbTrace
 10
240.5806923002949
 20
-52.82630628353743
 30
0.0
 11
241.6813589669616
 21
-52.82630628353743
 31
0.0
 12
241.1310256336283
 22
-56.12830628353743
 32
0.0
 13
241.1310256336283
 23
-56.12830628353743
 33
0.0
  0
SOLID
  5
2E3
330
2D9
100
AcDbEntity
  8
치수문자_일반주서
 62
     0
100
AcDbTrace
 10
241.6813589669617
 20
-72.13030628353744
 30
0.0
 11
240.5806923002951
 21
-72.13030628353744
 31
0.0
 12
241.1310256336284
 22
-68.82830628353743
 32
0.0
 13
241.1310256336284
 23
-68.82830628353743
 33
0.0
  0
MTEXT
  5
2E4
330
2D9
100
AcDbEntity
  8
치수문자_일반주서
 62
     0
100
AcDbMText
 10
236.7560256336282
 20
-35.74305628353746
 30
0.0
 40
3.5
 41
0.0
 71
     2
 72
     1
  1
\A1;%%c12.7 [1/2]
  7
SLDTEXTSTYLE0
 11
-4.475859752819528E-15
 21
1.0
 31
0.0
 73
     1
 44
1.0
  0
POINT
  5
2E5
330
2D9
100
AcDbEntity
  8
Defpoints
 62
     0
100
AcDbPoint
 10
222.7502193246349
 20
-56.1283062835375
 30
0.0
  0
POINT
  5
2E6
330
2D9
100
AcDbEntity
  8
Defpoints
 62
     0
100
AcDbPoint
 10
222.7502193246349
 20
-68.8283062835375
 30
0.0
  0
POINT
  5
2E7
330
2D9
100
AcDbEntity
  8
Defpoints
 62
     0
100
AcDbPoint
 10
241.1310256336284
 20
-68.82830628353743
 30
0.0
  0
ENDBLK
  5
2DB
330
2D9
100
AcDbEntity
  8
0
100
AcDbBlockEnd
  0
ENDSEC
  0
SECTION
  2
ENTITIES
  0
LINE
  5
96
330
1F
100
AcDbEntity
  8
0
  6
Continuous
 62
     1
370
    15
100
AcDbLine
 10
15.65488637180856
 20
-1.526036009572421
 30
0.0
 11
15.7181346787433
 21
-1.586877832088413
 31
0.0
  0
LINE
  5
97
330
1F
100
AcDbEntity
  8
0
  6
Continuous
 62
     1
370
    15
100
AcDbLine
 10
18.99910684007542
 20
1.505692305457247
 30
0.0
 11
18.91327559152377
 21
1.588661389668062
 31
0.0
  0
LINE
  5
98
330
1F
100
AcDbEntity
  8
0
  6
Continuous
 62
     1
370
    15
100
AcDbLine
 10
65.52525220500414
 20
-1.523564466907781
 30
0.0
 11
65.59049058408367
 21
-1.586458658240989
 31
0.0
  0
LINE
  5
99
330
1F
100
AcDbEntity
  8
0
  6
Continuous
 62
     1
370
    15
100
AcDbLine
 10
40.59048650336282
 20
-1.523531280597571
 30
0.0
 11
40.65428694182081
 21
-1.586643054511397
 31
0.0
  0
LINE
  5
9A
330
1F
100
AcDbEntity
  8
0
  6
Continuous
 62
     1
370
    15
100
AcDbLine
 10
74.53964879006672
 20
-7.936425071276108
 30
0.0
 11
75.49999999999999
 21
-7.936425071276108
 31
0.0
  0
LINE
  5
9B
330
1F
100
AcDbEntity
  8
0
  6
Continuous
 62
     1
370
    15
100
AcDbLine
 10
24.66687085268939
 20
-7.936425071276108
 30
0.0
 11
26.58718384655499
 21
-7.936425071276108
 31
0.0
  0
LINE
  5
9C
330
1F
100
AcDbEntity
  8
0
  6
Continuous
 62
     1
370
    15
100
AcDbLine
 10
51.52231489179129
 20
7.938574928723899
 30
0.0
 11
49.60497019610807
 21
7.938574928723899
 31
0.0
  0
LINE
  5
9D
330
1F
100
AcDbEntity
  8
0
  6
Continuous
 62
     1
370
    15
100
AcDbLine
 10
49.60497019610807
 20
-7.936425071276108
 30
0.0
 11
51.52231489179121
 21
-7.936425071276108
 31
0.0
  0
LINE
  5
9E
330
1F
100
AcDbEntity
  8
0
  6
Continuous
 62
     1
370
    15
100
AcDbLine
 10
26.58718384655495
 20
7.938574928723899
 30
0.0
 11
24.66687085268939
 21
7.938574928723899
 31
0.0
  0
LINE
  5
9F
330
1F
100
AcDbEntity
  8
0
  6
Continuous
 62
     1
370
    15
100
AcDbLine
 10
75.49999999999999
 20
7.938574928723899
 30
0.0
 11
74.53964879006672
 21
7.938574928723899
 31
0.0
  0
LINE
  5
A0
330
1F
100
AcDbEntity
  8
0
  6
Continuous
 62
     1
370
    15
100
AcDbLine
 10
32.97957829474053
 20
-7.936425071276108
 30
0.0
 11
34.89909820239036
 21
-7.936425071276108
 31
0.0
  0
LINE
  5
A1
330
1F
100
AcDbEntity
  8
0
  6
Continuous
 62
     1
370
    15
100
AcDbLine
 10
59.83502420867993
 20
7.938574928723899
 30
0.0
 11
57.91700368634633
 21
7.938574928723899
 31
0.0
  0
LINE
  5
A2
330
1F
100
AcDbEntity
  8
0
  6
Continuous
 62
     1
370
    15
100
AcDbLine
 10
41.29241524952726
 20
-7.936425071276108
 30
0.0
 11
43.21020503463232
 21
-7.936425071276108
 31
0.0
  0
LINE
  5
A3
330
1F
100
AcDbEntity
  8
0
  6
Continuous
 62
     1
370
    15
100
AcDbLine
 10
18.27511962319029
 20
7.938574928723899
 30
0.0
 11
16.35477543388388
 21
7.938574928723899
 31
0.0
  0
LINE
  5
A4
330
1F
100
AcDbEntity
  8
0
  6
Continuous
 62
     1
370
    15
100
AcDbLine
 10
68.14784008192088
 20
7.938574928723899
 30
0.0
 11
66.22762869075271
 21
7.938574928723899
 31
0.0
  0
LINE
  5
A5
330
1F
100
AcDbEntity
  8
0
  6
Continuous
 62
     1
370
    15
100
AcDbLine
 10
57.91700368634625
 20
-7.936425071276108
 30
0.0
 11
59.83502420867989
 21
-7.936425071276108
 31
0.0
  0
LINE
  5
A6
330
1F
100
AcDbEntity
  8
0
  6
Continuous
 62
     1
370
    15
100
AcDbLine
 10
34.89909820239031
 20
7.938574928723899
 30
0.0
 11
32.97957829474048
 21
7.938574928723899
 31
0.0
  0
LINE
  5
A7
330
1F
100
AcDbEntity
  8
0
  6
Continuous
 62
     1
370
    15
100
AcDbLine
 10
66.22762869075265
 20
-7.936425071276108
 30
0.0
 11
68.14784008192082
 21
-7.936425071276108
 31
0.0
  0
LINE
  5
A8
330
1F
100
AcDbEntity
  8
0
  6
Continuous
 62
     1
370
    15
100
AcDbLine
 10
16.35477543388382
 20
-7.936425071276108
 30
0.0
 11
18.27511962319027
 21
-7.936425071276108
 31
0.0
  0
LINE
  5
A9
330
1F
100
AcDbEntity
  8
0
  6
Continuous
 62
     1
370
    15
100
AcDbLine
 10
43.21020503463232
 20
7.938574928723899
 30
0.0
 11
41.29241524952722
 21
7.938574928723899
 31
0.0
  0
LINE
  5
AA
330
1F
100
AcDbEntity
  8
외형선
  6
Continuous
370
    15
100
AcDbLine
 10
-40.38750000000002
 20
-7.936425071276105
 30
0.0
 11
10.99976303489742
 21
-7.936425071276105
 31
0.0
  0
LINE
  5
AB
330
1F
100
AcDbEntity
  8
외형선
  6
Continuous
370
    15
100
AcDbLine
 10
10.99976303489742
 20
7.938574928723895
 30
0.0
 11
-11.02192500000009
 21
7.938574928723895
 31
0.0
  0
LINE
  5
AC
330
1F
100
AcDbEntity
  8
외형선
  6
Continuous
370
    15
100
AcDbLine
 10
-40.38750000000002
 20
7.938574928723895
 30
0.0
 11
-41.97500000000002
 21
6.351074928723902
 31
0.0
  0
LINE
  5
AD
330
1F
100
AcDbEntity
  8
외형선
  6
Continuous
370
    15
100
AcDbLine
 10
-41.97500000000002
 20
-6.348925071276112
 30
0.0
 11
-40.38750000000002
 21
-7.936425071276105
 31
0.0
  0
LINE
  5
AE
330
1F
100
AcDbEntity
  8
0
  6
Continuous
 62
     1
370
    15
100
AcDbLine
 10
11.99999999999999
 20
-7.67651845430985
 30
0.0
 11
13.15891074024822
 21
-7.284406858321319
 31
0.0
  0
SPLINE
  5
AF
330
1F
100
AcDbEntity
  8
0
  6
Continuous
 62
     1
370
    15
100
AcDbSpline
210
0.0
220
0.0
230
1.0
 70
     8
 71
     3
 72
    29
 73
    25
 74
     0
 42
0.000000001
 43
0.00000001
 40
0.0
 40
0.0
 40
0.0
 40
0.0
 40
0.0102684326297793
 40
0.0580547556827762
 40
0.105774972990847
 40
0.1535362775108745
 40
0.2013546026995852
 40
0.2490852529046807
 40
0.29682061508706
 40
0.3446426674041062
 40
0.3923960765595341
 40
0.4401178105917403
 40
0.4879148101496761
 40
0.535703247028378
 40
0.5834237014260848
 40
0.6311833611220808
 40
0.6790025860954191
 40
0.7267341125990752
 40
0.7744684663018343
 40
0.8222899275647728
 40
0.8700448500207069
 40
0.9177662144569967
 40
0.9655611339838877
 40
1.0
 40
1.0
 40
1.0
 40
1.0
 10
34.89909820239031
 20
7.919398587805878
 30
0.0
 10
34.99542385409431
 20
7.925313620462726
 30
0.0
 10
35.54002129922364
 20
7.958755508638832
 30
0.0
 10
36.53238477799878
 20
7.79649734963871
 30
0.0
 10
37.87481386490868
 20
7.425518425125665
 30
0.0
 10
39.21844837386234
 20
6.822982987400971
 30
0.0
 10
40.56372104007473
 20
6.031508363587955
 30
0.0
 10
41.90649119247224
 20
5.065013147006403
 30
0.0
 10
43.24939430341765
 20
3.953935171135295
 30
0.0
 10
44.59477683338363
 20
2.731583041481001
 30
0.0
 10
45.93818339813254
 20
1.429663142310701
 30
0.0
 10
47.28069354458858
 20
0.0864230420178776
 30
0.0
 10
48.62534647972529
 20
-1.257780180969523
 30
0.0
 10
49.96974874115466
 20
-2.566249874229435
 30
0.0
 10
51.3122195517523
 20
-3.802457982420957
 30
0.0
 10
52.65579897462386
 20
-4.929339491219253
 30
0.0
 10
54.00110016374987
 20
-5.914225287573966
 30
0.0
 10
55.34389448061859
 20
-6.731393509463442
 30
0.0
 10
56.68676983559855
 20
-7.355901959052995
 30
0.0
 10
58.03213315144907
 20
-7.768886598274146
 30
0.0
 10
59.37558969416705
 20
-7.962284616140471
 30
0.0
 10
60.71805812603797
 20
-7.920375987588709
 30
0.0
 10
61.93747944929152
 20
-7.70215169077284
 30
0.0
 10
62.70878640609477
 20
-7.404867054134743
 30
0.0
 10
63.03180372515952
 20
-7.280366574165061
 30
0.0
  0
SPLINE
  5
B0
330
1F
100
AcDbEntity
  8
외형선
  6
Continuous
370
    15
100
AcDbSpline
210
0.0
220
0.0
230
1.0
 70
    24
 71
     3
 72
    10
 73
     6
 74
     0
 42
0.000000001
 43
0.00000001
 40
0.0
 40
0.0
 40
0.0
 40
0.0
 40
0.0870656656974384
 40
0.7312876725731396
 40
0.9999999999999999
 40
0.9999999999999999
 40
0.9999999999999999
 40
0.9999999999999999
 10
12.0
 20
-6.852632497405954
 30
0.0
 10
12.0
 20
-6.875251186449934
 30
0.0
 10
12.0
 20
-7.065231568901838
 30
0.0
 10
12.0000000000001
 20
-7.346344586825143
 30
0.0
 10
12.00000000000001
 20
-7.601435274827502
 30
0.0
 10
11.99999999999999
 20
-7.676518454309845
 30
0.0
  0
SPLINE
  5
B1
330
1F
100
AcDbEntity
  8
0
  6
Continuous
 62
     1
370
    15
100
AcDbSpline
210
0.0
220
0.0
230
1.0
 70
     8
 71
     3
 72
    29
 73
    25
 74
     0
 42
0.000000001
 43
0.00000001
 40
0.0
 40
0.0
 40
0.0
 40
0.0
 40
0.004788096742643
 40
0.0525465690107015
 40
0.1002677178271069
 40
0.1480587260229079
 40
0.1958540704088606
 40
0.2435758590503653
 40
0.2913312060098178
 40
0.3391530923677528
 40
0.3868878703911905
 40
0.4346198211903948
 40
0.48243947123885
 40
0.5301995554804754
 40
0.5779204340753082
 40
0.625709295755446
 40
0.6735067201909323
 40
0.7212288784316385
 40
0.7689827120771338
 40
0.8168051894944296
 40
0.8645409760064524
 40
0.9122720504993049
 40
0.9600908007551345
 40
1.0
 40
1.0
 40
1.0
 40
1.0
 10
66.22762869075265
 20
-7.926182928892819
 30
0.0
 10
66.18270180276897
 20
-7.929525995914885
 30
0.0
 10
65.68965541152838
 20
-7.966214206580715
 30
0.0
 10
64.74963562080008
 20
-7.821901361971391
 30
0.0
 10
63.40713447370916
 20
-7.479417534653493
 30
0.0
 10
62.06267539736826
 20
-6.899957282967896
 30
0.0
 10
60.71808181897936
 20
-6.129754618849042
 30
0.0
 10
59.37558334509534
 20
-5.181652727115058
 30
0.0
 10
58.03213485592547
 20
-4.085997492541473
 30
0.0
 10
56.68676937954655
 20
-2.874899358499943
 30
0.0
 10
55.34389460269928
 20
-1.579764048104207
 30
0.0
 10
54.00110013100365
 20
-0.2393158581314643
 30
0.0
 10
52.65579898327039
 20
1.105987064526997
 30
0.0
 10
51.31221954989564
 20
2.421213193383859
 30
0.0
 10
49.96974873994869
 20
3.667682313615161
 30
0.0
 10
48.62534648642001
 20
4.808202369226748
 30
0.0
 10
47.28069351903095
 20
5.811253289212639
 30
0.0
 10
45.93818349352986
 20
6.649156557075758
 30
0.0
 10
44.59477647681584
 20
7.296636444708021
 30
0.0
 10
43.2493956352416
 20
7.734612754512504
 30
0.0
 10
41.90648623251458
 20
7.953701489753231
 30
0.0
 10
40.56373956427886
 20
7.939192600361569
 30
0.0
 10
39.29209602969757
 20
7.732020267436631
 30
0.0
 10
38.46963429903878
 20
7.427673852552993
 30
0.0
 10
38.09548000423359
 20
7.289220579905201
 30
0.0
  0
SPLINE
  5
B2
330
1F
100
AcDbEntity
  8
0
  6
Continuous
 62
     1
370
    15
100
AcDbSpline
210
0.0
220
0.0
230
1.0
 70
     8
 71
     3
 72
    11
 73
     7
 74
     0
 42
0.000000001
 43
0.00000001
 40
0.0
 40
0.0
 40
0.0
 40
0.0
 40
0.027174720738496
 40
0.3515283914494112
 40
0.6756462091561938
 40
1.0
 40
1.0
 40
1.0
 40
1.0
 10
16.35477543388382
 20
-7.926792850428195
 30
0.0
 10
16.31530080632342
 20
-7.929955582067671
 30
0.0
 10
15.80466253839396
 20
-7.970868236755429
 30
0.0
 10
14.82398551682091
 20
-7.811187115911991
 30
0.0
 10
13.41243836188988
 20
-7.449625639902568
 30
0.0
 10
12.47092698987646
 20
-6.997079106551071
 30
0.0
 10
11.99999999999997
 20
-6.770723501015985
 30
0.0
  0
LINE
  5
B3
330
1F
100
AcDbEntity
  8
0
  6
Continuous
 62
     1
370
    15
100
AcDbLine
 10
75.49999999999999
 20
-3.109777044610668
 30
0.0
 11
75.49999999999999
 21
3.111926902058607
 31
0.0
  0
SPLINE
  5
B4
330
1F
100
AcDbEntity
  8
0
  6
Continuous
 62
     1
370
    15
100
AcDbSpline
210
0.0
220
0.0
230
1.0
 70
     8
 71
     3
 72
    27
 73
    23
 74
     0
 42
0.000000001
 43
0.00000001
 40
0.0
 40
0.0
 40
0.0
 40
0.0
 40
0.0541317397293863
 40
0.1082240976577979
 40
0.1623558173380828
 40
0.2165512667029348
 40
0.2706685657177947
 40
0.3221158440971906
 40
0.3736475941638631
 40
0.4251613551098081
 40
0.4766058745087655
 40
0.528096716437601
 40
0.5796461676303154
 40
0.6311012450302992
 40
0.6825634340225275
 40
0.7341185104062018
 40
0.7855974361879844
 40
0.8370442447158772
 40
0.8885739184125735
 40
0.9400899229303477
 40
0.9915346622065903
 40
1.0
 40
1.0
 40
1.0
 40
1.0
 10
11.99999999999999
 20
7.678668311757651
 30
0.0
 10
12.47092907978436
 20
7.535711037156058
 30
0.0
 10
13.41244463009305
 20
7.24990049190627
 30
0.0
 10
14.82396045769259
 20
6.526800053537726
 30
0.0
 10
16.23665582901809
 20
5.614795932223092
 30
0.0
 10
17.65108426694797
 20
4.521778159474566
 30
0.0
 10
19.04046109701192
 20
3.306195803962295
 30
0.0
 10
20.40591124517142
 20
2.012081669577013
 30
0.0
 10
21.75068752638506
 20
0.6838076549158195
 30
0.0
 10
23.09496543384657
 20
-0.6644126695827142
 30
0.0
 10
24.43742319265593
 20
-1.994698123416093
 30
0.0
 10
25.78109528365048
 20
-3.267295011008267
 30
0.0
 10
27.12634216692966
 20
-4.445285036822422
 30
0.0
 10
28.46908758779843
 20
-5.497852721445992
 30
0.0
 10
29.81202015553141
 20
-6.392924366660138
 30
0.0
 10
31.15741781973395
 20
-7.10400105601777
 30
0.0
 10
32.50078188160057
 20
-7.613282594710566
 30
0.0
 10
33.84331007055959
 20
-7.903349581066824
 30
0.0
 10
35.18799961646236
 20
-7.972316256854405
 30
0.0
 10
36.53242251948311
 20
-7.794507257385624
 30
0.0
 10
37.50070671089729
 20
-7.556401661069149
 30
0.0
 10
38.02184305667473
 20
-7.320415710244767
 30
0.0
 10
38.09548000423364
 20
-7.287070722457406
 30
0.0
  0
SPLINE
  5
B5
330
1F
100
AcDbEntity
  8
0
  6
Continuous
 62
     1
370
    15
100
AcDbSpline
210
0.0
220
0.0
230
1.0
 70
     8
 71
     3
 72
    19
 73
    15
 74
     0
 42
0.000000001
 43
0.00000001
 40
0.0
 40
0.0
 40
0.0
 40
0.0
 40
0.0563718303843532
 40
0.1422056655766705
 40
0.2280317135705588
 40
0.3137323037707053
 40
0.3994999217334766
 40
0.4853788838478449
 40
0.5711005060040583
 40
0.6568238205987886
 40
0.7427041214178823
 40
0.8284689035395145
 40
0.9141700385135864
 40
1.0
 40
1.0
 40
1.0
 40
1.0
 10
59.83502420867992
 20
7.913013922835293
 30
0.0
 10
60.12919849833479
 20
7.913617774107602
 30
0.0
 10
60.87129344843108
 20
7.915141071674885
 30
0.0
 10
62.06268152160138
 20
7.658997809728219
 30
0.0
 10
63.40713715172603
 20
7.184668244867174
 30
0.0
 10
64.74961881866275
 20
6.495372533151222
 30
0.0
 10
66.0931528318697
 20
5.622895660677431
 30
0.0
 10
67.43847788343277
 20
4.590305683605459
 30
0.0
 10
68.78129818659772
 20
3.425068019522228
 30
0.0
 10
70.12414531949987
 20
2.161873365683288
 30
0.0
 10
71.46949163007585
 20
0.8384450365708774
 30
0.0
 10
72.8129826686322
 20
-0.508793637190642
 30
0.0
 10
74.15547121893815
 20
-1.848286269612928
 30
0.0
 10
75.05159939729603
 20
-2.689069632629707
 30
0.0
 10
75.49999999999996
 20
-3.109777044610669
 30
0.0
  0
SPLINE
  5
B6
330
1F
100
AcDbEntity
  8
0
  6
Continuous
 62
     1
370
    15
100
AcDbSpline
210
0.0
220
0.0
230
1.0
 70
     8
 71
     3
 72
    17
 73
    13
 74
     0
 42
0.000000001
 43
0.00000001
 40
0.0
 40
0.0
 40
0.0
 40
0.0
 40
0.1078338541790906
 40
0.2155058550949862
 40
0.3232578201295895
 40
0.4311549189398721
 40
0.5388547855793258
 40
0.6465525258963957
 40
0.7544479428034429
 40
0.8622034706927234
 40
0.969874787173126
 40
1.0
 40
1.0
 40
1.0
 40
1.0
 10
75.49999999999999
 20
3.111926902058606
 30
0.0
 10
75.05159939880093
 20
3.515446671108519
 30
0.0
 10
74.15547122345065
 20
4.321880546062188
 30
0.0
 10
72.812982650608
 20
5.385604936666412
 30
0.0
 10
71.46949169776428
 20
6.301252832563149
 30
0.0
 10
70.12414506661813
 20
7.034169076982177
 30
0.0
 10
68.7812991284163
 20
7.567844021634489
 30
0.0
 10
67.4384743656595
 20
7.883598868989234
 30
0.0
 10
66.09316598006178
 20
7.978064047932474
 30
0.0
 10
64.7495698389165
 20
7.828900964579607
 30
0.0
 10
63.72996786898425
 20
7.589934910996531
 30
0.0
 10
63.1570545899583
 20
7.33766740253923
 30
0.0
 10
63.03180372515958
 20
7.282516431612852
 30
0.0
  0
SPLINE
  5
B7
330
1F
100
AcDbEntity
  8
0
  6
Continuous
 62
     1
370
    15
100
AcDbSpline
210
0.0
220
0.0
230
1.0
 70
     8
 71
     3
 72
    29
 73
    25
 74
     0
 42
0.000000001
 43
0.00000001
 40
0.0
 40
0.0
 40
0.0
 40
0.0
 40
0.0258949605520255
 40
0.0737118326377627
 40
0.1214716857875612
 40
0.1691904529739602
 40
0.2169753238964653
 40
0.264772873984533
 40
0.3124935605535377
 40
0.3602440382301005
 40
0.4080651511726568
 40
0.455800104249903
 40
0.5035284608039791
 40
0.5513443559695265
 40
0.599105886746075
 40
0.6468244499801727
 40
0.6946072398253252
 40
0.7424067158987676
 40
0.7901278382894882
 40
0.8403256005636842
 40
0.8905958530168437
 40
0.9408069915154263
 40
0.9909816191034655
 40
1.0
 40
1.0
 40
1.0
 40
1.0
 10
41.29241524952726
 20
-7.908233117230157
 30
0.0
 10
41.04971409788795
 20
-7.912710355927471
 30
0.0
 10
40.3588481421477
 20
-7.925455131841406
 30
0.0
 10
39.21841519073542
 20
-7.6972150858358
 30
0.0
 10
37.8748294895222
 20
-7.248897526266279
 30
0.0
 10
36.53235541868438
 20
-6.581829239595179
 30
0.0
 10
35.18801761283343
 20
-5.730102167182678
 30
0.0
 10
33.84330525665405
 20
-4.714121421453914
 30
0.0
 10
32.50078317144413
 20
-3.56230364492921
 30
0.0
 10
31.15741747343622
 20
-2.308782778032879
 30
0.0
 10
29.81202024820776
 20
-0.990967632333411
 30
0.0
 10
28.46908756293663
 20
0.3572096138945154
 30
0.0
 10
27.12634217380428
 20
1.695277412322783
 30
0.0
 10
25.78109528106333
 20
2.982990910441904
 30
0.0
 10
24.43742319612682
 20
4.186809179368834
 30
0.0
 10
23.09496542255042
 20
5.271342605938793
 30
0.0
 10
21.75068756816946
 20
6.204334210123967
 30
0.0
 10
20.40591108940299
 20
6.959781992247377
 30
0.0
 10
19.04046168997199
 20
7.526946345403219
 30
0.0
 10
17.65108192419797
 20
7.873851407940839
 30
0.0
 10
16.23666456727175
 20
7.983149515392432
 30
0.0
 10
14.82392790427498
 20
7.819856517142046
 30
0.0
 10
13.79861586586774
 20
7.577168315898364
 30
0.0
 10
13.2434875907808
 20
7.324979127725475
 30
0.0
 10
13.15891074024828
 20
7.286556715769111
 30
0.0
  0
LINE
  5
B8
330
1F
100
AcDbEntity
  8
0
  6
Continuous
 62
     1
370
    15
100
AcDbLine
 10
75.49999999999999
 20
-7.878501569079281
 30
0.0
 11
75.49999999999999
 21
-4.744045126516537
 31
0.0
  0
SPLINE
  5
B9
330
1F
100
AcDbEntity
  8
0
  6
Continuous
 62
     1
370
    15
100
AcDbSpline
210
0.0
220
0.0
230
1.0
 70
     8
 71
     3
 72
    20
 73
    16
 74
     0
 42
0.000000001
 43
0.00000001
 40
0.0
 40
0.0
 40
0.0
 40
0.0
 40
0.0794372651209806
 40
0.158816738222332
 40
0.2382539739216485
 40
0.3177847316816715
 40
0.3972008053376426
 40
0.4726986761396471
 40
0.548320507484042
 40
0.6239159401470042
 40
0.6994097621993906
 40
0.7749715616547829
 40
0.8506193690540648
 40
0.9261286847656403
 40
1.0
 40
1.0
 40
1.0
 40
1.0
 10
11.99999999999997
 20
2.095208451862055
 30
0.0
 10
12.47092907980177
 20
1.63463082108823
 30
0.0
 10
13.4124446301453
 20
0.7138106379378262
 30
0.0
 10
14.82396045748372
 20
-0.7087370249574169
 30
0.0
 10
16.23665582980236
 20
-2.104029773076884
 30
0.0
 10
17.65108426401784
 20
-3.432861444749169
 30
0.0
 10
19.04046110770189
 20
-4.634302369017175
 30
0.0
 10
20.40591120743283
 20
-5.677230417833428
 30
0.0
 10
21.75068766770307
 20
-6.539165096734778
 30
0.0
 10
23.09496490691006
 20
-7.214627185276506
 30
0.0
 10
24.43742515704666
 20
-7.683879091017513
 30
0.0
 10
25.78108794122657
 20
-7.934181286458498
 30
0.0
 10
27.12636958198949
 20
-7.95346461307208
 30
0.0
 10
28.45922172626383
 20
-7.76245094207305
 30
0.0
 10
29.34449868553773
 20
-7.4524821103364
 30
0.0
 10
29.78228351021096
 20
-7.299197142017239
 30
0.0
  0
SPLINE
  5
BA
330
1F
100
AcDbEntity
  8
0
  6
Continuous
 62
     1
370
    15
100
AcDbSpline
210
0.0
220
0.0
230
1.0
 70
     8
 71
     3
 72
    25
 73
    21
 74
     0
 42
0.000000001
 43
0.00000001
 40
0.0
 40
0.0
 40
0.0
 40
0.0
 40
0.0472634362610012
 40
0.1033690707002072
 40
0.1593718097394229
 40
0.2153778658921938
 40
0.2714861241390188
 40
0.3275163133250445
 40
0.3835071293513482
 40
0.4395842465468303
 40
0.495656276195683
 40
0.5516463415307312
 40
0.6076801975654685
 40
0.6637867971636752
 40
0.7197906031344828
 40
0.775795514812298
 40
0.8319029890155089
 40
0.8879349923333594
 40
0.9439254135810986
 40
1.0
 40
1.0
 40
1.0
 40
1.0
 10
51.52231489179128
 20
7.923579738986233
 30
0.0
 10
51.89996735250593
 20
7.914015910001876
 30
0.0
 10
52.72592473097798
 20
7.893099019638899
 30
0.0
 10
54.00111745487933
 20
7.587671663259019
 30
0.0
 10
55.34388996593771
 20
7.071348861204018
 30
0.0
 10
56.6867706186196
 20
6.346347499309887
 30
0.0
 10
58.032134546444
 20
5.442949627439297
 30
0.0
 10
59.37558334494711
 20
4.382450723662294
 30
0.0
 10
60.71808212856195
 20
3.196282917159401
 30
0.0
 10
62.0626741569337
 20
1.92001547054531
 30
0.0
 10
63.40713912173935
 20
0.5888382673381715
 30
0.0
 10
64.74961829068681
 20
-0.760431213426257
 30
0.0
 10
66.09315297360024
 20
-2.087409786890725
 30
0.0
 10
67.43847784551302
 20
-3.353212577053702
 30
0.0
 10
68.78129819675003
 20
-4.52508771670622
 30
0.0
 10
70.12414531677399
 20
-5.567036657065525
 30
0.0
 10
71.46949163080549
 20
-6.449593757070863
 30
0.0
 10
72.81298266843788
 20
-7.144512142664349
 30
0.0
 10
74.1554712189868
 20
-7.651258560411001
 30
0.0
 10
75.05159939731226
 20
-7.802715982721925
 30
0.0
 10
75.49999999999996
 20
-7.878501569079281
 30
0.0
  0
SPLINE
  5
BB
330
1F
100
AcDbEntity
  8
외형선
  6
Continuous
370
    15
100
AcDbSpline
210
0.0
220
0.0
230
1.0
 70
    24
 71
     3
 72
    17
 73
    13
 74
     0
 42
0.000000001
 43
0.00000001
 40
0.0
 40
0.0
 40
0.0
 40
0.0
 40
0.1740922231291492
 40
0.2689483634147563
 40
0.3665553381946581
 40
0.4614114784802609
 40
0.559018453260158
 40
0.6538745935457618
 40
0.7514815683256592
 40
0.8463377086112654
 40
0.9439446833911657
 40
1.0
 40
1.0
 40
1.0
 40
1.0
 10
11.99999999999998
 20
6.973056854258744
 30
0.0
 10
11.99999999999997
 20
6.707221633094813
 30
0.0
 10
11.99999999999997
 20
6.296543049152554
 30
0.0
 10
12.00000000000001
 20
5.641917906117915
 30
0.0
 10
11.99999999999999
 20
5.113331172032516
 30
0.0
 10
12.00000000000001
 20
4.573321363166052
 30
0.0
 10
11.99999999999994
 20
4.048503392678828
 30
0.0
 10
11.99999999999997
 20
3.544145758452143
 30
0.0
 10
11.99999999999999
 20
3.082552529214495
 30
0.0
 10
11.99999999999999
 20
2.672827553869806
 30
0.0
 10
11.99999999999997
 20
2.365605483215488
 30
0.0
 10
11.99999999999997
 20
2.22749832269423
 30
0.0
 10
11.99999999999996
 20
2.177117448251968
 30
0.0
  0
SPLINE
  5
BC
330
1F
100
AcDbEntity
  8
0
  6
Continuous
 62
     1
370
    15
100
AcDbSpline
210
0.0
220
0.0
230
1.0
 70
     8
 71
     3
 72
    23
 73
    19
 74
     0
 42
0.000000001
 43
0.00000001
 40
0.0
 40
0.0
 40
0.0
 40
0.0
 40
0.0647020668311807
 40
0.1293070190712915
 40
0.1939599510835445
 40
0.2586999657223525
 40
0.3233216378499391
 40
0.3879420341495028
 40
0.4526810396190071
 40
0.5173361094020297
 40
0.5819406509697098
 40
0.6466397676532873
 40
0.7113447546393166
 40
0.7759501623975278
 40
0.8406010011606616
 40
0.9053419204738614
 40
0.9699649131621474
 40
1.0
 40
1.0
 40
1.0
 40
1.0
 10
75.49999999999999
 20
-4.767649595744602
 30
0.0
 10
75.0515993973127
 20
-4.396379850471077
 30
0.0
 10
74.15547121898803
 20
-3.654397617385102
 30
0.0
 10
72.81298266843264
 20
-2.398923908659345
 30
0.0
 10
71.46949163082498
 20
-1.084979711259848
 30
0.0
 10
70.12414531670092
 20
0.2610143933338775
 30
0.0
 10
68.78129819702191
 20
1.600907050483617
 30
0.0
 10
67.43847784449744
 20
2.89518920799577
 30
0.0
 10
66.09315297739607
 20
4.104840499799027
 30
0.0
 10
64.74961827654634
 20
5.198614693940318
 30
0.0
 10
63.40713917450103
 20
6.144023367192323
 30
0.0
 10
62.06267395968995
 20
6.912882697878507
 30
0.0
 10
60.71808286424675
 20
7.484496597208193
 30
0.0
 10
59.37558060324036
 20
7.84178774192892
 30
0.0
 10
58.03214479319532
 20
7.977668114428769
 30
0.0
 10
56.68673234814877
 20
7.874092390590641
 30
0.0
 10
55.58341439033349
 20
7.639380729297413
 30
0.0
 10
54.92794140328331
 20
7.364726219125196
 30
0.0
 10
54.71995928295642
 20
7.277578116134659
 30
0.0
  0
SPLINE
  5
BD
330
1F
100
AcDbEntity
  8
0
  6
Continuous
 62
     1
370
    15
100
AcDbSpline
210
0.0
220
0.0
230
1.0
 70
     8
 71
     3
 72
    23
 73
    19
 74
     0
 42
0.000000001
 43
0.00000001
 40
0.0
 40
0.0
 40
0.0
 40
0.0
 40
0.02282388516753
 40
0.0868566510269574
 40
0.1509841378539827
 40
0.2149960854288302
 40
0.2789991871524068
 40
0.3431196770087257
 40
0.4071672649306297
 40
0.4711572339402384
 40
0.5352333299950146
 40
0.5993318020636267
 40
0.6633252028687857
 40
0.7306397453565663
 40
0.7980514962259699
 40
0.8653839760556559
 40
0.9326674952319639
 40
1.0
 40
1.0
 40
1.0
 40
1.0
 10
32.97957829474053
 20
-7.910369442763118
 30
0.0
 10
32.82003973787405
 20
-7.91734065768706
 30
0.0
 10
32.21291327113165
 20
-7.943869724821707
 30
0.0
 10
31.15743695688419
 20
-7.755306462695553
 30
0.0
 10
29.81201503483202
 20
-7.35082301140071
 30
0.0
 10
28.46908895854902
 20
-6.720307417940119
 30
0.0
 10
27.12634179889493
 20
-5.901348276305463
 30
0.0
 10
25.78109538221917
 20
-4.913961777219436
 30
0.0
 10
24.43742316628488
 20
-3.785396592426251
 30
0.0
 10
23.09496544092044
 20
-2.54787244098469
 30
0.0
 10
21.75068752448793
 20
-1.23851128301655
 30
0.0
 10
20.40591124567803
 20
0.1058203682259574
 30
0.0
 10
19.04046109686837
 20
1.471736514754415
 30
0.0
 10
17.6510842669873
 20
2.81608394181591
 30
0.0
 10
16.23665582900751
 20
4.093590495283239
 30
0.0
 10
14.8239604576954
 20
5.238742670746993
 30
0.0
 10
13.41244463009237
 20
6.234131567760482
 30
0.0
 10
12.47092907978412
 20
6.726688679686736
 30
0.0
 10
11.99999999999997
 20
6.973056854258706
 30
0.0
  0
LINE
  5
BE
330
1F
100
AcDbEntity
  8
0
  6
Continuous
 62
     1
370
    15
100
AcDbLine
 10
75.49999999999999
 20
4.751305853156696
 30
0.0
 11
75.49999999999999
 21
7.880651426527076
 31
0.0
  0
SPLINE
  5
BF
330
1F
100
AcDbEntity
  8
0
  6
Continuous
 62
     1
370
    15
100
AcDbSpline
210
0.0
220
0.0
230
1.0
 70
     8
 71
     3
 72
    29
 73
    25
 74
     0
 42
0.000000001
 43
0.00000001
 40
0.0
 40
0.0
 40
0.0
 40
0.0
 40
0.028028033059804
 40
0.0757493663629211
 40
0.1235490536950592
 40
0.1713320547251595
 40
0.2190508288603433
 40
0.2668125707278812
 40
0.3146286772246923
 40
0.3623572447231377
 40
0.4100924087739082
 40
0.4579137330707885
 40
0.5056644217894891
 40
0.5533853192689651
 40
0.6011830806072157
 40
0.6489681627238656
 40
0.6966871408122522
 40
0.744447205045625
 40
0.792264288466943
 40
0.8399936991814284
 40
0.887727821750835
 40
0.9355486322037008
 40
0.9833008012775043
 40
1.0
 40
1.0
 40
1.0
 40
1.0
 10
18.27511962319028
 20
7.907601578042482
 30
0.0
 10
18.53795782069997
 20
7.912191352061346
 30
0.0
 10
19.24831187497304
 20
7.924595807020284
 30
0.0
 10
20.40587588886337
 20
7.683477867862662
 30
0.0
 10
21.75069700339701
 20
7.225912270935178
 30
0.0
 10
23.09496289862999
 20
6.550743515120784
 30
0.0
 10
24.43742387266481
 20
5.690577981827055
 30
0.0
 10
25.78109509953129
 20
4.667217791433801
 30
0.0
 10
27.12634222216235
 20
3.511906769057523
 30
0.0
 10
28.4690875507592
 20
2.254428434026086
 30
0.0
 10
29.81202024859633
 20
0.9325278988196914
 30
0.0
 10
31.15741748410306
 20
-0.4139731016975109
 30
0.0
 10
32.50078312848063
 20
-1.750360637254006
 30
0.0
 10
33.84330541786784
 20
-3.037003117164896
 30
0.0
 10
35.18801700991663
 20
-4.235367312882391
 30
0.0
 10
36.5323576667666
 20
-5.313007229792315
 30
0.0
 10
37.87482110937727
 20
-6.239552328583703
 30
0.0
 10
39.21844651310023
 20
-6.987077492994813
 30
0.0
 10
40.56372122495638
 20
-7.534576318914574
 30
0.0
 10
41.90649230817936
 20
-7.866385470275391
 30
0.0
 10
43.24938965109147
 20
-7.976661417898207
 30
0.0
 10
44.59479435087325
 20
-7.844970061579052
 30
0.0
 10
45.64730484173002
 20
-7.606982399457645
 30
0.0
 10
46.2514308287252
 20
-7.345428583527355
 30
0.0
 10
46.40795845963817
 20
-7.277660601276749
 30
0.0
  0
SPLINE
  5
C0
330
1F
100
AcDbEntity
  8
0
  6
Continuous
 62
     1
370
    15
100
AcDbSpline
210
0.0
220
0.0
230
1.0
 70
     8
 71
     3
 72
    13
 73
     9
 74
     0
 42
0.000000001
 43
0.00000001
 40
0.0
 40
0.0
 40
0.0
 40
0.0
 40
0.0861854840610881
 40
0.2688278287774094
 40
0.4518046488023612
 40
0.6345353443527438
 40
0.8171304331044407
 40
1.0
 40
1.0
 40
1.0
 40
1.0
 10
68.14784008192085
 20
7.910265914153103
 30
0.0
 10
68.35900109147555
 20
7.916243665355541
 30
0.0
 10
69.01764977622169
 20
7.934889332827625
 30
0.0
 10
70.1241077141753
 20
7.722179867904779
 30
0.0
 10
71.46950169583523
 20
7.291202897077657
 30
0.0
 10
72.8129799883127
 20
6.6362371268747
 30
0.0
 10
74.15547188998566
 20
5.804186497191451
 30
0.0
 10
75.05159962109045
 20
5.114767727945168
 30
0.0
 10
75.49999999999996
 20
4.769799453192431
 30
0.0
  0
SPLINE
  5
C1
330
1F
100
AcDbEntity
  8
0
  6
Continuous
 62
     1
370
    15
100
AcDbSpline
210
0.0
220
0.0
230
1.0
 70
     8
 71
     3
 72
    11
 73
     7
 74
     0
 42
0.000000001
 43
0.00000001
 40
0.0
 40
0.0
 40
0.0
 40
0.0
 40
0.3234952154460425
 40
0.6465048806291682
 40
0.9697544334617366
 40
1.0
 40
1.0
 40
1.0
 40
1.0
 10
75.49999999999999
 20
7.880651426527076
 30
0.0
 10
75.05160109576131
 20
7.91402685677638
 30
0.0
 10
74.15547631178462
 20
7.980727622410649
 30
0.0
 10
72.81296232662169
 20
7.772125117425094
 30
0.0
 10
71.87598810899995
 20
7.539031770252433
 30
0.0
 10
71.38595180580768
 20
7.313972586798884
 30
0.0
 10
71.34402357313293
 20
7.294716189368823
 30
0.0
  0
SPLINE
  5
C2
330
1F
100
AcDbEntity
  8
0
  6
Continuous
 62
     1
370
    15
100
AcDbSpline
210
0.0
220
0.0
230
1.0
 70
     8
 71
     3
 72
    29
 73
    25
 74
     0
 42
0.000000001
 43
0.00000001
 40
0.0
 40
0.0
 40
0.0
 40
0.0
 40
0.0348096643152545
 40
0.0826036476977351
 40
0.1303223703040323
 40
0.1780727660347289
 40
0.2258918005953938
 40
0.2736241504918752
 40
0.3213517887084161
 40
0.3691670963759422
 40
0.4169253869730106
 40
0.4646425929508834
 40
0.5124259005021553
 40
0.5602218868041672
 40
0.6079410121018495
 40
0.6556899275324182
 40
0.7035094759180158
 40
0.7512428672571843
 40
0.7989696622890001
 40
0.8467839930682982
 40
0.8945439612372299
 40
0.9422609632694742
 40
0.9900421898114798
 40
1.0
 40
1.0
 40
1.0
 40
1.0
 10
49.60497019610807
 20
-7.913937094422339
 30
0.0
 10
49.27846534396959
 20
-7.911252143254084
 30
0.0
 10
48.50366638200927
 20
-7.904880729890841
 30
0.0
 10
47.28066958996855
 20
-7.63068980056644
 30
0.0
 10
45.93818981943386
 20
-7.139901494824959
 30
0.0
 10
44.59477510013467
 20
-6.43703938749139
 30
0.0
 10
43.24939480202357
 20
-5.553387082758595
 30
0.0
 10
41.90649092928182
 20
-4.509010392858768
 30
0.0
 10
40.56372159518548
 20
-3.33558840967814
 30
0.0
 10
39.21844641395353
 20
-2.068594652727043
 30
0.0
 10
37.87482113589037
 20
-0.7411070118718721
 30
0.0
 10
36.53235765970292
 20
0.6081832775755703
 30
0.0
 10
35.18801701162857
 20
1.938948541446309
 30
0.0
 10
33.84330541809076
 20
3.214044190767187
 30
0.0
 10
32.5007831258842
 20
4.398681965752807
 30
0.0
 10
31.15741749428084
 20
5.457092111946445
 30
0.0
 10
29.81202021045186
 20
6.358404270935204
 30
0.0
 10
28.46908769284932
 20
7.079215192369128
 30
0.0
 10
27.1263416915061
 20
7.597731059160004
 30
0.0
 10
25.78109708307727
 20
7.897280008886039
 30
0.0
 10
24.43741648259592
 20
7.97623521909446
 30
0.0
 10
23.09499046771941
 20
7.809222655469638
 30
0.0
 10
22.10560770137624
 20
7.570842236588473
 30
0.0
 10
21.56392440057365
 20
7.32817522890741
 30
0.0
 10
21.47050442342961
 20
7.286324305540227
 30
0.0
  0
SPLINE
  5
C3
330
1F
100
AcDbEntity
  8
0
  6
Continuous
 62
     1
370
    15
100
AcDbSpline
210
0.0
220
0.0
230
1.0
 70
     8
 71
     3
 72
    29
 73
    25
 74
     0
 42
0.000000001
 43
0.00000001
 40
0.0
 40
0.0
 40
0.0
 40
0.0
 40
0.0191701133599957
 40
0.0668993387304277
 40
0.114635160744109
 40
0.1624571441914995
 40
0.2102084910870969
 40
0.2579300463328389
 40
0.305728466496817
 40
0.3535142072644288
 40
0.4012338430926254
 40
0.4489945656321235
 40
0.496812308145497
 40
0.5445423767435916
 40
0.5922771572615535
 40
0.6400986268578468
 40
0.6878514541289518
 40
0.7355726066628022
 40
0.7833690238052577
 40
0.8311568783728173
 40
0.878876751287761
 40
0.92663582902327
 40
0.974454471310307
 40
1.0
 40
1.0
 40
1.0
 40
1.0
 10
26.58718384655495
 20
7.911244845893133
 30
0.0
 10
26.76707628171197
 20
7.91805450336335
 30
0.0
 10
27.39485999527757
 20
7.941818660266502
 30
0.0
 10
28.46906613499459
 20
7.744565511969189
 30
0.0
 10
29.81202599909874
 20
7.328872374946688
 30
0.0
 10
31.15741594456429
 20
6.690531993986967
 30
0.0
 10
32.50078354054862
 20
5.863937548254224
 30
0.0
 10
33.84330530685271
 20
4.868228843143739
 30
0.0
 10
35.18801704129004
 20
3.734847733144227
 30
0.0
 10
36.53235765235571
 20
2.494459549239107
 30
0.0
 10
37.87482113567135
 20
1.181674027477543
 30
0.0
 10
39.21844642219245
 20
-0.1643478515029392
 30
0.0
 10
40.56372156243104
 20
-1.504205981296455
 30
0.0
 10
41.90649105180449
 20
-2.803013842087592
 30
0.0
 10
43.24939434419232
 20
-4.021469380603737
 30
0.0
 10
44.59477681123991
 20
-5.123234485185183
 30
0.0
 10
45.93818344586742
 20
-6.079945611175251
 30
0.0
 10
47.2806933757593
 20
-6.862810948319716
 30
0.0
 10
48.62534710837502
 20
-7.448867154334705
 30
0.0
 10
49.96974639766862
 20
-7.821480940634643
 30
0.0
 10
51.31222828678451
 20
-7.973381965057775
 30
0.0
 10
52.65576632651486
 20
-7.886727575484901
 30
0.0
 10
53.79293393562055
 20
-7.655803109966462
 30
0.0
 10
54.48053531658802
 20
-7.373668135149656
 30
0.0
 10
54.71995928295638
 20
-7.275428258686871
 30
0.0
  0
SPLINE
  5
C4
330
1F
100
AcDbEntity
  8
0
  6
Continuous
 62
     1
370
    15
100
AcDbSpline
210
0.0
220
0.0
230
1.0
 70
     8
 71
     3
 72
    29
 73
    25
 74
     0
 42
0.000000001
 43
0.00000001
 40
0.0
 40
0.0
 40
0.0
 40
0.0
 40
0.0437173490981952
 40
0.0914489574535147
 40
0.1391777387723331
 40
0.1869942135170274
 40
0.2347511264101597
 40
0.2824688362598194
 40
0.3302545246805947
 40
0.3780487752881376
 40
0.4257677646986999
 40
0.473518427410752
 40
0.5213377293365449
 40
0.5690703461134842
 40
0.616798251184139
 40
0.6646138261959553
 40
0.7123723838185209
 40
0.7600898565921791
 40
0.8078734313088225
 40
0.8556696848470953
 40
0.9033890769512943
 40
0.9511382593549419
 40
0.9989580751085405
 40
1.0
 40
1.0
 40
1.0
 40
1.0
 10
57.91700368634626
 20
-7.927512093725156
 30
0.0
 10
57.50669214038285
 20
-7.912808690594823
 30
0.0
 10
56.64839300094478
 20
-7.882051773374896
 30
0.0
 10
55.34387699389133
 20
-7.555985321167515
 30
0.0
 10
54.00110485897523
 20
-7.023856701802552
 30
0.0
 10
52.65579771727824
 20
-6.28659746769403
 30
0.0
 10
51.31221988816835
 20
-5.370254415286981
 30
0.0
 10
49.96974865085375
 20
-4.299407683906738
 30
0.0
 10
48.62534650411748
 20
-3.106707817438047
 30
0.0
 10
47.28069353740866
 20
-1.825423516226975
 30
0.0
 10
45.93818340249734
 20
-0.490486054165885
 30
0.0
 10
44.59477682308869
 20
0.8580983063871382
 30
0.0
 10
43.24939434025496
 20
2.180509721269602
 30
0.0
 10
41.90649105571402
 20
3.442605741479257
 30
0.0
 10
40.56372155071671
 20
4.606215309771045
 30
0.0
 10
39.2184464652027
 20
5.636586704408075
 30
0.0
 10
37.874820975643
 20
6.507041169271059
 30
0.0
 10
36.53235824933284
 20
7.191504195689571
 30
0.0
 10
35.18801480959964
 20
7.670285452098697
 30
0.0
 10
33.84331363206267
 20
7.928184609701519
 30
0.0
 10
32.50075251824966
 20
7.966118081766215
 30
0.0
 10
31.15753188038421
 20
7.751753059000748
 30
0.0
 10
30.25013486388476
 20
7.519477795258342
 30
0.0
 10
29.79205164979854
 20
7.305901292286754
 30
0.0
 10
29.7822835102109
 20
7.301346999465029
 30
0.0
  0
SPLINE
  5
C5
330
1F
100
AcDbEntity
  8
0
  6
Continuous
 62
     1
370
    15
100
AcDbSpline
210
0.0
220
0.0
230
1.0
 70
     8
 71
     3
 72
    14
 73
    10
 74
     0
 42
0.000000001
 43
0.00000001
 40
0.0
 40
0.0
 40
0.0
 40
0.0
 40
0.1491594476206864
 40
0.2982103790970727
 40
0.4473697714726682
 40
0.5967047703333791
 40
0.7458244267149
 40
0.8875868689164854
 40
1.0
 40
1.0
 40
1.0
 40
1.0
 10
11.99999999999999
 20
-5.582384931171759
 30
0.0
 10
12.47092908767439
 20
-5.899998394686819
 30
0.0
 10
13.41244465375741
 20
-6.534994252287623
 30
0.0
 10
14.82396036308688
 20
-7.234544796466618
 30
0.0
 10
16.23665618426292
 20
-7.71744043789379
 30
0.0
 10
17.65108293980109
 20
-7.954724058975842
 30
0.0
 10
19.04046593886066
 20
-7.935193449060518
 30
0.0
 10
20.31258319420498
 20
-7.719025586604377
 30
0.0
 10
21.11543196927584
 20
-7.41752001344353
 30
0.0
 10
21.47050442342959
 20
-7.284174448092437
 30
0.0
  0
SPLINE
  5
C6
330
1F
100
AcDbEntity
  8
0
  6
Continuous
 62
     1
370
    15
100
AcDbSpline
210
0.0
220
0.0
230
1.0
 70
     8
 71
     3
 72
    29
 73
    25
 74
     0
 42
0.000000001
 43
0.00000001
 40
0.0
 40
0.0
 40
0.0
 40
0.0
 40
0.0013779426963374
 40
0.0491987484548851
 40
0.0969509128411087
 40
0.1446714029297734
 40
0.1924671565822512
 40
0.2402543477786949
 40
0.2879735582662161
 40
0.3357319730300773
 40
0.3835499515186163
 40
0.4312802338234745
 40
0.4790133432537401
 40
0.5268335579735869
 40
0.57458723562087
 40
0.6223073561232524
 40
0.6701010297989046
 40
0.7178903674359802
 40
0.7656098481356287
 40
0.8133666509822711
 40
0.8611854520611398
 40
0.9089166436955586
 40
0.9566487777072349
 40
1.0
 40
1.0
 40
1.0
 40
1.0
 10
43.21020503463232
 20
7.935395278102055
 30
0.0
 10
43.22312277148991
 20
7.936451207591519
 30
0.0
 10
43.68434404575079
 20
7.974152637031471
 30
0.0
 10
44.59488896527294
 20
7.839248084519362
 30
0.0
 10
45.93815339444441
 20
7.515129041145188
 30
0.0
 10
47.28070159602783
 20
6.949146831588573
 30
0.0
 10
48.62534432108558
 20
6.192358234124915
 30
0.0
 10
49.9697493191764
 20
5.256683060299585
 30
0.0
 10
51.31221939461923
 20
4.1702968928853
 30
0.0
 10
52.65579902506394
 20
2.964904197798929
 30
0.0
 10
54.00110011940165
 20
1.676281358342334
 30
0.0
 10
55.34389460737142
 20
0.3378114832450767
 30
0.0
 10
56.6867693724431
 20
-1.010259863457452
 30
0.0
 10
58.0321348796934
 20
-2.32741926096703
 30
0.0
 10
59.37558325730301
 20
-3.579651207308738
 30
0.0
 10
60.71808214639679
 20
-4.729791428248362
 30
0.0
 10
62.06267417340087
 20
-5.743525018415485
 30
0.0
 10
63.40713903809445
 20
-6.593237140481592
 30
0.0
 10
64.7496186083924
 20
-7.255192363277997
 30
0.0
 10
66.09315178456778
 20
-7.708894010911294
 30
0.0
 10
67.43848228634316
 20
-7.943325497759577
 30
0.0
 10
68.78128165763442
 20
-7.945895254651886
 30
0.0
 10
70.08232751629079
 20
-7.746137113414362
 30
0.0
 10
70.93716347213203
 20
-7.43882965181386
 30
0.0
 10
71.3440235731329
 20
-7.292566331921034
 30
0.0
  0
SPLINE
  5
C7
330
1F
100
AcDbEntity
  8
외형선
  6
Continuous
370
    15
100
AcDbSpline
210
0.0
220
0.0
230
1.0
 70
    24
 71
     3
 72
    23
 73
    19
 74
     0
 42
0.000000001
 43
0.00000001
 40
0.0
 40
0.0
 40
0.0
 40
0.0
 40
0.0371177091197706
 40
0.1029233813587938
 40
0.1706374225507421
 40
0.2364430947897624
 40
0.3041571359817076
 40
0.3699628082207285
 40
0.4376768494126737
 40
0.5034825216516968
 40
0.5711965628436438
 40
0.6370022350826651
 40
0.704716276274612
 40
0.7705219485136185
 40
0.8382359897055792
 40
0.9040416619446019
 40
0.971755703136548
 40
1.0
 40
1.0
 40
1.0
 40
1.0
 10
11.99999999999998
 20
0.2392431566913354
 30
0.0
 10
11.99999999999998
 20
0.2364864152187275
 30
0.0
 10
11.99999999999999
 20
0.228842270129458
 30
0.0
 10
12.00000000000001
 20
0.1227823546570337
 30
0.0
 10
11.99999999999998
 20
-0.0735388065240161
 30
0.0
 10
12.0
 20
-0.3567091535499147
 30
0.0
 10
11.99999999999992
 20
-0.7089032332361291
 30
0.0
 10
11.99999999999997
 20
-1.12775650380686
 30
0.0
 10
11.99999999999999
 20
-1.593536493609119
 30
0.0
 10
11.99999999999997
 20
-2.101532949442052
 30
0.0
 10
11.99999999999997
 20
-2.628201384720779
 30
0.0
 10
11.9999999999999
 20
-3.168114031068284
 30
0.0
 10
12.0
 20
-3.696292129412832
 30
0.0
 10
12.00000000000001
 20
-4.207207762093133
 30
0.0
 10
12.00000000000001
 20
-4.677518990214795
 30
0.0
 10
11.99999999999989
 20
-5.101199806522425
 30
0.0
 10
12.00000000000009
 20
-5.394840164901289
 30
0.0
 10
12.00000000000001
 20
-5.539736318626701
 30
0.0
 10
11.99999999999999
 20
-5.582384931171765
 30
0.0
  0
SPLINE
  5
C8
330
1F
100
AcDbEntity
  8
0
  6
Continuous
 62
     1
370
    15
100
AcDbSpline
210
0.0
220
0.0
230
1.0
 70
     8
 71
     3
 72
    29
 73
    25
 74
     0
 42
0.000000001
 43
0.00000001
 40
0.0
 40
0.0
 40
0.0
 40
0.0
 40
0.013666105560025
 40
0.0613878574459513
 40
0.1091450505589402
 40
0.1569665690116119
 40
0.2047006713798776
 40
0.2524338313320243
 40
0.3002546043414219
 40
0.3480133765619361
 40
0.395734825096383
 40
0.4435261334489853
 40
0.4913217780189732
 40
0.539043866382538
 40
0.5867995132748173
 40
0.6346216999834874
 40
0.6823567778105664
 40
0.7300890283956553
 40
0.7779089787808001
 40
0.8256693629850053
 40
0.8733905412961824
 40
0.92117970311964
 40
0.9689774277522255
 40
1.0
 40
1.0
 40
1.0
 40
1.0
 10
74.53964879006672
 20
-7.913209570239054
 30
0.0
 10
74.4114472976562
 20
-7.919968708787994
 30
0.0
 10
73.83556890231607
 20
-7.950330616346597
 30
0.0
 10
72.81302973718861
 20
-7.775470534419973
 30
0.0
 10
71.4694789951307
 20
-7.387288152513823
 30
0.0
 10
70.1241486975119
 20
-6.771556834596275
 30
0.0
 10
68.78129729166504
 20
-5.965826613409998
 30
0.0
 10
67.43847808850364
 20
-4.987999472038959
 30
0.0
 10
66.09315290864757
 20
-3.86952096616051
 30
0.0
 10
64.74961830763928
 20
-2.639038077358722
 30
0.0
 10
63.40713911878038
 20
-1.33254070278744
 30
0.0
 10
62.06267415178424
 20
0.0108317199839847
 30
0.0
 10
60.71808215210567
 20
1.353810312109106
 30
0.0
 10
59.3755832560467
 20
2.659503281853596
 30
0.0
 10
58.03213487900813
 20
3.888676706860699
 30
0.0
 10
56.68676937644623
 20
5.005355769364847
 30
0.0
 10
55.34389459207771
 20
5.980644023988773
 30
0.0
 10
54.00110017662592
 20
6.784691718282949
 30
0.0
 10
52.65579881114671
 20
7.394000968207731
 30
0.0
 10
51.31222019154472
 20
7.792100850355498
 30
0.0
 10
49.96974634582625
 20
7.969590339907375
 30
0.0
 10
48.62535543655564
 20
7.910716227135394
 30
0.0
 10
47.43735792601003
 20
7.686909681941153
 30
0.0
 10
46.69868847762497
 20
7.394786197837087
 30
0.0
 10
46.40795845963819
 20
7.279810458724538
 30
0.0
  0
SPLINE
  5
C9
330
1F
100
AcDbEntity
  8
0
  6
Continuous
 62
     1
370
    15
100
AcDbSpline
210
0.0
220
0.0
230
1.0
 70
     8
 71
     3
 72
    17
 73
    13
 74
     0
 42
0.000000001
 43
0.00000001
 40
0.0
 40
0.0
 40
0.0
 40
0.0
 40
0.0181340002418088
 40
0.1241159597042246
 40
0.2302405651649249
 40
0.3364022303996487
 40
0.4423898736969301
 40
0.5538780838584285
 40
0.6655272932346482
 40
0.7770452117187495
 40
0.8884820402123123
 40
1.0
 40
1.0
 40
1.0
 40
1.0
 10
24.66687085268939
 20
-7.920327719314083
 30
0.0
 10
24.59030044176148
 20
-7.925426291112652
 30
0.0
 10
24.06622357452098
 20
-7.960322845841996
 30
0.0
 10
23.09502965808501
 20
-7.805142922609534
 30
0.0
 10
21.75067030222366
 20
-7.445244060350094
 30
0.0
 10
20.40591584483816
 20
-6.852004608856822
 30
0.0
 10
19.04045979408976
 20
-6.054212074587999
 30
0.0
 10
17.65108462407788
 20
-5.057357389493
 30
0.0
 10
16.23665573342307
 20
-3.88575395569412
 30
0.0
 10
14.8239604831506
 20
-2.59027667928616
 30
0.0
 10
13.41244462372509
 20
-1.212377386764782
 30
0.0
 10
12.47092907766118
 20
-0.2700678119752754
 30
0.0
 10
11.99999999999997
 20
0.2012584245187738
 30
0.0
  0
LINE
  5
CA
330
1F
100
AcDbEntity
  8
0
  6
Continuous
 62
     1
370
    15
100
AcDbLine
 10
75.49999999999999
 20
-7.936425071276107
 30
0.0
 11
75.49999999999999
 21
-7.878501569079281
 31
0.0
  0
LINE
  5
CB
330
1F
100
AcDbEntity
  8
외형선
  6
Continuous
370
    15
100
AcDbLine
 10
11.99999999999998
 20
0.2012584245187651
 30
0.0
 11
11.99999999999998
 21
2.095208451862046
 31
0.0
  0
LINE
  5
CC
330
1F
100
AcDbEntity
  8
0
  6
Continuous
 62
     1
370
    15
100
AcDbLine
 10
75.49999999999999
 20
7.880651426527076
 30
0.0
 11
75.49999999999999
 21
7.938574928723897
 31
0.0
  0
LINE
  5
CD
330
1F
100
AcDbEntity
  8
0
  6
Continuous
 62
     1
370
    15
100
AcDbLine
 10
75.49999999999999
 20
-4.767649595744602
 30
0.0
 11
75.49999999999999
 21
-3.109777044610668
 31
0.0
  0
LINE
  5
CE
330
1F
100
AcDbEntity
  8
외형선
  6
Continuous
370
    15
100
AcDbLine
 10
11.99999999999998
 20
6.973056854258744
 30
0.0
 11
11.99999999999999
 21
7.678668311757656
 31
0.0
  0
LINE
  5
CF
330
1F
100
AcDbEntity
  8
0
  6
Continuous
 62
     1
370
    15
100
AcDbLine
 10
75.49999999999999
 20
3.111926902058607
 30
0.0
 11
75.49999999999999
 21
4.769799453192432
 31
0.0
  0
LINE
  5
D0
330
1F
100
AcDbEntity
  8
외형선
  6
Continuous
370
    15
100
AcDbLine
 10
11.99999999999998
 20
-6.770723501016032
 30
0.0
 11
11.99999999999999
 21
-5.582384931171765
 31
0.0
  0
LINE
  5
D1
330
1F
100
AcDbEntity
  8
외형선
  6
Continuous
370
    15
100
AcDbLine
 10
10.99976303489742
 20
7.870818478811801
 30
0.0
 11
10.99976303489742
 21
7.938574928723895
 31
0.0
  0
SPLINE
  5
D2
330
1F
100
AcDbEntity
  8
외형선
  6
Continuous
370
    15
100
AcDbSpline
210
0.0
220
0.0
230
1.0
 70
     8
 71
     3
 72
     8
 73
     4
 74
     0
 42
0.000000001
 43
0.00000001
 40
0.0
 40
0.0
 40
0.0
 40
0.0
 40
1.0
 40
1.0
 40
1.0
 40
1.0
 10
11.99999999999996
 20
7.678668311757648
 30
0.0
 10
11.66827282119888
 20
7.763041942824139
 30
0.0
 10
11.33354236593477
 20
7.82738846190639
 30
0.0
 10
10.9997630348974
 20
7.870820845620664
 30
0.0
  0
SPLINE
  5
D3
330
1F
100
AcDbEntity
  8
외형선
  6
Continuous
370
    15
100
AcDbSpline
210
0.0
220
0.0
230
1.0
 70
     8
 71
     3
 72
     8
 73
     4
 74
     0
 42
0.000000001
 43
0.00000001
 40
0.0
 40
0.0
 40
0.0
 40
0.0
 40
1.0
 40
1.0
 40
1.0
 40
1.0
 10
12.0
 20
6.973056854258699
 30
0.0
 10
11.6682728211989
 20
7.1319617431786
 30
0.0
 10
11.33354236593478
 20
7.272927646834015
 30
0.0
 10
10.99976303489742
 20
7.394171007905919
 30
0.0
  0
SPLINE
  5
D4
330
1F
100
AcDbEntity
  8
외형선
  6
Continuous
370
    15
100
AcDbSpline
210
0.0
220
0.0
230
1.0
 70
     8
 71
     3
 72
     8
 73
     4
 74
     0
 42
0.000000001
 43
0.00000001
 40
0.0
 40
0.0
 40
0.0
 40
0.0
 40
1.0
 40
1.0
 40
1.0
 40
1.0
 10
11.99999999999996
 20
2.095208451862054
 30
0.0
 10
11.66827282119888
 20
2.415867256997421
 30
0.0
 10
11.33354236593477
 20
2.731958851930742
 30
0.0
 10
10.9997630348974
 20
3.03970345058426
 30
0.0
  0
SPLINE
  5
D5
330
1F
100
AcDbEntity
  8
외형선
  6
Continuous
370
    15
100
AcDbSpline
210
0.0
220
0.0
230
1.0
 70
     8
 71
     3
 72
     8
 73
     4
 74
     0
 42
0.000000001
 43
0.00000001
 40
0.0
 40
0.0
 40
0.0
 40
0.0
 40
1.0
 40
1.0
 40
1.0
 40
1.0
 10
12.0
 20
0.2012584245187634
 30
0.0
 10
11.6682728211989
 20
0.5335898092159223
 30
0.0
 10
11.33354236593478
 20
0.8663921037641814
 30
0.0
 10
10.99976303489742
 20
1.195718201844393
 30
0.0
  0
SPLINE
  5
D6
330
1F
100
AcDbEntity
  8
외형선
  6
Continuous
370
    15
100
AcDbSpline
210
0.0
220
0.0
230
1.0
 70
     8
 71
     3
 72
     8
 73
     4
 74
     0
 42
0.000000001
 43
0.00000001
 40
0.0
 40
0.0
 40
0.0
 40
0.0
 40
1.0
 40
1.0
 40
1.0
 40
1.0
 10
11.99999999999996
 20
-5.582384931171747
 30
0.0
 10
11.66827282119888
 20
-5.346099757102873
 30
0.0
 10
11.33354236593477
 20
-5.094354681251804
 30
0.0
 10
10.9997630348974
 20
-4.830042466312564
 30
0.0
  0
SPLINE
  5
D7
330
1F
100
AcDbEntity
  8
외형선
  6
Continuous
370
    15
100
AcDbSpline
210
0.0
220
0.0
230
1.0
 70
     8
 71
     3
 72
     8
 73
     4
 74
     0
 42
0.000000001
 43
0.00000001
 40
0.0
 40
0.0
 40
0.0
 40
0.0
 40
1.0
 40
1.0
 40
1.0
 40
1.0
 10
12.0
 20
-6.770723501015987
 30
0.0
 10
11.6682728211989
 20
-6.597297005238731
 30
0.0
 10
11.33354236593478
 20
-6.405460614345891
 30
0.0
 10
10.99976303489742
 20
-6.197377877337583
 30
0.0
  0
LINE
  5
D8
330
1F
100
AcDbEntity
  8
외형선
  6
Continuous
370
    15
100
AcDbLine
 10
10.99976303489742
 20
-7.936425071276105
 30
0.0
 11
10.99976303489742
 21
-6.197370675543237
 31
0.0
  0
SPLINE
  5
D9
330
1F
100
AcDbEntity
  8
외형선
  6
Continuous
370
    15
100
AcDbSpline
210
0.0
220
0.0
230
1.0
 70
     8
 71
     3
 72
     8
 73
     4
 74
     0
 42
0.000000001
 43
0.00000001
 40
0.0
 40
0.0
 40
0.0
 40
0.0
 40
1.0
 40
1.0
 40
1.0
 40
1.0
 10
11.99999999999996
 20
-7.676518454309845
 30
0.0
 10
11.66827282119888
 20
-7.760892085376339
 30
0.0
 10
11.33354236593477
 20
-7.825238604458592
 30
0.0
 10
10.9997630348974
 20
-7.86867098817287
 30
0.0
  0
LINE
  5
DA
330
1F
100
AcDbEntity
  8
외형선
  6
Continuous
370
    15
100
AcDbLine
 10
-40.38750000000002
 20
0.0010749287238949
 30
0.0
 11
-40.38750000000002
 21
7.938574928723895
 31
0.0
  0
LINE
  5
DB
330
1F
100
AcDbEntity
  8
외형선
  6
Continuous
370
    15
100
AcDbLine
 10
-40.38750000000002
 20
-7.936425071276105
 30
0.0
 11
-40.38750000000002
 21
0.0010749287238949
 31
0.0
  0
LINE
  5
DC
330
1F
100
AcDbEntity
  8
외형선
  6
Continuous
370
    15
100
AcDbLine
 10
10.99976303489742
 20
-4.830056869632192
 30
0.0
 11
10.99976303489742
 21
1.195729599889469
 31
0.0
  0
LINE
  5
DD
330
1F
100
AcDbEntity
  8
외형선
  6
Continuous
370
    15
100
AcDbLine
 10
10.99976303489742
 20
3.039686680455771
 30
0.0
 11
10.99976303489742
 21
7.39417520415665
 31
0.0
  0
LINE
  5
DE
330
1F
100
AcDbEntity
  8
외형선
  6
Continuous
370
    15
100
AcDbLine
 10
-41.97500000000002
 20
0.0010749287238949
 30
0.0
 11
-41.97500000000002
 21
6.351074928723902
 31
0.0
  0
LINE
  5
DF
330
1F
100
AcDbEntity
  8
외형선
  6
Continuous
370
    15
100
AcDbLine
 10
-41.97500000000002
 20
-6.348925071276112
 30
0.0
 11
-41.97500000000002
 21
0.0010749287238949
 31
0.0
  0
SPLINE
  5
E0
330
1F
100
AcDbEntity
  8
외형선
  6
Continuous
370
    15
100
AcDbSpline
210
0.0
220
0.0
230
1.0
 70
    24
 71
     3
 72
    21
 73
    17
 74
     0
 42
0.000000001
 43
0.00000001
 40
0.0
 40
0.0
 40
0.0
 40
0.0
 40
0.0941662450276153
 40
0.1635887177809351
 40
0.2350244469471114
 40
0.3044469197004216
 40
0.3758826488665903
 40
0.4453051216199114
 40
0.5167408507861038
 40
0.5861633235394225
 40
0.6575990527055997
 40
0.7270215254589182
 40
0.7984572546250942
 40
0.8678797273783944
 40
0.9393154565445521
 40
0.9999999999999999
 40
0.9999999999999999
 40
0.9999999999999999
 40
0.9999999999999999
 10
11.99999999999998
 20
-5.582384931171756
 30
0.0
 10
11.99999999999996
 20
-5.438813042453718
 30
0.0
 10
11.99999999999991
 20
-5.189395205118448
 30
0.0
 10
12.00000000000008
 20
-4.720466727688201
 30
0.0
 10
11.99999999999991
 20
-4.25596724386068
 30
0.0
 10
12.00000000000006
 20
-3.747631563117567
 30
0.0
 10
11.99999999999986
 20
-3.221055886316454
 30
0.0
 10
12.00000000000003
 20
-2.681115796295797
 30
0.0
 10
11.99999999999994
 20
-2.152956038097582
 30
0.0
 10
12.00000000000001
 20
-1.641995351614292
 30
0.0
 10
11.99999999999999
 20
-1.171848172033389
 30
0.0
 10
12.00000000000004
 20
-0.7475639356897968
 30
0.0
 10
11.99999999999992
 20
-0.3880194412896568
 30
0.0
 10
12.00000000000002
 20
-0.0997985147903387
 30
0.0
 10
11.99999999999996
 20
0.105571109154787
 30
0.0
 10
11.99999999999999
 20
0.1711412253455724
 30
0.0
 10
12.0
 20
0.2012584245187429
 30
0.0
  0
SPLINE
  5
E1
330
1F
100
AcDbEntity
  8
외형선
  6
Continuous
370
    15
100
AcDbSpline
210
0.0
220
0.0
230
1.0
 70
    24
 71
     3
 72
    18
 73
    14
 74
     0
 42
0.000000001
 43
0.00000001
 40
0.0
 40
0.0
 40
0.0
 40
0.0
 40
0.0481809817953913
 40
0.1443375097841258
 40
0.2404940377728484
 40
0.336650565761571
 40
0.4328070937502927
 40
0.5289636217390146
 40
0.6251201497277113
 40
0.721276677716408
 40
0.8174332057051561
 40
0.9135897336939047
 40
1.0
 40
1.0
 40
1.0
 40
1.0
 10
11.99999999999994
 20
2.177117448251968
 30
0.0
 10
11.99999999999994
 20
2.219462450260738
 30
0.0
 10
11.99999999999997
 20
2.346316904321167
 30
0.0
 10
11.99999999999996
 20
2.639359785671337
 30
0.0
 10
11.99999999999997
 20
3.041871332477765
 30
0.0
 10
12.0
 20
3.500933145954518
 30
0.0
 10
11.99999999999999
 20
4.000244425665673
 30
0.0
 10
11.99999999999994
 20
4.52567231726422
 30
0.0
 10
11.99999999999998
 20
5.062612717493332
 30
0.0
 10
11.99999999999996
 20
5.596115626249473
 30
0.0
 10
12.0
 20
6.109238451050668
 30
0.0
 10
12.00000000000004
 20
6.577007266065038
 30
0.0
 10
11.99999999999999
 20
6.84582388385631
 30
0.0
 10
11.99999999999996
 20
6.97305685423609
 30
0.0
  0
SPLINE
  5
E2
330
1F
100
AcDbEntity
  8
외형선
  6
Continuous
370
    15
100
AcDbSpline
210
0.0
220
0.0
230
1.0
 70
    24
 71
     3
 72
    10
 73
     6
 74
     0
 42
0.000000001
 43
0.00000001
 40
0.0
 40
0.0
 40
0.0
 40
0.0
 40
0.4219603773457878
 40
0.8493426827293757
 40
1.0
 40
1.0
 40
1.0
 40
1.0
 10
11.99999999999998
 20
-7.676518454309845
 30
0.0
 10
11.99999999999998
 20
-7.5584945639456
 30
0.0
 10
11.99999999999999
 20
-7.320930249735176
 30
0.0
 10
11.99999999999997
 20
-7.043017156182843
 30
0.0
 10
11.99999999999996
 20
-6.891994323110571
 30
0.0
 10
11.99999999999997
 20
-6.852632497405954
 30
0.0
  0
LINE
  5
E3
330
1F
100
AcDbEntity
  8
중심선
 48
0.8
100
AcDbLine
 10
-44.97500000000001
 20
0.0010749287238888
 30
0.0
 11
78.49999999999999
 21
0.0010749287239039
 31
0.0
  0
LINE
  5
E4
330
1F
100
AcDbEntity
  8
참조1
100
AcDbLine
 10
16.76250000000004
 20
0.0010749287238892
 30
0.0
 11
16.76250000000005
 21
-39.99892507127611
 31
0.0
  0
LINE
  5
E5
330
1F
100
AcDbEntity
  8
참조1
100
AcDbLine
 10
16.76250000000005
 20
-39.99892507127611
 30
0.0
 11
-9.508856814308633
 21
-39.9989250712761
 31
0.0
  0
CIRCLE
  5
E6
330
1F
100
AcDbEntity
  8
해칭선
100
AcDbCircle
 10
0.0
 20
0.0
 30
0.0
 40
3.000000000000002
  0
INSERT
  5
E7
330
1F
100
AcDbEntity
  8
0
  6
Continuous
 62
     7
100
AcDbBlockReference
 66
     1
  2
블럭10
 10
2.822227067874784
 20
-52.04609937292004
 30
0.0
  0
ATTRIB
  5
E8
330
E7
100
AcDbEntity
  8
FORMAT
 62
     2
100
AcDbText
 10
-6.359068220866496
 20
-49.97073246008785
 30
0.0
 40
4.233333333333333
  1
E2162040 [ 6 FLUTE ]
 41
0.75
  7
SLDTEXTSTYLE0
 11
-6.359068220866496
 21
-52.08739912675452
 31
0.0
100
AcDbAttribute
  2
AUTOATTR0
 70
     0
 74
     1
  0
SEQEND
  5
E9
330
E7
100
AcDbEntity
  8
0
  6
Continuous
 62
     7
  0
HATCH
  5
EA
330
1F
100
AcDbEntity
  8
중심선
100
AcDbHatch
 10
0.0
 20
0.0
 30
0.0
210
0.0
220
0.0
230
1.0
  2
SOLID
 70
     1
 71
     0
 91
        1
 92
        0
 93
        4
 72
     1
 10
8.53713637225562
 20
-35.7989250712761
 11
5.090861128418338
 21
-35.7989250712761
 72
     1
 10
5.090861128418337
 20
-35.7989250712761
 11
2.962631269214314
 21
-38.3352506518487
 72
     1
 10
2.962631269214314
 20
-38.3352506518487
 11
6.408939598164746
 21
-38.33521122254621
 72
     1
 10
6.408939598164745
 20
-38.33521122254621
 11
8.53713637225562
 21
-35.7989250712761
 97
        0
 75
     0
 76
     1
 98
        1
 10
-0.000000000000052
 20
0.0
  0
HATCH
  5
EB
330
1F
100
AcDbEntity
  8
중심선
100
AcDbHatch
 10
0.0
 20
0.0
 30
0.0
210
0.0
220
0.0
230
1.0
  2
SOLID
 70
     1
 71
     0
 91
        1
 92
        0
 93
        4
 72
     1
 10
13.5499003632916
 20
-35.7989250712761
 11
10.10362511945432
 21
-35.7989250712761
 72
     1
 10
10.10362511945432
 20
-35.7989250712761
 11
5.5724871110969
 21
-41.19892507127612
 72
     1
 10
5.572487111096899
 20
-41.19892507127612
 11
9.018762354934182
 21
-41.19892507127612
 72
     1
 10
9.018762354934182
 20
-41.19892507127612
 11
13.5499003632916
 21
-35.7989250712761
 97
        0
 75
     0
 76
     1
 98
        1
 10
-0.000000000000052
 20
0.0
  0
HATCH
  5
EC
330
1F
100
AcDbEntity
  8
중심선
100
AcDbHatch
 10
0.0
 20
0.0
 30
0.0
210
0.0
220
0.0
230
1.0
  2
SOLID
 70
     1
 71
     0
 91
        1
 92
        0
 93
        4
 72
     1
 10
18.56266435432752
 20
-35.79892507127608
 11
15.11638911049038
 21
-35.7989250712761
 72
     1
 10
15.11638911049038
 20
-35.7989250712761
 11
8.067952208601103
 21
-44.19892507127612
 72
     1
 10
8.067952208601103
 20
-44.19892507127612
 11
11.51422745243838
 21
-44.19892507127612
 72
     1
 10
11.51422745243838
 20
-44.19892507127612
 11
18.56266435432752
 21
-35.79892507127608
 97
        0
 75
     0
 76
     1
 98
        1
 10
-0.000000000000052
 20
0.0
  0
HATCH
  5
ED
330
1F
100
AcDbEntity
  8
중심선
100
AcDbHatch
 10
0.0
 20
0.0
 30
0.0
210
0.0
220
0.0
230
1.0
  2
SOLID
 70
     1
 71
     0
 91
        1
 92
        0
 93
        6
 72
     3
 10
23.36255478533966
 20
-39.99892507132738
 11
3.960054785062283
 21
1.540882976769353E-10
 40
0.3939339440162628
 50
17.09539180608436
 51
320.0019657685078
 73
     0
 72
     1
 10
25.04555444104026
 20
-38.58681907591441
 11
27.35085631474132
 21
-36.65249236586646
 72
     3
 10
23.36255478528682
 20
-39.99892507127625
 11
6.600054785286829
 21
-1.278976924368180E-13
 40
0.636358354079598
 50
39.99873849337413
 51
368.4976242363724
 73
     1
 72
     1
 10
29.78788727718743
 20
-39.03892507120613
 11
22.04262209212274
 21
-39.03892507120613
 72
     1
 10
22.04262209212274
 20
-39.03892507120613
 11
22.04259704767681
 21
-40.95892507120602
 72
     1
 10
22.04259704767681
 20
-40.95892507120602
 11
26.48397681714884
 21
-40.95892507120599
 97
        0
 75
     0
 76
     1
 98
        1
 10
-0.000000000000052
 20
0.0
  0
DIMENSION
  5
EE
330
1F
100
AcDbEntity
  8
치수문자_일반주서
100
AcDbDimension
  2
_D
 10
-54.975
 20
-7.936425071276174
 30
0.0
 11
-54.97500000000003
 21
0.0010749287239079
 31
0.0
 70
   160
  1
%%c<>
 71
     2
 42
15.87500000000003
 52
-270.0
  3
SLDDIMSTYLE0
100
AcDbAlignedDimension
 13
-40.38750000000002
 23
7.938574928723908
 33
0.0
 14
-40.38750000000002
 24
-7.936425071276119
 34
0.0
 50
90.0000000000002
100
AcDbRotatedDimension
1001
ACAD
1000
DSTYLE
1002
{
1070
   171
1070
     6
1070
   273
1070
     7
1002
}
  0
DIMENSION
  5
103
330
1F
100
AcDbEntity
  8
치수문자_일반주서
100
AcDbDimension
  2
_D_1
 10
11.99999999999998
 20
30.42063796711783
 30
0.0
 11
43.74999999999998
 21
30.42063796711783
 31
0.0
 70
   160
  1
<>
 71
     2
 42
63.50000000000001
  3
SLDDIMSTYLE0
100
AcDbAlignedDimension
 13
75.49999999999999
 23
7.938574928723897
 33
0.0
 14
11.99999999999998
 24
7.678668311757647
 34
0.0
 50
0.0000000000000064
100
AcDbRotatedDimension
1001
ACAD
1000
DSTYLE
1002
{
1070
   171
1070
     6
1070
   273
1070
     7
1002
}
  0
DIMENSION
  5
117
330
1F
100
AcDbEntity
  8
치수문자_일반주서
100
AcDbDimension
  2
_D_2
 10
-41.97500000000003
 20
42.42063796711784
 30
0.0
 11
16.76249999999998
 21
42.42063796711784
 31
0.0
 70
   160
  1
<>
 71
     2
 42
117.475
  3
SLDDIMSTYLE0
100
AcDbAlignedDimension
 13
75.49999999999999
 23
7.938574928723897
 33
0.0
 14
-41.97500000000002
 24
6.351074928723902
 34
0.0
 50
0.0000000000000069
100
AcDbRotatedDimension
1001
ACAD
1000
DSTYLE
1002
{
1070
   171
1070
     6
1070
   273
1070
     7
1002
}
  0
DIMENSION
  5
12B
330
1F
100
AcDbEntity
  8
치수문자_일반주서
100
AcDbDimension
  2
_D_3
 10
98.5161768628703
 20
-7.936425071276023
 30
0.0
 11
98.51617686287017
 21
28.54257492872398
 31
0.0
 70
   160
  1
%%c<>
 71
     2
 42
15.87500000000001
 52
-270.0
  3
SLDDIMSTYLE0
100
AcDbAlignedDimension
 13
75.49999999999999
 23
7.938574928723899
 33
0.0
 14
75.49999999999999
 24
-7.936425071276108
 34
0.0
 50
90.0000000000002
100
AcDbRotatedDimension
1001
ACAD
1000
DSTYLE
1002
{
1070
   171
1070
     6
1070
   273
1070
     7
1002
}
  0
LINE
  5
13E
330
1F
100
AcDbEntity
  8
참조1
100
AcDbLine
 10
88.46348381534564
 20
7.441074928723896
 30
0.0
 11
88.46348381534564
 21
-7.438925071276109
 31
0.0
  0
LINE
  5
13F
330
1F
100
AcDbEntity
  8
참조1
100
AcDbLine
 10
101.1634838153456
 20
5.441074928723896
 30
0.0
 11
88.46348381534564
 21
5.441074928723896
 31
0.0
  0
SOLID
  5
140
330
1F
100
AcDbEntity
  8
참조1
100
AcDbTrace
 10
88.46348381534564
 20
5.441074928723896
 30
0.0
 11
94.81348381534563
 21
4.425074928723896
 31
0.0
 12
94.81348381534563
 22
6.457074928723896
 32
0.0
 13
94.81348381534563
 23
6.457074928723896
 33
0.0
  0
LINE
  5
141
330
1F
100
AcDbEntity
  8
참조1
100
AcDbLine
 10
101.1634838153456
 20
-5.438925071276109
 30
0.0
 11
88.46348381534564
 21
-5.438925071276109
 31
0.0
  0
SOLID
  5
142
330
1F
100
AcDbEntity
  8
참조1
100
AcDbTrace
 10
88.46348381534564
 20
-5.438925071276109
 30
0.0
 11
94.81348381534563
 21
-6.454925071276109
 31
0.0
 12
94.81348381534563
 22
-4.422925071276109
 32
0.0
 13
94.81348381534563
 23
-4.422925071276109
 33
0.0
  0
MTEXT
  5
143
330
1F
100
AcDbEntity
  8
참조1
100
AcDbMText
 10
97.8609739078159
 20
10.98929157337383
 30
0.0
 40
3.5
 41
0.0
 71
     1
 72
     1
  1
A
  7
SLDTEXTSTYLE0
 73
     1
 44
1.0
  0
MTEXT
  5
144
330
1F
100
AcDbEntity
  8
참조1
100
AcDbMText
 10
97.8609739078159
 20
0.1092915733738251
 30
0.0
 40
3.5
 41
0.0
 71
     1
 72
     1
  1
A
  7
SLDTEXTSTYLE0
 73
     1
 44
1.0
  0
INSERT
  5
14B
330
1F
100
AcDbEntity
  8
해칭선
100
AcDbBlockReference
  2
SW_DOWELSYMBOL_0
 10
0.0
 20
0.0
 30
0.0
  0
LINE
  5
31B
330
1F
100
AcDbEntity
  8
외형선
  6
Continuous
370
    15
100
AcDbLine
 10
-22.85832500000003
 20
6.287574928723856
 30
0.0
 11
-12.67292500000002
 21
6.287574928723856
 31
0.0
  0
LINE
  5
31C
330
1F
100
AcDbEntity
  8
외형선
  6
Continuous
370
    15
100
AcDbLine
 10
-22.85832500000003
 20
6.287574928723956
 30
0.0
 11
-24.50932499999999
 21
7.938574928723867
 31
0.0
  0
LINE
  5
31D
330
1F
100
AcDbEntity
  8
외형선
  6
Continuous
370
    15
100
AcDbLine
 10
-12.67292500000013
 20
6.287574928723956
 30
0.0
 11
-11.02192500000012
 21
7.938574928723867
 31
0.0
  0
LINE
  5
31F
330
1F
100
AcDbEntity
  8
외형선
  6
Continuous
370
    15
100
AcDbLine
 10
-24.50932500000002
 20
7.938574928723895
 30
0.0
 11
-40.38750000000002
 21
7.938574928723895
 31
0.0
  0
ENDSEC
  0
SECTION
  2
OBJECTS
  0
DICTIONARY
  5
C
330
0
100
AcDbDictionary
281
     1
  3
ACAD_GROUP
350
D
  3
ACAD_IMAGE_VARS
350
16F
  3
ACAD_LAYOUT
350
1A
  3
ACAD_MLINESTYLE
350
17
  3
ACAD_PLOTSETTINGS
350
19
  3
ACAD_PLOTSTYLENAME
350
E
  3
ACAD_SCALELIST
350
47
  3
APPDATA
350
16D
  3
DWGPROPS
350
343
  0
DICTIONARY
  5
228
330
2
100
AcDbDictionary
280
     1
281
     1
  3
ACAD_LAYERSTATES
360
229
  0
DICTIONARY
  5
D
102
{ACAD_REACTORS
330
C
102
}
330
C
100
AcDbDictionary
281
     1
  0
RASTERVARIABLES
  5
16F
102
{ACAD_REACTORS
330
C
102
}
330
C
100
AcDbRasterVariables
 90
        0
 70
     1
 71
     1
 72
     1
  0
DICTIONARY
  5
1A
102
{ACAD_REACTORS
330
C
102
}
330
C
100
AcDbDictionary
281
     1
  3
Layout1
350
1E
  3
Layout2
350
26
  3
Model
350
22
  0
DICTIONARY
  5
17
102
{ACAD_REACTORS
330
C
102
}
330
C
100
AcDbDictionary
281
     1
  3
Standard
350
18
  0
DICTIONARY
  5
19
102
{ACAD_REACTORS
330
C
102
}
330
C
100
AcDbDictionary
281
     1
  0
ACDBDICTIONARYWDFLT
  5
E
102
{ACAD_REACTORS
330
C
102
}
330
C
100
AcDbDictionary
281
     1
  3
Normal
350
F
100
AcDbDictionaryWithDefault
340
F
  0
DICTIONARY
  5
47
102
{ACAD_REACTORS
330
C
102
}
330
C
100
AcDbDictionary
281
     1
  3
A0
350
48
  3
A1
350
49
  3
A2
350
4A
  3
A3
350
4B
  3
A4
350
4C
  3
A5
350
4D
  3
A6
350
4E
  3
A7
350
4F
  3
A8
350
50
  3
A9
350
51
  3
B0
350
52
  3
B1
350
53
  3
B2
350
54
  3
B3
350
55
  3
B4
350
56
  3
B5
350
57
  3
B6
350
58
  3
B7
350
59
  3
B8
350
5A
  3
B9
350
5B
  3
C0
350
5C
  3
C1
350
5D
  3
C2
350
5E
  3
C3
350
5F
  3
C4
350
60
  3
C5
350
61
  3
C6
350
62
  3
C7
350
63
  3
C8
350
64
  3
C9
350
65
  3
D0
350
66
  3
D1
350
67
  3
D2
350
68
  0
DICTIONARY
  5
16D
102
{ACAD_REACTORS
330
C
102
}
330
C
100
AcDbDictionary
281
     1
  0
XRECORD
  5
343
102
{ACAD_REACTORS
330
C
102
}
330
C
100
AcDbXrecord
280
     1
  1
DWGPROPS COOKIE
  2

  3

  4

  6

  7

  8
12016016
  9

300
=
301
=
302
=
303
=
304
=
305
=
306
=
307
=
308
=
309
=
 40
0.0
 41
2458323.065050533
 42
2458323.36649434
  1

 90
        0
  0
DICTIONARY
  5
229
102
{ACAD_REACTORS
330
228
102
}
330
228
100
AcDbDictionary
281
     1
  0
LAYOUT
  5
1E
102
{ACAD_REACTORS
330
1A
102
}
330
1A
100
AcDbPlotSettings
  1

  2
none_device
  4

  6

 40
0.0
 41
0.0
 42
0.0
 43
0.0
 44
0.0
 45
0.0
 46
0.0
 47
0.0
 48
0.0
 49
0.0
140
0.0
141
0.0
142
1.0
143
1.0
 70
   688
 72
     1
 73
     0
 74
     5
  7

 75
    16
147
1.0
148
0.0
149
0.0
100
AcDbLayout
  1
Layout1
 70
     1
 71
     1
 10
0.0
 20
0.0
 11
420.0
 21
297.0
 12
0.0
 22
0.0
 32
0.0
 14
1.000000000000000E+20
 24
1.000000000000000E+20
 34
1.000000000000000E+20
 15
-1.000000000000000E+20
 25
-1.000000000000000E+20
 35
-1.000000000000000E+20
146
0.0
 13
0.0
 23
0.0
 33
0.0
 16
1.0
 26
0.0
 36
0.0
 17
0.0
 27
1.0
 37
0.0
 76
     0
330
1B
  0
LAYOUT
  5
26
102
{ACAD_REACTORS
330
1A
102
}
330
1A
100
AcDbPlotSettings
  1

  2
none_device
  4

  6

 40
0.0
 41
0.0
 42
0.0
 43
0.0
 44
0.0
 45
0.0
 46
0.0
 47
0.0
 48
0.0
 49
0.0
140
0.0
141
0.0
142
1.0
143
1.0
 70
   688
 72
     1
 73
     0
 74
     5
  7

 75
    16
147
1.0
148
0.0
149
0.0
100
AcDbLayout
  1
Layout2
 70
     1
 71
     2
 10
0.0
 20
0.0
 11
0.0
 21
0.0
 12
0.0
 22
0.0
 32
0.0
 14
0.0
 24
0.0
 34
0.0
 15
0.0
 25
0.0
 35
0.0
146
0.0
 13
0.0
 23
0.0
 33
0.0
 16
1.0
 26
0.0
 36
0.0
 17
0.0
 27
1.0
 37
0.0
 76
     0
330
23
  0
LAYOUT
  5
22
102
{ACAD_REACTORS
330
1A
102
}
330
1A
100
AcDbPlotSettings
  1

  2
none_device
  4
ANSI_A_(11.00_x_8.50_Inches)
  6

 40
6.35
 41
19.05
 42
6.35000508
 43
19.05000254
 44
279.4
 45
215.9
 46
53.63703852440286
 47
87.78694742280936
 48
0.0
 49
0.0
140
0.0
141
0.0
142
0.0350732678308526
143
1.0
 70
  1696
 72
     0
 73
     0
 74
     0
  7

 75
     0
147
0.0235690232323232
148
0.0
149
0.0
100
AcDbLayout
  1
Model
 70
     1
 71
     0
 10
0.0
 20
0.0
 11
420.0
 21
297.0
 12
0.0
 22
0.0
 32
0.0
 14
-59.35000000000007
 24
-49.97073246008785
 34
0.0
 15
101.1634838153456
 25
46.79563796711784
 35
0.0
146
0.0
 13
0.0
 23
0.0
 33
0.0
 16
1.0
 26
0.0
 36
0.0
 17
0.0
 27
1.0
 37
0.0
 76
     0
330
1F
331
29
  0
MLINESTYLE
  5
18
102
{ACAD_REACTORS
330
17
102
}
330
17
100
AcDbMlineStyle
  2
Standard
 70
     0
  3

 62
   256
 51
90.0
 52
90.0
 71
     2
 49
0.5
 62
   256
  6
BYLAYER
 49
-0.5
 62
   256
  6
BYLAYER
  0
ACDBPLACEHOLDER
  5
F
102
{ACAD_REACTORS
330
E
102
}
330
E
  0
SCALE
  5
48
102
{ACAD_REACTORS
330
47
102
}
330
47
100
AcDbScale
 70
     0
300
1:1
140
1.0
141
1.0
290
     1
  0
SCALE
  5
49
102
{ACAD_REACTORS
330
47
102
}
330
47
100
AcDbScale
 70
     0
300
1:2
140
1.0
141
2.0
290
     0
  0
SCALE
  5
4A
102
{ACAD_REACTORS
330
47
102
}
330
47
100
AcDbScale
 70
     0
300
1:4
140
1.0
141
4.0
290
     0
  0
SCALE
  5
4B
102
{ACAD_REACTORS
330
47
102
}
330
47
100
AcDbScale
 70
     0
300
1:5
140
1.0
141
5.0
290
     0
  0
SCALE
  5
4C
102
{ACAD_REACTORS
330
47
102
}
330
47
100
AcDbScale
 70
     0
300
1:8
140
1.0
141
8.0
290
     0
  0
SCALE
  5
4D
102
{ACAD_REACTORS
330
47
102
}
330
47
100
AcDbScale
 70
     0
300
1:10
140
1.0
141
10.0
290
     0
  0
SCALE
  5
4E
102
{ACAD_REACTORS
330
47
102
}
330
47
100
AcDbScale
 70
     0
300
1:16
140
1.0
141
16.0
290
     0
  0
SCALE
  5
4F
102
{ACAD_REACTORS
330
47
102
}
330
47
100
AcDbScale
 70
     0
300
1:20
140
1.0
141
20.0
290
     0
  0
SCALE
  5
50
102
{ACAD_REACTORS
330
47
102
}
330
47
100
AcDbScale
 70
     0
300
1:30
140
1.0
141
30.0
290
     0
  0
SCALE
  5
51
102
{ACAD_REACTORS
330
47
102
}
330
47
100
AcDbScale
 70
     0
300
1:40
140
1.0
141
40.0
290
     0
  0
SCALE
  5
52
102
{ACAD_REACTORS
330
47
102
}
330
47
100
AcDbScale
 70
     0
300
1:50
140
1.0
141
50.0
290
     0
  0
SCALE
  5
53
102
{ACAD_REACTORS
330
47
102
}
330
47
100
AcDbScale
 70
     0
300
1:100
140
1.0
141
100.0
290
     0
  0
SCALE
  5
54
102
{ACAD_REACTORS
330
47
102
}
330
47
100
AcDbScale
 70
     0
300
2:1
140
2.0
141
1.0
290
     0
  0
SCALE
  5
55
102
{ACAD_REACTORS
330
47
102
}
330
47
100
AcDbScale
 70
     0
300
4:1
140
4.0
141
1.0
290
     0
  0
SCALE
  5
56
102
{ACAD_REACTORS
330
47
102
}
330
47
100
AcDbScale
 70
     0
300
8:1
140
8.0
141
1.0
290
     0
  0
SCALE
  5
57
102
{ACAD_REACTORS
330
47
102
}
330
47
100
AcDbScale
 70
     0
300
10:1
140
10.0
141
1.0
290
     0
  0
SCALE
  5
58
102
{ACAD_REACTORS
330
47
102
}
330
47
100
AcDbScale
 70
     0
300
100:1
140
100.0
141
1.0
290
     0
  0
SCALE
  5
59
102
{ACAD_REACTORS
330
47
102
}
330
47
100
AcDbScale
 70
     0
300
1/128" = 1'-0"
140
0.0078125
141
12.0
290
     0
  0
SCALE
  5
5A
102
{ACAD_REACTORS
330
47
102
}
330
47
100
AcDbScale
 70
     0
300
1/64" = 1'-0"
140
0.015625
141
12.0
290
     0
  0
SCALE
  5
5B
102
{ACAD_REACTORS
330
47
102
}
330
47
100
AcDbScale
 70
     0
300
1/32" = 1'-0"
140
0.03125
141
12.0
290
     0
  0
SCALE
  5
5C
102
{ACAD_REACTORS
330
47
102
}
330
47
100
AcDbScale
 70
     0
300
1/16" = 1'-0"
140
0.0625
141
12.0
290
     0
  0
SCALE
  5
5D
102
{ACAD_REACTORS
330
47
102
}
330
47
100
AcDbScale
 70
     0
300
3/32" = 1'-0"
140
0.09375
141
12.0
290
     0
  0
SCALE
  5
5E
102
{ACAD_REACTORS
330
47
102
}
330
47
100
AcDbScale
 70
     0
300
1/8" = 1'-0"
140
0.125
141
12.0
290
     0
  0
SCALE
  5
5F
102
{ACAD_REACTORS
330
47
102
}
330
47
100
AcDbScale
 70
     0
300
3/16" = 1'-0"
140
0.1875
141
12.0
290
     0
  0
SCALE
  5
60
102
{ACAD_REACTORS
330
47
102
}
330
47
100
AcDbScale
 70
     0
300
1/4" = 1'-0"
140
0.25
141
12.0
290
     0
  0
SCALE
  5
61
102
{ACAD_REACTORS
330
47
102
}
330
47
100
AcDbScale
 70
     0
300
3/8" = 1'-0"
140
0.375
141
12.0
290
     0
  0
SCALE
  5
62
102
{ACAD_REACTORS
330
47
102
}
330
47
100
AcDbScale
 70
     0
300
1/2" = 1'-0"
140
0.5
141
12.0
290
     0
  0
SCALE
  5
63
102
{ACAD_REACTORS
330
47
102
}
330
47
100
AcDbScale
 70
     0
300
3/4" = 1'-0"
140
0.75
141
12.0
290
     0
  0
SCALE
  5
64
102
{ACAD_REACTORS
330
47
102
}
330
47
100
AcDbScale
 70
     0
300
1" = 1'-0"
140
1.0
141
12.0
290
     0
  0
SCALE
  5
65
102
{ACAD_REACTORS
330
47
102
}
330
47
100
AcDbScale
 70
     0
300
1-1/2" = 1'-0"
140
1.5
141
12.0
290
     0
  0
SCALE
  5
66
102
{ACAD_REACTORS
330
47
102
}
330
47
100
AcDbScale
 70
     0
300
3" = 1'-0"
140
3.0
141
12.0
290
     0
  0
SCALE
  5
67
102
{ACAD_REACTORS
330
47
102
}
330
47
100
AcDbScale
 70
     0
300
6" = 1'-0"
140
6.0
141
12.0
290
     0
  0
SCALE
  5
68
102
{ACAD_REACTORS
330
47
102
}
330
47
100
AcDbScale
 70
     0
300
1'-0" = 1'-0"
140
12.0
141
12.0
290
     0
  0
ENDSEC
  0
EOF
