  0
SECTION
  2
HEADER
  9
$ACADVER
  1
AC1015
  9
$ACADMAINTVER
 70
     6
  9
$DWGCODEPAGE
  3
ANSI_949
  9
$INSBASE
 10
0.0
 20
0.0
 30
0.0
  9
$EXTMIN
 10
-62.20750000000006
 20
-49.97073246008785
 30
0.0
  9
$EXTMAX
 10
108.1233286000229
 20
48.37155326667848
 30
0.0
  9
$LIMMIN
 10
0.0
 20
0.0
  9
$LIMMAX
 10
420.0
 20
297.0
  9
$ORTHOMODE
 70
     0
  9
$REGENMODE
 70
     1
  9
$FILLMODE
 70
     1
  9
$QTEXTMODE
 70
     0
  9
$MIRRTEXT
 70
     1
  9
$LTSCALE
 40
1.0
  9
$ATTMODE
 70
     1
  9
$TEXTSIZE
 40
3.5
  9
$TRACEWID
 40
1.0
  9
$TEXTSTYLE
  7
Standard
  9
$CLAYER
  8
0
  9
$CELTYPE
  6
ByLayer
  9
$CECOLOR
 62
   256
  9
$CELTSCALE
 40
1.0
  9
$DISPSILH
 70
     0
  9
$DIMSCALE
 40
1.0
  9
$DIMASZ
 40
3.302
  9
$DIMEXO
 40
1.0
  9
$DIMDLI
 40
3.75
  9
$DIMRND
 40
0.0
  9
$DIMDLE
 40
0.0
  9
$DIMEXE
 40
1.0
  9
$DIMTP
 40
0.0
  9
$DIMTM
 40
0.0
  9
$DIMTXT
 40
3.5
  9
$DIMCEN
 40
2.5
  9
$DIMTSZ
 40
0.0
  9
$DIMTOL
 70
     0
  9
$DIMLIM
 70
     0
  9
$DIMTIH
 70
     1
  9
$DIMTOH
 70
     1
  9
$DIMSE1
 70
     0
  9
$DIMSE2
 70
     0
  9
$DIMTAD
 70
     1
  9
$DIMZIN
 70
     0
  9
$DIMBLK
  1

  9
$DIMASO
 70
     1
  9
$DIMSHO
 70
     1
  9
$DIMPOST
  1

  9
$DIMAPOST
  1

  9
$DIMALT
 70
     0
  9
$DIMALTD
 70
     3
  9
$DIMALTF
 40
0.0393700787401575
  9
$DIMLFAC
 40
1.0
  9
$DIMTOFL
 70
     1
  9
$DIMTVP
 40
0.0
  9
$DIMTIX
 70
     0
  9
$DIMSOXD
 70
     0
  9
$DIMSAH
 70
     0
  9
$DIMBLK1
  1

  9
$DIMBLK2
  1

  9
$DIMSTYLE
  2
ISO-25
  9
$DIMCLRD
 70
     0
  9
$DIMCLRE
 70
     0
  9
$DIMCLRT
 70
     0
  9
$DIMTFAC
 40
1.0
  9
$DIMGAP
 40
1.524
  9
$DIMJUST
 70
     0
  9
$DIMSD1
 70
     0
  9
$DIMSD2
 70
     0
  9
$DIMTOLJ
 70
     0
  9
$DIMTZIN
 70
     0
  9
$DIMALTZ
 70
     0
  9
$DIMALTTZ
 70
     0
  9
$DIMUPT
 70
     0
  9
$DIMDEC
 70
     2
  9
$DIMTDEC
 70
     2
  9
$DIMALTU
 70
     2
  9
$DIMALTTD
 70
     3
  9
$DIMTXSTY
  7
Standard
  9
$DIMAUNIT
 70
     0
  9
$DIMADEC
 70
     2
  9
$DIMALTRND
 40
0.0
  9
$DIMAZIN
 70
     0
  9
$DIMDSEP
 70
    44
  9
$DIMATFIT
 70
     3
  9
$DIMFRAC
 70
     0
  9
$DIMLDRBLK
  1

  9
$DIMLUNIT
 70
     2
  9
$DIMLWD
 70
    -2
  9
$DIMLWE
 70
    -2
  9
$DIMTMOVE
 70
     0
  9
$LUNITS
 70
     2
  9
$LUPREC
 70
     2
  9
$SKETCHINC
 40
1.0
  9
$FILLETRAD
 40
10.0
  9
$AUNITS
 70
     0
  9
$AUPREC
 70
     2
  9
$MENU
  1
.
  9
$ELEVATION
 40
0.0
  9
$PELEVATION
 40
0.0
  9
$THICKNESS
 40
0.0
  9
$LIMCHECK
 70
     0
  9
$CHAMFERA
 40
0.0
  9
$CHAMFERB
 40
0.0
  9
$CHAMFERC
 40
0.0
  9
$CHAMFERD
 40
0.0
  9
$SKPOLY
 70
     0
  9
$TDCREATE
 40
2458323.440262327
  9
$TDUCREATE
 40
2458323.065262327
  9
$TDUPDATE
 40
2458323.742320532
  9
$TDUUPDATE
 40
2458323.367320532
  9
$TDINDWG
 40
0.000323912
  9
$TDUSRTIMER
 40
2458323.367277917
  9
$USRTIMER
 70
     1
  9
$ANGBASE
 50
0.0
  9
$ANGDIR
 70
     0
  9
$PDMODE
 70
     0
  9
$PDSIZE
 40
-1.0
  9
$PLINEWID
 40
0.0
  9
$SPLFRAME
 70
     0
  9
$SPLINETYPE
 70
     6
  9
$SPLINESEGS
 70
     8
  9
$HANDSEED
  5
375
  9
$SURFTAB1
 70
     6
  9
$SURFTAB2
 70
     6
  9
$SURFTYPE
 70
     6
  9
$SURFU
 70
     6
  9
$SURFV
 70
     6
  9
$UCSBASE
  2

  9
$UCSNAME
  2

  9
$UCSORG
 10
0.0
 20
0.0
 30
0.0
  9
$UCSXDIR
 10
1.0
 20
0.0
 30
0.0
  9
$UCSYDIR
 10
0.0
 20
1.0
 30
0.0
  9
$UCSORTHOREF
  2

  9
$UCSORTHOVIEW
 70
     0
  9
$UCSORGTOP
 10
0.0
 20
0.0
 30
0.0
  9
$UCSORGBOTTOM
 10
0.0
 20
0.0
 30
0.0
  9
$UCSORGLEFT
 10
0.0
 20
0.0
 30
0.0
  9
$UCSORGRIGHT
 10
0.0
 20
0.0
 30
0.0
  9
$UCSORGFRONT
 10
0.0
 20
0.0
 30
0.0
  9
$UCSORGBACK
 10
0.0
 20
0.0
 30
0.0
  9
$PUCSBASE
  2

  9
$PUCSNAME
  2

  9
$PUCSORG
 10
0.0
 20
0.0
 30
0.0
  9
$PUCSXDIR
 10
1.0
 20
0.0
 30
0.0
  9
$PUCSYDIR
 10
0.0
 20
1.0
 30
0.0
  9
$PUCSORTHOREF
  2

  9
$PUCSORTHOVIEW
 70
     0
  9
$PUCSORGTOP
 10
0.0
 20
0.0
 30
0.0
  9
$PUCSORGBOTTOM
 10
0.0
 20
0.0
 30
0.0
  9
$PUCSORGLEFT
 10
0.0
 20
0.0
 30
0.0
  9
$PUCSORGRIGHT
 10
0.0
 20
0.0
 30
0.0
  9
$PUCSORGFRONT
 10
0.0
 20
0.0
 30
0.0
  9
$PUCSORGBACK
 10
0.0
 20
0.0
 30
0.0
  9
$USERI1
 70
     0
  9
$USERI2
 70
     0
  9
$USERI3
 70
     0
  9
$USERI4
 70
     0
  9
$USERI5
 70
     0
  9
$USERR1
 40
0.0
  9
$USERR2
 40
0.0
  9
$USERR3
 40
0.0
  9
$USERR4
 40
0.0
  9
$USERR5
 40
0.0
  9
$WORLDVIEW
 70
     1
  9
$SHADEDGE
 70
     3
  9
$SHADEDIF
 70
    70
  9
$TILEMODE
 70
     1
  9
$MAXACTVP
 70
    64
  9
$PINSBASE
 10
0.0
 20
0.0
 30
0.0
  9
$PLIMCHECK
 70
     0
  9
$PEXTMIN
 10
1.000000000000000E+20
 20
1.000000000000000E+20
 30
1.000000000000000E+20
  9
$PEXTMAX
 10
-1.000000000000000E+20
 20
-1.000000000000000E+20
 30
-1.000000000000000E+20
  9
$PLIMMIN
 10
0.0
 20
0.0
  9
$PLIMMAX
 10
0.0
 20
0.0
  9
$UNITMODE
 70
     0
  9
$VISRETAIN
 70
     1
  9
$PLINEGEN
 70
     0
  9
$PSLTSCALE
 70
     1
  9
$TREEDEPTH
 70
  3020
  9
$CMLSTYLE
  2
Standard
  9
$CMLJUST
 70
     0
  9
$CMLSCALE
 40
20.0
  9
$PROXYGRAPHICS
 70
     1
  9
$MEASUREMENT
 70
     1
  9
$CELWEIGHT
370
    -1
  9
$ENDCAPS
280
     0
  9
$JOINSTYLE
280
     0
  9
$LWDISPLAY
290
     1
  9
$INSUNITS
 70
     4
  9
$HYPERLINKBASE
  1

  9
$STYLESHEET
  1

  9
$XEDIT
290
     1
  9
$CEPSNTYPE
380
     0
  9
$PSTYLEMODE
290
     1
  9
$FINGERPRINTGUID
  2
{0EC74C4A-0DA1-4B0D-92F5-907B6F991113}
  9
$VERSIONGUID
  2
{FAEB1C32-E019-11D5-929B-00C0DF256EC4}
  9
$EXTNAMES
290
     1
  9
$PSVPSCALE
 40
0.0
  9
$OLESTARTUP
290
     0
  0
ENDSEC
  0
SECTION
  2
CLASSES
  0
CLASS
  1
ACDBDICTIONARYWDFLT
  2
AcDbDictionaryWithDefault
  3
ObjectDBX Classes
 90
        0
280
     0
281
     0
  0
CLASS
  1
VISUALSTYLE
  2
AcDbVisualStyle
  3
ObjectDBX Classes
 90
     4095
280
     0
281
     0
  0
CLASS
  1
MATERIAL
  2
AcDbMaterial
  3
ObjectDBX Classes
 90
     1153
280
     0
281
     0
  0
CLASS
  1
SCALE
  2
AcDbScale
  3
ObjectDBX Classes
 90
     1153
280
     0
281
     0
  0
CLASS
  1
SUN
  2
AcDbSun
  3
SCENEOE
 90
     1153
280
     0
281
     0
  0
CLASS
  1
ACDBPLACEHOLDER
  2
AcDbPlaceHolder
  3
ObjectDBX Classes
 90
        0
280
     0
281
     0
  0
CLASS
  1
LAYOUT
  2
AcDbLayout
  3
ObjectDBX Classes
 90
        0
280
     0
281
     0
  0
CLASS
  1
TABLESTYLE
  2
AcDbTableStyle
  3
ObjectDBX Classes
 90
     4095
280
     0
281
     0
  0
CLASS
  1
MLEADERSTYLE
  2
AcDbMLeaderStyle
  3
ACDB_MLEADERSTYLE_CLASS
 90
     4095
280
     0
281
     0
  0
CLASS
  1
RASTERVARIABLES
  2
AcDbRasterVariables
  3
ISM
 90
        0
280
     0
281
     0
  0
ENDSEC
  0
SECTION
  2
TABLES
  0
TABLE
  2
VPORT
  5
8
330
0
100
AcDbSymbolTable
 70
     1
  0
VPORT
  5
29
330
8
100
AcDbSymbolTableRecord
100
AcDbViewportTableRecord
  2
*Active
 70
     0
 10
0.0
 20
0.0
 11
1.0
 21
1.0
 12
46.64899497431298
 22
-14.31703135430702
 13
0.0
 23
0.0
 14
10.0
 24
10.0
 15
10.0
 25
10.0
 16
0.0
 26
0.0
 36
1.0
 17
0.0
 27
0.0
 37
0.0
 40
155.0787649477562
 41
1.632093933463796
 42
50.0
 43
0.0
 44
0.0
 50
0.0
 51
0.0
 71
    16
 72
  2000
 73
     1
 74
     3
 75
     0
 76
     0
 77
     0
 78
     0
281
     0
 65
     1
110
0.0
120
0.0
130
0.0
111
1.0
121
0.0
131
0.0
112
0.0
122
1.0
132
0.0
 79
     0
146
0.0
  0
ENDTAB
  0
TABLE
  2
LTYPE
  5
5
330
0
100
AcDbSymbolTable
 70
     6
  0
LTYPE
  5
14
330
5
100
AcDbSymbolTableRecord
100
AcDbLinetypeTableRecord
  2
ByBlock
 70
     0
  3

 72
    65
 73
     0
 40
0.0
  0
LTYPE
  5
15
330
5
100
AcDbSymbolTableRecord
100
AcDbLinetypeTableRecord
  2
ByLayer
 70
     0
  3

 72
    65
 73
     0
 40
0.0
  0
LTYPE
  5
16
330
5
100
AcDbSymbolTableRecord
100
AcDbLinetypeTableRecord
  2
Continuous
 70
     0
  3
Solid line
 72
    65
 73
     0
 40
0.0
  0
LTYPE
  5
6A
330
5
100
AcDbSymbolTableRecord
100
AcDbLinetypeTableRecord
  2
HIDDEN
 70
     0
  3
Hidden __ __ __ __ __ __ __ __ __ __ __ __ __ __
 72
    65
 73
     2
 40
1.905
 49
1.27
 74
     0
 49
-0.635
 74
     0
  0
LTYPE
  5
6B
330
5
100
AcDbSymbolTableRecord
100
AcDbLinetypeTableRecord
  2
PHANTOM
 70
     0
  3
Phantom ______  __  __  ______  __  __  ______
 72
    65
 73
     6
 40
12.7
 49
6.35
 74
     0
 49
-1.27
 74
     0
 49
1.27
 74
     0
 49
-1.27
 74
     0
 49
1.27
 74
     0
 49
-1.27
 74
     0
  0
LTYPE
  5
6C
330
5
100
AcDbSymbolTableRecord
100
AcDbLinetypeTableRecord
  2
CENTER
 70
     0
  3
Center ____ _ ____ _ ____ _ ____ _ ____ _ ____
 72
    65
 73
     4
 40
10.16
 49
6.35
 74
     0
 49
-1.27
 74
     0
 49
1.27
 74
     0
 49
-1.27
 74
     0
  0
LTYPE
  5
6D
330
5
100
AcDbSymbolTableRecord
100
AcDbLinetypeTableRecord
  2
CENTERX2
 70
     0
  3
Center (2x) ________  __  ________  __  _____
 72
    65
 73
     4
 40
20.32
 49
12.7
 74
     0
 49
-2.54
 74
     0
 49
2.54
 74
     0
 49
-2.54
 74
     0
  0
LTYPE
  5
6E
330
5
100
AcDbSymbolTableRecord
100
AcDbLinetypeTableRecord
  2
DOT2
 70
     0
  3
Dot (.5x) ........................................
 72
    65
 73
     2
 40
0.635
 49
0.0
 74
     0
 49
-0.635
 74
     0
  0
ENDTAB
  0
TABLE
  2
LAYER
  5
2
102
{ACAD_XDICTIONARY
360
22C
102
}
330
0
100
AcDbSymbolTable
 70
    18
  0
LAYER
  5
10
330
2
100
AcDbSymbolTableRecord
100
AcDbLayerTableRecord
  2
0
 70
     0
 62
     7
  6
Continuous
370
    -3
390
F
  0
LAYER
  5
6F
330
2
100
AcDbSymbolTableRecord
100
AcDbLayerTableRecord
  2
FORMAT
 70
     0
 62
     2
  6
Continuous
370
    -3
390
F
  0
LAYER
  5
70
330
2
100
AcDbSymbolTableRecord
100
AcDbLayerTableRecord
  2
외형선
 70
     0
 62
     4
  6
Continuous
370
    30
390
F
  0
LAYER
  5
71
330
2
100
AcDbSymbolTableRecord
100
AcDbLayerTableRecord
  2
숨은선
 70
     0
 62
     2
  6
HIDDEN
370
    15
390
F
  0
LAYER
  5
72
330
2
100
AcDbSymbolTableRecord
100
AcDbLayerTableRecord
  2
중심선
 70
     0
 62
     1
  6
CENTERX2
370
    -3
390
F
  0
LAYER
  5
73
330
2
100
AcDbSymbolTableRecord
100
AcDbLayerTableRecord
  2
파단선
 70
     0
 62
     4
  6
Continuous
370
    -3
390
F
  0
LAYER
  5
74
330
2
100
AcDbSymbolTableRecord
100
AcDbLayerTableRecord
  2
해칭선
 70
     0
 62
   100
  6
Continuous
370
    -3
390
F
  0
LAYER
  5
75
330
2
100
AcDbSymbolTableRecord
100
AcDbLayerTableRecord
  2
가는실선
 70
     0
 62
     4
  6
Continuous
370
    -3
390
F
  0
LAYER
  5
76
330
2
100
AcDbSymbolTableRecord
100
AcDbLayerTableRecord
  2
치수_보조선
 70
     0
 62
     4
  6
Continuous
370
    -3
390
F
  0
LAYER
  5
77
330
2
100
AcDbSymbolTableRecord
100
AcDbLayerTableRecord
  2
치수문자_일반주서
 70
     0
 62
     7
  6
Continuous
370
    15
390
F
  0
LAYER
  5
78
330
2
100
AcDbSymbolTableRecord
100
AcDbLayerTableRecord
  2
개별주서
 70
     0
 62
   100
  6
Continuous
370
    30
390
F
  0
LAYER
  5
79
330
2
100
AcDbSymbolTableRecord
100
AcDbLayerTableRecord
  2
중간선
 70
     0
 62
     2
  6
Continuous
370
    15
390
F
  0
LAYER
  5
7A
330
2
100
AcDbSymbolTableRecord
100
AcDbLayerTableRecord
  2
윤곽선
 70
     0
 62
     3
  6
Continuous
370
    40
390
F
  0
LAYER
  5
7B
330
2
100
AcDbSymbolTableRecord
100
AcDbLayerTableRecord
  2
중심마크
 70
     0
 62
   100
  6
Continuous
370
    30
390
F
  0
LAYER
  5
7C
330
2
100
AcDbSymbolTableRecord
100
AcDbLayerTableRecord
  2
가상선
 70
     0
 62
     4
  6
PHANTOM
370
    -3
390
F
  0
LAYER
  5
7D
330
2
100
AcDbSymbolTableRecord
100
AcDbLayerTableRecord
  2
특수지정선
 70
     0
 62
     5
  6
CENTERX2
370
    60
390
F
  0
LAYER
  5
7E
330
2
100
AcDbSymbolTableRecord
100
AcDbLayerTableRecord
  2
참조1
 70
     0
 62
    -4
  6
Continuous
370
    -3
390
F
  0
LAYER
  5
172
330
2
100
AcDbSymbolTableRecord
100
AcDbLayerTableRecord
  2
Defpoints
 70
     0
 62
     7
  6
Continuous
290
     0
370
    -3
390
F
  0
ENDTAB
  0
TABLE
  2
STYLE
  5
3
330
0
100
AcDbSymbolTable
 70
     2
  0
STYLE
  5
11
330
3
100
AcDbSymbolTableRecord
100
AcDbTextStyleTableRecord
  2
Standard
 70
     0
 40
0.0
 41
1.0
 50
0.0
 71
     0
 42
3.5
  3
txt
  4

  0
STYLE
  5
94
330
3
100
AcDbSymbolTableRecord
100
AcDbTextStyleTableRecord
  2
SLDTEXTSTYLE0
 70
     0
 40
0.0
 41
0.75
 50
0.0
 71
     0
 42
3.5
  3
TXT
  4

  0
ENDTAB
  0
TABLE
  2
VIEW
  5
6
330
0
100
AcDbSymbolTable
 70
     0
  0
ENDTAB
  0
TABLE
  2
UCS
  5
7
330
0
100
AcDbSymbolTable
 70
     0
  0
ENDTAB
  0
TABLE
  2
APPID
  5
9
330
0
100
AcDbSymbolTable
 70
     1
  0
APPID
  5
12
330
9
100
AcDbSymbolTableRecord
100
AcDbRegAppTableRecord
  2
ACAD
 70
     0
  0
ENDTAB
  0
TABLE
  2
DIMSTYLE
  5
A
330
0
100
AcDbSymbolTable
 70
     4
100
AcDbDimStyleTable
  0
DIMSTYLE
105
27
330
A
100
AcDbSymbolTableRecord
100
AcDbDimStyleTableRecord
  2
ISO-25
 70
     0
 41
2.5
 42
0.625
 43
3.75
 44
1.25
 73
     0
 74
     0
 77
     1
 78
     8
140
2.5
141
2.5
143
0.03937007874016
147
0.625
171
     3
172
     1
178
     0
271
     2
272
     2
274
     3
278
    44
283
     0
284
     8
340
11
  0
DIMSTYLE
105
F0
102
{ACAD_REACTORS
330
EF
330
104
330
118
330
12C
102
}
330
A
100
AcDbSymbolTableRecord
100
AcDbDimStyleTableRecord
  2
SLDDIMSTYLE0
 70
     0
 41
3.302
 44
0.0
 45
0.000000001
 73
     0
 74
     0
 77
     1
 78
    12
 79
     3
140
3.5
143
0.0393700787401575
147
0.875
148
0.000000001
170
     1
172
     1
173
     1
178
     0
271
     2
272
     2
276
     2
284
    12
289
     0
340
94
  0
DIMSTYLE
105
105
330
A
100
AcDbSymbolTableRecord
100
AcDbDimStyleTableRecord
  2
SLDDIMSTYLE1
 70
     0
 41
3.302
 44
0.0
 45
0.000000001
 73
     0
 74
     0
 77
     1
 78
     4
 79
     1
140
3.5
143
0.0393700787401575
147
0.875
148
0.000000001
170
     1
173
     1
178
     0
271
     2
272
     2
276
     2
284
    12
340
94
  0
DIMSTYLE
105
119
330
A
100
AcDbSymbolTableRecord
100
AcDbDimStyleTableRecord
  2
SLDDIMSTYLE2
 70
     0
 41
3.302
 44
0.0
 45
0.000000001
 73
     0
 74
     0
 77
     1
 78
    12
 79
     3
140
3.5
143
0.0393700787401575
147
0.875
148
0.000000001
170
     1
173
     1
178
     0
271
     2
272
     2
276
     2
284
    12
340
94
  0
ENDTAB
  0
TABLE
  2
BLOCK_RECORD
  5
1
330
0
100
AcDbSymbolTable
 70
    15
  0
BLOCK_RECORD
  5
1F
330
1
100
AcDbSymbolTableRecord
100
AcDbBlockTableRecord
  2
*Model_Space
340
22
  0
BLOCK_RECORD
  5
1B
330
1
100
AcDbSymbolTableRecord
100
AcDbBlockTableRecord
  2
*Paper_Space
340
1E
  0
BLOCK_RECORD
  5
23
330
1
100
AcDbSymbolTableRecord
100
AcDbBlockTableRecord
  2
*Paper_Space0
340
26
  0
BLOCK_RECORD
  5
7F
330
1
100
AcDbSymbolTableRecord
100
AcDbBlockTableRecord
  2
블럭10
340
0
102
{BLKREFS
331
E8
102
}
  0
BLOCK_RECORD
  5
F1
330
1
100
AcDbSymbolTableRecord
100
AcDbBlockTableRecord
  2
_D
340
0
  0
BLOCK_RECORD
  5
106
330
1
100
AcDbSymbolTableRecord
100
AcDbBlockTableRecord
  2
_D_1
340
0
  0
BLOCK_RECORD
  5
11A
330
1
100
AcDbSymbolTableRecord
100
AcDbBlockTableRecord
  2
_D_2
340
0
  0
BLOCK_RECORD
  5
12D
330
1
100
AcDbSymbolTableRecord
100
AcDbBlockTableRecord
  2
_D_3
340
0
  0
BLOCK_RECORD
  5
146
330
1
100
AcDbSymbolTableRecord
100
AcDbBlockTableRecord
  2
SW_DOWELSYMBOL_0
340
0
102
{BLKREFS
331
14C
102
}
  0
BLOCK_RECORD
  5
230
330
1
100
AcDbSymbolTableRecord
100
AcDbBlockTableRecord
  2
*D7
340
0
  0
BLOCK_RECORD
  5
23C
330
1
100
AcDbSymbolTableRecord
100
AcDbBlockTableRecord
  2
*D8
340
0
  0
BLOCK_RECORD
  5
248
330
1
100
AcDbSymbolTableRecord
100
AcDbBlockTableRecord
  2
*D9
340
0
  0
BLOCK_RECORD
  5
254
330
1
100
AcDbSymbolTableRecord
100
AcDbBlockTableRecord
  2
*D10
340
0
  0
BLOCK_RECORD
  5
2BC
330
1
100
AcDbSymbolTableRecord
100
AcDbBlockTableRecord
  2
*D11
340
0
  0
BLOCK_RECORD
  5
2C8
330
1
100
AcDbSymbolTableRecord
100
AcDbBlockTableRecord
  2
*D12
340
0
  0
BLOCK_RECORD
  5
2D4
330
1
100
AcDbSymbolTableRecord
100
AcDbBlockTableRecord
  2
*D13
340
0
  0
BLOCK_RECORD
  5
2E0
330
1
100
AcDbSymbolTableRecord
100
AcDbBlockTableRecord
  2
*D14
340
0
  0
ENDTAB
  0
ENDSEC
  0
SECTION
  2
BLOCKS
  0
BLOCK
  5
20
330
1F
100
AcDbEntity
  8
0
100
AcDbBlockBegin
  2
*Model_Space
 70
     0
 10
0.0
 20
0.0
 30
0.0
  3
*Model_Space
  1
*Model_Space
  0
ENDBLK
  5
21
330
1F
100
AcDbEntity
  8
0
100
AcDbBlockEnd
  0
BLOCK
  5
1C
330
1B
100
AcDbEntity
 67
     1
  8
0
100
AcDbBlockBegin
  2
*Paper_Space
 70
     0
 10
0.0
 20
0.0
 30
0.0
  3
*Paper_Space
  1
*Paper_Space
  0
ENDBLK
  5
1D
330
1B
100
AcDbEntity
 67
     1
  8
0
100
AcDbBlockEnd
  0
BLOCK
  5
24
330
23
100
AcDbEntity
  8
0
100
AcDbBlockBegin
  2
*Paper_Space0
 70
     0
 10
0.0
 20
0.0
 30
0.0
  3
*Paper_Space0
  1
*Paper_Space0
  0
ENDBLK
  5
25
330
23
100
AcDbEntity
  8
0
100
AcDbBlockEnd
  0
BLOCK
  5
80
330
7F
100
AcDbEntity
  8
0
100
AcDbBlockBegin
  2
블럭10
 70
     2
 10
0.0
 20
0.0
 30
0.0
  3
블럭10
  1
블럭10
  0
ELLIPSE
  5
82
330
7F
100
AcDbEntity
  8
중심선
100
AcDbEllipse
 10
20.54032771741204
 20
12.0471743016438
 30
0.0
 11
6.600054785286829
 21
-1.261213355974178E-13
 31
0.0
210
0.0
220
0.0
230
1.0
 40
0.636358354079598
 41
0.9219305317359503
 42
6.513795318482858
  0
ELLIPSE
  5
83
330
7F
100
AcDbEntity
  8
중심선
100
AcDbEllipse
 10
20.54032771746488
 20
12.04717430159265
 30
0.0
 11
3.960054785062283
 21
1.540847449632565E-10
 31
0.0
210
0.0
220
0.0
230
1.0
 40
0.3939339440162632
 41
1.131841032648279
 42
5.62031148352944
  0
LINE
  5
84
330
7F
100
AcDbEntity
  8
중심선
100
AcDbLine
 10
2.268634060543552
 20
16.24717430164393
 30
0.0
 11
5.714909304380834
 21
16.24717430164393
 31
0.0
  0
LINE
  5
85
330
7F
100
AcDbEntity
  8
중심선
100
AcDbLine
 10
5.245725140726316
 20
7.84717430164391
 30
0.0
 11
8.692000384563599
 21
7.84717430164391
 31
0.0
  0
LINE
  5
86
330
7F
100
AcDbEntity
  8
중심선
100
AcDbLine
 10
15.74043728645272
 20
16.24717430164393
 30
0.0
 11
8.692000384563599
 21
7.84717430164391
 31
0.0
  0
LINE
  5
87
330
7F
100
AcDbEntity
  8
중심선
100
AcDbLine
 10
0.1404042013395286
 20
13.71084872107135
 30
0.0
 11
3.58671253028996
 21
13.71088815037384
 31
0.0
  0
LINE
  5
88
330
7F
100
AcDbEntity
  8
중심선
100
AcDbLine
 10
2.750260043222114
 20
10.84717430164391
 30
0.0
 11
6.196535287059397
 21
10.84717430164391
 31
0.0
  0
LINE
  5
89
330
7F
100
AcDbEntity
  8
중심선
100
AcDbLine
 10
12.29416204261559
 20
16.24717430164393
 30
0.0
 11
5.245725140726316
 21
7.84717430164391
 31
0.0
  0
LINE
  5
8A
330
7F
100
AcDbEntity
  8
중심선
100
AcDbLine
 10
10.72767329541681
 20
16.24717430164393
 30
0.0
 11
6.196535287059397
 21
10.84717430164391
 31
0.0
  0
LINE
  5
8B
330
7F
100
AcDbEntity
  8
중심선
100
AcDbLine
 10
7.28139805157953
 20
16.24717430164393
 30
0.0
 11
2.750260043222114
 21
10.84717430164391
 31
0.0
  0
LINE
  5
8C
330
7F
100
AcDbEntity
  8
중심선
100
AcDbLine
 10
5.714909304380834
 20
16.24717430164393
 30
0.0
 11
3.58671253028996
 21
13.71088815037384
 31
0.0
  0
LINE
  5
8D
330
7F
100
AcDbEntity
  8
중심선
100
AcDbLine
 10
2.268634060543552
 20
16.24717430164393
 30
0.0
 11
0.1404042013395286
 21
13.71084872107135
 31
0.0
  0
LINE
  5
8E
330
7F
100
AcDbEntity
  8
중심선
100
AcDbLine
 10
7.28139805157953
 20
16.24717430164393
 30
0.0
 11
10.72767329541681
 21
16.24717430164393
 31
0.0
  0
LINE
  5
8F
330
7F
100
AcDbEntity
  8
중심선
100
AcDbLine
 10
12.29416204261559
 20
16.24717430164393
 30
0.0
 11
15.74043728645272
 21
16.24717430164393
 31
0.0
  0
LINE
  5
90
330
7F
100
AcDbEntity
  8
중심선
100
AcDbLine
 10
19.22036997980202
 20
11.08717430171403
 30
0.0
 11
23.66174974927406
 21
11.08717430171406
 31
0.0
  0
LINE
  5
91
330
7F
100
AcDbEntity
  8
중심선
100
AcDbLine
 10
19.22039502424796
 20
13.00717430171391
 30
0.0
 11
19.22036997980202
 21
11.08717430171403
 31
0.0
  0
LINE
  5
92
330
7F
100
AcDbEntity
  8
중심선
100
AcDbLine
 10
19.22039502424796
 20
13.00717430171391
 30
0.0
 11
26.96566020931264
 21
13.00717430171391
 31
0.0
  0
LINE
  5
93
330
7F
100
AcDbEntity
  8
중심선
100
AcDbLine
 10
22.22332737316547
 20
13.45928029700563
 30
0.0
 11
24.52862924686651
 21
15.39360700705356
 31
0.0
  0
ATTDEF
  5
95
330
7F
100
AcDbEntity
  8
FORMAT
 62
     2
100
AcDbText
 10
4.408487351596664
 20
2.075366912832191
 30
0.0
 40
4.233333333333333
  1
E1162048
 41
0.75
  7
SLDTEXTSTYLE0
 11
4.408487351596664
 21
-0.0412997538344756
 31
0.0
100
AcDbAttributeDefinition
  3

  2
AUTOATTR0
 70
     0
 74
     1
  0
ENDBLK
  5
81
330
7F
100
AcDbEntity
  8
0
100
AcDbBlockEnd
  0
BLOCK
  5
F2
330
F1
100
AcDbEntity
  8
0
100
AcDbBlockBegin
  2
_D
 70
     0
 10
0.0
 20
0.0
 30
0.0
  3
_D
  1
_D
  0
LINE
  5
F4
330
F1
100
AcDbEntity
  8
치수문자_일반주서
 62
     0
370
    -2
100
AcDbLine
 10
-43.3075
 20
9.5260749287239
 30
0.0
 11
-57.83250000000005
 21
9.52607492872385
 31
0.0
  0
LINE
  5
F5
330
F1
100
AcDbEntity
  8
치수문자_일반주서
 62
     0
370
    -2
100
AcDbLine
 10
-43.3075
 20
-9.52392507127611
 30
0.0
 11
-57.83249999999998
 21
-9.523925071276162
 31
0.0
  0
LINE
  5
F6
330
F1
100
AcDbEntity
  8
치수문자_일반주서
 62
     0
370
    -2
100
AcDbLine
 10
-57.83250000000003
 20
6.22407492872385
 30
0.0
 11
-57.8325
 21
-6.221925071276162
 31
0.0
  0
SOLID
  5
F7
330
F1
100
AcDbEntity
  8
치수문자_일반주서
 62
     0
100
AcDbTrace
 10
-57.2821666666667
 20
6.224074928723851
 30
0.0
 11
-58.38283333333337
 21
6.224074928723848
 31
0.0
 12
-57.83250000000005
 22
9.52607492872385
 32
0.0
 13
-57.83250000000005
 23
9.52607492872385
 33
0.0
  0
SOLID
  5
F8
330
F1
100
AcDbEntity
  8
치수문자_일반주서
 62
     0
100
AcDbTrace
 10
-58.38283333333333
 20
-6.221925071276164
 30
0.0
 11
-57.28216666666666
 21
-6.221925071276161
 31
0.0
 12
-57.83249999999998
 22
-9.523925071276162
 32
0.0
 13
-57.83249999999998
 23
-9.523925071276162
 33
0.0
  0
MTEXT
  5
F9
330
F1
100
AcDbEntity
  8
치수문자_일반주서
 62
     0
100
AcDbMText
 10
-62.20750000000002
 20
0.0010749287238864
 30
0.0
 40
3.5
 41
0.0
 71
     2
 72
     1
  1
\A1;%%c19.05 [3/4]
  7
SLDTEXTSTYLE0
 11
-3.356894814614644E-15
 21
1.0
 31
0.0
 73
     1
 44
1.0
  0
POINT
  5
FA
330
F1
100
AcDbEntity
  8
Defpoints
 62
     0
100
AcDbPoint
 10
-43.245
 20
9.5260749287239
 30
0.0
  0
POINT
  5
FB
330
F1
100
AcDbEntity
  8
Defpoints
 62
     0
100
AcDbPoint
 10
-43.245
 20
-9.52392507127611
 30
0.0
  0
POINT
  5
FC
330
F1
100
AcDbEntity
  8
Defpoints
 62
     0
100
AcDbPoint
 10
-57.83249999999998
 20
-9.523925071276166
 30
0.0
  0
ENDBLK
  5
F3
330
F1
100
AcDbEntity
  8
0
100
AcDbBlockEnd
  0
BLOCK
  5
107
330
106
100
AcDbEntity
  8
0
100
AcDbBlockBegin
  2
_D_1
 70
     0
 10
0.0
 20
0.0
 30
0.0
  3
_D_1
  1
_D_1
  0
LINE
  5
109
330
106
100
AcDbEntity
  8
치수문자_일반주서
 62
     0
370
    -2
100
AcDbLine
 10
88.2
 20
9.519066726087713
 30
0.0
 11
88.19999999999999
 21
31.99655326667847
 31
0.0
  0
LINE
  5
10A
330
106
100
AcDbEntity
  8
치수문자_일반주서
 62
     0
370
    -2
100
AcDbLine
 10
11.99999999999998
 20
9.276320121538152
 30
0.0
 11
11.99999999999996
 21
31.99655326667847
 31
0.0
  0
LINE
  5
10B
330
106
100
AcDbEntity
  8
치수문자_일반주서
 62
     0
370
    -2
100
AcDbLine
 10
84.898
 20
31.99655326667847
 30
0.0
 11
15.30199999999996
 21
31.99655326667847
 31
0.0
  0
SOLID
  5
10C
330
106
100
AcDbEntity
  8
치수문자_일반주서
 62
     0
100
AcDbTrace
 10
84.898
 20
31.44621993334513
 30
0.0
 11
84.898
 21
32.5468866000118
 31
0.0
 12
88.19999999999999
 22
31.99655326667847
 32
0.0
 13
88.19999999999999
 23
31.99655326667847
 33
0.0
  0
SOLID
  5
10D
330
106
100
AcDbEntity
  8
치수문자_일반주서
 62
     0
100
AcDbTrace
 10
15.30199999999996
 20
32.5468866000118
 30
0.0
 11
15.30199999999996
 21
31.44621993334513
 31
0.0
 12
11.99999999999996
 22
31.99655326667847
 32
0.0
 13
11.99999999999996
 23
31.99655326667847
 33
0.0
  0
MTEXT
  5
10E
330
106
100
AcDbEntity
  8
치수문자_일반주서
 62
     0
100
AcDbMText
 10
50.1
 20
36.37155326667847
 30
0.0
 40
3.5
 41
0.0
 71
     2
 72
     1
  1
\A1;76.2 [3]
  7
SLDTEXTSTYLE0
 73
     1
 44
1.0
  0
POINT
  5
10F
330
106
100
AcDbEntity
  8
Defpoints
 62
     0
100
AcDbPoint
 10
88.2
 20
9.456566726087713
 30
0.0
  0
POINT
  5
110
330
106
100
AcDbEntity
  8
Defpoints
 62
     0
100
AcDbPoint
 10
11.99999999999998
 20
9.213820121538152
 30
0.0
  0
POINT
  5
111
330
106
100
AcDbEntity
  8
Defpoints
 62
     0
100
AcDbPoint
 10
11.99999999999998
 20
31.99655326667847
 30
0.0
  0
ENDBLK
  5
108
330
106
100
AcDbEntity
  8
0
100
AcDbBlockEnd
  0
BLOCK
  5
11B
330
11A
100
AcDbEntity
  8
0
100
AcDbBlockBegin
  2
_D_2
 70
     0
 10
0.0
 20
0.0
 30
0.0
  3
_D_2
  1
_D_2
  0
LINE
  5
11D
330
11A
100
AcDbEntity
  8
치수문자_일반주서
 62
     0
370
    -2
100
AcDbLine
 10
88.2
 20
9.519066726087713
 30
0.0
 11
88.19999999999999
 21
43.99655326667848
 31
0.0
  0
LINE
  5
11E
330
11A
100
AcDbEntity
  8
치수문자_일반주서
 62
     0
370
    -2
100
AcDbLine
 10
-45.15
 20
7.6835749287239
 30
0.0
 11
-45.15000000000001
 21
43.99655326667848
 31
0.0
  0
LINE
  5
11F
330
11A
100
AcDbEntity
  8
치수문자_일반주서
 62
     0
370
    -2
100
AcDbLine
 10
84.898
 20
43.99655326667848
 30
0.0
 11
-41.84800000000001
 21
43.99655326667848
 31
0.0
  0
SOLID
  5
120
330
11A
100
AcDbEntity
  8
치수문자_일반주서
 62
     0
100
AcDbTrace
 10
84.898
 20
43.44621993334514
 30
0.0
 11
84.898
 21
44.54688660001181
 31
0.0
 12
88.19999999999999
 22
43.99655326667848
 32
0.0
 13
88.19999999999999
 23
43.99655326667848
 33
0.0
  0
SOLID
  5
121
330
11A
100
AcDbEntity
  8
치수문자_일반주서
 62
     0
100
AcDbTrace
 10
-41.84800000000001
 20
44.54688660001181
 30
0.0
 11
-41.84800000000001
 21
43.44621993334514
 31
0.0
 12
-45.15000000000001
 22
43.99655326667848
 32
0.0
 13
-45.15000000000001
 23
43.99655326667848
 33
0.0
  0
MTEXT
  5
122
330
11A
100
AcDbEntity
  8
치수문자_일반주서
 62
     0
100
AcDbMText
 10
21.525
 20
48.37155326667848
 30
0.0
 40
3.5
 41
0.0
 71
     2
 72
     1
  1
\A1;133.35 [5 1/4]
  7
SLDTEXTSTYLE0
 73
     1
 44
1.0
  0
POINT
  5
123
330
11A
100
AcDbEntity
  8
Defpoints
 62
     0
100
AcDbPoint
 10
88.2
 20
9.456566726087713
 30
0.0
  0
POINT
  5
124
330
11A
100
AcDbEntity
  8
Defpoints
 62
     0
100
AcDbPoint
 10
-45.15
 20
7.6210749287239
 30
0.0
  0
POINT
  5
125
330
11A
100
AcDbEntity
  8
Defpoints
 62
     0
100
AcDbPoint
 10
-45.15
 20
43.99655326667848
 30
0.0
  0
ENDBLK
  5
11C
330
11A
100
AcDbEntity
  8
0
100
AcDbBlockEnd
  0
BLOCK
  5
12E
330
12D
100
AcDbEntity
  8
0
100
AcDbBlockBegin
  2
_D_3
 70
     0
 10
0.0
 20
0.0
 30
0.0
  3
_D_3
  1
_D_3
  0
LINE
  5
130
330
12D
100
AcDbEntity
  8
치수문자_일반주서
 62
     0
370
    -2
100
AcDbLine
 10
88.2625
 20
9.526074928723897
 30
0.0
 11
107.5729952666895
 21
9.526074928723968
 31
0.0
  0
LINE
  5
131
330
12D
100
AcDbEntity
  8
치수문자_일반주서
 62
     0
370
    -2
100
AcDbLine
 10
88.2625
 20
-9.523925071276107
 30
0.0
 11
107.5729952666896
 21
-9.523925071276032
 31
0.0
  0
LINE
  5
132
330
12D
100
AcDbEntity
  8
치수문자_일반주서
 62
     0
370
    -2
100
AcDbLine
 10
107.5729952666895
 20
9.526074928723968
 30
0.0
 11
107.5729952666894
 21
43.69257492872397
 31
0.0
  0
LINE
  5
133
330
12D
100
AcDbEntity
  8
치수문자_일반주서
 62
     0
370
    -2
100
AcDbLine
 10
107.5729952666895
 20
9.526074928723968
 30
0.0
 11
107.5729952666896
 21
-9.523925071276032
 31
0.0
  0
LINE
  5
134
330
12D
100
AcDbEntity
  8
치수문자_일반주서
 62
     0
370
    -2
100
AcDbLine
 10
107.5729952666895
 20
12.82807492872397
 30
0.0
 11
107.5729952666895
 21
16.13007492872397
 31
0.0
  0
LINE
  5
135
330
12D
100
AcDbEntity
  8
치수문자_일반주서
 62
     0
370
    -2
100
AcDbLine
 10
107.5729952666896
 20
-12.82592507127603
 30
0.0
 11
107.5729952666896
 21
-16.12792507127603
 31
0.0
  0
SOLID
  5
136
330
12D
100
AcDbEntity
  8
치수문자_일반주서
 62
     0
100
AcDbTrace
 10
107.0226619333561
 20
12.82807492872397
 30
0.0
 11
108.1233286000228
 21
12.82807492872397
 31
0.0
 12
107.5729952666895
 22
9.526074928723968
 32
0.0
 13
107.5729952666895
 23
9.526074928723968
 33
0.0
  0
SOLID
  5
137
330
12D
100
AcDbEntity
  8
치수문자_일반주서
 62
     0
100
AcDbTrace
 10
108.1233286000229
 20
-12.82592507127603
 30
0.0
 11
107.0226619333562
 21
-12.82592507127603
 31
0.0
 12
107.5729952666896
 22
-9.523925071276032
 32
0.0
 13
107.5729952666896
 23
-9.523925071276032
 33
0.0
  0
MTEXT
  5
138
330
12D
100
AcDbEntity
  8
치수문자_일반주서
 62
     0
100
AcDbMText
 10
103.1979952666894
 20
29.91132492872395
 30
0.0
 40
3.5
 41
0.0
 71
     2
 72
     1
  1
\A1;%%c19.05 [3/4]
  7
SLDTEXTSTYLE0
 11
-3.729883127349606E-15
 21
1.0
 31
0.0
 73
     1
 44
1.0
  0
POINT
  5
139
330
12D
100
AcDbEntity
  8
Defpoints
 62
     0
100
AcDbPoint
 10
88.2
 20
9.526074928723897
 30
0.0
  0
POINT
  5
2EF
330
12D
100
AcDbEntity
  8
Defpoints
 62
     0
100
AcDbPoint
 10
88.2
 20
-9.523925071276107
 30
0.0
  0
POINT
  5
2F0
330
12D
100
AcDbEntity
  8
Defpoints
 62
     0
100
AcDbPoint
 10
107.5729952666896
 20
-9.523925071276034
 30
0.0
  0
ENDBLK
  5
12F
330
12D
100
AcDbEntity
  8
0
100
AcDbBlockEnd
  0
BLOCK
  5
147
330
146
100
AcDbEntity
  8
0
100
AcDbBlockBegin
  2
SW_DOWELSYMBOL_0
 70
     0
 10
0.0
 20
0.0
 30
0.0
  3
SW_DOWELSYMBOL_0
  1
SW_DOWELSYMBOL_0
  0
CIRCLE
  5
149
330
146
100
AcDbEntity
  8
해칭선
 62
     0
100
AcDbCircle
 10
0.0
 20
0.0
 30
0.0
 40
3.000000000000002
  0
HATCH
  5
14A
330
146
100
AcDbEntity
  8
0
  6
Continuous
 62
     0
370
     0
100
AcDbHatch
 10
0.0
 20
0.0
 30
0.0
210
0.0
220
0.0
230
1.0
  2
SOLID
 70
     1
 71
     0
 91
        1
 92
        0
 93
        3
 72
     2
 10
0.0
 20
0.0
 40
3.000000000000002
 50
0.0
 51
90.0
 73
     1
 72
     1
 10
0.0
 20
3.000000000000002
 11
0.0
 21
0.0
 72
     1
 10
0.0
 20
0.0
 11
3.000000000000003
 21
0.0
 97
        0
 75
     0
 76
     1
 98
        1
 10
0.0
 20
0.0
  0
HATCH
  5
14B
330
146
100
AcDbEntity
  8
0
  6
Continuous
 62
     0
370
     0
100
AcDbHatch
 10
0.0
 20
0.0
 30
0.0
210
0.0
220
0.0
230
1.0
  2
SOLID
 70
     1
 71
     0
 91
        1
 92
        0
 93
        3
 72
     2
 10
0.0
 20
0.0
 40
3.000000000000002
 50
180.0
 51
270.0000000000007
 73
     1
 72
     1
 10
0.0
 20
-3.000000000000002
 11
0.0
 21
0.0
 72
     1
 10
0.0
 20
0.0
 11
-3.000000000000002
 21
0.0
 97
        0
 75
     0
 76
     1
 98
        1
 10
0.0
 20
0.0
  0
ENDBLK
  5
148
330
146
100
AcDbEntity
  8
0
100
AcDbBlockEnd
  0
BLOCK
  5
231
330
230
100
AcDbEntity
  8
0
100
AcDbBlockBegin
  2
*D7
 70
     1
 10
0.0
 20
0.0
 30
0.0
  3
*D7
  1
*D8
  0
LINE
  5
233
330
230
100
AcDbEntity
  8
치수문자_일반주서
 62
     0
370
    -2
100
AcDbLine
 10
18.90000000000005
 20
22.47899999999993
 30
0.0
 11
4.375000000000015
 21
22.47899999999987
 31
0.0
  0
LINE
  5
234
330
230
100
AcDbEntity
  8
치수문자_일반주서
 62
     0
370
    -2
100
AcDbLine
 10
18.90000000000005
 20
6.603999999999903
 30
0.0
 11
4.37500000000007
 21
6.603999999999846
 31
0.0
  0
LINE
  5
235
330
230
100
AcDbEntity
  8
치수문자_일반주서
 62
     0
370
    -2
100
AcDbLine
 10
4.375000000000027
 20
19.17699999999988
 30
0.0
 11
4.375000000000059
 21
9.905999999999846
 31
0.0
  0
SOLID
  5
236
330
230
100
AcDbEntity
  8
치수문자_일반주서
 62
     0
100
AcDbTrace
 10
4.92533333333336
 20
19.17699999999988
 30
0.0
 11
3.824666666666694
 21
19.17699999999987
 31
0.0
 12
4.375000000000015
 22
22.47899999999987
 32
0.0
 13
4.375000000000015
 23
22.47899999999987
 33
0.0
  0
SOLID
  5
237
330
230
100
AcDbEntity
  8
치수문자_일반주서
 62
     0
100
AcDbTrace
 10
3.824666666666726
 20
9.905999999999844
 30
0.0
 11
4.925333333333392
 21
9.905999999999848
 31
0.0
 12
4.37500000000007
 22
6.603999999999846
 32
0.0
 13
4.37500000000007
 23
6.603999999999846
 33
0.0
  0
MTEXT
  5
238
330
230
100
AcDbEntity
  8
치수문자_일반주서
 62
     0
100
AcDbMText
 10
0.0000000000000435
 20
14.54149999999992
 30
0.0
 40
3.5
 41
0.0
 71
     2
 72
     1
  1
\A1;%%c15.88 [5/8]
  7
SLDTEXTSTYLE0
 11
-3.468791308435129E-15
 21
1.0
 31
0.0
 73
     1
 44
1.0
  0
POINT
  5
239
330
230
100
AcDbEntity
  8
Defpoints
 62
     0
100
AcDbPoint
 10
18.96250000000005
 20
22.47899999999993
 30
0.0
  0
POINT
  5
23A
330
230
100
AcDbEntity
  8
Defpoints
 62
     0
100
AcDbPoint
 10
18.96250000000005
 20
6.603999999999903
 30
0.0
  0
POINT
  5
23B
330
230
100
AcDbEntity
  8
Defpoints
 62
     0
100
AcDbPoint
 10
4.375000000000071
 20
6.603999999999849
 30
0.0
  0
ENDBLK
  5
232
330
230
100
AcDbEntity
  8
0
100
AcDbBlockEnd
  0
BLOCK
  5
23D
330
23C
100
AcDbEntity
  8
0
100
AcDbBlockBegin
  2
*D8
 70
     1
 10
0.0
 20
0.0
 30
0.0
  3
*D8
  1
*D9
  0
LINE
  5
23F
330
23C
100
AcDbEntity
  8
치수문자_일반주서
 62
     0
370
    -2
100
AcDbLine
 10
134.8500000000001
 20
22.54149999999992
 30
0.0
 11
134.8500000000001
 21
44.96106303839385
 31
0.0
  0
LINE
  5
240
330
23C
100
AcDbEntity
  8
치수문자_일반주서
 62
     0
370
    -2
100
AcDbLine
 10
71.35000000000005
 20
22.28159338303367
 30
0.0
 11
71.35000000000005
 21
44.96106303839385
 31
0.0
  0
LINE
  5
241
330
23C
100
AcDbEntity
  8
치수문자_일반주서
 62
     0
370
    -2
100
AcDbLine
 10
131.5480000000001
 20
44.96106303839385
 30
0.0
 11
74.65200000000004
 21
44.96106303839385
 31
0.0
  0
SOLID
  5
242
330
23C
100
AcDbEntity
  8
치수문자_일반주서
 62
     0
100
AcDbTrace
 10
131.5480000000001
 20
44.41072970506052
 30
0.0
 11
131.5480000000001
 21
45.51139637172719
 31
0.0
 12
134.8500000000001
 22
44.96106303839385
 32
0.0
 13
134.8500000000001
 23
44.96106303839385
 33
0.0
  0
SOLID
  5
243
330
23C
100
AcDbEntity
  8
치수문자_일반주서
 62
     0
100
AcDbTrace
 10
74.65200000000004
 20
45.51139637172719
 30
0.0
 11
74.65200000000004
 21
44.41072970506052
 31
0.0
 12
71.35000000000005
 22
44.96106303839385
 32
0.0
 13
71.35000000000005
 23
44.96106303839385
 33
0.0
  0
MTEXT
  5
244
330
23C
100
AcDbEntity
  8
치수문자_일반주서
 62
     0
100
AcDbMText
 10
103.1000000000001
 20
49.33606303839385
 30
0.0
 40
3.5
 41
0.0
 71
     2
 72
     1
  1
\A1;63.5 [2 1/2]
  7
SLDTEXTSTYLE0
 73
     1
 44
1.0
  0
POINT
  5
245
330
23C
100
AcDbEntity
  8
Defpoints
 62
     0
100
AcDbPoint
 10
134.8500000000001
 20
22.47899999999992
 30
0.0
  0
POINT
  5
246
330
23C
100
AcDbEntity
  8
Defpoints
 62
     0
100
AcDbPoint
 10
71.35000000000005
 20
22.21909338303367
 30
0.0
  0
POINT
  5
247
330
23C
100
AcDbEntity
  8
Defpoints
 62
     0
100
AcDbPoint
 10
71.35000000000005
 20
44.96106303839385
 30
0.0
  0
ENDBLK
  5
23E
330
23C
100
AcDbEntity
  8
0
100
AcDbBlockEnd
  0
BLOCK
  5
249
330
248
100
AcDbEntity
  8
0
100
AcDbBlockBegin
  2
*D9
 70
     1
 10
0.0
 20
0.0
 30
0.0
  3
*D9
  1
*D10
  0
LINE
  5
24B
330
248
100
AcDbEntity
  8
치수문자_일반주서
 62
     0
370
    -2
100
AcDbLine
 10
134.8500000000001
 20
22.54149999999992
 30
0.0
 11
134.8500000000001
 21
56.96106303839386
 31
0.0
  0
LINE
  5
24C
330
248
100
AcDbEntity
  8
치수문자_일반주서
 62
     0
370
    -2
100
AcDbLine
 10
17.37500000000006
 20
20.95399999999992
 30
0.0
 11
17.37500000000006
 21
56.96106303839386
 31
0.0
  0
LINE
  5
24D
330
248
100
AcDbEntity
  8
치수문자_일반주서
 62
     0
370
    -2
100
AcDbLine
 10
131.5480000000001
 20
56.96106303839386
 30
0.0
 11
20.67700000000006
 21
56.96106303839386
 31
0.0
  0
SOLID
  5
24E
330
248
100
AcDbEntity
  8
치수문자_일반주서
 62
     0
100
AcDbTrace
 10
131.5480000000001
 20
56.41072970506053
 30
0.0
 11
131.5480000000001
 21
57.51139637172719
 31
0.0
 12
134.8500000000001
 22
56.96106303839386
 32
0.0
 13
134.8500000000001
 23
56.96106303839386
 33
0.0
  0
SOLID
  5
24F
330
248
100
AcDbEntity
  8
치수문자_일반주서
 62
     0
100
AcDbTrace
 10
20.67700000000006
 20
57.51139637172719
 30
0.0
 11
20.67700000000006
 21
56.41072970506053
 31
0.0
 12
17.37500000000006
 22
56.96106303839386
 32
0.0
 13
17.37500000000006
 23
56.96106303839386
 33
0.0
  0
MTEXT
  5
250
330
248
100
AcDbEntity
  8
치수문자_일반주서
 62
     0
100
AcDbMText
 10
76.11250000000005
 20
61.33606303839386
 30
0.0
 40
3.5
 41
0.0
 71
     2
 72
     1
  1
\A1;117.48 [4 5/8]
  7
SLDTEXTSTYLE0
 73
     1
 44
1.0
  0
POINT
  5
251
330
248
100
AcDbEntity
  8
Defpoints
 62
     0
100
AcDbPoint
 10
134.8500000000001
 20
22.47899999999992
 30
0.0
  0
POINT
  5
252
330
248
100
AcDbEntity
  8
Defpoints
 62
     0
100
AcDbPoint
 10
17.37500000000006
 20
20.89149999999992
 30
0.0
  0
POINT
  5
253
330
248
100
AcDbEntity
  8
Defpoints
 62
     0
100
AcDbPoint
 10
17.37500000000006
 20
56.96106303839386
 30
0.0
  0
ENDBLK
  5
24A
330
248
100
AcDbEntity
  8
0
100
AcDbBlockEnd
  0
BLOCK
  5
255
330
254
100
AcDbEntity
  8
0
100
AcDbBlockBegin
  2
*D10
 70
     1
 10
0.0
 20
0.0
 30
0.0
  3
*D10
  1
*D11
  0
LINE
  5
257
330
254
100
AcDbEntity
  8
치수문자_일반주서
 62
     0
370
    -2
100
AcDbLine
 10
134.9125000000001
 20
22.47899999999992
 30
0.0
 11
157.8661768628703
 21
22.47900000000001
 31
0.0
  0
LINE
  5
258
330
254
100
AcDbEntity
  8
치수문자_일반주서
 62
     0
370
    -2
100
AcDbLine
 10
134.9125000000001
 20
6.603999999999914
 30
0.0
 11
157.8661768628704
 21
6.603999999999999
 31
0.0
  0
LINE
  5
259
330
254
100
AcDbEntity
  8
치수문자_일반주서
 62
     0
370
    -2
100
AcDbLine
 10
157.8661768628703
 20
22.47900000000001
 30
0.0
 11
157.8661768628702
 21
57.08300000000001
 31
0.0
  0
LINE
  5
25A
330
254
100
AcDbEntity
  8
치수문자_일반주서
 62
     0
370
    -2
100
AcDbLine
 10
157.8661768628703
 20
22.47900000000001
 30
0.0
 11
157.8661768628704
 21
6.603999999999999
 31
0.0
  0
LINE
  5
25B
330
254
100
AcDbEntity
  8
치수문자_일반주서
 62
     0
370
    -2
100
AcDbLine
 10
157.8661768628703
 20
25.78100000000001
 30
0.0
 11
157.8661768628703
 21
29.08300000000001
 31
0.0
  0
LINE
  5
25C
330
254
100
AcDbEntity
  8
치수문자_일반주서
 62
     0
370
    -2
100
AcDbLine
 10
157.8661768628704
 20
3.302
 30
0.0
 11
157.8661768628704
 21
0.0
 31
0.0
  0
SOLID
  5
25D
330
254
100
AcDbEntity
  8
치수문자_일반주서
 62
     0
100
AcDbTrace
 10
157.315843529537
 20
25.781
 30
0.0
 11
158.4165101962037
 21
25.78100000000001
 31
0.0
 12
157.8661768628703
 22
22.47900000000001
 32
0.0
 13
157.8661768628703
 23
22.47900000000001
 33
0.0
  0
SOLID
  5
25E
330
254
100
AcDbEntity
  8
치수문자_일반주서
 62
     0
100
AcDbTrace
 10
158.4165101962037
 20
3.302000000000001
 30
0.0
 11
157.3158435295371
 21
3.301999999999998
 31
0.0
 12
157.8661768628704
 22
6.603999999999999
 32
0.0
 13
157.8661768628704
 23
6.603999999999999
 33
0.0
  0
MTEXT
  5
25F
330
254
100
AcDbEntity
  8
치수문자_일반주서
 62
     0
100
AcDbMText
 10
153.4911768628702
 20
43.08299999999999
 30
0.0
 40
3.5
 41
0.0
 71
     2
 72
     1
  1
\A1;%%c15.88 [5/8]
  7
SLDTEXTSTYLE0
 11
-3.580687802255621E-15
 21
1.0
 31
0.0
 73
     1
 44
1.0
  0
POINT
  5
260
330
254
100
AcDbEntity
  8
Defpoints
 62
     0
100
AcDbPoint
 10
134.8500000000001
 20
22.47899999999992
 30
0.0
  0
POINT
  5
261
330
254
100
AcDbEntity
  8
Defpoints
 62
     0
100
AcDbPoint
 10
134.8500000000001
 20
6.603999999999914
 30
0.0
  0
POINT
  5
262
330
254
100
AcDbEntity
  8
Defpoints
 62
     0
100
AcDbPoint
 10
157.8661768628704
 20
6.604
 30
0.0
  0
ENDBLK
  5
256
330
254
100
AcDbEntity
  8
0
100
AcDbBlockEnd
  0
BLOCK
  5
2BD
330
2BC
100
AcDbEntity
  8
0
100
AcDbBlockBegin
  2
*D11
 70
     1
 10
0.0
 20
0.0
 30
0.0
  3
*D11
  1
*D12
  0
LINE
  5
2BF
330
2BC
100
AcDbEntity
  8
치수문자_일반주서
 62
     0
370
    -2
100
AcDbLine
 10
152.7554317917409
 20
-62.6146336436164
 30
0.0
 11
138.2304317917409
 21
-62.61463364361646
 31
0.0
  0
LINE
  5
2C0
330
2BC
100
AcDbEntity
  8
치수문자_일반주서
 62
     0
370
    -2
100
AcDbLine
 10
152.7554317917409
 20
-78.48963364361643
 30
0.0
 11
138.230431791741
 21
-78.48963364361649
 31
0.0
  0
LINE
  5
2C1
330
2BC
100
AcDbEntity
  8
치수문자_일반주서
 62
     0
370
    -2
100
AcDbLine
 10
138.2304317917409
 20
-65.91663364361645
 30
0.0
 11
138.230431791741
 21
-75.1876336436165
 31
0.0
  0
SOLID
  5
2C2
330
2BC
100
AcDbEntity
  8
치수문자_일반주서
 62
     0
100
AcDbTrace
 10
138.7807651250743
 20
-65.91663364361645
 30
0.0
 11
137.6800984584076
 21
-65.91663364361645
 31
0.0
 12
138.2304317917409
 22
-62.61463364361646
 32
0.0
 13
138.2304317917409
 23
-62.61463364361646
 33
0.0
  0
SOLID
  5
2C3
330
2BC
100
AcDbEntity
  8
치수문자_일반주서
 62
     0
100
AcDbTrace
 10
137.6800984584077
 20
-75.1876336436165
 30
0.0
 11
138.7807651250743
 21
-75.1876336436165
 31
0.0
 12
138.230431791741
 22
-78.48963364361649
 32
0.0
 13
138.230431791741
 23
-78.48963364361649
 33
0.0
  0
MTEXT
  5
2C4
330
2BC
100
AcDbEntity
  8
치수문자_일반주서
 62
     0
100
AcDbMText
 10
133.855431791741
 20
-70.55213364361641
 30
0.0
 40
3.5
 41
0.0
 71
     2
 72
     1
  1
\A1;%%c15.88 [5/8]
  7
SLDTEXTSTYLE0
 11
-3.580687802255617E-15
 21
1.0
 31
0.0
 73
     1
 44
1.0
  0
POINT
  5
2C5
330
2BC
100
AcDbEntity
  8
Defpoints
 62
     0
100
AcDbPoint
 10
152.8179317917409
 20
-62.6146336436164
 30
0.0
  0
POINT
  5
2C6
330
2BC
100
AcDbEntity
  8
Defpoints
 62
     0
100
AcDbPoint
 10
152.8179317917409
 20
-78.48963364361643
 30
0.0
  0
POINT
  5
2C7
330
2BC
100
AcDbEntity
  8
Defpoints
 62
     0
100
AcDbPoint
 10
138.230431791741
 20
-78.48963364361649
 30
0.0
  0
ENDBLK
  5
2BE
330
2BC
100
AcDbEntity
  8
0
100
AcDbBlockEnd
  0
BLOCK
  5
2C9
330
2C8
100
AcDbEntity
  8
0
100
AcDbBlockBegin
  2
*D12
 70
     1
 10
0.0
 20
0.0
 30
0.0
  3
*D12
  1
*D13
  0
LINE
  5
2CB
330
2C8
100
AcDbEntity
  8
치수문자_일반주서
 62
     0
370
    -2
100
AcDbLine
 10
268.7054317917409
 20
-62.55213364361641
 30
0.0
 11
268.7054317917409
 21
-40.13257060522248
 31
0.0
  0
LINE
  5
2CC
330
2C8
100
AcDbEntity
  8
치수문자_일반주서
 62
     0
370
    -2
100
AcDbLine
 10
205.2054317917409
 20
-62.81204026058266
 30
0.0
 11
205.2054317917409
 21
-40.13257060522248
 31
0.0
  0
LINE
  5
2CD
330
2C8
100
AcDbEntity
  8
치수문자_일반주서
 62
     0
370
    -2
100
AcDbLine
 10
265.4034317917409
 20
-40.13257060522248
 30
0.0
 11
208.5074317917409
 21
-40.13257060522248
 31
0.0
  0
SOLID
  5
2CE
330
2C8
100
AcDbEntity
  8
치수문자_일반주서
 62
     0
100
AcDbTrace
 10
265.4034317917409
 20
-40.68290393855581
 30
0.0
 11
265.4034317917409
 21
-39.58223727188914
 31
0.0
 12
268.7054317917409
 22
-40.13257060522248
 32
0.0
 13
268.7054317917409
 23
-40.13257060522248
 33
0.0
  0
SOLID
  5
2CF
330
2C8
100
AcDbEntity
  8
치수문자_일반주서
 62
     0
100
AcDbTrace
 10
208.5074317917409
 20
-39.58223727188914
 30
0.0
 11
208.5074317917409
 21
-40.68290393855581
 31
0.0
 12
205.2054317917409
 22
-40.13257060522248
 32
0.0
 13
205.2054317917409
 23
-40.13257060522248
 33
0.0
  0
MTEXT
  5
2D0
330
2C8
100
AcDbEntity
  8
치수문자_일반주서
 62
     0
100
AcDbMText
 10
236.9554317917409
 20
-35.75757060522248
 30
0.0
 40
3.5
 41
0.0
 71
     2
 72
     1
  1
\A1;63.5 [2 1/2]
  7
SLDTEXTSTYLE0
 73
     1
 44
1.0
  0
POINT
  5
2D1
330
2C8
100
AcDbEntity
  8
Defpoints
 62
     0
100
AcDbPoint
 10
268.7054317917409
 20
-62.61463364361641
 30
0.0
  0
POINT
  5
2D2
330
2C8
100
AcDbEntity
  8
Defpoints
 62
     0
100
AcDbPoint
 10
205.2054317917409
 20
-62.87454026058266
 30
0.0
  0
POINT
  5
2D3
330
2C8
100
AcDbEntity
  8
Defpoints
 62
     0
100
AcDbPoint
 10
205.2054317917409
 20
-40.13257060522248
 30
0.0
  0
ENDBLK
  5
2CA
330
2C8
100
AcDbEntity
  8
0
100
AcDbBlockEnd
  0
BLOCK
  5
2D5
330
2D4
100
AcDbEntity
  8
0
100
AcDbBlockBegin
  2
*D13
 70
     1
 10
0.0
 20
0.0
 30
0.0
  3
*D13
  1
*D14
  0
LINE
  5
2D7
330
2D4
100
AcDbEntity
  8
치수문자_일반주서
 62
     0
370
    -2
100
AcDbLine
 10
268.7054317917409
 20
-62.55213364361641
 30
0.0
 11
268.7054317917409
 21
-28.13257060522247
 31
0.0
  0
LINE
  5
2D8
330
2D4
100
AcDbEntity
  8
치수문자_일반주서
 62
     0
370
    -2
100
AcDbLine
 10
151.230431791741
 20
-64.1396336436164
 30
0.0
 11
151.230431791741
 21
-28.13257060522247
 31
0.0
  0
LINE
  5
2D9
330
2D4
100
AcDbEntity
  8
치수문자_일반주서
 62
     0
370
    -2
100
AcDbLine
 10
265.4034317917409
 20
-28.13257060522247
 30
0.0
 11
154.5324317917409
 21
-28.13257060522247
 31
0.0
  0
SOLID
  5
2DA
330
2D4
100
AcDbEntity
  8
치수문자_일반주서
 62
     0
100
AcDbTrace
 10
265.4034317917409
 20
-28.6829039385558
 30
0.0
 11
265.4034317917409
 21
-27.58223727188913
 31
0.0
 12
268.7054317917409
 22
-28.13257060522247
 32
0.0
 13
268.7054317917409
 23
-28.13257060522247
 33
0.0
  0
SOLID
  5
2DB
330
2D4
100
AcDbEntity
  8
치수문자_일반주서
 62
     0
100
AcDbTrace
 10
154.5324317917409
 20
-27.58223727188913
 30
0.0
 11
154.5324317917409
 21
-28.6829039385558
 31
0.0
 12
151.230431791741
 22
-28.13257060522247
 32
0.0
 13
151.230431791741
 23
-28.13257060522247
 33
0.0
  0
MTEXT
  5
2DC
330
2D4
100
AcDbEntity
  8
치수문자_일반주서
 62
     0
100
AcDbMText
 10
209.967931791741
 20
-23.75757060522247
 30
0.0
 40
3.5
 41
0.0
 71
     2
 72
     1
  1
\A1;117.48 [4 5/8]
  7
SLDTEXTSTYLE0
 73
     1
 44
1.0
  0
POINT
  5
2DD
330
2D4
100
AcDbEntity
  8
Defpoints
 62
     0
100
AcDbPoint
 10
268.7054317917409
 20
-62.61463364361641
 30
0.0
  0
POINT
  5
2DE
330
2D4
100
AcDbEntity
  8
Defpoints
 62
     0
100
AcDbPoint
 10
151.230431791741
 20
-64.2021336436164
 30
0.0
  0
POINT
  5
2DF
330
2D4
100
AcDbEntity
  8
Defpoints
 62
     0
100
AcDbPoint
 10
151.230431791741
 20
-28.13257060522247
 30
0.0
  0
ENDBLK
  5
2D6
330
2D4
100
AcDbEntity
  8
0
100
AcDbBlockEnd
  0
BLOCK
  5
2E1
330
2E0
100
AcDbEntity
  8
0
100
AcDbBlockBegin
  2
*D14
 70
     1
 10
0.0
 20
0.0
 30
0.0
  3
*D14
  1
*D15
  0
LINE
  5
2E3
330
2E0
100
AcDbEntity
  8
치수문자_일반주서
 62
     0
370
    -2
100
AcDbLine
 10
268.7679317917409
 20
-62.61463364361641
 30
0.0
 11
291.7216086546112
 21
-62.61463364361632
 31
0.0
  0
LINE
  5
2E4
330
2E0
100
AcDbEntity
  8
치수문자_일반주서
 62
     0
370
    -2
100
AcDbLine
 10
268.7679317917409
 20
-78.48963364361641
 30
0.0
 11
291.7216086546113
 21
-78.48963364361633
 31
0.0
  0
LINE
  5
2E5
330
2E0
100
AcDbEntity
  8
치수문자_일반주서
 62
     0
370
    -2
100
AcDbLine
 10
291.7216086546112
 20
-62.61463364361632
 30
0.0
 11
291.7216086546111
 21
-28.01063364361632
 31
0.0
  0
LINE
  5
2E6
330
2E0
100
AcDbEntity
  8
치수문자_일반주서
 62
     0
370
    -2
100
AcDbLine
 10
291.7216086546112
 20
-62.61463364361632
 30
0.0
 11
291.7216086546113
 21
-78.48963364361633
 31
0.0
  0
LINE
  5
2E7
330
2E0
100
AcDbEntity
  8
치수문자_일반주서
 62
     0
370
    -2
100
AcDbLine
 10
291.7216086546112
 20
-59.31263364361632
 30
0.0
 11
291.7216086546112
 21
-56.01063364361632
 31
0.0
  0
LINE
  5
2E8
330
2E0
100
AcDbEntity
  8
치수문자_일반주서
 62
     0
370
    -2
100
AcDbLine
 10
291.7216086546113
 20
-81.79163364361634
 30
0.0
 11
291.7216086546113
 21
-85.09363364361633
 31
0.0
  0
SOLID
  5
2E9
330
2E0
100
AcDbEntity
  8
치수문자_일반주서
 62
     0
100
AcDbTrace
 10
291.1712753212778
 20
-59.31263364361632
 30
0.0
 11
292.2719419879446
 21
-59.31263364361632
 31
0.0
 12
291.7216086546112
 22
-62.61463364361632
 32
0.0
 13
291.7216086546112
 23
-62.61463364361632
 33
0.0
  0
SOLID
  5
2EA
330
2E0
100
AcDbEntity
  8
치수문자_일반주서
 62
     0
100
AcDbTrace
 10
292.2719419879446
 20
-81.79163364361634
 30
0.0
 11
291.1712753212779
 21
-81.79163364361634
 31
0.0
 12
291.7216086546113
 22
-78.48963364361633
 32
0.0
 13
291.7216086546113
 23
-78.48963364361633
 33
0.0
  0
MTEXT
  5
2EB
330
2E0
100
AcDbEntity
  8
치수문자_일반주서
 62
     0
100
AcDbMText
 10
287.3466086546111
 20
-42.01063364361634
 30
0.0
 40
3.5
 41
0.0
 71
     2
 72
     1
  1
\A1;%%c15.88 [5/8]
  7
SLDTEXTSTYLE0
 11
-3.580687802255621E-15
 21
1.0
 31
0.0
 73
     1
 44
1.0
  0
POINT
  5
2EC
330
2E0
100
AcDbEntity
  8
Defpoints
 62
     0
100
AcDbPoint
 10
268.7054317917409
 20
-62.61463364361641
 30
0.0
  0
POINT
  5
2ED
330
2E0
100
AcDbEntity
  8
Defpoints
 62
     0
100
AcDbPoint
 10
268.7054317917409
 20
-78.48963364361641
 30
0.0
  0
POINT
  5
2EE
330
2E0
100
AcDbEntity
  8
Defpoints
 62
     0
100
AcDbPoint
 10
291.7216086546113
 20
-78.48963364361633
 30
0.0
  0
ENDBLK
  5
2E2
330
2E0
100
AcDbEntity
  8
0
100
AcDbBlockEnd
  0
ENDSEC
  0
SECTION
  2
ENTITIES
  0
LINE
  5
96
330
1F
100
AcDbEntity
  8
0
  6
Continuous
 62
     1
370
    15
100
AcDbLine
 10
16.37932406301832
 20
-1.82623451238462
 30
0.0
 11
16.459808859941
 21
-1.903849231489311
 31
0.0
  0
LINE
  5
97
330
1F
100
AcDbEntity
  8
0
  6
Continuous
 62
     1
370
    15
100
AcDbLine
 10
20.49580035534767
 20
1.712402090458552
 30
0.0
 11
20.29507051692335
 21
1.906181177625035
 31
0.0
  0
LINE
  5
98
330
1F
100
AcDbEntity
  8
0
  6
Continuous
 62
     1
370
    15
100
AcDbLine
 10
76.22929794620839
 20
-1.828613386372875
 30
0.0
 11
76.3072573615676
 21
-1.903955279262233
 31
0.0
  0
LINE
  5
99
330
1F
100
AcDbEntity
  8
0
  6
Continuous
 62
     1
370
    15
100
AcDbLine
 10
56.18274411963483
 20
-1.73136878428748
 30
0.0
 11
56.35729649253046
 21
-1.903491281692769
 31
0.0
  0
LINE
  5
9A
330
1F
100
AcDbEntity
  8
0
  6
Continuous
 62
     1
370
    15
100
AcDbLine
 10
26.36184480832917
 20
-1.833943495440855
 30
0.0
 11
26.43383324640631
 21
-1.903694266765113
 31
0.0
  0
LINE
  5
9B
330
1F
100
AcDbEntity
  8
0
  6
Continuous
 62
     1
370
    15
100
AcDbLine
 10
87.04764923313158
 20
-9.523925071276107
 30
0.0
 11
88.2
 21
-9.523925071276107
 31
0.0
  0
LINE
  5
9C
330
1F
100
AcDbEntity
  8
0
  6
Continuous
 62
     1
370
    15
100
AcDbLine
 10
27.20058888028854
 20
-9.523925071276107
 30
0.0
 11
29.50397889863396
 21
-9.523925071276107
 31
0.0
  0
LINE
  5
9D
330
1F
100
AcDbEntity
  8
0
  6
Continuous
 62
     1
370
    15
100
AcDbLine
 10
59.427174450022
 20
9.526074928723897
 30
0.0
 11
57.12585735776695
 21
9.526074928723897
 31
0.0
  0
LINE
  5
9E
330
1F
100
AcDbEntity
  8
0
  6
Continuous
 62
     1
370
    15
100
AcDbLine
 10
57.12585735776695
 20
-9.523925071276107
 30
0.0
 11
59.42717445002192
 21
-9.523925071276107
 31
0.0
  0
LINE
  5
9F
330
1F
100
AcDbEntity
  8
0
  6
Continuous
 62
     1
370
    15
100
AcDbLine
 10
29.5039788986339
 20
9.526074928723897
 30
0.0
 11
27.20058888028858
 21
9.526074928723897
 31
0.0
  0
LINE
  5
A0
330
1F
100
AcDbEntity
  8
0
  6
Continuous
 62
     1
370
    15
100
AcDbLine
 10
88.2
 20
9.526074928723897
 30
0.0
 11
87.04764923313161
 21
9.526074928723897
 31
0.0
  0
LINE
  5
A1
330
1F
100
AcDbEntity
  8
0
  6
Continuous
 62
     1
370
    15
100
AcDbLine
 10
37.1760513967502
 20
-9.523925071276107
 30
0.0
 11
39.47892369028889
 21
-9.523925071276107
 31
0.0
  0
LINE
  5
A2
330
1F
100
AcDbEntity
  8
0
  6
Continuous
 62
     1
370
    15
100
AcDbLine
 10
69.40240567843395
 20
9.526074928723897
 30
0.0
 11
67.09900286019307
 21
9.526074928723897
 31
0.0
  0
LINE
  5
A3
330
1F
100
AcDbEntity
  8
0
  6
Continuous
 62
     1
370
    15
100
AcDbLine
 10
47.14976302135762
 20
-9.523925071276107
 30
0.0
 11
49.45376632272603
 21
-9.523925071276107
 31
0.0
  0
LINE
  5
A4
330
1F
100
AcDbEntity
  8
0
  6
Continuous
 62
     1
370
    15
100
AcDbLine
 10
19.5292803519077
 20
9.526074928723897
 30
0.0
 11
17.22745190247723
 21
9.526074928723897
 31
0.0
  0
LINE
  5
A5
330
1F
100
AcDbEntity
  8
0
  6
Continuous
 62
     1
370
    15
100
AcDbLine
 10
79.37640897435507
 20
9.526074928723897
 30
0.0
 11
77.07453889990637
 21
9.526074928723897
 31
0.0
  0
LINE
  5
A6
330
1F
100
AcDbEntity
  8
0
  6
Continuous
 62
     1
370
    15
100
AcDbLine
 10
67.09900286019302
 20
-9.523925071276107
 30
0.0
 11
69.40240567843392
 21
-9.523925071276107
 31
0.0
  0
LINE
  5
A7
330
1F
100
AcDbEntity
  8
0
  6
Continuous
 62
     1
370
    15
100
AcDbLine
 10
39.4789236902888
 20
9.526074928723897
 30
0.0
 11
37.17605139675015
 21
9.526074928723897
 31
0.0
  0
LINE
  5
A8
330
1F
100
AcDbEntity
  8
0
  6
Continuous
 62
     1
370
    15
100
AcDbLine
 10
77.07453889990629
 20
-9.523925071276107
 30
0.0
 11
79.37640897435507
 21
-9.523925071276107
 31
0.0
  0
LINE
  5
A9
330
1F
100
AcDbEntity
  8
0
  6
Continuous
 62
     1
370
    15
100
AcDbLine
 10
17.22745190247718
 20
-9.523925071276107
 30
0.0
 11
19.5292803519077
 21
-9.523925071276107
 31
0.0
  0
LINE
  5
AA
330
1F
100
AcDbEntity
  8
0
  6
Continuous
 62
     1
370
    15
100
AcDbLine
 10
49.45376632272603
 20
9.526074928723897
 30
0.0
 11
47.14976302135755
 21
9.526074928723897
 31
0.0
  0
LINE
  5
AB
330
1F
100
AcDbEntity
  8
외형선
  6
Continuous
370
    15
100
AcDbLine
 10
-43.245
 20
-9.523925071276103
 30
0.0
 11
11.00030966886757
 21
-9.523925071276103
 31
0.0
  0
LINE
  5
AC
330
1F
100
AcDbEntity
  8
외형선
  6
Continuous
370
    15
100
AcDbLine
 10
11.00030966886757
 20
9.526074928723894
 30
0.0
 11
-11.65692500000001
 21
9.526074928723894
 31
0.0
  0
LINE
  5
AD
330
1F
100
AcDbEntity
  8
외형선
  6
Continuous
370
    15
100
AcDbLine
 10
-43.245
 20
9.526074928723894
 30
0.0
 11
-45.15
 21
7.6210749287239
 31
0.0
  0
LINE
  5
AE
330
1F
100
AcDbEntity
  8
외형선
  6
Continuous
370
    15
100
AcDbLine
 10
-45.15
 20
-7.61892507127611
 30
0.0
 11
-43.245
 21
-9.523925071276103
 31
0.0
  0
LINE
  5
AF
330
1F
100
AcDbEntity
  8
0
  6
Continuous
 62
     1
370
    15
100
AcDbLine
 10
88.2
 20
5.695313474441903
 30
0.0
 11
88.2
 21
9.456566726087713
 31
0.0
  0
SPLINE
  5
B0
330
1F
100
AcDbEntity
  8
0
  6
Continuous
 62
     1
370
    15
100
AcDbSpline
210
0.0
220
0.0
230
1.0
 70
     8
 71
     3
 72
    29
 73
    25
 74
     0
 42
0.000000001
 43
0.00000001
 40
0.0
 40
0.0
 40
0.0
 40
0.0
 40
0.0331616556844244
 40
0.080791741182529
 40
0.1284748487068863
 40
0.1761147767386081
 40
0.22372466896441
 40
0.2713530077581116
 40
0.3190354115402591
 40
0.3666775481255614
 40
0.4142877117625069
 40
0.4619143812658996
 40
0.5095958458338246
 40
0.5572402680967995
 40
0.6048507809415469
 40
0.6524758586038344
 40
0.700156148509812
 40
0.7478029335265474
 40
0.7954138733683976
 40
0.8430374366722713
 40
0.8907163164989498
 40
0.9383655412959185
 40
0.9859769859151788
 40
1.0
 40
1.0
 40
1.0
 40
1.0
 10
19.5292803519077
 20
9.490283037703545
 30
0.0
 10
19.90241827773296
 20
9.491875687912717
 30
0.0
 10
20.81149420010375
 20
9.495755861590354
 30
0.0
 10
22.25677923462854
 20
9.174305031383437
 30
0.0
 10
23.86674503505414
 20
8.598674928940694
 30
0.0
 10
25.47505110372171
 20
7.766699639920112
 30
0.0
 10
27.08229534531156
 20
6.716904140773929
 30
0.0
 10
28.69018428375164
 20
5.474981635980742
 30
0.0
 10
30.30008787313691
 20
4.078652944938585
 30
0.0
 10
31.90848535525005
 20
2.565355898386082
 30
0.0
 10
33.51573620346142
 20
0.9792066408760962
 30
0.0
 10
35.12356508261595
 20
-0.6350710899125718
 30
0.0
 10
36.73343328767975
 20
-2.230016173106593
 30
0.0
 10
38.34191564899368
 20
-3.762498175892045
 30
0.0
 10
39.94917828547027
 20
-5.187867647942322
 30
0.0
 10
41.55694946344873
 20
-6.465812997642018
 30
0.0
 10
43.16677358765886
 20
-7.558981428766378
 30
0.0
 10
44.77534399611542
 20
-8.437666513004347
 30
0.0
 10
46.3826202883949
 20
-9.07662736175136
 30
0.0
 10
47.99033968507408
 20
-9.456039960938108
 30
0.0
 10
49.60010009809318
 20
-9.571238722555538
 30
0.0
 10
51.20880186927062
 20
-9.39591622788828
 30
0.0
 10
52.43802212566285
 20
-9.109660200979828
 30
0.0
 10
53.13150123067706
 20
-8.805260877051044
 30
0.0
 10
53.28928094451919
 20
-8.736004229120418
 30
0.0
  0
SPLINE
  5
B1
330
1F
100
AcDbEntity
  8
0
  6
Continuous
 62
     1
370
    15
100
AcDbSpline
210
0.0
220
0.0
230
1.0
 70
     8
 71
     3
 72
    13
 73
     9
 74
     0
 42
0.000000001
 43
0.00000001
 40
0.0
 40
0.0
 40
0.0
 40
0.0
 40
0.0884873442988616
 40
0.2708770388552756
 40
0.4532448381679166
 40
0.6354311118804505
 40
0.8176211015422077
 40
1.0
 40
1.0
 40
1.0
 40
1.0
 10
79.37640897435507
 20
9.492192206650557
 30
0.0
 10
79.63657274658992
 20
9.499037916573077
 30
0.0
 10
80.43298485273681
 20
9.51999397133285
 30
0.0
 10
81.76672260770384
 20
9.262577610902705
 30
0.0
 10
83.37585391239016
 20
8.74374413995259
 30
0.0
 10
84.98328051529991
 20
7.958314161613687
 30
0.0
 10
86.59073055847374
 20
6.961977138051338
 30
0.0
 10
87.66339157910485
 20
6.136497864375053
 30
0.0
 10
88.19999999999997
 20
5.723544358086137
 30
0.0
  0
SPLINE
  5
B2
330
1F
100
AcDbEntity
  8
0
  6
Continuous
 62
     1
370
    15
100
AcDbSpline
210
0.0
220
0.0
230
1.0
 70
     8
 71
     3
 72
    11
 73
     7
 74
     0
 42
0.000000001
 43
0.00000001
 40
0.0
 40
0.0
 40
0.0
 40
0.0
 40
0.3226482558447381
 40
0.64496231132929
 40
0.967269792892482
 40
1.0
 40
1.0
 40
1.0
 40
1.0
 10
88.2
 20
9.456566726087713
 30
0.0
 10
87.66339605523466
 20
9.496550879168108
 30
0.0
 10
86.59074398222671
 20
9.576477769582429
 30
0.0
 10
84.98322688562432
 20
9.328258124422115
 30
0.0
 10
83.85774699116743
 20
9.048460321619196
 30
0.0
 10
83.26735066290635
 20
8.777665482572912
 30
0.0
 10
83.21292321839522
 20
8.752701453545976
 30
0.0
  0
SPLINE
  5
B3
330
1F
100
AcDbEntity
  8
0
  6
Continuous
 62
     1
370
    15
100
AcDbSpline
210
0.0
220
0.0
230
1.0
 70
     8
 71
     3
 72
    29
 73
    25
 74
     0
 42
0.000000001
 43
0.00000001
 40
0.0
 40
0.0
 40
0.0
 40
0.0
 40
0.0323495499640077
 40
0.0800260402707809
 40
0.1276474235311019
 40
0.1752581251173761
 40
0.2229066062917537
 40
0.2705847420330398
 40
0.3182075621148008
 40
0.3658177589315423
 40
0.4134638003637621
 40
0.4611433461623414
 40
0.5087676805788833
 40
0.5563774504051855
 40
0.6040211291205188
 40
0.6517018495627132
 40
0.6993277757955169
 40
0.746937196419467
 40
0.7945785894927988
 40
0.8422602491345575
 40
0.8898878446316185
 40
0.9374969938486608
 40
0.985136178402879
 40
1.0
 40
1.0
 40
1.0
 40
1.0
 10
57.12585735776695
 20
-9.494340283156296
 30
0.0
 10
56.76179930213554
 20
-9.49397943449303
 30
0.0
 10
55.86119559502752
 20
-9.493086770153333
 30
0.0
 10
54.4237092609695
 20
-9.18097984834795
 30
0.0
 10
52.8160691017337
 20
-8.608476520281233
 30
0.0
 10
51.20876835939911
 20
-7.780786598406428
 30
0.0
 10
49.60010908662127
 20
-6.734517547408513
 30
0.0
 10
47.99033727906657
 20
-5.496584032004471
 30
0.0
 10
46.38262093255917
 20
-4.10154117025134
 30
0.0
 10
44.77534382338996
 20
-2.589944222114211
 30
0.0
 10
43.16677363399481
 20
-1.004670109854932
 30
0.0
 10
41.55694945103976
 20
0.6082926315075179
 30
0.0
 10
39.94917828881309
 20
2.205197133878253
 30
0.0
 10
38.34191564802017
 20
3.739103718449752
 30
0.0
 10
36.7334332882292
 20
5.166694256045519
 30
0.0
 10
35.12356508139256
 20
6.446563214121326
 30
0.0
 10
33.51573620779957
 20
7.544081957795374
 30
0.0
 10
31.90848533912017
 20
8.426686771017165
 30
0.0
 10
30.30008793338595
 20
9.069953024268614
 30
0.0
 10
28.69018405880462
 20
9.45373746878332
 30
0.0
 10
27.08229618360247
 20
9.573696697767218
 30
0.0
 10
25.47504797558136
 20
9.403427303761992
 30
0.0
 10
24.23603900201261
 20
9.117455776764135
 30
0.0
 10
23.53230904168718
 20
8.810312144174866
 30
0.0
 10
23.36495522581631
 20
8.737270406815155
 30
0.0
  0
SPLINE
  5
B4
330
1F
100
AcDbEntity
  8
0
  6
Continuous
 62
     1
370
    15
100
AcDbSpline
210
0.0
220
0.0
230
1.0
 70
     8
 71
     3
 72
    14
 73
    10
 74
     0
 42
0.000000001
 43
0.00000001
 40
0.0
 40
0.0
 40
0.0
 40
0.0
 40
0.1521783880264347
 40
0.3044695011742738
 40
0.4567189847416533
 40
0.6088727462964737
 40
0.760996521071452
 40
0.9024990431984256
 40
1.0
 40
1.0
 40
1.0
 40
1.0
 10
11.99999999999999
 20
-6.700103925839014
 30
0.0
 10
12.57639900869688
 20
-7.088513430635267
 30
0.0
 10
13.72962398979477
 20
-7.865620151966286
 30
0.0
 10
15.46058892297039
 20
-8.713052478771255
 30
0.0
 10
17.19101546899835
 20
-9.289203827376188
 30
0.0
 10
18.92009961035308
 20
-9.558340680248484
 30
0.0
 10
20.60849378746421
 20
-9.505113996901912
 30
0.0
 10
22.08958156556391
 20
-9.231889865376566
 30
0.0
 10
22.9954202689165
 20
-8.879057682069554
 30
0.0
 10
23.36495522581633
 20
-8.735120549367368
 30
0.0
  0
SPLINE
  5
B5
330
1F
100
AcDbEntity
  8
0
  6
Continuous
 62
     1
370
    15
100
AcDbSpline
210
0.0
220
0.0
230
1.0
 70
     8
 71
     3
 72
    29
 73
    25
 74
     0
 42
0.000000001
 43
0.00000001
 40
0.0
 40
0.0
 40
0.0
 40
0.0
 40
0.0043382543229551
 40
0.0519891903037207
 40
0.099602344750012
 40
0.147226181420661
 40
0.1949051279768266
 40
0.2425585808034628
 40
0.2901723178177585
 40
0.3377947951405136
 40
0.3854718608305917
 40
0.4331279074282915
 40
0.4807423047707886
 40
0.528363500321826
 40
0.5760384498476391
 40
0.6236971670871687
 40
0.6713123025041551
 40
0.7189322938866294
 40
0.7666048920047033
 40
0.8142663567008025
 40
0.8618823079230228
 40
0.9095011727654337
 40
0.957171184293075
 40
1.0
 40
1.0
 40
1.0
 40
1.0
 10
49.45376632272601
 20
9.514855157354667
 30
0.0
 10
49.50260476243767
 20
9.518527865612414
 30
0.0
 10
50.0878795636111
 20
9.562541220830383
 30
0.0
 10
51.20876635197913
 20
9.391713815107229
 30
0.0
 10
52.81606480608399
 20
8.985827291356024
 30
0.0
 10
54.42372846620444
 20
8.29567533225159
 30
0.0
 10
56.03343843837957
 20
7.377823156807917
 30
0.0
 10
57.64219324942884
 20
6.24773386723487
 30
0.0
 10
59.24950710078923
 20
4.940346507113079
 30
0.0
 10
60.85712328927254
 20
3.492069968660876
 30
0.0
 10
62.46676245998268
 20
1.945525752134116
 30
0.0
 10
64.07561420695131
 20
0.343106889070488
 30
0.0
 10
65.6829503538764
 20
-1.269301297120184
 30
0.0
 10
67.2905209620275
 20
-2.84574062411478
 30
0.0
 10
68.90008081935991
 20
-4.340280202284406
 30
0.0
 10
70.5090324137303
 20
-5.711797960293343
 30
0.0
 10
72.11639353007418
 20
-6.921090936717894
 30
0.0
 10
73.72392149294893
 20
-7.933466742351142
 30
0.0
 10
75.33339358370422
 20
-8.71978389086957
 30
0.0
 10
76.94244666264174
 20
-9.257846825897612
 30
0.0
 10
78.54984044740496
 20
-9.534279432285569
 30
0.0
 10
80.1573098635889
 20
-9.533250931144511
 30
0.0
 10
81.71231568666254
 20
-9.292402714037589
 30
0.0
 10
82.73088332023842
 20
-8.92461033709762
 30
0.0
 10
83.21292321839522
 20
-8.750551596098187
 30
0.0
  0
SPLINE
  5
B6
330
1F
100
AcDbEntity
  8
외형선
  6
Continuous
370
    15
100
AcDbSpline
210
0.0
220
0.0
230
1.0
 70
    24
 71
     3
 72
    23
 73
    19
 74
     0
 42
0.000000001
 43
0.00000001
 40
0.0
 40
0.0
 40
0.0
 40
0.0
 40
0.0370923136420872
 40
0.102899960125475
 40
0.1706160328150076
 40
0.2364236792983969
 40
0.3041397519879311
 40
0.3699473984713214
 40
0.4376634711608559
 40
0.5034711176442447
 40
0.5711871903337778
 40
0.6369948368171666
 40
0.7047109095067006
 40
0.7705185559900749
 40
0.8382346286796228
 40
0.9040422751630108
 40
0.9717583478525437
 40
1.0
 40
1.0
 40
1.0
 40
1.0
 10
11.99999999999996
 20
0.2855389189222783
 30
0.0
 10
11.99999999999995
 20
0.2822492533254433
 30
0.0
 10
11.99999999999993
 20
0.2731231992861398
 30
0.0
 10
12.00000000000004
 20
0.1459386837616116
 30
0.0
 10
11.99999999999997
 20
-0.0895586526348789
 30
0.0
 10
11.99999999999997
 20
-0.4292849245089567
 30
0.0
 10
12.00000000000006
 20
-0.8518485764802581
 30
0.0
 10
12.00000000000002
 20
-1.354414115024333
 30
0.0
 10
12.00000000000003
 20
-1.91330494524343
 30
0.0
 10
11.99999999999993
 20
-2.522869318026576
 30
0.0
 10
12.00000000000005
 20
-3.154855278031847
 30
0.0
 10
11.9999999999999
 20
-3.802749677338321
 30
0.0
 10
12.00000000000006
 20
-4.436578035022551
 30
0.0
 10
11.99999999999999
 20
-5.049706715434294
 30
0.0
 10
11.99999999999997
 20
-5.614123946843246
 30
0.0
 10
11.99999999999999
 20
-6.122598292056341
 30
0.0
 10
11.99999999999996
 20
-6.475013885355584
 30
0.0
 10
11.99999999999999
 20
-6.648920781611276
 30
0.0
 10
11.99999999999999
 20
-6.700103925839014
 30
0.0
  0
SPLINE
  5
B7
330
1F
100
AcDbEntity
  8
0
  6
Continuous
 62
     1
370
    15
100
AcDbSpline
210
0.0
220
0.0
230
1.0
 70
     8
 71
     3
 72
    29
 73
    25
 74
     0
 42
0.000000001
 43
0.00000001
 40
0.0
 40
0.0
 40
0.0
 40
0.0
 40
0.0135416568958595
 40
0.0611601521189998
 40
0.1087776761147376
 40
0.1564426449560334
 40
0.204113336496819
 40
0.2517328806227674
 40
0.2993495110869615
 40
0.3470116556742842
 40
0.3946849338424008
 40
0.4423056045244818
 40
0.4899214191718047
 40
0.5375808162633656
 40
0.5852564458727643
 40
0.6328783207405864
 40
0.680493397302891
 40
0.7281501237145253
 40
0.775827869518376
 40
0.8234510261761998
 40
0.8710654424008838
 40
0.9187195750044543
 40
0.9663992017012231
 40
1.0
 40
1.0
 40
1.0
 40
1.0
 10
87.04764923313158
 20
-9.496319289287358
 30
0.0
 10
86.89521830227389
 20
-9.504369925948689
 30
0.0
 10
86.20677234690882
 20
-9.54073018574912
 30
0.0
 10
84.98331363293765
 20
-9.332409761875919
 30
0.0
 10
83.37585071183732
 20
-8.869586805653073
 30
0.0
 10
81.76670222967527
 20
-8.134156803505345
 30
0.0
 10
80.15732429077518
 20
-7.173012622978339
 30
0.0
 10
78.54983658379383
 20
-6.005817027891827
 30
0.0
 10
76.9424476989623
 20
-4.668148334916601
 30
0.0
 10
75.33339330583011
 20
-3.197946862787477
 30
0.0
 10
73.72392156731445
 20
-1.637122164861382
 30
0.0
 10
72.11639351018506
 20
-0.028820689478253
 30
0.0
 10
70.50903241897211
 20
1.580190255682016
 30
0.0
 10
68.90008081830065
 20
3.143929322267039
 30
0.0
 10
67.29052096101844
 20
4.617877130110739
 30
0.0
 10
65.68295035896348
 20
5.961366080755022
 30
0.0
 10
64.07561418760565
 20
7.135114754433952
 30
0.0
 10
62.46676253236128
 20
8.10568906464838
 30
0.0
 10
60.85712301913232
 20
8.845695554518747
 30
0.0
 10
59.24950810759331
 20
9.333903825465972
 30
0.0
 10
57.6421894912875
 20
9.558913758381223
 30
0.0
 10
56.03345248027687
 20
9.502923812654194
 30
0.0
 10
54.58158961678491
 20
9.239409227974697
 30
0.0
 10
53.66725918840777
 20
8.884762665582677
 30
0.0
 10
53.28928094451918
 20
8.738154086568208
 30
0.0
  0
SPLINE
  5
B8
330
1F
100
AcDbEntity
  8
0
  6
Continuous
 62
     1
370
    15
100
AcDbSpline
210
0.0
220
0.0
230
1.0
 70
     8
 71
     3
 72
    17
 73
    13
 74
     0
 42
0.000000001
 43
0.00000001
 40
0.0
 40
0.0
 40
0.0
 40
0.0
 40
0.0077954397365659
 40
0.1135421009433077
 40
0.2193554748865043
 40
0.3252647550997072
 40
0.4310562677233533
 40
0.5447885461135731
 40
0.6585432435161959
 40
0.7723695055548941
 40
0.8862268911115383
 40
1.0
 40
1.0
 40
1.0
 40
1.0
 10
27.20058888028857
 20
-9.514676010334712
 30
0.0
 10
27.16109743166511
 20
-9.517718636475626
 30
0.0
 10
26.58589677621391
 20
-9.562035079947556
 30
0.0
 10
25.47509793471199
 20
-9.394057039177142
 30
0.0
 10
23.86673160577935
 20
-8.993351284744062
 30
0.0
 10
22.25678605824188
 20
-8.307894565150386
 30
0.0
 10
20.60849768348932
 20
-7.370383696362781
 30
0.0
 10
18.92009853448825
 20
-6.178637499055723
 30
0.0
 10
17.1910157574002
 20
-4.755624968192135
 30
0.0
 10
15.46058884601741
 20
-3.176168139813651
 30
0.0
 10
13.7296240090186
 20
-1.492057768856511
 30
0.0
 10
12.57639901510325
 20
-0.3373097329622198
 30
0.0
 10
11.99999999999999
 20
0.2398505211891464
 30
0.0
  0
LINE
  5
B9
330
1F
100
AcDbEntity
  8
0
  6
Continuous
 62
     1
370
    15
100
AcDbLine
 10
88.2
 20
-9.454416868639912
 30
0.0
 11
88.2
 21
-5.691168181416338
 31
0.0
  0
SPLINE
  5
BA
330
1F
100
AcDbEntity
  8
0
  6
Continuous
 62
     1
370
    15
100
AcDbSpline
210
0.0
220
0.0
230
1.0
 70
     8
 71
     3
 72
    20
 73
    16
 74
     0
 42
0.000000001
 43
0.00000001
 40
0.0
 40
0.0
 40
0.0
 40
0.0
 40
0.0810435522191882
 40
0.1621471369067276
 40
0.2432285515008554
 40
0.3242589887385798
 40
0.4052734563291682
 40
0.4806315094000949
 40
0.5560734513959833
 40
0.6314470768548855
 40
0.7067731810920038
 40
0.7821284706104041
 40
0.8575692991788815
 40
0.9329464189060847
 40
1.0
 40
1.0
 40
1.0
 40
1.0
 10
11.99999999999999
 20
2.512641266975319
 30
0.0
 10
12.57639901669641
 20
1.948470459518025
 30
0.0
 10
13.72962401379922
 20
0.8197109388575022
 30
0.0
 10
15.46058882688053
 20
-0.9214982449629276
 30
0.0
 10
17.19101582912093
 20
-2.626788945774874
 30
0.0
 10
18.92009826693873
 20
-4.247267477327011
 30
0.0
 10
20.6084986523656
 20
-5.692874339873295
 30
0.0
 10
22.25678272062103
 20
-6.931088840321284
 30
0.0
 10
23.86674410277975
 20
-7.940851103421184
 30
0.0
 10
25.47505134836608
 20
-8.725559145419698
 30
0.0
 10
27.0822952979646
 20
-9.261460947381616
 30
0.0
 10
28.69018422841766
 20
-9.53553762843087
 30
0.0
 10
30.30008814214614
 20
-9.532075449982505
 30
0.0
 10
31.84964502535253
 20
-9.289936069969237
 30
0.0
 10
32.862342145817
 20
-8.922650609707594
 30
0.0
 10
33.33910009265824
 20
-8.749739816934056
 30
0.0
  0
SPLINE
  5
BB
330
1F
100
AcDbEntity
  8
0
  6
Continuous
 62
     1
370
    15
100
AcDbSpline
210
0.0
220
0.0
230
1.0
 70
     8
 71
     3
 72
    25
 73
    21
 74
     0
 42
0.000000001
 43
0.00000001
 40
0.0
 40
0.0
 40
0.0
 40
0.0
 40
0.0496960163253514
 40
0.1056354241925646
 40
0.1615501703998259
 40
0.217416049617468
 40
0.2732899051598861
 40
0.3292268301357085
 40
0.3851447098018022
 40
0.4410114550007981
 40
0.4968838976945977
 40
0.5528180637683215
 40
0.6087391670198313
 40
0.6646068694015117
 40
0.7204779903280597
 40
0.7764091215602911
 40
0.8323335384561901
 40
0.8882022892017275
 40
0.9440721794702195
 40
1.0
 40
1.0
 40
1.0
 40
1.0
 10
59.427174450022
 20
9.512746374728259
 30
0.0
 10
59.90363257924095
 20
9.497434789325887
 30
0.0
 10
60.91640704914077
 20
9.464887999087182
 30
0.0
 10
62.46676728053449
 20
9.084385440639009
 30
0.0
 10
64.07561291682175
 20
8.456112884752004
 30
0.0
 10
65.6829506993804
 20
7.580428124508419
 30
0.0
 10
67.2905208696992
 20
6.490757839406555
 30
0.0
 10
68.90008084271099
 20
5.216741517117216
 30
0.0
 10
70.50903241266882
 20
3.794179071934249
 30
0.0
 10
72.11639351101645
 20
2.263351121267501
 30
0.0
 10
73.72392157029162
 20
0.6680197885453066
 30
0.0
 10
75.33339329307364
 20
-0.9453966164315172
 30
0.0
 10
76.94244774697373
 20
-2.532227761787166
 30
0.0
 10
78.54983640468083
 20
-4.047406911385967
 30
0.0
 10
80.15732495963604
 20
-5.447559388539841
 30
0.0
 10
81.76669973058503
 20
-6.691713346392219
 30
0.0
 10
83.37586003306865
 20
-7.747086865745421
 30
0.0
 10
84.98327888382454
 20
-8.577220306349465
 30
0.0
 10
86.5907309668395
 20
-9.182540893435846
 30
0.0
 10
87.66339171527382
 20
-9.363760242739401
 30
0.0
 10
88.19999999999997
 20
-9.454416868639912
 30
0.0
  0
SPLINE
  5
BC
330
1F
100
AcDbEntity
  8
외형선
  6
Continuous
370
    15
100
AcDbSpline
210
0.0
220
0.0
230
1.0
 70
    24
 71
     3
 72
    17
 73
    13
 74
     0
 42
0.000000001
 43
0.00000001
 40
0.0
 40
0.0
 40
0.0
 40
0.0
 40
0.1738106752827032
 40
0.2685107032031481
 40
0.3659570383487212
 40
0.4606570662691686
 40
0.5581034014147442
 40
0.6528034293351924
 40
0.7502497644807689
 40
0.8449497924012153
 40
0.9423961275467895
 40
1.0
 40
1.0
 40
1.0
 40
1.0
 10
11.99999999999999
 20
8.366762404954423
 30
0.0
 10
11.99999999999996
 20
8.047784469284151
 30
0.0
 10
11.99999999999992
 20
7.555012723971013
 30
0.0
 10
12.00000000000001
 20
6.769486371818489
 30
0.0
 10
11.99999999999996
 20
6.135195672871013
 30
0.0
 10
11.99999999999997
 20
5.48718086533239
 30
0.0
 10
12.00000000000006
 20
4.857383380880745
 30
0.0
 10
12.00000000000001
 20
4.252114343972594
 30
0.0
 10
12.00000000000005
 20
3.698181950988616
 30
0.0
 10
11.99999999999991
 20
3.20635605734621
 30
0.0
 10
12.00000000000006
 20
2.83550672010796
 30
0.0
 10
11.99999999999998
 20
2.668095451684221
 30
0.0
 10
11.99999999999997
 20
2.605899228261772
 30
0.0
  0
SPLINE
  5
BD
330
1F
100
AcDbEntity
  8
0
  6
Continuous
 62
     1
370
    15
100
AcDbSpline
210
0.0
220
0.0
230
1.0
 70
     8
 71
     3
 72
    23
 73
    19
 74
     0
 42
0.000000001
 43
0.00000001
 40
0.0
 40
0.0
 40
0.0
 40
0.0
 40
0.0645326946607061
 40
0.1289985460969139
 40
0.1934630826868389
 40
0.2579918500415292
 40
0.3225283647786892
 40
0.3869956362180343
 40
0.4514589631462199
 40
0.5159839070298787
 40
0.5805239235394585
 40
0.6449927201089012
 40
0.7094549425853613
 40
0.7739761669131467
 40
0.8385193668006059
 40
0.9029897935950006
 40
0.9674510168530078
 40
1.0
 40
1.0
 40
1.0
 40
1.0
 10
88.2
 20
-5.721394500638302
 30
0.0
 10
87.66339171527413
 20
-5.277026483526213
 30
0.0
 10
86.59073096684037
 20
-4.388750727480151
 30
0.0
 10
84.98327888382104
 20
-2.887048338458917
 30
0.0
 10
83.37586003308192
 20
-1.314859015869175
 30
0.0
 10
81.76669973053535
 20
0.2973334384672596
 30
0.0
 10
80.15732495982142
 20
1.90009907930833
 30
0.0
 10
78.54983640399004
 20
3.44984558819729
 30
0.0
 10
76.94244774955244
 20
4.901310035797478
 30
0.0
 10
75.33339328343835
 20
6.212999110702357
 30
0.0
 10
73.72392160624253
 20
7.347845573765309
 30
0.0
 10
72.11639337701777
 20
8.274232700437372
 30
0.0
 10
70.50903291291361
 20
8.965371727353489
 30
0.0
 10
68.90007897358946
 20
9.400444040991447
 30
0.0
 10
67.29052784446569
 20
9.571660386583963
 30
0.0
 10
65.68292470378745
 20
9.457757440378598
 30
0.0
 10
64.34131162926087
 20
9.178348399194627
 30
0.0
 10
63.5347803657558
 20
8.84477599666627
 30
0.0
 10
63.26417200941693
 20
8.732855376037245
 30
0.0
  0
SPLINE
  5
BE
330
1F
100
AcDbEntity
  8
0
  6
Continuous
 62
     1
370
    15
100
AcDbSpline
210
0.0
220
0.0
230
1.0
 70
     8
 71
     3
 72
    23
 73
    19
 74
     0
 42
0.000000001
 43
0.00000001
 40
0.0
 40
0.0
 40
0.0
 40
0.0
 40
0.0175725753836256
 40
0.0815152211030606
 40
0.145384384570423
 40
0.2092314130471745
 40
0.2731213184558312
 40
0.3370652236970279
 40
0.4009366257457713
 40
0.4647832902499237
 40
0.5286702339047743
 40
0.5926150828908672
 40
0.65648882733622
 40
0.7251569681437737
 40
0.7938386448790538
 40
0.8625635301965977
 40
0.9313072069614158
 40
1.0
 40
1.0
 40
1.0
 40
1.0
 10
37.1760513967502
 20
-9.496873712272919
 30
0.0
 10
37.02859346507012
 20
-9.50482621971697
 30
0.0
 10
36.34456931710711
 20
-9.54171611140751
 30
0.0
 10
35.1235194891369
 20
-9.335311466636991
 30
0.0
 10
33.5157484089327
 20
-8.875029113547782
 30
0.0
 10
31.90848208411694
 20
-8.141490456610915
 30
0.0
 10
30.30008874627434
 20
-7.181797014636119
 30
0.0
 10
28.69018406668674
 20
-6.017088816610294
 30
0.0
 10
27.08229534125985
 20
-4.680660412473855
 30
0.0
 10
25.47505133675944
 20
-3.211161285880423
 30
0.0
 10
23.86674410589335
 20
-1.650149489419257
 30
0.0
 10
22.25678271978954
 20
-0.0433281640552576
 30
0.0
 10
20.60849865260699
 20
1.606624892746143
 30
0.0
 10
18.92009826687205
 20
3.24761554084539
 30
0.0
 10
17.19101582913878
 20
4.822696315840489
 30
0.0
 10
15.46058882687576
 20
6.233861583935733
 30
0.0
 10
13.72962401380042
 20
7.459596539238884
 30
0.0
 10
12.5763990166968
 20
8.064448428733394
 30
0.0
 10
11.99999999999999
 20
8.366762404954384
 30
0.0
  0
SPLINE
  5
BF
330
1F
100
AcDbEntity
  8
0
  6
Continuous
 62
     1
370
    15
100
AcDbSpline
210
0.0
220
0.0
230
1.0
 70
     8
 71
     3
 72
    29
 73
    25
 74
     0
 42
0.000000001
 43
0.00000001
 40
0.0
 40
0.0
 40
0.0
 40
0.0
 40
0.0235781496383151
 40
0.0712206859094629
 40
0.1188312489640221
 40
0.1664583180235017
 40
0.2141401826072077
 40
0.2617850045752034
 40
0.3093959168404941
 40
0.3570213940455139
 40
0.4047020839574181
 40
0.4523492686989961
 40
0.4999606079649718
 40
0.5475845707988733
 40
0.5952638506196487
 40
0.6429134751619284
 40
0.6905253192095488
 40
0.7381478451875332
 40
0.785825479534312
 40
0.8334776208531943
 40
0.881090047452786
 40
0.928711214120288
 40
0.9763869676527441
 40
1.0
 40
1.0
 40
1.0
 40
1.0
 10
29.5039788986339
 20
9.49212204318369
 30
0.0
 10
29.76944334685963
 20
9.498786524609802
 30
0.0
 10
30.57131119388059
 20
9.518917406196339
 30
0.0
 10
31.90849086822887
 20
9.25940335738598
 30
0.0
 10
33.51573472618124
 20
8.737324662945277
 30
0.0
 10
35.12356547897109
 20
7.952210467872435
 30
0.0
 10
36.73343318172713
 20
6.94551585746887
 30
0.0
 10
38.34191567655919
 20
5.739653970060855
 30
0.0
 10
39.94917828103851
 20
4.370826713908718
 30
0.0
 10
41.55694945360231
 20
2.877326485806984
 30
0.0
 10
43.16677363152831
 20
1.303207401529674
 30
0.0
 10
44.77534383068505
 20
-0.308847124877464
 30
0.0
 10
46.38262090586122
 20
-1.912109055279232
 30
0.0
 10
47.9903373786493
 20
-3.461193642850662
 30
0.0
 10
49.60010871462959
 20
-4.910723408682057
 30
0.0
 10
51.20876974620066
 20
-6.221299146951822
 30
0.0
 10
52.8160639301077
 20
-7.354939995315749
 30
0.0
 10
54.42372857653821
 20
-8.27934597585435
 30
0.0
 10
56.03343887480776
 20
-8.967949726777569
 30
0.0
 10
57.64219139537082
 20
-9.400850433700583
 30
0.0
 10
59.24951407517865
 20
-9.56983160483394
 30
0.0
 10
60.85709722551817
 20
-9.453300262769964
 30
0.0
 10
62.19612891389441
 20
-9.173724727368239
 30
0.0
 10
62.99842645644421
 20
-8.84093551315426
 30
0.0
 10
63.26417200941687
 20
-8.730705518589453
 30
0.0
  0
SPLINE
  5
C0
330
1F
100
AcDbEntity
  8
0
  6
Continuous
 62
     1
370
    15
100
AcDbSpline
210
0.0
220
0.0
230
1.0
 70
     8
 71
     3
 72
    29
 73
    25
 74
     0
 42
0.000000001
 43
0.00000001
 40
0.0
 40
0.0
 40
0.0
 40
0.0
 40
0.0419558787834237
 40
0.0895685489268743
 40
0.1372228668147122
 40
0.1848982030324673
 40
0.2325189528630769
 40
0.2801309627022797
 40
0.3277826869131424
 40
0.3754599039287571
 40
0.4230820130579503
 40
0.4706934403502815
 40
0.5183426478065715
 40
0.5660215102817795
 40
0.6136450562543135
 40
0.6612559787694179
 40
0.7089027464463622
 40
0.7565830190003563
 40
0.8042080793307534
 40
0.8518185748489103
 40
0.8994629797729543
 40
0.9471444269884679
 40
0.9947710791593902
 40
1.0
 40
1.0
 40
1.0
 40
1.0
 10
67.09900286019302
 20
-9.509725227707175
 30
0.0
 10
66.62694169730332
 20
-9.495176269067855
 30
0.0
 10
65.61917271257953
 20
-9.46411675723048
 30
0.0
 10
64.07563331641958
 20
-9.086427214813268
 30
0.0
 10
62.46675733469826
 20
-8.460344858174471
 30
0.0
 10
60.85712466227009
 20
-7.587091822239089
 30
0.0
 10
59.24950672879652
 20
-6.49922591898631
 30
0.0
 10
57.64219336547344
 20
-5.226051429203412
 30
0.0
 10
56.03343834639951
 20
-3.804448402330496
 30
0.0
 10
54.42372871797451
 20
-2.275265116761654
 30
0.0
 10
52.81606389224222
 20
-0.6802665922648232
 30
0.0
 10
51.20876975634256
 20
0.9338754029159816
 30
0.0
 10
49.60010871195392
 20
2.52138140890326
 30
0.0
 10
47.99033737919872
 20
4.03643859983436
 30
0.0
 10
46.38262090633578
 20
5.437797888804864
 30
0.0
 10
44.77534382823758
 20
6.684216990464575
 30
0.0
 10
43.16677364085439
 20
7.740510677497836
 30
0.0
 10
41.55694941873889
 20
8.576086348793329
 30
0.0
 10
39.9491784109759
 20
9.16882104285704
 30
0.0
 10
38.34191519162414
 20
9.4988071474228
 30
0.0
 10
36.73343499358383
 20
9.565254571661223
 30
0.0
 10
35.12355871461845
 20
9.334861459491071
 30
0.0
 10
33.99253938465986
 20
9.051340738582063
 30
0.0
 10
33.39792443811462
 20
8.778847056748388
 30
0.0
 10
33.33910009265819
 20
8.751889674381845
 30
0.0
  0
LINE
  5
C1
330
1F
100
AcDbEntity
  8
0
  6
Continuous
 62
     1
370
    15
100
AcDbLine
 10
11.99999999999999
 20
-9.21167026409035
 30
0.0
 11
13.38913420169198
 21
-8.739126991964817
 31
0.0
  0
SPLINE
  5
C2
330
1F
100
AcDbEntity
  8
0
  6
Continuous
 62
     1
370
    15
100
AcDbSpline
210
0.0
220
0.0
230
1.0
 70
     8
 71
     3
 72
    29
 73
    25
 74
     0
 42
0.000000001
 43
0.00000001
 40
0.0
 40
0.0
 40
0.0
 40
0.0
 40
0.0139301043579233
 40
0.0615578349065081
 40
0.1092407807743018
 40
0.1568902198865114
 40
0.2045038118271322
 40
0.252130027932948
 40
0.2998115636428961
 40
0.3474634426712437
 40
0.3950775394173924
 40
0.4427023185993079
 40
0.4903822087574057
 40
0.5380366046814342
 40
0.5856512840071167
 40
0.6332747038142359
 40
0.6809527130690225
 40
0.7286097028154473
 40
0.7762250424823997
 40
0.823847180492434
 40
0.871523073541075
 40
0.9191827339821835
 40
0.9667988117382321
 40
1.0
 40
1.0
 40
1.0
 40
1.0
 10
39.47892369028882
 20
9.498013217296116
 30
0.0
 10
39.63562683712847
 20
9.506126297783966
 30
0.0
 10
40.32810595965548
 20
9.54197841033259
 30
0.0
 10
41.55694102975185
 20
9.331584677574702
 30
0.0
 10
43.16677588807334
 20
8.866632267735525
 30
0.0
 10
44.77534322678461
 20
8.129047589595734
 30
0.0
 10
46.38262106749394
 20
7.165615636234534
 30
0.0
 10
47.99033733592119
 20
5.996678932544533
 30
0.0
 10
49.60010872367375
 20
4.658533786732384
 30
0.0
 10
51.20876975273719
 20
3.187147066264396
 30
0.0
 10
52.81606389495576
 20
1.62505203124227
 30
0.0
 10
54.42372871071917
 20
0.0164923891684975
 30
0.0
 10
56.03343837273228
 20
-1.59138612799904
 30
0.0
 10
57.6421932675019
 20
-3.154690316608537
 30
0.0
 10
59.24950709407063
 20
-4.628382190586633
 30
0.0
 10
60.85712329808468
 20
-5.970524112339977
 30
0.0
 10
62.46676243142996
 20
-7.142018675278986
 30
0.0
 10
64.07561431224701
 20
-8.11077042598015
 30
0.0
 10
65.68294996157405
 20
-8.849067903467644
 30
0.0
 10
67.29052242701117
 20
-9.334929844623215
 30
0.0
 10
68.90007534592027
 20
-9.557509375256979
 30
0.0
 10
70.5090528244739
 20
-9.499150548447433
 30
0.0
 10
71.95412788171978
 20
-9.234495185256227
 30
0.0
 10
72.86336382438007
 20
-8.88086456341019
 30
0.0
 10
73.23689432341942
 20
-8.735586735669173
 30
0.0
  0
SPLINE
  5
C3
330
1F
100
AcDbEntity
  8
외형선
  6
Continuous
370
    15
100
AcDbSpline
210
0.0
220
0.0
230
1.0
 70
    24
 71
     3
 72
    10
 73
     6
 74
     0
 42
0.000000001
 43
0.00000001
 40
0.0
 40
0.0
 40
0.0
 40
0.0
 40
0.0909187635907458
 40
0.7324451356463104
 40
1.0
 40
1.0
 40
1.0
 40
1.0
 10
12.0
 20
-8.21909491632778
 30
0.0
 10
12.00000000000001
 20
-8.247552110202788
 30
0.0
 10
12.0
 20
-8.476804383382772
 30
0.0
 10
11.99999999999996
 20
-8.81547985304393
 30
0.0
 10
11.99999999999998
 20
-9.121580667470777
 30
0.0
 10
11.99999999999999
 20
-9.211670264090348
 30
0.0
  0
SPLINE
  5
C4
330
1F
100
AcDbEntity
  8
0
  6
Continuous
 62
     1
370
    15
100
AcDbSpline
210
0.0
220
0.0
230
1.0
 70
     8
 71
     3
 72
    29
 73
    25
 74
     0
 42
0.000000001
 43
0.00000001
 40
0.0
 40
0.0
 40
0.0
 40
0.0
 40
0.0039039251834603
 40
0.0515654616751634
 40
0.0992381316056133
 40
0.146858194721218
 40
0.1944734018640201
 40
0.2421321908950155
 40
0.2898072122367465
 40
0.3374284795227289
 40
0.3850429485899297
 40
0.432699066975072
 40
0.4803762044842557
 40
0.527998753543886
 40
0.5756125622818911
 40
0.6232660868920628
 40
0.6709451052701672
 40
0.7185690136797387
 40
0.7661822398488621
 40
0.8138332476093717
 40
0.8615139115092391
 40
0.9091392568164388
 40
0.9567519781892638
 40
1.0
 40
1.0
 40
1.0
 40
1.0
 10
77.07453889990632
 20
-9.513729166156041
 30
0.0
 10
77.0306210539324
 20
-9.517075335653074
 30
0.0
 10
76.45052694428642
 20
-9.561273614782205
 30
0.0
 10
75.33334747655421
 20
-9.391759202004671
 30
0.0
 10
73.72393383337916
 20
-8.988730016914836
 30
0.0
 10
72.11639022548691
 20
-8.3007217723753
 30
0.0
 10
70.5090333000487
 20
-7.384299328868241
 30
0.0
 10
68.90008058167896
 20
-6.255927181221823
 30
0.0
 10
67.29052102564992
 20
-4.950566127663671
 30
0.0
 10
65.68295033681571
 20
-3.503387067260856
 30
0.0
 10
64.075614211618
 20
-1.956692918004371
 30
0.0
 10
62.46676245839028
 20
-0.3545488746245542
 30
0.0
 10
60.85712329097077
 20
1.257111152794609
 30
0.0
 10
59.24950709559445
 20
2.834092366809678
 30
0.0
 10
57.64219326851546
 20
4.330246824778031
 30
0.0
 10
56.03343836714615
 20
5.703079851574383
 30
0.0
 10
54.42372873205045
 20
6.913230912350826
 30
0.0
 10
52.81606381532917
 20
7.9275423799182
 30
0.0
 10
51.20877004997867
 20
8.716270888086724
 30
0.0
 10
49.60010761306076
 20
9.256581417517458
 30
0.0
 10
47.99034148151908
 20
9.535133039028148
 30
0.0
 10
46.38260561797208
 20
9.536669803099171
 30
0.0
 10
44.82489871949868
 20
9.29680176459112
 30
0.0
 10
43.80228215455092
 20
8.928787958629867
 30
0.0
 10
43.31553571207977
 20
8.753620239885695
 30
0.0
  0
SPLINE
  5
C5
330
1F
100
AcDbEntity
  8
0
  6
Continuous
 62
     1
370
    15
100
AcDbSpline
210
0.0
220
0.0
230
1.0
 70
     8
 71
     3
 72
    11
 73
     7
 74
     0
 42
0.000000001
 43
0.00000001
 40
0.0
 40
0.0
 40
0.0
 40
0.0
 40
0.0069253703030811
 40
0.3379716034714861
 40
0.6691083546204909
 40
1.0
 40
1.0
 40
1.0
 40
1.0
 10
17.22745190247718
 20
-9.520715580080669
 30
0.0
 10
17.2153879738644
 20
-9.521782965178282
 30
0.0
 10
16.62664468376008
 20
-9.57387344369056
 30
0.0
 10
15.46055453483989
 20
-9.385526102625217
 30
0.0
 10
13.72963258038223
 20
-8.956432161383407
 30
0.0
 10
12.57640187151917
 20
-8.402633678715773
 30
0.0
 10
11.99999999999999
 20
-8.125836955041281
 30
0.0
  0
LINE
  5
C6
330
1F
100
AcDbEntity
  8
0
  6
Continuous
 62
     1
370
    15
100
AcDbLine
 10
88.2
 20
-3.73194743927758
 30
0.0
 11
88.2
 21
3.734097296725548
 31
0.0
  0
SPLINE
  5
C7
330
1F
100
AcDbEntity
  8
0
  6
Continuous
 62
     1
370
    15
100
AcDbSpline
210
0.0
220
0.0
230
1.0
 70
     8
 71
     3
 72
    27
 73
    23
 74
     0
 42
0.000000001
 43
0.00000001
 40
0.0
 40
0.0
 40
0.0
 40
0.0
 40
0.0552247442720719
 40
0.1104903959034826
 40
0.1657409403770054
 40
0.2209567478308151
 40
0.2761616732384302
 40
0.327512201389365
 40
0.3789198931801133
 40
0.4302810326766777
 40
0.4816097902347823
 40
0.5329584352441546
 40
0.5843653683225519
 40
0.6357288888854448
 40
0.6870579390549405
 40
0.7384047843837517
 40
0.7898107048847859
 40
0.8411766896623543
 40
0.8925061163166886
 40
0.9438512454637917
 40
0.9952558995486362
 40
1.0
 40
1.0
 40
1.0
 40
1.0
 10
11.99999999999999
 20
9.213820121538156
 30
0.0
 10
12.57639901669623
 20
9.038069214662542
 30
0.0
 10
13.72962401379872
 20
8.686437214604497
 30
0.0
 10
15.46058882688263
 20
7.792504288687602
 30
0.0
 10
17.19101582911299
 20
6.663957808488042
 30
0.0
 10
18.92009826696822
 20
5.310402294208633
 30
0.0
 10
20.60849865225865
 20
3.819636780165327
 30
0.0
 10
22.25678272098953
 20
2.24924944806634
 30
0.0
 10
23.86674410140002
 20
0.6548265777168101
 30
0.0
 10
25.47505135350948
 20
-0.959350325364961
 30
0.0
 10
27.08229527877878
 20
-2.546047845170814
 30
0.0
 10
28.69018430008717
 20
-4.060549589559624
 30
0.0
 10
30.30008787443242
 20
-5.458409675827095
 30
0.0
 10
31.90848533376925
 20
-6.701912320995022
 30
0.0
 10
33.51573628804266
 20
-7.754668095498446
 30
0.0
 10
35.12356476547448
 20
-8.586767098392295
 30
0.0
 10
36.73343447270438
 20
-9.174594043170648
 30
0.0
 10
38.34191123166173
 20
-9.49997062744569
 30
0.0
 10
39.9491947606489
 20
-9.561906274643679
 30
0.0
 10
41.55688792459841
 20
-9.326009308763435
 30
0.0
 10
42.67990548332158
 20
-9.043597008830485
 30
0.0
 10
43.26601440689931
 20
-8.774229671034359
 30
0.0
 10
43.31553571207983
 20
-8.7514703824379
 30
0.0
  0
SPLINE
  5
C8
330
1F
100
AcDbEntity
  8
0
  6
Continuous
 62
     1
370
    15
100
AcDbSpline
210
0.0
220
0.0
230
1.0
 70
     8
 71
     3
 72
    19
 73
    15
 74
     0
 42
0.000000001
 43
0.00000001
 40
0.0
 40
0.0
 40
0.0
 40
0.0
 40
0.0588772444749393
 40
0.1443891787821928
 40
0.2299098339089539
 40
0.315524965375629
 40
0.401120102350213
 40
0.4866335017605888
 40
0.5721521337361176
 40
0.657762619949782
 40
0.7433628289245391
 40
0.8288778330036843
 40
0.9143945812834573
 40
0.9999999999999999
 40
0.9999999999999999
 40
0.9999999999999999
 40
0.9999999999999999
 10
69.40240567843395
 20
9.496936187998605
 30
0.0
 10
69.77142600524793
 20
9.496106917166363
 30
0.0
 10
70.67640283318508
 20
9.494073232751889
 30
0.0
 10
72.1163770430177
 20
9.179188412596007
 30
0.0
 10
73.72392598854039
 20
8.604277868185784
 30
0.0
 10
75.33339210892565
 20
7.77493306738691
 30
0.0
 10
76.94244806389518
 20
6.727093364341899
 30
0.0
 10
78.54983631979343
 20
5.486879598618599
 30
0.0
 10
80.15732498240952
 20
4.090640988044678
 30
0.0
 10
81.76669972448086
 20
2.578886121846021
 30
0.0
 10
83.37586003470179
 20
0.9931485380310168
 30
0.0
 10
84.98327888338922
 20
-0.6193323386908324
 30
0.0
 10
86.59073096694844
 20
-2.22180106538702
 30
0.0
 10
87.66339171531018
 20
-3.228391452875862
 30
0.0
 10
88.19999999999997
 20
-3.73194743927758
 30
0.0
  0
SPLINE
  5
C9
330
1F
100
AcDbEntity
  8
0
  6
Continuous
 62
     1
370
    15
100
AcDbSpline
210
0.0
220
0.0
230
1.0
 70
     8
 71
     3
 72
    17
 73
    13
 74
     0
 42
0.000000001
 43
0.00000001
 40
0.0
 40
0.0
 40
0.0
 40
0.0
 40
0.1075463808859462
 40
0.2149813647983223
 40
0.3224141574654716
 40
0.4299539933349599
 40
0.5375067405349037
 40
0.6449440909407147
 40
0.7523748676569907
 40
0.8599083315552786
 40
0.9674669146024999
 40
1.0
 40
1.0
 40
1.0
 40
1.0
 10
88.2
 20
3.734097296725549
 30
0.0
 10
87.66339171410483
 20
4.217125198000599
 30
0.0
 10
86.59073096333378
 20
5.182680678309183
 30
0.0
 10
84.98327889783039
 20
6.456001267652698
 30
0.0
 10
83.37585998052394
 20
7.553251507119188
 30
0.0
 10
81.76669992698038
 20
8.433194922247408
 30
0.0
 10
80.15732422691902
 20
9.074220467348786
 30
0.0
 10
78.54983913586891
 20
9.455974185229275
 30
0.0
 10
76.94243755025626
 20
9.57355417888795
 30
0.0
 10
75.33343139217327
 20
9.400687776144595
 30
0.0
 10
74.09761491855247
 20
9.11481687460828
 30
0.0
 10
73.39910684509782
 20
8.808801632900785
 30
0.0
 10
73.2368943234195
 20
8.737736593116962
 30
0.0
  0
SPLINE
  5
CA
330
1F
100
AcDbEntity
  8
0
  6
Continuous
 62
     1
370
    15
100
AcDbSpline
210
0.0
220
0.0
230
1.0
 70
     8
 71
     3
 72
    29
 73
    25
 74
     0
 42
0.000000001
 43
0.00000001
 40
0.0
 40
0.0
 40
0.0
 40
0.0
 40
0.0227313615672566
 40
0.0703427369225447
 40
0.1179899577806056
 40
0.16567068383439
 40
0.2132961971394395
 40
0.2609071454937187
 40
0.3085520035764066
 40
0.3562339043028831
 40
0.4038610094635981
 40
0.4514716086068811
 40
0.4991141809909889
 40
0.5467970209402787
 40
0.5944257954065718
 40
0.6420361231362288
 40
0.6896764869465534
 40
0.7373600306444908
 40
0.7849905518311664
 40
0.8361962446237984
 40
0.8874120311301769
 40
0.9386600381883773
 40
0.9899220579905509
 40
1.0
 40
1.0
 40
1.0
 40
1.0
 10
47.14976302135762
 20
-9.490079888237279
 30
0.0
 10
46.89399697805614
 20
-9.49710574703019
 30
0.0
 10
46.10252289743651
 20
-9.518847433521888
 30
0.0
 10
44.77537217018332
 20
-9.263874208526618
 30
0.0
 10
43.16676602983101
 20
-8.74655705730559
 30
0.0
 10
41.5569514865705
 20
-7.96613724796227
 30
0.0
 10
39.94917774383843
 20
-6.962426663917952
 30
0.0
 10
38.34191579422284
 20
-5.759698822502673
 30
0.0
 10
36.73343324869465
 20
-4.393321581678779
 30
0.0
 10
35.12356509314231
 20
-2.902812565347181
 30
0.0
 10
33.51573620030766
 20
-1.328558994669043
 30
0.0
 10
31.90848535734861
 20
0.2832462361480543
 30
0.0
 10
30.30008786789226
 20
1.887116661620866
 30
0.0
 10
28.69018430263756
 20
3.436308076515952
 30
0.0
 10
27.08229527511693
 20
4.888993017149771
 30
0.0
 10
25.47505136560812
 20
6.202329757411243
 30
0.0
 10
23.8667440566181
 20
7.339366024553483
 30
0.0
 10
22.256782888092
 20
8.266899786272091
 30
0.0
 10
20.60849800968918
 20
8.977921384706196
 30
0.0
 10
18.92010086661784
 20
9.426544286208705
 30
0.0
 10
17.19100614569797
 20
9.582679907895727
 30
0.0
 10
15.46062498887732
 20
9.398743905648598
 30
0.0
 10
14.19281859829656
 20
9.105904779790592
 30
0.0
 10
13.50254392543824
 20
8.792730321732117
 30
0.0
 10
13.38913420169205
 20
8.741276849412609
 30
0.0
  0
LINE
  5
CB
330
1F
100
AcDbEntity
  8
0
  6
Continuous
 62
     1
370
    15
100
AcDbLine
 10
88.2
 20
-9.523925071276107
 30
0.0
 11
88.2
 21
-9.454416868639912
 31
0.0
  0
LINE
  5
CC
330
1F
100
AcDbEntity
  8
외형선
  6
Continuous
370
    15
100
AcDbLine
 10
11.99999999999999
 20
0.2398505211891378
 30
0.0
 11
11.99999999999999
 21
2.512641266975319
 31
0.0
  0
LINE
  5
CD
330
1F
100
AcDbEntity
  8
0
  6
Continuous
 62
     1
370
    15
100
AcDbLine
 10
88.2
 20
9.456566726087713
 30
0.0
 11
88.2
 21
9.526074928723897
 31
0.0
  0
LINE
  5
CE
330
1F
100
AcDbEntity
  8
0
  6
Continuous
 62
     1
370
    15
100
AcDbLine
 10
88.2
 20
-5.721394500638302
 30
0.0
 11
88.2
 21
-3.73194743927758
 31
0.0
  0
LINE
  5
CF
330
1F
100
AcDbEntity
  8
외형선
  6
Continuous
370
    15
100
AcDbLine
 10
11.99999999999999
 20
8.366762404954423
 30
0.0
 11
11.99999999999999
 21
9.213820121538156
 31
0.0
  0
LINE
  5
D0
330
1F
100
AcDbEntity
  8
0
  6
Continuous
 62
     1
370
    15
100
AcDbLine
 10
88.2
 20
3.734097296725548
 30
0.0
 11
88.2
 21
5.723544358086136
 31
0.0
  0
LINE
  5
D1
330
1F
100
AcDbEntity
  8
외형선
  6
Continuous
370
    15
100
AcDbLine
 10
11.99999999999999
 20
-8.125836955041327
 30
0.0
 11
11.99999999999999
 21
-6.700103925839014
 31
0.0
  0
LINE
  5
D2
330
1F
100
AcDbEntity
  8
외형선
  6
Continuous
370
    15
100
AcDbLine
 10
11.00030966886757
 20
9.416726549790072
 30
0.0
 11
11.00030966886757
 21
9.526074928723894
 31
0.0
  0
SPLINE
  5
D3
330
1F
100
AcDbEntity
  8
외형선
  6
Continuous
370
    15
100
AcDbSpline
210
0.0
220
0.0
230
1.0
 70
     8
 71
     3
 72
     8
 73
     4
 74
     0
 42
0.000000001
 43
0.00000001
 40
0.0
 40
0.0
 40
0.0
 40
0.0
 40
1.0
 40
1.0
 40
1.0
 40
1.0
 10
11.99999999999998
 20
9.213820121538152
 30
0.0
 10
11.66533767523428
 20
9.298677758341464
 30
0.0
 10
11.33342286839255
 20
9.36632435168839
 30
0.0
 10
11.00030966886758
 20
9.416732278611978
 30
0.0
  0
SPLINE
  5
D4
330
1F
100
AcDbEntity
  8
외형선
  6
Continuous
370
    15
100
AcDbSpline
210
0.0
220
0.0
230
1.0
 70
     8
 71
     3
 72
     8
 73
     4
 74
     0
 42
0.000000001
 43
0.00000001
 40
0.0
 40
0.0
 40
0.0
 40
0.0
 40
1.0
 40
1.0
 40
1.0
 40
1.0
 10
12.00000000000001
 20
8.366762404954375
 30
0.0
 10
11.66533767523431
 20
8.526531023616865
 30
0.0
 10
11.33342286839255
 20
8.670444192806091
 30
0.0
 10
11.00030966886756
 20
8.798347169542087
 30
0.0
  0
SPLINE
  5
D5
330
1F
100
AcDbEntity
  8
외형선
  6
Continuous
370
    15
100
AcDbSpline
210
0.0
220
0.0
230
1.0
 70
     8
 71
     3
 72
     8
 73
     4
 74
     0
 42
0.000000001
 43
0.00000001
 40
0.0
 40
0.0
 40
0.0
 40
0.0
 40
1.0
 40
1.0
 40
1.0
 40
1.0
 10
11.99999999999998
 20
2.512641266975303
 30
0.0
 10
11.66533767523428
 20
2.834966537312416
 30
0.0
 10
11.33342286839255
 20
3.151779153005192
 30
0.0
 10
11.00030966886758
 20
3.462602575776225
 30
0.0
  0
SPLINE
  5
D6
330
1F
100
AcDbEntity
  8
외형선
  6
Continuous
370
    15
100
AcDbSpline
210
0.0
220
0.0
230
1.0
 70
     8
 71
     3
 72
     8
 73
     4
 74
     0
 42
0.000000001
 43
0.00000001
 40
0.0
 40
0.0
 40
0.0
 40
0.0
 40
1.0
 40
1.0
 40
1.0
 40
1.0
 10
12.00000000000001
 20
0.2398505211891343
 30
0.0
 10
11.66533767523431
 20
0.5738964504926918
 30
0.0
 10
11.33342286839255
 20
0.9065861374602717
 30
0.0
 10
11.00030966886756
 20
1.237398668817325
 30
0.0
  0
SPLINE
  5
D7
330
1F
100
AcDbEntity
  8
외형선
  6
Continuous
370
    15
100
AcDbSpline
210
0.0
220
0.0
230
1.0
 70
     8
 71
     3
 72
     8
 73
     4
 74
     0
 42
0.000000001
 43
0.00000001
 40
0.0
 40
0.0
 40
0.0
 40
0.0
 40
1.0
 40
1.0
 40
1.0
 40
1.0
 10
11.99999999999998
 20
-6.700103925839011
 30
0.0
 10
11.66533767523428
 20
-6.462636292305212
 30
0.0
 10
11.33342286839255
 20
-6.213470269959368
 30
0.0
 10
11.00030966886758
 20
-5.953054774111923
 30
0.0
  0
SPLINE
  5
D8
330
1F
100
AcDbEntity
  8
외형선
  6
Continuous
370
    15
100
AcDbSpline
210
0.0
220
0.0
230
1.0
 70
     8
 71
     3
 72
     8
 73
     4
 74
     0
 42
0.000000001
 43
0.00000001
 40
0.0
 40
0.0
 40
0.0
 40
0.0
 40
1.0
 40
1.0
 40
1.0
 40
1.0
 10
12.00000000000001
 20
-8.125836955041281
 30
0.0
 10
11.66533767523431
 20
-7.951559644400215
 30
0.0
 10
11.33342286839255
 20
-7.762783126621865
 30
0.0
 10
11.00030966886756
 20
-7.559873572000809
 30
0.0
  0
LINE
  5
D9
330
1F
100
AcDbEntity
  8
외형선
  6
Continuous
370
    15
100
AcDbLine
 10
11.00030966886757
 20
-9.523925071276103
 30
0.0
 11
11.00030966886757
 21
-7.559854361025103
 31
0.0
  0
SPLINE
  5
DA
330
1F
100
AcDbEntity
  8
외형선
  6
Continuous
370
    15
100
AcDbSpline
210
0.0
220
0.0
230
1.0
 70
     8
 71
     3
 72
     8
 73
     4
 74
     0
 42
0.000000001
 43
0.00000001
 40
0.0
 40
0.0
 40
0.0
 40
0.0
 40
1.0
 40
1.0
 40
1.0
 40
1.0
 10
11.99999999999998
 20
-9.211670264090348
 30
0.0
 10
11.66533767523428
 20
-9.296527900893665
 30
0.0
 10
11.33342286839255
 20
-9.36417449424059
 30
0.0
 10
11.00030966886758
 20
-9.41458242116418
 30
0.0
  0
LINE
  5
DB
330
1F
100
AcDbEntity
  8
외형선
  6
Continuous
370
    15
100
AcDbLine
 10
-43.245
 20
0.0010749287238949
 30
0.0
 11
-43.245
 21
9.526074928723894
 31
0.0
  0
LINE
  5
DC
330
1F
100
AcDbEntity
  8
외형선
  6
Continuous
370
    15
100
AcDbLine
 10
-43.245
 20
-9.523925071276103
 30
0.0
 11
-43.245
 21
0.0010749287238949
 31
0.0
  0
LINE
  5
DD
330
1F
100
AcDbEntity
  8
외형선
  6
Continuous
370
    15
100
AcDbLine
 10
11.00030966886757
 20
-5.95308436969901
 30
0.0
 11
11.00030966886757
 21
1.237429989256536
 31
0.0
  0
LINE
  5
DE
330
1F
100
AcDbEntity
  8
외형선
  6
Continuous
370
    15
100
AcDbLine
 10
11.00030966886757
 20
3.462567251367232
 30
0.0
 11
11.00030966886757
 21
8.798359279005592
 31
0.0
  0
LINE
  5
DF
330
1F
100
AcDbEntity
  8
외형선
  6
Continuous
370
    15
100
AcDbLine
 10
-45.15
 20
0.0010749287238949
 30
0.0
 11
-45.15
 21
7.621074928723907
 31
0.0
  0
LINE
  5
E0
330
1F
100
AcDbEntity
  8
외형선
  6
Continuous
370
    15
100
AcDbLine
 10
-45.15
 20
-7.618925071276126
 30
0.0
 11
-45.15
 21
0.0010749287238949
 31
0.0
  0
SPLINE
  5
E1
330
1F
100
AcDbEntity
  8
외형선
  6
Continuous
370
    15
100
AcDbSpline
210
0.0
220
0.0
230
1.0
 70
    24
 71
     3
 72
    21
 73
    17
 74
     0
 42
0.000000001
 43
0.00000001
 40
0.0
 40
0.0
 40
0.0
 40
0.0
 40
0.0940558732404607
 40
0.1634872009402533
 40
0.2349320418469494
 40
0.3043633695467324
 40
0.3758082104534206
 40
0.4452395381532133
 40
0.5166843790599239
 40
0.5861157067597152
 40
0.6575605476664128
 40
0.7269918753662031
 40
0.7984367162729001
 40
0.8678680439726734
 40
0.9393128848793516
 40
1.0
 40
1.0
 40
1.0
 40
1.0
 10
11.99999999999999
 20
-6.700103925839012
 30
0.0
 10
12.00000000000001
 20
-6.528026900158459
 30
0.0
 10
12.00000000000001
 20
-6.228923927580498
 30
0.0
 10
11.99999999999999
 20
-5.66657099227911
 30
0.0
 10
11.99999999999996
 20
-5.109215874245434
 30
0.0
 10
11.99999999999999
 20
-4.499244668574174
 30
0.0
 10
12.00000000000004
 20
-3.867369954276399
 30
0.0
 10
11.99999999999998
 20
-3.219442640386791
 30
0.0
 10
12.00000000000003
 20
-2.585636283185338
 30
0.0
 10
11.99999999999996
 20
-1.972453550794708
 30
0.0
 10
12.00000000000001
 20
-1.408233134381558
 30
0.0
 10
12.00000000000004
 20
-0.8990348435175257
 30
0.0
 10
11.99999999999994
 20
-0.4675133636005959
 30
0.0
 10
12.00000000000005
 20
-0.1215704417008658
 30
0.0
 10
11.99999999999998
 20
0.1249488495848521
 30
0.0
 10
11.99999999999999
 20
0.2036868215577265
 30
0.0
 10
11.99999999999999
 20
0.2398505211891463
 30
0.0
  0
SPLINE
  5
E2
330
1F
100
AcDbEntity
  8
외형선
  6
Continuous
370
    15
100
AcDbSpline
210
0.0
220
0.0
230
1.0
 70
    24
 71
     3
 72
    18
 73
    14
 74
     0
 42
0.000000001
 43
0.00000001
 40
0.0
 40
0.0
 40
0.0
 40
0.0
 40
0.0496204757355189
 40
0.145614671171292
 40
0.2416088666070549
 40
0.3376030620428179
 40
0.4335972574785801
 40
0.5295914529143423
 40
0.6255856483500801
 40
0.721579843785818
 40
0.8175740392216075
 40
0.9135682346573971
 40
1.0
 40
1.0
 40
1.0
 40
1.0
 10
12.00000000000002
 20
2.605899228261772
 30
0.0
 10
12.00000000000002
 20
2.658261311804951
 30
0.0
 10
12.00000000000001
 20
2.811921418121222
 30
0.0
 10
11.99999999999999
 20
3.165423243717668
 30
0.0
 10
12.00000000000001
 20
3.64847796863922
 30
0.0
 10
12.00000000000001
 20
4.19927682369288
 30
0.0
 10
11.99999999999996
 20
4.798423624823695
 30
0.0
 10
11.99999999999997
 20
5.428915707981488
 30
0.0
 10
11.99999999999997
 20
6.073240908248771
 30
0.0
 10
12.00000000000001
 20
6.713455973005673
 30
0.0
 10
12.00000000000001
 20
7.329229401565621
 30
0.0
 10
12.0
 20
7.890932787599716
 30
0.0
 10
12.00000000000001
 20
8.213793790565825
 30
0.0
 10
12.00000000000001
 20
8.366762404942717
 30
0.0
  0
SPLINE
  5
E3
330
1F
100
AcDbEntity
  8
외형선
  6
Continuous
370
    15
100
AcDbSpline
210
0.0
220
0.0
230
1.0
 70
    24
 71
     3
 72
    10
 73
     6
 74
     0
 42
0.000000001
 43
0.00000001
 40
0.0
 40
0.0
 40
0.0
 40
0.0
 40
0.419661459148473
 40
0.844701122248725
 40
1.0
 40
1.0
 40
1.0
 40
1.0
 10
11.99999999999998
 20
-9.211670264090348
 30
0.0
 10
11.99999999999996
 20
-9.070220178177728
 30
0.0
 10
11.99999999999993
 20
-8.785507241814669
 30
0.0
 10
12.00000000000004
 20
-8.450678289290728
 30
0.0
 10
11.99999999999998
 20
-8.267983998119336
 30
0.0
 10
11.99999999999997
 20
-8.21909491632778
 30
0.0
  0
LINE
  5
E4
330
1F
100
AcDbEntity
  8
중심선
100
AcDbLine
 10
-48.14999999999999
 20
0.0010749287238888
 30
0.0
 11
91.2
 21
0.0010749287239059
 31
0.0
  0
LINE
  5
E5
330
1F
100
AcDbEntity
  8
참조1
100
AcDbLine
 10
24.70000000000004
 20
0.0010749287238892
 30
0.0
 11
24.70000000000005
 21
-39.99892507127611
 31
0.0
  0
LINE
  5
E6
330
1F
100
AcDbEntity
  8
참조1
100
AcDbLine
 10
24.70000000000005
 20
-39.99892507127611
 30
0.0
 11
-9.508856814308633
 21
-39.9989250712761
 31
0.0
  0
CIRCLE
  5
E7
330
1F
100
AcDbEntity
  8
해칭선
100
AcDbCircle
 10
0.0
 20
0.0
 30
0.0
 40
3.000000000000001
  0
INSERT
  5
E8
330
1F
100
AcDbEntity
  8
0
  6
Continuous
 62
     7
100
AcDbBlockReference
 66
     1
  2
블럭10
 10
7.584727067874803
 20
-52.04609937292004
 30
0.0
  0
ATTRIB
  5
E9
330
E8
100
AcDbEntity
  8
FORMAT
 62
     2
100
AcDbText
 10
-1.596568220866477
 20
-49.97073246008785
 30
0.0
 40
4.233333333333333
  1
E2162048 [ 6 FLUTE ]
 41
0.75
  7
SLDTEXTSTYLE0
 11
-1.596568220866477
 21
-52.08739912675452
 31
0.0
100
AcDbAttribute
  2
AUTOATTR0
 70
     0
 74
     1
  0
SEQEND
  5
EA
330
E8
100
AcDbEntity
  8
0
  6
Continuous
 62
     7
  0
HATCH
  5
EB
330
1F
100
AcDbEntity
  8
중심선
100
AcDbHatch
 10
0.0
 20
0.0
 30
0.0
210
0.0
220
0.0
230
1.0
  2
SOLID
 70
     1
 71
     0
 91
        1
 92
        0
 93
        4
 72
     1
 10
13.29963637225565
 20
-35.7989250712761
 11
9.853361128418367
 21
-35.7989250712761
 72
     1
 10
9.853361128418367
 20
-35.7989250712761
 11
7.725131269214344
 21
-38.3352506518487
 72
     1
 10
7.725131269214345
 20
-38.3352506518487
 11
11.17143959816478
 21
-38.33521122254621
 72
     1
 10
11.17143959816478
 20
-38.33521122254621
 11
13.29963637225565
 21
-35.7989250712761
 97
        0
 75
     0
 76
     1
 98
        1
 10
-3.175000000000035
 20
0.0
  0
HATCH
  5
EC
330
1F
100
AcDbEntity
  8
중심선
100
AcDbHatch
 10
0.0
 20
0.0
 30
0.0
210
0.0
220
0.0
230
1.0
  2
SOLID
 70
     1
 71
     0
 91
        1
 92
        0
 93
        4
 72
     1
 10
18.31240036329165
 20
-35.79892507127608
 11
14.86612511945435
 21
-35.7989250712761
 72
     1
 10
14.86612511945435
 20
-35.7989250712761
 11
10.33498711109693
 21
-41.19892507127612
 72
     1
 10
10.33498711109693
 20
-41.19892507127612
 11
13.78126235493421
 21
-41.19892507127612
 72
     1
 10
13.78126235493421
 20
-41.19892507127612
 11
18.31240036329165
 21
-35.79892507127608
 97
        0
 75
     0
 76
     1
 98
        1
 10
-3.175000000000035
 20
0.0
  0
HATCH
  5
ED
330
1F
100
AcDbEntity
  8
중심선
100
AcDbHatch
 10
0.0
 20
0.0
 30
0.0
210
0.0
220
0.0
230
1.0
  2
SOLID
 70
     1
 71
     0
 91
        1
 92
        0
 93
        4
 72
     1
 10
23.32516435432752
 20
-35.79892507127608
 11
19.87888911049041
 21
-35.79892507127608
 72
     1
 10
19.87888911049041
 20
-35.79892507127608
 11
12.83045220860113
 21
-44.19892507127612
 72
     1
 10
12.83045220860113
 20
-44.19892507127612
 11
16.27672745243841
 21
-44.19892507127612
 72
     1
 10
16.27672745243841
 20
-44.19892507127612
 11
23.32516435432752
 21
-35.79892507127608
 97
        0
 75
     0
 76
     1
 98
        1
 10
-3.175000000000035
 20
0.0
  0
HATCH
  5
EE
330
1F
100
AcDbEntity
  8
중심선
100
AcDbHatch
 10
0.0
 20
0.0
 30
0.0
210
0.0
220
0.0
230
1.0
  2
SOLID
 70
     1
 71
     0
 91
        1
 92
        0
 93
        6
 72
     3
 10
28.1250547853397
 20
-39.99892507132738
 11
3.960054785062287
 21
1.540882976769353E-10
 40
0.3939339440162625
 50
17.09539180608436
 51
320.0019657685086
 73
     0
 72
     1
 10
29.80805444104029
 20
-38.58681907591443
 11
32.11335631474132
 21
-36.65249236586649
 72
     3
 10
28.12505478528685
 20
-39.99892507127625
 11
6.600054785286837
 21
-1.278976924368180E-13
 40
0.6363583540795974
 50
39.99873849337408
 51
368.4976242363725
 73
     1
 72
     1
 10
34.55038727718746
 20
-39.03892507120613
 11
26.80512209212278
 21
-39.03892507120613
 72
     1
 10
26.80512209212277
 20
-39.03892507120613
 11
26.80509704767684
 21
-40.95892507120602
 72
     1
 10
26.80509704767684
 20
-40.95892507120602
 11
31.24647681714888
 21
-40.95892507120599
 97
        0
 75
     0
 76
     1
 98
        1
 10
-3.175000000000035
 20
0.0
  0
DIMENSION
  5
EF
330
1F
100
AcDbEntity
  8
치수문자_일반주서
100
AcDbDimension
  2
_D
 10
-57.83249999999998
 20
-9.523925071276162
 30
0.0
 11
-57.83250000000002
 21
0.0010749287239009
 31
0.0
 70
   160
  1
%%c<>
 71
     2
 42
19.05000000000001
 52
-270.0
  3
SLDDIMSTYLE0
100
AcDbAlignedDimension
 13
-43.245
 23
9.5260749287239
 33
0.0
 14
-43.245
 24
-9.52392507127611
 34
0.0
 50
90.0000000000002
100
AcDbRotatedDimension
1001
ACAD
1000
DSTYLE
1002
{
1070
   171
1070
     6
1070
   273
1070
     7
1002
}
  0
DIMENSION
  5
104
330
1F
100
AcDbEntity
  8
치수문자_일반주서
100
AcDbDimension
  2
_D_1
 10
11.99999999999996
 20
31.99655326667847
 30
0.0
 11
50.1
 21
31.99655326667847
 31
0.0
 70
   160
  1
<>
 71
     2
 42
76.20000000000002
  3
SLDDIMSTYLE0
100
AcDbAlignedDimension
 13
88.2
 23
9.456566726087713
 33
0.0
 14
11.99999999999998
 24
9.213820121538152
 34
0.0
 50
0.0000000000000027
100
AcDbRotatedDimension
1001
ACAD
1000
DSTYLE
1002
{
1070
   171
1070
     6
1070
   273
1070
     7
1002
}
  0
DIMENSION
  5
118
330
1F
100
AcDbEntity
  8
치수문자_일반주서
100
AcDbDimension
  2
_D_2
 10
-45.15000000000001
 20
43.99655326667848
 30
0.0
 11
21.525
 21
43.99655326667848
 31
0.0
 70
   160
  1
<>
 71
     2
 42
133.35
  3
SLDDIMSTYLE0
100
AcDbAlignedDimension
 13
88.2
 23
9.456566726087713
 33
0.0
 14
-45.15
 24
7.6210749287239
 34
0.0
 50
0.0000000000000061
100
AcDbRotatedDimension
1001
ACAD
1000
DSTYLE
1002
{
1070
   171
1070
     6
1070
   273
1070
     7
1002
}
  0
DIMENSION
  5
12C
330
1F
100
AcDbEntity
  8
치수문자_일반주서
100
AcDbDimension
  2
_D_3
 10
107.5729952666896
 20
-9.523925071276032
 30
0.0
 11
107.5729952666894
 21
29.91132492872397
 31
0.0
 70
   160
  1
%%c<>
 71
     2
 42
19.05
 52
-270.0
  3
SLDDIMSTYLE0
100
AcDbAlignedDimension
 13
88.2
 23
9.526074928723897
 33
0.0
 14
88.2
 24
-9.523925071276107
 34
0.0
 50
90.0000000000002
100
AcDbRotatedDimension
1001
ACAD
1000
DSTYLE
1002
{
1070
   171
1070
     6
1070
   273
1070
     7
1002
}
  0
LINE
  5
13F
330
1F
100
AcDbEntity
  8
참조1
100
AcDbLine
 10
88.46348381534564
 20
7.441074928723896
 30
0.0
 11
88.46348381534564
 21
-7.438925071276109
 31
0.0
  0
LINE
  5
140
330
1F
100
AcDbEntity
  8
참조1
100
AcDbLine
 10
101.1634838153456
 20
5.441074928723896
 30
0.0
 11
88.46348381534564
 21
5.441074928723896
 31
0.0
  0
SOLID
  5
141
330
1F
100
AcDbEntity
  8
참조1
100
AcDbTrace
 10
88.46348381534564
 20
5.441074928723896
 30
0.0
 11
94.81348381534563
 21
4.425074928723896
 31
0.0
 12
94.81348381534563
 22
6.457074928723896
 32
0.0
 13
94.81348381534563
 23
6.457074928723896
 33
0.0
  0
LINE
  5
142
330
1F
100
AcDbEntity
  8
참조1
100
AcDbLine
 10
101.1634838153456
 20
-5.438925071276109
 30
0.0
 11
88.46348381534564
 21
-5.438925071276109
 31
0.0
  0
SOLID
  5
143
330
1F
100
AcDbEntity
  8
참조1
100
AcDbTrace
 10
88.46348381534564
 20
-5.438925071276109
 30
0.0
 11
94.81348381534563
 21
-6.454925071276109
 31
0.0
 12
94.81348381534563
 22
-4.422925071276109
 32
0.0
 13
94.81348381534563
 23
-4.422925071276109
 33
0.0
  0
MTEXT
  5
144
330
1F
100
AcDbEntity
  8
참조1
100
AcDbMText
 10
97.8609739078159
 20
10.98929157337383
 30
0.0
 40
3.5
 41
0.0
 71
     1
 72
     1
  1
A
  7
SLDTEXTSTYLE0
 73
     1
 44
1.0
  0
MTEXT
  5
145
330
1F
100
AcDbEntity
  8
참조1
100
AcDbMText
 10
97.8609739078159
 20
0.1092915733738251
 30
0.0
 40
3.5
 41
0.0
 71
     1
 72
     1
  1
A
  7
SLDTEXTSTYLE0
 73
     1
 44
1.0
  0
INSERT
  5
14C
330
1F
100
AcDbEntity
  8
해칭선
100
AcDbBlockReference
  2
SW_DOWELSYMBOL_0
 10
0.0
 20
0.0
 30
0.0
  0
LINE
  5
34C
330
1F
100
AcDbEntity
  8
외형선
  6
Continuous
370
    15
100
AcDbLine
 10
-25.14432499999998
 20
7.621074928723893
 30
0.0
 11
-13.56192499999997
 21
7.621074928723893
 31
0.0
  0
LINE
  5
34D
330
1F
100
AcDbEntity
  8
외형선
  6
Continuous
370
    15
100
AcDbLine
 10
-25.14432499999998
 20
7.621074928723878
 30
0.0
 11
-27.04932500000012
 21
9.526074928723908
 31
0.0
  0
LINE
  5
34E
330
1F
100
AcDbEntity
  8
외형선
  6
Continuous
370
    15
100
AcDbLine
 10
-13.56192499999997
 20
7.621074928723878
 30
0.0
 11
-11.656925
 21
9.526074928723908
 31
0.0
  0
LINE
  5
350
330
1F
100
AcDbEntity
  8
외형선
  6
Continuous
370
    15
100
AcDbLine
 10
-27.04932500000008
 20
9.526074928723894
 30
0.0
 11
-43.245
 21
9.526074928723894
 31
0.0
  0
ENDSEC
  0
SECTION
  2
OBJECTS
  0
DICTIONARY
  5
C
330
0
100
AcDbDictionary
281
     1
  3
ACAD_GROUP
350
D
  3
ACAD_IMAGE_VARS
350
170
  3
ACAD_LAYOUT
350
1A
  3
ACAD_MLINESTYLE
350
17
  3
ACAD_PLOTSETTINGS
350
19
  3
ACAD_PLOTSTYLENAME
350
E
  3
ACAD_SCALELIST
350
47
  3
APPDATA
350
16E
  3
DWGPROPS
350
374
  0
DICTIONARY
  5
22C
330
2
100
AcDbDictionary
280
     1
281
     1
  3
ACAD_LAYERSTATES
360
22D
  0
DICTIONARY
  5
D
102
{ACAD_REACTORS
330
C
102
}
330
C
100
AcDbDictionary
281
     1
  0
RASTERVARIABLES
  5
170
102
{ACAD_REACTORS
330
C
102
}
330
C
100
AcDbRasterVariables
 90
        0
 70
     1
 71
     1
 72
     1
  0
DICTIONARY
  5
1A
102
{ACAD_REACTORS
330
C
102
}
330
C
100
AcDbDictionary
281
     1
  3
Layout1
350
1E
  3
Layout2
350
26
  3
Model
350
22
  0
DICTIONARY
  5
17
102
{ACAD_REACTORS
330
C
102
}
330
C
100
AcDbDictionary
281
     1
  3
Standard
350
18
  0
DICTIONARY
  5
19
102
{ACAD_REACTORS
330
C
102
}
330
C
100
AcDbDictionary
281
     1
  0
ACDBDICTIONARYWDFLT
  5
E
102
{ACAD_REACTORS
330
C
102
}
330
C
100
AcDbDictionary
281
     1
  3
Normal
350
F
100
AcDbDictionaryWithDefault
340
F
  0
DICTIONARY
  5
47
102
{ACAD_REACTORS
330
C
102
}
330
C
100
AcDbDictionary
281
     1
  3
A0
350
48
  3
A1
350
49
  3
A2
350
4A
  3
A3
350
4B
  3
A4
350
4C
  3
A5
350
4D
  3
A6
350
4E
  3
A7
350
4F
  3
A8
350
50
  3
A9
350
51
  3
B0
350
52
  3
B1
350
53
  3
B2
350
54
  3
B3
350
55
  3
B4
350
56
  3
B5
350
57
  3
B6
350
58
  3
B7
350
59
  3
B8
350
5A
  3
B9
350
5B
  3
C0
350
5C
  3
C1
350
5D
  3
C2
350
5E
  3
C3
350
5F
  3
C4
350
60
  3
C5
350
61
  3
C6
350
62
  3
C7
350
63
  3
C8
350
64
  3
C9
350
65
  3
D0
350
66
  3
D1
350
67
  3
D2
350
68
  0
DICTIONARY
  5
16E
102
{ACAD_REACTORS
330
C
102
}
330
C
100
AcDbDictionary
281
     1
  0
XRECORD
  5
374
102
{ACAD_REACTORS
330
C
102
}
330
C
100
AcDbXrecord
280
     1
  1
DWGPROPS COOKIE
  2

  3

  4

  6

  7

  8
12016016
  9

300
=
301
=
302
=
303
=
304
=
305
=
306
=
307
=
308
=
309
=
 40
0.0
 41
2458323.065262327
 42
2458323.367320532
  1

 90
        0
  0
DICTIONARY
  5
22D
102
{ACAD_REACTORS
330
22C
102
}
330
22C
100
AcDbDictionary
281
     1
  0
LAYOUT
  5
1E
102
{ACAD_REACTORS
330
1A
102
}
330
1A
100
AcDbPlotSettings
  1

  2
none_device
  4

  6

 40
0.0
 41
0.0
 42
0.0
 43
0.0
 44
0.0
 45
0.0
 46
0.0
 47
0.0
 48
0.0
 49
0.0
140
0.0
141
0.0
142
1.0
143
1.0
 70
   688
 72
     1
 73
     0
 74
     5
  7

 75
    16
147
1.0
148
0.0
149
0.0
100
AcDbLayout
  1
Layout1
 70
     1
 71
     1
 10
0.0
 20
0.0
 11
420.0
 21
297.0
 12
0.0
 22
0.0
 32
0.0
 14
1.000000000000000E+20
 24
1.000000000000000E+20
 34
1.000000000000000E+20
 15
-1.000000000000000E+20
 25
-1.000000000000000E+20
 35
-1.000000000000000E+20
146
0.0
 13
0.0
 23
0.0
 33
0.0
 16
1.0
 26
0.0
 36
0.0
 17
0.0
 27
1.0
 37
0.0
 76
     0
330
1B
  0
LAYOUT
  5
26
102
{ACAD_REACTORS
330
1A
102
}
330
1A
100
AcDbPlotSettings
  1

  2
none_device
  4

  6

 40
0.0
 41
0.0
 42
0.0
 43
0.0
 44
0.0
 45
0.0
 46
0.0
 47
0.0
 48
0.0
 49
0.0
140
0.0
141
0.0
142
1.0
143
1.0
 70
   688
 72
     1
 73
     0
 74
     5
  7

 75
    16
147
1.0
148
0.0
149
0.0
100
AcDbLayout
  1
Layout2
 70
     1
 71
     2
 10
0.0
 20
0.0
 11
0.0
 21
0.0
 12
0.0
 22
0.0
 32
0.0
 14
0.0
 24
0.0
 34
0.0
 15
0.0
 25
0.0
 35
0.0
146
0.0
 13
0.0
 23
0.0
 33
0.0
 16
1.0
 26
0.0
 36
0.0
 17
0.0
 27
1.0
 37
0.0
 76
     0
330
23
  0
LAYOUT
  5
22
102
{ACAD_REACTORS
330
1A
102
}
330
1A
100
AcDbPlotSettings
  1

  2
none_device
  4
ANSI_A_(11.00_x_8.50_Inches)
  6

 40
6.35
 41
19.05
 42
6.35000508
 43
19.05000254
 44
279.4
 45
215.9
 46
53.41387424044488
 47
87.083128808136
 48
0.0
 49
0.0
140
0.0
141
0.0
142
0.035109169334301
143
1.0
 70
  1696
 72
     0
 73
     0
 74
     0
  7

 75
     0
147
0.0235690232323232
148
0.0
149
0.0
100
AcDbLayout
  1
Model
 70
     1
 71
     0
 10
0.0
 20
0.0
 11
420.0
 21
297.0
 12
0.0
 22
0.0
 32
0.0
 14
-62.20750000000006
 24
-49.97073246008785
 34
0.0
 15
108.1233286000229
 25
48.37155326667848
 35
0.0
146
0.0
 13
0.0
 23
0.0
 33
0.0
 16
1.0
 26
0.0
 36
0.0
 17
0.0
 27
1.0
 37
0.0
 76
     0
330
1F
331
29
  0
MLINESTYLE
  5
18
102
{ACAD_REACTORS
330
17
102
}
330
17
100
AcDbMlineStyle
  2
Standard
 70
     0
  3

 62
   256
 51
90.0
 52
90.0
 71
     2
 49
0.5
 62
   256
  6
BYLAYER
 49
-0.5
 62
   256
  6
BYLAYER
  0
ACDBPLACEHOLDER
  5
F
102
{ACAD_REACTORS
330
E
102
}
330
E
  0
SCALE
  5
48
102
{ACAD_REACTORS
330
47
102
}
330
47
100
AcDbScale
 70
     0
300
1:1
140
1.0
141
1.0
290
     1
  0
SCALE
  5
49
102
{ACAD_REACTORS
330
47
102
}
330
47
100
AcDbScale
 70
     0
300
1:2
140
1.0
141
2.0
290
     0
  0
SCALE
  5
4A
102
{ACAD_REACTORS
330
47
102
}
330
47
100
AcDbScale
 70
     0
300
1:4
140
1.0
141
4.0
290
     0
  0
SCALE
  5
4B
102
{ACAD_REACTORS
330
47
102
}
330
47
100
AcDbScale
 70
     0
300
1:5
140
1.0
141
5.0
290
     0
  0
SCALE
  5
4C
102
{ACAD_REACTORS
330
47
102
}
330
47
100
AcDbScale
 70
     0
300
1:8
140
1.0
141
8.0
290
     0
  0
SCALE
  5
4D
102
{ACAD_REACTORS
330
47
102
}
330
47
100
AcDbScale
 70
     0
300
1:10
140
1.0
141
10.0
290
     0
  0
SCALE
  5
4E
102
{ACAD_REACTORS
330
47
102
}
330
47
100
AcDbScale
 70
     0
300
1:16
140
1.0
141
16.0
290
     0
  0
SCALE
  5
4F
102
{ACAD_REACTORS
330
47
102
}
330
47
100
AcDbScale
 70
     0
300
1:20
140
1.0
141
20.0
290
     0
  0
SCALE
  5
50
102
{ACAD_REACTORS
330
47
102
}
330
47
100
AcDbScale
 70
     0
300
1:30
140
1.0
141
30.0
290
     0
  0
SCALE
  5
51
102
{ACAD_REACTORS
330
47
102
}
330
47
100
AcDbScale
 70
     0
300
1:40
140
1.0
141
40.0
290
     0
  0
SCALE
  5
52
102
{ACAD_REACTORS
330
47
102
}
330
47
100
AcDbScale
 70
     0
300
1:50
140
1.0
141
50.0
290
     0
  0
SCALE
  5
53
102
{ACAD_REACTORS
330
47
102
}
330
47
100
AcDbScale
 70
     0
300
1:100
140
1.0
141
100.0
290
     0
  0
SCALE
  5
54
102
{ACAD_REACTORS
330
47
102
}
330
47
100
AcDbScale
 70
     0
300
2:1
140
2.0
141
1.0
290
     0
  0
SCALE
  5
55
102
{ACAD_REACTORS
330
47
102
}
330
47
100
AcDbScale
 70
     0
300
4:1
140
4.0
141
1.0
290
     0
  0
SCALE
  5
56
102
{ACAD_REACTORS
330
47
102
}
330
47
100
AcDbScale
 70
     0
300
8:1
140
8.0
141
1.0
290
     0
  0
SCALE
  5
57
102
{ACAD_REACTORS
330
47
102
}
330
47
100
AcDbScale
 70
     0
300
10:1
140
10.0
141
1.0
290
     0
  0
SCALE
  5
58
102
{ACAD_REACTORS
330
47
102
}
330
47
100
AcDbScale
 70
     0
300
100:1
140
100.0
141
1.0
290
     0
  0
SCALE
  5
59
102
{ACAD_REACTORS
330
47
102
}
330
47
100
AcDbScale
 70
     0
300
1/128" = 1'-0"
140
0.0078125
141
12.0
290
     0
  0
SCALE
  5
5A
102
{ACAD_REACTORS
330
47
102
}
330
47
100
AcDbScale
 70
     0
300
1/64" = 1'-0"
140
0.015625
141
12.0
290
     0
  0
SCALE
  5
5B
102
{ACAD_REACTORS
330
47
102
}
330
47
100
AcDbScale
 70
     0
300
1/32" = 1'-0"
140
0.03125
141
12.0
290
     0
  0
SCALE
  5
5C
102
{ACAD_REACTORS
330
47
102
}
330
47
100
AcDbScale
 70
     0
300
1/16" = 1'-0"
140
0.0625
141
12.0
290
     0
  0
SCALE
  5
5D
102
{ACAD_REACTORS
330
47
102
}
330
47
100
AcDbScale
 70
     0
300
3/32" = 1'-0"
140
0.09375
141
12.0
290
     0
  0
SCALE
  5
5E
102
{ACAD_REACTORS
330
47
102
}
330
47
100
AcDbScale
 70
     0
300
1/8" = 1'-0"
140
0.125
141
12.0
290
     0
  0
SCALE
  5
5F
102
{ACAD_REACTORS
330
47
102
}
330
47
100
AcDbScale
 70
     0
300
3/16" = 1'-0"
140
0.1875
141
12.0
290
     0
  0
SCALE
  5
60
102
{ACAD_REACTORS
330
47
102
}
330
47
100
AcDbScale
 70
     0
300
1/4" = 1'-0"
140
0.25
141
12.0
290
     0
  0
SCALE
  5
61
102
{ACAD_REACTORS
330
47
102
}
330
47
100
AcDbScale
 70
     0
300
3/8" = 1'-0"
140
0.375
141
12.0
290
     0
  0
SCALE
  5
62
102
{ACAD_REACTORS
330
47
102
}
330
47
100
AcDbScale
 70
     0
300
1/2" = 1'-0"
140
0.5
141
12.0
290
     0
  0
SCALE
  5
63
102
{ACAD_REACTORS
330
47
102
}
330
47
100
AcDbScale
 70
     0
300
3/4" = 1'-0"
140
0.75
141
12.0
290
     0
  0
SCALE
  5
64
102
{ACAD_REACTORS
330
47
102
}
330
47
100
AcDbScale
 70
     0
300
1" = 1'-0"
140
1.0
141
12.0
290
     0
  0
SCALE
  5
65
102
{ACAD_REACTORS
330
47
102
}
330
47
100
AcDbScale
 70
     0
300
1-1/2" = 1'-0"
140
1.5
141
12.0
290
     0
  0
SCALE
  5
66
102
{ACAD_REACTORS
330
47
102
}
330
47
100
AcDbScale
 70
     0
300
3" = 1'-0"
140
3.0
141
12.0
290
     0
  0
SCALE
  5
67
102
{ACAD_REACTORS
330
47
102
}
330
47
100
AcDbScale
 70
     0
300
6" = 1'-0"
140
6.0
141
12.0
290
     0
  0
SCALE
  5
68
102
{ACAD_REACTORS
330
47
102
}
330
47
100
AcDbScale
 70
     0
300
1'-0" = 1'-0"
140
12.0
141
12.0
290
     0
  0
ENDSEC
  0
EOF
